  0
SECTION
  2
HEADER
  9
$ACADVER
  1
AC1015
  9
$ACADMAINTVER
 70
     6
  9
$DWGCODEPAGE
  3
ANSI_949
  9
$INSBASE
 10
0.0
 20
0.0
 30
0.0
  9
$EXTMIN
 10
-70.87500000000004
 20
-49.71142936356763
 30
0.0
  9
$EXTMAX
 10
76.173134414305
 20
49.73055141807178
 30
0.0
  9
$LIMMIN
 10
0.0
 20
0.0
  9
$LIMMAX
 10
420.0
 20
297.0
  9
$ORTHOMODE
 70
     0
  9
$REGENMODE
 70
     1
  9
$FILLMODE
 70
     1
  9
$QTEXTMODE
 70
     0
  9
$MIRRTEXT
 70
     1
  9
$LTSCALE
 40
1.0
  9
$ATTMODE
 70
     1
  9
$TEXTSIZE
 40
3.5
  9
$TRACEWID
 40
1.0
  9
$TEXTSTYLE
  7
Standard
  9
$CLAYER
  8
0
  9
$CELTYPE
  6
ByLayer
  9
$CECOLOR
 62
   256
  9
$CELTSCALE
 40
1.0
  9
$DISPSILH
 70
     0
  9
$DIMSCALE
 40
1.0
  9
$DIMASZ
 40
3.302
  9
$DIMEXO
 40
1.0
  9
$DIMDLI
 40
3.75
  9
$DIMRND
 40
0.0
  9
$DIMDLE
 40
0.0
  9
$DIMEXE
 40
1.0
  9
$DIMTP
 40
0.0
  9
$DIMTM
 40
0.0
  9
$DIMTXT
 40
3.5
  9
$DIMCEN
 40
2.5
  9
$DIMTSZ
 40
0.0
  9
$DIMTOL
 70
     0
  9
$DIMLIM
 70
     0
  9
$DIMTIH
 70
     1
  9
$DIMTOH
 70
     1
  9
$DIMSE1
 70
     0
  9
$DIMSE2
 70
     0
  9
$DIMTAD
 70
     1
  9
$DIMZIN
 70
     0
  9
$DIMBLK
  1

  9
$DIMASO
 70
     1
  9
$DIMSHO
 70
     1
  9
$DIMPOST
  1

  9
$DIMAPOST
  1

  9
$DIMALT
 70
     0
  9
$DIMALTD
 70
     3
  9
$DIMALTF
 40
0.0393700787401575
  9
$DIMLFAC
 40
1.0
  9
$DIMTOFL
 70
     1
  9
$DIMTVP
 40
0.0
  9
$DIMTIX
 70
     0
  9
$DIMSOXD
 70
     0
  9
$DIMSAH
 70
     0
  9
$DIMBLK1
  1

  9
$DIMBLK2
  1

  9
$DIMSTYLE
  2
ISO-25
  9
$DIMCLRD
 70
     0
  9
$DIMCLRE
 70
     0
  9
$DIMCLRT
 70
     0
  9
$DIMTFAC
 40
1.0
  9
$DIMGAP
 40
1.524
  9
$DIMJUST
 70
     0
  9
$DIMSD1
 70
     0
  9
$DIMSD2
 70
     0
  9
$DIMTOLJ
 70
     0
  9
$DIMTZIN
 70
     0
  9
$DIMALTZ
 70
     0
  9
$DIMALTTZ
 70
     0
  9
$DIMUPT
 70
     0
  9
$DIMDEC
 70
     2
  9
$DIMTDEC
 70
     2
  9
$DIMALTU
 70
     2
  9
$DIMALTTD
 70
     3
  9
$DIMTXSTY
  7
Standard
  9
$DIMAUNIT
 70
     0
  9
$DIMADEC
 70
     2
  9
$DIMALTRND
 40
0.0
  9
$DIMAZIN
 70
     0
  9
$DIMDSEP
 70
    44
  9
$DIMATFIT
 70
     3
  9
$DIMFRAC
 70
     0
  9
$DIMLDRBLK
  1

  9
$DIMLUNIT
 70
     2
  9
$DIMLWD
 70
    -2
  9
$DIMLWE
 70
    -2
  9
$DIMTMOVE
 70
     0
  9
$LUNITS
 70
     2
  9
$LUPREC
 70
     2
  9
$SKETCHINC
 40
1.0
  9
$FILLETRAD
 40
10.0
  9
$AUNITS
 70
     0
  9
$AUPREC
 70
     2
  9
$MENU
  1
.
  9
$ELEVATION
 40
0.0
  9
$PELEVATION
 40
0.0
  9
$THICKNESS
 40
0.0
  9
$LIMCHECK
 70
     0
  9
$CHAMFERA
 40
0.0
  9
$CHAMFERB
 40
0.0
  9
$CHAMFERC
 40
0.0
  9
$CHAMFERD
 40
0.0
  9
$SKPOLY
 70
     0
  9
$TDCREATE
 40
2458236.751508553
  9
$TDUCREATE
 40
2458236.376508553
  9
$TDUPDATE
 40
2458242.386878981
  9
$TDUUPDATE
 40
2458242.011878981
  9
$TDINDWG
 40
0.0343940162
  9
$TDUSRTIMER
 40
2458241.971072245
  9
$USRTIMER
 70
     1
  9
$ANGBASE
 50
0.0
  9
$ANGDIR
 70
     0
  9
$PDMODE
 70
     0
  9
$PDSIZE
 40
-1.0
  9
$PLINEWID
 40
0.0
  9
$SPLFRAME
 70
     0
  9
$SPLINETYPE
 70
     6
  9
$SPLINESEGS
 70
     8
  9
$HANDSEED
  5
185
  9
$SURFTAB1
 70
     6
  9
$SURFTAB2
 70
     6
  9
$SURFTYPE
 70
     6
  9
$SURFU
 70
     6
  9
$SURFV
 70
     6
  9
$UCSBASE
  2

  9
$UCSNAME
  2

  9
$UCSORG
 10
0.0
 20
0.0
 30
0.0
  9
$UCSXDIR
 10
1.0
 20
0.0
 30
0.0
  9
$UCSYDIR
 10
0.0
 20
1.0
 30
0.0
  9
$UCSORTHOREF
  2

  9
$UCSORTHOVIEW
 70
     0
  9
$UCSORGTOP
 10
0.0
 20
0.0
 30
0.0
  9
$UCSORGBOTTOM
 10
0.0
 20
0.0
 30
0.0
  9
$UCSORGLEFT
 10
0.0
 20
0.0
 30
0.0
  9
$UCSORGRIGHT
 10
0.0
 20
0.0
 30
0.0
  9
$UCSORGFRONT
 10
0.0
 20
0.0
 30
0.0
  9
$UCSORGBACK
 10
0.0
 20
0.0
 30
0.0
  9
$PUCSBASE
  2

  9
$PUCSNAME
  2

  9
$PUCSORG
 10
0.0
 20
0.0
 30
0.0
  9
$PUCSXDIR
 10
1.0
 20
0.0
 30
0.0
  9
$PUCSYDIR
 10
0.0
 20
1.0
 30
0.0
  9
$PUCSORTHOREF
  2

  9
$PUCSORTHOVIEW
 70
     0
  9
$PUCSORGTOP
 10
0.0
 20
0.0
 30
0.0
  9
$PUCSORGBOTTOM
 10
0.0
 20
0.0
 30
0.0
  9
$PUCSORGLEFT
 10
0.0
 20
0.0
 30
0.0
  9
$PUCSORGRIGHT
 10
0.0
 20
0.0
 30
0.0
  9
$PUCSORGFRONT
 10
0.0
 20
0.0
 30
0.0
  9
$PUCSORGBACK
 10
0.0
 20
0.0
 30
0.0
  9
$USERI1
 70
     0
  9
$USERI2
 70
     0
  9
$USERI3
 70
     0
  9
$USERI4
 70
     0
  9
$USERI5
 70
     0
  9
$USERR1
 40
0.0
  9
$USERR2
 40
0.0
  9
$USERR3
 40
0.0
  9
$USERR4
 40
0.0
  9
$USERR5
 40
0.0
  9
$WORLDVIEW
 70
     1
  9
$SHADEDGE
 70
     3
  9
$SHADEDIF
 70
    70
  9
$TILEMODE
 70
     1
  9
$MAXACTVP
 70
    64
  9
$PINSBASE
 10
0.0
 20
0.0
 30
0.0
  9
$PLIMCHECK
 70
     0
  9
$PEXTMIN
 10
1.000000000000000E+20
 20
1.000000000000000E+20
 30
1.000000000000000E+20
  9
$PEXTMAX
 10
-1.000000000000000E+20
 20
-1.000000000000000E+20
 30
-1.000000000000000E+20
  9
$PLIMMIN
 10
0.0
 20
0.0
  9
$PLIMMAX
 10
0.0
 20
0.0
  9
$UNITMODE
 70
     0
  9
$VISRETAIN
 70
     1
  9
$PLINEGEN
 70
     0
  9
$PSLTSCALE
 70
     1
  9
$TREEDEPTH
 70
  3020
  9
$CMLSTYLE
  2
Standard
  9
$CMLJUST
 70
     0
  9
$CMLSCALE
 40
20.0
  9
$PROXYGRAPHICS
 70
     1
  9
$MEASUREMENT
 70
     1
  9
$CELWEIGHT
370
    -1
  9
$ENDCAPS
280
     0
  9
$JOINSTYLE
280
     0
  9
$LWDISPLAY
290
     1
  9
$INSUNITS
 70
     4
  9
$HYPERLINKBASE
  1

  9
$STYLESHEET
  1

  9
$XEDIT
290
     1
  9
$CEPSNTYPE
380
     0
  9
$PSTYLEMODE
290
     1
  9
$FINGERPRINTGUID
  2
{92629A98-5F72-4671-8CFA-4311F606658D}
  9
$VERSIONGUID
  2
{FAEB1C32-E019-11D5-929B-00C0DF256EC4}
  9
$EXTNAMES
290
     1
  9
$PSVPSCALE
 40
0.0
  9
$OLESTARTUP
290
     0
  0
ENDSEC
  0
SECTION
  2
CLASSES
  0
CLASS
  1
ACDBDICTIONARYWDFLT
  2
AcDbDictionaryWithDefault
  3
ObjectDBX Classes
 90
        0
280
     0
281
     0
  0
CLASS
  1
VISUALSTYLE
  2
AcDbVisualStyle
  3
ObjectDBX Classes
 90
     4095
280
     0
281
     0
  0
CLASS
  1
MATERIAL
  2
AcDbMaterial
  3
ObjectDBX Classes
 90
     1153
280
     0
281
     0
  0
CLASS
  1
SCALE
  2
AcDbScale
  3
ObjectDBX Classes
 90
     1153
280
     0
281
     0
  0
CLASS
  1
SUN
  2
AcDbSun
  3
SCENEOE
 90
     1153
280
     0
281
     0
  0
CLASS
  1
ACDBPLACEHOLDER
  2
AcDbPlaceHolder
  3
ObjectDBX Classes
 90
        0
280
     0
281
     0
  0
CLASS
  1
LAYOUT
  2
AcDbLayout
  3
ObjectDBX Classes
 90
        0
280
     0
281
     0
  0
CLASS
  1
TABLESTYLE
  2
AcDbTableStyle
  3
ObjectDBX Classes
 90
     4095
280
     0
281
     0
  0
CLASS
  1
MLEADERSTYLE
  2
AcDbMLeaderStyle
  3
ACDB_MLEADERSTYLE_CLASS
 90
     4095
280
     0
281
     0
  0
CLASS
  1
RASTERVARIABLES
  2
AcDbRasterVariables
  3
ISM
 90
        0
280
     0
281
     0
  0
CLASS
  1
DIMASSOC
  2
AcDbDimAssoc
  3
"AcDbDimAssoc|Product Desc:     AcDim ARX App For Dimension|Company:          Autodesk, Inc.|WEB Address:      www.autodesk.com"
 90
        0
280
     0
281
     0
  0
ENDSEC
  0
SECTION
  2
TABLES
  0
TABLE
  2
VPORT
  5
8
330
0
100
AcDbSymbolTable
 70
     1
  0
VPORT
  5
29
330
8
100
AcDbSymbolTableRecord
100
AcDbViewportTableRecord
  2
*Active
 70
     0
 10
0.0
 20
0.0
 11
1.0
 21
1.0
 12
16.48508877914645
 22
-4.323882508287163
 13
0.0
 23
0.0
 14
10.0
 24
10.0
 15
10.0
 25
10.0
 16
0.0
 26
0.0
 36
1.0
 17
0.0
 27
0.0
 37
0.0
 40
215.109491694601
 41
1.328320802005013
 42
50.0
 43
0.0
 44
0.0
 50
0.0
 51
0.0
 71
    16
 72
  2000
 73
     1
 74
     3
 75
     0
 76
     0
 77
     0
 78
     0
281
     0
 65
     1
110
0.0
120
0.0
130
0.0
111
1.0
121
0.0
131
0.0
112
0.0
122
1.0
132
0.0
 79
     0
146
0.0
  0
ENDTAB
  0
TABLE
  2
LTYPE
  5
5
330
0
100
AcDbSymbolTable
 70
     6
  0
LTYPE
  5
14
330
5
100
AcDbSymbolTableRecord
100
AcDbLinetypeTableRecord
  2
ByBlock
 70
     0
  3

 72
    65
 73
     0
 40
0.0
  0
LTYPE
  5
15
330
5
100
AcDbSymbolTableRecord
100
AcDbLinetypeTableRecord
  2
ByLayer
 70
     0
  3

 72
    65
 73
     0
 40
0.0
  0
LTYPE
  5
16
330
5
100
AcDbSymbolTableRecord
100
AcDbLinetypeTableRecord
  2
Continuous
 70
     0
  3
Solid line
 72
    65
 73
     0
 40
0.0
  0
LTYPE
  5
6A
330
5
100
AcDbSymbolTableRecord
100
AcDbLinetypeTableRecord
  2
HIDDEN
 70
     0
  3
Hidden __ __ __ __ __ __ __ __ __ __ __ __ __ __
 72
    65
 73
     2
 40
1.905
 49
1.27
 74
     0
 49
-0.635
 74
     0
  0
LTYPE
  5
6B
330
5
100
AcDbSymbolTableRecord
100
AcDbLinetypeTableRecord
  2
PHANTOM
 70
     0
  3
Phantom ______  __  __  ______  __  __  ______
 72
    65
 73
     6
 40
12.7
 49
6.35
 74
     0
 49
-1.27
 74
     0
 49
1.27
 74
     0
 49
-1.27
 74
     0
 49
1.27
 74
     0
 49
-1.27
 74
     0
  0
LTYPE
  5
6C
330
5
100
AcDbSymbolTableRecord
100
AcDbLinetypeTableRecord
  2
CENTER
 70
     0
  3
Center ____ _ ____ _ ____ _ ____ _ ____ _ ____
 72
    65
 73
     4
 40
10.16
 49
6.35
 74
     0
 49
-1.27
 74
     0
 49
1.27
 74
     0
 49
-1.27
 74
     0
  0
LTYPE
  5
6D
330
5
100
AcDbSymbolTableRecord
100
AcDbLinetypeTableRecord
  2
CENTERX2
 70
     0
  3
Center (2x) ________  __  ________  __  _____
 72
    65
 73
     4
 40
20.32
 49
12.7
 74
     0
 49
-2.54
 74
     0
 49
2.54
 74
     0
 49
-2.54
 74
     0
  0
LTYPE
  5
6E
330
5
100
AcDbSymbolTableRecord
100
AcDbLinetypeTableRecord
  2
DOT2
 70
     0
  3
Dot (.5x) ........................................
 72
    65
 73
     2
 40
0.635
 49
0.0
 74
     0
 49
-0.635
 74
     0
  0
ENDTAB
  0
TABLE
  2
LAYER
  5
2
330
0
100
AcDbSymbolTable
 70
    17
  0
LAYER
  5
10
330
2
100
AcDbSymbolTableRecord
100
AcDbLayerTableRecord
  2
0
 70
     0
 62
     7
  6
Continuous
370
    -3
390
F
  0
LAYER
  5
6F
330
2
100
AcDbSymbolTableRecord
100
AcDbLayerTableRecord
  2
FORMAT
 70
     0
 62
     2
  6
Continuous
370
    -3
390
F
  0
LAYER
  5
70
330
2
100
AcDbSymbolTableRecord
100
AcDbLayerTableRecord
  2
외형선
 70
     0
 62
   100
  6
Continuous
370
    30
390
F
  0
LAYER
  5
71
330
2
100
AcDbSymbolTableRecord
100
AcDbLayerTableRecord
  2
숨은선
 70
     0
 62
     2
  6
HIDDEN
370
    15
390
F
  0
LAYER
  5
72
330
2
100
AcDbSymbolTableRecord
100
AcDbLayerTableRecord
  2
중심선
 70
     0
 62
     1
  6
CENTERX2
370
    -3
390
F
  0
LAYER
  5
73
330
2
100
AcDbSymbolTableRecord
100
AcDbLayerTableRecord
  2
파단선
 70
     0
 62
     4
  6
Continuous
370
    -3
390
F
  0
LAYER
  5
74
330
2
100
AcDbSymbolTableRecord
100
AcDbLayerTableRecord
  2
해칭선
 70
     0
 62
     4
  6
Continuous
370
    -3
390
F
  0
LAYER
  5
75
330
2
100
AcDbSymbolTableRecord
100
AcDbLayerTableRecord
  2
가는실선
 70
     0
 62
     4
  6
Continuous
370
    -3
390
F
  0
LAYER
  5
76
330
2
100
AcDbSymbolTableRecord
100
AcDbLayerTableRecord
  2
치수_보조선
 70
     0
 62
     4
  6
Continuous
370
    -3
390
F
  0
LAYER
  5
77
330
2
100
AcDbSymbolTableRecord
100
AcDbLayerTableRecord
  2
치수문자_일반주서
 70
     0
 62
     7
  6
Continuous
370
    15
390
F
  0
LAYER
  5
78
330
2
100
AcDbSymbolTableRecord
100
AcDbLayerTableRecord
  2
개별주서
 70
     0
 62
   100
  6
Continuous
370
    30
390
F
  0
LAYER
  5
79
330
2
100
AcDbSymbolTableRecord
100
AcDbLayerTableRecord
  2
중간선
 70
     0
 62
     2
  6
Continuous
370
    15
390
F
  0
LAYER
  5
7A
330
2
100
AcDbSymbolTableRecord
100
AcDbLayerTableRecord
  2
윤곽선
 70
     0
 62
     3
  6
Continuous
370
    40
390
F
  0
LAYER
  5
7B
330
2
100
AcDbSymbolTableRecord
100
AcDbLayerTableRecord
  2
중심마크
 70
     0
 62
   100
  6
Continuous
370
    30
390
F
  0
LAYER
  5
7C
330
2
100
AcDbSymbolTableRecord
100
AcDbLayerTableRecord
  2
가상선
 70
     0
 62
     4
  6
PHANTOM
370
    -3
390
F
  0
LAYER
  5
7D
330
2
100
AcDbSymbolTableRecord
100
AcDbLayerTableRecord
  2
특수지정선
 70
     0
 62
     5
  6
CENTERX2
370
    60
390
F
  0
LAYER
  5
161
330
2
100
AcDbSymbolTableRecord
100
AcDbLayerTableRecord
  2
Defpoints
 70
     0
 62
     7
  6
Continuous
290
     0
370
    -3
390
F
  0
ENDTAB
  0
TABLE
  2
STYLE
  5
3
330
0
100
AcDbSymbolTable
 70
     2
  0
STYLE
  5
11
330
3
100
AcDbSymbolTableRecord
100
AcDbTextStyleTableRecord
  2
Standard
 70
     0
 40
0.0
 41
1.0
 50
0.0
 71
     0
 42
3.5
  3
txt
  4

  0
STYLE
  5
93
330
3
100
AcDbSymbolTableRecord
100
AcDbTextStyleTableRecord
  2
SLDTEXTSTYLE0
 70
     0
 40
0.0
 41
0.75
 50
0.0
 71
     0
 42
3.5
  3
TXT
  4

  0
ENDTAB
  0
TABLE
  2
VIEW
  5
6
330
0
100
AcDbSymbolTable
 70
     0
  0
ENDTAB
  0
TABLE
  2
UCS
  5
7
330
0
100
AcDbSymbolTable
 70
     0
  0
ENDTAB
  0
TABLE
  2
APPID
  5
9
330
0
100
AcDbSymbolTable
 70
     3
  0
APPID
  5
12
330
9
100
AcDbSymbolTableRecord
100
AcDbRegAppTableRecord
  2
ACAD
 70
     0
  0
APPID
  5
160
330
9
100
AcDbSymbolTableRecord
100
AcDbRegAppTableRecord
  2
ACAD_DSTYLE_DIMRADIAL_EXTENSION
 70
     0
  0
APPID
  5
175
330
9
100
AcDbSymbolTableRecord
100
AcDbRegAppTableRecord
  2
PE_DIMMEASUREMENT
 70
     0
  0
ENDTAB
  0
TABLE
  2
DIMSTYLE
  5
A
330
0
100
AcDbSymbolTable
 70
     3
100
AcDbDimStyleTable
  0
DIMSTYLE
105
27
330
A
100
AcDbSymbolTableRecord
100
AcDbDimStyleTableRecord
  2
ISO-25
 70
     0
 41
2.5
 42
0.625
 43
3.75
 44
1.25
 73
     0
 74
     0
 77
     1
 78
     8
140
2.5
141
2.5
143
0.03937007874016
147
0.625
171
     3
172
     1
178
     0
271
     2
272
     2
274
     3
278
    44
283
     0
284
     8
340
11
  0
DIMSTYLE
105
FA
330
A
100
AcDbSymbolTableRecord
100
AcDbDimStyleTableRecord
  2
SLDDIMSTYLE0
 70
     0
 41
3.302
 44
0.0
 45
0.000000001
 73
     0
 74
     0
 77
     1
 78
     4
 79
     1
140
3.5
143
0.0393700787401575
147
0.875
148
0.000000001
170
     1
173
     1
178
     0
271
     2
272
     2
276
     2
284
    12
340
93
  0
DIMSTYLE
105
121
102
{ACAD_REACTORS
330
120
330
165
330
F9
330
10D
330
177
102
}
330
A
100
AcDbSymbolTableRecord
100
AcDbDimStyleTableRecord
  2
SLDDIMSTYLE1
 70
     0
 41
3.302
 44
0.0
 45
0.000000001
 73
     0
 74
     0
 77
     1
 78
     4
 79
     1
140
3.5
143
0.0393700787401575
147
0.875
148
0.000000001
170
     1
172
     1
173
     1
178
     0
271
     2
272
     2
276
     2
284
    12
289
     0
340
93
  0
ENDTAB
  0
TABLE
  2
BLOCK_RECORD
  5
1
330
0
100
AcDbSymbolTable
 70
     8
  0
BLOCK_RECORD
  5
1F
330
1
100
AcDbSymbolTableRecord
100
AcDbBlockTableRecord
  2
*Model_Space
340
22
  0
BLOCK_RECORD
  5
1B
330
1
100
AcDbSymbolTableRecord
100
AcDbBlockTableRecord
  2
*Paper_Space
340
1E
  0
BLOCK_RECORD
  5
23
330
1
100
AcDbSymbolTableRecord
100
AcDbBlockTableRecord
  2
*Paper_Space0
340
26
  0
BLOCK_RECORD
  5
7E
330
1
100
AcDbSymbolTableRecord
100
AcDbBlockTableRecord
  2
블럭10
340
0
102
{BLKREFS
331
F1
102
}
  0
BLOCK_RECORD
  5
FB
330
1
100
AcDbSymbolTableRecord
100
AcDbBlockTableRecord
  2
_D
340
0
  0
BLOCK_RECORD
  5
10E
330
1
100
AcDbSymbolTableRecord
100
AcDbBlockTableRecord
  2
_D_1
340
0
  0
BLOCK_RECORD
  5
122
330
1
100
AcDbSymbolTableRecord
100
AcDbBlockTableRecord
  2
_D_2
340
0
  0
BLOCK_RECORD
  5
135
330
1
100
AcDbSymbolTableRecord
100
AcDbBlockTableRecord
  2
SW_DOWELSYMBOL_0
340
0
102
{BLKREFS
331
13B
102
}
  0
BLOCK_RECORD
  5
168
330
1
100
AcDbSymbolTableRecord
100
AcDbBlockTableRecord
  2
*D6
340
0
  0
BLOCK_RECORD
  5
17A
330
1
100
AcDbSymbolTableRecord
100
AcDbBlockTableRecord
  2
*D7
340
0
  0
ENDTAB
  0
ENDSEC
  0
SECTION
  2
BLOCKS
  0
BLOCK
  5
20
330
1F
100
AcDbEntity
  8
0
100
AcDbBlockBegin
  2
*Model_Space
 70
     0
 10
0.0
 20
0.0
 30
0.0
  3
*Model_Space
  1
*Model_Space
  0
ENDBLK
  5
21
330
1F
100
AcDbEntity
  8
0
100
AcDbBlockEnd
  0
BLOCK
  5
1C
330
1B
100
AcDbEntity
 67
     1
  8
0
100
AcDbBlockBegin
  2
*Paper_Space
 70
     0
 10
0.0
 20
0.0
 30
0.0
  3
*Paper_Space
  1
*Paper_Space
  0
ENDBLK
  5
1D
330
1B
100
AcDbEntity
 67
     1
  8
0
100
AcDbBlockEnd
  0
BLOCK
  5
24
330
23
100
AcDbEntity
  8
0
100
AcDbBlockBegin
  2
*Paper_Space0
 70
     0
 10
0.0
 20
0.0
 30
0.0
  3
*Paper_Space0
  1
*Paper_Space0
  0
ENDBLK
  5
25
330
23
100
AcDbEntity
  8
0
100
AcDbBlockEnd
  0
BLOCK
  5
7F
330
7E
100
AcDbEntity
  8
0
100
AcDbBlockBegin
  2
블럭10
 70
     2
 10
0.0
 20
0.0
 30
0.0
  3
블럭10
  1
블럭10
  0
ELLIPSE
  5
81
330
7E
100
AcDbEntity
  8
중심선
100
AcDbEllipse
 10
20.54032771741204
 20
12.0471743016438
 30
0.0
 11
6.600054785286829
 21
-1.261213355974178E-13
 31
0.0
210
0.0
220
0.0
230
1.0
 40
0.636358354079598
 41
0.9219305317359503
 42
6.513795318482858
  0
ELLIPSE
  5
82
330
7E
100
AcDbEntity
  8
중심선
100
AcDbEllipse
 10
20.54032771746488
 20
12.04717430159265
 30
0.0
 11
3.960054785062283
 21
1.540847449632565E-10
 31
0.0
210
0.0
220
0.0
230
1.0
 40
0.3939339440162632
 41
1.131841032648279
 42
5.62031148352944
  0
LINE
  5
83
330
7E
100
AcDbEntity
  8
중심선
100
AcDbLine
 10
2.268634060543552
 20
16.24717430164393
 30
0.0
 11
5.714909304380834
 21
16.24717430164393
 31
0.0
  0
LINE
  5
84
330
7E
100
AcDbEntity
  8
중심선
100
AcDbLine
 10
5.245725140726316
 20
7.84717430164391
 30
0.0
 11
8.692000384563599
 21
7.84717430164391
 31
0.0
  0
LINE
  5
85
330
7E
100
AcDbEntity
  8
중심선
100
AcDbLine
 10
15.74043728645272
 20
16.24717430164393
 30
0.0
 11
8.692000384563599
 21
7.84717430164391
 31
0.0
  0
LINE
  5
86
330
7E
100
AcDbEntity
  8
중심선
100
AcDbLine
 10
0.1404042013395286
 20
13.71084872107135
 30
0.0
 11
3.58671253028996
 21
13.71088815037384
 31
0.0
  0
LINE
  5
87
330
7E
100
AcDbEntity
  8
중심선
100
AcDbLine
 10
2.750260043222114
 20
10.84717430164391
 30
0.0
 11
6.196535287059397
 21
10.84717430164391
 31
0.0
  0
LINE
  5
88
330
7E
100
AcDbEntity
  8
중심선
100
AcDbLine
 10
12.29416204261559
 20
16.24717430164393
 30
0.0
 11
5.245725140726316
 21
7.84717430164391
 31
0.0
  0
LINE
  5
89
330
7E
100
AcDbEntity
  8
중심선
100
AcDbLine
 10
10.72767329541681
 20
16.24717430164393
 30
0.0
 11
6.196535287059397
 21
10.84717430164391
 31
0.0
  0
LINE
  5
8A
330
7E
100
AcDbEntity
  8
중심선
100
AcDbLine
 10
7.28139805157953
 20
16.24717430164393
 30
0.0
 11
2.750260043222114
 21
10.84717430164391
 31
0.0
  0
LINE
  5
8B
330
7E
100
AcDbEntity
  8
중심선
100
AcDbLine
 10
5.714909304380834
 20
16.24717430164393
 30
0.0
 11
3.58671253028996
 21
13.71088815037384
 31
0.0
  0
LINE
  5
8C
330
7E
100
AcDbEntity
  8
중심선
100
AcDbLine
 10
2.268634060543552
 20
16.24717430164393
 30
0.0
 11
0.1404042013395286
 21
13.71084872107135
 31
0.0
  0
LINE
  5
8D
330
7E
100
AcDbEntity
  8
중심선
100
AcDbLine
 10
7.28139805157953
 20
16.24717430164393
 30
0.0
 11
10.72767329541681
 21
16.24717430164393
 31
0.0
  0
LINE
  5
8E
330
7E
100
AcDbEntity
  8
중심선
100
AcDbLine
 10
12.29416204261559
 20
16.24717430164393
 30
0.0
 11
15.74043728645272
 21
16.24717430164393
 31
0.0
  0
LINE
  5
8F
330
7E
100
AcDbEntity
  8
중심선
100
AcDbLine
 10
19.22036997980202
 20
11.08717430171403
 30
0.0
 11
23.66174974927406
 21
11.08717430171406
 31
0.0
  0
LINE
  5
90
330
7E
100
AcDbEntity
  8
중심선
100
AcDbLine
 10
19.22039502424796
 20
13.00717430171391
 30
0.0
 11
19.22036997980202
 21
11.08717430171403
 31
0.0
  0
LINE
  5
91
330
7E
100
AcDbEntity
  8
중심선
100
AcDbLine
 10
19.22039502424796
 20
13.00717430171391
 30
0.0
 11
26.96566020931264
 21
13.00717430171391
 31
0.0
  0
LINE
  5
92
330
7E
100
AcDbEntity
  8
중심선
100
AcDbLine
 10
22.22332737316547
 20
13.45928029700563
 30
0.0
 11
24.52862924686651
 21
15.39360700705356
 31
0.0
  0
ATTDEF
  5
94
330
7E
100
AcDbEntity
  8
FORMAT
 62
     2
100
AcDbText
 10
-11.05102035218446
 20
2.075366912832191
 30
0.0
 40
4.233333333333333
  1
GMG22949[ 6 FLUTE ]
 41
0.75
  7
SLDTEXTSTYLE0
 11
-11.05102035218446
 21
-0.0412997538344756
 31
0.0
100
AcDbAttributeDefinition
  3

  2
AUTOATTR0
 70
     0
 74
     1
  0
ENDBLK
  5
80
330
7E
100
AcDbEntity
  8
0
100
AcDbBlockEnd
  0
BLOCK
  5
FC
330
FB
100
AcDbEntity
  8
0
100
AcDbBlockBegin
  2
_D
 70
     0
 10
0.0
 20
0.0
 30
0.0
  3
_D
  1
_D
  0
LINE
  5
FE
330
FB
100
AcDbEntity
  8
치수문자_일반주서
 62
     0
370
    -2
100
AcDbLine
 10
-53.49999999999999
 20
12.26249999999999
 30
0.0
 11
-53.49999999999999
 21
45.35555141807178
 31
0.0
  0
LINE
  5
FF
330
FB
100
AcDbEntity
  8
치수문자_일반주서
 62
     0
370
    -2
100
AcDbLine
 10
48.10000000000001
 20
11.2385
 30
0.0
 11
48.10000000000001
 21
45.35555141807178
 31
0.0
  0
LINE
  5
100
330
FB
100
AcDbEntity
  8
치수문자_일반주서
 62
     0
370
    -2
100
AcDbLine
 10
-50.19799999999999
 20
45.35555141807178
 30
0.0
 11
44.79800000000001
 21
45.35555141807178
 31
0.0
  0
SOLID
  5
101
330
FB
100
AcDbEntity
  8
치수문자_일반주서
 62
     0
100
AcDbTrace
 10
-50.19799999999999
 20
45.90588475140511
 30
0.0
 11
-50.19799999999999
 21
44.80521808473844
 31
0.0
 12
-53.49999999999999
 22
45.35555141807178
 32
0.0
 13
-53.49999999999999
 23
45.35555141807178
 33
0.0
  0
SOLID
  5
102
330
FB
100
AcDbEntity
  8
치수문자_일반주서
 62
     0
100
AcDbTrace
 10
44.79800000000001
 20
44.80521808473844
 30
0.0
 11
44.79800000000001
 21
45.90588475140511
 31
0.0
 12
48.10000000000001
 22
45.35555141807178
 32
0.0
 13
48.10000000000001
 23
45.35555141807178
 33
0.0
  0
MTEXT
  5
103
330
FB
100
AcDbEntity
  8
치수문자_일반주서
 62
     0
100
AcDbMText
 10
-2.699999999999978
 20
49.73055141807178
 30
0.0
 40
3.5
 41
0.0
 71
     2
 72
     1
  1
\A1;101.60 [4]
  7
SLDTEXTSTYLE0
 73
     1
 44
1.0
  0
POINT
  5
104
330
FB
100
AcDbEntity
  8
Defpoints
 62
     0
100
AcDbPoint
 10
-53.49999999999999
 20
12.19999999999999
 30
0.0
  0
POINT
  5
105
330
FB
100
AcDbEntity
  8
Defpoints
 62
     0
100
AcDbPoint
 10
48.10000000000001
 20
11.176
 30
0.0
  0
POINT
  5
106
330
FB
100
AcDbEntity
  8
Defpoints
 62
     0
100
AcDbPoint
 10
48.10000000000001
 20
45.35555141807178
 30
0.0
  0
ENDBLK
  5
FD
330
FB
100
AcDbEntity
  8
0
100
AcDbBlockEnd
  0
BLOCK
  5
10F
330
10E
100
AcDbEntity
  8
0
100
AcDbBlockBegin
  2
_D_1
 70
     0
 10
0.0
 20
0.0
 30
0.0
  3
_D_1
  1
_D_1
  0
LINE
  5
111
330
10E
100
AcDbEntity
  8
치수문자_일반주서
 62
     0
370
    -2
100
AcDbLine
 10
48.10000000000001
 20
11.2385
 30
0.0
 11
48.10000000000001
 21
28.80299453033793
 31
0.0
  0
LINE
  5
112
330
10E
100
AcDbEntity
  8
치수문자_일반주서
 62
     0
370
    -2
100
AcDbLine
 10
10.0
 20
-12.29612325966307
 30
0.0
 11
10.0
 21
28.80299453033793
 31
0.0
  0
LINE
  5
113
330
10E
100
AcDbEntity
  8
치수문자_일반주서
 62
     0
370
    -2
100
AcDbLine
 10
44.79800000000001
 20
28.80299453033793
 30
0.0
 11
13.302
 21
28.80299453033793
 31
0.0
  0
SOLID
  5
114
330
10E
100
AcDbEntity
  8
치수문자_일반주서
 62
     0
100
AcDbTrace
 10
44.79800000000001
 20
28.2526611970046
 30
0.0
 11
44.79800000000001
 21
29.35332786367126
 31
0.0
 12
48.10000000000001
 22
28.80299453033793
 32
0.0
 13
48.10000000000001
 23
28.80299453033793
 33
0.0
  0
SOLID
  5
115
330
10E
100
AcDbEntity
  8
치수문자_일반주서
 62
     0
100
AcDbTrace
 10
13.302
 20
29.35332786367126
 30
0.0
 11
13.302
 21
28.2526611970046
 31
0.0
 12
10.0
 22
28.80299453033793
 32
0.0
 13
10.0
 23
28.80299453033793
 33
0.0
  0
MTEXT
  5
116
330
10E
100
AcDbEntity
  8
치수문자_일반주서
 62
     0
100
AcDbMText
 10
28.63090169785223
 20
33.17799453033793
 30
0.0
 40
3.5
 41
0.0
 71
     2
 72
     1
  1
\A1;38.10 [1 1/2]
  7
SLDTEXTSTYLE0
 73
     1
 44
1.0
  0
POINT
  5
117
330
10E
100
AcDbEntity
  8
Defpoints
 62
     0
100
AcDbPoint
 10
48.10000000000001
 20
11.176
 30
0.0
  0
POINT
  5
118
330
10E
100
AcDbEntity
  8
Defpoints
 62
     0
100
AcDbPoint
 10
10.0
 20
-12.35862325966307
 30
0.0
  0
POINT
  5
119
330
10E
100
AcDbEntity
  8
Defpoints
 62
     0
100
AcDbPoint
 10
10.0
 20
28.80299453033793
 30
0.0
  0
ENDBLK
  5
110
330
10E
100
AcDbEntity
  8
0
100
AcDbBlockEnd
  0
BLOCK
  5
123
330
122
100
AcDbEntity
  8
0
100
AcDbBlockBegin
  2
_D_2
 70
     0
 10
0.0
 20
0.0
 30
0.0
  3
_D_2
  1
_D_2
  0
LINE
  5
125
330
122
100
AcDbEntity
  8
치수문자_일반주서
 62
     0
370
    -2
100
AcDbLine
 10
-53.06249999999999
 20
12.7
 30
0.0
 11
-66.50000000000004
 21
12.69999999999995
 31
0.0
  0
LINE
  5
126
330
122
100
AcDbEntity
  8
치수문자_일반주서
 62
     0
370
    -2
100
AcDbLine
 10
-53.06249999999999
 20
-12.7
 30
0.0
 11
-66.49999999999996
 21
-12.70000000000005
 31
0.0
  0
LINE
  5
127
330
122
100
AcDbEntity
  8
치수문자_일반주서
 62
     0
370
    -2
100
AcDbLine
 10
-66.50000000000003
 20
9.397999999999946
 30
0.0
 11
-66.49999999999997
 21
-9.398000000000053
 31
0.0
  0
SOLID
  5
128
330
122
100
AcDbEntity
  8
치수문자_일반주서
 62
     0
100
AcDbTrace
 10
-65.9496666666667
 20
9.397999999999948
 30
0.0
 11
-67.05033333333336
 21
9.397999999999945
 31
0.0
 12
-66.50000000000004
 22
12.69999999999995
 32
0.0
 13
-66.50000000000004
 23
12.69999999999995
 33
0.0
  0
SOLID
  5
129
330
122
100
AcDbEntity
  8
치수문자_일반주서
 62
     0
100
AcDbTrace
 10
-67.0503333333333
 20
-9.398000000000055
 30
0.0
 11
-65.94966666666664
 21
-9.398000000000051
 31
0.0
 12
-66.49999999999996
 22
-12.70000000000005
 32
0.0
 13
-66.49999999999996
 23
-12.70000000000005
 33
0.0
  0
MTEXT
  5
12A
330
122
100
AcDbEntity
  8
치수문자_일반주서
 62
     0
100
AcDbMText
 10
-70.875
 20
-0.0000000000000205
 30
0.0
 40
3.5
 41
0.0
 71
     2
 72
     1
  1
\A1;%%c25.40 [1]
  7
SLDTEXTSTYLE0
 11
-3.356894814614647E-15
 21
1.0
 31
0.0
 73
     1
 44
1.0
  0
POINT
  5
12B
330
122
100
AcDbEntity
  8
Defpoints
 62
     0
100
AcDbPoint
 10
-52.99999999999999
 20
12.7
 30
0.0
  0
POINT
  5
12C
330
122
100
AcDbEntity
  8
Defpoints
 62
     0
100
AcDbPoint
 10
-52.99999999999999
 20
-12.7
 30
0.0
  0
POINT
  5
12D
330
122
100
AcDbEntity
  8
Defpoints
 62
     0
100
AcDbPoint
 10
-66.49999999999996
 20
-12.70000000000005
 30
0.0
  0
ENDBLK
  5
124
330
122
100
AcDbEntity
  8
0
100
AcDbBlockEnd
  0
BLOCK
  5
136
330
135
100
AcDbEntity
  8
0
100
AcDbBlockBegin
  2
SW_DOWELSYMBOL_0
 70
     0
 10
0.0
 20
0.0
 30
0.0
  3
SW_DOWELSYMBOL_0
  1
SW_DOWELSYMBOL_0
  0
CIRCLE
  5
138
330
135
100
AcDbEntity
  8
외형선
 62
     0
100
AcDbCircle
 10
0.0
 20
0.0
 30
0.0
 40
3.000000000000004
  0
HATCH
  5
139
330
135
100
AcDbEntity
  8
0
  6
Continuous
 62
     0
370
    30
100
AcDbHatch
 10
0.0
 20
0.0
 30
0.0
210
0.0
220
0.0
230
1.0
  2
SOLID
 70
     1
 71
     0
 91
        1
 92
        0
 93
        3
 72
     2
 10
0.0
 20
0.0
 40
3.000000000000004
 50
0.0
 51
90.0
 73
     1
 72
     1
 10
0.0
 20
3.000000000000004
 11
0.0
 21
0.0
 72
     1
 10
0.0
 20
0.0
 11
3.000000000000006
 21
0.0
 97
        0
 75
     0
 76
     1
 98
        1
 10
0.0
 20
0.0
  0
HATCH
  5
13A
330
135
100
AcDbEntity
  8
0
  6
Continuous
 62
     0
370
    30
100
AcDbHatch
 10
0.0
 20
0.0
 30
0.0
210
0.0
220
0.0
230
1.0
  2
SOLID
 70
     1
 71
     0
 91
        1
 92
        0
 93
        3
 72
     2
 10
0.0
 20
0.0
 40
3.000000000000004
 50
180.0
 51
270.0000000000008
 73
     1
 72
     1
 10
0.0
 20
-3.000000000000004
 11
0.0
 21
0.0
 72
     1
 10
0.0
 20
0.0
 11
-3.000000000000006
 21
0.0
 97
        0
 75
     0
 76
     1
 98
        1
 10
0.0
 20
0.0
  0
ENDBLK
  5
137
330
135
100
AcDbEntity
  8
0
100
AcDbBlockEnd
  0
BLOCK
  5
169
330
168
100
AcDbEntity
  8
0
100
AcDbBlockBegin
  2
*D6
 70
     1
 10
0.0
 20
0.0
 30
0.0
  3
*D6
  1
*D6
  0
LINE
  5
16B
330
168
100
AcDbEntity
  8
치수문자_일반주서
 62
     0
370
    -2
100
AcDbLine
 10
46.63850000000001
 20
12.7
 30
0.0
 11
63.98240284427651
 21
12.7
 31
0.0
  0
LINE
  5
16C
330
168
100
AcDbEntity
  8
치수문자_일반주서
 62
     0
370
    -2
100
AcDbLine
 10
46.63850000000001
 20
-12.7
 30
0.0
 11
63.98240284427651
 21
-12.7
 31
0.0
  0
LINE
  5
16D
330
168
100
AcDbEntity
  8
치수문자_일반주서
 62
     0
370
    -2
100
AcDbLine
 10
63.98240284427651
 20
9.398000000000003
 30
0.0
 11
63.98240284427651
 21
-9.398000000000003
 31
0.0
  0
SOLID
  5
16E
330
168
100
AcDbEntity
  8
치수문자_일반주서
 62
     0
100
AcDbTrace
 10
64.53273617760983
 20
9.398000000000003
 30
0.0
 11
63.43206951094317
 21
9.398000000000003
 31
0.0
 12
63.98240284427651
 22
12.7
 32
0.0
 13
63.98240284427651
 23
12.7
 33
0.0
  0
SOLID
  5
16F
330
168
100
AcDbEntity
  8
치수문자_일반주서
 62
     0
100
AcDbTrace
 10
63.43206951094317
 20
-9.398000000000003
 30
0.0
 11
64.53273617760983
 21
-9.398000000000003
 31
0.0
 12
63.98240284427651
 22
-12.7
 32
0.0
 13
63.98240284427651
 23
-12.7
 33
0.0
  0
MTEXT
  5
170
330
168
100
AcDbEntity
  8
치수문자_일반주서
 62
     0
100
AcDbMText
 10
61.35740284427651
 20
0.0
 30
0.0
 40
3.5
 41
0.0
 71
     5
 72
     1
  1
\A1;{%%c25.40 [1]}
  7
SLDTEXTSTYLE0
 11
0.0
 21
1.0
 31
0.0
 73
     1
 44
1.0
  0
POINT
  5
171
330
168
100
AcDbEntity
  8
Defpoints
 62
     0
100
AcDbPoint
 10
46.57600000000001
 20
12.7
 30
0.0
  0
POINT
  5
172
330
168
100
AcDbEntity
  8
Defpoints
 62
     0
100
AcDbPoint
 10
46.57600000000001
 20
-12.7
 30
0.0
  0
POINT
  5
173
330
168
100
AcDbEntity
  8
Defpoints
 62
     0
100
AcDbPoint
 10
63.98240284427651
 20
-12.7
 30
0.0
  0
ENDBLK
  5
16A
330
168
100
AcDbEntity
  8
0
100
AcDbBlockEnd
  0
BLOCK
  5
17B
330
17A
100
AcDbEntity
  8
0
100
AcDbBlockBegin
  2
*D7
 70
     1
 10
0.0
 20
0.0
 30
0.0
  3
*D7
  1
*D7
  0
LINE
  5
17D
330
17A
100
AcDbEntity
  8
치수문자_일반주서
 62
     0
370
    -2
100
AcDbLine
 10
50.05155655104449
 20
14.52425068662604
 30
0.0
 11
76.173134414305
 21
39.68902350269008
 31
0.0
  0
MTEXT
  5
17E
330
17A
100
AcDbEntity
  8
치수문자_일반주서
 62
     0
100
AcDbMText
 10
63.48180831718086
 20
31.10752270393955
 30
0.0
 40
3.5
 41
0.0
 71
     5
 72
     1
  1
\A1;R1.52 [R0.060]
  7
SLDTEXTSTYLE0
 11
0.7201733425289031
 21
0.6937941746013349
 31
0.0
 73
     1
 44
1.0
  0
LINE
  5
17F
330
17A
100
AcDbEntity
  8
치수문자_일반주서
 62
     0
370
    -2
100
AcDbLine
 10
46.57600000000001
 20
11.176
 30
0.0
 11
47.67354417401405
 21
12.23334232209243
 31
0.0
  0
SOLID
  5
180
330
17A
100
AcDbEntity
  8
치수문자_일반주서
 62
     0
100
AcDbTrace
 10
49.66973849028889
 20
14.92058608279778
 30
0.0
 11
50.43337461180009
 21
14.1279152904543
 31
0.0
 12
47.67354417401405
 22
12.23334232209243
 32
0.0
 13
47.67354417401405
 23
12.23334232209243
 33
0.0
  0
POINT
  5
181
330
17A
100
AcDbEntity
  8
Defpoints
 62
     0
100
AcDbPoint
 10
47.67354417401405
 20
12.23334232209243
 30
0.0
  0
POINT
  5
182
330
17A
100
AcDbEntity
  8
Defpoints
 62
     0
100
AcDbPoint
 10
46.57600000000001
 20
11.176
 30
0.0
  0
ENDBLK
  5
17C
330
17A
100
AcDbEntity
  8
0
100
AcDbBlockEnd
  0
ENDSEC
  0
SECTION
  2
ENTITIES
  0
LINE
  5
95
330
1F
100
AcDbEntity
  8
0
  6
Continuous
 62
     4
370
    15
100
AcDbLine
 10
7.275612586799292
 20
12.7
 30
0.0
 11
-52.99999999999999
 21
12.7
 31
0.0
  0
LINE
  5
96
330
1F
100
AcDbEntity
  8
0
  6
Continuous
 62
     4
370
    15
100
AcDbLine
 10
-52.99999999999999
 20
-12.7
 30
0.0
 11
7.275654798895186
 21
-12.7
 31
0.0
  0
LINE
  5
97
330
1F
100
AcDbEntity
  8
0
  6
Continuous
 62
     4
370
    15
100
AcDbLine
 10
-52.99999999999999
 20
12.69999999999999
 30
0.0
 11
-53.49999999999999
 21
12.19999999999999
 31
0.0
  0
LINE
  5
98
330
1F
100
AcDbEntity
  8
0
  6
Continuous
 62
     4
370
    15
100
AcDbLine
 10
-53.49999999999999
 20
-12.19999999999999
 30
0.0
 11
-52.99999999999999
 21
-12.7
 31
0.0
  0
ARC
  5
99
330
1F
100
AcDbEntity
  8
0
  6
Continuous
 62
     1
370
    15
100
AcDbCircle
 10
9.489995659584627
 20
7.584595029681803
 30
0.0
 40
2.53999979167083
100
AcDbArc
 50
224.7182493258911
 51
228.3164707604542
  0
LINE
  5
9A
102
{ACAD_REACTORS
102
}
330
1F
100
AcDbEntity
  8
0
  6
Continuous
 62
     1
370
    15
100
AcDbLine
 10
42.60352084175895
 20
-12.7
 30
0.0
 11
46.57600000000001
 21
-12.7
 31
0.0
  0
LINE
  5
9B
330
1F
100
AcDbEntity
  8
0
  6
Continuous
 62
     1
370
    15
100
AcDbLine
 10
29.30430614848566
 20
-12.7
 30
0.0
 11
33.6472342631926
 21
-12.7
 31
0.0
  0
LINE
  5
9C
330
1F
100
AcDbEntity
  8
0
  6
Continuous
 62
     1
370
    15
100
AcDbLine
 10
20.34754455409494
 20
12.7
 30
0.0
 11
16.00555682525656
 21
12.7
 31
0.0
  0
LINE
  5
9D
330
1F
100
AcDbEntity
  8
0
  6
Continuous
 62
     1
370
    15
100
AcDbLine
 10
33.6472342631926
 20
12.7
 30
0.0
 11
29.30430614848575
 21
12.7
 31
0.0
  0
LINE
  5
9E
330
1F
100
AcDbEntity
  8
0
  6
Continuous
 62
     1
370
    15
100
AcDbLine
 10
16.00555682525649
 20
-12.7
 30
0.0
 11
20.34754455409485
 21
-12.7
 31
0.0
  0
LINE
  5
9F
330
1F
100
AcDbEntity
  8
0
  6
Continuous
 62
     1
370
    15
100
AcDbLine
 10
46.57600000000001
 20
12.7
 30
0.0
 11
42.60352084175895
 21
12.7
 31
0.0
  0
ARC
  5
A0
102
{ACAD_REACTORS
102
}
330
1F
100
AcDbEntity
  8
0
  6
Continuous
 62
     1
370
    15
100
AcDbCircle
 10
46.57600000000001
 20
11.176
 30
0.0
 40
1.524000000000001
100
AcDbArc
 50
74.6548140518773
 51
90.0
  0
ARC
  5
A1
330
1F
100
AcDbEntity
  8
0
  6
Continuous
 62
     1
370
    15
100
AcDbCircle
 10
46.57600000000001
 20
11.176
 30
0.0
 40
1.524000000000008
100
AcDbArc
 50
0.0000000000007346
 51
3.287480525104242
  0
ARC
  5
A2
330
1F
100
AcDbEntity
  8
0
  6
Continuous
 62
     1
370
    15
100
AcDbCircle
 10
46.57600000000001
 20
-11.176
 30
0.0
 40
1.524000000000008
100
AcDbArc
 50
357.062966693843
 51
0.0000000000000668
  0
ARC
  5
A3
330
1F
100
AcDbEntity
  8
0
  6
Continuous
 62
     1
370
    15
100
AcDbCircle
 10
46.57600000000001
 20
-11.176
 30
0.0
 40
1.524000000000002
100
AcDbArc
 50
273.3968598852836
 51
285.2128683799935
  0
SPLINE
  5
A4
330
1F
100
AcDbEntity
  8
0
  6
Continuous
 62
     4
370
    15
100
AcDbSpline
210
0.0
220
0.0
230
1.0
 70
     8
 71
     3
 72
    12
 73
     8
 74
     0
 42
0.000000001
 43
0.00000001
 40
0.0
 40
0.0
 40
0.0
 40
0.0
 40
0.2447870563476884
 40
0.4915377391721544
 40
0.7442266908821029
 40
0.9988375325931733
 40
1.0
 40
1.0
 40
1.0
 40
1.0
 10
7.792386543611675
 20
12.67823413523348
 30
0.0
 10
7.741279533138675
 20
12.68119441323484
 30
0.0
 10
7.638655543298031
 20
12.68713871591905
 30
0.0
 10
7.502007860817271
 20
12.694175279645
 30
0.0
 10
7.380908830377308
 20
12.69857089308607
 30
0.0
 10
7.305896872615351
 20
12.70056897892754
 30
0.0
 10
7.275749603510926
 20
12.69999477582511
 30
0.0
 10
7.275612586799292
 20
12.69999216612203
 30
0.0
  0
SPLINE
  5
A5
330
1F
100
AcDbEntity
  8
0
  6
Continuous
 62
     4
370
    15
100
AcDbSpline
210
0.0
220
0.0
230
1.0
 70
     8
 71
     3
 72
    10
 73
     6
 74
     0
 42
0.000000001
 43
0.00000001
 40
0.0
 40
0.0
 40
0.0
 40
0.0
 40
0.5000000000000001
 40
0.5000000000000001
 40
1.0
 40
1.0
 40
1.0
 40
1.0
 10
10.0
 20
12.35862325966308
 30
0.0
 10
9.631689597780731
 20
12.44338822361128
 30
0.0
 10
9.262336640259852
 20
12.51263298525005
 30
0.0
 10
8.52572776459788
 20
12.61929855963883
 30
0.0
 10
8.160017480525083
 20
12.65670769066326
 30
0.0
 10
7.792386543604135
 20
12.67823413523392
 30
0.0
  0
SPLINE
  5
A6
330
1F
100
AcDbEntity
  8
0
  6
Continuous
 62
     1
370
    15
100
AcDbSpline
210
0.0
220
0.0
230
1.0
 70
     8
 71
     3
 72
    24
 73
    20
 74
     0
 42
0.000000001
 43
0.00000001
 40
0.0
 40
0.0
 40
0.0
 40
0.0
 40
0.125
 40
0.125
 40
0.2500000000000001
 40
0.2500000000000001
 40
0.3750000000000001
 40
0.3750000000000001
 40
0.5000000000000001
 40
0.5000000000000001
 40
0.6250000000000001
 40
0.6250000000000001
 40
0.7500000000000002
 40
0.7500000000000002
 40
0.8125000000000002
 40
0.8125000000000002
 40
0.8750000000000002
 40
0.8750000000000002
 40
1.0
 40
1.0
 40
1.0
 40
1.0
 10
6.949995982200694
 20
8.024798391305843
 30
0.0
 10
6.949995982200694
 20
8.198717966077956
 30
0.0
 10
6.950064402858558
 20
8.368588144154131
 30
0.0
 10
6.975604334793335
 20
8.698639553865322
 30
0.0
 10
7.000634087232532
 20
8.858855403966107
 30
0.0
 10
7.092067794581837
 20
9.168847185106337
 30
0.0
 10
7.158844194614709
 20
9.317944855954488
 30
0.0
 10
7.339432413984541
 20
9.591570217632
 30
0.0
 10
7.455830299251193
 20
9.719472958835265
 30
0.0
 10
7.732734043916608
 20
9.942535778561062
 30
0.0
 10
7.89250419674819
 20
10.03860688737247
 30
0.0
 10
8.258884489759334
 20
10.20099404498756
 30
0.0
 10
8.456195878463392
 20
10.26328676973497
 30
0.0
 10
8.772929415119707
 20
10.331282434969
 30
0.0
 10
8.88274464968995
 20
10.34967171542961
 30
0.0
 10
9.102863143937883
 20
10.37680700655509
 30
0.0
 10
9.21381044035384
 20
10.38575149527072
 30
0.0
 10
9.5492859309048
 20
10.39908534680639
 30
0.0
 10
9.778021301112574
 20
10.38975002060849
 30
0.0
 10
10.0
 20
10.36163841808607
 30
0.0
  0
SPLINE
  5
A7
330
1F
100
AcDbEntity
  8
0
  6
Continuous
 62
     1
370
    15
100
AcDbSpline
210
0.0
220
0.0
230
1.0
 70
     8
 71
     3
 72
    16
 73
    12
 74
     0
 42
0.000000001
 43
0.00000001
 40
0.0
 40
0.0
 40
0.0
 40
0.0
 40
0.2499999999999991
 40
0.2499999999999991
 40
0.3749999999999993
 40
0.3749999999999993
 40
0.4999999999999996
 40
0.4999999999999996
 40
0.7499999999999998
 40
0.7499999999999998
 40
1.0
 40
1.0
 40
1.0
 40
1.0
 10
7.792386543619228
 20
5.695467777118308
 30
0.0
 10
7.614516219371309
 20
5.854538434000918
 30
0.0
 10
7.468193243884505
 20
6.031455045670922
 30
0.0
 10
7.290193631979299
 20
6.317952291990002
 30
0.0
 10
7.237803469153977
 20
6.417414331447363
 30
0.0
 10
7.148807320299985
 20
6.617211342746569
 30
0.0
 10
7.111748333426227
 20
6.718184445588074
 30
0.0
 10
7.019969668507656
 20
7.023301820000773
 30
0.0
 10
6.985168430069791
 20
7.230171489307509
 30
0.0
 10
6.950198436362225
 20
7.633236145225825
 30
0.0
 10
6.94999598220069
 20
7.831212134319262
 30
0.0
 10
6.94999598220069
 20
8.024798391305843
 30
0.0
  0
SPLINE
  5
A8
330
1F
100
AcDbEntity
  8
0
  6
Continuous
 62
     1
370
    15
100
AcDbSpline
210
0.0
220
0.0
230
1.0
 70
     8
 71
     3
 72
    10
 73
     6
 74
     0
 42
0.000000001
 43
0.00000001
 40
0.0
 40
0.0
 40
0.0
 40
0.0
 40
0.5
 40
0.5
 40
1.0
 40
1.0
 40
1.0
 40
1.0
 10
10.0
 20
3.64636406932311
 30
0.0
 10
9.631689597780731
 20
3.998932085155335
 30
0.0
 10
9.262336640259852
 20
4.347229112354902
 30
0.0
 10
8.525727764597875
 20
5.031337623686401
 30
0.0
 10
8.160017480525074
 20
5.366692896478675
 30
0.0
 10
7.792386543604126
 20
5.695467777131811
 30
0.0
  0
SPLINE
  5
A9
330
1F
100
AcDbEntity
  8
0
  6
Continuous
 62
     1
370
    15
100
AcDbSpline
210
0.0
220
0.0
230
1.0
 70
     8
 71
     3
 72
    24
 73
    20
 74
     0
 42
0.000000001
 43
0.00000001
 40
0.0
 40
0.0
 40
0.0
 40
0.0
 40
0.125
 40
0.125
 40
0.25
 40
0.25
 40
0.375
 40
0.375
 40
0.5
 40
0.5
 40
0.625
 40
0.625
 40
0.75
 40
0.75
 40
0.8125
 40
0.8125
 40
0.875
 40
0.875
 40
1.0
 40
1.0
 40
1.0
 40
1.0
 10
6.949995982200695
 20
-4.512239100730874
 30
0.0
 10
6.949995982200695
 20
-4.302487928362545
 30
0.0
 10
6.950064402858557
 20
-4.090957436887106
 30
0.0
 10
6.975604334793335
 20
-3.666601293999789
 30
0.0
 10
7.00063408723253
 20
-3.453739076087541
 30
0.0
 10
7.092067794581835
 20
-3.028262446177587
 30
0.0
 10
7.15884419461471
 20
-2.816381761281982
 30
0.0
 10
7.339432413984541
 20
-2.415340190262364
 30
0.0
 10
7.455830299251195
 20
-2.221200070669311
 30
0.0
 10
7.732734043916608
 20
-1.873457459009899
 30
0.0
 10
7.89250419674819
 20
-1.718709825847424
 30
0.0
 10
8.258884489759334
 20
-1.452047091849083
 30
0.0
 10
8.45619587846339
 20
-1.346838391338163
 30
0.0
 10
8.772929415119707
 20
-1.231004922480157
 30
0.0
 10
8.882744649689947
 20
-1.199419763204017
 30
0.0
 10
9.102863143937881
 20
-1.152678458440031
 30
0.0
 10
9.213810440353837
 20
-1.137185011528848
 30
0.0
 10
9.5492859309048
 20
-1.114089180432526
 30
0.0
 10
9.778021301112574
 20
-1.130399180871295
 30
0.0
 10
10.0
 20
-1.178806327860337
 30
0.0
  0
SPLINE
  5
AA
330
1F
100
AcDbEntity
  8
0
  6
Continuous
 62
     1
370
    15
100
AcDbSpline
210
0.0
220
0.0
230
1.0
 70
     8
 71
     3
 72
    16
 73
    12
 74
     0
 42
0.000000001
 43
0.00000001
 40
0.0
 40
0.0
 40
0.0
 40
0.0
 40
0.2499999999999994
 40
0.2499999999999994
 40
0.3749999999999992
 40
0.3749999999999992
 40
0.499999999999999
 40
0.499999999999999
 40
0.7499999999999994
 40
0.7499999999999994
 40
1.0
 40
1.0
 40
1.0
 40
1.0
 10
7.792386543619216
 20
-6.982766358114809
 30
0.0
 10
7.614516219370667
 20
-6.834110808588623
 30
0.0
 10
7.468193243889285
 20
-6.665164252073539
 30
0.0
 10
7.290193631982563
 20
-6.382465562968927
 30
0.0
 10
7.237803469156756
 20
-6.282881506001987
 30
0.0
 10
7.148807320301925
 20
-6.079527586809037
 30
0.0
 10
7.111748333427808
 20
-5.975140476937997
 30
0.0
 10
7.019969668508361
 20
-5.654374988086349
 30
0.0
 10
6.985168430070161
 20
-5.429652467350486
 30
0.0
 10
6.950198436362239
 20
-4.976225813791
 30
0.0
 10
6.949995982200694
 20
-4.745708762847287
 30
0.0
 10
6.949995982200694
 20
-4.512239100730875
 30
0.0
  0
SPLINE
  5
AB
330
1F
100
AcDbEntity
  8
0
  6
Continuous
 62
     1
370
    15
100
AcDbSpline
210
0.0
220
0.0
230
1.0
 70
     8
 71
     3
 72
    10
 73
     6
 74
     0
 42
0.000000001
 43
0.00000001
 40
0.0
 40
0.0
 40
0.0
 40
0.0
 40
0.5
 40
0.5
 40
1.0
 40
1.0
 40
1.0
 40
1.0
 10
10.0
 20
-8.712259190340072
 30
0.0
 10
9.631689597781993
 20
-8.444456138456955
 30
0.0
 10
9.262336640262378
 20
-8.165403872897162
 30
0.0
 10
8.52572776460291
 20
-7.587960935956541
 30
0.0
 10
8.160017480531346
 20
-7.290014794189814
 30
0.0
 10
7.792386543611677
 20
-6.982766358108515
 30
0.0
  0
SPLINE
  5
AC
330
1F
100
AcDbEntity
  8
0
  6
Continuous
 62
     1
370
    15
100
AcDbSpline
210
0.0
220
0.0
230
1.0
 70
     8
 71
     3
 72
    24
 73
    20
 74
     0
 42
0.000000001
 43
0.00000001
 40
0.0
 40
0.0
 40
0.0
 40
0.0
 40
0.1250000000000001
 40
0.1250000000000001
 40
0.2500000000000002
 40
0.2500000000000002
 40
0.3750000000000003
 40
0.3750000000000003
 40
0.5000000000000002
 40
0.5000000000000002
 40
0.6250000000000001
 40
0.6250000000000001
 40
0.75
 40
0.75
 40
0.8125
 40
0.8125
 40
0.8750000000000001
 40
0.8750000000000001
 40
1.0
 40
1.0
 40
1.0
 40
1.0
 10
6.949995982200695
 20
-12.53703749203663
 30
0.0
 10
6.949995982200697
 20
-12.50120589444042
 30
0.0
 10
6.950064402858564
 20
-12.45954558104115
 30
0.0
 10
6.975604334793339
 20
-12.36524084786504
 30
0.0
 10
7.000634087232532
 20
-12.31259448005356
 30
0.0
 10
7.092067794581839
 20
-12.19710963128385
 30
0.0
 10
7.158844194614707
 20
-12.1343266172364
 30
0.0
 10
7.339432413984538
 20
-12.0069104078943
 30
0.0
 10
7.455830299251193
 20
-11.94067302950451
 30
0.0
 10
7.732734043916608
 20
-11.8159932375709
 30
0.0
 10
7.892504196748193
 20
-11.75731671321983
 30
0.0
 10
8.258884489759339
 20
-11.65304113683658
 30
0.0
 10
8.456195878463392
 20
-11.61012516107307
 30
0.0
 10
8.772929415119709
 20
-11.5622873574491
 30
0.0
 10
8.88274464968995
 20
-11.54909147863358
 30
0.0
 10
9.102863143937883
 20
-11.52948546499506
 30
0.0
 10
9.213810440353841
 20
-11.52293650679952
 30
0.0
 10
9.5492859309048
 20
-11.51317452723886
 30
0.0
 10
9.778021301112574
 20
-11.52014920147973
 30
0.0
 10
10.0
 20
-11.54044474594635
 30
0.0
  0
SPLINE
  5
AD
330
1F
100
AcDbEntity
  8
0
  6
Continuous
 62
     1
370
    15
100
AcDbSpline
210
0.0
220
0.0
230
1.0
 70
     8
 71
     3
 72
    16
 73
    12
 74
     0
 42
0.000000001
 43
0.00000001
 40
0.0
 40
0.0
 40
0.0
 40
0.0
 40
0.2500000000000001
 40
0.2500000000000001
 40
0.375
 40
0.375
 40
0.4999999999999999
 40
0.4999999999999999
 40
0.7499999999999999
 40
0.7499999999999999
 40
1.0
 40
1.0
 40
1.0
 40
1.0
 10
7.792386543619216
 20
-12.67823413523302
 30
0.0
 10
7.614516219371298
 20
-12.68864924258996
 30
0.0
 10
7.4681932438845
 20
-12.69661929773813
 30
0.0
 10
7.290193631979296
 20
-12.70041785495296
 30
0.0
 10
7.237803469153976
 20
-12.7002958374436
 30
0.0
 10
7.148807320299985
 20
-12.69673892955039
 30
0.0
 10
7.111748333426227
 20
-12.69332492252113
 30
0.0
 10
7.019969668507658
 20
-12.67767680808311
 30
0.0
 10
6.985168430069789
 20
-12.65982395665473
 30
0.0
 10
6.950198436362223
 20
-12.60946195901511
 30
0.0
 10
6.949995982200695
 20
-12.57692089716564
 30
0.0
 10
6.949995982200697
 20
-12.53703749203663
 30
0.0
  0
SPLINE
  5
AE
330
1F
100
AcDbEntity
  8
0
  6
Continuous
 62
     4
370
    15
100
AcDbSpline
210
0.0
220
0.0
230
1.0
 70
     8
 71
     3
 72
    10
 73
     6
 74
     0
 42
0.000000001
 43
0.00000001
 40
0.0
 40
0.0
 40
0.0
 40
0.0
 40
0.5000000000000001
 40
0.5000000000000001
 40
1.0
 40
1.0
 40
1.0
 40
1.0
 10
10.0
 20
-12.35862325966306
 30
0.0
 10
9.631689597780731
 20
-12.44338822361126
 30
0.0
 10
9.262336640259852
 20
-12.51263298525004
 30
0.0
 10
8.525727764597875
 20
-12.61929855963881
 30
0.0
 10
8.160017480525076
 20
-12.65670769066325
 30
0.0
 10
7.792386543604128
 20
-12.67823413523391
 30
0.0
  0
LINE
  5
AF
330
1F
100
AcDbEntity
  8
0
  6
Continuous
 62
     4
370
    15
100
AcDbLine
 10
-52.99999999999999
 20
12.69999999999999
 30
0.0
 11
-52.99999999999999
 21
-12.69999999999999
 31
0.0
  0
LINE
  5
B0
330
1F
100
AcDbEntity
  8
0
  6
Continuous
 62
     1
370
    15
100
AcDbLine
 10
10.0
 20
3.646364069323112
 30
0.0
 11
10.0
 21
-1.178806327860334
 31
0.0
  0
LINE
  5
B1
330
1F
100
AcDbEntity
  8
0
  6
Continuous
 62
     1
370
    15
100
AcDbLine
 10
10.0
 20
12.35862325966309
 30
0.0
 11
10.0
 21
10.36163841808607
 31
0.0
  0
LINE
  5
B2
330
1F
100
AcDbEntity
  8
0
  6
Continuous
 62
     1
370
    15
100
AcDbLine
 10
10.0
 20
-8.712259190340074
 30
0.0
 11
10.0
 21
-11.54044474594635
 31
0.0
  0
SPLINE
  5
B4
330
1F
100
AcDbEntity
  8
0
  6
Continuous
 62
     1
370
    15
100
AcDbSpline
210
0.0
220
0.0
230
1.0
 70
    24
 71
     3
 72
    12
 73
     8
 74
     0
 42
0.000000001
 43
0.00000001
 40
0.0
 40
0.0
 40
0.0
 40
0.0
 40
0.4999999999999993
 40
0.4999999999999993
 40
0.7499999999999997
 40
0.7499999999999997
 40
1.0
 40
1.0
 40
1.0
 40
1.0
 10
10.0
 20
-1.17880632786034
 30
0.0
 10
10.0
 20
-1.334091950178888
 30
0.0
 10
10.0
 20
-1.562874002485053
 30
0.0
 10
10.0
 20
-2.040066738959883
 30
0.0
 10
10.0
 20
-2.221891762901311
 30
0.0
 10
10.0
 20
-2.624495573682497
 30
0.0
 10
10.0
 20
-2.846580624070388
 30
0.0
 10
10.0
 20
-3.097455913215237
 30
0.0
  0
LINE
  5
B5
330
1F
100
AcDbEntity
  8
0
  6
Continuous
 62
     4
370
    15
100
AcDbLine
 10
-53.49999999999999
 20
12.19999999999999
 30
0.0
 11
-53.49999999999999
 21
-12.2
 31
0.0
  0
LINE
  5
B6
330
1F
100
AcDbEntity
  8
0
  6
Continuous
 62
     1
370
    15
100
AcDbLine
 10
7.89196351075244
 20
5.641576625447185
 30
0.0
 11
7.792386543619227
 21
5.695467777118308
 31
0.0
  0
SPLINE
  5
B7
330
1F
100
AcDbEntity
  8
0
  6
Continuous
 62
     1
370
    15
100
AcDbSpline
210
0.0
220
0.0
230
1.0
 70
    24
 71
     3
 72
    14
 73
    10
 74
     0
 42
0.000000001
 43
0.00000001
 40
0.0
 40
0.0
 40
0.0
 40
0.0
 40
0.25
 40
0.25
 40
0.5
 40
0.5
 40
0.75
 40
0.75
 40
1.0
 40
1.0
 40
1.0
 40
1.0
 10
10.0
 20
6.947919379185021
 30
0.0
 10
10.0
 20
6.577384509458748
 30
0.0
 10
10.0
 20
6.207061770021524
 30
0.0
 10
10.0
 20
5.499823306115835
 30
0.0
 10
10.0
 20
5.163147003233847
 30
0.0
 10
10.0
 20
4.563192234982835
 30
0.0
 10
10.0
 20
4.300321398332887
 30
0.0
 10
10.0
 20
3.884918252808808
 30
0.0
 10
10.0
 20
3.732767011209685
 30
0.0
 10
10.0
 20
3.646364069323113
 30
0.0
  0
SPLINE
  5
B8
330
1F
100
AcDbEntity
  8
0
  6
Continuous
 62
     1
370
    15
100
AcDbSpline
210
0.0
220
0.0
230
1.0
 70
    24
 71
     3
 72
    12
 73
     8
 74
     0
 42
0.000000001
 43
0.00000001
 40
0.0
 40
0.0
 40
0.0
 40
0.0
 40
0.5000000000000007
 40
0.5000000000000007
 40
0.7500000000000003
 40
0.7500000000000003
 40
1.0
 40
1.0
 40
1.0
 40
1.0
 10
10.0
 20
10.36163841808613
 30
0.0
 10
10.0
 20
9.79278246909678
 30
0.0
 10
10.0
 20
9.216903478901575
 30
0.0
 10
10.0
 20
8.34027858136827
 30
0.0
 10
10.0
 20
8.047129114570575
 30
0.0
 10
10.0
 20
7.483648819590997
 30
0.0
 10
10.0
 20
7.210106206070525
 30
0.0
 10
10.0
 20
6.947919379185117
 30
0.0
  0
SPLINE
  5
B9
330
1F
100
AcDbEntity
  8
0
  6
Continuous
 62
     1
370
    15
100
AcDbSpline
210
0.0
220
0.0
230
1.0
 70
    24
 71
     3
 72
    14
 73
    10
 74
     0
 42
0.000000001
 43
0.00000001
 40
0.0
 40
0.0
 40
0.0
 40
0.0
 40
0.25
 40
0.25
 40
0.5
 40
0.5
 40
0.75
 40
0.75
 40
1.0
 40
1.0
 40
1.0
 40
1.0
 10
10.0
 20
-3.097455913215328
 30
0.0
 10
10.0
 20
-3.452004780849546
 30
0.0
 10
10.0
 20
-3.847162703497531
 30
0.0
 10
10.0
 20
-4.70952013080501
 30
0.0
 10
10.0
 20
-5.176797439724015
 30
0.0
 10
10.0
 20
-6.157470828436808
 30
0.0
 10
10.0
 20
-6.670694223515292
 30
0.0
 10
10.0
 20
-7.701158217019594
 30
0.0
 10
10.0
 20
-8.217970017418436
 30
0.0
 10
10.0
 20
-8.712259190340076
 30
0.0
  0
SPLINE
  5
BA
330
1F
100
AcDbEntity
  8
0
  6
Continuous
 62
     1
370
    15
100
AcDbSpline
210
0.0
220
0.0
230
1.0
 70
    24
 71
     3
 72
     9
 73
     5
 74
     0
 42
0.000000001
 43
0.00000001
 40
0.0
 40
0.0
 40
0.0
 40
0.0
 40
0.386225740728659
 40
1.0
 40
1.0
 40
1.0
 40
1.0
 10
10.0
 20
-11.61416048624679
 30
0.0
 10
10.0
 20
-11.702252050441
 30
0.0
 10
10.0
 20
-11.930335150309
 30
0.0
 10
10.0
 20
-12.19573045383023
 30
0.0
 10
10.0
 20
-12.35862325966307
 30
0.0
  0
SPLINE
  5
BC
330
1F
100
AcDbEntity
  8
0
  6
Continuous
 62
     1
370
    15
100
AcDbSpline
210
0.0
220
0.0
230
1.0
 70
     8
 71
     3
 72
    60
 73
    56
 74
     0
 42
0.000000001
 43
0.00000001
 40
0.0
 40
0.0
 40
0.0
 40
0.0
 40
0.03125
 40
0.03125
 40
0.0625000000000001
 40
0.0625000000000001
 40
0.1250000000000002
 40
0.1250000000000002
 40
0.1562500000000002
 40
0.1562500000000002
 40
0.1875000000000002
 40
0.1875000000000002
 40
0.2187500000000002
 40
0.2187500000000002
 40
0.2500000000000002
 40
0.2500000000000002
 40
0.2812500000000003
 40
0.2812500000000003
 40
0.3125000000000003
 40
0.3125000000000003
 40
0.3437500000000003
 40
0.3437500000000003
 40
0.3750000000000002
 40
0.3750000000000002
 40
0.4375000000000002
 40
0.4375000000000002
 40
0.5000000000000002
 40
0.5000000000000002
 40
0.5625000000000002
 40
0.5625000000000002
 40
0.5937500000000002
 40
0.5937500000000002
 40
0.6250000000000002
 40
0.6250000000000002
 40
0.6562500000000001
 40
0.6562500000000001
 40
0.6875000000000001
 40
0.6875000000000001
 40
0.71875
 40
0.71875
 40
0.7499999999999999
 40
0.7499999999999999
 40
0.7812499999999999
 40
0.7812499999999999
 40
0.8124999999999998
 40
0.8124999999999998
 40
0.8749999999999998
 40
0.8749999999999998
 40
0.9062499999999999
 40
0.9062499999999999
 40
0.9374999999999999
 40
0.9374999999999999
 40
0.96875
 40
0.96875
 40
1.0
 40
1.0
 40
1.0
 40
1.0
 10
46.57600000000001
 20
-12.69461633756576
 30
0.0
 10
46.19419870616817
 20
-12.68351568077782
 30
0.0
 10
45.81414011524969
 20
-12.65527338192365
 30
0.0
 10
45.05435734587222
 20
-12.56482732277293
 30
0.0
 10
44.67229084312245
 20
-12.50249200256177
 30
0.0
 10
43.52650432831743
 20
-12.2650122679278
 30
0.0
 10
42.7685581204076
 20
-12.03995174400539
 30
0.0
 10
41.62284858049514
 20
-11.60598170003513
 30
0.0
 10
41.24066595540654
 20
-11.44536892585128
 30
0.0
 10
40.48037205154837
 20
-11.09432235604739
 30
0.0
 10
40.10081017367357
 20
-10.90370994906642
 30
0.0
 10
39.33736146718921
 20
-10.4928107051568
 30
0.0
 10
38.95493466993412
 20
-10.27274473463381
 30
0.0
 10
38.19331625231791
 20
-9.80611818323759
 30
0.0
 10
37.81467340987361
 20
-9.559726701425564
 30
0.0
 10
37.05188821571448
 20
-9.040621580372889
 30
0.0
 10
36.66937111313757
 20
-8.768224629278091
 30
0.0
 10
35.90673159878069
 20
-8.201053394592268
 30
0.0
 10
35.52816190588605
 20
-7.906714416090395
 30
0.0
 10
34.76634519687788
 20
-7.296313880547956
 30
0.0
 10
34.38389177721035
 20
-6.980419899578777
 30
0.0
 10
33.62053594452644
 20
-6.331039976352942
 30
0.0
 10
33.24119341794204
 20
-5.998028027239214
 30
0.0
 10
32.10037660398413
 20
-4.975307483795627
 30
0.0
 10
31.33317150413857
 20
-4.260808274270527
 30
0.0
 10
29.81523072691901
 20
-2.798749107308319
 30
0.0
 10
29.04673358441241
 20
-2.045530796833313
 30
0.0
 10
27.52772224298532
 20
-0.5309988777138571
 30
0.0
 10
26.76162419191246
 20
0.2354171902942984
 30
0.0
 10
25.62014876704889
 20
1.374434771108031
 30
0.0
 10
25.24114487738343
 20
1.752274428269485
 30
0.0
 10
24.47798455945597
 20
2.503904956786704
 30
0.0
 10
24.09549407488611
 20
2.877135922109096
 30
0.0
 10
23.33333508422931
 20
3.613908107249665
 30
0.0
 10
22.95483398666561
 20
3.977092128434425
 30
0.0
 10
22.19248741791937
 20
4.693451801216119
 30
0.0
 10
21.80998241530833
 20
5.046181109920748
 30
0.0
 10
21.04695218803913
 20
5.736444953523382
 30
0.0
 10
20.66810780803702
 20
6.073499528341536
 30
0.0
 10
19.90687937608239
 20
6.731382853664198
 30
0.0
 10
19.52451382739479
 20
7.052172673748219
 30
0.0
 10
18.760917663442
 20
7.673498159094306
 30
0.0
 10
18.38088438333615
 20
7.973729208862226
 30
0.0
 10
17.62107698582326
 20
8.551861756271549
 30
0.0
 10
17.23900467559476
 20
8.830320630954498
 30
0.0
 10
16.09322060850186
 20
9.628623732205543
 30
0.0
 10
15.33527613948747
 20
10.11028206519378
 30
0.0
 10
14.18956185616034
 20
10.74898792926289
 30
0.0
 10
13.80738427194098
 20
10.94766366478539
 30
0.0
 10
13.04711349101219
 20
11.31428856111738
 30
0.0
 10
12.66753052016118
 20
11.48252137570542
 30
0.0
 10
11.90407386154342
 20
11.78813173230246
 30
0.0
 10
11.52164970006389
 20
11.92526863973745
 30
0.0
 10
10.76004967154824
 20
12.16661926192718
 30
0.0
 10
10.38139896276233
 20
12.27084602303436
 30
0.0
 10
9.999999999999986
 20
12.3586232596631
 30
0.0
  0
SPLINE
  5
BD
330
1F
100
AcDbEntity
  8
0
  6
Continuous
 62
     1
370
    15
100
AcDbSpline
210
0.0
220
0.0
230
1.0
 70
     8
 71
     3
 72
    27
 73
    23
 74
     0
 42
0.000000001
 43
0.00000001
 40
0.0
 40
0.0
 40
0.0
 40
0.0
 40
0.0083172878959737
 40
0.0616134401811258
 40
0.1149646933997109
 40
0.168273122954483
 40
0.2187539469848263
 40
0.2692870505206489
 40
0.319819352377463
 40
0.3703001027921027
 40
0.4208157872988665
 40
0.4713635004526604
 40
0.521847670388033
 40
0.5723494044878806
 40
0.622904868013353
 40
0.6733959484460257
 40
0.7238872120276137
 40
0.7744427563717161
 40
0.8308302299229622
 40
0.8871959219132026
 40
0.9435754340163462
 40
1.0
 40
1.0
 40
1.0
 40
1.0
 10
11.52600259404789
 20
11.90254762518757
 30
0.0
 10
11.62008739977406
 20
11.94007494994404
 30
0.0
 10
12.31705600565444
 20
12.21807273094674
 30
0.0
 10
13.61742032767051
 20
12.50467668064433
 30
0.0
 10
15.42846795712735
 20
12.7336188303689
 30
0.0
 10
17.20638390072015
 20
12.68301385527605
 30
0.0
 10
18.95144462676824
 20
12.39738071003513
 30
0.0
 10
20.66668240723837
 20
11.89007926050565
 30
0.0
 10
22.38189703631411
 20
11.16695232132237
 30
0.0
 10
24.09535320434766
 20
10.23978758232113
 30
0.0
 10
25.8099985174114
 20
9.126665292018854
 30
0.0
 10
27.52574647283913
 20
7.848279536992675
 30
0.0
 10
29.23932514035131
 20
6.425636932973589
 30
0.0
 10
30.95350172790537
 20
4.886297347624759
 30
0.0
 10
32.66951838175567
 20
3.259632130840021
 30
0.0
 10
34.38332738842468
 20
1.571804502873293
 30
0.0
 10
36.09717738767608
 20
-0.1447194146002214
 30
0.0
 10
37.87973704015386
 20
-1.922910319368034
 30
0.0
 10
39.72734392669139
 20
-3.731928192786975
 30
0.0
 10
41.64065600403572
 20
-5.517046971378589
 30
0.0
 10
43.55450731990406
 20
-7.191431881865055
 30
0.0
 10
44.83142687621468
 20
-8.16354198554443
 30
0.0
 10
45.47014165481893
 20
-8.649791167477623
 30
0.0
  0
SPLINE
  5
BE
330
1F
100
AcDbEntity
  8
0
  6
Continuous
 62
     1
370
    15
100
AcDbSpline
210
0.0
220
0.0
230
1.0
 70
     8
 71
     3
 72
    10
 73
     6
 74
     0
 42
0.000000001
 43
0.00000001
 40
0.0
 40
0.0
 40
0.0
 40
0.0
 40
0.3521229134693075
 40
0.6727017047629872
 40
1.0
 40
1.0
 40
1.0
 40
1.0
 10
44.65857753563209
 20
-8.016590840141166
 30
0.0
 10
44.57932532469371
 20
-8.011771052943915
 30
0.0
 10
44.42792053004624
 20
-8.002563248111668
 30
0.0
 10
44.15904790947231
 20
-8.043324941538199
 30
0.0
 10
43.96630758531921
 20
-8.100808599414854
 30
0.0
 10
43.86893791315418
 20
-8.129848526305562
 30
0.0
  0
SPLINE
  5
BF
330
1F
100
AcDbEntity
  8
0
  6
Continuous
 62
     1
370
    15
100
AcDbSpline
210
0.0
220
0.0
230
1.0
 70
     8
 71
     3
 72
     8
 73
     4
 74
     0
 42
0.000000001
 43
0.00000001
 40
0.0
 40
0.0
 40
0.0
 40
0.0
 40
1.0
 40
1.0
 40
1.0
 40
1.0
 10
48.10000000000001
 20
-9.634418102955637
 30
0.0
 10
46.6840103951249
 20
-9.250626847391588
 30
0.0
 10
45.27303216695041
 20
-8.752102375699998
 30
0.0
 10
43.8689379131542
 20
-8.129848526305567
 30
0.0
  0
LINE
  5
C0
330
1F
100
AcDbEntity
  8
0
  6
Continuous
 62
     1
370
    15
100
AcDbLine
 10
48.10000000000001
 20
-11.17568820894996
 30
0.0
 11
48.10000000000001
 21
-9.634418102955639
 31
0.0
  0
SPLINE
  5
C1
330
1F
100
AcDbEntity
  8
0
  6
Continuous
 62
     1
370
    15
100
AcDbSpline
210
0.0
220
0.0
230
1.0
 70
     8
 71
     3
 72
    26
 73
    22
 74
     0
 42
0.000000001
 43
0.00000001
 40
0.0
 40
0.0
 40
0.0
 40
0.0
 40
0.0554739934815487
 40
0.1109599056374257
 40
0.1665031826390011
 40
0.2220018764962662
 40
0.2745567880162905
 40
0.3271661270310625
 40
0.3797746314285284
 40
0.4323294663082272
 40
0.4849206706045485
 40
0.5375452194974192
 40
0.5901036143944712
 40
0.6426802951085169
 40
0.695312912809804
 40
0.7478785021332772
 40
0.8004442821306395
 40
0.8530769839711227
 40
0.9117812293998852
 40
0.9704627983364665
 40
1.0
 40
1.0
 40
1.0
 40
1.0
 10
10.00000000000001
 20
10.66266390996866
 30
0.0
 10
10.60276012699357
 20
10.31421189123804
 30
0.0
 10
11.80840988493742
 20
9.617232988315184
 30
0.0
 10
13.6174257466429
 20
8.318348039106256
 30
0.0
 10
15.42846650314926
 20
6.867536250016076
 30
0.0
 10
17.20638426723666
 20
5.300381267930939
 30
0.0
 10
18.95144453072269
 20
3.661282225189123
 30
0.0
 10
20.66668243297722
 20
1.986185600526443
 30
0.0
 10
22.38189702945566
 20
0.2750384424341976
 30
0.0
 10
24.09535320607337
 20
-1.442496545675851
 30
0.0
 10
25.80999851736927
 20
-3.13292290056849
 30
0.0
 10
27.52574647127976
 20
-4.765393091736565
 30
0.0
 10
29.23932514662223
 20
-6.312857166914277
 30
0.0
 10
30.95350170435826
 20
-7.744966288742711
 30
0.0
 10
32.66951846972371
 20
-9.03482810793695
 30
0.0
 10
34.38332706059136
 20
-10.16196477973339
 30
0.0
 10
36.09717861188115
 20
-11.1030295680579
 30
0.0
 10
37.87973224177118
 20
-11.8734067537694
 30
0.0
 10
39.72736414483583
 20
-12.41301512152138
 30
0.0
 10
41.323756356163
 20
-12.69127769625976
 30
0.0
 10
42.28251239551011
 20
-12.67081139789381
 30
0.0
 10
42.60352084175895
 20
-12.6639589199231
 30
0.0
  0
LINE
  5
C2
330
1F
100
AcDbEntity
  8
0
  6
Continuous
 62
     1
370
    15
100
AcDbLine
 10
10.0
 20
10.66266390996863
 30
0.0
 11
10.0
 21
12.35862325966309
 31
0.0
  0
SPLINE
  5
C3
330
1F
100
AcDbEntity
  8
0
  6
Continuous
 62
     1
370
    15
100
AcDbSpline
210
0.0
220
0.0
230
1.0
 70
     8
 71
     3
 72
    24
 73
    20
 74
     0
 42
0.000000001
 43
0.00000001
 40
0.0
 40
0.0
 40
0.0
 40
0.0
 40
0.0112309274682674
 40
0.0722354894966521
 40
0.1331624849630523
 40
0.1940892594266029
 40
0.2550937239324469
 40
0.3160333540047826
 40
0.3769517896824165
 40
0.4379469019394432
 40
0.4989033657433719
 40
0.5598176751403503
 40
0.6207941908332467
 40
0.6817716738993055
 40
0.7426860721271692
 40
0.8070124964511761
 40
0.8713905954013643
 40
0.9357022049416363
 40
1.0
 40
1.0
 40
1.0
 40
1.0
 10
38.12937954246482
 20
-11.90073356722648
 30
0.0
 10
38.02408908868176
 20
-11.94236168443291
 30
0.0
 10
37.34687810233771
 20
-12.21010692913572
 30
0.0
 10
36.09709173625757
 20
-12.48963993979651
 30
0.0
 10
34.38335032530425
 20
-12.72055497211367
 30
0.0
 10
32.66951222689764
 20
-12.69992901894198
 30
0.0
 10
30.9535033760539
 20
-12.45373642659487
 30
0.0
 10
29.23932469908546
 20
-11.97928093009357
 30
0.0
 10
27.52574659134998
 20
-11.28682566440642
 30
0.0
 10
25.8099984852015
 20
-10.38974904701707
 30
0.0
 10
24.09535321468346
 20
-9.303175491072421
 30
0.0
 10
22.38189702714667
 20
-8.046593098314574
 30
0.0
 10
20.66668243359614
 20
-6.644600298954747
 30
0.0
 10
18.95144453055735
 20
-5.121753387996344
 30
0.0
 10
17.20638426728371
 20
-3.47477169746728
 30
0.0
 10
15.42846650313635
 20
-1.730005858618478
 30
0.0
 10
13.61742574664634
 20
0.0783225086685482
 30
0.0
 10
11.80840988493655
 20
1.89186223938271
 30
0.0
 10
10.60276012699327
 20
3.061572007172939
 30
0.0
 10
9.999999999999996
 20
3.646364069323114
 30
0.0
  0
SPLINE
  5
C4
330
1F
100
AcDbEntity
  8
0
  6
Continuous
 62
     1
370
    15
100
AcDbSpline
210
0.0
220
0.0
230
1.0
 70
    24
 71
     3
 72
    20
 73
    16
 74
     0
 42
0.000000001
 43
0.00000001
 40
0.0
 40
0.0
 40
0.0
 40
0.0
 40
0.2499999999999994
 40
0.2499999999999994
 40
0.3749999999999996
 40
0.3749999999999996
 40
0.4999999999999997
 40
0.4999999999999997
 40
0.6249999999999998
 40
0.6249999999999998
 40
0.7499999999999998
 40
0.7499999999999998
 40
0.8749999999999999
 40
0.8749999999999999
 40
1.0
 40
1.0
 40
1.0
 40
1.0
 10
10.0
 20
10.66266390996848
 30
0.0
 10
10.0
 20
10.14349730675255
 30
0.0
 10
10.0
 20
9.551175198483488
 30
0.0
 10
10.0
 20
8.569179721256774
 30
0.0
 10
10.0
 20
8.226787012716805
 30
0.0
 10
10.0
 20
7.524247423289096
 30
0.0
 10
10.0
 20
7.164053521006087
 30
0.0
 10
10.0
 20
6.447448622788798
 30
0.0
 10
10.0
 20
6.091095541655021
 30
0.0
 10
10.0
 20
5.413163183792655
 30
0.0
 10
10.0
 20
5.091804271300712
 30
0.0
 10
10.0
 20
4.520302537323873
 30
0.0
 10
10.0
 20
4.27051168497476
 30
0.0
 10
10.0
 20
3.875202004112852
 30
0.0
 10
10.0
 20
3.730003218392955
 30
0.0
 10
10.0
 20
3.646364069323113
 30
0.0
  0
SPLINE
  5
C5
330
1F
100
AcDbEntity
  8
0
  6
Continuous
 62
     1
370
    15
100
AcDbSpline
210
0.0
220
0.0
230
1.0
 70
     8
 71
     3
 72
    19
 73
    15
 74
     0
 42
0.000000001
 43
0.00000001
 40
0.0
 40
0.0
 40
0.0
 40
0.0
 40
0.093690179051285
 40
0.1874004875841843
 40
0.2812076797616067
 40
0.3749395753448783
 40
0.4636997089013934
 40
0.552551765202391
 40
0.6414024119159416
 40
0.7301624160344017
 40
0.8189838445598947
 40
0.9078615888655407
 40
0.9966276055070284
 40
0.9999999999999999
 40
0.9999999999999999
 40
0.9999999999999999
 40
0.9999999999999999
 10
10.00000000000001
 20
-0.6434650087032541
 30
0.0
 10
10.60276012683189
 20
-1.244484106361873
 30
0.0
 10
11.80840988445236
 20
-2.446651431572966
 30
0.0
 10
13.61742574858447
 20
-4.197620807365122
 30
0.0
 10
15.42846649586253
 20
-5.863054418092076
 30
0.0
 10
17.20638429380597
 20
-7.38338982758101
 30
0.0
 10
18.95144443735619
 20
-8.73592134038883
 30
0.0
 10
20.66668278246146
 20
-9.90386118377748
 30
0.0
 10
22.3818957256228
 20
-10.89222085362512
 30
0.0
 10
24.09535806797543
 20
-11.68108974137467
 30
0.0
 10
25.80998035303025
 20
-12.26406383586702
 30
0.0
 10
27.52581427192571
 20
-12.59696315834829
 30
0.0
 10
28.6897785298371
 20
-12.73543091739746
 30
0.0
 10
29.28260777055559
 20
-12.69717810017871
 30
0.0
 10
29.30430614848566
 20
-12.69577799365918
 30
0.0
  0
LINE
  5
C6
330
1F
100
AcDbEntity
  8
0
  6
Continuous
 62
     1
370
    15
100
AcDbLine
 10
10.0
 20
-0.6434650087032631
 30
0.0
 11
10.0
 21
3.646364069323112
 31
0.0
  0
SPLINE
  5
C7
330
1F
100
AcDbEntity
  8
0
  6
Continuous
 62
     1
370
    15
100
AcDbSpline
210
0.0
220
0.0
230
1.0
 70
     8
 71
     3
 72
    23
 73
    19
 74
     0
 42
0.000000001
 43
0.00000001
 40
0.0
 40
0.0
 40
0.0
 40
0.0
 40
0.0667873908722951
 40
0.1336350877167691
 40
0.2004950782960706
 40
0.2672844568857985
 40
0.3340989330809165
 40
0.3995242229829254
 40
0.4648663254209841
 40
0.5302081908411046
 40
0.5956333761535503
 40
0.6609890287709501
 40
0.7263219511306194
 40
0.7917371064785875
 40
0.8571108126928496
 40
0.9224393097587517
 40
0.9878345209327277
 40
1.0
 40
1.0
 40
1.0
 40
1.0
 10
46.57600000000001
 20
-6.027094128637217
 30
0.0
 10
45.99231841140927
 20
-5.501845755986762
 30
0.0
 10
44.82442819633661
 20
-4.45087473532737
 30
0.0
 10
43.07112617153899
 20
-2.759713416645991
 30
0.0
 10
41.31744000448766
 20
-1.024670720646168
 30
0.0
 10
39.56564035373034
 20
0.7333541446160003
 30
0.0
 10
37.82592255027075
 20
2.463921878099003
 30
0.0
 10
36.09716051112879
 20
4.134429190204223
 30
0.0
 10
34.38333190485821
 20
5.71919650870256
 30
0.0
 10
32.66951718099885
 20
7.199767989096444
 30
0.0
 10
30.95350200767801
 20
8.547790070954031
 30
0.0
 10
29.23932522108003
 20
9.741490899861981
 30
0.0
 10
27.52574587029359
 20
10.75839130443662
 30
0.0
 10
25.81000084962647
 20
11.57706127164884
 30
0.0
 10
24.09534448781405
 20
12.19116895021999
 30
0.0
 10
22.38192956222914
 20
12.56283482666497
 30
0.0
 10
21.13214529007299
 20
12.72306625382447
 30
0.0
 10
20.45392426364085
 20
12.68798486383577
 30
0.0
 10
20.34754455409494
 20
12.68248230945891
 30
0.0
  0
ELLIPSE
  5
C9
330
1F
100
AcDbEntity
  8
0
  6
Continuous
 62
     1
370
    15
100
AcDbEllipse
 10
49.52814800674211
 20
0.0000000000000029
 30
0.0
 11
17.89316233288197
 21
11.88911657764826
 31
0.0
210
0.0
220
0.0
230
1.0
 40
0.2495534463455962
 41
4.322422312290591
 42
4.384575791444821
  0
SPLINE
  5
CA
330
1F
100
AcDbEntity
  8
0
  6
Continuous
 62
     1
370
    15
100
AcDbSpline
210
0.0
220
0.0
230
1.0
 70
     8
 71
     3
 72
    20
 73
    16
 74
     0
 42
0.000000001
 43
0.00000001
 40
0.0
 40
0.0
 40
0.0
 40
0.0
 40
0.1249999999999993
 40
0.1249999999999993
 40
0.2499999999999986
 40
0.2499999999999986
 40
0.3749999999999979
 40
0.3749999999999979
 40
0.4999999999999972
 40
0.4999999999999972
 40
0.6249999999999966
 40
0.6249999999999966
 40
0.7499999999999958
 40
0.7499999999999958
 40
1.0
 40
1.0
 40
1.0
 40
1.0
 10
48.10000000000001
 20
-5.515547546792878
 30
0.0
 10
48.10000000000002
 20
-5.632031436311029
 30
0.0
 10
48.09424934893229
 20
-5.74619005083049
 30
0.0
 10
48.0641487349279
 20
-5.967329798903859
 30
0.0
 10
48.03952199294778
 20
-6.074171483838469
 30
0.0
 10
47.9631509966604
 20
-6.262720639879378
 30
0.0
 10
47.9110042735623
 20
-6.344010075723729
 30
0.0
 10
47.77890474467723
 20
-6.461981120036735
 30
0.0
 10
47.70124983041259
 20
-6.49675424722087
 30
0.0
 10
47.53531092589681
 20
-6.523445035778738
 30
0.0
 10
47.44756533080842
 20
-6.515944758092537
 30
0.0
 10
47.27050954300378
 20
-6.472420928216296
 30
0.0
 10
47.1822829869722
 20
-6.436995696054494
 30
0.0
 10
46.916622592636
 20
-6.301150030318031
 30
0.0
 10
46.74376369225128
 20
-6.174560234809041
 30
0.0
 10
46.57599999999999
 20
-6.0270941286372
 30
0.0
  0
SPLINE
  5
CB
330
1F
100
AcDbEntity
  8
0
  6
Continuous
 62
     1
370
    15
100
AcDbSpline
210
0.0
220
0.0
230
1.0
 70
     8
 71
     3
 72
    19
 73
    15
 74
     0
 42
0.000000001
 43
0.00000001
 40
0.0
 40
0.0
 40
0.0
 40
0.0
 40
0.047667672174659
 40
0.130781507597587
 40
0.213790861130661
 40
0.2968290948045847
 40
0.3799556738923782
 40
0.4629763901142753
 40
0.5459974074815233
 40
0.6291241194565612
 40
0.7218400684925508
 40
0.8145202028701963
 40
0.9072230611757448
 40
1.0
 40
1.0
 40
1.0
 40
1.0
 10
24.8257783777288
 20
11.89190981363449
 30
0.0
 10
25.15375838486226
 20
12.00867618146019
 30
0.0
 10
26.053607650369
 20
12.32903756946726
 30
0.0
 10
27.52577625880133
 20
12.60741896007684
 30
0.0
 10
29.23931716063978
 20
12.74017245398154
 30
0.0
 10
30.95350386899738
 20
12.63080215393144
 30
0.0
 10
32.66951780862017
 20
12.29462542161873
 30
0.0
 10
34.3833275418672
 20
11.73356986617878
 30
0.0
 10
36.0971773466525
 20
10.95894314631129
 30
0.0
 10
37.87973705257261
 20
9.948046509845659
 30
0.0
 10
39.72734392321441
 20
8.691399512159741
 30
0.0
 10
41.64065600496299
 20
7.191122848390533
 30
0.0
 10
43.554507319672
 20
5.5335660868681
 30
0.0
 10
44.8314268761373
 20
4.330189720855311
 30
0.0
 10
45.47014165481893
 20
3.728261223952813
 30
0.0
  0
SPLINE
  5
CC
330
1F
100
AcDbEntity
  8
0
  6
Continuous
 62
     1
370
    15
100
AcDbSpline
210
0.0
220
0.0
230
1.0
 70
     8
 71
     3
 72
    16
 73
    12
 74
     0
 42
0.000000001
 43
0.00000001
 40
0.0
 40
0.0
 40
0.0
 40
0.0
 40
0.2499999999999991
 40
0.2499999999999991
 40
0.4999999999999982
 40
0.4999999999999982
 40
0.7499999999999973
 40
0.7499999999999973
 40
0.8749999999999987
 40
0.8749999999999987
 40
1.0
 40
1.0
 40
1.0
 40
1.0
 10
45.47014165481937
 20
3.72826122395243
 30
0.0
 10
45.42600622329753
 20
3.548355012466769
 30
0.0
 10
45.36529656987892
 20
3.36201862238921
 30
0.0
 10
45.20242258795633
 20
2.973262977775744
 30
0.0
 10
45.10052281464948
 20
2.770946360767874
 30
0.0
 10
44.83880432387056
 20
2.343842741285128
 30
0.0
 10
44.68312189203515
 20
2.126247864240438
 30
0.0
 10
44.40503333123326
 20
1.79682728908132
 30
0.0
 10
44.30468105920319
 20
1.686498731996711
 30
0.0
 10
44.09496470187754
 20
1.472749843868849
 30
0.0
 10
43.98476774640072
 20
1.368292902871521
 30
0.0
 10
43.8689379131542
 20
1.266386639633637
 30
0.0
  0
SPLINE
  5
CD
330
1F
100
AcDbEntity
  8
0
  6
Continuous
 62
     1
370
    15
100
AcDbSpline
210
0.0
220
0.0
230
1.0
 70
     8
 71
     3
 72
     8
 73
     4
 74
     0
 42
0.000000001
 43
0.00000001
 40
0.0
 40
0.0
 40
0.0
 40
0.0
 40
1.0
 40
1.0
 40
1.0
 40
1.0
 10
48.10000000000001
 20
-1.709244218993116
 30
0.0
 10
46.68401039512491
 20
-0.7249183599499469
 30
0.0
 10
45.27303216695041
 20
0.2670878615329421
 30
0.0
 10
43.8689379131542
 20
1.266386639633632
 30
0.0
  0
LINE
  5
CE
330
1F
100
AcDbEntity
  8
0
  6
Continuous
 62
     1
370
    15
100
AcDbLine
 10
48.10000000000001
 20
-5.515547546792868
 30
0.0
 11
48.10000000000001
 21
-1.709244218993112
 31
0.0
  0
SPLINE
  5
CF
330
1F
100
AcDbEntity
  8
0
  6
Continuous
 62
     1
370
    15
100
AcDbSpline
210
0.0
220
0.0
230
1.0
 70
     8
 71
     3
 72
    16
 73
    12
 74
     0
 42
0.000000001
 43
0.00000001
 40
0.0
 40
0.0
 40
0.0
 40
0.0
 40
0.0492806109744754
 40
0.164851961994862
 40
0.2805413356232761
 40
0.3962325446270629
 40
0.511804064184293
 40
0.6338491442160943
 40
0.7559922653554833
 40
0.8780092376308598
 40
1.0
 40
1.0
 40
1.0
 40
1.0
 10
24.8257783777287
 20
-11.89190981363448
 30
0.0
 10
24.5822090239388
 20
-11.98228925130412
 30
0.0
 10
23.76742842239791
 20
-12.28462372584115
 30
0.0
 10
22.38193555212789
 20
-12.56769774069405
 30
0.0
 10
20.66667210721603
 20
-12.73673942869982
 30
0.0
 10
18.95144728930257
 20
-12.66135257238362
 30
0.0
 10
17.20638348222725
 20
-12.35300379887738
 30
0.0
 10
15.42846671844088
 20
-11.79923793335749
 30
0.0
 10
13.61742568927816
 20
-10.9938744279399
 30
0.0
 10
11.80840989926884
 20
-9.977569527834648
 30
0.0
 10
10.60276013177036
 20
-9.133999099011772
 30
0.0
 10
10.0
 20
-8.71225919034008
 30
0.0
  0
SPLINE
  5
D0
330
1F
100
AcDbEntity
  8
0
  6
Continuous
 62
     1
370
    15
100
AcDbSpline
210
0.0
220
0.0
230
1.0
 70
    24
 71
     3
 72
    15
 73
    11
 74
     0
 42
0.000000001
 43
0.00000001
 40
0.0
 40
0.0
 40
0.0
 40
0.0
 40
0.0875021486153742
 40
0.2143723721636036
 40
0.341242595711833
 40
0.4681128192600624
 40
0.5949830428082917
 40
0.7218532663565217
 40
0.8487234899047514
 40
1.0
 40
1.0
 40
1.0
 40
1.0
 10
10.0
 20
-1.252522068160768
 30
0.0
 10
10.0
 20
-1.393643529448668
 30
0.0
 10
10.0
 20
-1.739378381657382
 30
0.0
 10
10.0
 20
-2.445001941978594
 30
0.0
 10
10.0
 20
-3.326736400130437
 30
0.0
 10
10.0
 20
-4.304425990397675
 30
0.0
 10
10.0
 20
-5.341673594823062
 30
0.0
 10
10.0
 20
-6.411009616277561
 30
0.0
 10
10.0
 20
-7.555734735469965
 30
0.0
 10
10.0
 20
-8.304840668116327
 30
0.0
 10
10.0
 20
-8.712259190340074
 30
0.0
  0
LINE
  5
D1
330
1F
100
AcDbEntity
  8
0
  6
Continuous
 62
     1
370
    15
100
AcDbLine
 10
48.10000000000001
 20
-0.8660254037844396
 30
0.0
 11
48.10000000000001
 21
4.699560279681384
 31
0.0
  0
LINE
  5
D2
330
1F
100
AcDbEntity
  8
0
  6
Continuous
 62
     1
370
    15
100
AcDbLine
 10
43.8689379131542
 20
1.266386639633633
 30
0.0
 11
48.10000000000001
 21
-0.8660254037844396
 31
0.0
  0
ELLIPSE
  5
D3
330
1F
100
AcDbEntity
  8
0
  6
Continuous
 62
     1
370
    15
100
AcDbEllipse
 10
49.52814800674211
 20
0.0000000000000004
 30
0.0
 11
17.89316233288197
 21
11.88911657764828
 31
0.0
210
0.0
220
0.0
230
1.0
 40
0.2495534463455927
 41
1.569968021946877
 42
1.632121501101089
  0
SPLINE
  5
D4
330
1F
100
AcDbEntity
  8
0
  6
Continuous
 62
     1
370
    15
100
AcDbSpline
210
0.0
220
0.0
230
1.0
 70
     8
 71
     3
 72
    14
 73
    10
 74
     0
 42
0.000000001
 43
0.00000001
 40
0.0
 40
0.0
 40
0.0
 40
0.0
 40
0.25
 40
0.25
 40
0.5
 40
0.5
 40
0.75
 40
0.75
 40
1.0
 40
1.0
 40
1.0
 40
1.0
 10
48.10000000000001
 20
4.699560279681385
 30
0.0
 10
48.09999999999999
 20
4.80798357817449
 30
0.0
 10
48.05209090642077
 20
4.887713504803144
 30
0.0
 10
47.87452566107169
 20
4.970338016570663
 30
0.0
 10
47.74668794072232
 20
4.97374262041352
 30
0.0
 10
47.45202157509989
 20
4.917988675992774
 30
0.0
 10
47.28368940236791
 20
4.858985340406851
 30
0.0
 10
46.93635191758771
 20
4.697443204243562
 30
0.0
 10
46.75510855182844
 20
4.594101971200107
 30
0.0
 10
46.57600000000004
 20
4.475146606170189
 30
0.0
  0
SPLINE
  5
D5
330
1F
100
AcDbEntity
  8
0
  6
Continuous
 62
     1
370
    15
100
AcDbSpline
210
0.0
220
0.0
230
1.0
 70
     8
 71
     3
 72
    15
 73
    11
 74
     0
 42
0.000000001
 43
0.00000001
 40
0.0
 40
0.0
 40
0.0
 40
0.0
 40
0.135488571422953
 40
0.2710994828551811
 40
0.4067353340334822
 40
0.5422279378492544
 40
0.6777714560465588
 40
0.8104967945869641
 40
0.9430533744664346
 40
1.0
 40
1.0
 40
1.0
 40
1.0
 10
46.57600000000001
 20
6.667522208928568
 30
0.0
 10
45.99231842712376
 20
7.152462540539469
 30
0.0
 10
44.82442824349431
 20
8.122781082794498
 30
0.0
 10
43.07112598269504
 20
9.38914827750134
 30
0.0
 10
41.31744071246075
 20
10.48620297864734
 30
0.0
 10
39.56563771334149
 20
11.38111192453201
 30
0.0
 10
37.82593232240592
 20
12.05874899470594
 30
0.0
 10
36.09712490352896
 20
12.49343699873455
 30
0.0
 10
34.70914736400887
 20
12.7004922488697
 30
0.0
 10
33.89260820996749
 20
12.6783242365693
 30
0.0
 10
33.6472342631926
 20
12.67166264215171
 30
0.0
  0
SPLINE
  5
D7
330
1F
100
AcDbEntity
  8
0
  6
Continuous
 62
     1
370
    15
100
AcDbSpline
210
0.0
220
0.0
230
1.0
 70
     8
 71
     3
 72
    20
 73
    16
 74
     0
 42
0.000000001
 43
0.00000001
 40
0.0
 40
0.0
 40
0.0
 40
0.0
 40
0.1249999999999993
 40
0.1249999999999993
 40
0.2499999999999986
 40
0.2499999999999986
 40
0.3749999999999979
 40
0.3749999999999979
 40
0.4999999999999972
 40
0.4999999999999972
 40
0.6249999999999966
 40
0.6249999999999966
 40
0.7499999999999958
 40
0.7499999999999958
 40
1.0
 40
1.0
 40
1.0
 40
1.0
 10
48.10000000000001
 20
5.6601406621571
 30
0.0
 10
48.10000000000001
 20
5.622025592687894
 30
0.0
 10
48.09424934893229
 20
5.590479769514369
 30
0.0
 10
48.0641487349279
 20
5.547455253886718
 30
0.0
 10
48.03952199294778
 20
5.536317738338769
 30
0.0
 10
47.9631509966604
 20
5.546473423893629
 30
0.0
 10
47.91100427356231
 20
5.568265942340485
 30
0.0
 10
47.77890474467723
 20
5.648213626691707
 30
0.0
 10
47.70124983041258
 20
5.704806295271355
 30
0.0
 10
47.53531092589684
 20
5.835859997196398
 30
0.0
 10
47.44756533080842
 20
5.909692008625287
 30
0.0
 10
47.27050954300377
 20
6.061942798990112
 30
0.0
 10
47.18228298697221
 20
6.139411611758077
 30
0.0
 10
46.91662259263602
 20
6.372920134438584
 30
0.0
 10
46.74376369225128
 20
6.524933737273042
 30
0.0
 10
46.57599999999999
 20
6.667522208928586
 30
0.0
  0
LINE
  5
D8
330
1F
100
AcDbEntity
  8
0
  6
Continuous
 62
     1
370
    15
100
AcDbLine
 10
48.10000000000001
 20
4.699560279681384
 30
0.0
 11
48.10000000000001
 21
5.660140662157106
 31
0.0
  0
SPLINE
  5
D9
330
1F
100
AcDbEntity
  8
0
  6
Continuous
 62
     1
370
    15
100
AcDbSpline
210
0.0
220
0.0
230
1.0
 70
     8
 71
     3
 72
    11
 73
     7
 74
     0
 42
0.000000001
 43
0.00000001
 40
0.0
 40
0.0
 40
0.0
 40
0.0
 40
0.2177167729455284
 40
0.4783657967350848
 40
0.7390787281750171
 40
1.0
 40
1.0
 40
1.0
 40
1.0
 10
38.12937954246482
 20
11.90073356722648
 30
0.0
 10
38.66213229690487
 20
12.07422987955148
 30
0.0
 10
39.83269298633921
 20
12.45543478422234
 30
0.0
 10
41.6406342969145
 20
12.70345852857826
 30
0.0
 10
43.55451275229888
 20
12.72617701009574
 30
0.0
 10
44.83142868749505
 20
12.49412482481964
 30
0.0
 10
45.47014165481895
 20
12.37805239143042
 30
0.0
  0
SPLINE
  5
DA
330
1F
100
AcDbEntity
  8
0
  6
Continuous
 62
     1
370
    15
100
AcDbSpline
210
0.0
220
0.0
230
1.0
 70
     8
 71
     3
 72
    16
 73
    12
 74
     0
 42
0.000000001
 43
0.00000001
 40
0.0
 40
0.0
 40
0.0
 40
0.0
 40
0.2500000000000008
 40
0.2500000000000008
 40
0.5000000000000017
 40
0.5000000000000017
 40
0.7500000000000024
 40
0.7500000000000024
 40
0.8750000000000012
 40
0.8750000000000012
 40
1.0
 40
1.0
 40
1.0
 40
1.0
 10
45.47014165481937
 20
12.37805239143034
 30
0.0
 10
45.42600622329752
 20
12.07176720054485
 30
0.0
 10
45.36529656987892
 20
11.77272278645157
 30
0.0
 10
45.20242258795633
 20
11.19274425334597
 30
0.0
 10
45.10052281464947
 20
10.91169455816099
 30
0.0
 10
44.83880432387056
 20
10.37489820460043
 30
0.0
 10
44.68312189203516
 20
10.12851933041408
 30
0.0
 10
44.40503333123326
 20
9.806942605098504
 30
0.0
 10
44.30468105920318
 20
9.707992227899519
 30
0.0
 10
44.09496470187753
 20
9.53483740794209
 30
0.0
 10
43.98476774640073
 20
9.459569846093652
 30
0.0
 10
43.86893791315421
 20
9.3962351659392
 30
0.0
  0
SPLINE
  5
DB
330
1F
100
AcDbEntity
  8
0
  6
Continuous
 62
     1
370
    15
100
AcDbSpline
210
0.0
220
0.0
230
1.0
 70
     8
 71
     3
 72
     8
 73
     4
 74
     0
 42
0.000000001
 43
0.00000001
 40
0.0
 40
0.0
 40
0.0
 40
0.0
 40
1.0
 40
1.0
 40
1.0
 40
1.0
 10
48.10000000000001
 20
7.925173883962528
 30
0.0
 10
46.68401039512491
 20
8.525708487441646
 30
0.0
 10
45.27303216695041
 20
9.019190237232944
 30
0.0
 10
43.86893791315421
 20
9.3962351659392
 30
0.0
  0
LINE
  5
DC
330
1F
100
AcDbEntity
  8
0
  6
Continuous
 62
     1
370
    15
100
AcDbLine
 10
48.10000000000001
 20
5.660140662157106
 30
0.0
 11
48.10000000000001
 21
7.925173883962528
 31
0.0
  0
LINE
  5
DD
330
1F
100
AcDbEntity
  8
0
  6
Continuous
 62
     1
370
    15
100
AcDbLine
 10
48.10000000000001
 20
-6.431611087250326
 30
0.0
 11
48.10000000000001
 21
-5.515547546792867
 31
0.0
  0
SPLINE
  5
DE
330
1F
100
AcDbEntity
  8
0
  6
Continuous
 62
     1
370
    15
100
AcDbSpline
210
0.0
220
0.0
230
1.0
 70
     8
 71
     3
 72
    14
 73
    10
 74
     0
 42
0.000000001
 43
0.00000001
 40
0.0
 40
0.0
 40
0.0
 40
0.0
 40
0.2500000000000002
 40
0.2500000000000002
 40
0.5000000000000003
 40
0.5000000000000003
 40
0.7500000000000004
 40
0.7500000000000004
 40
1.0
 40
1.0
 40
1.0
 40
1.0
 10
48.10000000000001
 20
-6.431611087250327
 30
0.0
 10
48.10000000000001
 20
-6.540034385743433
 30
0.0
 10
48.05209090642077
 20
-6.677868223053655
 30
0.0
 10
47.87452566107169
 20
-6.975842982240311
 30
0.0
 10
47.74668794072231
 20
-7.134288538227898
 30
0.0
 10
47.45202157509991
 20
-7.435904498137982
 30
0.0
 10
47.28368940236791
 20
-7.581053585370868
 30
0.0
 10
46.9363519175877
 20
-7.840760625184016
 30
0.0
 10
46.75510855182843
 20
-7.957230445720343
 30
0.0
 10
46.57600000000004
 20
-8.05549704254057
 30
0.0
  0
LINE
  5
DF
330
1F
100
AcDbEntity
  8
0
  6
Continuous
 62
     1
370
    15
100
AcDbLine
 10
48.10000000000001
 20
-0.8660254037844396
 30
0.0
 11
48.10000000000001
 21
-1.709244218993113
 31
0.0
  0
SPLINE
  5
E0
330
1F
100
AcDbEntity
  8
0
  6
Continuous
 62
     1
370
    15
100
AcDbSpline
210
0.0
220
0.0
230
1.0
 70
     8
 71
     3
 72
    11
 73
     7
 74
     0
 42
0.000000001
 43
0.00000001
 40
0.0
 40
0.0
 40
0.0
 40
0.0
 40
0.3011700144448839
 40
0.6024047357387671
 40
0.9039508925418566
 40
1.0
 40
1.0
 40
1.0
 40
1.0
 10
10.00000000000001
 20
-11.30612891867186
 30
0.0
 10
10.60276444158153
 20
-11.55965319322893
 30
0.0
 10
11.80842282962829
 20
-12.06675621243028
 30
0.0
 10
13.61737393258914
 20
-12.50447384711966
 30
0.0
 10
15.01744328547337
 20
-12.71260195061116
 30
0.0
 10
15.81329812850904
 20
-12.67991624379171
 30
0.0
 10
16.00555682525649
 20
-12.67202019157772
 30
0.0
  0
LINE
  5
E1
330
1F
100
AcDbEntity
  8
0
  6
Continuous
 62
     1
370
    15
100
AcDbLine
 10
10.0
 20
-11.30612891867184
 30
0.0
 11
10.0
 21
-8.712259190340074
 31
0.0
  0
LINE
  5
E2
330
1F
100
AcDbEntity
  8
0
  6
Continuous
 62
     1
370
    15
100
AcDbLine
 10
48.10000000000001
 20
-6.431611087250328
 30
0.0
 11
48.10000000000001
 21
-9.634418102955637
 31
0.0
  0
LINE
  5
E4
330
1F
100
AcDbEntity
  8
0
  6
Continuous
 62
     1
370
    15
100
AcDbLine
 10
11.5260025940478
 20
-11.90254762518756
 30
0.0
 11
10.0
 21
-12.35862325966307
 31
0.0
  0
SPLINE
  5
E5
330
1F
100
AcDbEntity
  8
0
  6
Continuous
 62
     1
370
    15
100
AcDbSpline
210
0.0
220
0.0
230
1.0
 70
    24
 71
     3
 72
     9
 73
     5
 74
     0
 42
0.000000001
 43
0.00000001
 40
0.0
 40
0.0
 40
0.0
 40
0.0
 40
0.3862257407286511
 40
1.0
 40
1.0
 40
1.0
 40
1.0
 10
10.0
 20
-11.61416048624679
 30
0.0
 10
10.0
 20
-11.702252050441
 30
0.0
 10
10.0
 20
-11.930335150309
 30
0.0
 10
10.0
 20
-12.19573045383023
 30
0.0
 10
10.0
 20
-12.35862325966307
 30
0.0
  0
ELLIPSE
  5
E6
330
1F
100
AcDbEntity
  8
0
  6
Continuous
 62
     1
370
    15
100
AcDbEllipse
 10
49.52814800674211
 20
-0.0000000000000008
 30
0.0
 11
18.13747968562481
 21
0.0
 31
0.0
210
0.0
220
0.0
230
1.0
 40
0.7002075382097114
 41
1.734288768840825
 42
1.796442247995047
  0
SPLINE
  5
E7
330
1F
100
AcDbEntity
  8
0
  6
Continuous
 62
     1
370
    15
100
AcDbSpline
210
0.0
220
0.0
230
1.0
 70
     8
 71
     3
 72
    14
 73
    10
 74
     0
 42
0.000000001
 43
0.00000001
 40
0.0
 40
0.0
 40
0.0
 40
0.0
 40
0.25
 40
0.25
 40
0.5
 40
0.5
 40
0.75
 40
0.75
 40
1.0
 40
1.0
 40
1.0
 40
1.0
 10
48.10000000000001
 20
11.13117136693169
 30
0.0
 10
48.10000000000002
 20
11.3480179639179
 30
0.0
 10
48.05209090642079
 20
11.56558172785678
 30
0.0
 10
47.87452566107169
 20
11.94618099881095
 30
0.0
 10
47.74668794072232
 20
12.1080311586414
 30
0.0
 10
47.45202157509989
 20
12.35389317413073
 30
0.0
 10
47.28368940236791
 20
12.4400389257777
 30
0.0
 10
46.93635191758771
 20
12.53820382942757
 30
0.0
 10
46.75510855182844
 20
12.55133241692043
 30
0.0
 10
46.57600000000004
 20
12.53064364871074
 30
0.0
  0
LINE
  5
E8
330
1F
100
AcDbEntity
  8
0
  6
Continuous
 62
     1
370
    15
100
AcDbLine
 10
48.10000000000001
 20
7.925173883962528
 30
0.0
 11
48.10000000000001
 21
11.13117136693169
 31
0.0
  0
LINE
  5
E9
330
1F
100
AcDbEntity
  8
0
  6
Continuous
 62
     1
370
    15
100
AcDbLine
 10
48.10000000000001
 20
11.13117136693169
 30
0.0
 11
48.10000000000001
 21
11.176
 31
0.0
  0
LINE
  5
EA
330
1F
100
AcDbEntity
  8
0
  6
Continuous
 62
     1
370
    15
100
AcDbLine
 10
48.10000000000001
 20
-11.176
 30
0.0
 11
48.10000000000001
 21
-11.17568820894996
 31
0.0
  0
LINE
  5
ED
330
1F
100
AcDbEntity
  8
0
  6
Continuous
 62
     8
370
    15
100
AcDbLine
 10
46.57600000000001
 20
-12.7
 30
0.0
 11
46.57600000000001
 21
-12.69461633756576
 31
0.0
  0
LINE
  5
EE
330
1F
100
AcDbEntity
  8
0
  6
Continuous
 62
     8
370
    15
100
AcDbLine
 10
46.57600000000001
 20
12.53064364870886
 30
0.0
 11
46.57600000000001
 21
12.7
 31
0.0
  0
LINE
  5
EF
330
1F
100
AcDbEntity
  8
중심선
100
AcDbLine
 10
-56.5
 20
0.0
 30
0.0
 11
51.10000000000002
 21
0.0
 31
0.0
  0
CIRCLE
  5
F0
330
1F
100
AcDbEntity
  8
외형선
100
AcDbCircle
 10
0.0
 20
0.0
 30
0.0
 40
3.000000000000004
  0
INSERT
  5
F1
330
1F
100
AcDbEntity
  8
0
  6
Continuous
 62
     7
100
AcDbBlockReference
 66
     1
  2
블럭10
 10
-16.62936049909348
 20
-51.78679627639982
 30
0.0
  0
ATTRIB
  5
F2
330
F1
100
AcDbEntity
  8
FORMAT
 62
     2
100
AcDbText
 10
-27.68038085127795
 20
-49.71142936356762
 30
0.0
 40
4.233333333333333
  1
GMG22949[ 6 FLUTE ]
 41
0.75
  7
SLDTEXTSTYLE0
 11
-27.68038085127795
 21
-51.82809603023429
 31
0.0
100
AcDbAttribute
  2
AUTOATTR0
 70
     0
 74
     1
  0
SEQEND
  5
F3
330
F1
100
AcDbEntity
  8
0
  6
Continuous
 62
     7
  0
HATCH
  5
F4
330
1F
100
AcDbEntity
  8
중심선
100
AcDbHatch
 10
0.0
 20
0.0
 30
0.0
210
0.0
220
0.0
230
1.0
  2
SOLID
 70
     1
 71
     0
 91
        1
 92
        0
 93
        4
 72
     1
 10
-10.91445119471263
 20
-35.53962197475588
 11
-14.36072643854991
 21
-35.53962197475588
 72
     1
 10
-14.36072643854991
 20
-35.53962197475588
 11
-16.48895629775393
 21
-38.07594755532848
 72
     1
 10
-16.48895629775394
 20
-38.07594755532848
 11
-13.0426479688035
 21
-38.07590812602599
 72
     1
 10
-13.0426479688035
 20
-38.07590812602599
 11
-10.91445119471263
 21
-35.53962197475588
 97
        0
 75
     0
 76
     1
 98
        1
 10
-6.386651720807965
 20
0.2603780252441154
  0
HATCH
  5
F5
330
1F
100
AcDbEntity
  8
중심선
100
AcDbHatch
 10
0.0
 20
0.0
 30
0.0
210
0.0
220
0.0
230
1.0
  2
SOLID
 70
     1
 71
     0
 91
        1
 92
        0
 93
        4
 72
     1
 10
-5.901687203676678
 20
-35.53962197475588
 11
-9.34796244751396
 21
-35.53962197475588
 72
     1
 10
-9.34796244751396
 20
-35.53962197475588
 11
-13.87910045587135
 21
-40.9396219747559
 72
     1
 10
-13.87910045587135
 20
-40.9396219747559
 11
-10.43282521203407
 21
-40.9396219747559
 72
     1
 10
-10.43282521203407
 20
-40.9396219747559
 11
-5.901687203676678
 21
-35.53962197475588
 97
        0
 75
     0
 76
     1
 98
        1
 10
-6.386651720807965
 20
0.2603780252441154
  0
HATCH
  5
F6
330
1F
100
AcDbEntity
  8
중심선
100
AcDbHatch
 10
0.0
 20
0.0
 30
0.0
210
0.0
220
0.0
230
1.0
  2
SOLID
 70
     1
 71
     0
 91
        1
 92
        0
 93
        4
 72
     1
 10
-0.8889232126407824
 20
-35.53962197475591
 11
-4.335198456477898
 21
-35.53962197475588
 72
     1
 10
-4.335198456477898
 20
-35.53962197475588
 11
-11.38363535836715
 21
-43.9396219747559
 72
     1
 10
-11.38363535836715
 20
-43.9396219747559
 11
-7.937360114529865
 21
-43.9396219747559
 72
     1
 10
-7.937360114529865
 20
-43.9396219747559
 11
-0.8889232126407816
 21
-35.53962197475591
 97
        0
 75
     0
 76
     1
 98
        1
 10
-6.386651720807965
 20
0.2603780252441154
  0
HATCH
  5
F7
330
1F
100
AcDbEntity
  8
중심선
100
AcDbHatch
 10
0.0
 20
0.0
 30
0.0
210
0.0
220
0.0
230
1.0
  2
SOLID
 70
     1
 71
     0
 91
        1
 92
        0
 93
        6
 72
     3
 10
3.910967218371416
 20
-39.73962197480716
 11
3.960054785062283
 21
1.540882976769353E-10
 40
0.3939339440162628
 50
17.09539180608437
 51
320.0019657685081
 73
     0
 72
     1
 10
5.593966874072013
 20
-38.32751597939419
 11
7.89926874777305
 21
-36.39318926934627
 72
     3
 10
3.91096721831857
 20
-39.73962197475603
 11
6.600054785286831
 21
-1.278976924368180E-13
 40
0.6363583540795978
 50
39.99873849337411
 51
368.4976242363725
 73
     1
 72
     1
 10
10.33629971021918
 20
-38.7796219746859
 11
2.591034525154493
 21
-38.77962197468587
 72
     1
 10
2.591034525154493
 20
-38.77962197468587
 11
2.591009480708559
 21
-40.6996219746858
 72
     1
 10
2.591009480708559
 20
-40.6996219746858
 11
7.032389250180596
 21
-40.69962197468577
 97
        0
 75
     0
 76
     1
 98
        1
 10
-6.386651720807965
 20
0.2603780252441154
  0
POINT
  5
F8
330
1F
100
AcDbEntity
  8
치수문자_일반주서
100
AcDbPoint
 10
0.0
 20
0.0
 30
0.0
  0
DIMENSION
  5
F9
330
1F
100
AcDbEntity
  8
치수문자_일반주서
100
AcDbDimension
  2
_D
 10
48.10000000000001
 20
45.35555141807178
 30
0.0
 11
-2.699999999999978
 21
45.35555141807178
 31
0.0
 70
   160
  1
<>
 71
     2
 42
101.6
  3
SLDDIMSTYLE1
100
AcDbAlignedDimension
 13
-53.49999999999999
 23
12.19999999999999
 33
0.0
 14
48.10000000000001
 24
11.176
 34
0.0
100
AcDbRotatedDimension
1001
ACAD
1000
DSTYLE
1002
{
1070
   273
1070
     7
1002
}
  0
DIMENSION
  5
10D
330
1F
100
AcDbEntity
  8
치수문자_일반주서
100
AcDbDimension
  2
_D_1
 10
10.0
 20
28.80299453033793
 30
0.0
 11
28.63090169785223
 21
28.80299453033793
 31
0.0
 70
   160
  1
<>
 71
     2
 42
38.10000000000001
  3
SLDDIMSTYLE1
100
AcDbAlignedDimension
 13
48.10000000000001
 23
11.176
 33
0.0
 14
10.0
 24
-12.35862325966307
 34
0.0
100
AcDbRotatedDimension
1001
ACAD
1000
DSTYLE
1002
{
1070
   273
1070
     7
1002
}
  0
DIMENSION
  5
120
330
1F
100
AcDbEntity
  8
치수문자_일반주서
100
AcDbDimension
  2
_D_2
 10
-66.49999999999996
 20
-12.70000000000005
 30
0.0
 11
-66.5
 21
-0.0000000000000059
 31
0.0
 70
   160
  1
%%c<>
 71
     2
 42
25.4
 52
-270.0
  3
SLDDIMSTYLE1
100
AcDbAlignedDimension
 13
-52.99999999999999
 23
12.7
 33
0.0
 14
-52.99999999999999
 24
-12.7
 34
0.0
 50
90.0000000000002
100
AcDbRotatedDimension
1001
ACAD
1000
DSTYLE
1002
{
1070
   273
1070
     7
1002
}
  0
INSERT
  5
13B
330
1F
100
AcDbEntity
  8
외형선
100
AcDbBlockReference
  2
SW_DOWELSYMBOL_0
 10
0.0
 20
0.0
 30
0.0
  0
ARC
  5
163
102
{ACAD_REACTORS
102
}
330
1F
100
AcDbEntity
  8
0
  6
Continuous
 62
     1
370
    15
100
AcDbCircle
 10
46.57600000000001
 20
11.176
 30
0.0
 40
1.524
100
AcDbArc
 50
359.1503993916284
 51
90.0
  0
ARC
  5
164
330
1F
100
AcDbEntity
  8
0
  6
Continuous
 62
     1
370
    15
100
AcDbCircle
 10
46.57600000000001
 20
-11.176
 30
0.0
 40
1.524
100
AcDbArc
 50
270.0
 51
0.8496006083715884
  0
DIMENSION
  5
165
102
{ACAD_REACTORS
102
}
102
{ACAD_XDICTIONARY
360
166
102
}
330
1F
100
AcDbEntity
  8
치수문자_일반주서
100
AcDbDimension
  2
*D6
 10
63.98240284427651
 20
-12.7
 30
0.0
 11
61.35740284427651
 21
0.0
 31
0.0
 70
    32
  1
{%%c<>}
 71
     5
 42
25.4
  3
SLDDIMSTYLE1
100
AcDbAlignedDimension
 13
46.57600000000001
 23
12.7
 33
0.0
 14
46.57600000000001
 24
-12.7
 34
0.0
 50
90.0
100
AcDbRotatedDimension
1001
ACAD
1000
DSTYLE
1002
{
1070
   273
1070
     7
1002
}
  0
DIMENSION
  5
177
102
{ACAD_REACTORS
102
}
102
{ACAD_XDICTIONARY
360
178
102
}
330
1F
100
AcDbEntity
  8
치수문자_일반주서
100
AcDbDimension
  2
*D7
 10
46.57600000000001
 20
11.176
 30
0.0
 11
65.30301802550936
 21
29.21706767980118
 31
0.0
 70
   164
  1
<>
 71
     5
 42
1.523999999999998
  3
SLDDIMSTYLE1
100
AcDbRadialDimension
 15
47.67354417401405
 25
12.23334232209243
 35
0.0
 40
0.0
1001
ACAD
1000
DSTYLE
1002
{
1070
   171
1070
     3
1070
   273
1070
     2
1002
}
1001
ACAD_DSTYLE_DIMRADIAL_EXTENSION
1070
   387
1070
     1
1070
   388
1040
6.268356979236555
1070
   390
1040
1.570796326794897
  0
ENDSEC
  0
SECTION
  2
OBJECTS
  0
DICTIONARY
  5
C
330
0
100
AcDbDictionary
281
     1
  3
ACAD_GROUP
350
D
  3
ACAD_IMAGE_VARS
350
15F
  3
ACAD_LAYOUT
350
1A
  3
ACAD_MLINESTYLE
350
17
  3
ACAD_PLOTSETTINGS
350
19
  3
ACAD_PLOTSTYLENAME
350
E
  3
ACAD_SCALELIST
350
47
  3
APPDATA
350
15D
  3
DWGPROPS
350
184
  0
DICTIONARY
  5
166
330
165
100
AcDbDictionary
280
     1
281
     1
  0
DICTIONARY
  5
178
330
177
100
AcDbDictionary
280
     1
281
     1
  0
DICTIONARY
  5
D
102
{ACAD_REACTORS
330
C
102
}
330
C
100
AcDbDictionary
281
     1
  0
RASTERVARIABLES
  5
15F
102
{ACAD_REACTORS
330
C
102
}
330
C
100
AcDbRasterVariables
 90
        0
 70
     1
 71
     1
 72
     1
  0
DICTIONARY
  5
1A
102
{ACAD_REACTORS
330
C
102
}
330
C
100
AcDbDictionary
281
     1
  3
Layout1
350
1E
  3
Layout2
350
26
  3
Model
350
22
  0
DICTIONARY
  5
17
102
{ACAD_REACTORS
330
C
102
}
330
C
100
AcDbDictionary
281
     1
  3
Standard
350
18
  0
DICTIONARY
  5
19
102
{ACAD_REACTORS
330
C
102
}
330
C
100
AcDbDictionary
281
     1
  0
ACDBDICTIONARYWDFLT
  5
E
102
{ACAD_REACTORS
330
C
102
}
330
C
100
AcDbDictionary
281
     1
  3
Normal
350
F
100
AcDbDictionaryWithDefault
340
F
  0
DICTIONARY
  5
47
102
{ACAD_REACTORS
330
C
102
}
330
C
100
AcDbDictionary
281
     1
  3
A0
350
48
  3
A1
350
49
  3
A2
350
4A
  3
A3
350
4B
  3
A4
350
4C
  3
A5
350
4D
  3
A6
350
4E
  3
A7
350
4F
  3
A8
350
50
  3
A9
350
51
  3
B0
350
52
  3
B1
350
53
  3
B2
350
54
  3
B3
350
55
  3
B4
350
56
  3
B5
350
57
  3
B6
350
58
  3
B7
350
59
  3
B8
350
5A
  3
B9
350
5B
  3
C0
350
5C
  3
C1
350
5D
  3
C2
350
5E
  3
C3
350
5F
  3
C4
350
60
  3
C5
350
61
  3
C6
350
62
  3
C7
350
63
  3
C8
350
64
  3
C9
350
65
  3
D0
350
66
  3
D1
350
67
  3
D2
350
68
  0
DICTIONARY
  5
15D
102
{ACAD_REACTORS
330
C
102
}
330
C
100
AcDbDictionary
281
     1
  0
XRECORD
  5
184
102
{ACAD_REACTORS
330
C
102
}
330
C
100
AcDbXrecord
280
     1
  1
DWGPROPS COOKIE
  2

  3

  4

  6

  7

  8
12016016
  9

300
=
301
=
302
=
303
=
304
=
305
=
306
=
307
=
308
=
309
=
 40
0.0
 41
2458236.376508553
 42
2458242.011878981
  1

 90
        0
  0
LAYOUT
  5
1E
102
{ACAD_REACTORS
330
1A
102
}
330
1A
100
AcDbPlotSettings
  1

  2
none_device
  4

  6

 40
0.0
 41
0.0
 42
0.0
 43
0.0
 44
0.0
 45
0.0
 46
0.0
 47
0.0
 48
0.0
 49
0.0
140
0.0
141
0.0
142
1.0
143
1.0
 70
   688
 72
     1
 73
     0
 74
     5
  7

 75
    16
147
1.0
148
0.0
149
0.0
100
AcDbLayout
  1
Layout1
 70
     1
 71
     1
 10
0.0
 20
0.0
 11
420.0
 21
297.0
 12
0.0
 22
0.0
 32
0.0
 14
1.000000000000000E+20
 24
1.000000000000000E+20
 34
1.000000000000000E+20
 15
-1.000000000000000E+20
 25
-1.000000000000000E+20
 35
-1.000000000000000E+20
146
0.0
 13
0.0
 23
0.0
 33
0.0
 16
1.0
 26
0.0
 36
0.0
 17
0.0
 27
1.0
 37
0.0
 76
     0
330
1B
  0
LAYOUT
  5
26
102
{ACAD_REACTORS
330
1A
102
}
330
1A
100
AcDbPlotSettings
  1

  2
none_device
  4

  6

 40
0.0
 41
0.0
 42
0.0
 43
0.0
 44
0.0
 45
0.0
 46
0.0
 47
0.0
 48
0.0
 49
0.0
140
0.0
141
0.0
142
1.0
143
1.0
 70
   688
 72
     1
 73
     0
 74
     5
  7

 75
    16
147
1.0
148
0.0
149
0.0
100
AcDbLayout
  1
Layout2
 70
     1
 71
     2
 10
0.0
 20
0.0
 11
0.0
 21
0.0
 12
0.0
 22
0.0
 32
0.0
 14
0.0
 24
0.0
 34
0.0
 15
0.0
 25
0.0
 35
0.0
146
0.0
 13
0.0
 23
0.0
 33
0.0
 16
1.0
 26
0.0
 36
0.0
 17
0.0
 27
1.0
 37
0.0
 76
     0
330
23
  0
LAYOUT
  5
22
102
{ACAD_REACTORS
330
1A
102
}
330
1A
100
AcDbPlotSettings
  1

  2
none_device
  4
ANSI_A_(11.00_x_8.50_Inches)
  6

 40
6.35
 41
19.05
 42
6.35000508
 43
19.05000254
 44
279.4
 45
215.9
 46
146.8031450975141
 47
83.71477817342067
 48
0.0
 49
0.0
140
0.0
141
0.0
142
0.078937127674307
143
1.0
 70
  1696
 72
     0
 73
     0
 74
     0
  7

 75
     0
147
0.0235690232323232
148
0.0
149
0.0
100
AcDbLayout
  1
Model
 70
     1
 71
     0
 10
0.0
 20
0.0
 11
420.0
 21
297.0
 12
0.0
 22
0.0
 32
0.0
 14
-70.87500000000004
 24
-49.71142936356763
 34
0.0
 15
76.173134414305
 25
49.73055141807178
 35
0.0
146
0.0
 13
0.0
 23
0.0
 33
0.0
 16
1.0
 26
0.0
 36
0.0
 17
0.0
 27
1.0
 37
0.0
 76
     0
330
1F
331
29
  0
MLINESTYLE
  5
18
102
{ACAD_REACTORS
330
17
102
}
330
17
100
AcDbMlineStyle
  2
Standard
 70
     0
  3

 62
   256
 51
90.0
 52
90.0
 71
     2
 49
0.5
 62
   256
  6
BYLAYER
 49
-0.5
 62
   256
  6
BYLAYER
  0
ACDBPLACEHOLDER
  5
F
102
{ACAD_REACTORS
330
E
102
}
330
E
  0
SCALE
  5
48
102
{ACAD_REACTORS
330
47
102
}
330
47
100
AcDbScale
 70
     0
300
1:1
140
1.0
141
1.0
290
     1
  0
SCALE
  5
49
102
{ACAD_REACTORS
330
47
102
}
330
47
100
AcDbScale
 70
     0
300
1:2
140
1.0
141
2.0
290
     0
  0
SCALE
  5
4A
102
{ACAD_REACTORS
330
47
102
}
330
47
100
AcDbScale
 70
     0
300
1:4
140
1.0
141
4.0
290
     0
  0
SCALE
  5
4B
102
{ACAD_REACTORS
330
47
102
}
330
47
100
AcDbScale
 70
     0
300
1:5
140
1.0
141
5.0
290
     0
  0
SCALE
  5
4C
102
{ACAD_REACTORS
330
47
102
}
330
47
100
AcDbScale
 70
     0
300
1:8
140
1.0
141
8.0
290
     0
  0
SCALE
  5
4D
102
{ACAD_REACTORS
330
47
102
}
330
47
100
AcDbScale
 70
     0
300
1:10
140
1.0
141
10.0
290
     0
  0
SCALE
  5
4E
102
{ACAD_REACTORS
330
47
102
}
330
47
100
AcDbScale
 70
     0
300
1:16
140
1.0
141
16.0
290
     0
  0
SCALE
  5
4F
102
{ACAD_REACTORS
330
47
102
}
330
47
100
AcDbScale
 70
     0
300
1:20
140
1.0
141
20.0
290
     0
  0
SCALE
  5
50
102
{ACAD_REACTORS
330
47
102
}
330
47
100
AcDbScale
 70
     0
300
1:30
140
1.0
141
30.0
290
     0
  0
SCALE
  5
51
102
{ACAD_REACTORS
330
47
102
}
330
47
100
AcDbScale
 70
     0
300
1:40
140
1.0
141
40.0
290
     0
  0
SCALE
  5
52
102
{ACAD_REACTORS
330
47
102
}
330
47
100
AcDbScale
 70
     0
300
1:50
140
1.0
141
50.0
290
     0
  0
SCALE
  5
53
102
{ACAD_REACTORS
330
47
102
}
330
47
100
AcDbScale
 70
     0
300
1:100
140
1.0
141
100.0
290
     0
  0
SCALE
  5
54
102
{ACAD_REACTORS
330
47
102
}
330
47
100
AcDbScale
 70
     0
300
2:1
140
2.0
141
1.0
290
     0
  0
SCALE
  5
55
102
{ACAD_REACTORS
330
47
102
}
330
47
100
AcDbScale
 70
     0
300
4:1
140
4.0
141
1.0
290
     0
  0
SCALE
  5
56
102
{ACAD_REACTORS
330
47
102
}
330
47
100
AcDbScale
 70
     0
300
8:1
140
8.0
141
1.0
290
     0
  0
SCALE
  5
57
102
{ACAD_REACTORS
330
47
102
}
330
47
100
AcDbScale
 70
     0
300
10:1
140
10.0
141
1.0
290
     0
  0
SCALE
  5
58
102
{ACAD_REACTORS
330
47
102
}
330
47
100
AcDbScale
 70
     0
300
100:1
140
100.0
141
1.0
290
     0
  0
SCALE
  5
59
102
{ACAD_REACTORS
330
47
102
}
330
47
100
AcDbScale
 70
     0
300
1/128" = 1'-0"
140
0.0078125
141
12.0
290
     0
  0
SCALE
  5
5A
102
{ACAD_REACTORS
330
47
102
}
330
47
100
AcDbScale
 70
     0
300
1/64" = 1'-0"
140
0.015625
141
12.0
290
     0
  0
SCALE
  5
5B
102
{ACAD_REACTORS
330
47
102
}
330
47
100
AcDbScale
 70
     0
300
1/32" = 1'-0"
140
0.03125
141
12.0
290
     0
  0
SCALE
  5
5C
102
{ACAD_REACTORS
330
47
102
}
330
47
100
AcDbScale
 70
     0
300
1/16" = 1'-0"
140
0.0625
141
12.0
290
     0
  0
SCALE
  5
5D
102
{ACAD_REACTORS
330
47
102
}
330
47
100
AcDbScale
 70
     0
300
3/32" = 1'-0"
140
0.09375
141
12.0
290
     0
  0
SCALE
  5
5E
102
{ACAD_REACTORS
330
47
102
}
330
47
100
AcDbScale
 70
     0
300
1/8" = 1'-0"
140
0.125
141
12.0
290
     0
  0
SCALE
  5
5F
102
{ACAD_REACTORS
330
47
102
}
330
47
100
AcDbScale
 70
     0
300
3/16" = 1'-0"
140
0.1875
141
12.0
290
     0
  0
SCALE
  5
60
102
{ACAD_REACTORS
330
47
102
}
330
47
100
AcDbScale
 70
     0
300
1/4" = 1'-0"
140
0.25
141
12.0
290
     0
  0
SCALE
  5
61
102
{ACAD_REACTORS
330
47
102
}
330
47
100
AcDbScale
 70
     0
300
3/8" = 1'-0"
140
0.375
141
12.0
290
     0
  0
SCALE
  5
62
102
{ACAD_REACTORS
330
47
102
}
330
47
100
AcDbScale
 70
     0
300
1/2" = 1'-0"
140
0.5
141
12.0
290
     0
  0
SCALE
  5
63
102
{ACAD_REACTORS
330
47
102
}
330
47
100
AcDbScale
 70
     0
300
3/4" = 1'-0"
140
0.75
141
12.0
290
     0
  0
SCALE
  5
64
102
{ACAD_REACTORS
330
47
102
}
330
47
100
AcDbScale
 70
     0
300
1" = 1'-0"
140
1.0
141
12.0
290
     0
  0
SCALE
  5
65
102
{ACAD_REACTORS
330
47
102
}
330
47
100
AcDbScale
 70
     0
300
1-1/2" = 1'-0"
140
1.5
141
12.0
290
     0
  0
SCALE
  5
66
102
{ACAD_REACTORS
330
47
102
}
330
47
100
AcDbScale
 70
     0
300
3" = 1'-0"
140
3.0
141
12.0
290
     0
  0
SCALE
  5
67
102
{ACAD_REACTORS
330
47
102
}
330
47
100
AcDbScale
 70
     0
300
6" = 1'-0"
140
6.0
141
12.0
290
     0
  0
SCALE
  5
68
102
{ACAD_REACTORS
330
47
102
}
330
47
100
AcDbScale
 70
     0
300
1'-0" = 1'-0"
140
12.0
141
12.0
290
     0
  0
ENDSEC
  0
EOF
