  0
SECTION
  2
HEADER
  9
$ACADVER
  1
AC1015
  9
$ACADMAINTVER
 70
     6
  9
$DWGCODEPAGE
  3
ANSI_949
  9
$INSBASE
 10
0.0
 20
0.0
 30
0.0
  9
$EXTMIN
 10
1.000000000000000E+20
 20
1.000000000000000E+20
 30
1.000000000000000E+20
  9
$EXTMAX
 10
-1.000000000000000E+20
 20
-1.000000000000000E+20
 30
-1.000000000000000E+20
  9
$LIMMIN
 10
0.0
 20
0.0
  9
$LIMMAX
 10
420.0
 20
297.0
  9
$ORTHOMODE
 70
     0
  9
$REGENMODE
 70
     1
  9
$FILLMODE
 70
     1
  9
$QTEXTMODE
 70
     0
  9
$MIRRTEXT
 70
     1
  9
$LTSCALE
 40
1.0
  9
$ATTMODE
 70
     1
  9
$TEXTSIZE
 40
3.5
  9
$TRACEWID
 40
1.0
  9
$TEXTSTYLE
  7
Standard
  9
$CLAYER
  8
0
  9
$CELTYPE
  6
ByLayer
  9
$CECOLOR
 62
   256
  9
$CELTSCALE
 40
1.0
  9
$DISPSILH
 70
     0
  9
$DIMSCALE
 40
1.0
  9
$DIMASZ
 40
3.302
  9
$DIMEXO
 40
1.0
  9
$DIMDLI
 40
3.75
  9
$DIMRND
 40
0.0
  9
$DIMDLE
 40
0.0
  9
$DIMEXE
 40
1.0
  9
$DIMTP
 40
0.0
  9
$DIMTM
 40
0.0
  9
$DIMTXT
 40
3.5
  9
$DIMCEN
 40
2.5
  9
$DIMTSZ
 40
0.0
  9
$DIMTOL
 70
     0
  9
$DIMLIM
 70
     0
  9
$DIMTIH
 70
     1
  9
$DIMTOH
 70
     1
  9
$DIMSE1
 70
     0
  9
$DIMSE2
 70
     0
  9
$DIMTAD
 70
     1
  9
$DIMZIN
 70
     0
  9
$DIMBLK
  1

  9
$DIMASO
 70
     1
  9
$DIMSHO
 70
     1
  9
$DIMPOST
  1

  9
$DIMAPOST
  1

  9
$DIMALT
 70
     0
  9
$DIMALTD
 70
     3
  9
$DIMALTF
 40
0.0393700787401575
  9
$DIMLFAC
 40
1.0
  9
$DIMTOFL
 70
     1
  9
$DIMTVP
 40
0.0
  9
$DIMTIX
 70
     0
  9
$DIMSOXD
 70
     0
  9
$DIMSAH
 70
     0
  9
$DIMBLK1
  1

  9
$DIMBLK2
  1

  9
$DIMSTYLE
  2
ISO-25
  9
$DIMCLRD
 70
     0
  9
$DIMCLRE
 70
     0
  9
$DIMCLRT
 70
     0
  9
$DIMTFAC
 40
1.0
  9
$DIMGAP
 40
1.524
  9
$DIMJUST
 70
     0
  9
$DIMSD1
 70
     0
  9
$DIMSD2
 70
     0
  9
$DIMTOLJ
 70
     0
  9
$DIMTZIN
 70
     0
  9
$DIMALTZ
 70
     0
  9
$DIMALTTZ
 70
     0
  9
$DIMUPT
 70
     0
  9
$DIMDEC
 70
     2
  9
$DIMTDEC
 70
     2
  9
$DIMALTU
 70
     2
  9
$DIMALTTD
 70
     3
  9
$DIMTXSTY
  7
Standard
  9
$DIMAUNIT
 70
     0
  9
$DIMADEC
 70
     2
  9
$DIMALTRND
 40
0.0
  9
$DIMAZIN
 70
     0
  9
$DIMDSEP
 70
    44
  9
$DIMATFIT
 70
     3
  9
$DIMFRAC
 70
     0
  9
$DIMLDRBLK
  1

  9
$DIMLUNIT
 70
     2
  9
$DIMLWD
 70
    -2
  9
$DIMLWE
 70
    -2
  9
$DIMTMOVE
 70
     0
  9
$LUNITS
 70
     2
  9
$LUPREC
 70
     2
  9
$SKETCHINC
 40
1.0
  9
$FILLETRAD
 40
10.0
  9
$AUNITS
 70
     0
  9
$AUPREC
 70
     2
  9
$MENU
  1
.
  9
$ELEVATION
 40
0.0
  9
$PELEVATION
 40
0.0
  9
$THICKNESS
 40
0.0
  9
$LIMCHECK
 70
     0
  9
$CHAMFERA
 40
0.0
  9
$CHAMFERB
 40
0.0
  9
$CHAMFERC
 40
0.0
  9
$CHAMFERD
 40
0.0
  9
$SKPOLY
 70
     0
  9
$TDCREATE
 40
2458236.751378183
  9
$TDUCREATE
 40
2458236.376378183
  9
$TDUPDATE
 40
2458242.351168542
  9
$TDUUPDATE
 40
2458241.976168542
  9
$TDINDWG
 40
0.0051467593
  9
$TDUSRTIMER
 40
2458241.971022026
  9
$USRTIMER
 70
     1
  9
$ANGBASE
 50
0.0
  9
$ANGDIR
 70
     0
  9
$PDMODE
 70
     0
  9
$PDSIZE
 40
-1.0
  9
$PLINEWID
 40
0.0
  9
$SPLFRAME
 70
     0
  9
$SPLINETYPE
 70
     6
  9
$SPLINESEGS
 70
     8
  9
$HANDSEED
  5
2EB
  9
$SURFTAB1
 70
     6
  9
$SURFTAB2
 70
     6
  9
$SURFTYPE
 70
     6
  9
$SURFU
 70
     6
  9
$SURFV
 70
     6
  9
$UCSBASE
  2

  9
$UCSNAME
  2

  9
$UCSORG
 10
0.0
 20
0.0
 30
0.0
  9
$UCSXDIR
 10
1.0
 20
0.0
 30
0.0
  9
$UCSYDIR
 10
0.0
 20
1.0
 30
0.0
  9
$UCSORTHOREF
  2

  9
$UCSORTHOVIEW
 70
     0
  9
$UCSORGTOP
 10
0.0
 20
0.0
 30
0.0
  9
$UCSORGBOTTOM
 10
0.0
 20
0.0
 30
0.0
  9
$UCSORGLEFT
 10
0.0
 20
0.0
 30
0.0
  9
$UCSORGRIGHT
 10
0.0
 20
0.0
 30
0.0
  9
$UCSORGFRONT
 10
0.0
 20
0.0
 30
0.0
  9
$UCSORGBACK
 10
0.0
 20
0.0
 30
0.0
  9
$PUCSBASE
  2

  9
$PUCSNAME
  2

  9
$PUCSORG
 10
0.0
 20
0.0
 30
0.0
  9
$PUCSXDIR
 10
1.0
 20
0.0
 30
0.0
  9
$PUCSYDIR
 10
0.0
 20
1.0
 30
0.0
  9
$PUCSORTHOREF
  2

  9
$PUCSORTHOVIEW
 70
     0
  9
$PUCSORGTOP
 10
0.0
 20
0.0
 30
0.0
  9
$PUCSORGBOTTOM
 10
0.0
 20
0.0
 30
0.0
  9
$PUCSORGLEFT
 10
0.0
 20
0.0
 30
0.0
  9
$PUCSORGRIGHT
 10
0.0
 20
0.0
 30
0.0
  9
$PUCSORGFRONT
 10
0.0
 20
0.0
 30
0.0
  9
$PUCSORGBACK
 10
0.0
 20
0.0
 30
0.0
  9
$USERI1
 70
     0
  9
$USERI2
 70
     0
  9
$USERI3
 70
     0
  9
$USERI4
 70
     0
  9
$USERI5
 70
     0
  9
$USERR1
 40
0.0
  9
$USERR2
 40
0.0
  9
$USERR3
 40
0.0
  9
$USERR4
 40
0.0
  9
$USERR5
 40
0.0
  9
$WORLDVIEW
 70
     1
  9
$SHADEDGE
 70
     3
  9
$SHADEDIF
 70
    70
  9
$TILEMODE
 70
     1
  9
$MAXACTVP
 70
    64
  9
$PINSBASE
 10
0.0
 20
0.0
 30
0.0
  9
$PLIMCHECK
 70
     0
  9
$PEXTMIN
 10
1.000000000000000E+20
 20
1.000000000000000E+20
 30
1.000000000000000E+20
  9
$PEXTMAX
 10
-1.000000000000000E+20
 20
-1.000000000000000E+20
 30
-1.000000000000000E+20
  9
$PLIMMIN
 10
0.0
 20
0.0
  9
$PLIMMAX
 10
0.0
 20
0.0
  9
$UNITMODE
 70
     0
  9
$VISRETAIN
 70
     1
  9
$PLINEGEN
 70
     0
  9
$PSLTSCALE
 70
     1
  9
$TREEDEPTH
 70
  3020
  9
$CMLSTYLE
  2
Standard
  9
$CMLJUST
 70
     0
  9
$CMLSCALE
 40
20.0
  9
$PROXYGRAPHICS
 70
     1
  9
$MEASUREMENT
 70
     1
  9
$CELWEIGHT
370
    -1
  9
$ENDCAPS
280
     0
  9
$JOINSTYLE
280
     0
  9
$LWDISPLAY
290
     1
  9
$INSUNITS
 70
     4
  9
$HYPERLINKBASE
  1

  9
$STYLESHEET
  1

  9
$XEDIT
290
     1
  9
$CEPSNTYPE
380
     0
  9
$PSTYLEMODE
290
     1
  9
$FINGERPRINTGUID
  2
{031F6C89-03D6-4D08-9B09-1A17F0F56F66}
  9
$VERSIONGUID
  2
{FAEB1C32-E019-11D5-929B-00C0DF256EC4}
  9
$EXTNAMES
290
     1
  9
$PSVPSCALE
 40
0.0
  9
$OLESTARTUP
290
     0
  0
ENDSEC
  0
SECTION
  2
CLASSES
  0
CLASS
  1
ACDBDICTIONARYWDFLT
  2
AcDbDictionaryWithDefault
  3
ObjectDBX Classes
 90
        0
280
     0
281
     0
  0
CLASS
  1
VISUALSTYLE
  2
AcDbVisualStyle
  3
ObjectDBX Classes
 90
     4095
280
     0
281
     0
  0
CLASS
  1
MATERIAL
  2
AcDbMaterial
  3
ObjectDBX Classes
 90
     1153
280
     0
281
     0
  0
CLASS
  1
SCALE
  2
AcDbScale
  3
ObjectDBX Classes
 90
     1153
280
     0
281
     0
  0
CLASS
  1
SUN
  2
AcDbSun
  3
SCENEOE
 90
     1153
280
     0
281
     0
  0
CLASS
  1
ACDBPLACEHOLDER
  2
AcDbPlaceHolder
  3
ObjectDBX Classes
 90
        0
280
     0
281
     0
  0
CLASS
  1
LAYOUT
  2
AcDbLayout
  3
ObjectDBX Classes
 90
        0
280
     0
281
     0
  0
CLASS
  1
TABLESTYLE
  2
AcDbTableStyle
  3
ObjectDBX Classes
 90
     4095
280
     0
281
     0
  0
CLASS
  1
MLEADERSTYLE
  2
AcDbMLeaderStyle
  3
ACDB_MLEADERSTYLE_CLASS
 90
     4095
280
     0
281
     0
  0
CLASS
  1
RASTERVARIABLES
  2
AcDbRasterVariables
  3
ISM
 90
        0
280
     0
281
     0
  0
CLASS
  1
DIMASSOC
  2
AcDbDimAssoc
  3
"AcDbDimAssoc|Product Desc:     AcDim ARX App For Dimension|Company:          Autodesk, Inc.|WEB Address:      www.autodesk.com"
 90
        0
280
     0
281
     0
  0
ENDSEC
  0
SECTION
  2
TABLES
  0
TABLE
  2
VPORT
  5
8
330
0
100
AcDbSymbolTable
 70
     1
  0
VPORT
  5
29
330
8
100
AcDbSymbolTableRecord
100
AcDbViewportTableRecord
  2
*Active
 70
     0
 10
0.0
 20
0.0
 11
1.0
 21
1.0
 12
104.5261893829115
 22
19.60898080728229
 13
0.0
 23
0.0
 14
10.0
 24
10.0
 15
10.0
 25
10.0
 16
0.0
 26
0.0
 36
1.0
 17
0.0
 27
0.0
 37
0.0
 40
81.82251834058276
 41
1.328320802005013
 42
50.0
 43
0.0
 44
0.0
 50
0.0
 51
0.0
 71
    16
 72
  2000
 73
     1
 74
     3
 75
     0
 76
     0
 77
     0
 78
     0
281
     0
 65
     1
110
0.0
120
0.0
130
0.0
111
1.0
121
0.0
131
0.0
112
0.0
122
1.0
132
0.0
 79
     0
146
0.0
  0
ENDTAB
  0
TABLE
  2
LTYPE
  5
5
330
0
100
AcDbSymbolTable
 70
     6
  0
LTYPE
  5
14
330
5
100
AcDbSymbolTableRecord
100
AcDbLinetypeTableRecord
  2
ByBlock
 70
     0
  3

 72
    65
 73
     0
 40
0.0
  0
LTYPE
  5
15
330
5
100
AcDbSymbolTableRecord
100
AcDbLinetypeTableRecord
  2
ByLayer
 70
     0
  3

 72
    65
 73
     0
 40
0.0
  0
LTYPE
  5
16
330
5
100
AcDbSymbolTableRecord
100
AcDbLinetypeTableRecord
  2
Continuous
 70
     0
  3
Solid line
 72
    65
 73
     0
 40
0.0
  0
LTYPE
  5
6A
330
5
100
AcDbSymbolTableRecord
100
AcDbLinetypeTableRecord
  2
HIDDEN
 70
     0
  3
Hidden __ __ __ __ __ __ __ __ __ __ __ __ __ __
 72
    65
 73
     2
 40
1.905
 49
1.27
 74
     0
 49
-0.635
 74
     0
  0
LTYPE
  5
6B
330
5
100
AcDbSymbolTableRecord
100
AcDbLinetypeTableRecord
  2
PHANTOM
 70
     0
  3
Phantom ______  __  __  ______  __  __  ______
 72
    65
 73
     6
 40
12.7
 49
6.35
 74
     0
 49
-1.27
 74
     0
 49
1.27
 74
     0
 49
-1.27
 74
     0
 49
1.27
 74
     0
 49
-1.27
 74
     0
  0
LTYPE
  5
6C
330
5
100
AcDbSymbolTableRecord
100
AcDbLinetypeTableRecord
  2
CENTER
 70
     0
  3
Center ____ _ ____ _ ____ _ ____ _ ____ _ ____
 72
    65
 73
     4
 40
10.16
 49
6.35
 74
     0
 49
-1.27
 74
     0
 49
1.27
 74
     0
 49
-1.27
 74
     0
  0
LTYPE
  5
6D
330
5
100
AcDbSymbolTableRecord
100
AcDbLinetypeTableRecord
  2
CENTERX2
 70
     0
  3
Center (2x) ________  __  ________  __  _____
 72
    65
 73
     4
 40
20.32
 49
12.7
 74
     0
 49
-2.54
 74
     0
 49
2.54
 74
     0
 49
-2.54
 74
     0
  0
LTYPE
  5
6E
330
5
100
AcDbSymbolTableRecord
100
AcDbLinetypeTableRecord
  2
DOT2
 70
     0
  3
Dot (.5x) ........................................
 72
    65
 73
     2
 40
0.635
 49
0.0
 74
     0
 49
-0.635
 74
     0
  0
ENDTAB
  0
TABLE
  2
LAYER
  5
2
330
0
100
AcDbSymbolTable
 70
    17
  0
LAYER
  5
10
330
2
100
AcDbSymbolTableRecord
100
AcDbLayerTableRecord
  2
0
 70
     0
 62
     7
  6
Continuous
370
    -3
390
F
  0
LAYER
  5
6F
330
2
100
AcDbSymbolTableRecord
100
AcDbLayerTableRecord
  2
FORMAT
 70
     0
 62
     2
  6
Continuous
370
    -3
390
F
  0
LAYER
  5
70
330
2
100
AcDbSymbolTableRecord
100
AcDbLayerTableRecord
  2
외형선
 70
     0
 62
   100
  6
Continuous
370
    30
390
F
  0
LAYER
  5
71
330
2
100
AcDbSymbolTableRecord
100
AcDbLayerTableRecord
  2
숨은선
 70
     0
 62
     2
  6
HIDDEN
370
    15
390
F
  0
LAYER
  5
72
330
2
100
AcDbSymbolTableRecord
100
AcDbLayerTableRecord
  2
중심선
 70
     0
 62
     1
  6
CENTERX2
370
    -3
390
F
  0
LAYER
  5
73
330
2
100
AcDbSymbolTableRecord
100
AcDbLayerTableRecord
  2
파단선
 70
     0
 62
     4
  6
Continuous
370
    -3
390
F
  0
LAYER
  5
74
330
2
100
AcDbSymbolTableRecord
100
AcDbLayerTableRecord
  2
해칭선
 70
     0
 62
     4
  6
Continuous
370
    -3
390
F
  0
LAYER
  5
75
330
2
100
AcDbSymbolTableRecord
100
AcDbLayerTableRecord
  2
가는실선
 70
     0
 62
     4
  6
Continuous
370
    -3
390
F
  0
LAYER
  5
76
330
2
100
AcDbSymbolTableRecord
100
AcDbLayerTableRecord
  2
치수_보조선
 70
     0
 62
     4
  6
Continuous
370
    -3
390
F
  0
LAYER
  5
77
330
2
100
AcDbSymbolTableRecord
100
AcDbLayerTableRecord
  2
치수문자_일반주서
 70
     0
 62
     7
  6
Continuous
370
    15
390
F
  0
LAYER
  5
78
330
2
100
AcDbSymbolTableRecord
100
AcDbLayerTableRecord
  2
개별주서
 70
     0
 62
   100
  6
Continuous
370
    30
390
F
  0
LAYER
  5
79
330
2
100
AcDbSymbolTableRecord
100
AcDbLayerTableRecord
  2
중간선
 70
     0
 62
     2
  6
Continuous
370
    15
390
F
  0
LAYER
  5
7A
330
2
100
AcDbSymbolTableRecord
100
AcDbLayerTableRecord
  2
윤곽선
 70
     0
 62
     3
  6
Continuous
370
    40
390
F
  0
LAYER
  5
7B
330
2
100
AcDbSymbolTableRecord
100
AcDbLayerTableRecord
  2
중심마크
 70
     0
 62
   100
  6
Continuous
370
    30
390
F
  0
LAYER
  5
7C
330
2
100
AcDbSymbolTableRecord
100
AcDbLayerTableRecord
  2
가상선
 70
     0
 62
     4
  6
PHANTOM
370
    -3
390
F
  0
LAYER
  5
7D
330
2
100
AcDbSymbolTableRecord
100
AcDbLayerTableRecord
  2
특수지정선
 70
     0
 62
     5
  6
CENTERX2
370
    60
390
F
  0
LAYER
  5
16E
330
2
100
AcDbSymbolTableRecord
100
AcDbLayerTableRecord
  2
Defpoints
 70
     0
 62
     7
  6
Continuous
290
     0
370
    -3
390
F
  0
ENDTAB
  0
TABLE
  2
STYLE
  5
3
330
0
100
AcDbSymbolTable
 70
     2
  0
STYLE
  5
11
330
3
100
AcDbSymbolTableRecord
100
AcDbTextStyleTableRecord
  2
Standard
 70
     0
 40
0.0
 41
1.0
 50
0.0
 71
     0
 42
3.5
  3
txt
  4

  0
STYLE
  5
93
330
3
100
AcDbSymbolTableRecord
100
AcDbTextStyleTableRecord
  2
SLDTEXTSTYLE0
 70
     0
 40
0.0
 41
0.75
 50
0.0
 71
     0
 42
3.5
  3
TXT
  4

  0
ENDTAB
  0
TABLE
  2
VIEW
  5
6
330
0
100
AcDbSymbolTable
 70
     0
  0
ENDTAB
  0
TABLE
  2
UCS
  5
7
330
0
100
AcDbSymbolTable
 70
     0
  0
ENDTAB
  0
TABLE
  2
APPID
  5
9
330
0
100
AcDbSymbolTable
 70
     2
  0
APPID
  5
12
330
9
100
AcDbSymbolTableRecord
100
AcDbRegAppTableRecord
  2
ACAD
 70
     0
  0
APPID
  5
2DC
330
9
100
AcDbSymbolTableRecord
100
AcDbRegAppTableRecord
  2
ACAD_DSTYLE_DIMRADIAL_EXTENSION
 70
     0
  0
ENDTAB
  0
TABLE
  2
DIMSTYLE
  5
A
330
0
100
AcDbSymbolTable
 70
     3
100
AcDbDimStyleTable
  0
DIMSTYLE
105
27
330
A
100
AcDbSymbolTableRecord
100
AcDbDimStyleTableRecord
  2
ISO-25
 70
     0
 41
2.5
 42
0.625
 43
3.75
 44
1.25
 73
     0
 74
     0
 77
     1
 78
     8
140
2.5
141
2.5
143
0.03937007874016
147
0.625
171
     3
172
     1
178
     0
271
     2
272
     2
274
     3
278
    44
283
     0
284
     8
340
11
  0
DIMSTYLE
105
107
102
{ACAD_REACTORS
330
1EC
330
1F9
330
2A5
330
2A6
102
}
330
A
100
AcDbSymbolTableRecord
100
AcDbDimStyleTableRecord
  2
SLDDIMSTYLE0
 70
     0
 41
3.302
 44
0.0
 45
0.000000001
 73
     0
 74
     0
 77
     1
 78
     4
 79
     1
140
3.5
143
0.0393700787401575
147
0.875
148
0.000000001
170
     1
173
     1
178
     0
271
     2
272
     2
276
     2
284
    12
340
93
  0
DIMSTYLE
105
12E
102
{ACAD_REACTORS
330
206
330
21A
330
2A7
330
2A9
330
2DD
102
}
330
A
100
AcDbSymbolTableRecord
100
AcDbDimStyleTableRecord
  2
SLDDIMSTYLE1
 70
     0
 41
3.302
 44
0.0
 45
0.000000001
 73
     0
 74
     0
 77
     1
 78
    12
 79
     3
140
3.5
143
0.0393700787401575
147
0.875
148
0.000000001
170
     1
172
     1
173
     1
178
     0
271
     2
272
     2
276
     2
284
    12
289
     0
340
93
  0
ENDTAB
  0
TABLE
  2
BLOCK_RECORD
  5
1
330
0
100
AcDbSymbolTable
 70
    16
  0
BLOCK_RECORD
  5
1F
330
1
100
AcDbSymbolTableRecord
100
AcDbBlockTableRecord
  2
*Model_Space
340
22
  0
BLOCK_RECORD
  5
1B
330
1
100
AcDbSymbolTableRecord
100
AcDbBlockTableRecord
  2
*Paper_Space
340
1E
  0
BLOCK_RECORD
  5
23
330
1
100
AcDbSymbolTableRecord
100
AcDbBlockTableRecord
  2
*Paper_Space0
340
26
  0
BLOCK_RECORD
  5
7E
330
1
100
AcDbSymbolTableRecord
100
AcDbBlockTableRecord
  2
블럭10
340
0
102
{BLKREFS
331
FE
102
}
  0
BLOCK_RECORD
  5
108
330
1
100
AcDbSymbolTableRecord
100
AcDbBlockTableRecord
  2
_D
340
0
  0
BLOCK_RECORD
  5
11B
330
1
100
AcDbSymbolTableRecord
100
AcDbBlockTableRecord
  2
_D_1
340
0
  0
BLOCK_RECORD
  5
12F
330
1
100
AcDbSymbolTableRecord
100
AcDbBlockTableRecord
  2
_D_2
340
0
  0
BLOCK_RECORD
  5
142
330
1
100
AcDbSymbolTableRecord
100
AcDbBlockTableRecord
  2
SW_DOWELSYMBOL_0
340
0
102
{BLKREFS
331
0
331
213
331
2A8
102
}
  0
BLOCK_RECORD
  5
21D
330
1
100
AcDbSymbolTableRecord
100
AcDbBlockTableRecord
  2
*D7
340
0
  0
BLOCK_RECORD
  5
22B
330
1
100
AcDbSymbolTableRecord
100
AcDbBlockTableRecord
  2
*D8
340
0
  0
BLOCK_RECORD
  5
237
330
1
100
AcDbSymbolTableRecord
100
AcDbBlockTableRecord
  2
*D9
340
0
  0
BLOCK_RECORD
  5
243
330
1
100
AcDbSymbolTableRecord
100
AcDbBlockTableRecord
  2
*D10
340
0
  0
BLOCK_RECORD
  5
2AC
330
1
100
AcDbSymbolTableRecord
100
AcDbBlockTableRecord
  2
*D11
340
0
  0
BLOCK_RECORD
  5
2B8
330
1
100
AcDbSymbolTableRecord
100
AcDbBlockTableRecord
  2
*D12
340
0
  0
BLOCK_RECORD
  5
2C4
330
1
100
AcDbSymbolTableRecord
100
AcDbBlockTableRecord
  2
*D13
340
0
  0
BLOCK_RECORD
  5
2D0
330
1
100
AcDbSymbolTableRecord
100
AcDbBlockTableRecord
  2
*D14
340
0
  0
BLOCK_RECORD
  5
2E0
330
1
100
AcDbSymbolTableRecord
100
AcDbBlockTableRecord
  2
*D15
340
0
  0
ENDTAB
  0
ENDSEC
  0
SECTION
  2
BLOCKS
  0
BLOCK
  5
20
330
1F
100
AcDbEntity
  8
0
100
AcDbBlockBegin
  2
*Model_Space
 70
     0
 10
0.0
 20
0.0
 30
0.0
  3
*Model_Space
  1
*Model_Space
  0
ENDBLK
  5
21
330
1F
100
AcDbEntity
  8
0
100
AcDbBlockEnd
  0
BLOCK
  5
1C
330
1B
100
AcDbEntity
 67
     1
  8
0
100
AcDbBlockBegin
  2
*Paper_Space
 70
     0
 10
0.0
 20
0.0
 30
0.0
  3
*Paper_Space
  1
*Paper_Space
  0
ENDBLK
  5
1D
330
1B
100
AcDbEntity
 67
     1
  8
0
100
AcDbBlockEnd
  0
BLOCK
  5
24
330
23
100
AcDbEntity
  8
0
100
AcDbBlockBegin
  2
*Paper_Space0
 70
     0
 10
0.0
 20
0.0
 30
0.0
  3
*Paper_Space0
  1
*Paper_Space0
  0
ENDBLK
  5
25
330
23
100
AcDbEntity
  8
0
100
AcDbBlockEnd
  0
BLOCK
  5
7F
330
7E
100
AcDbEntity
  8
0
100
AcDbBlockBegin
  2
블럭10
 70
     2
 10
0.0
 20
0.0
 30
0.0
  3
블럭10
  1
블럭10
  0
ELLIPSE
  5
81
330
7E
100
AcDbEntity
  8
중심선
100
AcDbEllipse
 10
20.54032771741204
 20
12.0471743016438
 30
0.0
 11
6.600054785286829
 21
-1.261213355974178E-13
 31
0.0
210
0.0
220
0.0
230
1.0
 40
0.636358354079598
 41
0.9219305317359503
 42
6.513795318482858
  0
ELLIPSE
  5
82
330
7E
100
AcDbEntity
  8
중심선
100
AcDbEllipse
 10
20.54032771746488
 20
12.04717430159265
 30
0.0
 11
3.960054785062283
 21
1.540847449632565E-10
 31
0.0
210
0.0
220
0.0
230
1.0
 40
0.3939339440162632
 41
1.131841032648279
 42
5.62031148352944
  0
LINE
  5
83
330
7E
100
AcDbEntity
  8
중심선
100
AcDbLine
 10
2.268634060543552
 20
16.24717430164393
 30
0.0
 11
5.714909304380834
 21
16.24717430164393
 31
0.0
  0
LINE
  5
84
330
7E
100
AcDbEntity
  8
중심선
100
AcDbLine
 10
5.245725140726316
 20
7.84717430164391
 30
0.0
 11
8.692000384563599
 21
7.84717430164391
 31
0.0
  0
LINE
  5
85
330
7E
100
AcDbEntity
  8
중심선
100
AcDbLine
 10
15.74043728645272
 20
16.24717430164393
 30
0.0
 11
8.692000384563599
 21
7.84717430164391
 31
0.0
  0
LINE
  5
86
330
7E
100
AcDbEntity
  8
중심선
100
AcDbLine
 10
0.1404042013395286
 20
13.71084872107135
 30
0.0
 11
3.58671253028996
 21
13.71088815037384
 31
0.0
  0
LINE
  5
87
330
7E
100
AcDbEntity
  8
중심선
100
AcDbLine
 10
2.750260043222114
 20
10.84717430164391
 30
0.0
 11
6.196535287059397
 21
10.84717430164391
 31
0.0
  0
LINE
  5
88
330
7E
100
AcDbEntity
  8
중심선
100
AcDbLine
 10
12.29416204261559
 20
16.24717430164393
 30
0.0
 11
5.245725140726316
 21
7.84717430164391
 31
0.0
  0
LINE
  5
89
330
7E
100
AcDbEntity
  8
중심선
100
AcDbLine
 10
10.72767329541681
 20
16.24717430164393
 30
0.0
 11
6.196535287059397
 21
10.84717430164391
 31
0.0
  0
LINE
  5
8A
330
7E
100
AcDbEntity
  8
중심선
100
AcDbLine
 10
7.28139805157953
 20
16.24717430164393
 30
0.0
 11
2.750260043222114
 21
10.84717430164391
 31
0.0
  0
LINE
  5
8B
330
7E
100
AcDbEntity
  8
중심선
100
AcDbLine
 10
5.714909304380834
 20
16.24717430164393
 30
0.0
 11
3.58671253028996
 21
13.71088815037384
 31
0.0
  0
LINE
  5
8C
330
7E
100
AcDbEntity
  8
중심선
100
AcDbLine
 10
2.268634060543552
 20
16.24717430164393
 30
0.0
 11
0.1404042013395286
 21
13.71084872107135
 31
0.0
  0
LINE
  5
8D
330
7E
100
AcDbEntity
  8
중심선
100
AcDbLine
 10
7.28139805157953
 20
16.24717430164393
 30
0.0
 11
10.72767329541681
 21
16.24717430164393
 31
0.0
  0
LINE
  5
8E
330
7E
100
AcDbEntity
  8
중심선
100
AcDbLine
 10
12.29416204261559
 20
16.24717430164393
 30
0.0
 11
15.74043728645272
 21
16.24717430164393
 31
0.0
  0
LINE
  5
8F
330
7E
100
AcDbEntity
  8
중심선
100
AcDbLine
 10
19.22036997980202
 20
11.08717430171403
 30
0.0
 11
23.66174974927406
 21
11.08717430171406
 31
0.0
  0
LINE
  5
90
330
7E
100
AcDbEntity
  8
중심선
100
AcDbLine
 10
19.22039502424796
 20
13.00717430171391
 30
0.0
 11
19.22036997980202
 21
11.08717430171403
 31
0.0
  0
LINE
  5
91
330
7E
100
AcDbEntity
  8
중심선
100
AcDbLine
 10
19.22039502424796
 20
13.00717430171391
 30
0.0
 11
26.96566020931264
 21
13.00717430171391
 31
0.0
  0
LINE
  5
92
330
7E
100
AcDbEntity
  8
중심선
100
AcDbLine
 10
22.22332737316547
 20
13.45928029700563
 30
0.0
 11
24.52862924686651
 21
15.39360700705356
 31
0.0
  0
ATTDEF
  5
94
330
7E
100
AcDbEntity
  8
FORMAT
 62
     2
100
AcDbText
 10
-11.05102035218446
 20
2.075366912832191
 30
0.0
 40
4.233333333333333
  1
GMG22948[ 6 FLUTE ]
 41
0.75
  7
SLDTEXTSTYLE0
 11
-11.05102035218446
 21
-0.0412997538344756
 31
0.0
100
AcDbAttributeDefinition
  3

  2
AUTOATTR0
 70
     0
 74
     1
  0
ENDBLK
  5
80
330
7E
100
AcDbEntity
  8
0
100
AcDbBlockEnd
  0
BLOCK
  5
109
330
108
100
AcDbEntity
  8
0
100
AcDbBlockBegin
  2
_D
 70
     0
 10
0.0
 20
0.0
 30
0.0
  3
_D
  1
_D
  0
SOLID
  5
10B
330
108
100
AcDbEntity
  8
치수문자_일반주서
100
AcDbTrace
 10
-47.11334827919203
 20
41.92017339282766
 30
0.0
 11
-43.81134827919203
 21
41.41217339282766
 31
0.0
 12
-43.81134827919203
 22
42.42817339282767
 32
0.0
 13
-43.81134827919203
 23
42.42817339282767
 33
0.0
  0
SOLID
  5
10C
330
108
100
AcDbEntity
  8
치수문자_일반주서
100
AcDbTrace
 10
92.58665172080796
 20
41.92017339282765
 30
0.0
 11
89.28465172080797
 21
42.42817339282765
 31
0.0
 12
89.28465172080797
 22
41.41217339282765
 32
0.0
 13
89.28465172080797
 23
41.41217339282765
 33
0.0
  0
LINE
  5
10D
330
108
100
AcDbEntity
  8
치수문자_일반주서
100
AcDbLine
 10
17.3222856389853
 20
52.71305510887042
 30
0.0
 11
16.6113481534208
 21
52.71305510887042
 31
0.0
  0
LINE
  5
10E
330
108
100
AcDbEntity
  8
치수문자_일반주서
100
AcDbLine
 10
16.6113481534208
 20
52.71305510887042
 30
0.0
 11
16.6113481534208
 21
47.15680511781112
 31
0.0
  0
LINE
  5
10F
330
108
100
AcDbEntity
  8
치수문자_일반주서
100
AcDbLine
 10
16.6113481534208
 20
47.15680511781112
 30
0.0
 11
17.3222856389853
 21
47.15680511781112
 31
0.0
  0
LINE
  5
110
330
108
100
AcDbEntity
  8
치수문자_일반주서
100
AcDbLine
 10
28.15101850112256
 20
52.71305510887042
 30
0.0
 11
28.86195598668706
 21
52.71305510887042
 31
0.0
  0
LINE
  5
111
330
108
100
AcDbEntity
  8
치수문자_일반주서
100
AcDbLine
 10
28.86195598668706
 20
52.71305510887042
 30
0.0
 11
28.86195598668706
 21
47.15680511781112
 31
0.0
  0
LINE
  5
112
330
108
100
AcDbEntity
  8
치수문자_일반주서
100
AcDbLine
 10
28.86195598668706
 20
47.15680511781112
 30
0.0
 11
28.15101850112256
 21
47.15680511781112
 31
0.0
  0
LINE
  5
113
330
108
100
AcDbEntity
  8
치수문자_일반주서
100
AcDbLine
 10
-47.11334827919203
 20
9.764621974755874
 30
0.0
 11
-47.11334827919203
 21
42.92017339282766
 31
0.0
  0
LINE
  5
114
330
108
100
AcDbEntity
  8
치수문자_일반주서
100
AcDbLine
 10
92.58665172080796
 20
9.502621974755883
 30
0.0
 11
92.58665172080796
 21
42.92017339282765
 31
0.0
  0
LINE
  5
115
330
108
100
AcDbEntity
  8
치수문자_일반주서
100
AcDbLine
 10
-47.11334827919203
 20
41.92017339282766
 30
0.0
 11
92.58665172080796
 21
41.92017339282765
 31
0.0
  0
MTEXT
  5
116
330
108
100
AcDbEntity
  8
치수문자_일반주서
100
AcDbMText
 10
15.64429051648181
 20
46.4853826586894
 30
0.0
 40
3.5
 41
0.0
 71
     1
 72
     1
  1

  7
SLDTEXTSTYLE0
 73
     1
 44
1.0
  0
MTEXT
  5
117
330
108
100
AcDbEntity
  8
치수문자_일반주서
100
AcDbMText
 10
18.21095753959667
 20
51.66854203239001
 30
0.0
 40
3.5
 41
0.0
 71
     1
 72
     1
  1
5.50
  7
SLDTEXTSTYLE0
 73
     1
 44
1.0
  0
MTEXT
  5
118
330
108
100
AcDbEntity
  8
치수문자_일반주서
100
AcDbMText
 10
15.62484611324322
 20
46.43191048202954
 30
0.0
 40
3.5
 41
0.0
 71
     1
 72
     1
  1
139.70
  7
SLDTEXTSTYLE0
 73
     1
 44
1.0
  0
MTEXT
  5
119
330
108
100
AcDbEntity
  8
치수문자_일반주서
100
AcDbMText
 10
31.16095814327997
 20
46.4853826586894
 30
0.0
 40
3.5
 41
0.0
 71
     1
 72
     1
  1

  7
SLDTEXTSTYLE0
 73
     1
 44
1.0
  0
ENDBLK
  5
10A
330
108
100
AcDbEntity
  8
0
100
AcDbBlockEnd
  0
BLOCK
  5
11C
330
11B
100
AcDbEntity
  8
0
100
AcDbBlockBegin
  2
_D_1
 70
     0
 10
0.0
 20
0.0
 30
0.0
  3
_D_1
  1
_D_1
  0
SOLID
  5
11E
330
11B
100
AcDbEntity
  8
치수문자_일반주서
100
AcDbTrace
 10
92.58665172080796
 20
26.12961650509381
 30
0.0
 11
89.28465172080797
 21
26.63761650509381
 31
0.0
 12
89.28465172080797
 22
25.62161650509382
 32
0.0
 13
89.28465172080797
 23
25.62161650509382
 33
0.0
  0
SOLID
  5
11F
330
11B
100
AcDbEntity
  8
치수문자_일반주서
100
AcDbTrace
 10
16.38665172080796
 20
26.1296165050938
 30
0.0
 11
19.68865172080796
 21
25.6216165050938
 31
0.0
 12
19.68865172080796
 22
26.6376165050938
 32
0.0
 13
19.68865172080796
 23
26.6376165050938
 33
0.0
  0
LINE
  5
120
330
11B
100
AcDbEntity
  8
치수문자_일반주서
100
AcDbLine
 10
48.23408903468975
 20
36.92249822113655
 30
0.0
 11
47.52315154912525
 21
36.92249822113656
 31
0.0
  0
LINE
  5
121
330
11B
100
AcDbEntity
  8
치수문자_일반주서
100
AcDbLine
 10
47.52315154912525
 20
36.92249822113656
 30
0.0
 11
47.5231515491252
 21
31.36624823007725
 31
0.0
  0
LINE
  5
122
330
11B
100
AcDbEntity
  8
치수문자_일반주서
100
AcDbLine
 10
47.5231515491252
 20
31.36624823007725
 30
0.0
 11
48.2340890346897
 21
31.36624823007725
 31
0.0
  0
LINE
  5
123
330
11B
100
AcDbEntity
  8
치수문자_일반주서
100
AcDbLine
 10
59.062821896827
 20
36.92249822113647
 30
0.0
 11
59.7737593823915
 21
36.92249822113646
 31
0.0
  0
LINE
  5
124
330
11B
100
AcDbEntity
  8
치수문자_일반주서
100
AcDbLine
 10
59.7737593823915
 20
36.92249822113646
 30
0.0
 11
59.77375938239146
 21
31.36624823007717
 31
0.0
  0
LINE
  5
125
330
11B
100
AcDbEntity
  8
치수문자_일반주서
100
AcDbLine
 10
59.77375938239146
 20
31.36624823007717
 30
0.0
 11
59.06282189682696
 21
31.36624823007717
 31
0.0
  0
LINE
  5
126
330
11B
100
AcDbEntity
  8
치수문자_일반주서
100
AcDbLine
 10
92.58665172080796
 20
9.502621974755883
 30
0.0
 11
92.58665172080796
 21
27.12961650509382
 31
0.0
  0
LINE
  5
127
330
11B
100
AcDbEntity
  8
치수문자_일반주서
100
AcDbLine
 10
16.38665172080796
 20
9.998809165969218
 30
0.0
 11
16.38665172080796
 21
27.1296165050938
 31
0.0
  0
LINE
  5
128
330
11B
100
AcDbEntity
  8
치수문자_일반주서
100
AcDbLine
 10
92.58665172080796
 20
26.12961650509381
 30
0.0
 11
16.38665172080796
 21
26.1296165050938
 31
0.0
  0
MTEXT
  5
129
330
11B
100
AcDbEntity
  8
치수문자_일반주서
100
AcDbMText
 10
47.0093928236385
 20
30.69482577095554
 30
0.0
 40
3.5
 41
0.0
 71
     1
 72
     1
  1

  7
SLDTEXTSTYLE0
 73
     1
 44
1.0
  0
MTEXT
  5
12A
330
11B
100
AcDbEntity
  8
치수문자_일반주서
100
AcDbMText
 10
49.12276093530111
 20
35.87798514465614
 30
0.0
 40
3.5
 41
0.0
 71
     1
 72
     1
  1
3.00
  7
SLDTEXTSTYLE0
 73
     1
 44
1.0
  0
MTEXT
  5
12B
330
11B
100
AcDbEntity
  8
치수문자_일반주서
100
AcDbMText
 10
47.82970522212434
 20
30.64135359429568
 30
0.0
 40
3.5
 41
0.0
 71
     1
 72
     1
  1
76.20
  7
SLDTEXTSTYLE0
 73
     1
 44
1.0
  0
MTEXT
  5
12C
330
11B
100
AcDbEntity
  8
치수문자_일반주서
100
AcDbMText
 10
61.61946262753207
 20
30.69482577095543
 30
0.0
 40
3.5
 41
0.0
 71
     1
 72
     1
  1

  7
SLDTEXTSTYLE0
 73
     1
 44
1.0
  0
ENDBLK
  5
11D
330
11B
100
AcDbEntity
  8
0
100
AcDbBlockEnd
  0
BLOCK
  5
130
330
12F
100
AcDbEntity
  8
0
100
AcDbBlockBegin
  2
_D_2
 70
     0
 10
0.0
 20
0.0
 30
0.0
  3
_D_2
  1
_D_2
  0
SOLID
  5
132
330
12F
100
AcDbEntity
  8
치수문자_일반주서
100
AcDbTrace
 10
-60.11334827919205
 20
9.26462197475588
 30
0.0
 11
-59.60534827919205
 21
12.56662197475588
 31
0.0
 12
-60.62134827919206
 22
12.56662197475588
 32
0.0
 13
-60.62134827919206
 23
12.56662197475588
 33
0.0
  0
SOLID
  5
133
330
12F
100
AcDbEntity
  8
치수문자_일반주서
100
AcDbTrace
 10
-60.11334827919205
 20
-9.785378025244121
 30
0.0
 11
-60.62134827919206
 21
-13.08737802524412
 31
0.0
 12
-59.60534827919205
 22
-13.08737802524412
 32
0.0
 13
-59.60534827919205
 23
-13.08737802524412
 33
0.0
  0
LINE
  5
134
330
12F
100
AcDbEntity
  8
치수문자_일반주서
100
AcDbLine
 10
-70.90622999523478
 20
-5.674744456312825
 30
0.0
 11
-70.90622999523478
 21
-6.385681941877325
 31
0.0
  0
LINE
  5
135
330
12F
100
AcDbEntity
  8
치수문자_일반주서
100
AcDbLine
 10
-70.90622999523478
 20
-6.385681941877325
 30
0.0
 11
-65.34998000417548
 21
-6.385681941877286
 31
0.0
  0
LINE
  5
136
330
12F
100
AcDbEntity
  8
치수문자_일반주서
100
AcDbLine
 10
-65.34998000417548
 20
-6.385681941877286
 30
0.0
 11
-65.34998000417548
 21
-5.674744456312786
 31
0.0
  0
LINE
  5
137
330
12F
100
AcDbEntity
  8
치수문자_일반주서
100
AcDbLine
 10
-70.90622999523487
 20
5.153988405824433
 30
0.0
 11
-70.90622999523487
 21
5.864925891388933
 31
0.0
  0
LINE
  5
138
330
12F
100
AcDbEntity
  8
치수문자_일반주서
100
AcDbLine
 10
-70.90622999523487
 20
5.864925891388933
 30
0.0
 11
-65.34998000417556
 21
5.864925891388972
 31
0.0
  0
LINE
  5
139
330
12F
100
AcDbEntity
  8
치수문자_일반주서
100
AcDbLine
 10
-65.34998000417556
 20
5.864925891388972
 30
0.0
 11
-65.34998000417556
 21
5.153988405824472
 31
0.0
  0
LINE
  5
13A
330
12F
100
AcDbEntity
  8
치수문자_일반주서
100
AcDbLine
 10
-47.61334827919203
 20
9.264621974755881
 30
0.0
 11
-61.11334827919205
 21
9.26462197475588
 31
0.0
  0
LINE
  5
13B
330
12F
100
AcDbEntity
  8
치수문자_일반주서
100
AcDbLine
 10
-47.61334827919203
 20
-9.78537802524412
 30
0.0
 11
-61.11334827919205
 21
-9.785378025244121
 31
0.0
  0
LINE
  5
13C
330
12F
100
AcDbEntity
  8
치수문자_일반주서
100
AcDbLine
 10
-60.11334827919205
 20
9.26462197475588
 30
0.0
 11
-60.11334827919205
 21
15.61462197475588
 31
0.0
  0
LINE
  5
13D
330
12F
100
AcDbEntity
  8
치수문자_일반주서
100
AcDbLine
 10
-60.11334827919205
 20
9.26462197475588
 30
0.0
 11
-60.11334827919205
 21
-9.785378025244121
 31
0.0
  0
LINE
  5
13E
330
12F
100
AcDbEntity
  8
치수문자_일반주서
100
AcDbLine
 10
-60.11334827919205
 20
-9.785378025244121
 30
0.0
 11
-60.11334827919205
 21
-16.13537802524412
 31
0.0
  0
MTEXT
  5
13F
330
12F
100
AcDbEntity
  8
치수문자_일반주서
100
AcDbMText
 10
-69.8617169187544
 20
-4.786072555701447
 30
0.0
 40
3.5
 41
0.0
 71
     1
 72
     1
  1
0.75
  7
SLDTEXTSTYLE0
 11
-7.044195017643634E-15
 21
1.0
 31
0.0
 73
     1
 44
1.0
  0
MTEXT
  5
140
330
12F
100
AcDbEntity
  8
치수문자_일반주서
100
AcDbMText
 10
-64.6250853683939
 20
-8.718346968065179
 30
0.0
 40
3.5
 41
0.0
 71
     1
 72
     1
  1
%%c
  7
SLDTEXTSTYLE0
 11
-7.044195017643634E-15
 21
1.0
 31
0.0
 73
     1
 44
1.0
  0
MTEXT
  5
141
330
12F
100
AcDbEntity
  8
치수문자_일반주서
100
AcDbMText
 10
-64.62508536839393
 20
-3.439909569691098
 30
0.0
 40
3.5
 41
0.0
 71
     1
 72
     1
  1
19.05
  7
SLDTEXTSTYLE0
 11
-7.044195017643634E-15
 21
1.0
 31
0.0
 73
     1
 44
1.0
  0
ENDBLK
  5
131
330
12F
100
AcDbEntity
  8
0
100
AcDbBlockEnd
  0
BLOCK
  5
143
330
142
100
AcDbEntity
  8
0
100
AcDbBlockBegin
  2
SW_DOWELSYMBOL_0
 70
     0
 10
0.0
 20
0.0
 30
0.0
  3
SW_DOWELSYMBOL_0
  1
SW_DOWELSYMBOL_0
  0
CIRCLE
  5
145
330
142
100
AcDbEntity
  8
외형선
 62
     0
100
AcDbCircle
 10
0.0
 20
0.0
 30
0.0
 40
3.000000000000001
  0
HATCH
  5
146
330
142
100
AcDbEntity
  8
0
  6
Continuous
 62
     0
370
    30
100
AcDbHatch
 10
0.0
 20
0.0
 30
0.0
210
0.0
220
0.0
230
1.0
  2
SOLID
 70
     1
 71
     0
 91
        1
 92
        0
 93
        3
 72
     2
 10
0.0
 20
0.0
 40
3.000000000000001
 50
0.0
 51
90.0
 73
     1
 72
     1
 10
0.0
 20
3.000000000000001
 11
0.0
 21
0.0
 72
     1
 10
0.0
 20
0.0
 11
3.000000000000001
 21
0.0
 97
        0
 75
     0
 76
     1
 98
        1
 10
0.0
 20
0.0
  0
HATCH
  5
147
330
142
100
AcDbEntity
  8
0
  6
Continuous
 62
     0
370
    30
100
AcDbHatch
 10
0.0
 20
0.0
 30
0.0
210
0.0
220
0.0
230
1.0
  2
SOLID
 70
     1
 71
     0
 91
        1
 92
        0
 93
        3
 72
     2
 10
0.0
 20
0.0
 40
3.000000000000001
 50
180.0
 51
270.0000000000008
 73
     1
 72
     1
 10
0.0
 20
-3.000000000000001
 11
0.0
 21
0.0
 72
     1
 10
0.0
 20
0.0
 11
-3.000000000000001
 21
0.0
 97
        0
 75
     0
 76
     1
 98
        1
 10
0.0
 20
0.0
  0
ENDBLK
  5
144
330
142
100
AcDbEntity
  8
0
100
AcDbBlockEnd
  0
BLOCK
  5
21E
330
21D
100
AcDbEntity
  8
0
100
AcDbBlockBegin
  2
*D7
 70
     1
 10
0.0
 20
0.0
 30
0.0
  3
*D7
  1
*D7
  0
LINE
  5
21F
330
21D
100
AcDbEntity
  8
치수문자_일반주서
 62
     0
370
    -2
100
AcDbLine
 10
154.0895000000001
 20
22.43125000000002
 30
0.0
 11
174.0381913971668
 21
22.43125000000002
 31
0.0
  0
LINE
  5
220
330
21D
100
AcDbEntity
  8
치수문자_일반주서
 62
     0
370
    -2
100
AcDbLine
 10
154.0895000000001
 20
3.381250000000021
 30
0.0
 11
174.0381913971668
 21
3.381250000000021
 31
0.0
  0
LINE
  5
221
330
21D
100
AcDbEntity
  8
치수문자_일반주서
 62
     0
370
    -2
100
AcDbLine
 10
174.0381913971668
 20
19.12925000000002
 30
0.0
 11
174.0381913971668
 21
6.683250000000021
 31
0.0
  0
SOLID
  5
222
330
21D
100
AcDbEntity
  8
치수문자_일반주서
 62
     0
100
AcDbTrace
 10
174.5885247305002
 20
19.12925000000002
 30
0.0
 11
173.4878580638335
 21
19.12925000000002
 31
0.0
 12
174.0381913971668
 22
22.43125000000002
 32
0.0
 13
174.0381913971668
 23
22.43125000000002
 33
0.0
  0
SOLID
  5
223
330
21D
100
AcDbEntity
  8
치수문자_일반주서
 62
     0
100
AcDbTrace
 10
173.4878580638335
 20
6.683250000000021
 30
0.0
 11
174.5885247305002
 21
6.683250000000021
 31
0.0
 12
174.0381913971668
 22
3.381250000000021
 32
0.0
 13
174.0381913971668
 23
3.381250000000021
 33
0.0
  0
MTEXT
  5
224
330
21D
100
AcDbEntity
  8
치수문자_일반주서
 62
     0
100
AcDbMText
 10
171.4131913971668
 20
13.19865937626039
 30
0.0
 40
3.5
 41
0.0
 71
     5
 72
     1
  1
\A1;{%%c19.05 [3/4]}
  7
SLDTEXTSTYLE0
 11
0.0
 21
1.0
 31
0.0
 73
     1
 44
1.0
  0
POINT
  5
225
330
21D
100
AcDbEntity
  8
Defpoints
 62
     0
100
AcDbPoint
 10
154.0270000000001
 20
22.43125000000002
 30
0.0
  0
POINT
  5
226
330
21D
100
AcDbEntity
  8
Defpoints
 62
     0
100
AcDbPoint
 10
154.0270000000001
 20
3.381250000000021
 30
0.0
  0
POINT
  5
227
330
21D
100
AcDbEntity
  8
Defpoints
 62
     0
100
AcDbPoint
 10
174.0381913971668
 20
3.38125000000002
 30
0.0
  0
ENDBLK
  5
228
330
21D
100
AcDbEntity
  8
0
100
AcDbBlockEnd
  0
BLOCK
  5
22C
330
22B
100
AcDbEntity
  8
0
100
AcDbBlockBegin
  2
*D8
 70
     1
 10
0.0
 20
0.0
 30
0.0
  3
*D8
  1
*D8
  0
LINE
  5
22E
330
22B
100
AcDbEntity
  8
치수문자_일반주서
 62
     0
370
    -2
100
AcDbLine
 10
17.37500000000006
 20
21.99375000000001
 30
0.0
 11
17.37500000000007
 21
55.0868014180718
 31
0.0
  0
LINE
  5
22F
330
22B
100
AcDbEntity
  8
치수문자_일반주서
 62
     0
370
    -2
100
AcDbLine
 10
157.075
 20
19.44575000000002
 30
0.0
 11
157.075
 21
55.0868014180718
 31
0.0
  0
LINE
  5
230
330
22B
100
AcDbEntity
  8
치수문자_일반주서
 62
     0
370
    -2
100
AcDbLine
 10
20.67700000000007
 20
55.0868014180718
 30
0.0
 11
153.7730000000001
 21
55.0868014180718
 31
0.0
  0
SOLID
  5
231
330
22B
100
AcDbEntity
  8
치수문자_일반주서
 62
     0
100
AcDbTrace
 10
20.67700000000007
 20
55.63713475140514
 30
0.0
 11
20.67700000000007
 21
54.53646808473847
 31
0.0
 12
17.37500000000007
 22
55.0868014180718
 32
0.0
 13
17.37500000000007
 23
55.0868014180718
 33
0.0
  0
SOLID
  5
232
330
22B
100
AcDbEntity
  8
치수문자_일반주서
 62
     0
100
AcDbTrace
 10
153.7730000000001
 20
54.53646808473847
 30
0.0
 11
153.7730000000001
 21
55.63713475140514
 31
0.0
 12
157.075
 22
55.0868014180718
 32
0.0
 13
157.075
 23
55.0868014180718
 33
0.0
  0
MTEXT
  5
233
330
22B
100
AcDbEntity
  8
치수문자_일반주서
 62
     0
100
AcDbMText
 10
87.22500000000007
 20
59.4618014180718
 30
0.0
 40
3.5
 41
0.0
 71
     2
 72
     1
  1
\A1;139.70 [5 1/2]
  7
SLDTEXTSTYLE0
 73
     1
 44
1.0
  0
POINT
  5
234
330
22B
100
AcDbEntity
  8
Defpoints
 62
     0
100
AcDbPoint
 10
17.37500000000006
 20
21.93125000000001
 30
0.0
  0
POINT
  5
235
330
22B
100
AcDbEntity
  8
Defpoints
 62
     0
100
AcDbPoint
 10
157.075
 20
19.38325000000002
 30
0.0
  0
POINT
  5
236
330
22B
100
AcDbEntity
  8
Defpoints
 62
     0
100
AcDbPoint
 10
157.075
 20
55.0868014180718
 30
0.0
  0
ENDBLK
  5
22D
330
22B
100
AcDbEntity
  8
0
100
AcDbBlockEnd
  0
BLOCK
  5
238
330
237
100
AcDbEntity
  8
0
100
AcDbBlockBegin
  2
*D9
 70
     1
 10
0.0
 20
0.0
 30
0.0
  3
*D9
  1
*D9
  0
LINE
  5
23A
330
237
100
AcDbEntity
  8
치수문자_일반주서
 62
     0
370
    -2
100
AcDbLine
 10
157.075
 20
19.44575000000002
 30
0.0
 11
157.075
 21
37.01024453033796
 31
0.0
  0
LINE
  5
23B
330
237
100
AcDbEntity
  8
치수문자_일반주서
 62
     0
370
    -2
100
AcDbLine
 10
80.87500000000006
 20
22.22793719122234
 30
0.0
 11
80.87500000000006
 21
37.01024453033796
 31
0.0
  0
LINE
  5
23C
330
237
100
AcDbEntity
  8
치수문자_일반주서
 62
     0
370
    -2
100
AcDbLine
 10
153.7730000000001
 20
37.01024453033796
 30
0.0
 11
84.17700000000005
 21
37.01024453033796
 31
0.0
  0
SOLID
  5
23D
330
237
100
AcDbEntity
  8
치수문자_일반주서
 62
     0
100
AcDbTrace
 10
153.7730000000001
 20
36.45991119700462
 30
0.0
 11
153.7730000000001
 21
37.56057786367129
 31
0.0
 12
157.075
 22
37.01024453033796
 32
0.0
 13
157.075
 23
37.01024453033796
 33
0.0
  0
SOLID
  5
23E
330
237
100
AcDbEntity
  8
치수문자_일반주서
 62
     0
100
AcDbTrace
 10
84.17700000000005
 20
37.56057786367129
 30
0.0
 11
84.17700000000005
 21
36.45991119700462
 31
0.0
 12
80.87500000000006
 22
37.01024453033796
 32
0.0
 13
80.87500000000006
 23
37.01024453033796
 33
0.0
  0
MTEXT
  5
23F
330
237
100
AcDbEntity
  8
치수문자_일반주서
 62
     0
100
AcDbMText
 10
118.1368033957045
 20
41.38524453033796
 30
0.0
 40
3.5
 41
0.0
 71
     2
 72
     1
  1
\A1;76.20 [3]
  7
SLDTEXTSTYLE0
 73
     1
 44
1.0
  0
POINT
  5
240
330
237
100
AcDbEntity
  8
Defpoints
 62
     0
100
AcDbPoint
 10
157.075
 20
19.38325000000002
 30
0.0
  0
POINT
  5
241
330
237
100
AcDbEntity
  8
Defpoints
 62
     0
100
AcDbPoint
 10
80.87500000000006
 20
22.16543719122234
 30
0.0
  0
POINT
  5
242
330
237
100
AcDbEntity
  8
Defpoints
 62
     0
100
AcDbPoint
 10
80.87500000000006
 20
37.01024453033796
 30
0.0
  0
ENDBLK
  5
239
330
237
100
AcDbEntity
  8
0
100
AcDbBlockEnd
  0
BLOCK
  5
244
330
243
100
AcDbEntity
  8
0
100
AcDbBlockBegin
  2
*D10
 70
     1
 10
0.0
 20
0.0
 30
0.0
  3
*D10
  1
*D10
  0
LINE
  5
246
330
243
100
AcDbEntity
  8
치수문자_일반주서
 62
     0
370
    -2
100
AcDbLine
 10
17.81250000000006
 20
22.43125000000002
 30
0.0
 11
4.37500000000001
 21
22.43124999999997
 31
0.0
  0
LINE
  5
247
330
243
100
AcDbEntity
  8
치수문자_일반주서
 62
     0
370
    -2
100
AcDbLine
 10
17.81250000000006
 20
3.381250000000015
 30
0.0
 11
4.375000000000076
 21
3.381249999999966
 31
0.0
  0
LINE
  5
248
330
243
100
AcDbEntity
  8
치수문자_일반주서
 62
     0
370
    -2
100
AcDbLine
 10
4.375000000000021
 20
19.12924999999997
 30
0.0
 11
4.375000000000065
 21
6.683249999999965
 31
0.0
  0
SOLID
  5
249
330
243
100
AcDbEntity
  8
치수문자_일반주서
 62
     0
100
AcDbTrace
 10
4.925333333333355
 20
19.12924999999997
 30
0.0
 11
3.824666666666688
 21
19.12924999999996
 31
0.0
 12
4.37500000000001
 22
22.43124999999997
 32
0.0
 13
4.37500000000001
 23
22.43124999999997
 33
0.0
  0
SOLID
  5
24A
330
243
100
AcDbEntity
  8
치수문자_일반주서
 62
     0
100
AcDbTrace
 10
3.824666666666732
 20
6.683249999999964
 30
0.0
 11
4.925333333333398
 21
6.683249999999967
 31
0.0
 12
4.375000000000076
 22
3.381249999999966
 32
0.0
 13
4.375000000000076
 23
3.381249999999966
 33
0.0
  0
MTEXT
  5
24B
330
243
100
AcDbEntity
  8
치수문자_일반주서
 62
     0
100
AcDbMText
 10
0.0000000000000426
 20
12.90625
 30
0.0
 40
3.5
 41
0.0
 71
     2
 72
     1
  1
\A1;%%c19.05 [3/4]
  7
SLDTEXTSTYLE0
 11
-3.496765431890257E-15
 21
1.0
 31
0.0
 73
     1
 44
1.0
  0
POINT
  5
24C
330
243
100
AcDbEntity
  8
Defpoints
 62
     0
100
AcDbPoint
 10
17.87500000000006
 20
22.43125000000002
 30
0.0
  0
POINT
  5
24D
330
243
100
AcDbEntity
  8
Defpoints
 62
     0
100
AcDbPoint
 10
17.87500000000006
 20
3.381250000000016
 30
0.0
  0
POINT
  5
24E
330
243
100
AcDbEntity
  8
Defpoints
 62
     0
100
AcDbPoint
 10
4.375000000000078
 20
3.381249999999965
 30
0.0
  0
ENDBLK
  5
245
330
243
100
AcDbEntity
  8
0
100
AcDbBlockEnd
  0
BLOCK
  5
2AD
330
2AC
100
AcDbEntity
  8
0
100
AcDbBlockBegin
  2
*D11
 70
     1
 10
0.0
 20
0.0
 30
0.0
  3
*D11
  1
*D11
  0
LINE
  5
2AF
330
2AC
100
AcDbEntity
  8
치수문자_일반주서
 62
     0
370
    -2
100
AcDbLine
 10
-53.50000000000001
 20
9.087500000000006
 30
0.0
 11
-53.50000000000001
 21
42.1805514180718
 31
0.0
  0
LINE
  5
2B0
330
2AC
100
AcDbEntity
  8
치수문자_일반주서
 62
     0
370
    -2
100
AcDbLine
 10
86.19999999999997
 20
6.539500000000018
 30
0.0
 11
86.19999999999997
 21
42.1805514180718
 31
0.0
  0
LINE
  5
2B1
330
2AC
100
AcDbEntity
  8
치수문자_일반주서
 62
     0
370
    -2
100
AcDbLine
 10
-50.19800000000001
 20
42.1805514180718
 30
0.0
 11
82.89799999999997
 21
42.1805514180718
 31
0.0
  0
SOLID
  5
2B2
330
2AC
100
AcDbEntity
  8
치수문자_일반주서
 62
     0
100
AcDbTrace
 10
-50.19800000000001
 20
42.73088475140514
 30
0.0
 11
-50.19800000000001
 21
41.63021808473847
 31
0.0
 12
-53.50000000000001
 22
42.1805514180718
 32
0.0
 13
-53.50000000000001
 23
42.1805514180718
 33
0.0
  0
SOLID
  5
2B3
330
2AC
100
AcDbEntity
  8
치수문자_일반주서
 62
     0
100
AcDbTrace
 10
82.89799999999997
 20
41.63021808473847
 30
0.0
 11
82.89799999999997
 21
42.73088475140514
 31
0.0
 12
86.19999999999997
 22
42.1805514180718
 32
0.0
 13
86.19999999999997
 23
42.1805514180718
 33
0.0
  0
MTEXT
  5
2B4
330
2AC
100
AcDbEntity
  8
치수문자_일반주서
 62
     0
100
AcDbMText
 10
16.34999999999999
 20
46.5555514180718
 30
0.0
 40
3.5
 41
0.0
 71
     2
 72
     1
  1
\A1;139.70 [5 1/2]
  7
SLDTEXTSTYLE0
 73
     1
 44
1.0
  0
POINT
  5
2B5
330
2AC
100
AcDbEntity
  8
Defpoints
 62
     0
100
AcDbPoint
 10
-53.50000000000001
 20
9.025000000000006
 30
0.0
  0
POINT
  5
2B6
330
2AC
100
AcDbEntity
  8
Defpoints
 62
     0
100
AcDbPoint
 10
86.19999999999997
 20
6.477000000000018
 30
0.0
  0
POINT
  5
2B7
330
2AC
100
AcDbEntity
  8
Defpoints
 62
     0
100
AcDbPoint
 10
86.19999999999997
 20
42.1805514180718
 30
0.0
  0
ENDBLK
  5
2AE
330
2AC
100
AcDbEntity
  8
0
100
AcDbBlockEnd
  0
BLOCK
  5
2B9
330
2B8
100
AcDbEntity
  8
0
100
AcDbBlockBegin
  2
*D12
 70
     1
 10
0.0
 20
0.0
 30
0.0
  3
*D12
  1
*D12
  0
LINE
  5
2BB
330
2B8
100
AcDbEntity
  8
치수문자_일반주서
 62
     0
370
    -2
100
AcDbLine
 10
86.19999999999997
 20
6.539500000000018
 30
0.0
 11
86.19999999999997
 21
24.10399453033796
 31
0.0
  0
LINE
  5
2BC
330
2B8
100
AcDbEntity
  8
치수문자_일반주서
 62
     0
370
    -2
100
AcDbLine
 10
9.999999999999986
 20
9.321687191222338
 30
0.0
 11
9.999999999999986
 21
24.10399453033796
 31
0.0
  0
LINE
  5
2BD
330
2B8
100
AcDbEntity
  8
치수문자_일반주서
 62
     0
370
    -2
100
AcDbLine
 10
82.89799999999997
 20
24.10399453033796
 30
0.0
 11
13.30199999999999
 21
24.10399453033796
 31
0.0
  0
SOLID
  5
2BE
330
2B8
100
AcDbEntity
  8
치수문자_일반주서
 62
     0
100
AcDbTrace
 10
82.89799999999997
 20
23.55366119700462
 30
0.0
 11
82.89799999999997
 21
24.65432786367129
 31
0.0
 12
86.19999999999997
 22
24.10399453033796
 32
0.0
 13
86.19999999999997
 23
24.10399453033796
 33
0.0
  0
SOLID
  5
2BF
330
2B8
100
AcDbEntity
  8
치수문자_일반주서
 62
     0
100
AcDbTrace
 10
13.30199999999999
 20
24.65432786367129
 30
0.0
 11
13.30199999999999
 21
23.55366119700462
 31
0.0
 12
9.999999999999986
 22
24.10399453033796
 32
0.0
 13
9.999999999999986
 23
24.10399453033796
 33
0.0
  0
MTEXT
  5
2C0
330
2B8
100
AcDbEntity
  8
치수문자_일반주서
 62
     0
100
AcDbMText
 10
47.26180339570445
 20
28.47899453033796
 30
0.0
 40
3.5
 41
0.0
 71
     2
 72
     1
  1
\A1;76.20 [3]
  7
SLDTEXTSTYLE0
 73
     1
 44
1.0
  0
POINT
  5
2C1
330
2B8
100
AcDbEntity
  8
Defpoints
 62
     0
100
AcDbPoint
 10
86.19999999999997
 20
6.477000000000018
 30
0.0
  0
POINT
  5
2C2
330
2B8
100
AcDbEntity
  8
Defpoints
 62
     0
100
AcDbPoint
 10
9.999999999999986
 20
9.259187191222338
 30
0.0
  0
POINT
  5
2C3
330
2B8
100
AcDbEntity
  8
Defpoints
 62
     0
100
AcDbPoint
 10
9.999999999999986
 20
24.10399453033796
 30
0.0
  0
ENDBLK
  5
2BA
330
2B8
100
AcDbEntity
  8
0
100
AcDbBlockEnd
  0
BLOCK
  5
2C5
330
2C4
100
AcDbEntity
  8
0
100
AcDbBlockBegin
  2
*D13
 70
     1
 10
0.0
 20
0.0
 30
0.0
  3
*D13
  1
*D13
  0
LINE
  5
2C7
330
2C4
100
AcDbEntity
  8
치수문자_일반주서
 62
     0
370
    -2
100
AcDbLine
 10
-53.06250000000001
 20
9.52500000000002
 30
0.0
 11
-66.50000000000006
 21
9.52499999999997
 31
0.0
  0
LINE
  5
2C8
330
2C4
100
AcDbEntity
  8
치수문자_일반주서
 62
     0
370
    -2
100
AcDbLine
 10
-53.06250000000001
 20
-9.524999999999977
 30
0.0
 11
-66.49999999999999
 21
-9.525000000000027
 31
0.0
  0
LINE
  5
2C9
330
2C4
100
AcDbEntity
  8
치수문자_일반주서
 62
     0
370
    -2
100
AcDbLine
 10
-66.50000000000004
 20
6.222999999999971
 30
0.0
 11
-66.5
 21
-6.223000000000027
 31
0.0
  0
SOLID
  5
2CA
330
2C4
100
AcDbEntity
  8
치수문자_일반주서
 62
     0
100
AcDbTrace
 10
-65.94966666666672
 20
6.222999999999972
 30
0.0
 11
-67.05033333333337
 21
6.222999999999969
 31
0.0
 12
-66.50000000000006
 22
9.52499999999997
 32
0.0
 13
-66.50000000000006
 23
9.52499999999997
 33
0.0
  0
SOLID
  5
2CB
330
2C4
100
AcDbEntity
  8
치수문자_일반주서
 62
     0
100
AcDbTrace
 10
-67.05033333333333
 20
-6.223000000000029
 30
0.0
 11
-65.94966666666667
 21
-6.223000000000026
 31
0.0
 12
-66.49999999999999
 22
-9.525000000000027
 32
0.0
 13
-66.49999999999999
 23
-9.525000000000027
 33
0.0
  0
MTEXT
  5
2CC
330
2C4
100
AcDbEntity
  8
치수문자_일반주서
 62
     0
100
AcDbMText
 10
-70.87500000000003
 20
-0.0000000000000163
 30
0.0
 40
3.5
 41
0.0
 71
     2
 72
     1
  1
\A1;%%c19.05 [3/4]
  7
SLDTEXTSTYLE0
 11
-3.729883127349608E-15
 21
1.0
 31
0.0
 73
     1
 44
1.0
  0
POINT
  5
2CD
330
2C4
100
AcDbEntity
  8
Defpoints
 62
     0
100
AcDbPoint
 10
-53.00000000000001
 20
9.52500000000002
 30
0.0
  0
POINT
  5
2CE
330
2C4
100
AcDbEntity
  8
Defpoints
 62
     0
100
AcDbPoint
 10
-53.00000000000001
 20
-9.524999999999977
 30
0.0
  0
POINT
  5
2CF
330
2C4
100
AcDbEntity
  8
Defpoints
 62
     0
100
AcDbPoint
 10
-66.49999999999999
 20
-9.525000000000027
 30
0.0
  0
ENDBLK
  5
2C6
330
2C4
100
AcDbEntity
  8
0
100
AcDbBlockEnd
  0
BLOCK
  5
2D1
330
2D0
100
AcDbEntity
  8
0
100
AcDbBlockBegin
  2
*D14
 70
     1
 10
0.0
 20
0.0
 30
0.0
  3
*D14
  1
*D14
  0
LINE
  5
2D3
330
2D0
100
AcDbEntity
  8
치수문자_일반주서
 62
     0
370
    -2
100
AcDbLine
 10
83.2145
 20
9.52500000000002
 30
0.0
 11
103.1631913971668
 21
9.525000000000018
 31
0.0
  0
LINE
  5
2D4
330
2D0
100
AcDbEntity
  8
치수문자_일반주서
 62
     0
370
    -2
100
AcDbLine
 10
83.21450000000003
 20
-9.524999999999977
 30
0.0
 11
103.1631913971668
 21
-9.524999999999979
 31
0.0
  0
LINE
  5
2D5
330
2D0
100
AcDbEntity
  8
치수문자_일반주서
 62
     0
370
    -2
100
AcDbLine
 10
103.1631913971668
 20
6.223000000000019
 30
0.0
 11
103.1631913971668
 21
-6.222999999999979
 31
0.0
  0
SOLID
  5
2D6
330
2D0
100
AcDbEntity
  8
치수문자_일반주서
 62
     0
100
AcDbTrace
 10
103.7135247305001
 20
6.223000000000019
 30
0.0
 11
102.6128580638334
 21
6.223000000000019
 31
0.0
 12
103.1631913971668
 22
9.525000000000018
 32
0.0
 13
103.1631913971668
 23
9.525000000000018
 33
0.0
  0
SOLID
  5
2D7
330
2D0
100
AcDbEntity
  8
치수문자_일반주서
 62
     0
100
AcDbTrace
 10
102.6128580638334
 20
-6.222999999999979
 30
0.0
 11
103.7135247305001
 21
-6.222999999999979
 31
0.0
 12
103.1631913971668
 22
-9.524999999999979
 32
0.0
 13
103.1631913971668
 23
-9.524999999999979
 33
0.0
  0
MTEXT
  5
2D8
330
2D0
100
AcDbEntity
  8
치수문자_일반주서
 62
     0
100
AcDbMText
 10
100.5381913971668
 20
0.2924093762603945
 30
0.0
 40
3.5
 41
0.0
 71
     5
 72
     1
  1
\A1;{%%c19.05 [3/4]}
  7
SLDTEXTSTYLE0
 11
0.0
 21
1.0
 31
0.0
 73
     1
 44
1.0
  0
POINT
  5
2D9
330
2D0
100
AcDbEntity
  8
Defpoints
 62
     0
100
AcDbPoint
 10
83.152
 20
9.52500000000002
 30
0.0
  0
POINT
  5
2DA
330
2D0
100
AcDbEntity
  8
Defpoints
 62
     0
100
AcDbPoint
 10
83.15200000000003
 20
-9.524999999999977
 30
0.0
  0
POINT
  5
2DB
330
2D0
100
AcDbEntity
  8
Defpoints
 62
     0
100
AcDbPoint
 10
103.1631913971668
 20
-9.524999999999979
 30
0.0
  0
ENDBLK
  5
2D2
330
2D0
100
AcDbEntity
  8
0
100
AcDbBlockEnd
  0
BLOCK
  5
2E1
330
2E0
100
AcDbEntity
  8
0
100
AcDbBlockBegin
  2
*D15
 70
     1
 10
0.0
 20
0.0
 30
0.0
  3
*D15
  1
*D15
  0
LINE
  5
2E3
330
2E0
100
AcDbEntity
  8
치수문자_일반주서
 62
     0
370
    -2
100
AcDbLine
 10
87.83308547402055
 20
10.76768045709698
 30
0.0
 11
114.4225683092625
 21
35.13958628933538
 31
0.0
  0
MTEXT
  5
2E4
330
2E0
100
AcDbEntity
  8
치수문자_일반주서
 62
     0
100
AcDbMText
 10
101.5220690851086
 20
26.87586837122462
 30
0.0
 40
3.5
 41
0.0
 71
     5
 72
     1
  1
\A1;R3.05 [R0.120]
  7
SLDTEXTSTYLE0
 11
0.7371788148063859
 21
0.675697709779049
 31
0.0
 73
     1
 44
1.0
  0
LINE
  5
2E5
330
2E0
100
AcDbEntity
  8
치수문자_일반주서
 62
     0
370
    -2
100
AcDbLine
 10
83.152
 20
6.477000000000018
 30
0.0
 11
85.39892102752987
 21
8.53652661940656
 31
0.0
  0
SOLID
  5
2E6
330
2E0
100
AcDbEntity
  8
치수문자_일반주서
 62
     0
100
AcDbTrace
 10
87.46122650107215
 20
11.17337453151209
 30
0.0
 11
88.20494444696895
 21
10.36198638268186
 31
0.0
 12
85.39892102752987
 22
8.53652661940656
 32
0.0
 13
85.39892102752987
 23
8.53652661940656
 33
0.0
  0
POINT
  5
2E7
330
2E0
100
AcDbEntity
  8
Defpoints
 62
     0
100
AcDbPoint
 10
85.39892102752987
 20
8.53652661940656
 30
0.0
  0
POINT
  5
2E8
330
2E0
100
AcDbEntity
  8
Defpoints
 62
     0
100
AcDbPoint
 10
83.152
 20
6.477000000000018
 30
0.0
  0
ENDBLK
  5
2E2
330
2E0
100
AcDbEntity
  8
0
100
AcDbBlockEnd
  0
ENDSEC
  0
SECTION
  2
ENTITIES
  0
INSERT
  5
FE
330
1F
100
AcDbEntity
  8
0
  6
Continuous
 62
     7
100
AcDbBlockReference
 66
     1
  2
블럭10
 10
-10.24270877828551
 20
-52.04717430164393
 30
0.0
  0
ATTRIB
  5
FF
330
FE
100
AcDbEntity
  8
FORMAT
 62
     2
100
AcDbText
 10
-21.29372913046998
 20
-49.97180738881174
 30
0.0
 40
4.233333333333333
  1
GMG22948[ 6 FLUTE ]
 41
0.75
  7
SLDTEXTSTYLE0
 11
-21.29372913046998
 21
-52.08847405547841
 31
0.0
100
AcDbAttribute
  2
AUTOATTR0
 70
     0
 74
     1
  0
SEQEND
  5
100
330
FE
100
AcDbEntity
  8
0
  6
Continuous
 62
     7
  0
HATCH
  5
101
330
1F
100
AcDbEntity
  8
중심선
100
AcDbHatch
 10
0.0
 20
0.0
 30
0.0
210
0.0
220
0.0
230
1.0
  2
SOLID
 70
     1
 71
     0
 91
        1
 92
        0
 93
        4
 72
     1
 10
-4.527799473904665
 20
-35.8
 11
-7.974074717741947
 21
-35.8
 72
     1
 10
-7.974074717741947
 20
-35.8
 11
-10.10230457694597
 21
-38.33632558057259
 72
     1
 10
-10.10230457694597
 20
-38.33632558057259
 11
-6.655996247995538
 21
-38.3362861512701
 72
     1
 10
-6.655996247995538
 20
-38.3362861512701
 11
-4.527799473904665
 21
-35.8
 97
        0
 75
     0
 76
     1
 98
        1
 10
0.0
 20
0.0
  0
HATCH
  5
102
330
1F
100
AcDbEntity
  8
중심선
100
AcDbHatch
 10
0.0
 20
0.0
 30
0.0
210
0.0
220
0.0
230
1.0
  2
SOLID
 70
     1
 71
     0
 91
        1
 92
        0
 93
        4
 72
     1
 10
0.4849645171312866
 20
-35.8
 11
-2.961310726705996
 21
-35.8
 72
     1
 10
-2.961310726705996
 20
-35.8
 11
-7.492448735063384
 21
-41.20000000000002
 72
     1
 10
-7.492448735063384
 20
-41.20000000000002
 11
-4.046173491226101
 21
-41.20000000000002
 72
     1
 10
-4.046173491226101
 20
-41.20000000000002
 11
0.4849645171312869
 21
-35.8
 97
        0
 75
     0
 76
     1
 98
        1
 10
0.0
 20
0.0
  0
HATCH
  5
103
330
1F
100
AcDbEntity
  8
중심선
100
AcDbHatch
 10
0.0
 20
0.0
 30
0.0
210
0.0
220
0.0
230
1.0
  2
SOLID
 70
     1
 71
     0
 91
        1
 92
        0
 93
        4
 72
     1
 10
5.497728508167183
 20
-35.80000000000003
 11
2.051453264330067
 21
-35.8
 72
     1
 10
2.051453264330067
 20
-35.8
 11
-4.996983637559183
 21
-44.20000000000002
 72
     1
 10
-4.996983637559183
 20
-44.20000000000002
 11
-1.5507083937219
 21
-44.20000000000002
 72
     1
 10
-1.5507083937219
 20
-44.20000000000002
 11
5.497728508167183
 21
-35.80000000000003
 97
        0
 75
     0
 76
     1
 98
        1
 10
0.0
 20
0.0
  0
HATCH
  5
104
330
1F
100
AcDbEntity
  8
중심선
100
AcDbHatch
 10
0.0
 20
0.0
 30
0.0
210
0.0
220
0.0
230
1.0
  2
SOLID
 70
     1
 71
     0
 91
        1
 92
        0
 93
        6
 72
     3
 10
10.29761893917938
 20
-40.00000000005127
 11
3.960054785062284
 21
1.540850780301639E-10
 40
0.3939339440162633
 50
17.09539180608433
 51
320.0019657685081
 73
     0
 72
     1
 10
11.98061859487998
 20
-38.5878940046383
 11
14.28592046858101
 21
-36.65356729459038
 72
     3
 10
10.29761893912653
 20
-40.00000000000015
 11
6.600054785286829
 21
-1.249000902703301E-13
 40
0.6363583540795982
 50
39.99873849337408
 51
368.4976242363725
 73
     1
 72
     1
 10
16.72295143102714
 20
-39.03999999993002
 11
8.977686245962458
 21
-39.03999999992999
 72
     1
 10
8.977686245962458
 20
-39.03999999992999
 11
8.977661201516524
 21
-40.95999999992991
 72
     1
 10
8.977661201516524
 20
-40.95999999992991
 11
13.41904097098856
 21
-40.95999999992988
 97
        0
 75
     0
 76
     1
 98
        1
 10
0.0
 20
0.0
  0
LINE
  5
250
330
1F
100
AcDbEntity
  8
0
  6
Continuous
 62
     4
370
    15
100
AcDbLine
 10
6.949228128440069
 20
9.52500000000002
 30
0.0
 11
-53.00000000000001
 21
9.52500000000002
 31
0.0
  0
LINE
  5
251
330
1F
100
AcDbEntity
  8
0
  6
Continuous
 62
     4
370
    15
100
AcDbLine
 10
-53.00000000000001
 20
-9.524999999999977
 30
0.0
 11
6.950421420952836
 21
-9.524999999999977
 31
0.0
  0
LINE
  5
252
330
1F
100
AcDbEntity
  8
0
  6
Continuous
 62
     4
370
    15
100
AcDbLine
 10
-53.00000000000001
 20
9.525000000000006
 30
0.0
 11
-53.50000000000001
 21
9.025000000000006
 31
0.0
  0
LINE
  5
253
330
1F
100
AcDbEntity
  8
0
  6
Continuous
 62
     4
370
    15
100
AcDbLine
 10
-53.50000000000001
 20
-9.024999999999977
 30
0.0
 11
-53.00000000000001
 21
-9.524999999999977
 31
0.0
  0
LINE
  5
254
330
1F
100
AcDbEntity
  8
0
  6
Continuous
 62
     1
370
    15
100
AcDbLine
 10
6.950275131095751
 20
-9.52536544804289
 30
0.0
 11
6.950275079015412
 21
-9.524953985438572
 31
0.0
  0
LINE
  5
255
330
1F
100
AcDbEntity
  8
0
  6
Continuous
 62
     1
370
    15
100
AcDbLine
 10
6.950275079015412
 20
9.52495398544535
 30
0.0
 11
6.950275131095751
 21
9.525365448043473
 31
0.0
  0
LINE
  5
256
330
1F
100
AcDbEntity
  8
0
  6
Continuous
 62
     1
370
    15
100
AcDbLine
 10
52.15476788535666
 20
-9.524999999999977
 30
0.0
 11
55.41004950403013
 21
-9.524999999999977
 31
0.0
  0
LINE
  5
257
330
1F
100
AcDbEntity
  8
0
  6
Continuous
 62
     1
370
    15
100
AcDbLine
 10
25.48646514904647
 20
9.52500000000002
 30
0.0
 11
22.23103045086238
 21
9.52500000000002
 31
0.0
  0
LINE
  5
258
102
{ACAD_REACTORS
102
}
330
1F
100
AcDbEntity
  8
0
  6
Continuous
 62
     1
370
    15
100
AcDbLine
 10
83.152
 20
9.52500000000002
 30
0.0
 11
82.0784376109974
 21
9.52500000000002
 31
0.0
  0
ARC
  5
259
102
{ACAD_REACTORS
102
}
330
1F
100
AcDbEntity
  8
0
  6
Continuous
 62
     1
370
    15
100
AcDbCircle
 10
83.152
 20
-6.476999999999975
 30
0.0
 40
3.047999999999996
100
AcDbArc
 50
270.0000000000005
 51
0.0000000000005343
  0
ARC
  5
25A
102
{ACAD_REACTORS
102
}
330
1F
100
AcDbEntity
  8
0
  6
Continuous
 62
     1
370
    15
100
AcDbCircle
 10
83.152
 20
6.477000000000018
 30
0.0
 40
3.047999999999996
100
AcDbArc
 50
0.0
 51
90.0
  0
LINE
  5
25B
330
1F
100
AcDbEntity
  8
0
  6
Continuous
 62
     1
370
    15
100
AcDbLine
 10
72.10360963342195
 20
-9.524999999999977
 30
0.0
 11
75.35996420012354
 21
-9.524999999999977
 31
0.0
  0
LINE
  5
25C
330
1F
100
AcDbEntity
  8
0
  6
Continuous
 62
     1
370
    15
100
AcDbLine
 10
12.25535089107295
 20
-9.524999999999977
 30
0.0
 11
15.51304749745584
 21
-9.524999999999977
 31
0.0
  0
LINE
  5
25D
330
1F
100
AcDbEntity
  8
0
  6
Continuous
 62
     1
370
    15
100
AcDbLine
 10
45.43655516526111
 20
9.52500000000002
 30
0.0
 11
42.17919790973288
 21
9.52500000000002
 31
0.0
  0
LINE
  5
25E
330
1F
100
AcDbEntity
  8
0
  6
Continuous
 62
     1
370
    15
100
AcDbLine
 10
62.12820047452793
 20
-9.524999999999977
 30
0.0
 11
65.38586621096833
 21
-9.524999999999977
 31
0.0
  0
LINE
  5
25F
330
1F
100
AcDbEntity
  8
0
  6
Continuous
 62
     1
370
    15
100
AcDbLine
 10
35.46143891996162
 20
9.52500000000002
 30
0.0
 11
32.20471020684406
 21
9.52500000000002
 31
0.0
  0
LINE
  5
260
330
1F
100
AcDbEntity
  8
0
  6
Continuous
 62
     1
370
    15
100
AcDbLine
 10
32.20471020684413
 20
-9.524999999999977
 30
0.0
 11
35.46143891996174
 21
-9.524999999999977
 31
0.0
  0
LINE
  5
261
330
1F
100
AcDbEntity
  8
0
  6
Continuous
 62
     1
370
    15
100
AcDbLine
 10
65.38586621096839
 20
9.52500000000002
 30
0.0
 11
62.12820047452801
 21
9.52500000000002
 31
0.0
  0
LINE
  5
262
330
1F
100
AcDbEntity
  8
0
  6
Continuous
 62
     1
370
    15
100
AcDbLine
 10
42.17919790973296
 20
-9.524999999999977
 30
0.0
 11
45.43655516526111
 21
-9.524999999999977
 31
0.0
  0
LINE
  5
263
330
1F
100
AcDbEntity
  8
0
  6
Continuous
 62
     1
370
    15
100
AcDbLine
 10
15.51304749745584
 20
9.52500000000002
 30
0.0
 11
12.25535089107304
 21
9.52500000000002
 31
0.0
  0
LINE
  5
264
330
1F
100
AcDbEntity
  8
0
  6
Continuous
 62
     1
370
    15
100
AcDbLine
 10
75.35996420012354
 20
9.52500000000002
 30
0.0
 11
72.10360963342201
 21
9.52500000000002
 31
0.0
  0
LINE
  5
265
330
1F
100
AcDbEntity
  8
0
  6
Continuous
 62
     1
370
    15
100
AcDbLine
 10
82.0784376109974
 20
-9.524999999999977
 30
0.0
 11
83.152
 21
-9.524999999999977
 31
0.0
  0
LINE
  5
266
330
1F
100
AcDbEntity
  8
0
  6
Continuous
 62
     1
370
    15
100
AcDbLine
 10
22.23103045086236
 20
-9.524999999999977
 30
0.0
 11
25.48646514904651
 21
-9.524999999999977
 31
0.0
  0
LINE
  5
267
330
1F
100
AcDbEntity
  8
0
  6
Continuous
 62
     1
370
    15
100
AcDbLine
 10
55.4100495040302
 20
9.52500000000002
 30
0.0
 11
52.15476788535666
 21
9.52500000000002
 31
0.0
  0
SPLINE
  5
268
330
1F
100
AcDbEntity
  8
0
  6
Continuous
 62
     4
370
    15
100
AcDbSpline
210
0.0
220
0.0
230
1.0
 70
     8
 71
     3
 72
    11
 73
     7
 74
     0
 42
0.000000001
 43
0.00000001
 40
0.0
 40
0.0
 40
0.0
 40
0.0
 40
0.2615835083871413
 40
0.5182017864399623
 40
0.7734535223020772
 40
1.0
 40
1.0
 40
1.0
 40
1.0
 10
7.807343732128302
 20
9.24466519237862
 30
0.0
 10
7.9861858565977
 20
9.218183438830863
 30
0.0
 10
8.340475425394246
 20
9.165722593416206
 30
0.0
 10
8.960107042403365
 20
9.148326187926315
 30
0.0
 10
9.539865868491717
 20
9.183821789049631
 30
0.0
 10
9.852837512515634
 20
9.236874378800351
 30
0.0
 10
9.999999999999858
 20
9.261820252409905
 30
0.0
  0
SPLINE
  5
269
330
1F
100
AcDbEntity
  8
0
  6
Continuous
 62
     4
370
    15
100
AcDbSpline
210
0.0
220
0.0
230
1.0
 70
     8
 71
     3
 72
    14
 73
    10
 74
     0
 42
0.000000001
 43
0.00000001
 40
0.0
 40
0.0
 40
0.0
 40
0.0
 40
0.2499999999999999
 40
0.2499999999999999
 40
0.4999999999999998
 40
0.4999999999999998
 40
0.7499999999999999
 40
0.7499999999999999
 40
1.0
 40
1.0
 40
1.0
 40
1.0
 10
7.582539934769542
 20
9.306273344373366
 30
0.0
 10
7.448920714006007
 20
9.334740826548597
 30
0.0
 10
7.339019290753853
 20
9.363971134836405
 30
0.0
 10
7.160804897091992
 20
9.418891459968691
 30
0.0
 10
7.094381500779079
 20
9.444138126073625
 30
0.0
 10
7.002609089296541
 20
9.48489166866932
 30
0.0
 10
6.976559922716646
 20
9.500720049270086
 30
0.0
 10
6.950424188098523
 20
9.521037683030954
 30
0.0
 10
6.950275078687142
 20
9.525746114652549
 30
0.0
 10
6.950275078687142
 20
9.524903993715071
 30
0.0
  0
SPLINE
  5
26A
330
1F
100
AcDbEntity
  8
0
  6
Continuous
 62
     4
370
    15
100
AcDbSpline
210
0.0
220
0.0
230
1.0
 70
     8
 71
     3
 72
    10
 73
     6
 74
     0
 42
0.000000001
 43
0.00000001
 40
0.0
 40
0.0
 40
0.0
 40
0.0
 40
0.5
 40
0.5
 40
1.0
 40
1.0
 40
1.0
 40
1.0
 10
9.999999999999986
 20
8.498678242173796
 30
0.0
 10
9.596226948792776
 20
8.680720280204895
 30
0.0
 10
9.19655768100786
 20
8.839368429189065
 30
0.0
 10
8.39078925126708
 20
9.10934873743112
 30
0.0
 10
7.985451479444222
 20
9.220433319632363
 30
0.0
 10
7.582539934769542
 20
9.306273344373366
 30
0.0
  0
SPLINE
  5
26B
330
1F
100
AcDbEntity
  8
0
  6
Continuous
 62
     4
370
    15
100
AcDbSpline
210
0.0
220
0.0
230
1.0
 70
     8
 71
     3
 72
    24
 73
    20
 74
     0
 42
0.000000001
 43
0.00000001
 40
0.0
 40
0.0
 40
0.0
 40
0.0
 40
0.1250000000000002
 40
0.1250000000000002
 40
0.2500000000000002
 40
0.2500000000000002
 40
0.3750000000000002
 40
0.3750000000000002
 40
0.5000000000000001
 40
0.5000000000000001
 40
0.6250000000000001
 40
0.6250000000000001
 40
0.6875000000000001
 40
0.6875000000000001
 40
0.7500000000000001
 40
0.7500000000000001
 40
0.8750000000000001
 40
0.8750000000000001
 40
1.0
 40
1.0
 40
1.0
 40
1.0
 10
6.950275078687142
 20
4.799488234291957
 30
0.0
 10
6.950275078687156
 20
4.975596677982963
 30
0.0
 10
6.950694515013225
 20
5.148021489012336
 30
0.0
 10
6.984057489008109
 20
5.48323617699495
 30
0.0
 10
7.016748230467186
 20
5.647393396458611
 30
0.0
 10
7.133193204314821
 20
5.959098688434807
 30
0.0
 10
7.215002568317928
 20
6.103032466089431
 30
0.0
 10
7.437937731327978
 20
6.365430604680952
 30
0.0
 10
7.572851068381638
 20
6.476883870984096
 30
0.0
 10
7.8926704359166
 20
6.662514621969763
 30
0.0
 10
8.072846727558343
 20
6.733268283705982
 30
0.0
 10
8.362873703348427
 20
6.804336355101384
 30
0.0
 10
8.463408018866588
 20
6.822194343218541
 30
0.0
 10
8.66446720851711
 20
6.845329814518237
 30
0.0
 10
8.765960045847478
 20
6.850880379688448
 30
0.0
 10
9.073378589761518
 20
6.849308088087696
 30
0.0
 10
9.2765850593985
 20
6.823905759054
 30
0.0
 10
9.661861980218816
 20
6.724903602028988
 30
0.0
 10
9.840970056780819
 20
6.652067619076917
 30
0.0
 10
9.999999999999858
 20
6.556587399020287
 30
0.0
  0
SPLINE
  5
26C
330
1F
100
AcDbEntity
  8
0
  6
Continuous
 62
     4
370
    15
100
AcDbSpline
210
0.0
220
0.0
230
1.0
 70
     8
 71
     3
 72
    14
 73
    10
 74
     0
 42
0.000000001
 43
0.00000001
 40
0.0
 40
0.0
 40
0.0
 40
0.0
 40
0.25
 40
0.25
 40
0.5
 40
0.5
 40
0.75
 40
0.75
 40
1.0
 40
1.0
 40
1.0
 40
1.0
 10
7.582539934769542
 20
2.895531460583499
 30
0.0
 10
7.448920714006007
 20
3.022813698910284
 30
0.0
 10
7.339019290753853
 20
3.164896396624385
 30
0.0
 10
7.160804897091992
 20
3.473367713970177
 30
0.0
 10
7.094381500779079
 20
3.638091187245237
 30
0.0
 10
7.002609089296541
 20
3.970151027489948
 30
0.0
 10
6.976559922716646
 20
4.139965580474581
 30
0.0
 10
6.950424188098523
 20
4.472901826820433
 30
0.0
 10
6.950275078687156
 20
4.63747808610708
 30
0.0
 10
6.950275078687156
 20
4.799488234291459
 30
0.0
  0
SPLINE
  5
26D
330
1F
100
AcDbEntity
  8
0
  6
Continuous
 62
     4
370
    15
100
AcDbSpline
210
0.0
220
0.0
230
1.0
 70
     8
 71
     3
 72
    10
 73
     6
 74
     0
 42
0.000000001
 43
0.00000001
 40
0.0
 40
0.0
 40
0.0
 40
0.0
 40
0.5
 40
0.5
 40
1.0
 40
1.0
 40
1.0
 40
1.0
 10
9.999999999999986
 20
0.5246149900938804
 30
0.0
 10
9.596226948792776
 20
0.9271590884099794
 30
0.0
 10
9.19655768100786
 20
1.326932154952061
 30
0.0
 10
8.39078925126708
 20
2.119358135137787
 30
0.0
 10
7.985451479444222
 20
2.511728269988254
 30
0.0
 10
7.582539934769528
 20
2.895531460583513
 30
0.0
  0
SPLINE
  5
26E
330
1F
100
AcDbEntity
  8
0
  6
Continuous
 62
     4
370
    15
100
AcDbSpline
210
0.0
220
0.0
230
1.0
 70
     8
 71
     3
 72
    24
 73
    20
 74
     0
 42
0.000000001
 43
0.00000001
 40
0.0
 40
0.0
 40
0.0
 40
0.0
 40
0.1249999999999998
 40
0.1249999999999998
 40
0.2499999999999997
 40
0.2499999999999997
 40
0.3749999999999997
 40
0.3749999999999997
 40
0.4999999999999998
 40
0.4999999999999998
 40
0.6249999999999998
 40
0.6249999999999998
 40
0.6874999999999999
 40
0.6874999999999999
 40
0.7499999999999999
 40
0.7499999999999999
 40
0.8749999999999999
 40
0.8749999999999999
 40
1.0
 40
1.0
 40
1.0
 40
1.0
 10
6.950275078687156
 20
-4.725415759424237
 30
0.0
 10
6.950275078687156
 20
-4.548391912535607
 30
0.0
 10
6.950694515013225
 20
-4.368483321104407
 30
0.0
 10
6.984057489008109
 20
-4.005633838028473
 30
0.0
 10
7.016748230467201
 20
-3.82110590873441
 30
0.0
 10
7.13319320431485
 20
-3.457845154522431
 30
0.0
 10
7.215002568317928
 20
-3.283430475735855
 30
0.0
 10
7.437937731327978
 20
-2.955507052498064
 30
0.0
 10
7.572851068381638
 20
-2.810857535937345
 30
0.0
 10
7.8926704359166
 20
-2.564903879800653
 30
0.0
 10
8.072846727558343
 20
-2.468171403871509
 30
0.0
 10
8.362873703348427
 20
-2.370251346393133
 30
0.0
 10
8.463408018866588
 20
-2.345435971188266
 30
0.0
 10
8.66446720851711
 20
-2.313232613134659
 30
0.0
 10
8.765960045847478
 20
-2.305467041488043
 30
0.0
 10
9.073378589761518
 20
-2.307662633599136
 30
0.0
 10
9.2765850593985
 20
-2.343363824082473
 30
0.0
 10
9.661861980218816
 20
-2.479610452397992
 30
0.0
 10
9.840970056780819
 20
-2.579024251309249
 30
0.0
 10
9.999999999999858
 20
-2.70523285338956
 30
0.0
  0
SPLINE
  5
26F
330
1F
100
AcDbEntity
  8
0
  6
Continuous
 62
     4
370
    15
100
AcDbSpline
210
0.0
220
0.0
230
1.0
 70
     8
 71
     3
 72
    14
 73
    10
 74
     0
 42
0.000000001
 43
0.00000001
 40
0.0
 40
0.0
 40
0.0
 40
0.0
 40
0.25
 40
0.25
 40
0.5
 40
0.5
 40
0.75
 40
0.75
 40
1.0
 40
1.0
 40
1.0
 40
1.0
 10
7.582539934769542
 20
-6.410741883789768
 30
0.0
 10
7.448920714006007
 20
-6.311927127638228
 30
0.0
 10
7.339019290753853
 20
-6.199074738211948
 30
0.0
 10
7.160804897091992
 20
-5.945523745998457
 30
0.0
 10
7.094381500779079
 20
-5.806046938828331
 30
0.0
 10
7.002609089296541
 20
-5.514740641179287
 30
0.0
 10
6.97655992271666
 20
-5.360754468795449
 30
0.0
 10
6.950424188098538
 20
-5.048135856210479
 30
0.0
 10
6.950275078687156
 20
-4.888268028545411
 30
0.0
 10
6.950275078687156
 20
-4.725415759423555
 30
0.0
  0
SPLINE
  5
270
330
1F
100
AcDbEntity
  8
0
  6
Continuous
 62
     4
370
    15
100
AcDbSpline
210
0.0
220
0.0
230
1.0
 70
     8
 71
     3
 72
    10
 73
     6
 74
     0
 42
0.000000001
 43
0.00000001
 40
0.0
 40
0.0
 40
0.0
 40
0.0
 40
0.5
 40
0.5
 40
1.0
 40
1.0
 40
1.0
 40
1.0
 10
9.999999999999986
 20
-7.974063252079873
 30
0.0
 10
9.596226948792776
 20
-7.753561191794887
 30
0.0
 10
9.19655768100786
 20
-7.512436274236933
 30
0.0
 10
8.39078925126708
 20
-6.98999060229329
 30
0.0
 10
7.985451479444222
 20
-6.708705049644038
 30
0.0
 10
7.582539934769528
 20
-6.410741883789797
 30
0.0
  0
SPLINE
  5
271
330
1F
100
AcDbEntity
  8
0
  6
Continuous
 62
     4
370
    15
100
AcDbSpline
210
0.0
220
0.0
230
1.0
 70
     8
 71
     3
 72
    24
 73
    20
 74
     0
 42
0.000000001
 43
0.00000001
 40
0.0
 40
0.0
 40
0.0
 40
0.0
 40
0.1249999999999999
 40
0.1249999999999999
 40
0.2499999999999998
 40
0.2499999999999998
 40
0.3749999999999998
 40
0.3749999999999998
 40
0.4999999999999997
 40
0.4999999999999997
 40
0.6249999999999996
 40
0.6249999999999996
 40
0.6874999999999997
 40
0.6874999999999997
 40
0.7499999999999997
 40
0.7499999999999997
 40
0.8749999999999999
 40
0.8749999999999999
 40
1.0
 40
1.0
 40
1.0
 40
1.0
 10
6.950275078687156
 20
-9.524903993716208
 30
0.0
 10
6.950275078687156
 20
-9.52398859051857
 30
0.0
 10
6.950694515013225
 20
-9.5165048101168
 30
0.0
 10
6.984057489008109
 20
-9.488870015023451
 30
0.0
 10
7.016748230467201
 20
-9.468499305193035
 30
0.0
 10
7.13319320431485
 20
-9.416943842957266
 30
0.0
 10
7.215002568317928
 20
-9.386462941825329
 30
0.0
 10
7.437937731327978
 20
-9.32093765717903
 30
0.0
 10
7.572851068381638
 20
-9.28774140692147
 30
0.0
 10
7.892670435916585
 20
-9.227418501770444
 30
0.0
 10
8.072846727558343
 20
-9.201439687577533
 30
0.0
 10
8.362873703348427
 20
-9.174587701494573
 30
0.0
 10
8.463408018866588
 20
-9.167630314406836
 30
0.0
 10
8.66446720851711
 20
-9.158562427652924
 30
0.0
 10
8.765960045847478
 20
-9.15634742117652
 30
0.0
 10
9.073378589761518
 20
-9.15697072168686
 30
0.0
 10
9.2765850593985
 20
-9.167269583136516
 30
0.0
 10
9.661861980218816
 20
-9.204514054427023
 30
0.0
 10
9.840970056780819
 20
-9.231091870386194
 30
0.0
 10
9.999999999999858
 20
-9.261820252409876
 30
0.0
  0
LINE
  5
272
330
1F
100
AcDbEntity
  8
0
  6
Continuous
 62
     1
370
    15
100
AcDbLine
 10
7.807343732128047
 20
-9.244665192378648
 30
0.0
 11
7.582539934769528
 21
-9.306273344373324
 31
0.0
  0
LINE
  5
273
330
1F
100
AcDbEntity
  8
0
  6
Continuous
 62
     4
370
    15
100
AcDbLine
 10
-53.00000000000001
 20
9.525000000000006
 30
0.0
 11
-53.00000000000001
 21
-9.524999999999977
 31
0.0
  0
LINE
  5
274
330
1F
100
AcDbEntity
  8
0
  6
Continuous
 62
     1
370
    15
100
AcDbLine
 10
10.0
 20
-7.974063252079844
 30
0.0
 11
9.999999999999986
 21
-9.26182025240982
 31
0.0
  0
LINE
  5
275
330
1F
100
AcDbEntity
  8
0
  6
Continuous
 62
     1
370
    15
100
AcDbLine
 10
9.999999999999986
 20
0.5246149900938804
 30
0.0
 11
9.999999999999986
 21
-2.705232853389248
 31
0.0
  0
LINE
  5
276
330
1F
100
AcDbEntity
  8
0
  6
Continuous
 62
     1
370
    15
100
AcDbLine
 10
9.999999999999986
 20
8.498678242173796
 30
0.0
 11
9.999999999999986
 21
6.556587399020515
 31
0.0
  0
LINE
  5
277
330
1F
100
AcDbEntity
  8
0
  6
Continuous
 62
     4
370
    15
100
AcDbLine
 10
-53.50000000000001
 20
9.025000000000006
 30
0.0
 11
-53.50000000000001
 21
-9.024999999999977
 31
0.0
  0
SPLINE
  5
278
330
1F
100
AcDbEntity
  8
0
  6
Continuous
 62
     1
370
    15
100
AcDbSpline
210
0.0
220
0.0
230
1.0
 70
    24
 71
     3
 72
    16
 73
    12
 74
     0
 42
0.000000001
 43
0.00000001
 40
0.0
 40
0.0
 40
0.0
 40
0.0
 40
0.25
 40
0.25
 40
0.4999999999999999
 40
0.4999999999999999
 40
0.7499999999999998
 40
0.7499999999999998
 40
0.8749999999999999
 40
0.8749999999999999
 40
1.0
 40
1.0
 40
1.0
 40
1.0
 10
9.999999999999986
 20
5.902843729431481
 30
0.0
 10
9.999999999999986
 20
5.525303461207557
 30
0.0
 10
9.999999999999986
 20
5.097508435215758
 30
0.0
 10
9.999999999999986
 20
4.157522360266128
 30
0.0
 10
9.999999999999986
 20
3.644368822044143
 30
0.0
 10
9.999999999999986
 20
2.60760725830157
 30
0.0
 10
9.999999999999986
 20
2.08508312114057
 30
0.0
 10
9.999999999999986
 20
1.399172833738305
 30
0.0
 10
9.999999999999986
 20
1.187263627020513
 30
0.0
 10
9.999999999999986
 20
0.8143980198595955
 30
0.0
 10
9.999999999999986
 20
0.6535698983207112
 30
0.0
 10
9.999999999999986
 20
0.5246149900938804
 30
0.0
  0
SPLINE
  5
279
330
1F
100
AcDbEntity
  8
0
  6
Continuous
 62
     1
370
    15
100
AcDbSpline
210
0.0
220
0.0
230
1.0
 70
    24
 71
     3
 72
     8
 73
     4
 74
     0
 42
0.000000001
 43
0.00000001
 40
0.0
 40
0.0
 40
0.0
 40
0.0
 40
1.0
 40
1.0
 40
1.0
 40
1.0
 10
9.999999999999986
 20
-2.705232853389276
 30
0.0
 10
9.999999999999986
 20
-2.737977879516592
 30
0.0
 10
9.999999999999986
 20
-2.788518216333301
 30
0.0
 10
9.999999999999986
 20
-2.859084326260529
 30
0.0
  0
SPLINE
  5
27A
330
1F
100
AcDbEntity
  8
0
  6
Continuous
 62
     1
370
    15
100
AcDbSpline
210
0.0
220
0.0
230
1.0
 70
    24
 71
     3
 72
     8
 73
     4
 74
     0
 42
0.000000001
 43
0.00000001
 40
0.0
 40
0.0
 40
0.0
 40
0.0
 40
1.0
 40
1.0
 40
1.0
 40
1.0
 10
9.999999999999986
 20
6.5565873990206
 30
0.0
 10
9.999999999999986
 20
6.344233677866242
 30
0.0
 10
9.999999999999986
 20
6.126542135331377
 30
0.0
 10
9.999999999999986
 20
5.90284372943114
 30
0.0
  0
SPLINE
  5
27B
330
1F
100
AcDbEntity
  8
0
  6
Continuous
 62
     1
370
    15
100
AcDbSpline
210
0.0
220
0.0
230
1.0
 70
    24
 71
     3
 72
    16
 73
    12
 74
     0
 42
0.000000001
 43
0.00000001
 40
0.0
 40
0.0
 40
0.0
 40
0.0
 40
0.25
 40
0.25
 40
0.5
 40
0.5
 40
0.75
 40
0.75
 40
0.875
 40
0.875
 40
1.0
 40
1.0
 40
1.0
 40
1.0
 10
9.999999999999986
 20
-2.859084326260415
 30
0.0
 10
9.999999999999986
 20
-2.978180159608485
 30
0.0
 10
9.999999999999986
 20
-3.154246405353007
 30
0.0
 10
9.999999999999986
 20
-3.672653025539148
 30
0.0
 10
9.999999999999986
 20
-4.016741244345127
 30
0.0
 10
9.999999999999986
 20
-4.897929303248873
 30
0.0
 10
9.999999999999986
 20
-5.436781628447932
 30
0.0
 10
9.999999999999986
 20
-6.344796714628671
 30
0.0
 10
9.999999999999986
 20
-6.66318225711683
 30
0.0
 10
9.999999999999986
 20
-7.313749181275341
 30
0.0
 10
9.999999999999986
 20
-7.645804666496304
 30
0.0
 10
9.999999999999986
 20
-7.974063252079873
 30
0.0
  0
LINE
  5
27C
330
1F
100
AcDbEntity
  8
0
  6
Continuous
 62
     4
370
    15
100
AcDbLine
 10
9.999999999999986
 20
8.761928055691982
 30
0.0
 11
9.999999999999986
 21
8.59583793207257
 31
0.0
  0
SPLINE
  5
27D
330
1F
100
AcDbEntity
  8
0
  6
Continuous
 62
     1
370
    15
100
AcDbSpline
210
0.0
220
0.0
230
1.0
 70
    24
 71
     3
 72
     8
 73
     4
 74
     0
 42
0.000000001
 43
0.00000001
 40
0.0
 40
0.0
 40
0.0
 40
0.0
 40
1.0
 40
1.0
 40
1.0
 40
1.0
 10
9.999999999999986
 20
9.261820252409933
 30
0.0
 10
9.999999999999986
 20
9.082211557382891
 30
0.0
 10
9.999999999999986
 20
8.91506035166475
 30
0.0
 10
9.999999999999986
 20
8.76192805569174
 30
0.0
  0
SPLINE
  5
27E
330
1F
100
AcDbEntity
  8
0
  6
Continuous
 62
     1
370
    15
100
AcDbSpline
210
0.0
220
0.0
230
1.0
 70
     8
 71
     3
 72
    28
 73
    24
 74
     0
 42
0.000000001
 43
0.00000001
 40
0.0
 40
0.0
 40
0.0
 40
0.0
 40
0.0191654511136946
 40
0.0688119470298624
 40
0.1184188555189309
 40
0.1679961094186355
 40
0.217581909528874
 40
0.2672143043708359
 40
0.3168433779374908
 40
0.3664277838528965
 40
0.4160056431793835
 40
0.4656151499647326
 40
0.5152609344958813
 40
0.5648584379703114
 40
0.6144343134488519
 40
0.6640267771060001
 40
0.7136691947775168
 40
0.7632857185843919
 40
0.812865570604608
 40
0.8624469226650378
 40
0.9120679298682727
 40
0.9617072794839242
 40
1.0
 40
1.0
 40
1.0
 40
1.0
 10
58.77110458014674
 20
-8.90703296621649
 30
0.0
 10
58.5584993543897
 20
-8.988559841906124
 30
0.0
 10
57.79515809796548
 20
-9.28127526082244
 30
0.0
 10
56.4803041386625
 20
-9.501816530176427
 30
0.0
 10
54.82921727882224
 20
-9.557864707907896
 30
0.0
 10
53.17918807521919
 20
-9.310414546181164
 30
0.0
 10
51.52886287720393
 20
-8.788372344065692
 30
0.0
 10
49.87677560002489
 20
-8.001935930367466
 30
0.0
 10
48.22481267372838
 20
-6.976038261548496
 30
0.0
 10
46.57453758286439
 20
-5.740632787604824
 30
0.0
 10
44.92450095011829
 20
-4.333328260884031
 30
0.0
 10
43.2732706520152
 20
-2.795968473731847
 30
0.0
 10
41.62068710601528
 20
-1.175695556632945
 30
0.0
 10
39.96991231946777
 20
0.4808407795549101
 30
0.0
 10
38.31993919934457
 20
2.122591939030912
 30
0.0
 10
36.66935619792453
 20
3.701089534163216
 30
0.0
 10
35.0168978601012
 20
5.167746685813611
 30
0.0
 10
33.36540290412104
 20
6.480311244635573
 30
0.0
 10
31.71529819859602
 20
7.597988491630929
 30
0.0
 10
30.06513480720223
 20
8.490382435321663
 30
0.0
 10
28.41348412928728
 20
9.119103709908899
 30
0.0
 10
26.88650391713337
 20
9.478817171386737
 30
0.0
 10
25.91119386503705
 20
9.493479724309523
 30
0.0
 10
25.48646514904645
 20
9.499864983297314
 30
0.0
  0
SPLINE
  5
27F
330
1F
100
AcDbEntity
  8
0
  6
Continuous
 62
     1
370
    15
100
AcDbSpline
210
0.0
220
0.0
230
1.0
 70
     8
 71
     3
 72
    28
 73
    24
 74
     0
 42
0.000000001
 43
0.00000001
 40
0.0
 40
0.0
 40
0.0
 40
0.0
 40
0.0365896744454606
 40
0.0861752673488639
 40
0.1357593600837505
 40
0.185380127741945
 40
0.2350267914795618
 40
0.2846234969300923
 40
0.3342036127831776
 40
0.3838053584820607
 40
0.4334553893672869
 40
0.483069139403768
 40
0.532651239274484
 40
0.5822398862940692
 40
0.6318732047854622
 40
0.681509844836241
 40
0.7310998861699084
 40
0.7806813805620582
 40
0.8302925320800182
 40
0.8799432744111102
 40
0.9295472008341583
 40
0.9791275010982381
 40
1.0
 40
1.0
 40
1.0
 40
1.0
 10
28.8474904326139
 20
8.912855844842369
 30
0.0
 10
29.25350775719279
 20
9.049381685115065
 30
0.0
 10
30.20975161626318
 20
9.37092460572957
 30
0.0
 10
31.71528317902178
 20
9.55442689314529
 30
0.0
 10
33.36540693180652
 20
9.503312327043759
 30
0.0
 10
35.01689677988342
 20
9.158167730258214
 30
0.0
 10
36.66935648711515
 20
8.541284400201704
 30
0.0
 10
38.31993912190161
 20
7.667345651728581
 30
0.0
 10
39.96991234029106
 20
6.563959315770617
 30
0.0
 10
41.62068710018193
 20
5.263483229074723
 30
0.0
 10
43.27327065449863
 20
3.806162745943126
 30
0.0
 10
44.92450094602067
 20
2.233974609189843
 30
0.0
 10
46.57453759676527
 20
0.5949733598166915
 30
0.0
 10
48.22481262219169
 20
-1.062052498362419
 30
0.0
 10
49.87677579246069
 20
-2.686772218258966
 30
0.0
 10
51.5288621593035
 20
-4.230933026884344
 30
0.0
 10
53.1791907514463
 20
-5.648727410602106
 30
0.0
 10
54.82920729009122
 20
-6.897330476805934
 30
0.0
 10
56.48034145481786
 20
-7.938087681103553
 30
0.0
 10
58.13294275228075
 20
-8.745052755677108
 30
0.0
 10
59.78383305745477
 20
-9.273274199247027
 30
0.0
 10
61.11517882399643
 20
-9.526658493035569
 30
0.0
 10
61.8966732445535
 20
-9.498498489282355
 30
0.0
 10
62.12820047452793
 20
-9.490155745567819
 30
0.0
  0
SPLINE
  5
280
330
1F
100
AcDbEntity
  8
0
  6
Continuous
 62
     1
370
    15
100
AcDbSpline
210
0.0
220
0.0
230
1.0
 70
     8
 71
     3
 72
    42
 73
    38
 74
     0
 42
0.000000001
 43
0.00000001
 40
0.0
 40
0.0
 40
0.0
 40
0.0
 40
0.1250000000000015
 40
0.1250000000000015
 40
0.1875000000000012
 40
0.1875000000000012
 40
0.2500000000000009
 40
0.2500000000000009
 40
0.3125000000000006
 40
0.3125000000000006
 40
0.3750000000000003
 40
0.3750000000000003
 40
0.4375000000000001
 40
0.4375000000000001
 40
0.4999999999999998
 40
0.4999999999999998
 40
0.5624999999999996
 40
0.5624999999999996
 40
0.6249999999999992
 40
0.6249999999999992
 40
0.6562499999999993
 40
0.6562499999999993
 40
0.6874999999999993
 40
0.6874999999999993
 40
0.7187499999999993
 40
0.7187499999999993
 40
0.7499999999999993
 40
0.7499999999999993
 40
0.7812499999999994
 40
0.7812499999999994
 40
0.8124999999999994
 40
0.8124999999999994
 40
0.8749999999999997
 40
0.8749999999999997
 40
0.9374999999999998
 40
0.9374999999999998
 40
1.0
 40
1.0
 40
1.0
 40
1.0
 10
83.152
 20
-5.66009639715756
 30
0.0
 10
83.50598697144208
 20
-5.944246883291669
 30
0.0
 10
83.83622741584394
 20
-6.185141140464481
 30
0.0
 10
84.30838404803244
 20
-6.479882153205637
 30
0.0
 10
84.45957379422144
 20
-6.565158523794651
 30
0.0
 10
84.74483033241329
 20
-6.709723518740503
 30
0.0
 10
84.87963050007603
 20
-6.769427651055594
 30
0.0
 10
85.13144925148971
 20
-6.867190136706284
 30
0.0
 10
85.24786766805589
 20
-6.90490468408737
 30
0.0
 10
85.45449960278047
 20
-6.96371522063157
 30
0.0
 10
85.54552557332066
 20
-6.985118194888173
 30
0.0
 10
85.70169479968881
 20
-7.022812395932732
 30
0.0
 10
85.76698530898476
 20
-7.039231067991068
 30
0.0
 10
85.86985717559905
 20
-7.080444193443782
 30
0.0
 10
85.90782217144941
 20
-7.105353085821378
 30
0.0
 10
85.96006742986712
 20
-7.177880295017133
 30
0.0
 10
85.97461894700628
 20
-7.225360229446267
 30
0.0
 10
85.97973995266672
 20
-7.357486232461525
 30
0.0
 10
85.97037484896045
 20
-7.443038341659843
 30
0.0
 10
85.9286679261006
 20
-7.606651759028864
 30
0.0
 10
85.91008562407002
 20
-7.667236117853037
 30
0.0
 10
85.85839623083562
 20
-7.804597706506229
 30
0.0
 10
85.82528947796139
 20
-7.881146850817032
 30
0.0
 10
85.73939408913812
 20
-8.048078106718123
 30
0.0
 10
85.6858446248251
 20
-8.139519866655348
 30
0.0
 10
85.55713276240805
 20
-8.326998192757259
 30
0.0
 10
85.47983680646622
 20
-8.425538931482919
 30
0.0
 10
85.31168772741567
 20
-8.610366295035732
 30
0.0
 10
85.2188200652664
 20
-8.69900692298387
 30
0.0
 10
85.03046980257805
 20
-8.855401580411893
 30
0.0
 10
84.9323200772619
 20
-8.925617765846198
 30
0.0
 10
84.64152058859638
 20
-9.105763614708621
 30
0.0
 10
84.44579797520491
 20
-9.19034467518486
 30
0.0
 10
84.06629400483361
 20
-9.300793148152536
 30
0.0
 10
83.87988293657229
 20
-9.327931681763772
 30
0.0
 10
83.5103562970201
 20
-9.335766416414799
 30
0.0
 10
83.3300944603191
 20
-9.316318482864943
 30
0.0
 10
83.152
 20
-9.27593745296528
 30
0.0
  0
SPLINE
  5
281
330
1F
100
AcDbEntity
  8
0
  6
Continuous
 62
     1
370
    15
100
AcDbSpline
210
0.0
220
0.0
230
1.0
 70
     8
 71
     3
 72
    24
 73
    20
 74
     0
 42
0.000000001
 43
0.00000001
 40
0.0
 40
0.0
 40
0.0
 40
0.0
 40
0.0617797212951361
 40
0.1236007542000151
 40
0.1854387405263336
 40
0.247228001762557
 40
0.3067097120607338
 40
0.3662101263582348
 40
0.4257704586832584
 40
0.4853026063857039
 40
0.5447895614225675
 40
0.6042771163818831
 40
0.663811057162998
 40
0.7233701624564987
 40
0.7828695042702042
 40
0.8423513408854343
 40
0.9018615219705465
 40
0.9614278684313918
 40
1.0
 40
1.0
 40
1.0
 40
1.0
 10
83.15199999999997
 20
-9.275937452965309
 30
0.0
 10
82.58082379744751
 20
-9.117118374156291
 30
0.0
 10
81.43808945134502
 20
-8.799374015479657
 30
0.0
 10
79.72288329371857
 20
-7.958188106954424
 30
0.0
 10
78.00717634853724
 20
-6.881645278650893
 30
0.0
 10
76.31409769280116
 20
-5.592657963886609
 30
0.0
 10
74.64308572880815
 20
-4.149024021587678
 30
0.0
 10
72.99252621618335
 20
-2.598489057909688
 30
0.0
 10
71.34010562307249
 20
-0.9710776396187839
 30
0.0
 10
69.68855497562781
 20
0.686066655730599
 30
0.0
 10
68.03843256710799
 20
2.322714311576448
 30
0.0
 10
66.38829162556841
 20
3.889773492213664
 30
0.0
 10
64.7366859807165
 20
5.340051501704011
 30
0.0
 10
63.08429977216527
 20
6.630103398742477
 30
0.0
 10
61.43378770254149
 20
7.721271932572563
 30
0.0
 10
59.7838021407599
 20
8.58384555464994
 30
0.0
 10
58.13296893168605
 20
9.177757295367869
 30
0.0
 10
56.67410618230005
 20
9.496864152396626
 30
0.0
 10
55.76669600460357
 20
9.493650683175858
 30
0.0
 10
55.4100495040302
 20
9.492387668300722
 30
0.0
  0
SPLINE
  5
282
330
1F
100
AcDbEntity
  8
0
  6
Continuous
 62
     1
370
    15
100
AcDbSpline
210
0.0
220
0.0
230
1.0
 70
     8
 71
     3
 72
    19
 73
    15
 74
     0
 42
0.000000001
 43
0.00000001
 40
0.0
 40
0.0
 40
0.0
 40
0.0
 40
0.023019482428131
 40
0.1106849438860753
 40
0.1982628666196979
 40
0.2858167875128376
 40
0.3734141919324736
 40
0.4610926680796584
 40
0.5486986112841354
 40
0.6362539434255653
 40
0.7271473918887281
 40
0.8180981558848617
 40
0.9090850540872156
 40
1.0
 40
1.0
 40
1.0
 40
1.0
 10
28.84749043261398
 20
-8.91285584484234
 30
0.0
 10
28.70285884281041
 20
-8.970441419896986
 30
0.0
 10
28.00742446666656
 20
-9.247331057336567
 30
0.0
 10
26.76109639795604
 20
-9.474153666524273
 30
0.0
 10
25.11065846687559
 20
-9.568830957808018
 30
0.0
 10
23.46066413333084
 20
-9.355861191313664
 30
0.0
 10
21.80976530496609
 20
-8.867924452484942
 30
0.0
 10
20.15715127309299
 20
-8.113160828972894
 30
0.0
 10
18.5060481959312
 20
-7.11517873040799
 30
0.0
 10
16.83525415902304
 20
-5.888649716928171
 30
0.0
 10
15.14306407174659
 20
-4.46185298738169
 30
0.0
 10
13.42877673295914
 20
-2.873645484984024
 30
0.0
 10
11.71368378917667
 20
-1.19195298286462
 30
0.0
 10
10.57107727493116
 20
-0.0474234258744559
 30
0.0
 10
9.999999999999986
 20
0.5246149900938804
 30
0.0
  0
SPLINE
  5
283
330
1F
100
AcDbEntity
  8
0
  6
Continuous
 62
     1
370
    15
100
AcDbSpline
210
0.0
220
0.0
230
1.0
 70
    24
 71
     3
 72
    18
 73
    14
 74
     0
 42
0.000000001
 43
0.00000001
 40
0.0
 40
0.0
 40
0.0
 40
0.0
 40
0.25
 40
0.25
 40
0.5
 40
0.5
 40
0.625
 40
0.625
 40
0.75
 40
0.75
 40
0.875
 40
0.875
 40
1.0
 40
1.0
 40
1.0
 40
1.0
 10
9.999999999999986
 20
6.56474427926041
 30
0.0
 10
9.999999999999986
 20
6.197033802343341
 30
0.0
 10
9.999999999999986
 20
5.766374551818274
 30
0.0
 10
9.999999999999986
 20
4.774456577722404
 30
0.0
 10
9.999999999999986
 20
4.210902007244002
 30
0.0
 10
9.999999999999986
 20
3.321375923371534
 30
0.0
 10
9.999999999999986
 20
3.018420275300812
 30
0.0
 10
9.999999999999986
 20
2.42100668569708
 30
0.0
 10
9.999999999999986
 20
2.126676885589632
 30
0.0
 10
9.999999999999986
 20
1.574426458944657
 30
0.0
 10
9.999999999999986
 20
1.316759753086131
 30
0.0
 10
9.999999999999986
 20
0.8664400038539668
 30
0.0
 10
9.999999999999986
 20
0.6740628526802652
 30
0.0
 10
9.999999999999986
 20
0.5246149900938804
 30
0.0
  0
SPLINE
  5
284
330
1F
100
AcDbEntity
  8
0
  6
Continuous
 62
     1
370
    15
100
AcDbSpline
210
0.0
220
0.0
230
1.0
 70
     8
 71
     3
 72
    21
 73
    17
 74
     0
 42
0.000000001
 43
0.00000001
 40
0.0
 40
0.0
 40
0.0
 40
0.0
 40
0.0771675133367624
 40
0.1543960989120789
 40
0.2315940142074714
 40
0.308743280767383
 40
0.3830591943159633
 40
0.4574180659265381
 40
0.5318385026270721
 40
0.606190126619706
 40
0.6805048423177007
 40
0.7548399304894075
 40
0.8292493204781438
 40
0.9036312151888521
 40
0.9779536668365691
 40
1.0
 40
1.0
 40
1.0
 40
1.0
 10
9.999999999999986
 20
6.564744279260466
 30
0.0
 10
10.57107727485014
 20
6.130312808217596
 30
0.0
 10
11.71368378893358
 20
5.26110604654653
 30
0.0
 10
13.42877673393228
 20
3.731571729686635
 30
0.0
 10
15.14306406810007
 20
2.096366230585801
 30
0.0
 10
16.83525417241623
 20
0.4102452317873997
 30
0.0
 10
18.50604814797236
 20
-1.26602628695926
 30
0.0
 10
20.15715145247989
 20
-2.883918888206779
 30
0.0
 10
21.80976463508249
 20
-4.414421782389212
 30
0.0
 10
23.46066663021692
 20
-5.813481363552427
 30
0.0
 10
25.11064915216828
 20
-7.038399207888745
 30
0.0
 10
26.76113118686567
 20
-8.05104680437421
 30
0.0
 10
28.41347104950655
 20
-8.827611786615904
 30
0.0
 10
30.06515087373924
 20
-9.31874043612575
 30
0.0
 10
31.32848732344969
 20
-9.541288984650123
 30
0.0
 10
32.04157646224165
 20
-9.50377001631503
 30
0.0
 10
32.20471020684413
 20
-9.495186783917887
 30
0.0
  0
SPLINE
  5
285
330
1F
100
AcDbEntity
  8
0
  6
Continuous
 62
     1
370
    15
100
AcDbSpline
210
0.0
220
0.0
230
1.0
 70
     8
 71
     3
 72
    22
 73
    18
 74
     0
 42
0.000000001
 43
0.00000001
 40
0.0
 40
0.0
 40
0.0
 40
0.0
 40
0.0415481554481836
 40
0.1092283184087727
 40
0.1769283992930997
 40
0.2446964808021853
 40
0.3124359293974935
 40
0.3801225988562271
 40
0.4478085857057538
 40
0.5155459940840239
 40
0.5833154717452484
 40
0.6510167729328177
 40
0.718696792166191
 40
0.7890024099421438
 40
0.8593634685421454
 40
0.9297052370463619
 40
1.0
 40
1.0
 40
1.0
 40
1.0
 10
58.7711045801468
 20
8.907032966216534
 30
0.0
 10
59.10876190456541
 20
9.026435088169961
 30
0.0
 10
59.99644852619285
 20
9.340338144869463
 30
0.0
 10
61.43376204238841
 20
9.540177705357323
 30
0.0
 10
63.08430665643685
 20
9.526504470611954
 30
0.0
 10
64.73668413611905
 20
9.215918431352492
 30
0.0
 10
66.38829211930913
 20
8.632152988105503
 30
0.0
 10
68.03843243485913
 20
7.788741535494125
 30
0.0
 10
69.6885550110931
 20
6.712103258426339
 30
0.0
 10
71.34010561356125
 20
5.434250107026998
 30
0.0
 10
72.99252621872931
 20
3.99412069397053
 30
0.0
 10
74.64308572812736
 20
2.433380199781453
 30
0.0
 10
76.31409769299147
 20
0.7794435544830378
 30
0.0
 10
78.00717634848537
 20
-0.9217114477161488
 30
0.0
 10
79.72288329373241
 20
-2.610230728937154
 30
0.0
 10
81.43808945134155
 20
-4.22789552972111
 30
0.0
 10
82.58082379744631
 20
-5.182802495561162
 30
0.0
 10
83.152
 20
-5.660096397157588
 30
0.0
  0
SPLINE
  5
286
330
1F
100
AcDbEntity
  8
0
  6
Continuous
 62
     1
370
    15
100
AcDbSpline
210
0.0
220
0.0
230
1.0
 70
     8
 71
     3
 72
    28
 73
    24
 74
     0
 42
0.000000001
 43
0.00000001
 40
0.0
 40
0.0
 40
0.0
 40
0.0
 40
0.0212184843390212
 40
0.0708006295895961
 40
0.1204214368520086
 40
0.1700632184259241
 40
0.2196551878746329
 40
0.2692325669557589
 40
0.3188335708038417
 40
0.3684813878016591
 40
0.418089616318965
 40
0.4676681894578053
 40
0.5172553090345922
 40
0.5668890245829773
 40
0.616519418767677
 40
0.6661051441125321
 40
0.715684322694265
 40
0.7652951495769915
 40
0.81494225517086
 40
0.8645410784232622
 40
0.9141182731042589
 40
0.9637120564052708
 40
1.0
 40
1.0
 40
1.0
 40
1.0
 10
68.74448112570413
 20
-8.90600890954829
 30
0.0
 10
68.50913040719841
 20
-8.99504822614395
 30
0.0
 10
67.72382553912523
 20
-9.292149544620713
 30
0.0
 10
66.38830464810904
 20
-9.510041986502927
 30
0.0
 10
64.73668239619484
 20
-9.553228401589507
 30
0.0
 10
63.08430107598097
 20
-9.294392883895597
 30
0.0
 10
61.43378607049318
 20
-8.761042999789112
 30
0.0
 10
59.78380736586256
 20
-7.964070941185412
 30
0.0
 10
58.13294964513564
 20
-6.928461546269546
 30
0.0
 10
56.4803396087505
 20
-5.68587952025473
 30
0.0
 10
54.82920778424521
 20
-4.272183149787139
 30
0.0
 10
53.17919061904452
 20
-2.730606832014985
 30
0.0
 10
51.52886219484181
 20
-1.106946388340958
 30
0.0
 10
49.87677578285461
 20
0.5493018847341773
 30
0.0
 10
48.22481262506246
 20
2.189179479270734
 30
0.0
 10
46.57453759488014
 20
3.763908713649201
 30
0.0
 10
44.924500950693
 20
5.225591607561057
 30
0.0
 10
43.27327063767781
 20
6.530944130031642
 30
0.0
 10
41.62068716281185
 20
7.639252939465891
 30
0.0
 10
39.96991210690065
 20
8.521905917802655
 30
0.0
 10
38.3199399926411
 20
9.139092226388868
 30
0.0
 10
36.81748978307287
 20
9.485009669391587
 30
0.0
 10
35.86422544655707
 20
9.49334517825858
 30
0.0
 10
35.46143891996165
 20
9.496867213580103
 30
0.0
  0
SPLINE
  5
287
330
1F
100
AcDbEntity
  8
0
  6
Continuous
 62
     1
370
    15
100
AcDbSpline
210
0.0
220
0.0
230
1.0
 70
     8
 71
     3
 72
     9
 73
     5
 74
     0
 42
0.000000001
 43
0.00000001
 40
0.0
 40
0.0
 40
0.0
 40
0.0
 40
0.7597894211535607
 40
1.0
 40
1.0
 40
1.0
 40
1.0
 10
9.999999999999986
 20
-9.25918719122231
 30
0.0
 10
10.57105722982762
 20
-9.381530394655925
 30
0.0
 10
11.32265657292008
 20
-9.54255290961521
 30
0.0
 10
12.07470169659609
 20
-9.501543691970824
 30
0.0
 10
12.25535089107295
 20
-9.491692844062442
 30
0.0
  0
SPLINE
  5
288
330
1F
100
AcDbEntity
  8
0
  6
Continuous
 62
     1
370
    15
100
AcDbSpline
210
0.0
220
0.0
230
1.0
 70
     8
 71
     3
 72
    28
 73
    24
 74
     0
 42
0.000000001
 43
0.00000001
 40
0.0
 40
0.0
 40
0.0
 40
0.0
 40
0.0345043058619906
 40
0.0841050223085617
 40
0.1337540229395428
 40
0.1833667434746181
 40
0.2329478145006794
 40
0.2825354325397545
 40
0.3321677211236899
 40
0.3818033311980877
 40
0.4313923435223125
 40
0.4809728090823716
 40
0.530582931152846
 40
0.5802326432149301
 40
0.6298355403404154
 40
0.6794148117971831
 40
0.72900867417845
 40
0.7786523505862595
 40
0.8282750518819731
 40
0.8778590896901151
 40
0.9274426274511872
 40
0.977063834180843
 40
1.0
 40
1.0
 40
1.0
 40
1.0
 10
38.82167497242095
 20
8.910472229675761
 30
0.0
 10
39.20434667584838
 20
9.041511368748502
 30
0.0
 10
40.1371175677583
 20
9.360922220225675
 30
0.0
 10
41.62068733650857
 20
9.550199877915617
 30
0.0
 10
43.27327059115358
 20
9.511579303597614
 30
0.0
 10
44.92450096314683
 20
9.177945443502082
 30
0.0
 10
46.57453759154191
 20
8.571875689585
 30
0.0
 10
48.22481262596439
 20
7.708070961225388
 30
0.0
 10
49.87677578258852
 20
6.613693797874646
 30
0.0
 10
51.5288621950037
 20
5.32118409011278
 30
0.0
 10
53.1791906186633
 20
3.86870247446042
 30
0.0
 10
54.82920778560863
 20
2.300475812220512
 30
0.0
 10
56.48033960367296
 20
0.6630700182508917
 30
0.0
 10
58.13294966408979
 20
-0.9932483833065646
 30
0.0
 10
59.78380729521622
 20
-2.620836799638425
 30
0.0
 10
61.43378633404923
 20
-4.169545248972781
 30
0.0
 10
63.08430009161872
 20
-5.59350230902507
 30
0.0
 10
64.73668607330482
 20
-6.849411850033562
 30
0.0
 10
66.38829093638616
 20
-7.899346859878875
 30
0.0
 10
68.03843522900983
 20
-8.7168336134946
 30
0.0
 10
69.68854501324499
 20
-9.25708629316324
 30
0.0
 10
71.04379134906348
 20
-9.521562491250336
 30
0.0
 10
71.84905662047827
 20
-9.497147041274587
 30
0.0
 10
72.10360963342195
 20
-9.489429054948431
 30
0.0
  0
SPLINE
  5
289
330
1F
100
AcDbEntity
  8
0
  6
Continuous
 62
     1
370
    15
100
AcDbSpline
210
0.0
220
0.0
230
1.0
 70
     8
 71
     3
 72
    42
 73
    38
 74
     0
 42
0.000000001
 43
0.00000001
 40
0.0
 40
0.0
 40
0.0
 40
0.0
 40
0.1249999999999977
 40
0.1249999999999977
 40
0.1874999999999977
 40
0.1874999999999977
 40
0.2499999999999977
 40
0.2499999999999977
 40
0.3124999999999976
 40
0.3124999999999976
 40
0.3749999999999976
 40
0.3749999999999976
 40
0.4374999999999976
 40
0.4374999999999976
 40
0.4999999999999976
 40
0.4999999999999976
 40
0.5624999999999976
 40
0.5624999999999976
 40
0.6249999999999974
 40
0.6249999999999974
 40
0.6562499999999977
 40
0.6562499999999977
 40
0.6874999999999979
 40
0.6874999999999979
 40
0.7187499999999981
 40
0.7187499999999981
 40
0.7499999999999983
 40
0.7499999999999983
 40
0.7812499999999986
 40
0.7812499999999986
 40
0.8124999999999988
 40
0.8124999999999988
 40
0.8749999999999991
 40
0.8749999999999991
 40
0.9374999999999996
 40
0.9374999999999996
 40
1.0
 40
1.0
 40
1.0
 40
1.0
 10
83.152
 20
3.804460097532029
 30
0.0
 10
83.50598697144208
 20
3.480571929787388
 30
0.0
 10
83.83622741584394
 20
3.121327857813782
 30
0.0
 10
84.3083840480325
 20
2.541927159894968
 30
0.0
 10
84.45957379422138
 20
2.344553681615707
 30
0.0
 10
84.74483033241329
 20
1.946612585263949
 30
0.0
 10
84.879630500076
 20
1.745141356810507
 30
0.0
 10
85.13144925148968
 20
1.335186051781079
 30
0.0
 10
85.24786766805583
 20
1.127317379856976
 30
0.0
 10
85.4544996027805
 20
0.7120640843978094
 30
0.0
 10
85.54552557332072
 20
0.5033283708057752
 30
0.0
 10
85.70169479968881
 20
0.0788106146349321
 30
0.0
 10
85.76698530898476
 20
-0.1381275094009311
 30
0.0
 10
85.86985717559905
 20
-0.5768044113927999
 30
0.0
 10
85.90782217144941
 20
-0.7989489371225034
 30
0.0
 10
85.96006742986712
 20
-1.25350814429359
 30
0.0
 10
85.97461894700625
 20
-1.485848087430242
 30
0.0
 10
85.97973995266675
 20
-1.965920554454243
 30
0.0
 10
85.97037484896042
 20
-2.215768951071084
 30
0.0
 10
85.9286679261006
 20
-2.585494200421891
 30
0.0
 10
85.91008562407005
 20
-2.708560134847119
 30
0.0
 10
85.85839623083562
 20
-2.953985373123572
 30
0.0
 10
85.82528947796139
 20
-3.075562924309793
 30
0.0
 10
85.73939408913809
 20
-3.30418158430254
 30
0.0
 10
85.6858446248251
 20
-3.412173154543638
 30
0.0
 10
85.55713276240805
 20
-3.595747630043263
 30
0.0
 10
85.47983680646625
 20
-3.673222389748844
 30
0.0
 10
85.31168772741567
 20
-3.783323453338937
 30
0.0
 10
85.21882006526643
 20
-3.817832169320411
 30
0.0
 10
85.03046980257808
 20
-3.849356050431453
 30
0.0
 10
84.93232007726193
 20
-3.847300151999093
 30
0.0
 10
84.64152058859638
 20
-3.80266275538213
 30
0.0
 10
84.44579797520485
 20
-3.722656941026884
 30
0.0
 10
84.06629400483358
 20
-3.514236762982648
 30
0.0
 10
83.87988293657229
 20
-3.384319339934848
 30
0.0
 10
83.5103562970201
 20
-3.093399571501038
 30
0.0
 10
83.33009446031913
 20
-2.934044607999709
 30
0.0
 10
83.152
 20
-2.763947108009006
 30
0.0
  0
SPLINE
  5
28A
330
1F
100
AcDbEntity
  8
0
  6
Continuous
 62
     1
370
    15
100
AcDbSpline
210
0.0
220
0.0
230
1.0
 70
     8
 71
     3
 72
    18
 73
    14
 74
     0
 42
0.000000001
 43
0.00000001
 40
0.0
 40
0.0
 40
0.0
 40
0.0
 40
0.0964678875563276
 40
0.1930002824241141
 40
0.2895591497446541
 40
0.386041933741833
 40
0.478921519800346
 40
0.5718303118064717
 40
0.6648326646998992
 40
0.7577910078285581
 40
0.8506787834491361
 40
0.9435674958374821
 40
1.0
 40
1.0
 40
1.0
 40
1.0
 10
83.15199999999997
 20
-2.763947108009006
 30
0.0
 10
82.58082379727641
 20
-2.208459388981083
 30
0.0
 10
81.43808945083161
 20
-1.097112500692333
 30
0.0
 10
79.72288329577374
 20
0.628906363317185
 30
0.0
 10
78.00717634083075
 20
2.32784998631368
 30
0.0
 10
76.3140977210928
 20
3.93381546014102
 30
0.0
 10
74.64308562758391
 20
5.39665273873581
 30
0.0
 10
72.99252659473204
 20
6.679935671545309
 30
0.0
 10
71.34010420889415
 20
7.761442806670942
 30
0.0
 10
69.6885602487943
 20
8.614096114340313
 30
0.0
 10
68.03841290365885
 20
9.196187218870875
 30
0.0
 10
66.60460423825474
 20
9.50259114460269
 30
0.0
 10
65.72013204372901
 20
9.494092257542633
 30
0.0
 10
65.38586621096839
 20
9.490880299520384
 30
0.0
  0
SPLINE
  5
28B
330
1F
100
AcDbEntity
  8
0
  6
Continuous
 62
     1
370
    15
100
AcDbSpline
210
0.0
220
0.0
230
1.0
 70
     8
 71
     3
 72
    25
 73
    21
 74
     0
 42
0.000000001
 43
0.00000001
 40
0.0
 40
0.0
 40
0.0
 40
0.0
 40
0.0174080689119369
 40
0.0746802070656145
 40
0.132010034896337
 40
0.1893099590504981
 40
0.2465675325836779
 40
0.3038268384468131
 40
0.3611319402767094
 40
0.418458224945701
 40
0.4757272662060963
 40
0.5329806121593864
 40
0.5902623929030362
 40
0.6475971881504001
 40
0.7048845525846207
 40
0.762138821382779
 40
0.8215759544850244
 40
0.88105056741689
 40
0.9405488092643816
 40
1.0
 40
1.0
 40
1.0
 40
1.0
 10
38.82167497242102
 20
-8.910472229675719
 30
0.0
 10
38.65448529196331
 20
-8.976283618106834
 30
0.0
 10
37.93724548673403
 20
-9.258612929886056
 30
0.0
 10
36.66935725678364
 20
-9.484004876405578
 30
0.0
 10
35.01689753118812
 20
-9.56566225805895
 30
0.0
 10
33.36540316079252
 20
-9.34123225553472
 30
0.0
 10
31.71529750103016
 20
-8.84198109147951
 30
0.0
 10
30.06513734197132
 20
-8.076290194503343
 30
0.0
 10
28.41347467817332
 20
-7.068972380510388
 30
0.0
 10
26.76113021548885
 20
-5.850091333225038
 30
0.0
 10
25.11064941225378
 20
-4.45523688239868
 30
0.0
 10
23.46066656049884
 20
-2.927128807745618
 30
0.0
 10
21.80976465378701
 20
-1.310948482855878
 30
0.0
 10
20.15715144747107
 20
0.3434587489634566
 30
0.0
 10
18.50604814931148
 20
1.988650109678133
 30
0.0
 10
16.83525417204226
 20
3.59367215434122
 30
0.0
 10
15.14306406820189
 20
5.108261468777499
 30
0.0
 10
13.42877673390508
 20
6.471353130071762
 30
0.0
 10
11.71368378894037
 20
7.644924549848355
 30
0.0
 10
10.5710772748524
 20
8.214168733969899
 30
0.0
 10
9.999999999999986
 20
8.498678242173796
 30
0.0
  0
LINE
  5
28C
330
1F
100
AcDbEntity
  8
0
  6
Continuous
 62
     1
370
    15
100
AcDbLine
 10
9.999999999999986
 20
9.259187191222338
 30
0.0
 11
9.999999999999986
 21
8.59583793207257
 31
0.0
  0
SPLINE
  5
28D
330
1F
100
AcDbEntity
  8
0
  6
Continuous
 62
     1
370
    15
100
AcDbSpline
210
0.0
220
0.0
230
1.0
 70
     8
 71
     3
 72
    27
 73
    23
 74
     0
 42
0.000000001
 43
0.00000001
 40
0.0
 40
0.0
 40
0.0
 40
0.0
 40
0.0532476381556068
 40
0.1065374177813643
 40
0.1598060340976291
 40
0.2130410814915378
 40
0.2643210398928018
 40
0.3156306405002487
 40
0.3669827226584338
 40
0.418287322216593
 40
0.46956645406907
 40
0.5208596434706586
 40
0.5722041031036752
 40
0.6235295902630158
 40
0.6748140601267074
 40
0.7260969784238537
 40
0.7774178281823177
 40
0.8287654612588176
 40
0.8800614244022079
 40
0.9313402295636035
 40
0.9826414056418323
 40
1.0
 40
1.0
 40
1.0
 40
1.0
 10
9.999999999999986
 20
9.259187191222338
 30
0.0
 10
10.57107727485241
 20
9.364268197883291
 30
0.0
 10
11.71368378894037
 20
9.574513374858256
 30
0.0
 10
13.4287767339051
 20
9.50051952911538
 30
0.0
 10
15.14306406820189
 20
9.14130963299732
 30
0.0
 10
16.83525417204224
 20
8.48922787264344
 30
0.0
 10
18.5060481493115
 20
7.584511051729223
 30
0.0
 10
20.15715144747099
 20
6.463177476820846
 30
0.0
 10
21.80976465378718
 20
5.149016191188707
 30
0.0
 10
23.46066656049813
 20
3.679661387563129
 30
0.0
 10
25.11064941225631
 20
2.100311166456635
 30
0.0
 10
26.76113021547935
 20
0.4576624896402848
 30
0.0
 10
28.41347467820877
 20
-1.197853919608519
 30
0.0
 10
30.06513734183906
 20
-2.817955283627441
 30
0.0
 10
31.71529750152327
 20
-4.35378412519006
 30
0.0
 10
33.36540315895157
 20
-5.758973525300064
 30
0.0
 10
35.01689753806578
 20
-6.991874611188308
 30
0.0
 10
36.66935723111247
 20
-8.013419803349848
 30
0.0
 10
38.31993539349855
 20
-8.80061774442413
 30
0.0
 10
39.96992650876891
 20
-9.304152513574081
 30
0.0
 10
41.25610923598536
 20
-9.536533293185329
 30
0.0
 10
41.99291766733968
 20
-9.501768854873887
 30
0.0
 10
42.17919790973296
 20
-9.49297969378435
 30
0.0
  0
SPLINE
  5
28E
330
1F
100
AcDbEntity
  8
0
  6
Continuous
 62
     1
370
    15
100
AcDbSpline
210
0.0
220
0.0
230
1.0
 70
     8
 71
     3
 72
    16
 73
    12
 74
     0
 42
0.000000001
 43
0.00000001
 40
0.0
 40
0.0
 40
0.0
 40
0.0
 40
0.0655254889551041
 40
0.18015762544827
 40
0.2948440328459315
 40
0.4094150650761517
 40
0.5239500818174918
 40
0.6429284036352299
 40
0.762000548057963
 40
0.881040047817342
 40
0.9999999999999999
 40
0.9999999999999999
 40
0.9999999999999999
 40
0.9999999999999999
 10
68.74448112570421
 20
8.90600890954832
 30
0.0
 10
69.05905729315928
 20
9.019082834126607
 30
0.0
 10
69.92396187082922
 20
9.329971468106848
 30
0.0
 10
71.34011563828328
 20
9.534380391926305
 30
0.0
 10
72.99252353530149
 20
9.533345720853887
 30
0.0
 10
74.64308644567843
 20
9.234157849324276
 30
0.0
 10
76.3140974924397
 20
8.654101831016646
 30
0.0
 10
78.00717640311454
 20
7.794902156738885
 30
0.0
 10
79.72288327916395
 20
6.671314308662986
 30
0.0
 10
81.43808945498039
 20
5.340739993438248
 30
0.0
 10
82.58082379865901
 20
4.316439277361496
 30
0.0
 10
83.152
 20
3.804460097532029
 30
0.0
  0
SPLINE
  5
28F
330
1F
100
AcDbEntity
  8
0
  6
Continuous
 62
     1
370
    15
100
AcDbSpline
210
0.0
220
0.0
230
1.0
 70
     8
 71
     3
 72
    42
 73
    38
 74
     0
 42
0.000000001
 43
0.00000001
 40
0.0
 40
0.0
 40
0.0
 40
0.0
 40
0.1250000000000019
 40
0.1250000000000019
 40
0.1875000000000017
 40
0.1875000000000017
 40
0.2500000000000016
 40
0.2500000000000016
 40
0.3125000000000014
 40
0.3125000000000014
 40
0.3750000000000011
 40
0.3750000000000011
 40
0.4375000000000007
 40
0.4375000000000007
 40
0.5000000000000003
 40
0.5000000000000003
 40
0.5625
 40
0.5625
 40
0.6249999999999997
 40
0.6249999999999997
 40
0.6562499999999997
 40
0.6562499999999997
 40
0.6874999999999997
 40
0.6874999999999997
 40
0.7187499999999998
 40
0.7187499999999998
 40
0.7499999999999998
 40
0.7499999999999998
 40
0.7812499999999998
 40
0.7812499999999998
 40
0.8124999999999998
 40
0.8124999999999998
 40
0.8749999999999999
 40
0.8749999999999999
 40
0.9374999999999999
 40
0.9374999999999999
 40
1.0
 40
1.0
 40
1.0
 40
1.0
 10
83.152
 20
9.464556494689589
 30
0.0
 10
83.50598697144208
 20
9.424818813079057
 30
0.0
 10
83.83622741584394
 20
9.306468998278277
 30
0.0
 10
84.30838404803252
 20
9.021809313100647
 30
0.0
 10
84.45957379422138
 20
8.909712205410372
 30
0.0
 10
84.74483033241334
 20
8.656336104004481
 30
0.0
 10
84.87963050007603
 20
8.514569007866143
 30
0.0
 10
85.13144925148971
 20
8.202376188487378
 30
0.0
 10
85.24786766805583
 20
8.032222063944374
 30
0.0
 10
85.4544996027805
 20
7.67577930502938
 30
0.0
 10
85.54552557332072
 20
7.488446565693977
 30
0.0
 10
85.70169479968881
 20
7.101623010567693
 30
0.0
 10
85.76698530898476
 20
6.901103558590179
 30
0.0
 10
85.86985717559905
 20
6.50363978205101
 30
0.0
 10
85.90782217144938
 20
6.306404148698888
 30
0.0
 10
85.9600674298671
 20
5.924372150723556
 30
0.0
 10
85.97461894700628
 20
5.739512142016039
 30
0.0
 10
85.97973995266675
 20
5.391565678007325
 30
0.0
 10
85.97037484896042
 20
5.227269390588788
 30
0.0
 10
85.92866792610054
 20
5.021157558607001
 30
0.0
 10
85.91008562407002
 20
4.958675983005975
 30
0.0
 10
85.85839623083557
 20
4.850612333382699
 30
0.0
 10
85.82528947796139
 20
4.805583926507268
 30
0.0
 10
85.73939408913809
 20
4.743896522415611
 30
0.0
 10
85.6858446248251
 20
4.727346712111739
 30
0.0
 10
85.5571327624081
 20
4.731250562714024
 30
0.0
 10
85.47983680646622
 20
4.752316541734103
 30
0.0
 10
85.31168772741567
 20
4.827042841696823
 30
0.0
 10
85.21882006526637
 20
4.881174753663487
 30
0.0
 10
85.03046980257803
 20
5.006045529980469
 30
0.0
 10
84.93232007726196
 20
5.078317613847162
 30
0.0
 10
84.64152058859644
 20
5.303100859326548
 30
0.0
 10
84.44579797520491
 20
5.467687734158019
 30
0.0
 10
84.06629400483364
 20
5.786556385169931
 30
0.0
 10
83.87988293657229
 20
5.943612341828953
 30
0.0
 10
83.5103562970201
 20
6.242366844913789
 30
0.0
 10
83.33009446031916
 20
6.382273874865291
 30
0.0
 10
83.152
 20
6.511990344956317
 30
0.0
  0
SPLINE
  5
290
330
1F
100
AcDbEntity
  8
0
  6
Continuous
 62
     1
370
    15
100
AcDbSpline
210
0.0
220
0.0
230
1.0
 70
     8
 71
     3
 72
    12
 73
     8
 74
     0
 42
0.000000001
 43
0.00000001
 40
0.0
 40
0.0
 40
0.0
 40
0.0
 40
0.2199617458071959
 40
0.4400705782896085
 40
0.6602397720701791
 40
0.8802354840729554
 40
1.0
 40
1.0
 40
1.0
 40
1.0
 10
83.152
 20
6.511990344956331
 30
0.0
 10
82.5808238813991
 20
6.908464244019626
 30
0.0
 10
81.43808970325595
 20
7.701677161098672
 30
0.0
 10
79.72288228517336
 20
8.589433975963729
 30
0.0
 10
78.00718013039709
 20
9.20072254722686
 30
0.0
 10
76.55304706391696
 20
9.508157448032676
 30
0.0
 10
75.67091370513556
 20
9.494646432577994
 30
0.0
 10
75.35996420012354
 20
9.489883837981594
 30
0.0
  0
SPLINE
  5
291
330
1F
100
AcDbEntity
  8
0
  6
Continuous
 62
     1
370
    15
100
AcDbSpline
210
0.0
220
0.0
230
1.0
 70
     8
 71
     3
 72
    28
 73
    24
 74
     0
 42
0.000000001
 43
0.00000001
 40
0.0
 40
0.0
 40
0.0
 40
0.0
 40
0.0171492186056011
 40
0.0667352796919359
 40
0.116314793970821
 40
0.1659259567649881
 40
0.2155733985159378
 40
0.2651725575985049
 40
0.3147500879632208
 40
0.3643442070602725
 40
0.4139882818392014
 40
0.4636064618891289
 40
0.5131879689282609
 40
0.5627709760576792
 40
0.6123936396536263
 40
0.6620346462742758
 40
0.7116260836538427
 40
0.7612039298710236
 40
0.8108063988528691
 40
0.8604547751064847
 40
0.9100620792180127
 40
0.9596407245616062
 40
0.9999999999999999
 40
0.9999999999999999
 40
0.9999999999999999
 40
0.9999999999999999
 10
48.79541312409583
 20
-8.90848739250805
 30
0.0
 10
48.60509656249639
 20
-8.98237110444947
 30
0.0
 10
47.86448970101536
 20
-9.269885672575498
 30
0.0
 10
46.57456569686282
 20
-9.493204261907522
 30
0.0
 10
44.92449341221106
 20
-9.561988982213677
 30
0.0
 10
43.27327267411076
 20
-9.325979527958907
 30
0.0
 10
41.62068656437521
 20
-8.815608261505616
 30
0.0
 10
39.96991246533686
 20
-8.039360761362843
 30
0.0
 10
38.31993915701035
 20
-7.022656875103195
 30
0.0
 10
36.66935622139395
 20
-5.795085265856187
 30
0.0
 10
35.01689780856735
 20
-4.394627912517137
 30
0.0
 10
33.36540308660734
 20
-2.861902297542684
 30
0.0
 10
31.71529752067583
 20
-1.243352072593098
 30
0.0
 10
30.06513733754669
 20
0.4125104051651647
 30
0.0
 10
28.41347467620612
 20
2.055823727244416
 30
0.0
 10
26.76113022778544
 20
3.637083332171471
 30
0.0
 10
25.11064936509457
 20
5.110080430493966
 30
0.0
 10
23.46066673684345
 20
6.429776054303346
 30
0.0
 10
21.80976399493559
 20
7.556315643274232
 30
0.0
 10
20.15715390799774
 20
8.458216904181995
 30
0.0
 10
18.5060389774834
 20
9.098106857896937
 30
0.0
 10
16.95849346223794
 20
9.474017016311507
 30
0.0
 10
15.96077126677844
 20
9.491227068447074
 30
0.0
 10
15.51304749745584
 20
9.498950009208983
 30
0.0
  0
SPLINE
  5
292
330
1F
100
AcDbEntity
  8
0
  6
Continuous
 62
     1
370
    15
100
AcDbSpline
210
0.0
220
0.0
230
1.0
 70
     8
 71
     3
 72
    28
 73
    24
 74
     0
 42
0.000000001
 43
0.00000001
 40
0.0
 40
0.0
 40
0.0
 40
0.0
 40
0.0386100043013151
 40
0.0882594158242589
 40
0.1378629191181731
 40
0.187441799133988
 40
0.2370342705955926
 40
0.286676312331898
 40
0.3363000106610123
 40
0.3858840516966802
 40
0.4354665926107817
 40
0.4850858073003854
 40
0.5347309172589484
 40
0.5843260704939569
 40
0.6339046346507208
 40
0.6835048279763383
 40
0.73315330497713
 40
0.782765502264649
 40
0.8323460503769503
 40
0.8819331454332161
 40
0.9315649105632181
 40
0.9811999971486519
 40
1.0
 40
1.0
 40
1.0
 40
1.0
 10
18.87186553904945
 20
8.915701955307085
 30
0.0
 10
19.3001588102657
 20
9.057308689795022
 30
0.0
 10
20.27920335074302
 20
9.381010483898706
 30
0.0
 10
21.80977892990617
 20
9.558123293600318
 30
0.0
 10
23.46066273885103
 20
9.494628630150473
 30
0.0
 10
25.11065043642191
 20
9.138076537417945
 30
0.0
 10
26.76112994036349
 20
8.509759534985449
 30
0.0
 10
28.41347475323772
 20
7.626188043417898
 30
0.0
 10
30.06513731687448
 20
6.514002945793081
 30
0.0
 10
31.71529752641116
 20
5.206376060049848
 30
0.0
 10
33.36540308432855
 20
3.742742448520801
 30
0.0
 10
35.01689781194624
 20
2.166941315218125
 30
0.0
 10
36.66935621015801
 20
0.526869636485003
 30
0.0
 10
38.31993919852194
 20
-1.129944365316902
 30
0.0
 10
39.96991231053634
 20
-2.75250845322438
 30
0.0
 10
41.6206871425983
 20
-4.292934877730403
 30
0.0
 10
43.27327051451785
 20
-5.703696017575169
 30
0.0
 10
44.92450146292366
 20
-6.944636418169381
 30
0.0
 10
46.57453567019722
 20
-7.975959304271242
 30
0.0
 10
48.22481981584669
 20
-8.773231912308063
 30
0.0
 10
49.87674891785856
 20
-9.288963997948201
 30
0.0
 10
51.18722692999263
 20
-9.531699818275285
 30
0.0
 10
51.94625348773832
 20
-9.500049426350444
 30
0.0
 10
52.15476788535666
 20
-9.491354654949845
 30
0.0
  0
SPLINE
  5
293
330
1F
100
AcDbEntity
  8
0
  6
Continuous
 62
     1
370
    15
100
AcDbSpline
210
0.0
220
0.0
230
1.0
 70
     8
 71
     3
 72
    10
 73
     6
 74
     0
 42
0.000000001
 43
0.00000001
 40
0.0
 40
0.0
 40
0.0
 40
0.0
 40
0.2264090896518705
 40
0.6133338251284516
 40
1.0
 40
1.0
 40
1.0
 40
1.0
 10
78.7190824936393
 20
8.9036952030865
 30
0.0
 10
79.05371568484857
 20
9.022882521458826
 30
0.0
 10
79.96022458647836
 20
9.345756545626813
 30
0.0
 10
81.43809880704781
 20
9.56124217999988
 30
0.0
 10
82.58082691532012
 20
9.496777874399328
 30
0.0
 10
83.152
 20
9.464556494689603
 30
0.0
  0
SPLINE
  5
294
330
1F
100
AcDbEntity
  8
0
  6
Continuous
 62
     1
370
    15
100
AcDbSpline
210
0.0
220
0.0
230
1.0
 70
     8
 71
     3
 72
    28
 73
    24
 74
     0
 42
0.000000001
 43
0.00000001
 40
0.0
 40
0.0
 40
0.0
 40
0.0
 40
0.0213903504183046
 40
0.0728914825514005
 40
0.1224692790856153
 40
0.1720626653375471
 40
0.2217059930548865
 40
0.2713258289883387
 40
0.3209079969938207
 40
0.3704906650325584
 40
0.4201119954907813
 40
0.4697543004816578
 40
0.5193467928221145
 40
0.5689246946411494
 40
0.6185262214762378
 40
0.668174561954653
 40
0.7177833135351405
 40
0.7673624094244795
 40
0.816950051841878
 40
0.8665842907221768
 40
0.9162152082037703
 40
0.9658014563745362
 40
1.0
 40
1.0
 40
1.0
 40
1.0
 10
78.71908249363928
 20
-8.903695203086443
 30
0.0
 10
78.481673292232
 20
-8.994117738810246
 30
0.0
 10
77.67265855785381
 20
-9.30224886130577
 30
0.0
 10
76.31411033409272
 20
-9.51617104905165
 30
0.0
 10
74.6430823951316
 20
-9.548430454442837
 30
0.0
 10
72.9925271107026
 20
-9.277547845836239
 30
0.0
 10
71.34010538292942
 20
-8.73327129504574
 30
0.0
 10
69.68855504168015
 20
-7.925904910501373
 30
0.0
 10
68.03843254280217
 20
-6.881214540551042
 30
0.0
 10
66.38829165677627
 20
-5.630173514183383
 30
0.0
 10
64.73668588010314
 20
-4.210486272224273
 30
0.0
 10
63.08430014338624
 20
-2.665138052405922
 30
0.0
 10
61.43378632001212
 20
-1.039065753469657
 30
0.0
 10
59.78380729963847
 20
0.6178013665279707
 30
0.0
 10
58.13294966043945
 20
2.256490173544591
 30
0.0
 10
56.4803396138534
 20
3.826562951662581
 30
0.0
 10
54.82920774858216
 20
5.282805420099649
 30
0.0
 10
53.1791907565222
 20
6.580696919788437
 30
0.0
 10
51.52886168025908
 20
7.680744470199741
 30
0.0
 10
49.876777705571
 20
8.553075442774343
 30
0.0
 10
48.22480545279183
 20
9.158552523204406
 30
0.0
 10
46.74515004194429
 20
9.49101110886258
 30
0.0
 10
45.81586330075632
 20
9.493434257730016
 30
0.0
 10
45.43655516526111
 20
9.494423317444529
 30
0.0
  0
SPLINE
  5
295
330
1F
100
AcDbEntity
  8
0
  6
Continuous
 62
     1
370
    15
100
AcDbSpline
210
0.0
220
0.0
230
1.0
 70
     8
 71
     3
 72
    13
 73
     9
 74
     0
 42
0.000000001
 43
0.00000001
 40
0.0
 40
0.0
 40
0.0
 40
0.0
 40
0.0412609795864989
 40
0.227262431095665
 40
0.4203553351293426
 40
0.6135699995637385
 40
0.8068614270534703
 40
1.0
 40
1.0
 40
1.0
 40
1.0
 10
18.87186553904945
 20
-8.915701955307043
 30
0.0
 10
18.74984426418094
 20
-8.964862164005154
 30
0.0
 10
18.07776008561996
 20
-9.235632966198096
 30
0.0
 10
16.83529731390215
 20
-9.467861023308387
 30
0.0
 10
15.14305232206431
 20
-9.574051678849884
 30
0.0
 10
13.42877986851474
 20
-9.343947915950565
 30
0.0
 10
11.71368300588132
 20
-8.837140008595924
 30
0.0
 10
10.57107701390156
 20
-8.26167962873032
 30
0.0
 10
9.999999999999986
 20
-7.974063252079873
 30
0.0
  0
SPLINE
  5
296
330
1F
100
AcDbEntity
  8
0
  6
Continuous
 62
     1
370
    15
100
AcDbSpline
210
0.0
220
0.0
230
1.0
 70
    24
 71
     3
 72
    18
 73
    14
 74
     0
 42
0.000000001
 43
0.00000001
 40
0.0
 40
0.0
 40
0.0
 40
0.0
 40
0.2500000000000002
 40
0.2500000000000002
 40
0.5000000000000004
 40
0.5000000000000004
 40
0.6250000000000003
 40
0.6250000000000003
 40
0.7500000000000002
 40
0.7500000000000002
 40
0.8750000000000001
 40
0.8750000000000001
 40
1.0
 40
1.0
 40
1.0
 40
1.0
 10
9.999999999999986
 20
-2.694442911961829
 30
0.0
 10
9.999999999999986
 20
-2.760321979023928
 30
0.0
 10
9.999999999999986
 20
-2.881131468631963
 30
0.0
 10
9.999999999999986
 20
-3.311940293615066
 30
0.0
 10
9.999999999999986
 20
-3.624446644194961
 30
0.0
 10
9.999999999999986
 20
-4.286404921274197
 30
0.0
 10
9.999999999999986
 20
-4.538899712334882
 30
0.0
 10
9.999999999999986
 20
-5.105608060590299
 30
0.0
 10
9.999999999999986
 20
-5.419908178990255
 30
0.0
 10
9.999999999999986
 20
-6.096992022057094
 30
0.0
 10
9.999999999999986
 20
-6.459712098119752
 30
0.0
 10
9.999999999999986
 20
-7.208156890224728
 30
0.0
 10
9.999999999999986
 20
-7.593639236696077
 30
0.0
 10
9.999999999999986
 20
-7.974063252079873
 30
0.0
  0
SPLINE
  5
297
330
1F
100
AcDbEntity
  8
0
  6
Continuous
 62
     1
370
    15
100
AcDbSpline
210
0.0
220
0.0
230
1.0
 70
     8
 71
     3
 72
    15
 73
    11
 74
     0
 42
0.000000001
 43
0.00000001
 40
0.0
 40
0.0
 40
0.0
 40
0.0
 40
0.1401010149708517
 40
0.2803129092772942
 40
0.4204691203413853
 40
0.5605370074862103
 40
0.6954608176031037
 40
0.8304626199712225
 40
0.9655761964683383
 40
1.0
 40
1.0
 40
1.0
 40
1.0
 10
9.999999999999986
 20
-2.694442911961801
 30
0.0
 10
10.57107729598435
 20
-3.233961786870253
 30
0.0
 10
11.71368385235291
 20
-4.313426524988415
 30
0.0
 10
13.42877648006274
 20
-5.768870954535856
 30
0.0
 10
15.14306501941037
 20
-7.045231358738988
 30
0.0
 10
16.83525067839142
 20
-8.07792501902486
 30
0.0
 10
18.50606065949761
 20
-8.854324507626899
 30
0.0
 10
20.15710465391054
 20
-9.33293069897121
 30
0.0
 10
21.39963228185705
 20
-9.545982752148632
 30
0.0
 10
22.09071018635508
 20
-9.505970298167
 30
0.0
 10
22.23103045086236
 20
-9.497845949103379
 30
0.0
  0
SPLINE
  5
298
330
1F
100
AcDbEntity
  8
0
  6
Continuous
 62
     1
370
    15
100
AcDbSpline
210
0.0
220
0.0
230
1.0
 70
     8
 71
     3
 72
    28
 73
    24
 74
     0
 42
0.000000001
 43
0.00000001
 40
0.0
 40
0.0
 40
0.0
 40
0.0
 40
0.0324823193861055
 40
0.0821176053201345
 40
0.1317062938082924
 40
0.1812864355880983
 40
0.2308962336846507
 40
0.2805456215142744
 40
0.3301481947130196
 40
0.3797271423973321
 40
0.4293206809108593
 40
0.4789640331256236
 40
0.528586410365268
 40
0.5781701243698286
 40
0.6277533383305849
 40
0.6773742210139314
 40
0.7270185959767335
 40
0.7766130284205934
 40
0.8261918708178646
 40
0.8776940893875359
 40
0.9292369210053272
 40
0.9807656217078264
 40
1.0
 40
1.0
 40
1.0
 40
1.0
 10
48.79541312409584
 20
8.908487392508107
 30
0.0
 10
49.15584941483631
 20
9.033858452590195
 30
0.0
 10
50.06705790072853
 20
9.3508053771005
 30
0.0
 10
51.528879193419
 20
9.545411596934642
 30
0.0
 10
53.17918606674968
 20
9.519276685226373
 30
0.0
 10
54.82920900591813
 20
9.197120215529452
 30
0.0
 10
56.48033927655401
 20
8.602055096688531
 30
0.0
 10
58.13294975076194
 20
7.748900304055326
 30
0.0
 10
59.78380727543528
 20
6.663142302201209
 30
0.0
 10
61.43378632658782
 20
5.377828733068256
 30
0.0
 10
63.08430014128645
 20
3.931023778932143
 30
0.0
 10
64.73668588191951
 20
2.367214952203568
 30
0.0
 10
66.38829165161523
 20
0.7319517782459002
 30
0.0
 10
68.0384325616153
 20
-0.9253846601744158
 30
0.0
 10
69.6885549715606
 20
-2.554962386176669
 30
0.0
 10
71.34010564486219
 20
-4.107897287186319
 30
0.0
 10
72.99252613308975
 20
-5.537106015417891
 30
0.0
 10
74.64308603899603
 20
-6.801493112142907
 30
0.0
 10
76.31409651642956
 20
-7.873895107890633
 30
0.0
 10
78.00718093047617
 20
-8.719024051385816
 30
0.0
 10
79.72286620231885
 20
-9.27270004909397
 30
0.0
 10
81.08015053265378
 20
-9.532940851308979
 30
0.0
 10
81.86508234643865
 20
-9.498339253553382
 30
0.0
 10
82.0784376109974
 20
-9.488934063301627
 30
0.0
  0
LINE
  5
29B
330
1F
100
AcDbEntity
  8
0
  6
Continuous
 62
     1
370
    15
100
AcDbLine
 10
86.19999999999997
 20
0.0000000000000284
 30
0.0
 11
86.19999999999997
 21
6.477000000000018
 31
0.0
  0
LINE
  5
29C
330
1F
100
AcDbEntity
  8
0
  6
Continuous
 62
     1
370
    15
100
AcDbLine
 10
86.19999999999997
 20
-6.476999999999975
 30
0.0
 11
86.19999999999997
 21
0.0000000000000284
 31
0.0
  0
LINE
  5
29D
330
1F
100
AcDbEntity
  8
0
  6
Continuous
 62
     1
370
    15
100
AcDbLine
 10
9.999999999999986
 20
-9.25918719122231
 30
0.0
 11
9.999999999999986
 21
-7.974063252079844
 31
0.0
  0
LINE
  5
29E
330
1F
100
AcDbEntity
  8
0
  6
Continuous
 62
     1
370
    15
100
AcDbLine
 10
9.999999999999986
 20
6.564744279260466
 30
0.0
 11
9.999999999999986
 21
8.498678242173796
 31
0.0
  0
LINE
  5
29F
330
1F
100
AcDbEntity
  8
0
  6
Continuous
 62
     1
370
    15
100
AcDbLine
 10
9.999999999999986
 20
-2.694442911961829
 30
0.0
 11
9.999999999999986
 21
0.5246149900938804
 31
0.0
  0
LINE
  5
2A0
330
1F
100
AcDbEntity
  8
0
  6
Continuous
 62
     8
370
    15
100
AcDbLine
 10
83.152
 20
9.464556494689603
 30
0.0
 11
83.152
 21
9.52500000000002
 31
0.0
  0
LINE
  5
2A1
330
1F
100
AcDbEntity
  8
0
  6
Continuous
 62
     8
370
    15
100
AcDbLine
 10
83.152
 20
-9.524999999999977
 30
0.0
 11
83.15199999999997
 21
-9.275937452965309
 31
0.0
  0
LINE
  5
2A2
330
1F
100
AcDbEntity
  8
중심선
100
AcDbLine
 10
-56.50000000000001
 20
0.0
 30
0.0
 11
89.20000000000003
 21
0.0
 31
0.0
  0
CIRCLE
  5
2A3
330
1F
100
AcDbEntity
  8
외형선
100
AcDbCircle
 10
0.0
 20
0.0
 30
0.0
 40
3.0
  0
POINT
  5
2A4
330
1F
100
AcDbEntity
  8
치수문자_일반주서
100
AcDbPoint
 10
0.0
 20
0.0
 30
0.0
  0
DIMENSION
  5
2A5
330
1F
100
AcDbEntity
  8
치수문자_일반주서
100
AcDbDimension
  2
*D11
 10
86.19999999999997
 20
42.1805514180718
 30
0.0
 11
16.34999999999999
 21
42.1805514180718
 31
0.0
 70
   160
  1
<>
 71
     2
 42
139.7
  3
SLDDIMSTYLE0
100
AcDbAlignedDimension
 13
-53.50000000000001
 23
9.025000000000006
 33
0.0
 14
86.19999999999997
 24
6.477000000000018
 34
0.0
 50
-0.0000000000000058
100
AcDbRotatedDimension
1001
ACAD
1000
DSTYLE
1002
{
1070
   273
1070
     7
1002
}
  0
DIMENSION
  5
2A6
330
1F
100
AcDbEntity
  8
치수문자_일반주서
100
AcDbDimension
  2
*D12
 10
9.999999999999986
 20
24.10399453033796
 30
0.0
 11
47.26180339570445
 21
24.10399453033796
 31
0.0
 70
   160
  1
<>
 71
     2
 42
76.19999999999999
  3
SLDDIMSTYLE0
100
AcDbAlignedDimension
 13
86.19999999999997
 23
6.477000000000018
 33
0.0
 14
9.999999999999986
 24
9.259187191222338
 34
0.0
100
AcDbRotatedDimension
1001
ACAD
1000
DSTYLE
1002
{
1070
   273
1070
     7
1002
}
  0
DIMENSION
  5
2A7
330
1F
100
AcDbEntity
  8
치수문자_일반주서
100
AcDbDimension
  2
*D13
 10
-66.49999999999999
 20
-9.525000000000027
 30
0.0
 11
-66.50000000000003
 21
0.0
 31
0.0
 70
   160
  1
%%c<>
 71
     2
 42
19.05
 52
-270.0
  3
SLDDIMSTYLE1
100
AcDbAlignedDimension
 13
-53.00000000000001
 23
9.52500000000002
 33
0.0
 14
-53.00000000000001
 24
-9.524999999999977
 34
0.0
 50
90.0000000000002
100
AcDbRotatedDimension
1001
ACAD
1000
DSTYLE
1002
{
1070
   273
1070
     7
1002
}
  0
INSERT
  5
2A8
330
1F
100
AcDbEntity
  8
외형선
100
AcDbBlockReference
  2
SW_DOWELSYMBOL_0
 10
0.0
 20
0.0
 30
0.0
  0
DIMENSION
  5
2A9
102
{ACAD_REACTORS
102
}
102
{ACAD_XDICTIONARY
360
2AA
102
}
330
1F
100
AcDbEntity
  8
치수문자_일반주서
100
AcDbDimension
  2
*D14
 10
103.1631913971668
 20
-9.524999999999979
 30
0.0
 11
103.1631913971668
 21
0.2924093762603945
 31
0.0
 70
   160
  1
{%%c<>}
 71
     5
 42
19.05
  3
SLDDIMSTYLE1
100
AcDbAlignedDimension
 13
83.152
 23
9.52500000000002
 33
0.0
 14
83.15200000000003
 24
-9.524999999999977
 34
0.0
 50
90.0
100
AcDbRotatedDimension
1001
ACAD
1000
DSTYLE
1002
{
1070
   273
1070
     7
1002
}
  0
DIMENSION
  5
2DD
102
{ACAD_REACTORS
102
}
102
{ACAD_XDICTIONARY
360
2DE
102
}
330
1F
100
AcDbEntity
  8
치수문자_일반주서
100
AcDbDimension
  2
*D15
 10
83.152
 20
6.477000000000018
 30
0.0
 11
103.2957755732786
 21
24.94077398235785
 31
0.0
 70
   164
  1
<>
 71
     5
 42
3.048
  3
SLDDIMSTYLE1
100
AcDbRadialDimension
 15
85.39892102752987
 25
8.53652661940656
 35
0.0
 40
0.0
1001
ACAD
1000
DSTYLE
1002
{
1070
   171
1070
     3
1070
   273
1070
     2
1002
}
1001
ACAD_DSTYLE_DIMRADIAL_EXTENSION
1070
   387
1070
     1
1070
   388
1040
0.0
1070
   390
1040
1.570796326794897
  0
ENDSEC
  0
SECTION
  2
OBJECTS
  0
DICTIONARY
  5
C
330
0
100
AcDbDictionary
281
     1
  3
ACAD_GROUP
350
D
  3
ACAD_IMAGE_VARS
350
16C
  3
ACAD_LAYOUT
350
1A
  3
ACAD_MLINESTYLE
350
17
  3
ACAD_PLOTSETTINGS
350
19
  3
ACAD_PLOTSTYLENAME
350
E
  3
ACAD_SCALELIST
350
47
  3
APPDATA
350
16A
  3
DWGPROPS
350
2EA
  0
DICTIONARY
  5
2AA
330
2A9
100
AcDbDictionary
280
     1
281
     1
  0
DICTIONARY
  5
2DE
330
2DD
100
AcDbDictionary
280
     1
281
     1
  0
DICTIONARY
  5
D
102
{ACAD_REACTORS
330
C
102
}
330
C
100
AcDbDictionary
281
     1
  0
RASTERVARIABLES
  5
16C
102
{ACAD_REACTORS
330
C
102
}
330
C
100
AcDbRasterVariables
 90
        0
 70
     1
 71
     1
 72
     1
  0
DICTIONARY
  5
1A
102
{ACAD_REACTORS
330
C
102
}
330
C
100
AcDbDictionary
281
     1
  3
Layout1
350
1E
  3
Layout2
350
26
  3
Model
350
22
  0
DICTIONARY
  5
17
102
{ACAD_REACTORS
330
C
102
}
330
C
100
AcDbDictionary
281
     1
  3
Standard
350
18
  0
DICTIONARY
  5
19
102
{ACAD_REACTORS
330
C
102
}
330
C
100
AcDbDictionary
281
     1
  0
ACDBDICTIONARYWDFLT
  5
E
102
{ACAD_REACTORS
330
C
102
}
330
C
100
AcDbDictionary
281
     1
  3
Normal
350
F
100
AcDbDictionaryWithDefault
340
F
  0
DICTIONARY
  5
47
102
{ACAD_REACTORS
330
C
102
}
330
C
100
AcDbDictionary
281
     1
  3
A0
350
48
  3
A1
350
49
  3
A2
350
4A
  3
A3
350
4B
  3
A4
350
4C
  3
A5
350
4D
  3
A6
350
4E
  3
A7
350
4F
  3
A8
350
50
  3
A9
350
51
  3
B0
350
52
  3
B1
350
53
  3
B2
350
54
  3
B3
350
55
  3
B4
350
56
  3
B5
350
57
  3
B6
350
58
  3
B7
350
59
  3
B8
350
5A
  3
B9
350
5B
  3
C0
350
5C
  3
C1
350
5D
  3
C2
350
5E
  3
C3
350
5F
  3
C4
350
60
  3
C5
350
61
  3
C6
350
62
  3
C7
350
63
  3
C8
350
64
  3
C9
350
65
  3
D0
350
66
  3
D1
350
67
  3
D2
350
68
  0
DICTIONARY
  5
16A
102
{ACAD_REACTORS
330
C
102
}
330
C
100
AcDbDictionary
281
     1
  0
XRECORD
  5
2EA
102
{ACAD_REACTORS
330
C
102
}
330
C
100
AcDbXrecord
280
     1
  1
DWGPROPS COOKIE
  2

  3

  4

  6

  7

  8
12016016
  9

300
=
301
=
302
=
303
=
304
=
305
=
306
=
307
=
308
=
309
=
 40
0.0
 41
2458236.376378183
 42
2458241.976168542
  1

 90
        0
  0
LAYOUT
  5
1E
102
{ACAD_REACTORS
330
1A
102
}
330
1A
100
AcDbPlotSettings
  1

  2
none_device
  4

  6

 40
0.0
 41
0.0
 42
0.0
 43
0.0
 44
0.0
 45
0.0
 46
0.0
 47
0.0
 48
0.0
 49
0.0
140
0.0
141
0.0
142
1.0
143
1.0
 70
   688
 72
     1
 73
     0
 74
     5
  7

 75
    16
147
1.0
148
0.0
149
0.0
100
AcDbLayout
  1
Layout1
 70
     1
 71
     1
 10
0.0
 20
0.0
 11
420.0
 21
297.0
 12
0.0
 22
0.0
 32
0.0
 14
1.000000000000000E+20
 24
1.000000000000000E+20
 34
1.000000000000000E+20
 15
-1.000000000000000E+20
 25
-1.000000000000000E+20
 35
-1.000000000000000E+20
146
0.0
 13
0.0
 23
0.0
 33
0.0
 16
1.0
 26
0.0
 36
0.0
 17
0.0
 27
1.0
 37
0.0
 76
     0
330
1B
  0
LAYOUT
  5
26
102
{ACAD_REACTORS
330
1A
102
}
330
1A
100
AcDbPlotSettings
  1

  2
none_device
  4

  6

 40
0.0
 41
0.0
 42
0.0
 43
0.0
 44
0.0
 45
0.0
 46
0.0
 47
0.0
 48
0.0
 49
0.0
140
0.0
141
0.0
142
1.0
143
1.0
 70
   688
 72
     1
 73
     0
 74
     5
  7

 75
    16
147
1.0
148
0.0
149
0.0
100
AcDbLayout
  1
Layout2
 70
     1
 71
     2
 10
0.0
 20
0.0
 11
0.0
 21
0.0
 12
0.0
 22
0.0
 32
0.0
 14
0.0
 24
0.0
 34
0.0
 15
0.0
 25
0.0
 35
0.0
146
0.0
 13
0.0
 23
0.0
 33
0.0
 16
1.0
 26
0.0
 36
0.0
 17
0.0
 27
1.0
 37
0.0
 76
     0
330
23
  0
LAYOUT
  5
22
102
{ACAD_REACTORS
330
1A
102
}
330
1A
100
AcDbPlotSettings
  1

  2
none_device
  4
ANSI_A_(11.00_x_8.50_Inches)
  6

 40
6.35
 41
19.05
 42
6.35000508
 43
19.05000254
 44
279.4
 45
215.9
 46
112.8483620103023
 47
87.24088821947862
 48
0.0
 49
0.0
140
0.0
141
0.0
142
0.0654082017666865
143
1.0
 70
  1696
 72
     0
 73
     0
 74
     0
  7

 75
     0
147
0.0235690232323232
148
0.0
149
0.0
100
AcDbLayout
  1
Model
 70
     1
 71
     0
 10
0.0
 20
0.0
 11
420.0
 21
297.0
 12
0.0
 22
0.0
 32
0.0
 14
1.000000000000000E+20
 24
1.000000000000000E+20
 34
1.000000000000000E+20
 15
-1.000000000000000E+20
 25
-1.000000000000000E+20
 35
-1.000000000000000E+20
146
0.0
 13
0.0
 23
0.0
 33
0.0
 16
1.0
 26
0.0
 36
0.0
 17
0.0
 27
1.0
 37
0.0
 76
     0
330
1F
331
29
  0
MLINESTYLE
  5
18
102
{ACAD_REACTORS
330
17
102
}
330
17
100
AcDbMlineStyle
  2
Standard
 70
     0
  3

 62
   256
 51
90.0
 52
90.0
 71
     2
 49
0.5
 62
   256
  6
BYLAYER
 49
-0.5
 62
   256
  6
BYLAYER
  0
ACDBPLACEHOLDER
  5
F
102
{ACAD_REACTORS
330
E
102
}
330
E
  0
SCALE
  5
48
102
{ACAD_REACTORS
330
47
102
}
330
47
100
AcDbScale
 70
     0
300
1:1
140
1.0
141
1.0
290
     1
  0
SCALE
  5
49
102
{ACAD_REACTORS
330
47
102
}
330
47
100
AcDbScale
 70
     0
300
1:2
140
1.0
141
2.0
290
     0
  0
SCALE
  5
4A
102
{ACAD_REACTORS
330
47
102
}
330
47
100
AcDbScale
 70
     0
300
1:4
140
1.0
141
4.0
290
     0
  0
SCALE
  5
4B
102
{ACAD_REACTORS
330
47
102
}
330
47
100
AcDbScale
 70
     0
300
1:5
140
1.0
141
5.0
290
     0
  0
SCALE
  5
4C
102
{ACAD_REACTORS
330
47
102
}
330
47
100
AcDbScale
 70
     0
300
1:8
140
1.0
141
8.0
290
     0
  0
SCALE
  5
4D
102
{ACAD_REACTORS
330
47
102
}
330
47
100
AcDbScale
 70
     0
300
1:10
140
1.0
141
10.0
290
     0
  0
SCALE
  5
4E
102
{ACAD_REACTORS
330
47
102
}
330
47
100
AcDbScale
 70
     0
300
1:16
140
1.0
141
16.0
290
     0
  0
SCALE
  5
4F
102
{ACAD_REACTORS
330
47
102
}
330
47
100
AcDbScale
 70
     0
300
1:20
140
1.0
141
20.0
290
     0
  0
SCALE
  5
50
102
{ACAD_REACTORS
330
47
102
}
330
47
100
AcDbScale
 70
     0
300
1:30
140
1.0
141
30.0
290
     0
  0
SCALE
  5
51
102
{ACAD_REACTORS
330
47
102
}
330
47
100
AcDbScale
 70
     0
300
1:40
140
1.0
141
40.0
290
     0
  0
SCALE
  5
52
102
{ACAD_REACTORS
330
47
102
}
330
47
100
AcDbScale
 70
     0
300
1:50
140
1.0
141
50.0
290
     0
  0
SCALE
  5
53
102
{ACAD_REACTORS
330
47
102
}
330
47
100
AcDbScale
 70
     0
300
1:100
140
1.0
141
100.0
290
     0
  0
SCALE
  5
54
102
{ACAD_REACTORS
330
47
102
}
330
47
100
AcDbScale
 70
     0
300
2:1
140
2.0
141
1.0
290
     0
  0
SCALE
  5
55
102
{ACAD_REACTORS
330
47
102
}
330
47
100
AcDbScale
 70
     0
300
4:1
140
4.0
141
1.0
290
     0
  0
SCALE
  5
56
102
{ACAD_REACTORS
330
47
102
}
330
47
100
AcDbScale
 70
     0
300
8:1
140
8.0
141
1.0
290
     0
  0
SCALE
  5
57
102
{ACAD_REACTORS
330
47
102
}
330
47
100
AcDbScale
 70
     0
300
10:1
140
10.0
141
1.0
290
     0
  0
SCALE
  5
58
102
{ACAD_REACTORS
330
47
102
}
330
47
100
AcDbScale
 70
     0
300
100:1
140
100.0
141
1.0
290
     0
  0
SCALE
  5
59
102
{ACAD_REACTORS
330
47
102
}
330
47
100
AcDbScale
 70
     0
300
1/128" = 1'-0"
140
0.0078125
141
12.0
290
     0
  0
SCALE
  5
5A
102
{ACAD_REACTORS
330
47
102
}
330
47
100
AcDbScale
 70
     0
300
1/64" = 1'-0"
140
0.015625
141
12.0
290
     0
  0
SCALE
  5
5B
102
{ACAD_REACTORS
330
47
102
}
330
47
100
AcDbScale
 70
     0
300
1/32" = 1'-0"
140
0.03125
141
12.0
290
     0
  0
SCALE
  5
5C
102
{ACAD_REACTORS
330
47
102
}
330
47
100
AcDbScale
 70
     0
300
1/16" = 1'-0"
140
0.0625
141
12.0
290
     0
  0
SCALE
  5
5D
102
{ACAD_REACTORS
330
47
102
}
330
47
100
AcDbScale
 70
     0
300
3/32" = 1'-0"
140
0.09375
141
12.0
290
     0
  0
SCALE
  5
5E
102
{ACAD_REACTORS
330
47
102
}
330
47
100
AcDbScale
 70
     0
300
1/8" = 1'-0"
140
0.125
141
12.0
290
     0
  0
SCALE
  5
5F
102
{ACAD_REACTORS
330
47
102
}
330
47
100
AcDbScale
 70
     0
300
3/16" = 1'-0"
140
0.1875
141
12.0
290
     0
  0
SCALE
  5
60
102
{ACAD_REACTORS
330
47
102
}
330
47
100
AcDbScale
 70
     0
300
1/4" = 1'-0"
140
0.25
141
12.0
290
     0
  0
SCALE
  5
61
102
{ACAD_REACTORS
330
47
102
}
330
47
100
AcDbScale
 70
     0
300
3/8" = 1'-0"
140
0.375
141
12.0
290
     0
  0
SCALE
  5
62
102
{ACAD_REACTORS
330
47
102
}
330
47
100
AcDbScale
 70
     0
300
1/2" = 1'-0"
140
0.5
141
12.0
290
     0
  0
SCALE
  5
63
102
{ACAD_REACTORS
330
47
102
}
330
47
100
AcDbScale
 70
     0
300
3/4" = 1'-0"
140
0.75
141
12.0
290
     0
  0
SCALE
  5
64
102
{ACAD_REACTORS
330
47
102
}
330
47
100
AcDbScale
 70
     0
300
1" = 1'-0"
140
1.0
141
12.0
290
     0
  0
SCALE
  5
65
102
{ACAD_REACTORS
330
47
102
}
330
47
100
AcDbScale
 70
     0
300
1-1/2" = 1'-0"
140
1.5
141
12.0
290
     0
  0
SCALE
  5
66
102
{ACAD_REACTORS
330
47
102
}
330
47
100
AcDbScale
 70
     0
300
3" = 1'-0"
140
3.0
141
12.0
290
     0
  0
SCALE
  5
67
102
{ACAD_REACTORS
330
47
102
}
330
47
100
AcDbScale
 70
     0
300
6" = 1'-0"
140
6.0
141
12.0
290
     0
  0
SCALE
  5
68
102
{ACAD_REACTORS
330
47
102
}
330
47
100
AcDbScale
 70
     0
300
1'-0" = 1'-0"
140
12.0
141
12.0
290
     0
  0
ENDSEC
  0
EOF
