  0
SECTION
  2
HEADER
  9
$ACADVER
  1
AC1015
  9
$ACADMAINTVER
 70
     6
  9
$DWGCODEPAGE
  3
ANSI_949
  9
$INSBASE
 10
0.0
 20
0.0
 30
0.0
  9
$EXTMIN
 10
1.000000000000000E+20
 20
1.000000000000000E+20
 30
1.000000000000000E+20
  9
$EXTMAX
 10
-1.000000000000000E+20
 20
-1.000000000000000E+20
 30
-1.000000000000000E+20
  9
$LIMMIN
 10
0.0
 20
0.0
  9
$LIMMAX
 10
420.0
 20
297.0
  9
$ORTHOMODE
 70
     0
  9
$REGENMODE
 70
     1
  9
$FILLMODE
 70
     1
  9
$QTEXTMODE
 70
     0
  9
$MIRRTEXT
 70
     1
  9
$LTSCALE
 40
1.0
  9
$ATTMODE
 70
     1
  9
$TEXTSIZE
 40
3.5
  9
$TRACEWID
 40
1.0
  9
$TEXTSTYLE
  7
Standard
  9
$CLAYER
  8
0
  9
$CELTYPE
  6
ByLayer
  9
$CECOLOR
 62
   256
  9
$CELTSCALE
 40
1.0
  9
$DISPSILH
 70
     0
  9
$DIMSCALE
 40
1.0
  9
$DIMASZ
 40
3.302
  9
$DIMEXO
 40
1.0
  9
$DIMDLI
 40
3.75
  9
$DIMRND
 40
0.0
  9
$DIMDLE
 40
0.0
  9
$DIMEXE
 40
1.0
  9
$DIMTP
 40
0.0
  9
$DIMTM
 40
0.0
  9
$DIMTXT
 40
3.5
  9
$DIMCEN
 40
2.5
  9
$DIMTSZ
 40
0.0
  9
$DIMTOL
 70
     0
  9
$DIMLIM
 70
     0
  9
$DIMTIH
 70
     1
  9
$DIMTOH
 70
     1
  9
$DIMSE1
 70
     0
  9
$DIMSE2
 70
     0
  9
$DIMTAD
 70
     1
  9
$DIMZIN
 70
     0
  9
$DIMBLK
  1

  9
$DIMASO
 70
     1
  9
$DIMSHO
 70
     1
  9
$DIMPOST
  1

  9
$DIMAPOST
  1

  9
$DIMALT
 70
     0
  9
$DIMALTD
 70
     3
  9
$DIMALTF
 40
0.0393700787401575
  9
$DIMLFAC
 40
1.0
  9
$DIMTOFL
 70
     1
  9
$DIMTVP
 40
0.0
  9
$DIMTIX
 70
     0
  9
$DIMSOXD
 70
     0
  9
$DIMSAH
 70
     0
  9
$DIMBLK1
  1

  9
$DIMBLK2
  1

  9
$DIMSTYLE
  2
ISO-25
  9
$DIMCLRD
 70
     0
  9
$DIMCLRE
 70
     0
  9
$DIMCLRT
 70
     0
  9
$DIMTFAC
 40
1.0
  9
$DIMGAP
 40
1.524
  9
$DIMJUST
 70
     0
  9
$DIMSD1
 70
     0
  9
$DIMSD2
 70
     0
  9
$DIMTOLJ
 70
     0
  9
$DIMTZIN
 70
     0
  9
$DIMALTZ
 70
     0
  9
$DIMALTTZ
 70
     0
  9
$DIMUPT
 70
     0
  9
$DIMDEC
 70
     2
  9
$DIMTDEC
 70
     2
  9
$DIMALTU
 70
     2
  9
$DIMALTTD
 70
     3
  9
$DIMTXSTY
  7
Standard
  9
$DIMAUNIT
 70
     0
  9
$DIMADEC
 70
     2
  9
$DIMALTRND
 40
0.0
  9
$DIMAZIN
 70
     0
  9
$DIMDSEP
 70
    44
  9
$DIMATFIT
 70
     3
  9
$DIMFRAC
 70
     0
  9
$DIMLDRBLK
  1

  9
$DIMLUNIT
 70
     2
  9
$DIMLWD
 70
    -2
  9
$DIMLWE
 70
    -2
  9
$DIMTMOVE
 70
     0
  9
$LUNITS
 70
     2
  9
$LUPREC
 70
     2
  9
$SKETCHINC
 40
1.0
  9
$FILLETRAD
 40
10.0
  9
$AUNITS
 70
     0
  9
$AUPREC
 70
     2
  9
$MENU
  1
.
  9
$ELEVATION
 40
0.0
  9
$PELEVATION
 40
0.0
  9
$THICKNESS
 40
0.0
  9
$LIMCHECK
 70
     0
  9
$CHAMFERA
 40
0.0
  9
$CHAMFERB
 40
0.0
  9
$CHAMFERC
 40
0.0
  9
$CHAMFERD
 40
0.0
  9
$SKPOLY
 70
     0
  9
$TDCREATE
 40
2458236.751207384
  9
$TDUCREATE
 40
2458236.376207384
  9
$TDUPDATE
 40
2458242.350585926
  9
$TDUUPDATE
 40
2458241.975585926
  9
$TDINDWG
 40
0.0044949074
  9
$TDUSRTIMER
 40
2458241.971091181
  9
$USRTIMER
 70
     1
  9
$ANGBASE
 50
0.0
  9
$ANGDIR
 70
     0
  9
$PDMODE
 70
     0
  9
$PDSIZE
 40
-1.0
  9
$PLINEWID
 40
0.0
  9
$SPLFRAME
 70
     0
  9
$SPLINETYPE
 70
     6
  9
$SPLINESEGS
 70
     8
  9
$HANDSEED
  5
2F2
  9
$SURFTAB1
 70
     6
  9
$SURFTAB2
 70
     6
  9
$SURFTYPE
 70
     6
  9
$SURFU
 70
     6
  9
$SURFV
 70
     6
  9
$UCSBASE
  2

  9
$UCSNAME
  2

  9
$UCSORG
 10
0.0
 20
0.0
 30
0.0
  9
$UCSXDIR
 10
1.0
 20
0.0
 30
0.0
  9
$UCSYDIR
 10
0.0
 20
1.0
 30
0.0
  9
$UCSORTHOREF
  2

  9
$UCSORTHOVIEW
 70
     0
  9
$UCSORGTOP
 10
0.0
 20
0.0
 30
0.0
  9
$UCSORGBOTTOM
 10
0.0
 20
0.0
 30
0.0
  9
$UCSORGLEFT
 10
0.0
 20
0.0
 30
0.0
  9
$UCSORGRIGHT
 10
0.0
 20
0.0
 30
0.0
  9
$UCSORGFRONT
 10
0.0
 20
0.0
 30
0.0
  9
$UCSORGBACK
 10
0.0
 20
0.0
 30
0.0
  9
$PUCSBASE
  2

  9
$PUCSNAME
  2

  9
$PUCSORG
 10
0.0
 20
0.0
 30
0.0
  9
$PUCSXDIR
 10
1.0
 20
0.0
 30
0.0
  9
$PUCSYDIR
 10
0.0
 20
1.0
 30
0.0
  9
$PUCSORTHOREF
  2

  9
$PUCSORTHOVIEW
 70
     0
  9
$PUCSORGTOP
 10
0.0
 20
0.0
 30
0.0
  9
$PUCSORGBOTTOM
 10
0.0
 20
0.0
 30
0.0
  9
$PUCSORGLEFT
 10
0.0
 20
0.0
 30
0.0
  9
$PUCSORGRIGHT
 10
0.0
 20
0.0
 30
0.0
  9
$PUCSORGFRONT
 10
0.0
 20
0.0
 30
0.0
  9
$PUCSORGBACK
 10
0.0
 20
0.0
 30
0.0
  9
$USERI1
 70
     0
  9
$USERI2
 70
     0
  9
$USERI3
 70
     0
  9
$USERI4
 70
     0
  9
$USERI5
 70
     0
  9
$USERR1
 40
0.0
  9
$USERR2
 40
0.0
  9
$USERR3
 40
0.0
  9
$USERR4
 40
0.0
  9
$USERR5
 40
0.0
  9
$WORLDVIEW
 70
     1
  9
$SHADEDGE
 70
     3
  9
$SHADEDIF
 70
    70
  9
$TILEMODE
 70
     1
  9
$MAXACTVP
 70
    64
  9
$PINSBASE
 10
0.0
 20
0.0
 30
0.0
  9
$PLIMCHECK
 70
     0
  9
$PEXTMIN
 10
1.000000000000000E+20
 20
1.000000000000000E+20
 30
1.000000000000000E+20
  9
$PEXTMAX
 10
-1.000000000000000E+20
 20
-1.000000000000000E+20
 30
-1.000000000000000E+20
  9
$PLIMMIN
 10
0.0
 20
0.0
  9
$PLIMMAX
 10
0.0
 20
0.0
  9
$UNITMODE
 70
     0
  9
$VISRETAIN
 70
     1
  9
$PLINEGEN
 70
     0
  9
$PSLTSCALE
 70
     1
  9
$TREEDEPTH
 70
  3020
  9
$CMLSTYLE
  2
Standard
  9
$CMLJUST
 70
     0
  9
$CMLSCALE
 40
20.0
  9
$PROXYGRAPHICS
 70
     1
  9
$MEASUREMENT
 70
     1
  9
$CELWEIGHT
370
    -1
  9
$ENDCAPS
280
     0
  9
$JOINSTYLE
280
     0
  9
$LWDISPLAY
290
     1
  9
$INSUNITS
 70
     4
  9
$HYPERLINKBASE
  1

  9
$STYLESHEET
  1

  9
$XEDIT
290
     1
  9
$CEPSNTYPE
380
     0
  9
$PSTYLEMODE
290
     1
  9
$FINGERPRINTGUID
  2
{080D2DAA-FEE0-404D-8DFF-8F111911069A}
  9
$VERSIONGUID
  2
{FAEB1C32-E019-11D5-929B-00C0DF256EC4}
  9
$EXTNAMES
290
     1
  9
$PSVPSCALE
 40
0.0
  9
$OLESTARTUP
290
     0
  0
ENDSEC
  0
SECTION
  2
CLASSES
  0
CLASS
  1
ACDBDICTIONARYWDFLT
  2
AcDbDictionaryWithDefault
  3
ObjectDBX Classes
 90
        0
280
     0
281
     0
  0
CLASS
  1
VISUALSTYLE
  2
AcDbVisualStyle
  3
ObjectDBX Classes
 90
     4095
280
     0
281
     0
  0
CLASS
  1
MATERIAL
  2
AcDbMaterial
  3
ObjectDBX Classes
 90
     1153
280
     0
281
     0
  0
CLASS
  1
SCALE
  2
AcDbScale
  3
ObjectDBX Classes
 90
     1153
280
     0
281
     0
  0
CLASS
  1
SUN
  2
AcDbSun
  3
SCENEOE
 90
     1153
280
     0
281
     0
  0
CLASS
  1
ACDBPLACEHOLDER
  2
AcDbPlaceHolder
  3
ObjectDBX Classes
 90
        0
280
     0
281
     0
  0
CLASS
  1
LAYOUT
  2
AcDbLayout
  3
ObjectDBX Classes
 90
        0
280
     0
281
     0
  0
CLASS
  1
TABLESTYLE
  2
AcDbTableStyle
  3
ObjectDBX Classes
 90
     4095
280
     0
281
     0
  0
CLASS
  1
MLEADERSTYLE
  2
AcDbMLeaderStyle
  3
ACDB_MLEADERSTYLE_CLASS
 90
     4095
280
     0
281
     0
  0
CLASS
  1
RASTERVARIABLES
  2
AcDbRasterVariables
  3
ISM
 90
        0
280
     0
281
     0
  0
CLASS
  1
DIMASSOC
  2
AcDbDimAssoc
  3
"AcDbDimAssoc|Product Desc:     AcDim ARX App For Dimension|Company:          Autodesk, Inc.|WEB Address:      www.autodesk.com"
 90
        0
280
     0
281
     0
  0
ENDSEC
  0
SECTION
  2
TABLES
  0
TABLE
  2
VPORT
  5
8
330
0
100
AcDbSymbolTable
 70
     1
  0
VPORT
  5
29
330
8
100
AcDbSymbolTableRecord
100
AcDbViewportTableRecord
  2
*Active
 70
     0
 10
0.0
 20
0.0
 11
1.0
 21
1.0
 12
54.58789747765285
 22
19.90206826972726
 13
0.0
 23
0.0
 14
10.0
 24
10.0
 15
10.0
 25
10.0
 16
0.0
 26
0.0
 36
1.0
 17
0.0
 27
0.0
 37
0.0
 40
199.7620076674385
 41
1.328320802005013
 42
50.0
 43
0.0
 44
0.0
 50
0.0
 51
0.0
 71
    16
 72
  2000
 73
     1
 74
     3
 75
     0
 76
     0
 77
     0
 78
     0
281
     0
 65
     1
110
0.0
120
0.0
130
0.0
111
1.0
121
0.0
131
0.0
112
0.0
122
1.0
132
0.0
 79
     0
146
0.0
  0
ENDTAB
  0
TABLE
  2
LTYPE
  5
5
330
0
100
AcDbSymbolTable
 70
     6
  0
LTYPE
  5
14
330
5
100
AcDbSymbolTableRecord
100
AcDbLinetypeTableRecord
  2
ByBlock
 70
     0
  3

 72
    65
 73
     0
 40
0.0
  0
LTYPE
  5
15
330
5
100
AcDbSymbolTableRecord
100
AcDbLinetypeTableRecord
  2
ByLayer
 70
     0
  3

 72
    65
 73
     0
 40
0.0
  0
LTYPE
  5
16
330
5
100
AcDbSymbolTableRecord
100
AcDbLinetypeTableRecord
  2
Continuous
 70
     0
  3
Solid line
 72
    65
 73
     0
 40
0.0
  0
LTYPE
  5
6A
330
5
100
AcDbSymbolTableRecord
100
AcDbLinetypeTableRecord
  2
HIDDEN
 70
     0
  3
Hidden __ __ __ __ __ __ __ __ __ __ __ __ __ __
 72
    65
 73
     2
 40
1.905
 49
1.27
 74
     0
 49
-0.635
 74
     0
  0
LTYPE
  5
6B
330
5
100
AcDbSymbolTableRecord
100
AcDbLinetypeTableRecord
  2
PHANTOM
 70
     0
  3
Phantom ______  __  __  ______  __  __  ______
 72
    65
 73
     6
 40
12.7
 49
6.35
 74
     0
 49
-1.27
 74
     0
 49
1.27
 74
     0
 49
-1.27
 74
     0
 49
1.27
 74
     0
 49
-1.27
 74
     0
  0
LTYPE
  5
6C
330
5
100
AcDbSymbolTableRecord
100
AcDbLinetypeTableRecord
  2
CENTER
 70
     0
  3
Center ____ _ ____ _ ____ _ ____ _ ____ _ ____
 72
    65
 73
     4
 40
10.16
 49
6.35
 74
     0
 49
-1.27
 74
     0
 49
1.27
 74
     0
 49
-1.27
 74
     0
  0
LTYPE
  5
6D
330
5
100
AcDbSymbolTableRecord
100
AcDbLinetypeTableRecord
  2
CENTERX2
 70
     0
  3
Center (2x) ________  __  ________  __  _____
 72
    65
 73
     4
 40
20.32
 49
12.7
 74
     0
 49
-2.54
 74
     0
 49
2.54
 74
     0
 49
-2.54
 74
     0
  0
LTYPE
  5
6E
330
5
100
AcDbSymbolTableRecord
100
AcDbLinetypeTableRecord
  2
DOT2
 70
     0
  3
Dot (.5x) ........................................
 72
    65
 73
     2
 40
0.635
 49
0.0
 74
     0
 49
-0.635
 74
     0
  0
ENDTAB
  0
TABLE
  2
LAYER
  5
2
330
0
100
AcDbSymbolTable
 70
    17
  0
LAYER
  5
10
330
2
100
AcDbSymbolTableRecord
100
AcDbLayerTableRecord
  2
0
 70
     0
 62
     7
  6
Continuous
370
    -3
390
F
  0
LAYER
  5
6F
330
2
100
AcDbSymbolTableRecord
100
AcDbLayerTableRecord
  2
FORMAT
 70
     0
 62
     2
  6
Continuous
370
    -3
390
F
  0
LAYER
  5
70
330
2
100
AcDbSymbolTableRecord
100
AcDbLayerTableRecord
  2
외형선
 70
     0
 62
   100
  6
Continuous
370
    30
390
F
  0
LAYER
  5
71
330
2
100
AcDbSymbolTableRecord
100
AcDbLayerTableRecord
  2
숨은선
 70
     0
 62
     2
  6
HIDDEN
370
    15
390
F
  0
LAYER
  5
72
330
2
100
AcDbSymbolTableRecord
100
AcDbLayerTableRecord
  2
중심선
 70
     0
 62
     1
  6
CENTERX2
370
    -3
390
F
  0
LAYER
  5
73
330
2
100
AcDbSymbolTableRecord
100
AcDbLayerTableRecord
  2
파단선
 70
     0
 62
     4
  6
Continuous
370
    -3
390
F
  0
LAYER
  5
74
330
2
100
AcDbSymbolTableRecord
100
AcDbLayerTableRecord
  2
해칭선
 70
     0
 62
     4
  6
Continuous
370
    -3
390
F
  0
LAYER
  5
75
330
2
100
AcDbSymbolTableRecord
100
AcDbLayerTableRecord
  2
가는실선
 70
     0
 62
     4
  6
Continuous
370
    -3
390
F
  0
LAYER
  5
76
330
2
100
AcDbSymbolTableRecord
100
AcDbLayerTableRecord
  2
치수_보조선
 70
     0
 62
     4
  6
Continuous
370
    -3
390
F
  0
LAYER
  5
77
330
2
100
AcDbSymbolTableRecord
100
AcDbLayerTableRecord
  2
치수문자_일반주서
 70
     0
 62
     7
  6
Continuous
370
    15
390
F
  0
LAYER
  5
78
330
2
100
AcDbSymbolTableRecord
100
AcDbLayerTableRecord
  2
개별주서
 70
     0
 62
   100
  6
Continuous
370
    30
390
F
  0
LAYER
  5
79
330
2
100
AcDbSymbolTableRecord
100
AcDbLayerTableRecord
  2
중간선
 70
     0
 62
     2
  6
Continuous
370
    15
390
F
  0
LAYER
  5
7A
330
2
100
AcDbSymbolTableRecord
100
AcDbLayerTableRecord
  2
윤곽선
 70
     0
 62
     3
  6
Continuous
370
    40
390
F
  0
LAYER
  5
7B
330
2
100
AcDbSymbolTableRecord
100
AcDbLayerTableRecord
  2
중심마크
 70
     0
 62
   100
  6
Continuous
370
    30
390
F
  0
LAYER
  5
7C
330
2
100
AcDbSymbolTableRecord
100
AcDbLayerTableRecord
  2
가상선
 70
     0
 62
     4
  6
PHANTOM
370
    -3
390
F
  0
LAYER
  5
7D
330
2
100
AcDbSymbolTableRecord
100
AcDbLayerTableRecord
  2
특수지정선
 70
     0
 62
     5
  6
CENTERX2
370
    60
390
F
  0
LAYER
  5
15A
330
2
100
AcDbSymbolTableRecord
100
AcDbLayerTableRecord
  2
Defpoints
 70
     0
 62
     7
  6
Continuous
290
     0
370
    -3
390
F
  0
ENDTAB
  0
TABLE
  2
STYLE
  5
3
330
0
100
AcDbSymbolTable
 70
     2
  0
STYLE
  5
11
330
3
100
AcDbSymbolTableRecord
100
AcDbTextStyleTableRecord
  2
Standard
 70
     0
 40
0.0
 41
1.0
 50
0.0
 71
     0
 42
3.5
  3
txt
  4

  0
STYLE
  5
93
330
3
100
AcDbSymbolTableRecord
100
AcDbTextStyleTableRecord
  2
SLDTEXTSTYLE0
 70
     0
 40
0.0
 41
0.75
 50
0.0
 71
     0
 42
3.5
  3
TXT
  4

  0
ENDTAB
  0
TABLE
  2
VIEW
  5
6
330
0
100
AcDbSymbolTable
 70
     0
  0
ENDTAB
  0
TABLE
  2
UCS
  5
7
330
0
100
AcDbSymbolTable
 70
     0
  0
ENDTAB
  0
TABLE
  2
APPID
  5
9
330
0
100
AcDbSymbolTable
 70
     3
  0
APPID
  5
12
330
9
100
AcDbSymbolTableRecord
100
AcDbRegAppTableRecord
  2
ACAD
 70
     0
  0
APPID
  5
159
330
9
100
AcDbSymbolTableRecord
100
AcDbRegAppTableRecord
  2
ACAD_DSTYLE_DIMRADIAL_EXTENSION
 70
     0
  0
APPID
  5
16B
330
9
100
AcDbSymbolTableRecord
100
AcDbRegAppTableRecord
  2
PE_DIMMEASUREMENT
 70
     0
  0
ENDTAB
  0
TABLE
  2
DIMSTYLE
  5
A
330
0
100
AcDbSymbolTable
 70
     3
100
AcDbDimStyleTable
  0
DIMSTYLE
105
27
330
A
100
AcDbSymbolTableRecord
100
AcDbDimStyleTableRecord
  2
ISO-25
 70
     0
 41
2.5
 42
0.625
 43
3.75
 44
1.25
 73
     0
 74
     0
 77
     1
 78
     8
140
2.5
141
2.5
143
0.03937007874016
147
0.625
171
     3
172
     1
178
     0
271
     2
272
     2
274
     3
278
    44
283
     0
284
     8
340
11
  0
DIMSTYLE
105
F3
102
{ACAD_REACTORS
330
1ED
330
200
330
2AB
330
2AC
102
}
330
A
100
AcDbSymbolTableRecord
100
AcDbDimStyleTableRecord
  2
SLDDIMSTYLE0
 70
     0
 41
3.302
 44
0.0
 45
0.000000001
 73
     0
 74
     0
 77
     1
 78
     4
 79
     1
140
3.5
143
0.0393700787401575
147
0.875
148
0.000000001
170
     1
173
     1
178
     0
271
     2
272
     2
276
     2
284
    12
340
93
  0
DIMSTYLE
105
11A
102
{ACAD_REACTORS
330
213
330
2AD
330
2D3
330
2E4
102
}
330
A
100
AcDbSymbolTableRecord
100
AcDbDimStyleTableRecord
  2
SLDDIMSTYLE1
 70
     0
 41
3.302
 44
0.0
 45
0.000000001
 73
     0
 74
     0
 77
     1
 78
    12
 79
     3
140
3.5
143
0.0393700787401575
147
0.875
148
0.000000001
170
     1
172
     1
173
     1
178
     0
271
     2
272
     2
276
     2
284
    12
289
     0
340
93
  0
ENDTAB
  0
TABLE
  2
BLOCK_RECORD
  5
1
330
0
100
AcDbSymbolTable
 70
    16
  0
BLOCK_RECORD
  5
1F
330
1
100
AcDbSymbolTableRecord
100
AcDbBlockTableRecord
  2
*Model_Space
340
22
  0
BLOCK_RECORD
  5
1B
330
1
100
AcDbSymbolTableRecord
100
AcDbBlockTableRecord
  2
*Paper_Space
340
1E
  0
BLOCK_RECORD
  5
23
330
1
100
AcDbSymbolTableRecord
100
AcDbBlockTableRecord
  2
*Paper_Space0
340
26
  0
BLOCK_RECORD
  5
7E
330
1
100
AcDbSymbolTableRecord
100
AcDbBlockTableRecord
  2
블럭10
340
0
102
{BLKREFS
331
EA
102
}
  0
BLOCK_RECORD
  5
F4
330
1
100
AcDbSymbolTableRecord
100
AcDbBlockTableRecord
  2
_D
340
0
  0
BLOCK_RECORD
  5
107
330
1
100
AcDbSymbolTableRecord
100
AcDbBlockTableRecord
  2
_D_1
340
0
  0
BLOCK_RECORD
  5
11B
330
1
100
AcDbSymbolTableRecord
100
AcDbBlockTableRecord
  2
_D_2
340
0
  0
BLOCK_RECORD
  5
12E
330
1
100
AcDbSymbolTableRecord
100
AcDbBlockTableRecord
  2
SW_DOWELSYMBOL_0
340
0
102
{BLKREFS
331
0
331
227
331
2AE
102
}
  0
BLOCK_RECORD
  5
15E
330
1
100
AcDbSymbolTableRecord
100
AcDbBlockTableRecord
  2
*D6
340
0
  0
BLOCK_RECORD
  5
230
330
1
100
AcDbSymbolTableRecord
100
AcDbBlockTableRecord
  2
*D8
340
0
  0
BLOCK_RECORD
  5
23C
330
1
100
AcDbSymbolTableRecord
100
AcDbBlockTableRecord
  2
*D9
340
0
  0
BLOCK_RECORD
  5
248
330
1
100
AcDbSymbolTableRecord
100
AcDbBlockTableRecord
  2
*D10
340
0
  0
BLOCK_RECORD
  5
2AF
330
1
100
AcDbSymbolTableRecord
100
AcDbBlockTableRecord
  2
*D11
340
0
  0
BLOCK_RECORD
  5
2BB
330
1
100
AcDbSymbolTableRecord
100
AcDbBlockTableRecord
  2
*D12
340
0
  0
BLOCK_RECORD
  5
2C7
330
1
100
AcDbSymbolTableRecord
100
AcDbBlockTableRecord
  2
*D13
340
0
  0
BLOCK_RECORD
  5
2D6
330
1
100
AcDbSymbolTableRecord
100
AcDbBlockTableRecord
  2
*D14
340
0
  0
BLOCK_RECORD
  5
2E7
330
1
100
AcDbSymbolTableRecord
100
AcDbBlockTableRecord
  2
*D15
340
0
  0
ENDTAB
  0
ENDSEC
  0
SECTION
  2
BLOCKS
  0
BLOCK
  5
20
330
1F
100
AcDbEntity
  8
0
100
AcDbBlockBegin
  2
*Model_Space
 70
     0
 10
0.0
 20
0.0
 30
0.0
  3
*Model_Space
  1
*Model_Space
  0
ENDBLK
  5
21
330
1F
100
AcDbEntity
  8
0
100
AcDbBlockEnd
  0
BLOCK
  5
1C
330
1B
100
AcDbEntity
 67
     1
  8
0
100
AcDbBlockBegin
  2
*Paper_Space
 70
     0
 10
0.0
 20
0.0
 30
0.0
  3
*Paper_Space
  1
*Paper_Space
  0
ENDBLK
  5
1D
330
1B
100
AcDbEntity
 67
     1
  8
0
100
AcDbBlockEnd
  0
BLOCK
  5
24
330
23
100
AcDbEntity
  8
0
100
AcDbBlockBegin
  2
*Paper_Space0
 70
     0
 10
0.0
 20
0.0
 30
0.0
  3
*Paper_Space0
  1
*Paper_Space0
  0
ENDBLK
  5
25
330
23
100
AcDbEntity
  8
0
100
AcDbBlockEnd
  0
BLOCK
  5
7F
330
7E
100
AcDbEntity
  8
0
100
AcDbBlockBegin
  2
블럭10
 70
     2
 10
0.0
 20
0.0
 30
0.0
  3
블럭10
  1
블럭10
  0
ELLIPSE
  5
81
330
7E
100
AcDbEntity
  8
중심선
100
AcDbEllipse
 10
20.54032771741204
 20
12.0471743016438
 30
0.0
 11
6.600054785286829
 21
-1.261213355974178E-13
 31
0.0
210
0.0
220
0.0
230
1.0
 40
0.636358354079598
 41
0.9219305317359503
 42
6.513795318482858
  0
ELLIPSE
  5
82
330
7E
100
AcDbEntity
  8
중심선
100
AcDbEllipse
 10
20.54032771746488
 20
12.04717430159265
 30
0.0
 11
3.960054785062283
 21
1.540847449632565E-10
 31
0.0
210
0.0
220
0.0
230
1.0
 40
0.3939339440162632
 41
1.131841032648279
 42
5.62031148352944
  0
LINE
  5
83
330
7E
100
AcDbEntity
  8
중심선
100
AcDbLine
 10
2.268634060543552
 20
16.24717430164393
 30
0.0
 11
5.714909304380834
 21
16.24717430164393
 31
0.0
  0
LINE
  5
84
330
7E
100
AcDbEntity
  8
중심선
100
AcDbLine
 10
5.245725140726316
 20
7.84717430164391
 30
0.0
 11
8.692000384563599
 21
7.84717430164391
 31
0.0
  0
LINE
  5
85
330
7E
100
AcDbEntity
  8
중심선
100
AcDbLine
 10
15.74043728645272
 20
16.24717430164393
 30
0.0
 11
8.692000384563599
 21
7.84717430164391
 31
0.0
  0
LINE
  5
86
330
7E
100
AcDbEntity
  8
중심선
100
AcDbLine
 10
0.1404042013395286
 20
13.71084872107135
 30
0.0
 11
3.58671253028996
 21
13.71088815037384
 31
0.0
  0
LINE
  5
87
330
7E
100
AcDbEntity
  8
중심선
100
AcDbLine
 10
2.750260043222114
 20
10.84717430164391
 30
0.0
 11
6.196535287059397
 21
10.84717430164391
 31
0.0
  0
LINE
  5
88
330
7E
100
AcDbEntity
  8
중심선
100
AcDbLine
 10
12.29416204261559
 20
16.24717430164393
 30
0.0
 11
5.245725140726316
 21
7.84717430164391
 31
0.0
  0
LINE
  5
89
330
7E
100
AcDbEntity
  8
중심선
100
AcDbLine
 10
10.72767329541681
 20
16.24717430164393
 30
0.0
 11
6.196535287059397
 21
10.84717430164391
 31
0.0
  0
LINE
  5
8A
330
7E
100
AcDbEntity
  8
중심선
100
AcDbLine
 10
7.28139805157953
 20
16.24717430164393
 30
0.0
 11
2.750260043222114
 21
10.84717430164391
 31
0.0
  0
LINE
  5
8B
330
7E
100
AcDbEntity
  8
중심선
100
AcDbLine
 10
5.714909304380834
 20
16.24717430164393
 30
0.0
 11
3.58671253028996
 21
13.71088815037384
 31
0.0
  0
LINE
  5
8C
330
7E
100
AcDbEntity
  8
중심선
100
AcDbLine
 10
2.268634060543552
 20
16.24717430164393
 30
0.0
 11
0.1404042013395286
 21
13.71084872107135
 31
0.0
  0
LINE
  5
8D
330
7E
100
AcDbEntity
  8
중심선
100
AcDbLine
 10
7.28139805157953
 20
16.24717430164393
 30
0.0
 11
10.72767329541681
 21
16.24717430164393
 31
0.0
  0
LINE
  5
8E
330
7E
100
AcDbEntity
  8
중심선
100
AcDbLine
 10
12.29416204261559
 20
16.24717430164393
 30
0.0
 11
15.74043728645272
 21
16.24717430164393
 31
0.0
  0
LINE
  5
8F
330
7E
100
AcDbEntity
  8
중심선
100
AcDbLine
 10
19.22036997980202
 20
11.08717430171403
 30
0.0
 11
23.66174974927406
 21
11.08717430171406
 31
0.0
  0
LINE
  5
90
330
7E
100
AcDbEntity
  8
중심선
100
AcDbLine
 10
19.22039502424796
 20
13.00717430171391
 30
0.0
 11
19.22036997980202
 21
11.08717430171403
 31
0.0
  0
LINE
  5
91
330
7E
100
AcDbEntity
  8
중심선
100
AcDbLine
 10
19.22039502424796
 20
13.00717430171391
 30
0.0
 11
26.96566020931264
 21
13.00717430171391
 31
0.0
  0
LINE
  5
92
330
7E
100
AcDbEntity
  8
중심선
100
AcDbLine
 10
22.22332737316547
 20
13.45928029700563
 30
0.0
 11
24.52862924686651
 21
15.39360700705356
 31
0.0
  0
ATTDEF
  5
94
330
7E
100
AcDbEntity
  8
FORMAT
 62
     2
100
AcDbText
 10
-11.05102035218446
 20
2.075366912832191
 30
0.0
 40
4.233333333333333
  1
GMG22947[ 6 FLUTE ]
 41
0.75
  7
SLDTEXTSTYLE0
 11
-11.05102035218446
 21
-0.0412997538344756
 31
0.0
100
AcDbAttributeDefinition
  3

  2
AUTOATTR0
 70
     0
 74
     1
  0
ENDBLK
  5
80
330
7E
100
AcDbEntity
  8
0
100
AcDbBlockEnd
  0
BLOCK
  5
F5
330
F4
100
AcDbEntity
  8
0
100
AcDbBlockBegin
  2
_D
 70
     0
 10
0.0
 20
0.0
 30
0.0
  3
_D
  1
_D
  0
LINE
  5
F7
330
F4
100
AcDbEntity
  8
치수문자_일반주서
 62
     0
370
    -2
100
AcDbLine
 10
-47.11334827919203
 20
8.827121974755878
 30
0.0
 11
-47.11334827919201
 21
41.92017339282766
 31
0.0
  0
LINE
  5
F8
330
F4
100
AcDbEntity
  8
치수문자_일반주서
 62
     0
370
    -2
100
AcDbLine
 10
92.58665172080796
 20
6.279121974755886
 30
0.0
 11
92.58665172080798
 21
41.92017339282766
 31
0.0
  0
LINE
  5
F9
330
F4
100
AcDbEntity
  8
치수문자_일반주서
 62
     0
370
    -2
100
AcDbLine
 10
-43.81134827919201
 20
41.92017339282766
 30
0.0
 11
89.28465172080797
 21
41.92017339282766
 31
0.0
  0
SOLID
  5
FA
330
F4
100
AcDbEntity
  8
치수문자_일반주서
 62
     0
100
AcDbTrace
 10
-43.81134827919201
 20
42.470506726161
 30
0.0
 11
-43.81134827919201
 21
41.36984005949433
 31
0.0
 12
-47.11334827919201
 22
41.92017339282766
 32
0.0
 13
-47.11334827919201
 23
41.92017339282766
 33
0.0
  0
SOLID
  5
FB
330
F4
100
AcDbEntity
  8
치수문자_일반주서
 62
     0
100
AcDbTrace
 10
89.28465172080797
 20
41.36984005949433
 30
0.0
 11
89.28465172080797
 21
42.470506726161
 31
0.0
 12
92.58665172080798
 22
41.92017339282766
 32
0.0
 13
92.58665172080798
 23
41.92017339282766
 33
0.0
  0
MTEXT
  5
FC
330
F4
100
AcDbEntity
  8
치수문자_일반주서
 62
     0
100
AcDbMText
 10
22.73665172080797
 20
46.29517339282766
 30
0.0
 40
3.5
 41
0.0
 71
     2
 72
     1
  1
\A1;139.70 [5 1/2]
  7
SLDTEXTSTYLE0
 73
     1
 44
1.0
  0
POINT
  5
FD
330
F4
100
AcDbEntity
  8
Defpoints
 62
     0
100
AcDbPoint
 10
-47.11334827919203
 20
8.764621974755878
 30
0.0
  0
POINT
  5
FE
330
F4
100
AcDbEntity
  8
Defpoints
 62
     0
100
AcDbPoint
 10
92.58665172080796
 20
6.216621974755886
 30
0.0
  0
POINT
  5
FF
330
F4
100
AcDbEntity
  8
Defpoints
 62
     0
100
AcDbPoint
 10
92.58665172080796
 20
41.92017339282766
 30
0.0
  0
ENDBLK
  5
F6
330
F4
100
AcDbEntity
  8
0
100
AcDbBlockEnd
  0
BLOCK
  5
108
330
107
100
AcDbEntity
  8
0
100
AcDbBlockBegin
  2
_D_1
 70
     0
 10
0.0
 20
0.0
 30
0.0
  3
_D_1
  1
_D_1
  0
LINE
  5
10A
330
107
100
AcDbEntity
  8
치수문자_일반주서
 62
     0
370
    -2
100
AcDbLine
 10
92.58665172080796
 20
6.279121974755886
 30
0.0
 11
92.58665172080796
 21
23.84361650509382
 31
0.0
  0
LINE
  5
10B
330
107
100
AcDbEntity
  8
치수문자_일반주서
 62
     0
370
    -2
100
AcDbLine
 10
16.38665172080797
 20
9.061309165978205
 30
0.0
 11
16.38665172080797
 21
23.84361650509382
 31
0.0
  0
LINE
  5
10C
330
107
100
AcDbEntity
  8
치수문자_일반주서
 62
     0
370
    -2
100
AcDbLine
 10
89.28465172080797
 20
23.84361650509382
 30
0.0
 11
19.68865172080797
 21
23.84361650509382
 31
0.0
  0
SOLID
  5
10D
330
107
100
AcDbEntity
  8
치수문자_일반주서
 62
     0
100
AcDbTrace
 10
89.28465172080797
 20
23.29328317176049
 30
0.0
 11
89.28465172080797
 21
24.39394983842715
 31
0.0
 12
92.58665172080796
 22
23.84361650509382
 32
0.0
 13
92.58665172080796
 23
23.84361650509382
 33
0.0
  0
SOLID
  5
10E
330
107
100
AcDbEntity
  8
치수문자_일반주서
 62
     0
100
AcDbTrace
 10
19.68865172080797
 20
24.39394983842715
 30
0.0
 11
19.68865172080797
 21
23.29328317176049
 31
0.0
 12
16.38665172080797
 22
23.84361650509382
 32
0.0
 13
16.38665172080797
 23
23.84361650509382
 33
0.0
  0
MTEXT
  5
10F
330
107
100
AcDbEntity
  8
치수문자_일반주서
 62
     0
100
AcDbMText
 10
53.64845511651242
 20
28.21861650509382
 30
0.0
 40
3.5
 41
0.0
 71
     2
 72
     1
  1
\A1;76.20 [3]
  7
SLDTEXTSTYLE0
 73
     1
 44
1.0
  0
POINT
  5
110
330
107
100
AcDbEntity
  8
Defpoints
 62
     0
100
AcDbPoint
 10
92.58665172080796
 20
6.216621974755886
 30
0.0
  0
POINT
  5
111
330
107
100
AcDbEntity
  8
Defpoints
 62
     0
100
AcDbPoint
 10
16.38665172080797
 20
8.998809165978205
 30
0.0
  0
POINT
  5
112
330
107
100
AcDbEntity
  8
Defpoints
 62
     0
100
AcDbPoint
 10
16.38665172080797
 20
23.84361650509382
 30
0.0
  0
ENDBLK
  5
109
330
107
100
AcDbEntity
  8
0
100
AcDbBlockEnd
  0
BLOCK
  5
11C
330
11B
100
AcDbEntity
  8
0
100
AcDbBlockBegin
  2
_D_2
 70
     0
 10
0.0
 20
0.0
 30
0.0
  3
_D_2
  1
_D_2
  0
LINE
  5
11E
330
11B
100
AcDbEntity
  8
치수문자_일반주서
 62
     0
370
    -2
100
AcDbLine
 10
-46.67584827919203
 20
9.264621974755881
 30
0.0
 11
-60.11334827919208
 21
9.264621974755833
 31
0.0
  0
LINE
  5
11F
330
11B
100
AcDbEntity
  8
치수문자_일반주서
 62
     0
370
    -2
100
AcDbLine
 10
-46.67584827919203
 20
-9.78537802524412
 30
0.0
 11
-60.11334827919202
 21
-9.785378025244167
 31
0.0
  0
LINE
  5
120
330
11B
100
AcDbEntity
  8
치수문자_일반주서
 62
     0
370
    -2
100
AcDbLine
 10
-60.11334827919207
 20
5.962621974755834
 30
0.0
 11
-60.11334827919203
 21
-6.483378025244168
 31
0.0
  0
SOLID
  5
121
330
11B
100
AcDbEntity
  8
치수문자_일반주서
 62
     0
100
AcDbTrace
 10
-59.56301494585873
 20
5.962621974755836
 30
0.0
 11
-60.6636816125254
 21
5.962621974755832
 31
0.0
 12
-60.11334827919208
 22
9.264621974755833
 32
0.0
 13
-60.11334827919208
 23
9.264621974755833
 33
0.0
  0
SOLID
  5
122
330
11B
100
AcDbEntity
  8
치수문자_일반주서
 62
     0
100
AcDbTrace
 10
-60.66368161252537
 20
-6.48337802524417
 30
0.0
 11
-59.5630149458587
 21
-6.483378025244166
 31
0.0
 12
-60.11334827919202
 22
-9.785378025244167
 32
0.0
 13
-60.11334827919202
 23
-9.785378025244167
 33
0.0
  0
MTEXT
  5
123
330
11B
100
AcDbEntity
  8
치수문자_일반주서
 62
     0
100
AcDbMText
 10
-64.48834827919205
 20
-0.2603780252441358
 30
0.0
 40
3.5
 41
0.0
 71
     2
 72
     1
  1
\A1;%%c19.05 [3/4]
  7
SLDTEXTSTYLE0
 11
-3.356894814614647E-15
 21
1.0
 31
0.0
 73
     1
 44
1.0
  0
POINT
  5
124
330
11B
100
AcDbEntity
  8
Defpoints
 62
     0
100
AcDbPoint
 10
-46.61334827919203
 20
9.264621974755881
 30
0.0
  0
POINT
  5
125
330
11B
100
AcDbEntity
  8
Defpoints
 62
     0
100
AcDbPoint
 10
-46.61334827919203
 20
-9.78537802524412
 30
0.0
  0
POINT
  5
126
330
11B
100
AcDbEntity
  8
Defpoints
 62
     0
100
AcDbPoint
 10
-60.11334827919205
 20
-9.785378025244167
 30
0.0
  0
ENDBLK
  5
11D
330
11B
100
AcDbEntity
  8
0
100
AcDbBlockEnd
  0
BLOCK
  5
12F
330
12E
100
AcDbEntity
  8
0
100
AcDbBlockBegin
  2
SW_DOWELSYMBOL_0
 70
     0
 10
0.0
 20
0.0
 30
0.0
  3
SW_DOWELSYMBOL_0
  1
SW_DOWELSYMBOL_0
  0
CIRCLE
  5
131
330
12E
100
AcDbEntity
  8
외형선
 62
     0
100
AcDbCircle
 10
0.0
 20
0.0
 30
0.0
 40
3.000000000000001
  0
HATCH
  5
132
330
12E
100
AcDbEntity
  8
0
  6
Continuous
 62
     0
370
    30
100
AcDbHatch
 10
0.0
 20
0.0
 30
0.0
210
0.0
220
0.0
230
1.0
  2
SOLID
 70
     1
 71
     0
 91
        1
 92
        0
 93
        3
 72
     2
 10
0.0
 20
0.0
 40
3.000000000000001
 50
0.0
 51
90.0
 73
     1
 72
     1
 10
0.0
 20
3.000000000000001
 11
0.0
 21
0.0
 72
     1
 10
0.0
 20
0.0
 11
3.000000000000001
 21
0.0
 97
        0
 75
     0
 76
     1
 98
        1
 10
0.0
 20
0.0
  0
HATCH
  5
133
330
12E
100
AcDbEntity
  8
0
  6
Continuous
 62
     0
370
    30
100
AcDbHatch
 10
0.0
 20
0.0
 30
0.0
210
0.0
220
0.0
230
1.0
  2
SOLID
 70
     1
 71
     0
 91
        1
 92
        0
 93
        3
 72
     2
 10
0.0
 20
0.0
 40
3.000000000000001
 50
180.0
 51
270.0000000000008
 73
     1
 72
     1
 10
0.0
 20
-3.000000000000001
 11
0.0
 21
0.0
 72
     1
 10
0.0
 20
0.0
 11
-3.000000000000001
 21
0.0
 97
        0
 75
     0
 76
     1
 98
        1
 10
0.0
 20
0.0
  0
ENDBLK
  5
130
330
12E
100
AcDbEntity
  8
0
100
AcDbBlockEnd
  0
BLOCK
  5
15F
330
15E
100
AcDbEntity
  8
0
100
AcDbBlockBegin
  2
*D6
 70
     1
 10
0.0
 20
0.0
 30
0.0
  3
*D6
  1
*D6
  0
LINE
  5
161
330
15E
100
AcDbEntity
  8
치수문자_일반주서
 62
     0
370
    -2
100
AcDbLine
 10
89.60115172080798
 20
9.264621974755887
 30
0.0
 11
109.5498431179747
 21
9.264621974755888
 31
0.0
  0
LINE
  5
162
330
15E
100
AcDbEntity
  8
치수문자_일반주서
 62
     0
370
    -2
100
AcDbLine
 10
89.60115172080802
 20
-9.785378025244114
 30
0.0
 11
109.5498431179747
 21
-9.785378025244112
 31
0.0
  0
LINE
  5
163
330
15E
100
AcDbEntity
  8
치수문자_일반주서
 62
     0
370
    -2
100
AcDbLine
 10
109.5498431179747
 20
5.962621974755889
 30
0.0
 11
109.5498431179747
 21
-6.483378025244113
 31
0.0
  0
SOLID
  5
164
330
15E
100
AcDbEntity
  8
치수문자_일반주서
 62
     0
100
AcDbTrace
 10
110.100176451308
 20
5.962621974755889
 30
0.0
 11
108.9995097846414
 21
5.962621974755889
 31
0.0
 12
109.5498431179747
 22
9.264621974755888
 32
0.0
 13
109.5498431179747
 23
9.264621974755888
 33
0.0
  0
SOLID
  5
165
330
15E
100
AcDbEntity
  8
치수문자_일반주서
 62
     0
100
AcDbTrace
 10
108.9995097846414
 20
-6.483378025244113
 30
0.0
 11
110.100176451308
 21
-6.483378025244113
 31
0.0
 12
109.5498431179747
 22
-9.785378025244112
 32
0.0
 13
109.5498431179747
 23
-9.785378025244112
 33
0.0
  0
MTEXT
  5
166
330
15E
100
AcDbEntity
  8
치수문자_일반주서
 62
     0
100
AcDbMText
 10
106.9248431179747
 20
0.0320313510162542
 30
0.0
 40
3.5
 41
0.0
 71
     5
 72
     1
  1
\A1;{%%c19.05 [3/4]}
  7
SLDTEXTSTYLE0
 11
0.0
 21
1.0
 31
0.0
 73
     1
 44
1.0
  0
POINT
  5
167
330
15E
100
AcDbEntity
  8
Defpoints
 62
     0
100
AcDbPoint
 10
89.53865172080798
 20
9.264621974755887
 30
0.0
  0
POINT
  5
168
330
15E
100
AcDbEntity
  8
Defpoints
 62
     0
100
AcDbPoint
 10
89.53865172080802
 20
-9.785378025244114
 30
0.0
  0
POINT
  5
169
330
15E
100
AcDbEntity
  8
Defpoints
 62
     0
100
AcDbPoint
 10
109.5498431179747
 20
-9.785378025244116
 30
0.0
  0
ENDBLK
  5
160
330
15E
100
AcDbEntity
  8
0
100
AcDbBlockEnd
  0
BLOCK
  5
231
330
230
100
AcDbEntity
  8
0
100
AcDbBlockBegin
  2
*D8
 70
     1
 10
0.0
 20
0.0
 30
0.0
  3
*D8
  1
*D8
  0
LINE
  5
233
330
230
100
AcDbEntity
  8
치수문자_일반주서
 62
     0
370
    -2
100
AcDbLine
 10
17.37500000000006
 20
22.21250000000001
 30
0.0
 11
17.37500000000007
 21
55.3055514180718
 31
0.0
  0
LINE
  5
234
330
230
100
AcDbEntity
  8
치수문자_일반주서
 62
     0
370
    -2
100
AcDbLine
 10
157.075
 20
20.42650000000002
 30
0.0
 11
157.075
 21
55.3055514180718
 31
0.0
  0
LINE
  5
235
330
230
100
AcDbEntity
  8
치수문자_일반주서
 62
     0
370
    -2
100
AcDbLine
 10
20.67700000000007
 20
55.3055514180718
 30
0.0
 11
153.7730000000001
 21
55.3055514180718
 31
0.0
  0
SOLID
  5
236
330
230
100
AcDbEntity
  8
치수문자_일반주서
 62
     0
100
AcDbTrace
 10
20.67700000000007
 20
55.85588475140514
 30
0.0
 11
20.67700000000007
 21
54.75521808473847
 31
0.0
 12
17.37500000000007
 22
55.3055514180718
 32
0.0
 13
17.37500000000007
 23
55.3055514180718
 33
0.0
  0
SOLID
  5
237
330
230
100
AcDbEntity
  8
치수문자_일반주서
 62
     0
100
AcDbTrace
 10
153.7730000000001
 20
54.75521808473847
 30
0.0
 11
153.7730000000001
 21
55.85588475140514
 31
0.0
 12
157.075
 22
55.3055514180718
 32
0.0
 13
157.075
 23
55.3055514180718
 33
0.0
  0
MTEXT
  5
238
330
230
100
AcDbEntity
  8
치수문자_일반주서
 62
     0
100
AcDbMText
 10
87.22500000000007
 20
59.6805514180718
 30
0.0
 40
3.5
 41
0.0
 71
     2
 72
     1
  1
\A1;139.70 [5.50]
  7
SLDTEXTSTYLE0
 73
     1
 44
1.0
  0
POINT
  5
239
330
230
100
AcDbEntity
  8
Defpoints
 62
     0
100
AcDbPoint
 10
17.37500000000006
 20
22.15000000000001
 30
0.0
  0
POINT
  5
23A
330
230
100
AcDbEntity
  8
Defpoints
 62
     0
100
AcDbPoint
 10
157.075
 20
20.36400000000002
 30
0.0
  0
POINT
  5
23B
330
230
100
AcDbEntity
  8
Defpoints
 62
     0
100
AcDbPoint
 10
157.075
 20
55.3055514180718
 30
0.0
  0
ENDBLK
  5
232
330
230
100
AcDbEntity
  8
0
100
AcDbBlockEnd
  0
BLOCK
  5
23D
330
23C
100
AcDbEntity
  8
0
100
AcDbBlockBegin
  2
*D9
 70
     1
 10
0.0
 20
0.0
 30
0.0
  3
*D9
  1
*D9
  0
LINE
  5
23F
330
23C
100
AcDbEntity
  8
치수문자_일반주서
 62
     0
370
    -2
100
AcDbLine
 10
157.075
 20
20.42650000000002
 30
0.0
 11
157.075
 21
37.99099453033795
 31
0.0
  0
LINE
  5
240
330
23C
100
AcDbEntity
  8
치수문자_일반주서
 62
     0
370
    -2
100
AcDbLine
 10
80.8749999999982
 20
22.44668719122173
 30
0.0
 11
80.8749999999982
 21
37.99099453033795
 31
0.0
  0
LINE
  5
241
330
23C
100
AcDbEntity
  8
치수문자_일반주서
 62
     0
370
    -2
100
AcDbLine
 10
153.7730000000001
 20
37.99099453033795
 30
0.0
 11
84.1769999999982
 21
37.99099453033795
 31
0.0
  0
SOLID
  5
242
330
23C
100
AcDbEntity
  8
치수문자_일반주서
 62
     0
100
AcDbTrace
 10
153.7730000000001
 20
37.44066119700462
 30
0.0
 11
153.7730000000001
 21
38.54132786367128
 31
0.0
 12
157.075
 22
37.99099453033795
 32
0.0
 13
157.075
 23
37.99099453033795
 33
0.0
  0
SOLID
  5
243
330
23C
100
AcDbEntity
  8
치수문자_일반주서
 62
     0
100
AcDbTrace
 10
84.1769999999982
 20
38.54132786367128
 30
0.0
 11
84.1769999999982
 21
37.44066119700462
 31
0.0
 12
80.8749999999982
 22
37.99099453033795
 32
0.0
 13
80.8749999999982
 23
37.99099453033795
 33
0.0
  0
MTEXT
  5
244
330
23C
100
AcDbEntity
  8
치수문자_일반주서
 62
     0
100
AcDbMText
 10
118.1368033957036
 20
42.36599453033795
 30
0.0
 40
3.5
 41
0.0
 71
     2
 72
     1
  1
\A1;76.20 [3.00]
  7
SLDTEXTSTYLE0
 73
     1
 44
1.0
  0
POINT
  5
245
330
23C
100
AcDbEntity
  8
Defpoints
 62
     0
100
AcDbPoint
 10
157.075
 20
20.36400000000002
 30
0.0
  0
POINT
  5
246
330
23C
100
AcDbEntity
  8
Defpoints
 62
     0
100
AcDbPoint
 10
80.8749999999982
 20
22.38418719122173
 30
0.0
  0
POINT
  5
247
330
23C
100
AcDbEntity
  8
Defpoints
 62
     0
100
AcDbPoint
 10
80.8749999999982
 20
37.99099453033795
 30
0.0
  0
ENDBLK
  5
23E
330
23C
100
AcDbEntity
  8
0
100
AcDbBlockEnd
  0
BLOCK
  5
249
330
248
100
AcDbEntity
  8
0
100
AcDbBlockBegin
  2
*D10
 70
     1
 10
0.0
 20
0.0
 30
0.0
  3
*D10
  1
*D10
  0
LINE
  5
24B
330
248
100
AcDbEntity
  8
치수문자_일반주서
 62
     0
370
    -2
100
AcDbLine
 10
17.81250000000006
 20
22.65000000000002
 30
0.0
 11
4.37500000000001
 21
22.64999999999997
 31
0.0
  0
LINE
  5
24C
330
248
100
AcDbEntity
  8
치수문자_일반주서
 62
     0
370
    -2
100
AcDbLine
 10
17.81250000000006
 20
3.600000000000015
 30
0.0
 11
4.375000000000076
 21
3.599999999999966
 31
0.0
  0
LINE
  5
24D
330
248
100
AcDbEntity
  8
치수문자_일반주서
 62
     0
370
    -2
100
AcDbLine
 10
4.375000000000021
 20
19.34799999999997
 30
0.0
 11
4.375000000000065
 21
6.901999999999965
 31
0.0
  0
SOLID
  5
24E
330
248
100
AcDbEntity
  8
치수문자_일반주서
 62
     0
100
AcDbTrace
 10
4.925333333333355
 20
19.34799999999997
 30
0.0
 11
3.824666666666688
 21
19.34799999999996
 31
0.0
 12
4.37500000000001
 22
22.64999999999997
 32
0.0
 13
4.37500000000001
 23
22.64999999999997
 33
0.0
  0
SOLID
  5
24F
330
248
100
AcDbEntity
  8
치수문자_일반주서
 62
     0
100
AcDbTrace
 10
3.824666666666732
 20
6.901999999999964
 30
0.0
 11
4.925333333333398
 21
6.901999999999967
 31
0.0
 12
4.375000000000076
 22
3.599999999999966
 32
0.0
 13
4.375000000000076
 23
3.599999999999966
 33
0.0
  0
MTEXT
  5
250
330
248
100
AcDbEntity
  8
치수문자_일반주서
 62
     0
100
AcDbMText
 10
0.0000000000000426
 20
13.125
 30
0.0
 40
3.5
 41
0.0
 71
     2
 72
     1
  1
\A1;%%c19.05 [0.75]
  7
SLDTEXTSTYLE0
 11
-3.496765431890257E-15
 21
1.0
 31
0.0
 73
     1
 44
1.0
  0
POINT
  5
251
330
248
100
AcDbEntity
  8
Defpoints
 62
     0
100
AcDbPoint
 10
17.87500000000006
 20
22.65000000000002
 30
0.0
  0
POINT
  5
252
330
248
100
AcDbEntity
  8
Defpoints
 62
     0
100
AcDbPoint
 10
17.87500000000006
 20
3.600000000000016
 30
0.0
  0
POINT
  5
253
330
248
100
AcDbEntity
  8
Defpoints
 62
     0
100
AcDbPoint
 10
4.375000000000043
 20
3.599999999999965
 30
0.0
  0
ENDBLK
  5
24A
330
248
100
AcDbEntity
  8
0
100
AcDbBlockEnd
  0
BLOCK
  5
2B0
330
2AF
100
AcDbEntity
  8
0
100
AcDbBlockBegin
  2
*D11
 70
     1
 10
0.0
 20
0.0
 30
0.0
  3
*D11
  1
*D11
  0
LINE
  5
2B2
330
2AF
100
AcDbEntity
  8
치수문자_일반주서
 62
     0
370
    -2
100
AcDbLine
 10
-53.49999999999812
 20
9.087499999999991
 30
0.0
 11
-53.49999999999814
 21
42.18055141807179
 31
0.0
  0
LINE
  5
2B3
330
2AF
100
AcDbEntity
  8
치수문자_일반주서
 62
     0
370
    -2
100
AcDbLine
 10
86.20000000000185
 20
7.301500000000004
 30
0.0
 11
86.20000000000184
 21
42.18055141807179
 31
0.0
  0
LINE
  5
2B4
330
2AF
100
AcDbEntity
  8
치수문자_일반주서
 62
     0
370
    -2
100
AcDbLine
 10
-50.19799999999814
 20
42.18055141807179
 30
0.0
 11
82.89800000000184
 21
42.18055141807179
 31
0.0
  0
SOLID
  5
2B5
330
2AF
100
AcDbEntity
  8
치수문자_일반주서
 62
     0
100
AcDbTrace
 10
-50.19799999999814
 20
42.73088475140512
 30
0.0
 11
-50.19799999999814
 21
41.63021808473845
 31
0.0
 12
-53.49999999999814
 22
42.18055141807179
 32
0.0
 13
-53.49999999999814
 23
42.18055141807179
 33
0.0
  0
SOLID
  5
2B6
330
2AF
100
AcDbEntity
  8
치수문자_일반주서
 62
     0
100
AcDbTrace
 10
82.89800000000184
 20
41.63021808473845
 30
0.0
 11
82.89800000000184
 21
42.73088475140512
 31
0.0
 12
86.20000000000184
 22
42.18055141807179
 32
0.0
 13
86.20000000000184
 23
42.18055141807179
 33
0.0
  0
MTEXT
  5
2B7
330
2AF
100
AcDbEntity
  8
치수문자_일반주서
 62
     0
100
AcDbMText
 10
16.35000000000187
 20
46.55555141807179
 30
0.0
 40
3.5
 41
0.0
 71
     2
 72
     1
  1
\A1;139.70 [5 1/2]
  7
SLDTEXTSTYLE0
 73
     1
 44
1.0
  0
POINT
  5
2B8
330
2AF
100
AcDbEntity
  8
Defpoints
 62
     0
100
AcDbPoint
 10
-53.49999999999812
 20
9.024999999999991
 30
0.0
  0
POINT
  5
2B9
330
2AF
100
AcDbEntity
  8
Defpoints
 62
     0
100
AcDbPoint
 10
86.20000000000185
 20
7.239000000000004
 30
0.0
  0
POINT
  5
2BA
330
2AF
100
AcDbEntity
  8
Defpoints
 62
     0
100
AcDbPoint
 10
86.20000000000185
 20
42.18055141807179
 30
0.0
  0
ENDBLK
  5
2B1
330
2AF
100
AcDbEntity
  8
0
100
AcDbBlockEnd
  0
BLOCK
  5
2BC
330
2BB
100
AcDbEntity
  8
0
100
AcDbBlockBegin
  2
*D12
 70
     1
 10
0.0
 20
0.0
 30
0.0
  3
*D12
  1
*D12
  0
LINE
  5
2BE
330
2BB
100
AcDbEntity
  8
치수문자_일반주서
 62
     0
370
    -2
100
AcDbLine
 10
86.20000000000185
 20
7.301500000000004
 30
0.0
 11
86.20000000000185
 21
24.86599453033794
 31
0.0
  0
LINE
  5
2BF
330
2BB
100
AcDbEntity
  8
치수문자_일반주서
 62
     0
370
    -2
100
AcDbLine
 10
10.00000000000185
 20
-9.199320252409834
 30
0.0
 11
10.00000000000185
 21
24.86599453033794
 31
0.0
  0
LINE
  5
2C0
330
2BB
100
AcDbEntity
  8
치수문자_일반주서
 62
     0
370
    -2
100
AcDbLine
 10
82.89800000000184
 20
24.86599453033794
 30
0.0
 11
13.30200000000185
 21
24.86599453033794
 31
0.0
  0
SOLID
  5
2C1
330
2BB
100
AcDbEntity
  8
치수문자_일반주서
 62
     0
100
AcDbTrace
 10
82.89800000000184
 20
24.31566119700461
 30
0.0
 11
82.89800000000184
 21
25.41632786367128
 31
0.0
 12
86.20000000000185
 22
24.86599453033794
 32
0.0
 13
86.20000000000185
 23
24.86599453033794
 33
0.0
  0
SOLID
  5
2C2
330
2BB
100
AcDbEntity
  8
치수문자_일반주서
 62
     0
100
AcDbTrace
 10
13.30200000000185
 20
25.41632786367128
 30
0.0
 11
13.30200000000185
 21
24.31566119700461
 31
0.0
 12
10.00000000000185
 22
24.86599453033794
 32
0.0
 13
10.00000000000185
 23
24.86599453033794
 33
0.0
  0
MTEXT
  5
2C3
330
2BB
100
AcDbEntity
  8
치수문자_일반주서
 62
     0
100
AcDbMText
 10
47.26180339570537
 20
29.24099453033794
 30
0.0
 40
3.5
 41
0.0
 71
     2
 72
     1
  1
\A1;76.20 [3]
  7
SLDTEXTSTYLE0
 73
     1
 44
1.0
  0
POINT
  5
2C4
330
2BB
100
AcDbEntity
  8
Defpoints
 62
     0
100
AcDbPoint
 10
86.20000000000185
 20
7.239000000000004
 30
0.0
  0
POINT
  5
2C5
330
2BB
100
AcDbEntity
  8
Defpoints
 62
     0
100
AcDbPoint
 10
10.00000000000185
 20
-9.261820252409834
 30
0.0
  0
POINT
  5
2C6
330
2BB
100
AcDbEntity
  8
Defpoints
 62
     0
100
AcDbPoint
 10
10.00000000000185
 20
24.86599453033794
 30
0.0
  0
ENDBLK
  5
2BD
330
2BB
100
AcDbEntity
  8
0
100
AcDbBlockEnd
  0
BLOCK
  5
2C8
330
2C7
100
AcDbEntity
  8
0
100
AcDbBlockBegin
  2
*D13
 70
     1
 10
0.0
 20
0.0
 30
0.0
  3
*D13
  1
*D13
  0
LINE
  5
2CA
330
2C7
100
AcDbEntity
  8
치수문자_일반주서
 62
     0
370
    -2
100
AcDbLine
 10
-53.06249999999812
 20
9.525000000000006
 30
0.0
 11
-66.49999999999818
 21
9.524999999999956
 31
0.0
  0
LINE
  5
2CB
330
2C7
100
AcDbEntity
  8
치수문자_일반주서
 62
     0
370
    -2
100
AcDbLine
 10
-53.06249999999812
 20
-9.524999999999991
 30
0.0
 11
-66.49999999999811
 21
-9.525000000000041
 31
0.0
  0
LINE
  5
2CC
330
2C7
100
AcDbEntity
  8
치수문자_일반주서
 62
     0
370
    -2
100
AcDbLine
 10
-66.49999999999817
 20
6.222999999999956
 30
0.0
 11
-66.49999999999812
 21
-6.223000000000042
 31
0.0
  0
SOLID
  5
2CD
330
2C7
100
AcDbEntity
  8
치수문자_일반주서
 62
     0
100
AcDbTrace
 10
-65.94966666666484
 20
6.222999999999958
 30
0.0
 11
-67.0503333333315
 21
6.222999999999955
 31
0.0
 12
-66.49999999999818
 22
9.524999999999956
 32
0.0
 13
-66.49999999999818
 23
9.524999999999956
 33
0.0
  0
SOLID
  5
2CE
330
2C7
100
AcDbEntity
  8
치수문자_일반주서
 62
     0
100
AcDbTrace
 10
-67.05033333333145
 20
-6.223000000000043
 30
0.0
 11
-65.9496666666648
 21
-6.22300000000004
 31
0.0
 12
-66.49999999999811
 22
-9.525000000000041
 32
0.0
 13
-66.49999999999811
 23
-9.525000000000041
 33
0.0
  0
MTEXT
  5
2CF
330
2C7
100
AcDbEntity
  8
치수문자_일반주서
 62
     0
100
AcDbMText
 10
-70.87499999999815
 20
-0.0000000000000163
 30
0.0
 40
3.5
 41
0.0
 71
     2
 72
     1
  1
\A1;%%c19.05 [3/4]
  7
SLDTEXTSTYLE0
 11
-3.729883127349608E-15
 21
1.0
 31
0.0
 73
     1
 44
1.0
  0
POINT
  5
2D0
330
2C7
100
AcDbEntity
  8
Defpoints
 62
     0
100
AcDbPoint
 10
-52.99999999999812
 20
9.525000000000006
 30
0.0
  0
POINT
  5
2D1
330
2C7
100
AcDbEntity
  8
Defpoints
 62
     0
100
AcDbPoint
 10
-52.99999999999812
 20
-9.524999999999991
 30
0.0
  0
POINT
  5
2D2
330
2C7
100
AcDbEntity
  8
Defpoints
 62
     0
100
AcDbPoint
 10
-66.49999999999811
 20
-9.525000000000041
 30
0.0
  0
ENDBLK
  5
2C9
330
2C7
100
AcDbEntity
  8
0
100
AcDbBlockEnd
  0
BLOCK
  5
2D7
330
2D6
100
AcDbEntity
  8
0
100
AcDbBlockBegin
  2
*D14
 70
     1
 10
0.0
 20
0.0
 30
0.0
  3
*D14
  1
*D14
  0
LINE
  5
2D9
330
2D6
100
AcDbEntity
  8
치수문자_일반주서
 62
     0
370
    -2
100
AcDbLine
 10
83.97650000000185
 20
9.525000000000006
 30
0.0
 11
98.41429054049301
 21
9.525000000000006
 31
0.0
  0
LINE
  5
2DA
330
2D6
100
AcDbEntity
  8
치수문자_일반주서
 62
     0
370
    -2
100
AcDbLine
 10
83.9765000000019
 20
-9.524999999999991
 30
0.0
 11
98.41429054049301
 21
-9.524999999999991
 31
0.0
  0
LINE
  5
2DB
330
2D6
100
AcDbEntity
  8
치수문자_일반주서
 62
     0
370
    -2
100
AcDbLine
 10
98.41429054049301
 20
6.223000000000006
 30
0.0
 11
98.41429054049301
 21
-6.222999999999992
 31
0.0
  0
SOLID
  5
2DC
330
2D6
100
AcDbEntity
  8
치수문자_일반주서
 62
     0
100
AcDbTrace
 10
98.96462387382634
 20
6.223000000000006
 30
0.0
 11
97.86395720715969
 21
6.223000000000006
 31
0.0
 12
98.41429054049301
 22
9.525000000000006
 32
0.0
 13
98.41429054049301
 23
9.525000000000006
 33
0.0
  0
SOLID
  5
2DD
330
2D6
100
AcDbEntity
  8
치수문자_일반주서
 62
     0
100
AcDbTrace
 10
97.86395720715969
 20
-6.222999999999992
 30
0.0
 11
98.96462387382634
 21
-6.222999999999992
 31
0.0
 12
98.41429054049301
 22
-9.524999999999991
 32
0.0
 13
98.41429054049301
 23
-9.524999999999991
 33
0.0
  0
MTEXT
  5
2DE
330
2D6
100
AcDbEntity
  8
치수문자_일반주서
 62
     0
100
AcDbMText
 10
95.78929054049301
 20
0.0000000000000071
 30
0.0
 40
3.5
 41
0.0
 71
     5
 72
     1
  1
\A1;{%%c19.05 [3/4]}
  7
SLDTEXTSTYLE0
 11
0.0
 21
1.0
 31
0.0
 73
     1
 44
1.0
  0
POINT
  5
2DF
330
2D6
100
AcDbEntity
  8
Defpoints
 62
     0
100
AcDbPoint
 10
83.91400000000185
 20
9.525000000000006
 30
0.0
  0
POINT
  5
2E0
330
2D6
100
AcDbEntity
  8
Defpoints
 62
     0
100
AcDbPoint
 10
83.9140000000019
 20
-9.524999999999991
 30
0.0
  0
POINT
  5
2E1
330
2D6
100
AcDbEntity
  8
Defpoints
 62
     0
100
AcDbPoint
 10
98.41429054049301
 20
-9.524999999999991
 30
0.0
  0
ENDBLK
  5
2D8
330
2D6
100
AcDbEntity
  8
0
100
AcDbBlockEnd
  0
BLOCK
  5
2E8
330
2E7
100
AcDbEntity
  8
0
100
AcDbBlockBegin
  2
*D15
 70
     1
 10
0.0
 20
0.0
 30
0.0
  3
*D15
  1
*D15
  0
LINE
  5
2EA
330
2E7
100
AcDbEntity
  8
치수문자_일반주서
 62
     0
370
    -2
100
AcDbLine
 10
87.76752556612725
 20
11.28573753920587
 30
0.0
 11
112.8144908957586
 21
37.58853301916944
 31
0.0
  0
MTEXT
  5
2EB
330
2E7
100
AcDbEntity
  8
치수문자_일반주서
 62
     0
100
AcDbMText
 10
100.2030458368287
 20
28.15127679248513
 30
0.0
 40
3.5
 41
0.0
 71
     5
 72
     1
  1
\A1;R2.29 [R0.090]
  7
SLDTEXTSTYLE0
 11
0.6896072952980309
 21
0.7241835252694819
 31
0.0
 73
     1
 44
1.0
  0
LINE
  5
2EC
330
2E7
100
AcDbEntity
  8
치수문자_일반주서
 62
     0
370
    -2
100
AcDbLine
 10
83.91400000000185
 20
7.239000000000004
 30
0.0
 11
85.49044227705315
 21
8.89448353876604
 31
0.0
  0
SOLID
  5
2ED
330
2E7
100
AcDbEntity
  8
치수문자_일반주서
 62
     0
100
AcDbTrace
 10
87.36898323272061
 20
11.66525142071822
 30
0.0
 11
88.16606789953389
 21
10.90622365769352
 31
0.0
 12
85.49044227705315
 22
8.89448353876604
 32
0.0
 13
85.49044227705315
 23
8.89448353876604
 33
0.0
  0
POINT
  5
2EE
330
2E7
100
AcDbEntity
  8
Defpoints
 62
     0
100
AcDbPoint
 10
85.49044227705315
 20
8.89448353876604
 30
0.0
  0
POINT
  5
2EF
330
2E7
100
AcDbEntity
  8
Defpoints
 62
     0
100
AcDbPoint
 10
83.91400000000185
 20
7.239000000000004
 30
0.0
  0
ENDBLK
  5
2E9
330
2E7
100
AcDbEntity
  8
0
100
AcDbBlockEnd
  0
ENDSEC
  0
SECTION
  2
ENTITIES
  0
INSERT
  5
EA
330
1F
100
AcDbEntity
  8
0
  6
Continuous
 62
     7
100
AcDbBlockReference
 66
     1
  2
블럭10
 10
-10.24270877828551
 20
-52.04717430164393
 30
0.0
  0
ATTRIB
  5
EB
330
EA
100
AcDbEntity
  8
FORMAT
 62
     2
100
AcDbText
 10
-21.29372913046998
 20
-49.97180738881174
 30
0.0
 40
4.233333333333333
  1
GMG22947[ 6 FLUTE ]
 41
0.75
  7
SLDTEXTSTYLE0
 11
-21.29372913046998
 21
-52.08847405547841
 31
0.0
100
AcDbAttribute
  2
AUTOATTR0
 70
     0
 74
     1
  0
SEQEND
  5
EC
330
EA
100
AcDbEntity
  8
0
  6
Continuous
 62
     7
  0
HATCH
  5
ED
330
1F
100
AcDbEntity
  8
중심선
100
AcDbHatch
 10
0.0
 20
0.0
 30
0.0
210
0.0
220
0.0
230
1.0
  2
SOLID
 70
     1
 71
     0
 91
        1
 92
        0
 93
        4
 72
     1
 10
-4.527799473904665
 20
-35.8
 11
-7.974074717741947
 21
-35.8
 72
     1
 10
-7.974074717741947
 20
-35.8
 11
-10.10230457694597
 21
-38.33632558057259
 72
     1
 10
-10.10230457694597
 20
-38.33632558057259
 11
-6.655996247995538
 21
-38.3362861512701
 72
     1
 10
-6.655996247995538
 20
-38.3362861512701
 11
-4.527799473904665
 21
-35.8
 97
        0
 75
     0
 76
     1
 98
        1
 10
0.0
 20
0.0
  0
HATCH
  5
EE
330
1F
100
AcDbEntity
  8
중심선
100
AcDbHatch
 10
0.0
 20
0.0
 30
0.0
210
0.0
220
0.0
230
1.0
  2
SOLID
 70
     1
 71
     0
 91
        1
 92
        0
 93
        4
 72
     1
 10
0.4849645171312866
 20
-35.8
 11
-2.961310726705996
 21
-35.8
 72
     1
 10
-2.961310726705996
 20
-35.8
 11
-7.492448735063384
 21
-41.20000000000002
 72
     1
 10
-7.492448735063384
 20
-41.20000000000002
 11
-4.046173491226101
 21
-41.20000000000002
 72
     1
 10
-4.046173491226101
 20
-41.20000000000002
 11
0.4849645171312869
 21
-35.8
 97
        0
 75
     0
 76
     1
 98
        1
 10
0.0
 20
0.0
  0
HATCH
  5
EF
330
1F
100
AcDbEntity
  8
중심선
100
AcDbHatch
 10
0.0
 20
0.0
 30
0.0
210
0.0
220
0.0
230
1.0
  2
SOLID
 70
     1
 71
     0
 91
        1
 92
        0
 93
        4
 72
     1
 10
5.497728508167183
 20
-35.80000000000003
 11
2.051453264330067
 21
-35.8
 72
     1
 10
2.051453264330067
 20
-35.8
 11
-4.996983637559183
 21
-44.20000000000002
 72
     1
 10
-4.996983637559183
 20
-44.20000000000002
 11
-1.5507083937219
 21
-44.20000000000002
 72
     1
 10
-1.5507083937219
 20
-44.20000000000002
 11
5.497728508167183
 21
-35.80000000000003
 97
        0
 75
     0
 76
     1
 98
        1
 10
0.0
 20
0.0
  0
HATCH
  5
F0
330
1F
100
AcDbEntity
  8
중심선
100
AcDbHatch
 10
0.0
 20
0.0
 30
0.0
210
0.0
220
0.0
230
1.0
  2
SOLID
 70
     1
 71
     0
 91
        1
 92
        0
 93
        6
 72
     3
 10
10.29761893917938
 20
-40.00000000005127
 11
3.960054785062284
 21
1.540850780301639E-10
 40
0.3939339440162633
 50
17.09539180608433
 51
320.0019657685081
 73
     0
 72
     1
 10
11.98061859487998
 20
-38.5878940046383
 11
14.28592046858101
 21
-36.65356729459038
 72
     3
 10
10.29761893912653
 20
-40.00000000000015
 11
6.600054785286829
 21
-1.249000902703301E-13
 40
0.6363583540795982
 50
39.99873849337408
 51
368.4976242363725
 73
     1
 72
     1
 10
16.72295143102714
 20
-39.03999999993002
 11
8.977686245962458
 21
-39.03999999992999
 72
     1
 10
8.977686245962458
 20
-39.03999999992999
 11
8.977661201516524
 21
-40.95999999992991
 72
     1
 10
8.977661201516524
 20
-40.95999999992991
 11
13.41904097098856
 21
-40.95999999992988
 97
        0
 75
     0
 76
     1
 98
        1
 10
0.0
 20
0.0
  0
LINE
  5
255
330
1F
100
AcDbEntity
  8
0
  6
Continuous
 62
     4
370
    15
100
AcDbLine
 10
6.949228128441931
 20
9.525000000000006
 30
0.0
 11
-52.99999999999812
 21
9.525000000000006
 31
0.0
  0
LINE
  5
256
330
1F
100
AcDbEntity
  8
0
  6
Continuous
 62
     4
370
    15
100
AcDbLine
 10
-52.99999999999812
 20
-9.524999999999991
 30
0.0
 11
6.950421420954697
 21
-9.524999999999991
 31
0.0
  0
LINE
  5
257
330
1F
100
AcDbEntity
  8
0
  6
Continuous
 62
     4
370
    15
100
AcDbLine
 10
-52.99999999999812
 20
9.524999999999991
 30
0.0
 11
-53.49999999999812
 21
9.024999999999991
 31
0.0
  0
LINE
  5
258
330
1F
100
AcDbEntity
  8
0
  6
Continuous
 62
     4
370
    15
100
AcDbLine
 10
-53.49999999999812
 20
-9.024999999999991
 30
0.0
 11
-52.99999999999812
 21
-9.524999999999991
 31
0.0
  0
LINE
  5
259
330
1F
100
AcDbEntity
  8
0
  6
Continuous
 62
     1
370
    15
100
AcDbLine
 10
6.950275131097627
 20
-9.525365448042194
 30
0.0
 11
6.950275079017288
 21
-9.524953985438586
 31
0.0
  0
LINE
  5
25A
330
1F
100
AcDbEntity
  8
0
  6
Continuous
 62
     1
370
    15
100
AcDbLine
 10
6.950275079017288
 20
9.524953985445336
 30
0.0
 11
6.950275131097612
 21
9.525365448042436
 31
0.0
  0
LINE
  5
25B
330
1F
100
AcDbEntity
  8
0
  6
Continuous
 62
     1
370
    15
100
AcDbLine
 10
52.15476788535851
 20
-9.524999999999991
 30
0.0
 11
55.41004950403203
 21
-9.524999999999991
 31
0.0
  0
LINE
  5
25C
330
1F
100
AcDbEntity
  8
0
  6
Continuous
 62
     1
370
    15
100
AcDbLine
 10
25.48646514904833
 20
9.525000000000006
 30
0.0
 11
22.23103045086427
 21
9.525000000000006
 31
0.0
  0
LINE
  5
25D
330
1F
100
AcDbEntity
  8
0
  6
Continuous
 62
     1
370
    15
100
AcDbLine
 10
83.91400000000185
 20
9.525000000000006
 30
0.0
 11
82.07756408269348
 21
9.525000000000006
 31
0.0
  0
LINE
  5
25E
330
1F
100
AcDbEntity
  8
0
  6
Continuous
 62
     1
370
    15
100
AcDbLine
 10
42.17919790973484
 20
-9.524999999999991
 30
0.0
 11
45.43655516526297
 21
-9.524999999999991
 31
0.0
  0
LINE
  5
25F
330
1F
100
AcDbEntity
  8
0
  6
Continuous
 62
     1
370
    15
100
AcDbLine
 10
15.51304749745772
 20
9.525000000000006
 30
0.0
 11
12.25535089107485
 21
9.525000000000006
 31
0.0
  0
LINE
  5
260
330
1F
100
AcDbEntity
  8
0
  6
Continuous
 62
     1
370
    15
100
AcDbLine
 10
75.35996420012542
 20
9.525000000000006
 30
0.0
 11
72.10360963342391
 21
9.525000000000006
 31
0.0
  0
LINE
  5
261
330
1F
100
AcDbEntity
  8
0
  6
Continuous
 62
     1
370
    15
100
AcDbLine
 10
72.10360963342383
 20
-9.524999999999991
 30
0.0
 11
75.35996420012545
 21
-9.524999999999991
 31
0.0
  0
LINE
  5
262
330
1F
100
AcDbEntity
  8
0
  6
Continuous
 62
     1
370
    15
100
AcDbLine
 10
12.25535089107483
 20
-9.524999999999991
 30
0.0
 11
15.51304749745772
 21
-9.524999999999991
 31
0.0
  0
LINE
  5
263
330
1F
100
AcDbEntity
  8
0
  6
Continuous
 62
     1
370
    15
100
AcDbLine
 10
45.43655516526297
 20
9.525000000000006
 30
0.0
 11
42.17919790973475
 21
9.525000000000006
 31
0.0
  0
LINE
  5
264
330
1F
100
AcDbEntity
  8
0
  6
Continuous
 62
     1
370
    15
100
AcDbLine
 10
62.12820047452981
 20
-9.524999999999991
 30
0.0
 11
65.3858662109702
 21
-9.524999999999991
 31
0.0
  0
LINE
  5
265
330
1F
100
AcDbEntity
  8
0
  6
Continuous
 62
     1
370
    15
100
AcDbLine
 10
35.46143891996353
 20
9.525000000000006
 30
0.0
 11
32.20471020684592
 21
9.525000000000006
 31
0.0
  0
LINE
  5
266
330
1F
100
AcDbEntity
  8
0
  6
Continuous
 62
     1
370
    15
100
AcDbLine
 10
32.204710206846
 20
-9.524999999999991
 30
0.0
 11
35.46143891996361
 21
-9.524999999999991
 31
0.0
  0
LINE
  5
267
330
1F
100
AcDbEntity
  8
0
  6
Continuous
 62
     1
370
    15
100
AcDbLine
 10
65.38586621097026
 20
9.525000000000006
 30
0.0
 11
62.12820047452986
 21
9.525000000000006
 31
0.0
  0
LINE
  5
268
330
1F
100
AcDbEntity
  8
0
  6
Continuous
 62
     1
370
    15
100
AcDbLine
 10
82.07756408269351
 20
-9.524999999999991
 30
0.0
 11
83.91400000000185
 21
-9.524999999999991
 31
0.0
  0
LINE
  5
269
330
1F
100
AcDbEntity
  8
0
  6
Continuous
 62
     1
370
    15
100
AcDbLine
 10
22.23103045086424
 20
-9.524999999999991
 30
0.0
 11
25.48646514904839
 21
-9.524999999999991
 31
0.0
  0
LINE
  5
26A
330
1F
100
AcDbEntity
  8
0
  6
Continuous
 62
     1
370
    15
100
AcDbLine
 10
55.41004950403207
 20
9.525000000000006
 30
0.0
 11
52.15476788535851
 21
9.525000000000006
 31
0.0
  0
ARC
  5
26B
102
{ACAD_REACTORS
102
}
330
1F
100
AcDbEntity
  8
0
  6
Continuous
 62
     1
370
    15
100
AcDbCircle
 10
83.91400000000185
 20
-7.23899999999999
 30
0.0
 40
2.286000000000001
100
AcDbArc
 50
270.0000000000014
 51
0.0
  0
ARC
  5
26C
102
{ACAD_REACTORS
102
}
330
1F
100
AcDbEntity
  8
0
  6
Continuous
 62
     1
370
    15
100
AcDbCircle
 10
83.91400000000185
 20
7.239000000000004
 30
0.0
 40
2.286000000000001
100
AcDbArc
 50
0.0
 51
90.0
  0
SPLINE
  5
26D
330
1F
100
AcDbEntity
  8
0
  6
Continuous
 62
     4
370
    15
100
AcDbSpline
210
0.0
220
0.0
230
1.0
 70
     8
 71
     3
 72
    11
 73
     7
 74
     0
 42
0.000000001
 43
0.00000001
 40
0.0
 40
0.0
 40
0.0
 40
0.0
 40
0.2615835083871452
 40
0.5182017864399648
 40
0.7734535223020791
 40
1.0
 40
1.0
 40
1.0
 40
1.0
 10
7.80734373213015
 20
9.244665192378605
 30
0.0
 10
7.986185856599562
 20
9.218183438830835
 30
0.0
 10
8.340475425396093
 20
9.165722593416191
 30
0.0
 10
8.960107042405227
 20
9.148326187926301
 30
0.0
 10
9.539865868493578
 20
9.183821789049617
 30
0.0
 10
9.852837512517496
 20
9.236874378800337
 30
0.0
 10
10.00000000000172
 20
9.26182025240989
 30
0.0
  0
SPLINE
  5
26E
330
1F
100
AcDbEntity
  8
0
  6
Continuous
 62
     4
370
    15
100
AcDbSpline
210
0.0
220
0.0
230
1.0
 70
     8
 71
     3
 72
    14
 73
    10
 74
     0
 42
0.000000001
 43
0.00000001
 40
0.0
 40
0.0
 40
0.0
 40
0.0
 40
0.25
 40
0.25
 40
0.5
 40
0.5
 40
0.75
 40
0.75
 40
1.0
 40
1.0
 40
1.0
 40
1.0
 10
7.582539934771404
 20
9.306273344373338
 30
0.0
 10
7.448920714007869
 20
9.334740826548554
 30
0.0
 10
7.339019290755715
 20
9.363971134836405
 30
0.0
 10
7.160804897093854
 20
9.418891459968677
 30
0.0
 10
7.094381500780941
 20
9.44413812607361
 30
0.0
 10
7.002609089298403
 20
9.484891668669306
 30
0.0
 10
6.976559922718522
 20
9.500720049270072
 30
0.0
 10
6.950424188100399
 20
9.52103768303094
 30
0.0
 10
6.950275078689018
 20
9.525746114652534
 30
0.0
 10
6.950275078689018
 20
9.524903993715057
 30
0.0
  0
SPLINE
  5
26F
330
1F
100
AcDbEntity
  8
0
  6
Continuous
 62
     4
370
    15
100
AcDbSpline
210
0.0
220
0.0
230
1.0
 70
     8
 71
     3
 72
    10
 73
     6
 74
     0
 42
0.000000001
 43
0.00000001
 40
0.0
 40
0.0
 40
0.0
 40
0.0
 40
0.5
 40
0.5
 40
1.0
 40
1.0
 40
1.0
 40
1.0
 10
10.00000000000186
 20
8.498678242173796
 30
0.0
 10
9.596226948794637
 20
8.680720280204895
 30
0.0
 10
9.196557681009736
 20
8.839368429189065
 30
0.0
 10
8.390789251268941
 20
9.10934873743112
 30
0.0
 10
7.985451479446084
 20
9.220433319632349
 30
0.0
 10
7.58253993477139
 20
9.306273344373366
 30
0.0
  0
SPLINE
  5
270
330
1F
100
AcDbEntity
  8
0
  6
Continuous
 62
     4
370
    15
100
AcDbSpline
210
0.0
220
0.0
230
1.0
 70
     8
 71
     3
 72
    24
 73
    20
 74
     0
 42
0.000000001
 43
0.00000001
 40
0.0
 40
0.0
 40
0.0
 40
0.0
 40
0.1249999999999998
 40
0.1249999999999998
 40
0.2499999999999998
 40
0.2499999999999998
 40
0.3749999999999999
 40
0.3749999999999999
 40
0.5
 40
0.5
 40
0.625
 40
0.625
 40
0.6875
 40
0.6875
 40
0.75
 40
0.75
 40
0.875
 40
0.875
 40
1.0
 40
1.0
 40
1.0
 40
1.0
 10
6.950275078689018
 20
4.799488234291957
 30
0.0
 10
6.950275078689018
 20
4.975596677982963
 30
0.0
 10
6.950694515015087
 20
5.148021489012336
 30
0.0
 10
6.98405748900997
 20
5.48323617699495
 30
0.0
 10
7.016748230469062
 20
5.647393396458611
 30
0.0
 10
7.133193204316711
 20
5.959098688434807
 30
0.0
 10
7.215002568319804
 20
6.103032466089431
 30
0.0
 10
7.437937731329839
 20
6.365430604680952
 30
0.0
 10
7.5728510683835
 20
6.476883870984082
 30
0.0
 10
7.892670435918461
 20
6.662514621969763
 30
0.0
 10
8.072846727560204
 20
6.733268283705982
 30
0.0
 10
8.362873703350289
 20
6.804336355101384
 30
0.0
 10
8.46340801886845
 20
6.822194343218527
 30
0.0
 10
8.664467208518971
 20
6.845329814518237
 30
0.0
 10
8.76596004584934
 20
6.850880379688434
 30
0.0
 10
9.07337858976338
 20
6.849308088087682
 30
0.0
 10
9.276585059400361
 20
6.823905759054
 30
0.0
 10
9.661861980220678
 20
6.724903602028988
 30
0.0
 10
9.84097005678268
 20
6.652067619076902
 30
0.0
 10
10.00000000000172
 20
6.556587399020273
 30
0.0
  0
SPLINE
  5
271
330
1F
100
AcDbEntity
  8
0
  6
Continuous
 62
     4
370
    15
100
AcDbSpline
210
0.0
220
0.0
230
1.0
 70
     8
 71
     3
 72
    14
 73
    10
 74
     0
 42
0.000000001
 43
0.00000001
 40
0.0
 40
0.0
 40
0.0
 40
0.0
 40
0.2500000000000006
 40
0.2500000000000006
 40
0.5000000000000011
 40
0.5000000000000011
 40
0.7500000000000006
 40
0.7500000000000006
 40
1.0
 40
1.0
 40
1.0
 40
1.0
 10
7.582539934771404
 20
2.895531460583513
 30
0.0
 10
7.448920714007869
 20
3.022813698910269
 30
0.0
 10
7.339019290755715
 20
3.164896396624385
 30
0.0
 10
7.160804897093854
 20
3.473367713970177
 30
0.0
 10
7.094381500780941
 20
3.638091187245223
 30
0.0
 10
7.002609089298403
 20
3.970151027489962
 30
0.0
 10
6.976559922718522
 20
4.139965580474566
 30
0.0
 10
6.950424188100399
 20
4.472901826820433
 30
0.0
 10
6.950275078689003
 20
4.637478086107066
 30
0.0
 10
6.950275078689003
 20
4.799488234291459
 30
0.0
  0
SPLINE
  5
272
330
1F
100
AcDbEntity
  8
0
  6
Continuous
 62
     4
370
    15
100
AcDbSpline
210
0.0
220
0.0
230
1.0
 70
     8
 71
     3
 72
    10
 73
     6
 74
     0
 42
0.000000001
 43
0.00000001
 40
0.0
 40
0.0
 40
0.0
 40
0.0
 40
0.5
 40
0.5
 40
1.0
 40
1.0
 40
1.0
 40
1.0
 10
10.00000000000186
 20
0.5246149900938804
 30
0.0
 10
9.596226948794637
 20
0.9271590884099652
 30
0.0
 10
9.196557681009736
 20
1.326932154952075
 30
0.0
 10
8.390789251268941
 20
2.119358135137787
 30
0.0
 10
7.985451479446084
 20
2.511728269988254
 30
0.0
 10
7.58253993477139
 20
2.895531460583513
 30
0.0
  0
SPLINE
  5
273
330
1F
100
AcDbEntity
  8
0
  6
Continuous
 62
     4
370
    15
100
AcDbSpline
210
0.0
220
0.0
230
1.0
 70
     8
 71
     3
 72
    24
 73
    20
 74
     0
 42
0.000000001
 43
0.00000001
 40
0.0
 40
0.0
 40
0.0
 40
0.0
 40
0.125
 40
0.125
 40
0.25
 40
0.25
 40
0.375
 40
0.375
 40
0.5
 40
0.5
 40
0.625
 40
0.625
 40
0.6875
 40
0.6875
 40
0.75
 40
0.75
 40
0.875
 40
0.875
 40
1.0
 40
1.0
 40
1.0
 40
1.0
 10
6.950275078689018
 20
-4.725415759424223
 30
0.0
 10
6.950275078689018
 20
-4.548391912535592
 30
0.0
 10
6.950694515015087
 20
-4.368483321104421
 30
0.0
 10
6.98405748900997
 20
-4.005633838028487
 30
0.0
 10
7.016748230469062
 20
-3.82110590873441
 30
0.0
 10
7.133193204316697
 20
-3.457845154522431
 30
0.0
 10
7.215002568319804
 20
-3.283430475735855
 30
0.0
 10
7.437937731329839
 20
-2.955507052498049
 30
0.0
 10
7.5728510683835
 20
-2.81085753593733
 30
0.0
 10
7.892670435918461
 20
-2.564903879800653
 30
0.0
 10
8.072846727560204
 20
-2.468171403871523
 30
0.0
 10
8.362873703350289
 20
-2.370251346393147
 30
0.0
 10
8.46340801886845
 20
-2.345435971188266
 30
0.0
 10
8.664467208518971
 20
-2.313232613134645
 30
0.0
 10
8.76596004584934
 20
-2.305467041488058
 30
0.0
 10
9.07337858976338
 20
-2.307662633599136
 30
0.0
 10
9.276585059400361
 20
-2.343363824082473
 30
0.0
 10
9.661861980220678
 20
-2.479610452397992
 30
0.0
 10
9.84097005678268
 20
-2.579024251309249
 30
0.0
 10
10.00000000000172
 20
-2.705232853389575
 30
0.0
  0
SPLINE
  5
274
330
1F
100
AcDbEntity
  8
0
  6
Continuous
 62
     4
370
    15
100
AcDbSpline
210
0.0
220
0.0
230
1.0
 70
     8
 71
     3
 72
    14
 73
    10
 74
     0
 42
0.000000001
 43
0.00000001
 40
0.0
 40
0.0
 40
0.0
 40
0.0
 40
0.25
 40
0.25
 40
0.5
 40
0.5
 40
0.75
 40
0.75
 40
1.0
 40
1.0
 40
1.0
 40
1.0
 10
7.582539934771404
 20
-6.410741883789782
 30
0.0
 10
7.448920714007883
 20
-6.311927127638214
 30
0.0
 10
7.339019290755715
 20
-6.199074738211962
 30
0.0
 10
7.160804897093854
 20
-5.945523745998472
 30
0.0
 10
7.094381500780941
 20
-5.806046938828345
 30
0.0
 10
7.002609089298403
 20
-5.514740641179301
 30
0.0
 10
6.976559922718522
 20
-5.360754468795434
 30
0.0
 10
6.950424188100399
 20
-5.048135856210465
 30
0.0
 10
6.950275078689018
 20
-4.888268028545397
 30
0.0
 10
6.950275078689018
 20
-4.725415759423541
 30
0.0
  0
SPLINE
  5
275
330
1F
100
AcDbEntity
  8
0
  6
Continuous
 62
     4
370
    15
100
AcDbSpline
210
0.0
220
0.0
230
1.0
 70
     8
 71
     3
 72
    10
 73
     6
 74
     0
 42
0.000000001
 43
0.00000001
 40
0.0
 40
0.0
 40
0.0
 40
0.0
 40
0.5
 40
0.5
 40
1.0
 40
1.0
 40
1.0
 40
1.0
 10
10.00000000000186
 20
-7.974063252079858
 30
0.0
 10
9.596226948794637
 20
-7.753561191794873
 30
0.0
 10
9.196557681009736
 20
-7.512436274236947
 30
0.0
 10
8.390789251268941
 20
-6.989990602293275
 30
0.0
 10
7.985451479446084
 20
-6.708705049644053
 30
0.0
 10
7.58253993477139
 20
-6.410741883789811
 30
0.0
  0
SPLINE
  5
276
330
1F
100
AcDbEntity
  8
0
  6
Continuous
 62
     4
370
    15
100
AcDbSpline
210
0.0
220
0.0
230
1.0
 70
     8
 71
     3
 72
    24
 73
    20
 74
     0
 42
0.000000001
 43
0.00000001
 40
0.0
 40
0.0
 40
0.0
 40
0.0
 40
0.125
 40
0.125
 40
0.2499999999999999
 40
0.2499999999999999
 40
0.375
 40
0.375
 40
0.5000000000000001
 40
0.5000000000000001
 40
0.6250000000000001
 40
0.6250000000000001
 40
0.6875000000000001
 40
0.6875000000000001
 40
0.75
 40
0.75
 40
0.875
 40
0.875
 40
1.0
 40
1.0
 40
1.0
 40
1.0
 10
6.950275078689018
 20
-9.524903993716222
 30
0.0
 10
6.950275078689018
 20
-9.523988590518613
 30
0.0
 10
6.950694515015087
 20
-9.516504810116814
 30
0.0
 10
6.98405748900997
 20
-9.488870015023465
 30
0.0
 10
7.016748230469062
 20
-9.468499305193049
 30
0.0
 10
7.133193204316697
 20
-9.41694384295728
 30
0.0
 10
7.21500256831979
 20
-9.386462941825343
 30
0.0
 10
7.437937731329839
 20
-9.320937657179044
 30
0.0
 10
7.5728510683835
 20
-9.287741406921455
 30
0.0
 10
7.892670435918461
 20
-9.227418501770458
 30
0.0
 10
8.072846727560204
 20
-9.201439687577547
 30
0.0
 10
8.362873703350289
 20
-9.174587701494588
 30
0.0
 10
8.46340801886845
 20
-9.16763031440685
 30
0.0
 10
8.664467208518971
 20
-9.158562427652939
 30
0.0
 10
8.76596004584934
 20
-9.156347421176534
 30
0.0
 10
9.07337858976338
 20
-9.156970721686875
 30
0.0
 10
9.276585059400361
 20
-9.167269583136502
 30
0.0
 10
9.661861980220678
 20
-9.204514054427037
 30
0.0
 10
9.84097005678268
 20
-9.231091870386209
 30
0.0
 10
10.00000000000172
 20
-9.26182025240989
 30
0.0
  0
LINE
  5
277
330
1F
100
AcDbEntity
  8
0
  6
Continuous
 62
     1
370
    15
100
AcDbLine
 10
7.807343732129922
 20
-9.244665192378662
 30
0.0
 11
7.58253993477139
 21
-9.306273344373338
 31
0.0
  0
LINE
  5
278
330
1F
100
AcDbEntity
  8
0
  6
Continuous
 62
     4
370
    15
100
AcDbLine
 10
-52.99999999999812
 20
9.524999999999991
 30
0.0
 11
-52.99999999999812
 21
-9.524999999999991
 31
0.0
  0
LINE
  5
279
330
1F
100
AcDbEntity
  8
0
  6
Continuous
 62
     1
370
    15
100
AcDbLine
 10
10.00000000000186
 20
-7.974063252079858
 30
0.0
 11
10.00000000000185
 21
-9.261820252409834
 31
0.0
  0
LINE
  5
27A
330
1F
100
AcDbEntity
  8
0
  6
Continuous
 62
     1
370
    15
100
AcDbLine
 10
10.00000000000186
 20
0.5246149900938804
 30
0.0
 11
10.00000000000185
 21
-2.705232853389262
 31
0.0
  0
LINE
  5
27B
330
1F
100
AcDbEntity
  8
0
  6
Continuous
 62
     1
370
    15
100
AcDbLine
 10
10.00000000000186
 20
8.498678242173796
 30
0.0
 11
10.00000000000185
 21
6.556587399020515
 31
0.0
  0
LINE
  5
27C
330
1F
100
AcDbEntity
  8
0
  6
Continuous
 62
     4
370
    15
100
AcDbLine
 10
-53.49999999999812
 20
9.024999999999991
 30
0.0
 11
-53.49999999999812
 21
-9.024999999999991
 31
0.0
  0
SPLINE
  5
27D
330
1F
100
AcDbEntity
  8
0
  6
Continuous
 62
     1
370
    15
100
AcDbSpline
210
0.0
220
0.0
230
1.0
 70
    24
 71
     3
 72
    16
 73
    12
 74
     0
 42
0.000000001
 43
0.00000001
 40
0.0
 40
0.0
 40
0.0
 40
0.0
 40
0.2500000000000003
 40
0.2500000000000003
 40
0.5000000000000006
 40
0.5000000000000006
 40
0.7500000000000007
 40
0.7500000000000007
 40
0.8750000000000003
 40
0.8750000000000003
 40
1.0
 40
1.0
 40
1.0
 40
1.0
 10
10.00000000000186
 20
5.902843729431467
 30
0.0
 10
10.00000000000186
 20
5.525303461207528
 30
0.0
 10
10.00000000000186
 20
5.09750843521573
 30
0.0
 10
10.00000000000186
 20
4.157522360266114
 30
0.0
 10
10.00000000000186
 20
3.644368822044129
 30
0.0
 10
10.00000000000186
 20
2.607607258301556
 30
0.0
 10
10.00000000000186
 20
2.085083121140542
 30
0.0
 10
10.00000000000186
 20
1.399172833738319
 30
0.0
 10
10.00000000000186
 20
1.187263627020513
 30
0.0
 10
10.00000000000186
 20
0.8143980198595955
 30
0.0
 10
10.00000000000186
 20
0.653569898320697
 30
0.0
 10
10.00000000000186
 20
0.5246149900938804
 30
0.0
  0
SPLINE
  5
27F
330
1F
100
AcDbEntity
  8
0
  6
Continuous
 62
     1
370
    15
100
AcDbSpline
210
0.0
220
0.0
230
1.0
 70
    24
 71
     3
 72
     8
 73
     4
 74
     0
 42
0.000000001
 43
0.00000001
 40
0.0
 40
0.0
 40
0.0
 40
0.0
 40
1.0
 40
1.0
 40
1.0
 40
1.0
 10
10.00000000000185
 20
-2.70523285338929
 30
0.0
 10
10.00000000000185
 20
-2.737977879516592
 30
0.0
 10
10.00000000000185
 20
-2.788518216333316
 30
0.0
 10
10.00000000000185
 20
-2.859084326260529
 30
0.0
  0
SPLINE
  5
280
330
1F
100
AcDbEntity
  8
0
  6
Continuous
 62
     1
370
    15
100
AcDbSpline
210
0.0
220
0.0
230
1.0
 70
    24
 71
     3
 72
     8
 73
     4
 74
     0
 42
0.000000001
 43
0.00000001
 40
0.0
 40
0.0
 40
0.0
 40
0.0
 40
1.0
 40
1.0
 40
1.0
 40
1.0
 10
10.00000000000185
 20
6.556587399020586
 30
0.0
 10
10.00000000000185
 20
6.344233677866242
 30
0.0
 10
10.00000000000185
 20
6.126542135331363
 30
0.0
 10
10.00000000000185
 20
5.902843729431126
 30
0.0
  0
SPLINE
  5
281
330
1F
100
AcDbEntity
  8
0
  6
Continuous
 62
     1
370
    15
100
AcDbSpline
210
0.0
220
0.0
230
1.0
 70
    24
 71
     3
 72
    16
 73
    12
 74
     0
 42
0.000000001
 43
0.00000001
 40
0.0
 40
0.0
 40
0.0
 40
0.0
 40
0.25
 40
0.25
 40
0.5
 40
0.5
 40
0.75
 40
0.75
 40
0.875
 40
0.875
 40
1.0
 40
1.0
 40
1.0
 40
1.0
 10
10.00000000000186
 20
-2.85908432626043
 30
0.0
 10
10.00000000000186
 20
-2.978180159608499
 30
0.0
 10
10.00000000000186
 20
-3.154246405353021
 30
0.0
 10
10.00000000000186
 20
-3.672653025539162
 30
0.0
 10
10.00000000000186
 20
-4.016741244345141
 30
0.0
 10
10.00000000000186
 20
-4.897929303248887
 30
0.0
 10
10.00000000000186
 20
-5.436781628447946
 30
0.0
 10
10.00000000000186
 20
-6.344796714628686
 30
0.0
 10
10.00000000000186
 20
-6.663182257116844
 30
0.0
 10
10.00000000000186
 20
-7.313749181275327
 30
0.0
 10
10.00000000000186
 20
-7.645804666496318
 30
0.0
 10
10.00000000000186
 20
-7.974063252079858
 30
0.0
  0
LINE
  5
282
330
1F
100
AcDbEntity
  8
0
  6
Continuous
 62
     4
370
    15
100
AcDbLine
 10
10.00000000000186
 20
8.761928055691968
 30
0.0
 11
10.00000000000186
 21
8.59583793207257
 31
0.0
  0
SPLINE
  5
283
330
1F
100
AcDbEntity
  8
0
  6
Continuous
 62
     1
370
    15
100
AcDbSpline
210
0.0
220
0.0
230
1.0
 70
    24
 71
     3
 72
     8
 73
     4
 74
     0
 42
0.000000001
 43
0.00000001
 40
0.0
 40
0.0
 40
0.0
 40
0.0
 40
1.0
 40
1.0
 40
1.0
 40
1.0
 10
10.00000000000185
 20
9.261820252409919
 30
0.0
 10
10.00000000000185
 20
9.082211557382877
 30
0.0
 10
10.00000000000185
 20
8.915060351664735
 30
0.0
 10
10.00000000000185
 20
8.761928055691726
 30
0.0
  0
SPLINE
  5
284
330
1F
100
AcDbEntity
  8
0
  6
Continuous
 62
     1
370
    15
100
AcDbSpline
210
0.0
220
0.0
230
1.0
 70
     8
 71
     3
 72
    28
 73
    24
 74
     0
 42
0.000000001
 43
0.00000001
 40
0.0
 40
0.0
 40
0.0
 40
0.0
 40
0.0212184843390215
 40
0.0708006295895965
 40
0.1204214368520087
 40
0.1700632184259243
 40
0.2196551878746331
 40
0.2692325669557592
 40
0.3188335708038421
 40
0.3684813878016596
 40
0.4180896163189656
 40
0.4676681894578056
 40
0.5172553090345926
 40
0.5668890245829779
 40
0.6165194187676776
 40
0.6661051441125326
 40
0.7156843226942655
 40
0.7652951495769917
 40
0.8149422551708602
 40
0.8645410784232621
 40
0.9141182731042587
 40
0.9637120564052712
 40
0.9999999999999999
 40
0.9999999999999999
 40
0.9999999999999999
 40
0.9999999999999999
 10
68.74448112570603
 20
-8.906008909548305
 30
0.0
 10
68.50913040720029
 20
-8.995048226143965
 30
0.0
 10
67.72382553912708
 20
-9.292149544620727
 30
0.0
 10
66.38830464811092
 20
-9.51004198650294
 30
0.0
 10
64.73668239619668
 20
-9.553228401589521
 30
0.0
 10
63.08430107598285
 20
-9.294392883895611
 30
0.0
 10
61.43378607049503
 20
-8.761042999789098
 30
0.0
 10
59.7838073658644
 20
-7.964070941185426
 30
0.0
 10
58.13294964513749
 20
-6.92846154626956
 30
0.0
 10
56.48033960875235
 20
-5.685879520254744
 30
0.0
 10
54.82920778424709
 20
-4.272183149787153
 30
0.0
 10
53.17919061904639
 20
-2.730606832014971
 30
0.0
 10
51.52886219484365
 20
-1.106946388340958
 30
0.0
 10
49.87677578285646
 20
0.5493018847341631
 30
0.0
 10
48.22481262506432
 20
2.189179479270734
 30
0.0
 10
46.57453759488202
 20
3.763908713649201
 30
0.0
 10
44.92450095069485
 20
5.225591607561043
 30
0.0
 10
43.27327063767969
 20
6.530944130031628
 30
0.0
 10
41.62068716281371
 20
7.639252939465862
 30
0.0
 10
39.96991210690256
 20
8.521905917802641
 30
0.0
 10
38.31993999264297
 20
9.139092226388854
 30
0.0
 10
36.81748978307476
 20
9.485009669391559
 30
0.0
 10
35.86422544655896
 20
9.493345178258565
 30
0.0
 10
35.46143891996354
 20
9.496867213580074
 30
0.0
  0
SPLINE
  5
285
330
1F
100
AcDbEntity
  8
0
  6
Continuous
 62
     1
370
    15
100
AcDbSpline
210
0.0
220
0.0
230
1.0
 70
     8
 71
     3
 72
     9
 73
     5
 74
     0
 42
0.000000001
 43
0.00000001
 40
0.0
 40
0.0
 40
0.0
 40
0.0
 40
0.7597894211530546
 40
1.0
 40
1.0
 40
1.0
 40
1.0
 10
9.999999999999645
 20
-9.259187191221812
 30
0.0
 10
10.57105722982745
 20
-9.38153039465557
 30
0.0
 10
11.32265657292065
 20
-9.54255290961514
 30
0.0
 10
12.07470169659742
 20
-9.501543691970781
 30
0.0
 10
12.25535089107483
 20
-9.49169284406237
 30
0.0
  0
SPLINE
  5
286
330
1F
100
AcDbEntity
  8
0
  6
Continuous
 62
     1
370
    15
100
AcDbSpline
210
0.0
220
0.0
230
1.0
 70
     8
 71
     3
 72
    28
 73
    24
 74
     0
 42
0.000000001
 43
0.00000001
 40
0.0
 40
0.0
 40
0.0
 40
0.0
 40
0.0345043058619902
 40
0.084105022308561
 40
0.1337540229395418
 40
0.183366743474617
 40
0.2329478145006792
 40
0.2825354325397543
 40
0.3321677211236896
 40
0.3818033311980877
 40
0.4313923435223121
 40
0.4809728090823713
 40
0.5305829311528459
 40
0.5802326432149302
 40
0.6298355403404153
 40
0.6794148117971831
 40
0.72900867417845
 40
0.7786523505862597
 40
0.8282750518819735
 40
0.8778590896901154
 40
0.927442627451188
 40
0.9770638341808433
 40
1.0
 40
1.0
 40
1.0
 40
1.0
 10
38.82167497242283
 20
8.910472229675747
 30
0.0
 10
39.20434667585026
 20
9.041511368748488
 30
0.0
 10
40.13711756776016
 20
9.36092222022566
 30
0.0
 10
41.62068733651044
 20
9.550199877915603
 30
0.0
 10
43.27327059115541
 20
9.5115793035976
 30
0.0
 10
44.9245009631487
 20
9.177945443502082
 30
0.0
 10
46.57453759154376
 20
8.571875689584985
 30
0.0
 10
48.22481262596627
 20
7.708070961225388
 30
0.0
 10
49.87677578259037
 20
6.613693797874632
 30
0.0
 10
51.52886219500557
 20
5.321184090112794
 30
0.0
 10
53.17919061866515
 20
3.868702474460406
 30
0.0
 10
54.82920778561054
 20
2.300475812220512
 30
0.0
 10
56.48033960367485
 20
0.6630700182508633
 30
0.0
 10
58.13294966409164
 20
-0.9932483833065646
 30
0.0
 10
59.78380729521807
 20
-2.62083679963844
 30
0.0
 10
61.43378633405113
 20
-4.169545248972796
 30
0.0
 10
63.08430009162059
 20
-5.593502309025084
 30
0.0
 10
64.7366860733067
 20
-6.849411850033576
 30
0.0
 10
66.38829093638803
 20
-7.899346859878889
 30
0.0
 10
68.03843522901165
 20
-8.716833613494614
 30
0.0
 10
69.68854501324687
 20
-9.257086293163255
 30
0.0
 10
71.04379134906536
 20
-9.52156249125035
 30
0.0
 10
71.84905662048014
 20
-9.497147041274602
 30
0.0
 10
72.10360963342386
 20
-9.489429054948445
 30
0.0
  0
SPLINE
  5
287
330
1F
100
AcDbEntity
  8
0
  6
Continuous
 62
     1
370
    15
100
AcDbSpline
210
0.0
220
0.0
230
1.0
 70
     8
 71
     3
 72
    38
 73
    34
 74
     0
 42
0.000000001
 43
0.00000001
 40
0.0
 40
0.0
 40
0.0
 40
0.0
 40
0.0625
 40
0.0625
 40
0.1249999999999999
 40
0.1249999999999999
 40
0.1875
 40
0.1875
 40
0.25
 40
0.25
 40
0.3749999999999984
 40
0.3749999999999984
 40
0.4999999999999968
 40
0.4999999999999968
 40
0.562499999999996
 40
0.562499999999996
 40
0.6249999999999952
 40
0.6249999999999952
 40
0.6874999999999943
 40
0.6874999999999943
 40
0.7187499999999939
 40
0.7187499999999939
 40
0.7499999999999934
 40
0.7499999999999934
 40
0.7812499999999931
 40
0.7812499999999931
 40
0.8124999999999928
 40
0.8124999999999928
 40
0.8749999999999952
 40
0.8749999999999952
 40
0.9374999999999976
 40
0.9374999999999976
 40
1.0
 40
1.0
 40
1.0
 40
1.0
 10
83.91400000000185
 20
3.094626837984478
 30
0.0
 10
84.07572045689473
 20
2.941286306109774
 30
0.0
 10
84.23060001544745
 20
2.779661501144133
 30
0.0
 10
84.53107829953528
 20
2.44415286356336
 30
0.0
 10
84.67725303550402
 20
2.269058223113348
 30
0.0
 10
84.95628008679712
 20
1.910603007189593
 30
0.0
 10
85.08711866428256
 20
1.729947179300368
 30
0.0
 10
85.33079917490595
 20
1.364500976053833
 30
0.0
 10
85.444305894252
 20
1.17839629302027
 30
0.0
 10
85.7476688073803
 20
0.6193958474557348
 30
0.0
 10
85.89854035836056
 20
0.2483192275890502
 30
0.0
 10
86.09365631942227
 20
-0.522503901866358
 30
0.0
 10
86.13668189847975
 20
-0.9162427433603568
 30
0.0
 10
86.1648796998898
 20
-1.548770666096132
 30
0.0
 10
86.16850142817655
 20
-1.765910986368908
 30
0.0
 10
86.1674605697098
 20
-2.205575062896187
 30
0.0
 10
86.16301404579427
 20
-2.430261759627697
 30
0.0
 10
86.13819772729413
 20
-2.88409588899529
 30
0.0
 10
86.11867207956273
 20
-3.110469502721045
 30
0.0
 10
86.05692810070654
 20
-3.446461443587395
 30
0.0
 10
86.03114634961496
 20
-3.555206112758285
 30
0.0
 10
85.96244262343312
 20
-3.763130827790491
 30
0.0
 10
85.91942307950886
 20
-3.861450622277303
 30
0.0
 10
85.81250150091357
 20
-4.031642528547863
 30
0.0
 10
85.7481314190088
 20
-4.103294858560091
 30
0.0
 10
85.60383229597774
 20
-4.207404890870578
 30
0.0
 10
85.52310401688463
 20
-4.240639609046482
 30
0.0
 10
85.27230573453788
 20
-4.287269480235949
 30
0.0
 10
85.09470551248755
 20
-4.251288657985498
 30
0.0
 10
84.74747669799929
 20
-4.11414452094192
 30
0.0
 10
84.57622866380744
 20
-4.012674138372404
 30
0.0
 10
84.23890785408783
 20
-3.771945796124257
 30
0.0
 10
84.0754619008171
 20
-3.634041873778571
 30
0.0
 10
83.91400000000185
 20
-3.483378020471278
 30
0.0
  0
SPLINE
  5
288
330
1F
100
AcDbEntity
  8
0
  6
Continuous
 62
     1
370
    15
100
AcDbSpline
210
0.0
220
0.0
230
1.0
 70
     8
 71
     3
 72
    19
 73
    15
 74
     0
 42
0.000000001
 43
0.00000001
 40
0.0
 40
0.0
 40
0.0
 40
0.0
 40
0.0823267106652482
 40
0.164532141523682
 40
0.2467395789408822
 40
0.3290686946206001
 40
0.4113225890684875
 40
0.5003777171858608
 40
0.5894608486516217
 40
0.6786336884931298
 40
0.7677643307387381
 40
0.8568273112005277
 40
0.9458911898572505
 40
1.0
 40
1.0
 40
1.0
 40
1.0
 10
83.91400000000185
 20
-3.48337802047125
 30
0.0
 10
83.40525391126094
 20
-3.00187220536462
 30
0.0
 10
82.38851119439595
 20
-2.039569906688641
 30
0.0
 10
80.86542423605043
 20
-0.5189303625431307
 30
0.0
 10
79.3424023393667
 20
1.008679488504498
 30
0.0
 10
77.81698432151846
 20
2.51050603364564
 30
0.0
 10
76.25082876176934
 20
3.98907800230289
 30
0.0
 10
74.6430709149249
 20
5.396700064501786
 30
0.0
 10
72.99253054201007
 20
6.679922974462883
 30
0.0
 10
71.34010315124355
 20
7.761446208789309
 30
0.0
 10
69.68856053213479
 20
8.614095202933655
 30
0.0
 10
68.03841282687743
 20
9.196187465857179
 30
0.0
 10
66.60460424896958
 20
9.502591110142603
 30
0.0
 10
65.72013204666915
 20
9.494092248091178
 30
0.0
 10
65.38586621097026
 20
9.49088029952037
 30
0.0
  0
SPLINE
  5
289
330
1F
100
AcDbEntity
  8
0
  6
Continuous
 62
     1
370
    15
100
AcDbSpline
210
0.0
220
0.0
230
1.0
 70
     8
 71
     3
 72
    25
 73
    21
 74
     0
 42
0.000000001
 43
0.00000001
 40
0.0
 40
0.0
 40
0.0
 40
0.0
 40
0.0174080689119362
 40
0.0746802070656144
 40
0.1320100348963369
 40
0.1893099590504983
 40
0.2465675325836783
 40
0.3038268384468139
 40
0.3611319402767101
 40
0.4184582249457009
 40
0.4757272662060959
 40
0.532980612159386
 40
0.5902623929030357
 40
0.6475971881503997
 40
0.7048845525846202
 40
0.7621388213827789
 40
0.8215759544850243
 40
0.8810505674168901
 40
0.9405488092643816
 40
1.0
 40
1.0
 40
1.0
 40
1.0
 10
38.82167497242288
 20
-8.910472229675733
 30
0.0
 10
38.65448529196519
 20
-8.976283618106848
 30
0.0
 10
37.93724548673589
 20
-9.25861292988607
 30
0.0
 10
36.66935725678553
 20
-9.484004876405592
 30
0.0
 10
35.01689753119
 20
-9.565662258058936
 30
0.0
 10
33.36540316079437
 20
-9.341232255534734
 30
0.0
 10
31.71529750103203
 20
-8.841981091479525
 30
0.0
 10
30.06513734197317
 20
-8.07629019450333
 30
0.0
 10
28.41347467817516
 20
-7.068972380510402
 30
0.0
 10
26.76113021549072
 20
-5.850091333225024
 30
0.0
 10
25.11064941225565
 20
-4.455236882398694
 30
0.0
 10
23.4606665605007
 20
-2.927128807745632
 30
0.0
 10
21.80976465378889
 20
-1.310948482855906
 30
0.0
 10
20.15715144747294
 20
0.3434587489634566
 30
0.0
 10
18.50604814931336
 20
1.988650109678119
 30
0.0
 10
16.83525417204412
 20
3.593672154341206
 30
0.0
 10
15.14306406820374
 20
5.108261468777513
 30
0.0
 10
13.42877673390696
 20
6.471353130071762
 30
0.0
 10
11.71368378894223
 20
7.644924549848355
 30
0.0
 10
10.57107727485426
 20
8.214168733969899
 30
0.0
 10
10.00000000000186
 20
8.498678242173796
 30
0.0
  0
LINE
  5
28A
330
1F
100
AcDbEntity
  8
0
  6
Continuous
 62
     1
370
    15
100
AcDbLine
 10
10.0
 20
9.259187191221727
 30
0.0
 11
10.00000000000162
 21
8.59583793207257
 31
0.0
  0
SPLINE
  5
28B
330
1F
100
AcDbEntity
  8
0
  6
Continuous
 62
     1
370
    15
100
AcDbSpline
210
0.0
220
0.0
230
1.0
 70
     8
 71
     3
 72
    27
 73
    23
 74
     0
 42
0.000000001
 43
0.00000001
 40
0.0
 40
0.0
 40
0.0
 40
0.0
 40
0.0532476381556202
 40
0.1065374177813909
 40
0.1598060340976689
 40
0.2130410814915916
 40
0.2643210398928521
 40
0.3156306405002955
 40
0.3669827226584771
 40
0.4182873222166327
 40
0.4695664540691062
 40
0.5208596434706915
 40
0.5722041031037045
 40
0.6235295902630418
 40
0.6748140601267302
 40
0.7260969784238731
 40
0.7774178281823337
 40
0.8287654612588294
 40
0.8800614244022157
 40
0.9313402295636077
 40
0.9826414056418329
 40
1.0
 40
1.0
 40
1.0
 40
1.0
 10
9.999999999999645
 20
9.259187191221812
 30
0.0
 10
10.57107727485224
 20
9.364268197882907
 30
0.0
 10
11.71368378894057
 20
9.574513374858185
 30
0.0
 10
13.42877673390585
 20
9.500519529115522
 30
0.0
 10
15.1430640682032
 20
9.141309632997505
 30
0.0
 10
16.83525417204392
 20
8.48922787264354
 30
0.0
 10
18.50604814931336
 20
7.584511051729223
 30
0.0
 10
20.15715144747286
 20
6.463177476820846
 30
0.0
 10
21.80976465378905
 20
5.149016191188693
 30
0.0
 10
23.46066656049999
 20
3.679661387563115
 30
0.0
 10
25.11064941225818
 20
2.100311166456635
 30
0.0
 10
26.7611302154812
 20
0.4576624896402706
 30
0.0
 10
28.41347467821063
 20
-1.197853919608519
 30
0.0
 10
30.06513734184094
 20
-2.817955283627455
 30
0.0
 10
31.71529750152516
 20
-4.353784125190074
 30
0.0
 10
33.36540315895344
 20
-5.758973525300078
 30
0.0
 10
35.01689753806765
 20
-6.991874611188322
 30
0.0
 10
36.66935723111435
 20
-8.013419803349862
 30
0.0
 10
38.3199353935004
 20
-8.800617744424144
 30
0.0
 10
39.9699265087708
 20
-9.304152513574095
 30
0.0
 10
41.25610923598721
 20
-9.536533293185343
 30
0.0
 10
41.99291766734156
 20
-9.501768854873902
 30
0.0
 10
42.17919790973484
 20
-9.492979693784363
 30
0.0
  0
SPLINE
  5
28C
330
1F
100
AcDbEntity
  8
0
  6
Continuous
 62
     1
370
    15
100
AcDbSpline
210
0.0
220
0.0
230
1.0
 70
     8
 71
     3
 72
    16
 73
    12
 74
     0
 42
0.000000001
 43
0.00000001
 40
0.0
 40
0.0
 40
0.0
 40
0.0
 40
0.0622393078914785
 40
0.1711225066470716
 40
0.28005725455687
 40
0.388882413500848
 40
0.4976733631754707
 40
0.6232195321810331
 40
0.7487861922587855
 40
0.8743824257569406
 40
1.0
 40
1.0
 40
1.0
 40
1.0
 10
68.74448112570609
 20
8.906008909548305
 30
0.0
 10
69.0590572180029
 20
9.019082853246417
 30
0.0
 10
69.92396158903044
 20
9.32997153979521
 30
0.0
 10
71.34011780777199
 20
9.534379840021884
 30
0.0
 10
72.99251554679914
 20
9.533347753081415
 30
0.0
 10
74.64311619224729
 20
9.234150281976156
 30
0.0
 10
76.37733066969737
 20
8.632140814745455
 30
0.0
 10
78.19746336725977
 20
7.692141828967934
 30
0.0
 10
80.10236187360435
 20
6.399562023138714
 30
0.0
 10
82.00797517307642
 20
4.860553232603124
 30
0.0
 10
83.27862241030998
 20
3.683302305552203
 30
0.0
 10
83.91400000000185
 20
3.094626837984478
 30
0.0
  0
SPLINE
  5
28D
330
1F
100
AcDbEntity
  8
0
  6
Continuous
 62
     1
370
    15
100
AcDbSpline
210
0.0
220
0.0
230
1.0
 70
     8
 71
     3
 72
    28
 73
    24
 74
     0
 42
0.000000001
 43
0.00000001
 40
0.0
 40
0.0
 40
0.0
 40
0.0
 40
0.0191654511136949
 40
0.0688119470298628
 40
0.1184188555189314
 40
0.1679961094186358
 40
0.2175819095288744
 40
0.2672143043708363
 40
0.3168433779374911
 40
0.3664277838528969
 40
0.4160056431793838
 40
0.4656151499647326
 40
0.5152609344958812
 40
0.564858437970311
 40
0.6144343134488514
 40
0.6640267771060001
 40
0.7136691947775168
 40
0.7632857185843921
 40
0.8128655706046084
 40
0.8624469226650386
 40
0.9120679298682737
 40
0.9617072794839244
 40
1.0
 40
1.0
 40
1.0
 40
1.0
 10
58.77110458014862
 20
-8.907032966216505
 30
0.0
 10
58.55849935439157
 20
-8.988559841906138
 30
0.0
 10
57.79515809796736
 20
-9.281275260822454
 30
0.0
 10
56.48030413866437
 20
-9.501816530176441
 30
0.0
 10
54.82921727882409
 20
-9.55786470790791
 30
0.0
 10
53.17918807522106
 20
-9.310414546181178
 30
0.0
 10
51.52886287720578
 20
-8.788372344065678
 30
0.0
 10
49.87677560002676
 20
-8.00193593036748
 30
0.0
 10
48.22481267373023
 20
-6.97603826154851
 30
0.0
 10
46.57453758286627
 20
-5.740632787604838
 30
0.0
 10
44.92450095012013
 20
-4.333328260884045
 30
0.0
 10
43.27327065201708
 20
-2.795968473731861
 30
0.0
 10
41.62068710601717
 20
-1.175695556632988
 30
0.0
 10
39.96991231946964
 20
0.4808407795548959
 30
0.0
 10
38.31993919934646
 20
2.122591939030883
 30
0.0
 10
36.6693561979264
 20
3.701089534163188
 30
0.0
 10
35.01689786010307
 20
5.167746685813611
 30
0.0
 10
33.36540290412292
 20
6.480311244635573
 30
0.0
 10
31.71529819859786
 20
7.597988491630929
 30
0.0
 10
30.06513480720407
 20
8.490382435321663
 30
0.0
 10
28.41348412928916
 20
9.119103709908885
 30
0.0
 10
26.88650391713524
 20
9.478817171386709
 30
0.0
 10
25.91119386503892
 20
9.493479724309495
 30
0.0
 10
25.48646514904833
 20
9.499864983297314
 30
0.0
  0
SPLINE
  5
28E
330
1F
100
AcDbEntity
  8
0
  6
Continuous
 62
     1
370
    15
100
AcDbSpline
210
0.0
220
0.0
230
1.0
 70
     8
 71
     3
 72
    28
 73
    24
 74
     0
 42
0.000000001
 43
0.00000001
 40
0.0
 40
0.0
 40
0.0
 40
0.0
 40
0.0365896744454606
 40
0.0861752673488642
 40
0.1357593600837509
 40
0.1853801277419455
 40
0.2350267914795618
 40
0.2846234969300919
 40
0.3342036127831773
 40
0.38380535848206
 40
0.4334553893672859
 40
0.4830691394037671
 40
0.5326512392744838
 40
0.5822398862940689
 40
0.6318732047854618
 40
0.6815098448362409
 40
0.731099886169908
 40
0.7806813805620578
 40
0.8302925320800181
 40
0.8799432744111102
 40
0.929547200834158
 40
0.979127501098238
 40
0.9999999999999999
 40
0.9999999999999999
 40
0.9999999999999999
 40
0.9999999999999999
 10
28.84749043261577
 20
8.912855844842355
 30
0.0
 10
29.25350775719467
 20
9.049381685115051
 30
0.0
 10
30.20975161626508
 20
9.370924605729556
 30
0.0
 10
31.71528317902367
 20
9.554426893145276
 30
0.0
 10
33.36540693180841
 20
9.50331232704373
 30
0.0
 10
35.01689677988531
 20
9.1581677302582
 30
0.0
 10
36.66935648711704
 20
8.54128440020169
 30
0.0
 10
38.31993912190346
 20
7.667345651728567
 30
0.0
 10
39.96991234029294
 20
6.563959315770617
 30
0.0
 10
41.62068710018382
 20
5.263483229074723
 30
0.0
 10
43.27327065450045
 20
3.806162745943126
 30
0.0
 10
44.92450094602253
 20
2.233974609189858
 30
0.0
 10
46.57453759676714
 20
0.5949733598166915
 30
0.0
 10
48.22481262219357
 20
-1.062052498362434
 30
0.0
 10
49.87677579246255
 20
-2.686772218258966
 30
0.0
 10
51.5288621593054
 20
-4.23093302688433
 30
0.0
 10
53.17919075144815
 20
-5.64872741060212
 30
0.0
 10
54.82920729009309
 20
-6.897330476805948
 30
0.0
 10
56.48034145481971
 20
-7.938087681103568
 30
0.0
 10
58.13294275228263
 20
-8.745052755677122
 30
0.0
 10
59.78383305745665
 20
-9.27327419924704
 30
0.0
 10
61.11517882399828
 20
-9.526658493035583
 30
0.0
 10
61.89667324455537
 20
-9.498498489282369
 30
0.0
 10
62.12820047452981
 20
-9.490155745567833
 30
0.0
  0
SPLINE
  5
28F
330
1F
100
AcDbEntity
  8
0
  6
Continuous
 62
     1
370
    15
100
AcDbSpline
210
0.0
220
0.0
230
1.0
 70
     8
 71
     3
 72
    38
 73
    34
 74
     0
 42
0.000000001
 43
0.00000001
 40
0.0
 40
0.0
 40
0.0
 40
0.0
 40
0.0625
 40
0.0625
 40
0.1249999999999999
 40
0.1249999999999999
 40
0.1874999999999999
 40
0.1874999999999999
 40
0.2499999999999998
 40
0.2499999999999998
 40
0.3750000000000012
 40
0.3750000000000012
 40
0.5000000000000024
 40
0.5000000000000024
 40
0.5625000000000031
 40
0.5625000000000031
 40
0.6250000000000037
 40
0.6250000000000037
 40
0.6875000000000043
 40
0.6875000000000043
 40
0.7187500000000047
 40
0.7187500000000047
 40
0.7500000000000049
 40
0.7500000000000049
 40
0.7812500000000052
 40
0.7812500000000052
 40
0.8125000000000056
 40
0.8125000000000056
 40
0.8750000000000038
 40
0.8750000000000038
 40
0.9375000000000019
 40
0.9375000000000019
 40
1.0
 40
1.0
 40
1.0
 40
1.0
 10
83.91400000000185
 20
-6.25407634823641
 30
0.0
 10
84.07572045689476
 20
-6.376366536339773
 30
0.0
 10
84.23060001544745
 20
-6.486055043178666
 30
0.0
 10
84.53107829953528
 20
-6.680643987072372
 30
0.0
 10
84.67725303550402
 20
-6.766004182862687
 30
0.0
 10
84.95628008679715
 20
-6.909931077545522
 30
0.0
 10
85.0871186642825
 20
-6.967554680030432
 30
0.0
 10
85.33079917490589
 20
-7.057545226719029
 30
0.0
 10
85.444305894252
 20
-7.089950895229933
 30
0.0
 10
85.7476688073803
 20
-7.154763168785607
 30
0.0
 10
85.89854035836053
 20
-7.153330043775597
 30
0.0
 10
86.09365631942227
 20
-7.154710366978222
 30
0.0
 10
86.13668189847981
 20
-7.161567857524645
 30
0.0
 10
86.16487969988985
 20
-7.257214139352769
 30
0.0
 10
86.1685014281765
 20
-7.302922714155343
 30
0.0
 10
86.16746056970972
 20
-7.425502492667832
 30
0.0
 10
86.16301404579433
 20
-7.502591909265092
 30
0.0
 10
86.13819772729413
 20
-7.693584158507761
 30
0.0
 10
86.11867207956267
 20
-7.805518980265091
 30
0.0
 10
86.05692810070649
 20
-8.012124948336563
 30
0.0
 10
86.03114634961499
 20
-8.086057478982312
 30
0.0
 10
85.96244262343318
 20
-8.24702669215226
 30
0.0
 10
85.91942307950886
 20
-8.333789045758735
 30
0.0
 10
85.81250150091357
 20
-8.512704865506052
 30
0.0
 10
85.74813141900883
 20
-8.605086758520216
 30
0.0
 10
85.60383229597777
 20
-8.780199059305247
 30
0.0
 10
85.52310401688463
 20
-8.863907323294129
 30
0.0
 10
85.2723057345378
 20
-9.086656036762903
 30
0.0
 10
85.0947055124875
 20
-9.198029957423685
 30
0.0
 10
84.74747669799932
 20
-9.354598367522286
 30
0.0
 10
84.57622866380744
 20
-9.401449745670575
 30
0.0
 10
84.2389078540878
 20
-9.445923085103189
 30
0.0
 10
84.07546190081707
 20
-9.44323734266139
 30
0.0
 10
83.91400000000185
 20
-9.419174075338205
 30
0.0
  0
SPLINE
  5
290
330
1F
100
AcDbEntity
  8
0
  6
Continuous
 62
     1
370
    15
100
AcDbSpline
210
0.0
220
0.0
230
1.0
 70
     8
 71
     3
 72
    25
 73
    21
 74
     0
 42
0.000000001
 43
0.00000001
 40
0.0
 40
0.0
 40
0.0
 40
0.0
 40
0.0535158390211903
 40
0.1069528410456684
 40
0.1603911474180929
 40
0.2139085498002649
 40
0.2673770552047599
 40
0.3252666497461897
 40
0.3831744476467996
 40
0.4411405597805005
 40
0.4990792416946409
 40
0.556973940591587
 40
0.6148692233531752
 40
0.6728096503515876
 40
0.7307745682970754
 40
0.7886813224205013
 40
0.8465710398979224
 40
0.9044883431636596
 40
0.9624603084559618
 40
1.0
 40
1.0
 40
1.0
 40
1.0
 10
83.91400000000185
 20
-9.419174075338205
 30
0.0
 10
83.40525391122243
 20
-9.320396004390616
 30
0.0
 10
82.38851119428055
 20
-9.12298537766624
 30
0.0
 10
80.86542423651109
 20
-8.529041614703246
 30
0.0
 10
79.34240233763829
 20
-7.734230501840003
 30
0.0
 10
77.81698432797928
 20
-6.738349770371784
 30
0.0
 10
76.25082873684046
 20
-5.538307554714905
 30
0.0
 10
74.64307101658174
 20
-4.148925612594866
 30
0.0
 10
72.9925301633282
 20
-2.598515460053463
 30
0.0
 10
71.34010456552151
 20
-0.9710705657267056
 30
0.0
 10
69.68855525870337
 20
0.686064762271883
 30
0.0
 10
68.038432491286
 20
2.32271481875641
 30
0.0
 10
66.38829164590474
 20
3.889773356198205
 30
0.0
 10
64.73668597526522
 20
5.340051538179637
 30
0.0
 10
63.084299773627
 20
6.630103388977901
 30
0.0
 10
61.43378770215251
 20
7.72127193518709
 30
0.0
 10
59.78380214086663
 20
8.58384555394862
 30
0.0
 10
58.13296893165948
 20
9.17775729555781
 30
0.0
 10
56.67410618230619
 20
9.496864152368047
 30
0.0
 10
55.76669600460666
 20
9.493650683167786
 30
0.0
 10
55.41004950403207
 20
9.492387668300708
 30
0.0
  0
SPLINE
  5
291
330
1F
100
AcDbEntity
  8
0
  6
Continuous
 62
     1
370
    15
100
AcDbSpline
210
0.0
220
0.0
230
1.0
 70
     8
 71
     3
 72
    19
 73
    15
 74
     0
 42
0.000000001
 43
0.00000001
 40
0.0
 40
0.0
 40
0.0
 40
0.0
 40
0.0230194824281326
 40
0.1106849438860755
 40
0.1982628666196977
 40
0.2858167875128373
 40
0.3734141919324733
 40
0.461092668079658
 40
0.5486986112841351
 40
0.6362539434255656
 40
0.7271473918887283
 40
0.8180981558848619
 40
0.9090850540872158
 40
1.0
 40
1.0
 40
1.0
 40
1.0
 10
28.84749043261584
 20
-8.912855844842326
 30
0.0
 10
28.70285884281228
 20
-8.970441419897
 30
0.0
 10
28.00742446666844
 20
-9.24733105733658
 30
0.0
 10
26.7610963979579
 20
-9.474153666524288
 30
0.0
 10
25.11065846687747
 20
-9.568830957808032
 30
0.0
 10
23.46066413333273
 20
-9.355861191313679
 30
0.0
 10
21.80976530496795
 20
-8.867924452484957
 30
0.0
 10
20.15715127309487
 20
-8.113160828972909
 30
0.0
 10
18.50604819593306
 20
-7.115178730408005
 30
0.0
 10
16.8352541590249
 20
-5.888649716928185
 30
0.0
 10
15.14306407174846
 20
-4.461852987381675
 30
0.0
 10
13.428776732961
 20
-2.87364548498401
 30
0.0
 10
11.71368378917855
 20
-1.191952982864635
 30
0.0
 10
10.57107727493302
 20
-0.0474234258744701
 30
0.0
 10
10.00000000000186
 20
0.5246149900938804
 30
0.0
  0
SPLINE
  5
292
330
1F
100
AcDbEntity
  8
0
  6
Continuous
 62
     1
370
    15
100
AcDbSpline
210
0.0
220
0.0
230
1.0
 70
    24
 71
     3
 72
    18
 73
    14
 74
     0
 42
0.000000001
 43
0.00000001
 40
0.0
 40
0.0
 40
0.0
 40
0.0
 40
0.2499999999999999
 40
0.2499999999999999
 40
0.4999999999999998
 40
0.4999999999999998
 40
0.625
 40
0.625
 40
0.7500000000000001
 40
0.7500000000000001
 40
0.875
 40
0.875
 40
1.0
 40
1.0
 40
1.0
 40
1.0
 10
10.00000000000186
 20
6.564744279261603
 30
0.0
 10
10.00000000000186
 20
6.197033802344563
 30
0.0
 10
10.00000000000186
 20
5.76637455181951
 30
0.0
 10
10.00000000000186
 20
4.774456577723569
 30
0.0
 10
10.00000000000186
 20
4.210902007245082
 30
0.0
 10
10.00000000000186
 20
3.321375923372429
 30
0.0
 10
10.00000000000186
 20
3.018420275301622
 30
0.0
 10
10.00000000000186
 20
2.421006685697705
 30
0.0
 10
10.00000000000186
 20
2.126676885590157
 30
0.0
 10
10.00000000000186
 20
1.574426458945013
 30
0.0
 10
10.00000000000186
 20
1.316759753086373
 30
0.0
 10
10.00000000000186
 20
0.8664400038540521
 30
0.0
 10
10.00000000000186
 20
0.6740628526803079
 30
0.0
 10
10.00000000000186
 20
0.5246149900938804
 30
0.0
  0
SPLINE
  5
293
330
1F
100
AcDbEntity
  8
0
  6
Continuous
 62
     1
370
    15
100
AcDbSpline
210
0.0
220
0.0
230
1.0
 70
     8
 71
     3
 72
    21
 73
    17
 74
     0
 42
0.000000001
 43
0.00000001
 40
0.0
 40
0.0
 40
0.0
 40
0.0
 40
0.0771675133367794
 40
0.1543960989121127
 40
0.2315940142075219
 40
0.3087432807674514
 40
0.3830591943160243
 40
0.4574180659265917
 40
0.5318385026271183
 40
0.6061901266197446
 40
0.680504842317732
 40
0.7548399304894315
 40
0.8292493204781605
 40
0.9036312151888617
 40
0.9779536668365718
 40
1.0
 40
1.0
 40
1.0
 40
1.0
 10
9.999999999999645
 20
6.564744279262058
 30
0.0
 10
10.57107727484998
 20
6.130312808219131
 30
0.0
 10
11.71368378893378
 20
5.261106046547965
 30
0.0
 10
13.42877673393302
 20
3.731571729687687
 30
0.0
 10
15.14306406810137
 20
2.096366230586341
 30
0.0
 10
16.83525417241789
 20
0.4102452317875844
 30
0.0
 10
18.50604814797423
 20
-1.266026286959274
 30
0.0
 10
20.15715145248176
 20
-2.883918888206793
 30
0.0
 10
21.80976463508436
 20
-4.414421782389226
 30
0.0
 10
23.4606666302188
 20
-5.813481363552441
 30
0.0
 10
25.11064915217015
 20
-7.038399207888759
 30
0.0
 10
26.76113118686753
 20
-8.051046804374224
 30
0.0
 10
28.41347104950843
 20
-8.827611786615918
 30
0.0
 10
30.0651508737411
 20
-9.318740436125765
 30
0.0
 10
31.3284873234516
 20
-9.541288984650137
 30
0.0
 10
32.04157646224354
 20
-9.503770016315045
 30
0.0
 10
32.204710206846
 20
-9.495186783917902
 30
0.0
  0
SPLINE
  5
294
330
1F
100
AcDbEntity
  8
0
  6
Continuous
 62
     1
370
    15
100
AcDbSpline
210
0.0
220
0.0
230
1.0
 70
     8
 71
     3
 72
    22
 73
    18
 74
     0
 42
0.000000001
 43
0.00000001
 40
0.0
 40
0.0
 40
0.0
 40
0.0
 40
0.0402910898568161
 40
0.1059235468926026
 40
0.1715753192228085
 40
0.2372930347760751
 40
0.3029829837223906
 40
0.368621750398125
 40
0.4342598551174243
 40
0.4999478255747518
 40
0.5656668950386958
 40
0.6313198507511012
 40
0.6969521684082286
 40
0.7726927154799539
 40
0.8484456245777775
 40
0.9242163749769946
 40
1.0
 40
1.0
 40
1.0
 40
1.0
 10
58.77110458014867
 20
8.90703296621652
 30
0.0
 10
59.10876190453614
 20
9.026435088184442
 30
0.0
 10
59.99644852608172
 20
9.340338144922114
 30
0.0
 10
61.43376204319024
 20
9.54017770498443
 30
0.0
 10
63.08430665348452
 20
9.526504471988929
 30
0.0
 10
64.7366841471475
 20
9.21591842621288
 30
0.0
 10
66.3882920781961
 20
8.632153007269608
 30
0.0
 10
68.03843258817123
 20
7.788741464034459
 30
0.0
 10
69.68855443874098
 20
6.71210352520707
 30
0.0
 10
71.34010775185673
 20
5.43424911034397
 30
0.0
 10
72.99251823790063
 20
3.994124413926627
 30
0.0
 10
74.64311547516438
 20
2.433366334349273
 30
0.0
 10
76.37733089500519
 20
0.7167946031073171
 30
0.0
 10
78.19746330329112
 20
-1.113218596333354
 30
0.0
 10
80.1023618906682
 20
-2.979326447812142
 30
0.0
 10
82.00797516880924
 20
-4.74466763176035
 30
0.0
 10
83.27862240888753
 20
-5.750911615759421
 30
0.0
 10
83.91400000000185
 20
-6.25407634823641
 30
0.0
  0
SPLINE
  5
295
330
1F
100
AcDbEntity
  8
0
  6
Continuous
 62
     1
370
    15
100
AcDbSpline
210
0.0
220
0.0
230
1.0
 70
     8
 71
     3
 72
    38
 73
    34
 74
     0
 42
0.000000001
 43
0.00000001
 40
0.0
 40
0.0
 40
0.0
 40
0.0
 40
0.0624999999999989
 40
0.0624999999999989
 40
0.1249999999999978
 40
0.1249999999999978
 40
0.1874999999999966
 40
0.1874999999999966
 40
0.2499999999999955
 40
0.2499999999999955
 40
0.3749999999999949
 40
0.3749999999999949
 40
0.4999999999999943
 40
0.4999999999999943
 40
0.562499999999994
 40
0.562499999999994
 40
0.6249999999999937
 40
0.6249999999999937
 40
0.6874999999999933
 40
0.6874999999999933
 40
0.7187499999999932
 40
0.7187499999999932
 40
0.749999999999993
 40
0.749999999999993
 40
0.7812499999999929
 40
0.7812499999999929
 40
0.8124999999999928
 40
0.8124999999999928
 40
0.8749999999999951
 40
0.8749999999999951
 40
0.9374999999999976
 40
0.9374999999999976
 40
1.0
 40
1.0
 40
1.0
 40
1.0
 10
83.91400000000185
 20
9.348703186220874
 30
0.0
 10
84.07572045689476
 20
9.317652842449533
 30
0.0
 10
84.23060001544748
 20
9.265716544322814
 30
0.0
 10
84.53107829953528
 20
9.124796850635732
 30
0.0
 10
84.67725303550402
 20
9.035062405976035
 30
0.0
 10
84.95628008679712
 20
8.820534084735115
 30
0.0
 10
85.08711866428256
 20
8.697501859330842
 30
0.0
 10
85.33079917490589
 20
8.422046202772904
 30
0.0
 10
85.444305894252
 20
8.268347188250189
 30
0.0
 10
85.74766880738024
 20
7.774159016241356
 30
0.0
 10
85.89854035836056
 20
7.401649271364661
 30
0.0
 10
86.09365631942227
 20
6.632206465111878
 30
0.0
 10
86.13668189847978
 20
6.245325114164288
 30
0.0
 10
86.1648796998898
 20
5.708443473256651
 30
0.0
 10
86.16850142817655
 20
5.537011727786464
 30
0.0
 10
86.1674605697098
 20
5.219927429771658
 30
0.0
 10
86.16301404579427
 20
5.072330149637409
 30
0.0
 10
86.1381977272941
 20
4.809488269512499
 30
0.0
 10
86.11867207956276
 20
4.69504947754406
 30
0.0
 10
86.05692810070654
 20
4.565663504749182
 30
0.0
 10
86.03114634961501
 20
4.530851366224041
 30
0.0
 10
85.96244262343315
 20
4.483895864361784
 30
0.0
 10
85.9194230795088
 20
4.472338423481446
 30
0.0
 10
85.81250150091357
 20
4.481062336958203
 30
0.0
 10
85.74813141900883
 20
4.501791899960139
 30
0.0
 10
85.60383229597771
 20
4.572794168434697
 30
0.0
 10
85.52310401688469
 20
4.62326771424766
 30
0.0
 10
85.27230573453788
 20
4.799386556526969
 30
0.0
 10
85.09470551248755
 20
4.946741299438216
 30
0.0
 10
84.74747669799932
 20
5.240453846580394
 30
0.0
 10
84.57622866380744
 20
5.3887756072982
 30
0.0
 10
84.23890785408783
 20
5.673977288978946
 30
0.0
 10
84.07546190081705
 20
5.809195468882834
 30
0.0
 10
83.91400000000185
 20
5.935796054866955
 30
0.0
  0
SPLINE
  5
296
330
1F
100
AcDbEntity
  8
0
  6
Continuous
 62
     1
370
    15
100
AcDbSpline
210
0.0
220
0.0
230
1.0
 70
     8
 71
     3
 72
    13
 73
     9
 74
     0
 42
0.000000001
 43
0.00000001
 40
0.0
 40
0.0
 40
0.0
 40
0.0
 40
0.1783181064267458
 40
0.356373523073659
 40
0.534433285889111
 40
0.7127566015319501
 40
0.8909169894018395
 40
1.0
 40
1.0
 40
1.0
 40
1.0
 10
83.91400000000185
 20
5.935796054866984
 30
0.0
 10
83.40525390857043
 20
6.318568187485923
 30
0.0
 10
82.38851118632844
 20
7.083548570966329
 30
0.0
 10
80.86542426826536
 20
8.009579761696145
 30
0.0
 10
79.34240221847595
 20
8.74490447751684
 30
0.0
 10
77.81698477341455
 20
9.241400305663063
 30
0.0
 10
76.4897486563495
 20
9.508135908409528
 30
0.0
 10
75.67092074249236
 20
9.494907451716088
 30
0.0
 10
75.35996420012542
 20
9.48988383798158
 30
0.0
  0
SPLINE
  5
297
330
1F
100
AcDbEntity
  8
0
  6
Continuous
 62
     1
370
    15
100
AcDbSpline
210
0.0
220
0.0
230
1.0
 70
     8
 71
     3
 72
    28
 73
    24
 74
     0
 42
0.000000001
 43
0.00000001
 40
0.0
 40
0.0
 40
0.0
 40
0.0
 40
0.0171492186056015
 40
0.0667352796919363
 40
0.1163147939708214
 40
0.1659259567649882
 40
0.2155733985159378
 40
0.2651725575985045
 40
0.3147500879632205
 40
0.3643442070602727
 40
0.4139882818392016
 40
0.4636064618891293
 40
0.5131879689282616
 40
0.5627709760576803
 40
0.6123936396536274
 40
0.6620346462742761
 40
0.7116260836538428
 40
0.7612039298710237
 40
0.8108063988528692
 40
0.8604547751064847
 40
0.910062079218013
 40
0.9596407245616068
 40
1.0
 40
1.0
 40
1.0
 40
1.0
 10
48.79541312409769
 20
-8.908487392508064
 30
0.0
 10
48.60509656249828
 20
-8.982371104449484
 30
0.0
 10
47.86448970101723
 20
-9.269885672575512
 30
0.0
 10
46.57456569686468
 20
-9.493204261907536
 30
0.0
 10
44.92449341221293
 20
-9.561988982213691
 30
0.0
 10
43.27327267411265
 20
-9.325979527958921
 30
0.0
 10
41.62068656437707
 20
-8.81560826150563
 30
0.0
 10
39.96991246533874
 20
-8.039360761362857
 30
0.0
 10
38.31993915701226
 20
-7.022656875103209
 30
0.0
 10
36.66935622139583
 20
-5.795085265856201
 30
0.0
 10
35.01689780856923
 20
-4.394627912517151
 30
0.0
 10
33.36540308660922
 20
-2.861902297542684
 30
0.0
 10
31.71529752067771
 20
-1.243352072593083
 30
0.0
 10
30.06513733754853
 20
0.4125104051651647
 30
0.0
 10
28.41347467620797
 20
2.055823727244416
 30
0.0
 10
26.76113022778729
 20
3.637083332171457
 30
0.0
 10
25.11064936509645
 20
5.110080430493966
 30
0.0
 10
23.46066673684533
 20
6.429776054303332
 30
0.0
 10
21.80976399493748
 20
7.556315643274218
 30
0.0
 10
20.15715390799961
 20
8.458216904181981
 30
0.0
 10
18.50603897748528
 20
9.098106857896923
 30
0.0
 10
16.95849346223982
 20
9.474017016311493
 30
0.0
 10
15.96077126678031
 20
9.49122706844706
 30
0.0
 10
15.51304749745772
 20
9.498950009208968
 30
0.0
  0
SPLINE
  5
298
330
1F
100
AcDbEntity
  8
0
  6
Continuous
 62
     1
370
    15
100
AcDbSpline
210
0.0
220
0.0
230
1.0
 70
     8
 71
     3
 72
    28
 73
    24
 74
     0
 42
0.000000001
 43
0.00000001
 40
0.0
 40
0.0
 40
0.0
 40
0.0
 40
0.0386100043013147
 40
0.0882594158242586
 40
0.1378629191181727
 40
0.1874417991339875
 40
0.2370342705955924
 40
0.2866763123318979
 40
0.3363000106610123
 40
0.3858840516966805
 40
0.4354665926107822
 40
0.4850858073003861
 40
0.5347309172589486
 40
0.5843260704939567
 40
0.6339046346507206
 40
0.6835048279763379
 40
0.7331533049771293
 40
0.7827655022646482
 40
0.8323460503769503
 40
0.8819331454332161
 40
0.9315649105632181
 40
0.981199997148652
 40
0.9999999999999999
 40
0.9999999999999999
 40
0.9999999999999999
 40
0.9999999999999999
 10
18.87186553905133
 20
8.915701955307071
 30
0.0
 10
19.30015881026758
 20
9.057308689795008
 30
0.0
 10
20.27920335074489
 20
9.381010483898692
 30
0.0
 10
21.80977892990803
 20
9.558123293600303
 30
0.0
 10
23.46066273885289
 20
9.494628630150473
 30
0.0
 10
25.11065043642377
 20
9.13807653741793
 30
0.0
 10
26.76112994036535
 20
8.509759534985449
 30
0.0
 10
28.41347475323958
 20
7.626188043417883
 30
0.0
 10
30.06513731687637
 20
6.514002945793067
 30
0.0
 10
31.71529752641304
 20
5.206376060049834
 30
0.0
 10
33.36540308433044
 20
3.742742448520758
 30
0.0
 10
35.01689781194811
 20
2.166941315218097
 30
0.0
 10
36.6693562101599
 20
0.5268696364849887
 30
0.0
 10
38.31993919852378
 20
-1.129944365316916
 30
0.0
 10
39.96991231053825
 20
-2.75250845322438
 30
0.0
 10
41.62068714260015
 20
-4.292934877730389
 30
0.0
 10
43.27327051451968
 20
-5.703696017575155
 30
0.0
 10
44.92450146292553
 20
-6.944636418169395
 30
0.0
 10
46.5745356701991
 20
-7.975959304271257
 30
0.0
 10
48.22481981584855
 20
-8.773231912308077
 30
0.0
 10
49.87674891786041
 20
-9.288963997948187
 30
0.0
 10
51.18722692999454
 20
-9.5316998182753
 30
0.0
 10
51.94625348774019
 20
-9.500049426350458
 30
0.0
 10
52.15476788535854
 20
-9.491354654949859
 30
0.0
  0
SPLINE
  5
299
330
1F
100
AcDbEntity
  8
0
  6
Continuous
 62
     1
370
    15
100
AcDbSpline
210
0.0
220
0.0
230
1.0
 70
     8
 71
     3
 72
    10
 73
     6
 74
     0
 42
0.000000001
 43
0.00000001
 40
0.0
 40
0.0
 40
0.0
 40
0.0
 40
0.2645093984117208
 40
0.6322234590494171
 40
1.0
 40
1.0
 40
1.0
 40
1.0
 10
78.73165326654733
 20
8.907028679892662
 30
0.0
 10
79.18851598617265
 20
9.059982364890757
 30
0.0
 10
80.28049733219142
 20
9.425568269907771
 30
0.0
 10
82.00797484897332
 20
9.597993821240365
 30
0.0
 10
83.27862230226951
 20
9.431804770509757
 30
0.0
 10
83.91400000000188
 20
9.348703186220888
 30
0.0
  0
SPLINE
  5
29A
330
1F
100
AcDbEntity
  8
0
  6
Continuous
 62
     1
370
    15
100
AcDbSpline
210
0.0
220
0.0
230
1.0
 70
     8
 71
     3
 72
    28
 73
    24
 74
     0
 42
0.000000001
 43
0.00000001
 40
0.0
 40
0.0
 40
0.0
 40
0.0
 40
0.0274674079687271
 40
0.0732416030544496
 40
0.122800676642282
 40
0.1723753340604091
 40
0.2219999140836583
 40
0.2716010111946414
 40
0.3211644546028648
 40
0.3707283978555074
 40
0.4203309889268567
 40
0.4699545466098736
 40
0.5195283104541091
 40
0.5690874892870014
 40
0.6186702842140115
 40
0.6682998751052783
 40
0.7178898920492783
 40
0.7674502645015365
 40
0.8170191802542767
 40
0.8666346748728649
 40
0.9162468493470667
 40
0.9658143713797082
 40
1.0
 40
1.0
 40
1.0
 40
1.0
 10
78.73165326654733
 20
-8.907028679892662
 30
0.0
 10
78.42666954982793
 20
-9.015475756634615
 30
0.0
 10
77.61343313729621
 20
-9.304648938035413
 30
0.0
 10
76.25081447414941
 20
-9.520487726486309
 30
0.0
 10
74.64307496694538
 20
-9.547573433800395
 30
0.0
 10
72.99252910361268
 20
-9.27777777586148
 30
0.0
 10
71.34010484897404
 20
-8.73320969019268
 30
0.0
 10
69.68855518460559
 20
-7.925921400185459
 30
0.0
 10
68.03843250452069
 20
-6.881210123640571
 30
0.0
 10
66.38829166704495
 20
-5.630174698709666
 30
0.0
 10
64.73668587735175
 20
-4.210485954566636
 30
0.0
 10
63.08430014412515
 20
-2.665138137442881
 30
0.0
 10
61.43378631981666
 20
-1.039065730701623
 30
0.0
 10
59.78380729969318
 20
0.617801360424977
 30
0.0
 10
58.13294966042717
 20
2.256490175181966
 30
0.0
 10
56.48033961385904
 20
3.826562951224034
 30
0.0
 10
54.82920774858302
 20
5.282805420217031
 30
0.0
 10
53.17919075652435
 20
6.580696919756988
 30
0.0
 10
51.52886168026087
 20
7.680744470208168
 30
0.0
 10
49.87677770557288
 20
8.55307544277207
 30
0.0
 10
48.2248054527937
 20
9.158552523204989
 30
0.0
 10
46.74515004194613
 20
9.491011108862452
 30
0.0
 10
45.8158633007582
 20
9.493434257729973
 30
0.0
 10
45.43655516526297
 20
9.494423317444515
 30
0.0
  0
SPLINE
  5
29B
330
1F
100
AcDbEntity
  8
0
  6
Continuous
 62
     1
370
    15
100
AcDbSpline
210
0.0
220
0.0
230
1.0
 70
     8
 71
     3
 72
    13
 73
     9
 74
     0
 42
0.000000001
 43
0.00000001
 40
0.0
 40
0.0
 40
0.0
 40
0.0
 40
0.0412609795864989
 40
0.2272624310956661
 40
0.4203553351293434
 40
0.6135699995637389
 40
0.8068614270534705
 40
1.0
 40
1.0
 40
1.0
 40
1.0
 10
18.87186553905133
 20
-8.915701955307057
 30
0.0
 10
18.74984426418281
 20
-8.964862164005169
 30
0.0
 10
18.07776008562182
 20
-9.23563296619811
 30
0.0
 10
16.83529731390402
 20
-9.467861023308402
 30
0.0
 10
15.14305232206617
 20
-9.574051678849898
 30
0.0
 10
13.4287798685166
 20
-9.34394791595058
 30
0.0
 10
11.71368300588318
 20
-8.83714000859591
 30
0.0
 10
10.57107701390343
 20
-8.261679628730306
 30
0.0
 10
10.00000000000186
 20
-7.974063252079858
 30
0.0
  0
SPLINE
  5
29C
330
1F
100
AcDbEntity
  8
0
  6
Continuous
 62
     1
370
    15
100
AcDbSpline
210
0.0
220
0.0
230
1.0
 70
    24
 71
     3
 72
    18
 73
    14
 74
     0
 42
0.000000001
 43
0.00000001
 40
0.0
 40
0.0
 40
0.0
 40
0.0
 40
0.2499999999999998
 40
0.2499999999999998
 40
0.4999999999999996
 40
0.4999999999999996
 40
0.6249999999999997
 40
0.6249999999999997
 40
0.7499999999999998
 40
0.7499999999999998
 40
0.8749999999999999
 40
0.8749999999999999
 40
1.0
 40
1.0
 40
1.0
 40
1.0
 10
10.00000000000186
 20
-2.694442911961616
 30
0.0
 10
10.00000000000186
 20
-2.760321979023615
 30
0.0
 10
10.00000000000186
 20
-2.881131468631523
 30
0.0
 10
10.00000000000186
 20
-3.311940293614455
 30
0.0
 10
10.00000000000186
 20
-3.624446644194251
 30
0.0
 10
10.00000000000186
 20
-4.286404921273473
 30
0.0
 10
10.00000000000186
 20
-4.538899712334157
 30
0.0
 10
10.00000000000186
 20
-5.10560806058966
 30
0.0
 10
10.00000000000186
 20
-5.419908178989644
 30
0.0
 10
10.00000000000186
 20
-6.096992022056597
 30
0.0
 10
10.00000000000186
 20
-6.45971209811934
 30
0.0
 10
10.00000000000186
 20
-7.208156890224515
 30
0.0
 10
10.00000000000186
 20
-7.593639236695978
 30
0.0
 10
10.00000000000186
 20
-7.974063252079858
 30
0.0
  0
SPLINE
  5
29D
330
1F
100
AcDbEntity
  8
0
  6
Continuous
 62
     1
370
    15
100
AcDbSpline
210
0.0
220
0.0
230
1.0
 70
     8
 71
     3
 72
    15
 73
    11
 74
     0
 42
0.000000001
 43
0.00000001
 40
0.0
 40
0.0
 40
0.0
 40
0.0
 40
0.1401010149708712
 40
0.2803129092773328
 40
0.4204691203414426
 40
0.5605370074862888
 40
0.6954608176031578
 40
0.8304626199712523
 40
0.9655761964683433
 40
1.0
 40
1.0
 40
1.0
 40
1.0
 10
9.999999999999645
 20
-2.694442911959698
 30
0.0
 10
10.57107729598418
 20
-3.233961786868363
 30
0.0
 10
11.71368385235311
 20
-4.313426524986951
 30
0.0
 10
13.42877648006349
 20
-5.768870954534989
 30
0.0
 10
15.14306501941168
 20
-7.045231358738633
 30
0.0
 10
16.83525067839309
 20
-8.077925019024761
 30
0.0
 10
18.50606065949945
 20
-8.854324507626885
 30
0.0
 10
20.15710465391241
 20
-9.332930698971253
 30
0.0
 10
21.39963228185893
 20
-9.545982752148646
 30
0.0
 10
22.09071018635694
 20
-9.505970298167014
 30
0.0
 10
22.23103045086424
 20
-9.497845949103393
 30
0.0
  0
SPLINE
  5
29E
330
1F
100
AcDbEntity
  8
0
  6
Continuous
 62
     1
370
    15
100
AcDbSpline
210
0.0
220
0.0
230
1.0
 70
     8
 71
     3
 72
    28
 73
    24
 74
     0
 42
0.000000001
 43
0.00000001
 40
0.0
 40
0.0
 40
0.0
 40
0.0
 40
0.0324836063164634
 40
0.0821208587712802
 40
0.131711511934062
 40
0.1812936180498767
 40
0.2309053816574038
 40
0.2805567365665239
 40
0.330161274989997
 40
0.379742186963009
 40
0.4293376903433154
 40
0.4789830093984487
 40
0.5286073526474457
 40
0.5781930311295445
 40
0.6277782095480279
 40
0.6774010581815133
 40
0.7270474000252052
 40
0.7766437973712613
 40
0.8262246040530601
 40
0.8834414989668582
 40
0.9406677325608689
 40
0.9979074440594684
 40
1.0
 40
1.0
 40
1.0
 40
1.0
 10
48.79541312409769
 20
8.908487392508079
 30
0.0
 10
49.15584941483816
 20
9.033858452590252
 30
0.0
 10
50.06705790073035
 20
9.350805377100798
 30
0.0
 10
51.52887919342116
 20
9.545411596932652
 30
0.0
 10
53.17918606675046
 20
9.51927668523372
 30
0.0
 10
54.829209005924
 20
9.19712021550204
 30
0.0
 10
56.48033927654087
 20
8.602055096790892
 30
0.0
 10
58.13294975081986
 20
7.748900303673082
 30
0.0
 10
59.78380727522831
 20
6.663142303625932
 30
0.0
 10
61.43378632736868
 20
5.377828727753041
 30
0.0
 10
63.08430013837879
 20
3.931023798784068
 30
0.0
 10
64.73668589279013
 20
2.367214878046141
 30
0.0
 10
66.38829161108826
 20
0.7319520547744958
 30
0.0
 10
68.03843271274285
 20
-0.9253856913056495
 30
0.0
 10
69.68855440736384
 20
-2.55495853664695
 30
0.0
 10
71.34010775268955
 20
-4.107911668887709
 30
0.0
 10
72.99251826597826
 20
-5.537052338072883
 30
0.0
 10
74.64311536217379
 20
-6.801693184285185
 30
0.0
 10
76.37733134634597
 20
-7.913756985044628
 30
0.0
 10
78.19746132661673
 20
-8.811606281906862
 30
0.0
 10
80.10236923501155
 20
-9.355852719337875
 30
0.0
 10
81.39585484587978
 20
-9.583445054010596
 30
0.0
 10
82.05434033316162
 20
-9.520528301045786
 30
0.0
 10
82.07756408269348
 20
-9.518309325927234
 30
0.0
  0
LINE
  5
2A0
330
1F
100
AcDbEntity
  8
0
  6
Continuous
 62
     1
370
    15
100
AcDbLine
 10
10.0
 20
-9.259187191221727
 30
0.0
 11
10.00000000000186
 21
-7.974063252079858
 31
0.0
  0
LINE
  5
2A2
330
1F
100
AcDbEntity
  8
0
  6
Continuous
 62
     1
370
    15
100
AcDbLine
 10
10.0
 20
6.564744279262328
 30
0.0
 11
10.00000000000186
 21
8.498678242173796
 31
0.0
  0
LINE
  5
2A3
330
1F
100
AcDbEntity
  8
0
  6
Continuous
 62
     1
370
    15
100
AcDbLine
 10
10.0
 20
-2.694442911959356
 30
0.0
 11
10.00000000000186
 21
0.5246149900938804
 31
0.0
  0
LINE
  5
2A4
330
1F
100
AcDbEntity
  8
0
  6
Continuous
 62
     1
370
    15
100
AcDbLine
 10
86.20000000000185
 20
0.0
 30
0.0
 11
86.20000000000185
 21
7.239000000000004
 31
0.0
  0
LINE
  5
2A5
330
1F
100
AcDbEntity
  8
0
  6
Continuous
 62
     1
370
    15
100
AcDbLine
 10
86.20000000000185
 20
-7.23899999999999
 30
0.0
 11
86.20000000000185
 21
0.0
 31
0.0
  0
LINE
  5
2A8
330
1F
100
AcDbEntity
  8
중심선
100
AcDbLine
 10
-56.49999999999815
 20
0.0
 30
0.0
 11
89.20000000000188
 21
0.0
 31
0.0
  0
CIRCLE
  5
2A9
330
1F
100
AcDbEntity
  8
외형선
100
AcDbCircle
 10
0.0
 20
0.0
 30
0.0
 40
3.000000000001772
  0
POINT
  5
2AA
330
1F
100
AcDbEntity
  8
치수문자_일반주서
100
AcDbPoint
 10
0.0
 20
0.0
 30
0.0
  0
DIMENSION
  5
2AB
330
1F
100
AcDbEntity
  8
치수문자_일반주서
100
AcDbDimension
  2
*D11
 10
86.20000000000184
 20
42.18055141807179
 30
0.0
 11
16.35000000000187
 21
42.18055141807179
 31
0.0
 70
   160
  1
<>
 71
     2
 42
139.7
  3
SLDDIMSTYLE0
100
AcDbAlignedDimension
 13
-53.49999999999812
 23
9.024999999999991
 33
0.0
 14
86.20000000000185
 24
7.239000000000004
 34
0.0
 50
-0.0000000000000029
100
AcDbRotatedDimension
1001
ACAD
1000
DSTYLE
1002
{
1070
   273
1070
     7
1002
}
  0
DIMENSION
  5
2AC
330
1F
100
AcDbEntity
  8
치수문자_일반주서
100
AcDbDimension
  2
*D12
 10
10.00000000000185
 20
24.86599453033794
 30
0.0
 11
47.26180339570537
 21
24.86599453033794
 31
0.0
 70
   160
  1
<>
 71
     2
 42
76.2
  3
SLDDIMSTYLE0
100
AcDbAlignedDimension
 13
86.20000000000185
 23
7.239000000000004
 33
0.0
 14
10.00000000000185
 24
-9.261820252409834
 34
0.0
 50
0.000000000000008
100
AcDbRotatedDimension
1001
ACAD
1000
DSTYLE
1002
{
1070
   273
1070
     7
1002
}
  0
DIMENSION
  5
2AD
330
1F
100
AcDbEntity
  8
치수문자_일반주서
100
AcDbDimension
  2
*D13
 10
-66.49999999999811
 20
-9.525000000000041
 30
0.0
 11
-66.49999999999815
 21
0.0
 31
0.0
 70
   160
  1
%%c<>
 71
     2
 42
19.05
 52
-270.0
  3
SLDDIMSTYLE1
100
AcDbAlignedDimension
 13
-52.99999999999812
 23
9.525000000000006
 33
0.0
 14
-52.99999999999812
 24
-9.524999999999991
 34
0.0
 50
90.0000000000002
100
AcDbRotatedDimension
1001
ACAD
1000
DSTYLE
1002
{
1070
   273
1070
     7
1002
}
  0
INSERT
  5
2AE
330
1F
100
AcDbEntity
  8
외형선
100
AcDbBlockReference
  2
SW_DOWELSYMBOL_0
 10
0.0
 20
0.0
 30
0.0
  0
DIMENSION
  5
2D3
102
{ACAD_REACTORS
102
}
102
{ACAD_XDICTIONARY
360
2D4
102
}
330
1F
100
AcDbEntity
  8
치수문자_일반주서
100
AcDbDimension
  2
*D14
 10
98.41429054049301
 20
-9.524999999999991
 30
0.0
 11
98.41429054049301
 21
0.0000000000000071
 31
0.0
 70
   160
  1
{%%c<>}
 71
     5
 42
19.05
  3
SLDDIMSTYLE1
100
AcDbAlignedDimension
 13
83.91400000000185
 23
9.525000000000006
 33
0.0
 14
83.9140000000019
 24
-9.524999999999991
 34
0.0
 50
90.0
100
AcDbRotatedDimension
1001
ACAD
1000
DSTYLE
1002
{
1070
   273
1070
     7
1002
}
  0
DIMENSION
  5
2E4
102
{ACAD_REACTORS
102
}
102
{ACAD_XDICTIONARY
360
2E5
102
}
330
1F
100
AcDbEntity
  8
치수문자_일반주서
100
AcDbDimension
  2
*D15
 10
83.91400000000185
 20
7.239000000000004
 30
0.0
 11
102.1040275906611
 21
26.3410576423278
 31
0.0
 70
   164
  1
<>
 71
     5
 42
2.286000000000001
  3
SLDDIMSTYLE1
100
AcDbRadialDimension
 15
85.49044227705315
 25
8.89448353876604
 35
0.0
 40
0.0
1001
ACAD
1000
DSTYLE
1002
{
1070
   171
1070
     3
1070
   273
1070
     2
1002
}
1001
ACAD_DSTYLE_DIMRADIAL_EXTENSION
1070
   387
1070
     1
1070
   388
1040
0.0
1070
   390
1040
1.570796326794897
  0
ENDSEC
  0
SECTION
  2
OBJECTS
  0
DICTIONARY
  5
C
330
0
100
AcDbDictionary
281
     1
  3
ACAD_GROUP
350
D
  3
ACAD_IMAGE_VARS
350
158
  3
ACAD_LAYOUT
350
1A
  3
ACAD_MLINESTYLE
350
17
  3
ACAD_PLOTSETTINGS
350
19
  3
ACAD_PLOTSTYLENAME
350
E
  3
ACAD_SCALELIST
350
47
  3
APPDATA
350
156
  3
DWGPROPS
350
2F1
  0
DICTIONARY
  5
2D4
330
2D3
100
AcDbDictionary
280
     1
281
     1
  0
DICTIONARY
  5
2E5
330
2E4
100
AcDbDictionary
280
     1
281
     1
  0
DICTIONARY
  5
D
102
{ACAD_REACTORS
330
C
102
}
330
C
100
AcDbDictionary
281
     1
  0
RASTERVARIABLES
  5
158
102
{ACAD_REACTORS
330
C
102
}
330
C
100
AcDbRasterVariables
 90
        0
 70
     1
 71
     1
 72
     1
  0
DICTIONARY
  5
1A
102
{ACAD_REACTORS
330
C
102
}
330
C
100
AcDbDictionary
281
     1
  3
Layout1
350
1E
  3
Layout2
350
26
  3
Model
350
22
  0
DICTIONARY
  5
17
102
{ACAD_REACTORS
330
C
102
}
330
C
100
AcDbDictionary
281
     1
  3
Standard
350
18
  0
DICTIONARY
  5
19
102
{ACAD_REACTORS
330
C
102
}
330
C
100
AcDbDictionary
281
     1
  0
ACDBDICTIONARYWDFLT
  5
E
102
{ACAD_REACTORS
330
C
102
}
330
C
100
AcDbDictionary
281
     1
  3
Normal
350
F
100
AcDbDictionaryWithDefault
340
F
  0
DICTIONARY
  5
47
102
{ACAD_REACTORS
330
C
102
}
330
C
100
AcDbDictionary
281
     1
  3
A0
350
48
  3
A1
350
49
  3
A2
350
4A
  3
A3
350
4B
  3
A4
350
4C
  3
A5
350
4D
  3
A6
350
4E
  3
A7
350
4F
  3
A8
350
50
  3
A9
350
51
  3
B0
350
52
  3
B1
350
53
  3
B2
350
54
  3
B3
350
55
  3
B4
350
56
  3
B5
350
57
  3
B6
350
58
  3
B7
350
59
  3
B8
350
5A
  3
B9
350
5B
  3
C0
350
5C
  3
C1
350
5D
  3
C2
350
5E
  3
C3
350
5F
  3
C4
350
60
  3
C5
350
61
  3
C6
350
62
  3
C7
350
63
  3
C8
350
64
  3
C9
350
65
  3
D0
350
66
  3
D1
350
67
  3
D2
350
68
  0
DICTIONARY
  5
156
102
{ACAD_REACTORS
330
C
102
}
330
C
100
AcDbDictionary
281
     1
  0
XRECORD
  5
2F1
102
{ACAD_REACTORS
330
C
102
}
330
C
100
AcDbXrecord
280
     1
  1
DWGPROPS COOKIE
  2

  3

  4

  6

  7

  8
12016016
  9

300
=
301
=
302
=
303
=
304
=
305
=
306
=
307
=
308
=
309
=
 40
0.0
 41
2458236.376207384
 42
2458241.975585926
  1

 90
        0
  0
LAYOUT
  5
1E
102
{ACAD_REACTORS
330
1A
102
}
330
1A
100
AcDbPlotSettings
  1

  2
none_device
  4

  6

 40
0.0
 41
0.0
 42
0.0
 43
0.0
 44
0.0
 45
0.0
 46
0.0
 47
0.0
 48
0.0
 49
0.0
140
0.0
141
0.0
142
1.0
143
1.0
 70
   688
 72
     1
 73
     0
 74
     5
  7

 75
    16
147
1.0
148
0.0
149
0.0
100
AcDbLayout
  1
Layout1
 70
     1
 71
     1
 10
0.0
 20
0.0
 11
420.0
 21
297.0
 12
0.0
 22
0.0
 32
0.0
 14
1.000000000000000E+20
 24
1.000000000000000E+20
 34
1.000000000000000E+20
 15
-1.000000000000000E+20
 25
-1.000000000000000E+20
 35
-1.000000000000000E+20
146
0.0
 13
0.0
 23
0.0
 33
0.0
 16
1.0
 26
0.0
 36
0.0
 17
0.0
 27
1.0
 37
0.0
 76
     0
330
1B
  0
LAYOUT
  5
26
102
{ACAD_REACTORS
330
1A
102
}
330
1A
100
AcDbPlotSettings
  1

  2
none_device
  4

  6

 40
0.0
 41
0.0
 42
0.0
 43
0.0
 44
0.0
 45
0.0
 46
0.0
 47
0.0
 48
0.0
 49
0.0
140
0.0
141
0.0
142
1.0
143
1.0
 70
   688
 72
     1
 73
     0
 74
     5
  7

 75
    16
147
1.0
148
0.0
149
0.0
100
AcDbLayout
  1
Layout2
 70
     1
 71
     2
 10
0.0
 20
0.0
 11
0.0
 21
0.0
 12
0.0
 22
0.0
 32
0.0
 14
0.0
 24
0.0
 34
0.0
 15
0.0
 25
0.0
 35
0.0
146
0.0
 13
0.0
 23
0.0
 33
0.0
 16
1.0
 26
0.0
 36
0.0
 17
0.0
 27
1.0
 37
0.0
 76
     0
330
23
  0
LAYOUT
  5
22
102
{ACAD_REACTORS
330
1A
102
}
330
1A
100
AcDbPlotSettings
  1

  2
none_device
  4
ANSI_A_(11.00_x_8.50_Inches)
  6

 40
6.35
 41
19.05
 42
6.35000508
 43
19.05000254
 44
279.4
 45
215.9
 46
112.8483620103023
 47
87.24088821947862
 48
0.0
 49
0.0
140
0.0
141
0.0
142
0.0654082017666865
143
1.0
 70
  1696
 72
     0
 73
     0
 74
     0
  7

 75
     0
147
0.0235690232323232
148
0.0
149
0.0
100
AcDbLayout
  1
Model
 70
     1
 71
     0
 10
0.0
 20
0.0
 11
420.0
 21
297.0
 12
0.0
 22
0.0
 32
0.0
 14
1.000000000000000E+20
 24
1.000000000000000E+20
 34
1.000000000000000E+20
 15
-1.000000000000000E+20
 25
-1.000000000000000E+20
 35
-1.000000000000000E+20
146
0.0
 13
0.0
 23
0.0
 33
0.0
 16
1.0
 26
0.0
 36
0.0
 17
0.0
 27
1.0
 37
0.0
 76
     0
330
1F
331
29
  0
MLINESTYLE
  5
18
102
{ACAD_REACTORS
330
17
102
}
330
17
100
AcDbMlineStyle
  2
Standard
 70
     0
  3

 62
   256
 51
90.0
 52
90.0
 71
     2
 49
0.5
 62
   256
  6
BYLAYER
 49
-0.5
 62
   256
  6
BYLAYER
  0
ACDBPLACEHOLDER
  5
F
102
{ACAD_REACTORS
330
E
102
}
330
E
  0
SCALE
  5
48
102
{ACAD_REACTORS
330
47
102
}
330
47
100
AcDbScale
 70
     0
300
1:1
140
1.0
141
1.0
290
     1
  0
SCALE
  5
49
102
{ACAD_REACTORS
330
47
102
}
330
47
100
AcDbScale
 70
     0
300
1:2
140
1.0
141
2.0
290
     0
  0
SCALE
  5
4A
102
{ACAD_REACTORS
330
47
102
}
330
47
100
AcDbScale
 70
     0
300
1:4
140
1.0
141
4.0
290
     0
  0
SCALE
  5
4B
102
{ACAD_REACTORS
330
47
102
}
330
47
100
AcDbScale
 70
     0
300
1:5
140
1.0
141
5.0
290
     0
  0
SCALE
  5
4C
102
{ACAD_REACTORS
330
47
102
}
330
47
100
AcDbScale
 70
     0
300
1:8
140
1.0
141
8.0
290
     0
  0
SCALE
  5
4D
102
{ACAD_REACTORS
330
47
102
}
330
47
100
AcDbScale
 70
     0
300
1:10
140
1.0
141
10.0
290
     0
  0
SCALE
  5
4E
102
{ACAD_REACTORS
330
47
102
}
330
47
100
AcDbScale
 70
     0
300
1:16
140
1.0
141
16.0
290
     0
  0
SCALE
  5
4F
102
{ACAD_REACTORS
330
47
102
}
330
47
100
AcDbScale
 70
     0
300
1:20
140
1.0
141
20.0
290
     0
  0
SCALE
  5
50
102
{ACAD_REACTORS
330
47
102
}
330
47
100
AcDbScale
 70
     0
300
1:30
140
1.0
141
30.0
290
     0
  0
SCALE
  5
51
102
{ACAD_REACTORS
330
47
102
}
330
47
100
AcDbScale
 70
     0
300
1:40
140
1.0
141
40.0
290
     0
  0
SCALE
  5
52
102
{ACAD_REACTORS
330
47
102
}
330
47
100
AcDbScale
 70
     0
300
1:50
140
1.0
141
50.0
290
     0
  0
SCALE
  5
53
102
{ACAD_REACTORS
330
47
102
}
330
47
100
AcDbScale
 70
     0
300
1:100
140
1.0
141
100.0
290
     0
  0
SCALE
  5
54
102
{ACAD_REACTORS
330
47
102
}
330
47
100
AcDbScale
 70
     0
300
2:1
140
2.0
141
1.0
290
     0
  0
SCALE
  5
55
102
{ACAD_REACTORS
330
47
102
}
330
47
100
AcDbScale
 70
     0
300
4:1
140
4.0
141
1.0
290
     0
  0
SCALE
  5
56
102
{ACAD_REACTORS
330
47
102
}
330
47
100
AcDbScale
 70
     0
300
8:1
140
8.0
141
1.0
290
     0
  0
SCALE
  5
57
102
{ACAD_REACTORS
330
47
102
}
330
47
100
AcDbScale
 70
     0
300
10:1
140
10.0
141
1.0
290
     0
  0
SCALE
  5
58
102
{ACAD_REACTORS
330
47
102
}
330
47
100
AcDbScale
 70
     0
300
100:1
140
100.0
141
1.0
290
     0
  0
SCALE
  5
59
102
{ACAD_REACTORS
330
47
102
}
330
47
100
AcDbScale
 70
     0
300
1/128" = 1'-0"
140
0.0078125
141
12.0
290
     0
  0
SCALE
  5
5A
102
{ACAD_REACTORS
330
47
102
}
330
47
100
AcDbScale
 70
     0
300
1/64" = 1'-0"
140
0.015625
141
12.0
290
     0
  0
SCALE
  5
5B
102
{ACAD_REACTORS
330
47
102
}
330
47
100
AcDbScale
 70
     0
300
1/32" = 1'-0"
140
0.03125
141
12.0
290
     0
  0
SCALE
  5
5C
102
{ACAD_REACTORS
330
47
102
}
330
47
100
AcDbScale
 70
     0
300
1/16" = 1'-0"
140
0.0625
141
12.0
290
     0
  0
SCALE
  5
5D
102
{ACAD_REACTORS
330
47
102
}
330
47
100
AcDbScale
 70
     0
300
3/32" = 1'-0"
140
0.09375
141
12.0
290
     0
  0
SCALE
  5
5E
102
{ACAD_REACTORS
330
47
102
}
330
47
100
AcDbScale
 70
     0
300
1/8" = 1'-0"
140
0.125
141
12.0
290
     0
  0
SCALE
  5
5F
102
{ACAD_REACTORS
330
47
102
}
330
47
100
AcDbScale
 70
     0
300
3/16" = 1'-0"
140
0.1875
141
12.0
290
     0
  0
SCALE
  5
60
102
{ACAD_REACTORS
330
47
102
}
330
47
100
AcDbScale
 70
     0
300
1/4" = 1'-0"
140
0.25
141
12.0
290
     0
  0
SCALE
  5
61
102
{ACAD_REACTORS
330
47
102
}
330
47
100
AcDbScale
 70
     0
300
3/8" = 1'-0"
140
0.375
141
12.0
290
     0
  0
SCALE
  5
62
102
{ACAD_REACTORS
330
47
102
}
330
47
100
AcDbScale
 70
     0
300
1/2" = 1'-0"
140
0.5
141
12.0
290
     0
  0
SCALE
  5
63
102
{ACAD_REACTORS
330
47
102
}
330
47
100
AcDbScale
 70
     0
300
3/4" = 1'-0"
140
0.75
141
12.0
290
     0
  0
SCALE
  5
64
102
{ACAD_REACTORS
330
47
102
}
330
47
100
AcDbScale
 70
     0
300
1" = 1'-0"
140
1.0
141
12.0
290
     0
  0
SCALE
  5
65
102
{ACAD_REACTORS
330
47
102
}
330
47
100
AcDbScale
 70
     0
300
1-1/2" = 1'-0"
140
1.5
141
12.0
290
     0
  0
SCALE
  5
66
102
{ACAD_REACTORS
330
47
102
}
330
47
100
AcDbScale
 70
     0
300
3" = 1'-0"
140
3.0
141
12.0
290
     0
  0
SCALE
  5
67
102
{ACAD_REACTORS
330
47
102
}
330
47
100
AcDbScale
 70
     0
300
6" = 1'-0"
140
6.0
141
12.0
290
     0
  0
SCALE
  5
68
102
{ACAD_REACTORS
330
47
102
}
330
47
100
AcDbScale
 70
     0
300
1'-0" = 1'-0"
140
12.0
141
12.0
290
     0
  0
ENDSEC
  0
EOF
