  0
SECTION
  2
HEADER
  9
$ACADVER
  1
AC1015
  9
$ACADMAINTVER
 70
     6
  9
$DWGCODEPAGE
  3
ANSI_949
  9
$INSBASE
 10
0.0
 20
0.0
 30
0.0
  9
$EXTMIN
 10
1.000000000000000E+20
 20
1.000000000000000E+20
 30
1.000000000000000E+20
  9
$EXTMAX
 10
-1.000000000000000E+20
 20
-1.000000000000000E+20
 30
-1.000000000000000E+20
  9
$LIMMIN
 10
0.0
 20
0.0
  9
$LIMMAX
 10
420.0
 20
297.0
  9
$ORTHOMODE
 70
     0
  9
$REGENMODE
 70
     1
  9
$FILLMODE
 70
     1
  9
$QTEXTMODE
 70
     0
  9
$MIRRTEXT
 70
     1
  9
$LTSCALE
 40
1.0
  9
$ATTMODE
 70
     1
  9
$TEXTSIZE
 40
3.5
  9
$TRACEWID
 40
1.0
  9
$TEXTSTYLE
  7
Standard
  9
$CLAYER
  8
0
  9
$CELTYPE
  6
ByLayer
  9
$CECOLOR
 62
   256
  9
$CELTSCALE
 40
1.0
  9
$DISPSILH
 70
     0
  9
$DIMSCALE
 40
1.0
  9
$DIMASZ
 40
3.302
  9
$DIMEXO
 40
1.0
  9
$DIMDLI
 40
3.75
  9
$DIMRND
 40
0.0
  9
$DIMDLE
 40
0.0
  9
$DIMEXE
 40
1.0
  9
$DIMTP
 40
0.0
  9
$DIMTM
 40
0.0
  9
$DIMTXT
 40
3.5
  9
$DIMCEN
 40
2.5
  9
$DIMTSZ
 40
0.0
  9
$DIMTOL
 70
     0
  9
$DIMLIM
 70
     0
  9
$DIMTIH
 70
     1
  9
$DIMTOH
 70
     1
  9
$DIMSE1
 70
     0
  9
$DIMSE2
 70
     0
  9
$DIMTAD
 70
     1
  9
$DIMZIN
 70
     0
  9
$DIMBLK
  1

  9
$DIMASO
 70
     1
  9
$DIMSHO
 70
     1
  9
$DIMPOST
  1

  9
$DIMAPOST
  1

  9
$DIMALT
 70
     0
  9
$DIMALTD
 70
     3
  9
$DIMALTF
 40
0.0393700787401575
  9
$DIMLFAC
 40
1.0
  9
$DIMTOFL
 70
     1
  9
$DIMTVP
 40
0.0
  9
$DIMTIX
 70
     0
  9
$DIMSOXD
 70
     0
  9
$DIMSAH
 70
     0
  9
$DIMBLK1
  1

  9
$DIMBLK2
  1

  9
$DIMSTYLE
  2
ISO-25
  9
$DIMCLRD
 70
     0
  9
$DIMCLRE
 70
     0
  9
$DIMCLRT
 70
     0
  9
$DIMTFAC
 40
1.0
  9
$DIMGAP
 40
1.524
  9
$DIMJUST
 70
     0
  9
$DIMSD1
 70
     0
  9
$DIMSD2
 70
     0
  9
$DIMTOLJ
 70
     0
  9
$DIMTZIN
 70
     0
  9
$DIMALTZ
 70
     0
  9
$DIMALTTZ
 70
     0
  9
$DIMUPT
 70
     0
  9
$DIMDEC
 70
     2
  9
$DIMTDEC
 70
     2
  9
$DIMALTU
 70
     2
  9
$DIMALTTD
 70
     3
  9
$DIMTXSTY
  7
Standard
  9
$DIMAUNIT
 70
     0
  9
$DIMADEC
 70
     2
  9
$DIMALTRND
 40
0.0
  9
$DIMAZIN
 70
     0
  9
$DIMDSEP
 70
    44
  9
$DIMATFIT
 70
     3
  9
$DIMFRAC
 70
     0
  9
$DIMLDRBLK
  1

  9
$DIMLUNIT
 70
     2
  9
$DIMLWD
 70
    -2
  9
$DIMLWE
 70
    -2
  9
$DIMTMOVE
 70
     0
  9
$LUNITS
 70
     2
  9
$LUPREC
 70
     2
  9
$SKETCHINC
 40
1.0
  9
$FILLETRAD
 40
10.0
  9
$AUNITS
 70
     0
  9
$AUPREC
 70
     2
  9
$MENU
  1
.
  9
$ELEVATION
 40
0.0
  9
$PELEVATION
 40
0.0
  9
$THICKNESS
 40
0.0
  9
$LIMCHECK
 70
     0
  9
$CHAMFERA
 40
0.0
  9
$CHAMFERB
 40
0.0
  9
$CHAMFERC
 40
0.0
  9
$CHAMFERD
 40
0.0
  9
$SKPOLY
 70
     0
  9
$TDCREATE
 40
2458236.750393623
  9
$TDUCREATE
 40
2458236.375393623
  9
$TDUPDATE
 40
2458242.378786968
  9
$TDUUPDATE
 40
2458242.003786968
  9
$TDINDWG
 40
0.0054808681
  9
$TDUSRTIMER
 40
2458241.970981586
  9
$USRTIMER
 70
     1
  9
$ANGBASE
 50
0.0
  9
$ANGDIR
 70
     0
  9
$PDMODE
 70
     0
  9
$PDSIZE
 40
-1.0
  9
$PLINEWID
 40
0.0
  9
$SPLFRAME
 70
     0
  9
$SPLINETYPE
 70
     6
  9
$SPLINESEGS
 70
     8
  9
$HANDSEED
  5
2DE
  9
$SURFTAB1
 70
     6
  9
$SURFTAB2
 70
     6
  9
$SURFTYPE
 70
     6
  9
$SURFU
 70
     6
  9
$SURFV
 70
     6
  9
$UCSBASE
  2

  9
$UCSNAME
  2

  9
$UCSORG
 10
0.0
 20
0.0
 30
0.0
  9
$UCSXDIR
 10
1.0
 20
0.0
 30
0.0
  9
$UCSYDIR
 10
0.0
 20
1.0
 30
0.0
  9
$UCSORTHOREF
  2

  9
$UCSORTHOVIEW
 70
     0
  9
$UCSORGTOP
 10
0.0
 20
0.0
 30
0.0
  9
$UCSORGBOTTOM
 10
0.0
 20
0.0
 30
0.0
  9
$UCSORGLEFT
 10
0.0
 20
0.0
 30
0.0
  9
$UCSORGRIGHT
 10
0.0
 20
0.0
 30
0.0
  9
$UCSORGFRONT
 10
0.0
 20
0.0
 30
0.0
  9
$UCSORGBACK
 10
0.0
 20
0.0
 30
0.0
  9
$PUCSBASE
  2

  9
$PUCSNAME
  2

  9
$PUCSORG
 10
0.0
 20
0.0
 30
0.0
  9
$PUCSXDIR
 10
1.0
 20
0.0
 30
0.0
  9
$PUCSYDIR
 10
0.0
 20
1.0
 30
0.0
  9
$PUCSORTHOREF
  2

  9
$PUCSORTHOVIEW
 70
     0
  9
$PUCSORGTOP
 10
0.0
 20
0.0
 30
0.0
  9
$PUCSORGBOTTOM
 10
0.0
 20
0.0
 30
0.0
  9
$PUCSORGLEFT
 10
0.0
 20
0.0
 30
0.0
  9
$PUCSORGRIGHT
 10
0.0
 20
0.0
 30
0.0
  9
$PUCSORGFRONT
 10
0.0
 20
0.0
 30
0.0
  9
$PUCSORGBACK
 10
0.0
 20
0.0
 30
0.0
  9
$USERI1
 70
     0
  9
$USERI2
 70
     0
  9
$USERI3
 70
     0
  9
$USERI4
 70
     0
  9
$USERI5
 70
     0
  9
$USERR1
 40
0.0
  9
$USERR2
 40
0.0
  9
$USERR3
 40
0.0
  9
$USERR4
 40
0.0
  9
$USERR5
 40
0.0
  9
$WORLDVIEW
 70
     1
  9
$SHADEDGE
 70
     3
  9
$SHADEDIF
 70
    70
  9
$TILEMODE
 70
     1
  9
$MAXACTVP
 70
    64
  9
$PINSBASE
 10
0.0
 20
0.0
 30
0.0
  9
$PLIMCHECK
 70
     0
  9
$PEXTMIN
 10
40.5
 20
25.69999999999999
 30
0.0
  9
$PEXTMAX
 10
364.5
 20
231.3
 30
0.0
  9
$PLIMMIN
 10
-7.5
 20
-20.0
  9
$PLIMMAX
 10
412.5
 20
277.0
  9
$UNITMODE
 70
     0
  9
$VISRETAIN
 70
     1
  9
$PLINEGEN
 70
     0
  9
$PSLTSCALE
 70
     1
  9
$TREEDEPTH
 70
  3020
  9
$CMLSTYLE
  2
Standard
  9
$CMLJUST
 70
     0
  9
$CMLSCALE
 40
20.0
  9
$PROXYGRAPHICS
 70
     1
  9
$MEASUREMENT
 70
     1
  9
$CELWEIGHT
370
    -1
  9
$ENDCAPS
280
     0
  9
$JOINSTYLE
280
     0
  9
$LWDISPLAY
290
     1
  9
$INSUNITS
 70
     4
  9
$HYPERLINKBASE
  1

  9
$STYLESHEET
  1

  9
$XEDIT
290
     1
  9
$CEPSNTYPE
380
     0
  9
$PSTYLEMODE
290
     1
  9
$FINGERPRINTGUID
  2
{7EC155DC-53F6-47AD-9D6F-FCDD37551417}
  9
$VERSIONGUID
  2
{FAEB1C32-E019-11D5-929B-00C0DF256EC4}
  9
$EXTNAMES
290
     1
  9
$PSVPSCALE
 40
0.0
  9
$OLESTARTUP
290
     0
  0
ENDSEC
  0
SECTION
  2
CLASSES
  0
CLASS
  1
ACDBDICTIONARYWDFLT
  2
AcDbDictionaryWithDefault
  3
ObjectDBX Classes
 90
        0
280
     0
281
     0
  0
CLASS
  1
VISUALSTYLE
  2
AcDbVisualStyle
  3
ObjectDBX Classes
 90
     4095
280
     0
281
     0
  0
CLASS
  1
MATERIAL
  2
AcDbMaterial
  3
ObjectDBX Classes
 90
     1153
280
     0
281
     0
  0
CLASS
  1
SCALE
  2
AcDbScale
  3
ObjectDBX Classes
 90
     1153
280
     0
281
     0
  0
CLASS
  1
SUN
  2
AcDbSun
  3
SCENEOE
 90
     1153
280
     0
281
     0
  0
CLASS
  1
ACDBPLACEHOLDER
  2
AcDbPlaceHolder
  3
ObjectDBX Classes
 90
        0
280
     0
281
     0
  0
CLASS
  1
LAYOUT
  2
AcDbLayout
  3
ObjectDBX Classes
 90
        0
280
     0
281
     0
  0
CLASS
  1
TABLESTYLE
  2
AcDbTableStyle
  3
ObjectDBX Classes
 90
     4095
280
     0
281
     0
  0
CLASS
  1
MLEADERSTYLE
  2
AcDbMLeaderStyle
  3
ACDB_MLEADERSTYLE_CLASS
 90
     4095
280
     0
281
     0
  0
CLASS
  1
RASTERVARIABLES
  2
AcDbRasterVariables
  3
ISM
 90
        0
280
     0
281
     0
  0
CLASS
  1
DIMASSOC
  2
AcDbDimAssoc
  3
"AcDbDimAssoc|Product Desc:     AcDim ARX App For Dimension|Company:          Autodesk, Inc.|WEB Address:      www.autodesk.com"
 90
        0
280
     0
281
     0
  0
ENDSEC
  0
SECTION
  2
TABLES
  0
TABLE
  2
VPORT
  5
8
330
0
100
AcDbSymbolTable
 70
     1
  0
VPORT
  5
29
330
8
100
AcDbSymbolTableRecord
100
AcDbViewportTableRecord
  2
*Active
 70
     0
 10
0.0
 20
0.0
 11
1.0
 21
1.0
 12
2.478497984643212
 22
-0.6491761536316147
 13
0.0
 23
0.0
 14
10.0
 24
10.0
 15
10.0
 25
10.0
 16
0.0
 26
0.0
 36
1.0
 17
0.0
 27
0.0
 37
0.0
 40
167.0274371056807
 41
1.328320802005013
 42
50.0
 43
0.0
 44
0.0
 50
0.0
 51
0.0
 71
    16
 72
  2000
 73
     1
 74
     3
 75
     0
 76
     0
 77
     0
 78
     0
281
     0
 65
     1
110
0.0
120
0.0
130
0.0
111
1.0
121
0.0
131
0.0
112
0.0
122
1.0
132
0.0
 79
     0
146
0.0
  0
ENDTAB
  0
TABLE
  2
LTYPE
  5
5
330
0
100
AcDbSymbolTable
 70
     6
  0
LTYPE
  5
14
330
5
100
AcDbSymbolTableRecord
100
AcDbLinetypeTableRecord
  2
ByBlock
 70
     0
  3

 72
    65
 73
     0
 40
0.0
  0
LTYPE
  5
15
330
5
100
AcDbSymbolTableRecord
100
AcDbLinetypeTableRecord
  2
ByLayer
 70
     0
  3

 72
    65
 73
     0
 40
0.0
  0
LTYPE
  5
16
330
5
100
AcDbSymbolTableRecord
100
AcDbLinetypeTableRecord
  2
Continuous
 70
     0
  3
Solid line
 72
    65
 73
     0
 40
0.0
  0
LTYPE
  5
6A
330
5
100
AcDbSymbolTableRecord
100
AcDbLinetypeTableRecord
  2
HIDDEN
 70
     0
  3
Hidden __ __ __ __ __ __ __ __ __ __ __ __ __ __
 72
    65
 73
     2
 40
1.905
 49
1.27
 74
     0
 49
-0.635
 74
     0
  0
LTYPE
  5
6B
330
5
100
AcDbSymbolTableRecord
100
AcDbLinetypeTableRecord
  2
PHANTOM
 70
     0
  3
Phantom ______  __  __  ______  __  __  ______
 72
    65
 73
     6
 40
12.7
 49
6.35
 74
     0
 49
-1.27
 74
     0
 49
1.27
 74
     0
 49
-1.27
 74
     0
 49
1.27
 74
     0
 49
-1.27
 74
     0
  0
LTYPE
  5
6C
330
5
100
AcDbSymbolTableRecord
100
AcDbLinetypeTableRecord
  2
CENTER
 70
     0
  3
Center ____ _ ____ _ ____ _ ____ _ ____ _ ____
 72
    65
 73
     4
 40
10.16
 49
6.35
 74
     0
 49
-1.27
 74
     0
 49
1.27
 74
     0
 49
-1.27
 74
     0
  0
LTYPE
  5
6D
330
5
100
AcDbSymbolTableRecord
100
AcDbLinetypeTableRecord
  2
CENTERX2
 70
     0
  3
Center (2x) ________  __  ________  __  _____
 72
    65
 73
     4
 40
20.32
 49
12.7
 74
     0
 49
-2.54
 74
     0
 49
2.54
 74
     0
 49
-2.54
 74
     0
  0
LTYPE
  5
6E
330
5
100
AcDbSymbolTableRecord
100
AcDbLinetypeTableRecord
  2
DOT2
 70
     0
  3
Dot (.5x) ........................................
 72
    65
 73
     2
 40
0.635
 49
0.0
 74
     0
 49
-0.635
 74
     0
  0
ENDTAB
  0
TABLE
  2
LAYER
  5
2
330
0
100
AcDbSymbolTable
 70
    17
  0
LAYER
  5
10
330
2
100
AcDbSymbolTableRecord
100
AcDbLayerTableRecord
  2
0
 70
     0
 62
     7
  6
Continuous
370
    -3
390
F
  0
LAYER
  5
6F
330
2
100
AcDbSymbolTableRecord
100
AcDbLayerTableRecord
  2
FORMAT
 70
     0
 62
     2
  6
Continuous
370
    -3
390
F
  0
LAYER
  5
70
330
2
100
AcDbSymbolTableRecord
100
AcDbLayerTableRecord
  2
외형선
 70
     0
 62
   100
  6
Continuous
370
    30
390
F
  0
LAYER
  5
71
330
2
100
AcDbSymbolTableRecord
100
AcDbLayerTableRecord
  2
숨은선
 70
     0
 62
     2
  6
HIDDEN
370
    15
390
F
  0
LAYER
  5
72
330
2
100
AcDbSymbolTableRecord
100
AcDbLayerTableRecord
  2
중심선
 70
     0
 62
     1
  6
CENTERX2
370
    -3
390
F
  0
LAYER
  5
73
330
2
100
AcDbSymbolTableRecord
100
AcDbLayerTableRecord
  2
파단선
 70
     0
 62
     4
  6
Continuous
370
    -3
390
F
  0
LAYER
  5
74
330
2
100
AcDbSymbolTableRecord
100
AcDbLayerTableRecord
  2
해칭선
 70
     0
 62
     4
  6
Continuous
370
    -3
390
F
  0
LAYER
  5
75
330
2
100
AcDbSymbolTableRecord
100
AcDbLayerTableRecord
  2
가는실선
 70
     0
 62
     4
  6
Continuous
370
    -3
390
F
  0
LAYER
  5
76
330
2
100
AcDbSymbolTableRecord
100
AcDbLayerTableRecord
  2
치수_보조선
 70
     0
 62
     4
  6
Continuous
370
    -3
390
F
  0
LAYER
  5
77
330
2
100
AcDbSymbolTableRecord
100
AcDbLayerTableRecord
  2
치수문자_일반주서
 70
     0
 62
     7
  6
Continuous
370
    15
390
F
  0
LAYER
  5
78
330
2
100
AcDbSymbolTableRecord
100
AcDbLayerTableRecord
  2
개별주서
 70
     0
 62
   100
  6
Continuous
370
    30
390
F
  0
LAYER
  5
79
330
2
100
AcDbSymbolTableRecord
100
AcDbLayerTableRecord
  2
중간선
 70
     0
 62
     2
  6
Continuous
370
    15
390
F
  0
LAYER
  5
7A
330
2
100
AcDbSymbolTableRecord
100
AcDbLayerTableRecord
  2
윤곽선
 70
     0
 62
     3
  6
Continuous
370
    40
390
F
  0
LAYER
  5
7B
330
2
100
AcDbSymbolTableRecord
100
AcDbLayerTableRecord
  2
중심마크
 70
     0
 62
   100
  6
Continuous
370
    30
390
F
  0
LAYER
  5
7C
330
2
100
AcDbSymbolTableRecord
100
AcDbLayerTableRecord
  2
가상선
 70
     0
 62
     4
  6
PHANTOM
370
    -3
390
F
  0
LAYER
  5
7D
330
2
100
AcDbSymbolTableRecord
100
AcDbLayerTableRecord
  2
특수지정선
 70
     0
 62
     5
  6
CENTERX2
370
    60
390
F
  0
LAYER
  5
20F
330
2
100
AcDbSymbolTableRecord
100
AcDbLayerTableRecord
  2
Defpoints
 70
     0
 62
     7
  6
Continuous
290
     0
370
    -3
390
F
  0
ENDTAB
  0
TABLE
  2
STYLE
  5
3
330
0
100
AcDbSymbolTable
 70
     2
  0
STYLE
  5
11
330
3
100
AcDbSymbolTableRecord
100
AcDbTextStyleTableRecord
  2
Standard
 70
     0
 40
0.0
 41
1.0
 50
0.0
 71
     0
 42
3.5
  3
txt
  4

  0
STYLE
  5
93
330
3
100
AcDbSymbolTableRecord
100
AcDbTextStyleTableRecord
  2
SLDTEXTSTYLE0
 70
     0
 40
0.0
 41
0.75
 50
0.0
 71
     0
 42
3.5
  3
TXT
  4

  0
ENDTAB
  0
TABLE
  2
VIEW
  5
6
330
0
100
AcDbSymbolTable
 70
     0
  0
ENDTAB
  0
TABLE
  2
UCS
  5
7
330
0
100
AcDbSymbolTable
 70
     0
  0
ENDTAB
  0
TABLE
  2
APPID
  5
9
330
0
100
AcDbSymbolTable
 70
     3
  0
APPID
  5
12
330
9
100
AcDbSymbolTableRecord
100
AcDbRegAppTableRecord
  2
ACAD
 70
     0
  0
APPID
  5
2B7
330
9
100
AcDbSymbolTableRecord
100
AcDbRegAppTableRecord
  2
ACAD_DSTYLE_DIMRADIAL_EXTENSION
 70
     0
  0
APPID
  5
2C9
330
9
100
AcDbSymbolTableRecord
100
AcDbRegAppTableRecord
  2
PE_DIMMEASUREMENT
 70
     0
  0
ENDTAB
  0
TABLE
  2
DIMSTYLE
  5
A
330
0
100
AcDbSymbolTable
 70
     3
100
AcDbDimStyleTable
  0
DIMSTYLE
105
27
330
A
100
AcDbSymbolTableRecord
100
AcDbDimStyleTableRecord
  2
ISO-25
 70
     0
 41
2.5
 42
0.625
 43
3.75
 44
1.25
 73
     0
 74
     0
 77
     1
 78
     8
140
2.5
141
2.5
143
0.03937007874016
147
0.625
171
     3
172
     1
178
     0
271
     2
272
     2
274
     3
278
    44
283
     0
284
     8
340
11
  0
DIMSTYLE
105
E3
102
{ACAD_REACTORS
330
1CC
330
1DF
330
28F
330
290
330
2B9
330
2CF
102
}
330
A
100
AcDbSymbolTableRecord
100
AcDbDimStyleTableRecord
  2
SLDDIMSTYLE0
 70
     0
 41
3.302
 44
0.0
 45
0.000000001
 73
     0
 74
     0
 77
     1
 78
     4
 79
     1
140
3.5
143
0.0393700787401575
147
0.875
148
0.000000001
170
     1
173
     1
178
     0
271
     2
272
     2
276
     2
284
    12
340
93
  0
DIMSTYLE
105
10A
102
{ACAD_REACTORS
330
1F2
330
291
102
}
330
A
100
AcDbSymbolTableRecord
100
AcDbDimStyleTableRecord
  2
SLDDIMSTYLE1
 70
     0
 41
3.302
 44
0.0
 45
0.000000001
 73
     0
 74
     0
 77
     1
 78
    12
 79
     3
140
3.5
143
0.0393700787401575
147
0.875
148
0.000000001
170
     1
172
     1
173
     1
178
     0
271
     2
272
     2
276
     2
284
    12
289
     0
340
93
  0
ENDTAB
  0
TABLE
  2
BLOCK_RECORD
  5
1
330
0
100
AcDbSymbolTable
 70
    15
  0
BLOCK_RECORD
  5
1F
330
1
100
AcDbSymbolTableRecord
100
AcDbBlockTableRecord
  2
*Model_Space
340
22
  0
BLOCK_RECORD
  5
1B
330
1
100
AcDbSymbolTableRecord
100
AcDbBlockTableRecord
  2
*Paper_Space
340
1E
  0
BLOCK_RECORD
  5
23
330
1
100
AcDbSymbolTableRecord
100
AcDbBlockTableRecord
  2
*Paper_Space0
340
26
  0
BLOCK_RECORD
  5
7E
330
1
100
AcDbSymbolTableRecord
100
AcDbBlockTableRecord
  2
블럭10
340
0
102
{BLKREFS
331
DA
102
}
  0
BLOCK_RECORD
  5
E4
330
1
100
AcDbSymbolTableRecord
100
AcDbBlockTableRecord
  2
_D
340
0
  0
BLOCK_RECORD
  5
F7
330
1
100
AcDbSymbolTableRecord
100
AcDbBlockTableRecord
  2
_D_1
340
0
  0
BLOCK_RECORD
  5
10B
330
1
100
AcDbSymbolTableRecord
100
AcDbBlockTableRecord
  2
_D_2
340
0
  0
BLOCK_RECORD
  5
11E
330
1
100
AcDbSymbolTableRecord
100
AcDbBlockTableRecord
  2
SW_DOWELSYMBOL_0
340
0
102
{BLKREFS
331
0
331
206
331
292
102
}
  0
BLOCK_RECORD
  5
210
330
1
100
AcDbSymbolTableRecord
100
AcDbBlockTableRecord
  2
*D7
340
0
  0
BLOCK_RECORD
  5
21C
330
1
100
AcDbSymbolTableRecord
100
AcDbBlockTableRecord
  2
*D8
340
0
  0
BLOCK_RECORD
  5
228
330
1
100
AcDbSymbolTableRecord
100
AcDbBlockTableRecord
  2
*D9
340
0
  0
BLOCK_RECORD
  5
293
330
1
100
AcDbSymbolTableRecord
100
AcDbBlockTableRecord
  2
*D10
340
0
  0
BLOCK_RECORD
  5
29F
330
1
100
AcDbSymbolTableRecord
100
AcDbBlockTableRecord
  2
*D11
340
0
  0
BLOCK_RECORD
  5
2AB
330
1
100
AcDbSymbolTableRecord
100
AcDbBlockTableRecord
  2
*D12
340
0
  0
BLOCK_RECORD
  5
2BC
330
1
100
AcDbSymbolTableRecord
100
AcDbBlockTableRecord
  2
*D13
340
0
  0
BLOCK_RECORD
  5
2D2
330
1
100
AcDbSymbolTableRecord
100
AcDbBlockTableRecord
  2
*D14
340
0
  0
ENDTAB
  0
ENDSEC
  0
SECTION
  2
BLOCKS
  0
BLOCK
  5
20
330
1F
100
AcDbEntity
  8
0
100
AcDbBlockBegin
  2
*Model_Space
 70
     0
 10
0.0
 20
0.0
 30
0.0
  3
*Model_Space
  1
*Model_Space
  0
ENDBLK
  5
21
330
1F
100
AcDbEntity
  8
0
100
AcDbBlockEnd
  0
BLOCK
  5
1C
330
1B
100
AcDbEntity
 67
     1
  8
0
100
AcDbBlockBegin
  2
*Paper_Space
 70
     0
 10
0.0
 20
0.0
 30
0.0
  3
*Paper_Space
  1
*Paper_Space
  0
ENDBLK
  5
1D
330
1B
100
AcDbEntity
 67
     1
  8
0
100
AcDbBlockEnd
  0
BLOCK
  5
24
330
23
100
AcDbEntity
  8
0
100
AcDbBlockBegin
  2
*Paper_Space0
 70
     0
 10
0.0
 20
0.0
 30
0.0
  3
*Paper_Space0
  1
*Paper_Space0
  0
ENDBLK
  5
25
330
23
100
AcDbEntity
  8
0
100
AcDbBlockEnd
  0
BLOCK
  5
7F
330
7E
100
AcDbEntity
  8
0
100
AcDbBlockBegin
  2
블럭10
 70
     2
 10
0.0
 20
0.0
 30
0.0
  3
블럭10
  1
블럭10
  0
ELLIPSE
  5
81
330
7E
100
AcDbEntity
  8
중심선
100
AcDbEllipse
 10
20.54032771741204
 20
12.0471743016438
 30
0.0
 11
6.600054785286829
 21
-1.261213355974178E-13
 31
0.0
210
0.0
220
0.0
230
1.0
 40
0.636358354079598
 41
0.9219305317359503
 42
6.513795318482858
  0
ELLIPSE
  5
82
330
7E
100
AcDbEntity
  8
중심선
100
AcDbEllipse
 10
20.54032771746488
 20
12.04717430159265
 30
0.0
 11
3.960054785062283
 21
1.540847449632565E-10
 31
0.0
210
0.0
220
0.0
230
1.0
 40
0.3939339440162632
 41
1.131841032648279
 42
5.62031148352944
  0
LINE
  5
83
330
7E
100
AcDbEntity
  8
중심선
100
AcDbLine
 10
2.268634060543552
 20
16.24717430164393
 30
0.0
 11
5.714909304380834
 21
16.24717430164393
 31
0.0
  0
LINE
  5
84
330
7E
100
AcDbEntity
  8
중심선
100
AcDbLine
 10
5.245725140726316
 20
7.84717430164391
 30
0.0
 11
8.692000384563599
 21
7.84717430164391
 31
0.0
  0
LINE
  5
85
330
7E
100
AcDbEntity
  8
중심선
100
AcDbLine
 10
15.74043728645272
 20
16.24717430164393
 30
0.0
 11
8.692000384563599
 21
7.84717430164391
 31
0.0
  0
LINE
  5
86
330
7E
100
AcDbEntity
  8
중심선
100
AcDbLine
 10
0.1404042013395286
 20
13.71084872107135
 30
0.0
 11
3.58671253028996
 21
13.71088815037384
 31
0.0
  0
LINE
  5
87
330
7E
100
AcDbEntity
  8
중심선
100
AcDbLine
 10
2.750260043222114
 20
10.84717430164391
 30
0.0
 11
6.196535287059397
 21
10.84717430164391
 31
0.0
  0
LINE
  5
88
330
7E
100
AcDbEntity
  8
중심선
100
AcDbLine
 10
12.29416204261559
 20
16.24717430164393
 30
0.0
 11
5.245725140726316
 21
7.84717430164391
 31
0.0
  0
LINE
  5
89
330
7E
100
AcDbEntity
  8
중심선
100
AcDbLine
 10
10.72767329541681
 20
16.24717430164393
 30
0.0
 11
6.196535287059397
 21
10.84717430164391
 31
0.0
  0
LINE
  5
8A
330
7E
100
AcDbEntity
  8
중심선
100
AcDbLine
 10
7.28139805157953
 20
16.24717430164393
 30
0.0
 11
2.750260043222114
 21
10.84717430164391
 31
0.0
  0
LINE
  5
8B
330
7E
100
AcDbEntity
  8
중심선
100
AcDbLine
 10
5.714909304380834
 20
16.24717430164393
 30
0.0
 11
3.58671253028996
 21
13.71088815037384
 31
0.0
  0
LINE
  5
8C
330
7E
100
AcDbEntity
  8
중심선
100
AcDbLine
 10
2.268634060543552
 20
16.24717430164393
 30
0.0
 11
0.1404042013395286
 21
13.71084872107135
 31
0.0
  0
LINE
  5
8D
330
7E
100
AcDbEntity
  8
중심선
100
AcDbLine
 10
7.28139805157953
 20
16.24717430164393
 30
0.0
 11
10.72767329541681
 21
16.24717430164393
 31
0.0
  0
LINE
  5
8E
330
7E
100
AcDbEntity
  8
중심선
100
AcDbLine
 10
12.29416204261559
 20
16.24717430164393
 30
0.0
 11
15.74043728645272
 21
16.24717430164393
 31
0.0
  0
LINE
  5
8F
330
7E
100
AcDbEntity
  8
중심선
100
AcDbLine
 10
19.22036997980202
 20
11.08717430171403
 30
0.0
 11
23.66174974927406
 21
11.08717430171406
 31
0.0
  0
LINE
  5
90
330
7E
100
AcDbEntity
  8
중심선
100
AcDbLine
 10
19.22039502424796
 20
13.00717430171391
 30
0.0
 11
19.22036997980202
 21
11.08717430171403
 31
0.0
  0
LINE
  5
91
330
7E
100
AcDbEntity
  8
중심선
100
AcDbLine
 10
19.22039502424796
 20
13.00717430171391
 30
0.0
 11
26.96566020931264
 21
13.00717430171391
 31
0.0
  0
LINE
  5
92
330
7E
100
AcDbEntity
  8
중심선
100
AcDbLine
 10
22.22332737316547
 20
13.45928029700563
 30
0.0
 11
24.52862924686651
 21
15.39360700705356
 31
0.0
  0
ATTDEF
  5
94
330
7E
100
AcDbEntity
  8
FORMAT
 62
     2
100
AcDbText
 10
-11.05102035218446
 20
2.075366912832191
 30
0.0
 40
4.233333333333333
  1
GMG22942[ 6 FLUTE ]
 41
0.75
  7
SLDTEXTSTYLE0
 11
-11.05102035218446
 21
-0.0412997538344756
 31
0.0
100
AcDbAttributeDefinition
  3

  2
AUTOATTR0
 70
     0
 74
     1
  0
ENDBLK
  5
80
330
7E
100
AcDbEntity
  8
0
100
AcDbBlockEnd
  0
BLOCK
  5
E5
330
E4
100
AcDbEntity
  8
0
100
AcDbBlockBegin
  2
_D
 70
     0
 10
0.0
 20
0.0
 30
0.0
  3
_D
  1
_D
  0
SOLID
  5
E7
330
E4
100
AcDbEntity
  8
치수문자_일반주서
100
AcDbTrace
 10
-47.11334827919203
 20
41.92017339282766
 30
0.0
 11
-43.81134827919203
 21
41.41217339282765
 31
0.0
 12
-43.81134827919203
 22
42.42817339282766
 32
0.0
 13
-43.81134827919203
 23
42.42817339282766
 33
0.0
  0
SOLID
  5
E8
330
E4
100
AcDbEntity
  8
치수문자_일반주서
100
AcDbTrace
 10
54.48665172080796
 20
41.92017339282766
 30
0.0
 11
51.18465172080796
 21
42.42817339282766
 31
0.0
 12
51.18465172080796
 22
41.41217339282765
 32
0.0
 13
51.18465172080796
 23
41.41217339282765
 33
0.0
  0
LINE
  5
E9
330
E4
100
AcDbEntity
  8
치수문자_일반주서
100
AcDbLine
 10
-1.727714361014696
 20
52.71305510887042
 30
0.0
 11
-2.438651846579196
 21
52.71305510887042
 31
0.0
  0
LINE
  5
EA
330
E4
100
AcDbEntity
  8
치수문자_일반주서
100
AcDbLine
 10
-2.438651846579196
 20
52.71305510887042
 30
0.0
 11
-2.438651846579196
 21
47.15680511781112
 31
0.0
  0
LINE
  5
EB
330
E4
100
AcDbEntity
  8
치수문자_일반주서
100
AcDbLine
 10
-2.438651846579196
 20
47.15680511781112
 30
0.0
 11
-1.727714361014696
 21
47.15680511781112
 31
0.0
  0
LINE
  5
EC
330
E4
100
AcDbEntity
  8
치수문자_일반주서
100
AcDbLine
 10
9.101018501122562
 20
52.71305510887042
 30
0.0
 11
9.811955986687062
 21
52.71305510887042
 31
0.0
  0
LINE
  5
ED
330
E4
100
AcDbEntity
  8
치수문자_일반주서
100
AcDbLine
 10
9.811955986687062
 20
52.71305510887042
 30
0.0
 11
9.811955986687062
 21
47.15680511781112
 31
0.0
  0
LINE
  5
EE
330
E4
100
AcDbEntity
  8
치수문자_일반주서
100
AcDbLine
 10
9.811955986687062
 20
47.15680511781112
 30
0.0
 11
9.101018501122562
 21
47.15680511781112
 31
0.0
  0
LINE
  5
EF
330
E4
100
AcDbEntity
  8
치수문자_일반주서
100
AcDbLine
 10
-47.11334827919203
 20
9.764621974755878
 30
0.0
 11
-47.11334827919203
 21
42.92017339282766
 31
0.0
  0
LINE
  5
F0
330
E4
100
AcDbEntity
  8
치수문자_일반주서
100
AcDbLine
 10
54.48665172080796
 20
7.978621974755885
 30
0.0
 11
54.48665172080796
 21
42.92017339282766
 31
0.0
  0
LINE
  5
F1
330
E4
100
AcDbEntity
  8
치수문자_일반주서
100
AcDbLine
 10
-47.11334827919203
 20
41.92017339282766
 30
0.0
 11
54.48665172080796
 21
41.92017339282766
 31
0.0
  0
MTEXT
  5
F2
330
E4
100
AcDbEntity
  8
치수문자_일반주서
100
AcDbMText
 10
-3.405709483518185
 20
46.4853826586894
 30
0.0
 40
3.5
 41
0.0
 71
     1
 72
     1
  1

  7
SLDTEXTSTYLE0
 73
     1
 44
1.0
  0
MTEXT
  5
F3
330
E4
100
AcDbEntity
  8
치수문자_일반주서
100
AcDbMText
 10
-0.8390424604033248
 20
51.66854203239001
 30
0.0
 40
3.5
 41
0.0
 71
     1
 72
     1
  1
4.00
  7
SLDTEXTSTYLE0
 73
     1
 44
1.0
  0
MTEXT
  5
F4
330
E4
100
AcDbEntity
  8
치수문자_일반주서
100
AcDbMText
 10
-3.425153886756779
 20
46.43191048202954
 30
0.0
 40
3.5
 41
0.0
 71
     1
 72
     1
  1
101.60
  7
SLDTEXTSTYLE0
 73
     1
 44
1.0
  0
MTEXT
  5
F5
330
E4
100
AcDbEntity
  8
치수문자_일반주서
100
AcDbMText
 10
12.11095814327997
 20
46.4853826586894
 30
0.0
 40
3.5
 41
0.0
 71
     1
 72
     1
  1

  7
SLDTEXTSTYLE0
 73
     1
 44
1.0
  0
ENDBLK
  5
E6
330
E4
100
AcDbEntity
  8
0
100
AcDbBlockEnd
  0
BLOCK
  5
F8
330
F7
100
AcDbEntity
  8
0
100
AcDbBlockBegin
  2
_D_1
 70
     0
 10
0.0
 20
0.0
 30
0.0
  3
_D_1
  1
_D_1
  0
SOLID
  5
FA
330
F7
100
AcDbEntity
  8
치수문자_일반주서
100
AcDbTrace
 10
54.48665172080795
 20
24.60561650509381
 30
0.0
 11
51.18465172080795
 21
25.11361650509381
 31
0.0
 12
51.18465172080795
 22
24.09761650509381
 32
0.0
 13
51.18465172080795
 23
24.09761650509381
 33
0.0
  0
SOLID
  5
FB
330
F7
100
AcDbEntity
  8
치수문자_일반주서
100
AcDbTrace
 10
16.38665172080795
 20
24.60561650509379
 30
0.0
 11
19.68865172080795
 21
24.09761650509379
 31
0.0
 12
19.68865172080795
 22
25.11361650509379
 32
0.0
 13
19.68865172080795
 23
25.11361650509379
 33
0.0
  0
LINE
  5
FC
330
F7
100
AcDbEntity
  8
치수문자_일반주서
100
AcDbLine
 10
29.60318733683753
 20
35.39849822113658
 30
0.0
 11
28.89224985127303
 21
35.39849822113658
 31
0.0
  0
LINE
  5
FD
330
F7
100
AcDbEntity
  8
치수문자_일반주서
100
AcDbLine
 10
28.89224985127303
 20
35.39849822113658
 30
0.0
 11
28.89224985127307
 21
29.84224823007727
 31
0.0
  0
LINE
  5
FE
330
F7
100
AcDbEntity
  8
치수문자_일반주서
100
AcDbLine
 10
28.89224985127307
 20
29.84224823007727
 30
0.0
 11
29.60318733683757
 21
29.84224823007728
 31
0.0
  0
LINE
  5
FF
330
F7
100
AcDbEntity
  8
치수문자_일반주서
100
AcDbLine
 10
40.43192019897479
 20
35.39849822113666
 30
0.0
 11
41.14285768453929
 21
35.39849822113666
 31
0.0
  0
LINE
  5
100
330
F7
100
AcDbEntity
  8
치수문자_일반주서
100
AcDbLine
 10
41.14285768453929
 20
35.39849822113666
 30
0.0
 11
41.14285768453933
 21
29.84224823007736
 31
0.0
  0
LINE
  5
101
330
F7
100
AcDbEntity
  8
치수문자_일반주서
100
AcDbLine
 10
41.14285768453933
 20
29.84224823007736
 30
0.0
 11
40.43192019897483
 21
29.84224823007736
 31
0.0
  0
LINE
  5
102
330
F7
100
AcDbEntity
  8
치수문자_일반주서
100
AcDbLine
 10
54.48665172080796
 20
7.978621974755885
 30
0.0
 11
54.48665172080795
 21
25.60561650509381
 31
0.0
  0
LINE
  5
103
330
F7
100
AcDbEntity
  8
치수문자_일반주서
100
AcDbLine
 10
16.38665172080796
 20
9.89439336886934
 30
0.0
 11
16.38665172080795
 21
25.60561650509379
 31
0.0
  0
LINE
  5
104
330
F7
100
AcDbEntity
  8
치수문자_일반주서
100
AcDbLine
 10
54.48665172080795
 20
24.60561650509381
 30
0.0
 11
16.38665172080795
 21
24.60561650509379
 31
0.0
  0
MTEXT
  5
105
330
F7
100
AcDbEntity
  8
치수문자_일반주서
100
AcDbMText
 10
28.37849112578638
 20
29.17082577095553
 30
0.0
 40
3.5
 41
0.0
 71
     1
 72
     1
  1

  7
SLDTEXTSTYLE0
 73
     1
 44
1.0
  0
MTEXT
  5
106
330
F7
100
AcDbEntity
  8
치수문자_일반주서
100
AcDbMText
 10
30.4918592374489
 20
34.35398514465617
 30
0.0
 40
3.5
 41
0.0
 71
     1
 72
     1
  1
1.50
  7
SLDTEXTSTYLE0
 73
     1
 44
1.0
  0
MTEXT
  5
107
330
F7
100
AcDbEntity
  8
치수문자_일반주서
100
AcDbMText
 10
29.19880352427222
 20
29.11735359429569
 30
0.0
 40
3.5
 41
0.0
 71
     1
 72
     1
  1
38.10
  7
SLDTEXTSTYLE0
 73
     1
 44
1.0
  0
MTEXT
  5
108
330
F7
100
AcDbEntity
  8
치수문자_일반주서
100
AcDbMText
 10
42.98856092967995
 20
29.17082577095565
 30
0.0
 40
3.5
 41
0.0
 71
     1
 72
     1
  1

  7
SLDTEXTSTYLE0
 73
     1
 44
1.0
  0
ENDBLK
  5
F9
330
F7
100
AcDbEntity
  8
0
100
AcDbBlockEnd
  0
BLOCK
  5
10C
330
10B
100
AcDbEntity
  8
0
100
AcDbBlockBegin
  2
_D_2
 70
     0
 10
0.0
 20
0.0
 30
0.0
  3
_D_2
  1
_D_2
  0
SOLID
  5
10E
330
10B
100
AcDbEntity
  8
치수문자_일반주서
100
AcDbTrace
 10
-60.11334827919205
 20
9.26462197475588
 30
0.0
 11
-59.60534827919205
 21
12.56662197475588
 31
0.0
 12
-60.62134827919206
 22
12.56662197475588
 32
0.0
 13
-60.62134827919206
 23
12.56662197475588
 33
0.0
  0
SOLID
  5
10F
330
10B
100
AcDbEntity
  8
치수문자_일반주서
100
AcDbTrace
 10
-60.11334827919205
 20
-9.785378025244121
 30
0.0
 11
-60.62134827919206
 21
-13.08737802524412
 31
0.0
 12
-59.60534827919205
 22
-13.08737802524412
 32
0.0
 13
-59.60534827919205
 23
-13.08737802524412
 33
0.0
  0
LINE
  5
110
330
10B
100
AcDbEntity
  8
치수문자_일반주서
100
AcDbLine
 10
-70.90622999523478
 20
-5.674744456312825
 30
0.0
 11
-70.90622999523478
 21
-6.385681941877325
 31
0.0
  0
LINE
  5
111
330
10B
100
AcDbEntity
  8
치수문자_일반주서
100
AcDbLine
 10
-70.90622999523478
 20
-6.385681941877325
 30
0.0
 11
-65.34998000417548
 21
-6.385681941877286
 31
0.0
  0
LINE
  5
112
330
10B
100
AcDbEntity
  8
치수문자_일반주서
100
AcDbLine
 10
-65.34998000417548
 20
-6.385681941877286
 30
0.0
 11
-65.34998000417548
 21
-5.674744456312786
 31
0.0
  0
LINE
  5
113
330
10B
100
AcDbEntity
  8
치수문자_일반주서
100
AcDbLine
 10
-70.90622999523487
 20
5.153988405824433
 30
0.0
 11
-70.90622999523487
 21
5.864925891388933
 31
0.0
  0
LINE
  5
114
330
10B
100
AcDbEntity
  8
치수문자_일반주서
100
AcDbLine
 10
-70.90622999523487
 20
5.864925891388933
 30
0.0
 11
-65.34998000417556
 21
5.864925891388972
 31
0.0
  0
LINE
  5
115
330
10B
100
AcDbEntity
  8
치수문자_일반주서
100
AcDbLine
 10
-65.34998000417556
 20
5.864925891388972
 30
0.0
 11
-65.34998000417556
 21
5.153988405824472
 31
0.0
  0
LINE
  5
116
330
10B
100
AcDbEntity
  8
치수문자_일반주서
100
AcDbLine
 10
-47.61334827919203
 20
9.264621974755881
 30
0.0
 11
-61.11334827919205
 21
9.26462197475588
 31
0.0
  0
LINE
  5
117
330
10B
100
AcDbEntity
  8
치수문자_일반주서
100
AcDbLine
 10
-47.61334827919203
 20
-9.78537802524412
 30
0.0
 11
-61.11334827919205
 21
-9.785378025244121
 31
0.0
  0
LINE
  5
118
330
10B
100
AcDbEntity
  8
치수문자_일반주서
100
AcDbLine
 10
-60.11334827919205
 20
9.26462197475588
 30
0.0
 11
-60.11334827919205
 21
15.61462197475588
 31
0.0
  0
LINE
  5
119
330
10B
100
AcDbEntity
  8
치수문자_일반주서
100
AcDbLine
 10
-60.11334827919205
 20
9.26462197475588
 30
0.0
 11
-60.11334827919205
 21
-9.785378025244121
 31
0.0
  0
LINE
  5
11A
330
10B
100
AcDbEntity
  8
치수문자_일반주서
100
AcDbLine
 10
-60.11334827919205
 20
-9.785378025244121
 30
0.0
 11
-60.11334827919205
 21
-16.13537802524412
 31
0.0
  0
MTEXT
  5
11B
330
10B
100
AcDbEntity
  8
치수문자_일반주서
100
AcDbMText
 10
-69.8617169187544
 20
-4.786072555701447
 30
0.0
 40
3.5
 41
0.0
 71
     1
 72
     1
  1
0.75
  7
SLDTEXTSTYLE0
 11
-7.044195017643634E-15
 21
1.0
 31
0.0
 73
     1
 44
1.0
  0
MTEXT
  5
11C
330
10B
100
AcDbEntity
  8
치수문자_일반주서
100
AcDbMText
 10
-64.6250853683939
 20
-8.718346968065179
 30
0.0
 40
3.5
 41
0.0
 71
     1
 72
     1
  1
%%c
  7
SLDTEXTSTYLE0
 11
-7.044195017643634E-15
 21
1.0
 31
0.0
 73
     1
 44
1.0
  0
MTEXT
  5
11D
330
10B
100
AcDbEntity
  8
치수문자_일반주서
100
AcDbMText
 10
-64.62508536839393
 20
-3.439909569691098
 30
0.0
 40
3.5
 41
0.0
 71
     1
 72
     1
  1
19.05
  7
SLDTEXTSTYLE0
 11
-7.044195017643634E-15
 21
1.0
 31
0.0
 73
     1
 44
1.0
  0
ENDBLK
  5
10D
330
10B
100
AcDbEntity
  8
0
100
AcDbBlockEnd
  0
BLOCK
  5
11F
330
11E
100
AcDbEntity
  8
0
100
AcDbBlockBegin
  2
SW_DOWELSYMBOL_0
 70
     0
 10
0.0
 20
0.0
 30
0.0
  3
SW_DOWELSYMBOL_0
  1
SW_DOWELSYMBOL_0
  0
CIRCLE
  5
121
330
11E
100
AcDbEntity
  8
외형선
 62
     0
100
AcDbCircle
 10
0.0
 20
0.0
 30
0.0
 40
3.000000000000001
  0
HATCH
  5
122
330
11E
100
AcDbEntity
  8
0
  6
Continuous
 62
     0
370
    30
100
AcDbHatch
 10
0.0
 20
0.0
 30
0.0
210
0.0
220
0.0
230
1.0
  2
SOLID
 70
     1
 71
     0
 91
        1
 92
        0
 93
        3
 72
     2
 10
0.0
 20
0.0
 40
3.000000000000001
 50
0.0
 51
90.0
 73
     1
 72
     1
 10
0.0
 20
3.000000000000001
 11
0.0
 21
0.0
 72
     1
 10
0.0
 20
0.0
 11
3.000000000000003
 21
0.0
 97
        0
 75
     0
 76
     1
 98
        1
 10
0.0
 20
0.0
  0
HATCH
  5
123
330
11E
100
AcDbEntity
  8
0
  6
Continuous
 62
     0
370
    30
100
AcDbHatch
 10
0.0
 20
0.0
 30
0.0
210
0.0
220
0.0
230
1.0
  2
SOLID
 70
     1
 71
     0
 91
        1
 92
        0
 93
        3
 72
     2
 10
0.0
 20
0.0
 40
3.000000000000001
 50
180.0
 51
270.0000000000008
 73
     1
 72
     1
 10
0.0
 20
-3.000000000000001
 11
0.0
 21
0.0
 72
     1
 10
0.0
 20
0.0
 11
-3.000000000000003
 21
0.0
 97
        0
 75
     0
 76
     1
 98
        1
 10
0.0
 20
0.0
  0
ENDBLK
  5
120
330
11E
100
AcDbEntity
  8
0
100
AcDbBlockEnd
  0
BLOCK
  5
211
330
210
100
AcDbEntity
  8
0
100
AcDbBlockBegin
  2
*D7
 70
     1
 10
0.0
 20
0.0
 30
0.0
  3
*D7
  1
*D7
  0
LINE
  5
213
330
210
100
AcDbEntity
  8
치수문자_일반주서
 62
     0
370
    -2
100
AcDbLine
 10
17.37500000000005
 20
22.21250000000001
 30
0.0
 11
17.37500000000006
 21
55.3055514180718
 31
0.0
  0
LINE
  5
214
330
210
100
AcDbEntity
  8
치수문자_일반주서
 62
     0
370
    -2
100
AcDbLine
 10
118.9750000000001
 20
21.95050000000002
 30
0.0
 11
118.9750000000001
 21
55.3055514180718
 31
0.0
  0
LINE
  5
215
330
210
100
AcDbEntity
  8
치수문자_일반주서
 62
     0
370
    -2
100
AcDbLine
 10
20.67700000000006
 20
55.3055514180718
 30
0.0
 11
115.6730000000001
 21
55.3055514180718
 31
0.0
  0
SOLID
  5
216
330
210
100
AcDbEntity
  8
치수문자_일반주서
 62
     0
100
AcDbTrace
 10
20.67700000000006
 20
55.85588475140514
 30
0.0
 11
20.67700000000006
 21
54.75521808473847
 31
0.0
 12
17.37500000000006
 22
55.3055514180718
 32
0.0
 13
17.37500000000006
 23
55.3055514180718
 33
0.0
  0
SOLID
  5
217
330
210
100
AcDbEntity
  8
치수문자_일반주서
 62
     0
100
AcDbTrace
 10
115.6730000000001
 20
54.75521808473847
 30
0.0
 11
115.6730000000001
 21
55.85588475140514
 31
0.0
 12
118.9750000000001
 22
55.3055514180718
 32
0.0
 13
118.9750000000001
 23
55.3055514180718
 33
0.0
  0
MTEXT
  5
218
330
210
100
AcDbEntity
  8
치수문자_일반주서
 62
     0
100
AcDbMText
 10
68.17500000000005
 20
59.6805514180718
 30
0.0
 40
3.5
 41
0.0
 71
     2
 72
     1
  1
\A1;101.60 [4.00]
  7
SLDTEXTSTYLE0
 73
     1
 44
1.0
  0
POINT
  5
219
330
210
100
AcDbEntity
  8
Defpoints
 62
     0
100
AcDbPoint
 10
17.37500000000005
 20
22.15000000000001
 30
0.0
  0
POINT
  5
21A
330
210
100
AcDbEntity
  8
Defpoints
 62
     0
100
AcDbPoint
 10
118.9750000000001
 20
21.88800000000002
 30
0.0
  0
POINT
  5
21B
330
210
100
AcDbEntity
  8
Defpoints
 62
     0
100
AcDbPoint
 10
118.9750000000001
 20
55.3055514180718
 30
0.0
  0
ENDBLK
  5
212
330
210
100
AcDbEntity
  8
0
100
AcDbBlockEnd
  0
BLOCK
  5
21D
330
21C
100
AcDbEntity
  8
0
100
AcDbBlockBegin
  2
*D8
 70
     1
 10
0.0
 20
0.0
 30
0.0
  3
*D8
  1
*D8
  0
LINE
  5
21F
330
21C
100
AcDbEntity
  8
치수문자_일반주서
 62
     0
370
    -2
100
AcDbLine
 10
118.9750000000001
 20
21.95050000000002
 30
0.0
 11
118.9750000000001
 21
39.51499453033794
 31
0.0
  0
LINE
  5
220
330
21C
100
AcDbEntity
  8
치수문자_일반주서
 62
     0
370
    -2
100
AcDbLine
 10
80.87500000000004
 20
22.34227139411348
 30
0.0
 11
80.87500000000004
 21
39.51499453033794
 31
0.0
  0
LINE
  5
221
330
21C
100
AcDbEntity
  8
치수문자_일반주서
 62
     0
370
    -2
100
AcDbLine
 10
115.6730000000001
 20
39.51499453033794
 30
0.0
 11
84.17700000000005
 21
39.51499453033794
 31
0.0
  0
SOLID
  5
222
330
21C
100
AcDbEntity
  8
치수문자_일반주서
 62
     0
100
AcDbTrace
 10
115.6730000000001
 20
38.96466119700461
 30
0.0
 11
115.6730000000001
 21
40.06532786367128
 31
0.0
 12
118.9750000000001
 22
39.51499453033794
 32
0.0
 13
118.9750000000001
 23
39.51499453033794
 33
0.0
  0
SOLID
  5
223
330
21C
100
AcDbEntity
  8
치수문자_일반주서
 62
     0
100
AcDbTrace
 10
84.17700000000005
 20
40.06532786367128
 30
0.0
 11
84.17700000000005
 21
38.96466119700461
 31
0.0
 12
80.87500000000004
 22
39.51499453033794
 32
0.0
 13
80.87500000000004
 23
39.51499453033794
 33
0.0
  0
MTEXT
  5
224
330
21C
100
AcDbEntity
  8
치수문자_일반주서
 62
     0
100
AcDbMText
 10
99.50590169785227
 20
43.88999453033794
 30
0.0
 40
3.5
 41
0.0
 71
     2
 72
     1
  1
\A1;38.10 [1.50]
  7
SLDTEXTSTYLE0
 73
     1
 44
1.0
  0
POINT
  5
225
330
21C
100
AcDbEntity
  8
Defpoints
 62
     0
100
AcDbPoint
 10
118.9750000000001
 20
21.88800000000002
 30
0.0
  0
POINT
  5
226
330
21C
100
AcDbEntity
  8
Defpoints
 62
     0
100
AcDbPoint
 10
80.87500000000004
 20
22.27977139411348
 30
0.0
  0
POINT
  5
227
330
21C
100
AcDbEntity
  8
Defpoints
 62
     0
100
AcDbPoint
 10
80.87500000000004
 20
39.51499453033793
 30
0.0
  0
ENDBLK
  5
21E
330
21C
100
AcDbEntity
  8
0
100
AcDbBlockEnd
  0
BLOCK
  5
229
330
228
100
AcDbEntity
  8
0
100
AcDbBlockBegin
  2
*D9
 70
     1
 10
0.0
 20
0.0
 30
0.0
  3
*D9
  1
*D9
  0
LINE
  5
22B
330
228
100
AcDbEntity
  8
치수문자_일반주서
 62
     0
370
    -2
100
AcDbLine
 10
17.81250000000005
 20
22.65000000000002
 30
0.0
 11
4.37500000000001
 21
22.64999999999997
 31
0.0
  0
LINE
  5
22C
330
228
100
AcDbEntity
  8
치수문자_일반주서
 62
     0
370
    -2
100
AcDbLine
 10
17.81250000000005
 20
3.600000000000015
 30
0.0
 11
4.375000000000076
 21
3.599999999999966
 31
0.0
  0
LINE
  5
22D
330
228
100
AcDbEntity
  8
치수문자_일반주서
 62
     0
370
    -2
100
AcDbLine
 10
4.375000000000021
 20
19.34799999999997
 30
0.0
 11
4.375000000000065
 21
6.901999999999965
 31
0.0
  0
SOLID
  5
22E
330
228
100
AcDbEntity
  8
치수문자_일반주서
 62
     0
100
AcDbTrace
 10
4.925333333333355
 20
19.34799999999997
 30
0.0
 11
3.824666666666688
 21
19.34799999999996
 31
0.0
 12
4.37500000000001
 22
22.64999999999997
 32
0.0
 13
4.37500000000001
 23
22.64999999999997
 33
0.0
  0
SOLID
  5
22F
330
228
100
AcDbEntity
  8
치수문자_일반주서
 62
     0
100
AcDbTrace
 10
3.824666666666732
 20
6.901999999999964
 30
0.0
 11
4.925333333333398
 21
6.901999999999967
 31
0.0
 12
4.375000000000076
 22
3.599999999999966
 32
0.0
 13
4.375000000000076
 23
3.599999999999966
 33
0.0
  0
MTEXT
  5
230
330
228
100
AcDbEntity
  8
치수문자_일반주서
 62
     0
100
AcDbMText
 10
0.0000000000000426
 20
13.125
 30
0.0
 40
3.5
 41
0.0
 71
     2
 72
     1
  1
\A1;%%c19.05 [0.75]
  7
SLDTEXTSTYLE0
 11
-3.496765431890257E-15
 21
1.0
 31
0.0
 73
     1
 44
1.0
  0
POINT
  5
231
330
228
100
AcDbEntity
  8
Defpoints
 62
     0
100
AcDbPoint
 10
17.87500000000005
 20
22.65000000000002
 30
0.0
  0
POINT
  5
232
330
228
100
AcDbEntity
  8
Defpoints
 62
     0
100
AcDbPoint
 10
17.87500000000005
 20
3.600000000000016
 30
0.0
  0
POINT
  5
233
330
228
100
AcDbEntity
  8
Defpoints
 62
     0
100
AcDbPoint
 10
4.375000000000043
 20
3.599999999999965
 30
0.0
  0
ENDBLK
  5
22A
330
228
100
AcDbEntity
  8
0
100
AcDbBlockEnd
  0
BLOCK
  5
294
330
293
100
AcDbEntity
  8
0
100
AcDbBlockBegin
  2
*D10
 70
     1
 10
0.0
 20
0.0
 30
0.0
  3
*D10
  1
*D10
  0
LINE
  5
296
330
293
100
AcDbEntity
  8
치수문자_일반주서
 62
     0
370
    -2
100
AcDbLine
 10
-53.5
 20
9.087500000000006
 30
0.0
 11
-53.5
 21
42.1805514180718
 31
0.0
  0
LINE
  5
297
330
293
100
AcDbEntity
  8
치수문자_일반주서
 62
     0
370
    -2
100
AcDbLine
 10
48.09999999999999
 20
8.82550000000002
 30
0.0
 11
48.09999999999999
 21
42.1805514180718
 31
0.0
  0
LINE
  5
298
330
293
100
AcDbEntity
  8
치수문자_일반주서
 62
     0
370
    -2
100
AcDbLine
 10
-50.198
 20
42.1805514180718
 30
0.0
 11
44.79799999999999
 21
42.1805514180718
 31
0.0
  0
SOLID
  5
299
330
293
100
AcDbEntity
  8
치수문자_일반주서
 62
     0
100
AcDbTrace
 10
-50.198
 20
42.73088475140514
 30
0.0
 11
-50.198
 21
41.63021808473847
 31
0.0
 12
-53.5
 22
42.1805514180718
 32
0.0
 13
-53.5
 23
42.1805514180718
 33
0.0
  0
SOLID
  5
29A
330
293
100
AcDbEntity
  8
치수문자_일반주서
 62
     0
100
AcDbTrace
 10
44.79799999999999
 20
41.63021808473847
 30
0.0
 11
44.79799999999999
 21
42.73088475140514
 31
0.0
 12
48.09999999999999
 22
42.1805514180718
 32
0.0
 13
48.09999999999999
 23
42.1805514180718
 33
0.0
  0
MTEXT
  5
29B
330
293
100
AcDbEntity
  8
치수문자_일반주서
 62
     0
100
AcDbMText
 10
-2.700000000000003
 20
46.5555514180718
 30
0.0
 40
3.5
 41
0.0
 71
     2
 72
     1
  1
\A1;101.60 [4]
  7
SLDTEXTSTYLE0
 73
     1
 44
1.0
  0
POINT
  5
29C
330
293
100
AcDbEntity
  8
Defpoints
 62
     0
100
AcDbPoint
 10
-53.5
 20
9.025000000000006
 30
0.0
  0
POINT
  5
29D
330
293
100
AcDbEntity
  8
Defpoints
 62
     0
100
AcDbPoint
 10
48.09999999999999
 20
8.76300000000002
 30
0.0
  0
POINT
  5
29E
330
293
100
AcDbEntity
  8
Defpoints
 62
     0
100
AcDbPoint
 10
48.09999999999999
 20
42.1805514180718
 30
0.0
  0
ENDBLK
  5
295
330
293
100
AcDbEntity
  8
0
100
AcDbBlockEnd
  0
BLOCK
  5
2A0
330
29F
100
AcDbEntity
  8
0
100
AcDbBlockBegin
  2
*D11
 70
     1
 10
0.0
 20
0.0
 30
0.0
  3
*D11
  1
*D11
  0
LINE
  5
2A2
330
29F
100
AcDbEntity
  8
치수문자_일반주서
 62
     0
370
    -2
100
AcDbLine
 10
48.09999999999999
 20
8.82550000000002
 30
0.0
 11
48.09999999999999
 21
26.38999453033794
 31
0.0
  0
LINE
  5
2A3
330
29F
100
AcDbEntity
  8
치수문자_일반주서
 62
     0
370
    -2
100
AcDbLine
 10
9.999999999999986
 20
-9.092271394113453
 30
0.0
 11
9.999999999999986
 21
26.38999453033794
 31
0.0
  0
LINE
  5
2A4
330
29F
100
AcDbEntity
  8
치수문자_일반주서
 62
     0
370
    -2
100
AcDbLine
 10
44.79799999999999
 20
26.38999453033794
 30
0.0
 11
13.30199999999999
 21
26.38999453033794
 31
0.0
  0
SOLID
  5
2A5
330
29F
100
AcDbEntity
  8
치수문자_일반주서
 62
     0
100
AcDbTrace
 10
44.79799999999999
 20
25.83966119700461
 30
0.0
 11
44.79799999999999
 21
26.94032786367128
 31
0.0
 12
48.09999999999999
 22
26.38999453033794
 32
0.0
 13
48.09999999999999
 23
26.38999453033794
 33
0.0
  0
SOLID
  5
2A6
330
29F
100
AcDbEntity
  8
치수문자_일반주서
 62
     0
100
AcDbTrace
 10
13.30199999999999
 20
26.94032786367128
 30
0.0
 11
13.30199999999999
 21
25.83966119700461
 31
0.0
 12
9.999999999999986
 22
26.38999453033794
 32
0.0
 13
9.999999999999986
 23
26.38999453033794
 33
0.0
  0
MTEXT
  5
2A7
330
29F
100
AcDbEntity
  8
치수문자_일반주서
 62
     0
100
AcDbMText
 10
28.63090169785221
 20
30.76499453033794
 30
0.0
 40
3.5
 41
0.0
 71
     2
 72
     1
  1
\A1;38.10 [1 1/2]
  7
SLDTEXTSTYLE0
 73
     1
 44
1.0
  0
POINT
  5
2A8
330
29F
100
AcDbEntity
  8
Defpoints
 62
     0
100
AcDbPoint
 10
48.09999999999999
 20
8.76300000000002
 30
0.0
  0
POINT
  5
2A9
330
29F
100
AcDbEntity
  8
Defpoints
 62
     0
100
AcDbPoint
 10
9.999999999999986
 20
-9.154771394113453
 30
0.0
  0
POINT
  5
2AA
330
29F
100
AcDbEntity
  8
Defpoints
 62
     0
100
AcDbPoint
 10
9.999999999999986
 20
26.38999453033794
 30
0.0
  0
ENDBLK
  5
2A1
330
29F
100
AcDbEntity
  8
0
100
AcDbBlockEnd
  0
BLOCK
  5
2AC
330
2AB
100
AcDbEntity
  8
0
100
AcDbBlockBegin
  2
*D12
 70
     1
 10
0.0
 20
0.0
 30
0.0
  3
*D12
  1
*D12
  0
LINE
  5
2AE
330
2AB
100
AcDbEntity
  8
치수문자_일반주서
 62
     0
370
    -2
100
AcDbLine
 10
-53.0625
 20
9.52500000000002
 30
0.0
 11
-66.50000000000004
 21
9.52499999999997
 31
0.0
  0
LINE
  5
2AF
330
2AB
100
AcDbEntity
  8
치수문자_일반주서
 62
     0
370
    -2
100
AcDbLine
 10
-53.0625
 20
-9.524999999999977
 30
0.0
 11
-66.49999999999997
 21
-9.525000000000027
 31
0.0
  0
LINE
  5
2B0
330
2AB
100
AcDbEntity
  8
치수문자_일반주서
 62
     0
370
    -2
100
AcDbLine
 10
-66.50000000000003
 20
6.222999999999971
 30
0.0
 11
-66.49999999999999
 21
-6.223000000000027
 31
0.0
  0
SOLID
  5
2B1
330
2AB
100
AcDbEntity
  8
치수문자_일반주서
 62
     0
100
AcDbTrace
 10
-65.9496666666667
 20
6.222999999999972
 30
0.0
 11
-67.05033333333336
 21
6.222999999999969
 31
0.0
 12
-66.50000000000004
 22
9.52499999999997
 32
0.0
 13
-66.50000000000004
 23
9.52499999999997
 33
0.0
  0
SOLID
  5
2B2
330
2AB
100
AcDbEntity
  8
치수문자_일반주서
 62
     0
100
AcDbTrace
 10
-67.05033333333331
 20
-6.223000000000029
 30
0.0
 11
-65.94966666666666
 21
-6.223000000000026
 31
0.0
 12
-66.49999999999997
 22
-9.525000000000027
 32
0.0
 13
-66.49999999999997
 23
-9.525000000000027
 33
0.0
  0
MTEXT
  5
2B3
330
2AB
100
AcDbEntity
  8
치수문자_일반주서
 62
     0
100
AcDbMText
 10
-70.87500000000001
 20
-0.0000000000000021
 30
0.0
 40
3.5
 41
0.0
 71
     2
 72
     1
  1
\A1;%%c19.05 [3/4]
  7
SLDTEXTSTYLE0
 11
-3.729883127349608E-15
 21
1.0
 31
0.0
 73
     1
 44
1.0
  0
POINT
  5
2B4
330
2AB
100
AcDbEntity
  8
Defpoints
 62
     0
100
AcDbPoint
 10
-53.0
 20
9.52500000000002
 30
0.0
  0
POINT
  5
2B5
330
2AB
100
AcDbEntity
  8
Defpoints
 62
     0
100
AcDbPoint
 10
-53.0
 20
-9.524999999999977
 30
0.0
  0
POINT
  5
2B6
330
2AB
100
AcDbEntity
  8
Defpoints
 62
     0
100
AcDbPoint
 10
-66.49999999999997
 20
-9.525000000000027
 30
0.0
  0
ENDBLK
  5
2AD
330
2AB
100
AcDbEntity
  8
0
100
AcDbBlockEnd
  0
BLOCK
  5
2BD
330
2BC
100
AcDbEntity
  8
0
100
AcDbBlockBegin
  2
*D13
 70
     1
 10
0.0
 20
0.0
 30
0.0
  3
*D13
  1
*D13
  0
LINE
  5
2BF
330
2BC
100
AcDbEntity
  8
치수문자_일반주서
 62
     0
370
    -2
100
AcDbLine
 10
47.40049999999999
 20
9.524445915285213
 30
0.0
 11
62.37195992015921
 21
9.524445915285211
 31
0.0
  0
LINE
  5
2C0
330
2BC
100
AcDbEntity
  8
치수문자_일반주서
 62
     0
370
    -2
100
AcDbLine
 10
47.29795765885703
 20
-9.524999999999977
 30
0.0
 11
62.37195992015921
 21
-9.524999999999979
 31
0.0
  0
LINE
  5
2C1
330
2BC
100
AcDbEntity
  8
치수문자_일반주서
 62
     0
370
    -2
100
AcDbLine
 10
62.37195992015921
 20
6.222445915285212
 30
0.0
 11
62.37195992015921
 21
-6.222999999999979
 31
0.0
  0
SOLID
  5
2C2
330
2BC
100
AcDbEntity
  8
치수문자_일반주서
 62
     0
100
AcDbTrace
 10
62.92229325349255
 20
6.222445915285212
 30
0.0
 11
61.82162658682588
 21
6.222445915285212
 31
0.0
 12
62.37195992015921
 22
9.524445915285211
 32
0.0
 13
62.37195992015921
 23
9.524445915285211
 33
0.0
  0
SOLID
  5
2C3
330
2BC
100
AcDbEntity
  8
치수문자_일반주서
 62
     0
100
AcDbTrace
 10
61.82162658682588
 20
-6.222999999999979
 30
0.0
 11
62.92229325349255
 21
-6.222999999999979
 31
0.0
 12
62.37195992015921
 22
-9.524999999999979
 32
0.0
 13
62.37195992015921
 23
-9.524999999999979
 33
0.0
  0
MTEXT
  5
2C4
330
2BC
100
AcDbEntity
  8
치수문자_일반주서
 62
     0
100
AcDbMText
 10
59.74695992015921
 20
-0.0002770423573821
 30
0.0
 40
3.5
 41
0.0
 71
     5
 72
     1
  1
\A1;{%%c19.05 [3/4]}
  7
SLDTEXTSTYLE0
 11
0.0
 21
1.0
 31
0.0
 73
     1
 44
1.0
  0
POINT
  5
2C5
330
2BC
100
AcDbEntity
  8
Defpoints
 62
     0
100
AcDbPoint
 10
47.33799999999999
 20
9.524445915285213
 30
0.0
  0
POINT
  5
2C6
330
2BC
100
AcDbEntity
  8
Defpoints
 62
     0
100
AcDbPoint
 10
47.23545765885703
 20
-9.524999999999977
 30
0.0
  0
POINT
  5
2C7
330
2BC
100
AcDbEntity
  8
Defpoints
 62
     0
100
AcDbPoint
 10
62.37195992015921
 20
-9.524999999999979
 30
0.0
  0
ENDBLK
  5
2BE
330
2BC
100
AcDbEntity
  8
0
100
AcDbBlockEnd
  0
BLOCK
  5
2D3
330
2D2
100
AcDbEntity
  8
0
100
AcDbBlockBegin
  2
*D14
 70
     1
 10
0.0
 20
0.0
 30
0.0
  3
*D14
  1
*D14
  0
LINE
  5
2D5
330
2D2
100
AcDbEntity
  8
치수문자_일반주서
 62
     0
370
    -2
100
AcDbLine
 10
50.03163305491913
 20
11.36980931335544
 30
0.0
 11
74.0116212838281
 21
34.74729366884988
 31
0.0
  0
MTEXT
  5
2D6
330
2D2
100
AcDbEntity
  8
치수문자_일반주서
 62
     0
100
AcDbMText
 10
61.37142528916507
 20
26.0906569501811
 30
0.0
 40
3.5
 41
0.0
 71
     5
 72
     1
  1
\A1;R1.52 [R0.060]
  7
SLDTEXTSTYLE0
 11
0.7160449761539875
 21
0.6980541469862029
 31
0.0
 73
     1
 44
1.0
  0
SOLID
  5
2D7
330
2D2
100
AcDbEntity
  8
치수문자_일반주서
 62
     0
100
AcDbTrace
 10
49.64747058936106
 20
11.76387273189885
 30
0.0
 11
50.4157955204772
 21
10.97574589481203
 31
0.0
 12
47.66725254365867
 22
9.064834520006993
 32
0.0
 13
47.66725254365867
 23
9.064834520006993
 33
0.0
  0
LINE
  5
2D8
330
2D2
100
AcDbEntity
  8
치수문자_일반주서
 62
     0
100
AcDbLine
 10
46.48599999999999
 20
8.00100000000002
 30
0.0
 11
46.666
 21
8.00100000000002
 31
0.0
  0
LINE
  5
2D9
330
2D2
100
AcDbEntity
  8
치수문자_일반주서
 62
     0
100
AcDbLine
 10
46.57599999999999
 20
7.911000000000021
 30
0.0
 11
46.57599999999999
 21
8.09100000000002
 31
0.0
  0
POINT
  5
2DA
330
2D2
100
AcDbEntity
  8
Defpoints
 62
     0
100
AcDbPoint
 10
47.66725254365867
 20
9.064834520006993
 30
0.0
  0
POINT
  5
2DB
330
2D2
100
AcDbEntity
  8
Defpoints
 62
     0
100
AcDbPoint
 10
46.57599999999999
 20
8.00100000000002
 30
0.0
  0
ENDBLK
  5
2D4
330
2D2
100
AcDbEntity
  8
0
100
AcDbBlockEnd
  0
ENDSEC
  0
SECTION
  2
ENTITIES
  0
INSERT
  5
DA
330
1F
100
AcDbEntity
  8
0
  6
Continuous
 62
     7
100
AcDbBlockReference
 66
     1
  2
블럭10
 10
-10.24270877828551
 20
-52.04717430164393
 30
0.0
  0
ATTRIB
  5
DB
330
DA
100
AcDbEntity
  8
FORMAT
 62
     2
100
AcDbText
 10
-21.29372913046998
 20
-49.97180738881174
 30
0.0
 40
4.233333333333333
  1
GMG22942[ 6 FLUTE ]
 41
0.75
  7
SLDTEXTSTYLE0
 11
-21.29372913046998
 21
-52.08847405547841
 31
0.0
100
AcDbAttribute
  2
AUTOATTR0
 70
     0
 74
     1
  0
SEQEND
  5
DC
330
DA
100
AcDbEntity
  8
0
  6
Continuous
 62
     7
  0
HATCH
  5
DD
330
1F
100
AcDbEntity
  8
중심선
100
AcDbHatch
 10
0.0
 20
0.0
 30
0.0
210
0.0
220
0.0
230
1.0
  2
SOLID
 70
     1
 71
     0
 91
        1
 92
        0
 93
        4
 72
     1
 10
-4.527799473904665
 20
-35.8
 11
-7.974074717741947
 21
-35.8
 72
     1
 10
-7.974074717741947
 20
-35.8
 11
-10.10230457694597
 21
-38.33632558057259
 72
     1
 10
-10.10230457694597
 20
-38.33632558057259
 11
-6.655996247995538
 21
-38.3362861512701
 72
     1
 10
-6.655996247995538
 20
-38.3362861512701
 11
-4.527799473904665
 21
-35.8
 97
        0
 75
     0
 76
     1
 98
        1
 10
0.0
 20
0.0
  0
HATCH
  5
DE
330
1F
100
AcDbEntity
  8
중심선
100
AcDbHatch
 10
0.0
 20
0.0
 30
0.0
210
0.0
220
0.0
230
1.0
  2
SOLID
 70
     1
 71
     0
 91
        1
 92
        0
 93
        4
 72
     1
 10
0.4849645171312866
 20
-35.8
 11
-2.961310726705996
 21
-35.8
 72
     1
 10
-2.961310726705996
 20
-35.8
 11
-7.492448735063384
 21
-41.20000000000002
 72
     1
 10
-7.492448735063384
 20
-41.20000000000002
 11
-4.046173491226101
 21
-41.20000000000002
 72
     1
 10
-4.046173491226101
 20
-41.20000000000002
 11
0.4849645171312869
 21
-35.8
 97
        0
 75
     0
 76
     1
 98
        1
 10
0.0
 20
0.0
  0
HATCH
  5
DF
330
1F
100
AcDbEntity
  8
중심선
100
AcDbHatch
 10
0.0
 20
0.0
 30
0.0
210
0.0
220
0.0
230
1.0
  2
SOLID
 70
     1
 71
     0
 91
        1
 92
        0
 93
        4
 72
     1
 10
5.497728508167183
 20
-35.80000000000003
 11
2.051453264330067
 21
-35.8
 72
     1
 10
2.051453264330067
 20
-35.8
 11
-4.996983637559183
 21
-44.20000000000002
 72
     1
 10
-4.996983637559183
 20
-44.20000000000002
 11
-1.5507083937219
 21
-44.20000000000002
 72
     1
 10
-1.5507083937219
 20
-44.20000000000002
 11
5.497728508167183
 21
-35.80000000000003
 97
        0
 75
     0
 76
     1
 98
        1
 10
0.0
 20
0.0
  0
HATCH
  5
E0
330
1F
100
AcDbEntity
  8
중심선
100
AcDbHatch
 10
0.0
 20
0.0
 30
0.0
210
0.0
220
0.0
230
1.0
  2
SOLID
 70
     1
 71
     0
 91
        1
 92
        0
 93
        6
 72
     3
 10
10.29761893917938
 20
-40.00000000005127
 11
3.960054785062284
 21
1.540850780301639E-10
 40
0.3939339440162633
 50
17.09539180608433
 51
320.0019657685081
 73
     0
 72
     1
 10
11.98061859487998
 20
-38.5878940046383
 11
14.28592046858101
 21
-36.65356729459038
 72
     3
 10
10.29761893912653
 20
-40.00000000000015
 11
6.600054785286829
 21
-1.249000902703301E-13
 40
0.6363583540795982
 50
39.99873849337408
 51
368.4976242363725
 73
     1
 72
     1
 10
16.72295143102714
 20
-39.03999999993002
 11
8.977686245962458
 21
-39.03999999992999
 72
     1
 10
8.977686245962458
 20
-39.03999999992999
 11
8.977661201516524
 21
-40.95999999992991
 72
     1
 10
8.977661201516524
 20
-40.95999999992991
 11
13.41904097098856
 21
-40.95999999992988
 97
        0
 75
     0
 76
     1
 98
        1
 10
0.0
 20
0.0
  0
LINE
  5
235
330
1F
100
AcDbEntity
  8
0
  6
Continuous
 62
     4
370
    15
100
AcDbLine
 10
7.376829730202928
 20
9.52500000000002
 30
0.0
 11
-53.0
 21
9.52500000000002
 31
0.0
  0
LINE
  5
236
330
1F
100
AcDbEntity
  8
0
  6
Continuous
 62
     4
370
    15
100
AcDbLine
 10
-53.0
 20
-9.524999999999977
 30
0.0
 11
7.375874588230261
 21
-9.524999999999977
 31
0.0
  0
LINE
  5
237
330
1F
100
AcDbEntity
  8
0
  6
Continuous
 62
     4
370
    15
100
AcDbLine
 10
-53.0
 20
9.525000000000006
 30
0.0
 11
-53.5
 21
9.025000000000006
 31
0.0
  0
LINE
  5
238
330
1F
100
AcDbEntity
  8
0
  6
Continuous
 62
     4
370
    15
100
AcDbLine
 10
-53.5
 20
-9.024999999999977
 30
0.0
 11
-53.0
 21
-9.524999999999977
 31
0.0
  0
LINE
  5
239
330
1F
100
AcDbEntity
  8
0
  6
Continuous
 62
     1
370
    15
100
AcDbLine
 10
34.00328129620053
 20
-9.524999999999977
 30
0.0
 11
37.25974862790429
 21
-9.524999999999977
 31
0.0
  0
LINE
  5
23A
102
{ACAD_REACTORS
102
}
330
1F
100
AcDbEntity
  8
0
  6
Continuous
 62
     1
370
    15
100
AcDbLine
 10
43.97840332232947
 20
-9.524999999999977
 30
0.0
 11
46.57599999999999
 21
-9.524999999999977
 31
0.0
  0
LINE
  5
23B
330
1F
100
AcDbEntity
  8
0
  6
Continuous
 62
     1
370
    15
100
AcDbLine
 10
17.3110866411983
 20
9.52500000000002
 30
0.0
 11
14.05398266210337
 21
9.52500000000002
 31
0.0
  0
LINE
  5
23C
330
1F
100
AcDbEntity
  8
0
  6
Continuous
 62
     1
370
    15
100
AcDbLine
 10
27.28549594174956
 20
9.52500000000002
 30
0.0
 11
24.02883832822812
 21
9.52500000000002
 31
0.0
  0
LINE
  5
23D
330
1F
100
AcDbEntity
  8
0
  6
Continuous
 62
     1
370
    15
100
AcDbLine
 10
24.02883832822806
 20
-9.524999999999977
 30
0.0
 11
27.28549594174949
 21
-9.524999999999977
 31
0.0
  0
LINE
  5
23E
330
1F
100
AcDbEntity
  8
0
  6
Continuous
 62
     1
370
    15
100
AcDbLine
 10
37.25974862790429
 20
9.52500000000002
 30
0.0
 11
34.00328129620058
 21
9.52500000000002
 31
0.0
  0
LINE
  5
23F
330
1F
100
AcDbEntity
  8
0
  6
Continuous
 62
     1
370
    15
100
AcDbLine
 10
14.05398266210335
 20
-9.524999999999977
 30
0.0
 11
17.31108664119823
 21
-9.524999999999977
 31
0.0
  0
LINE
  5
240
330
1F
100
AcDbEntity
  8
0
  6
Continuous
 62
     1
370
    15
100
AcDbLine
 10
46.57599999999999
 20
9.52500000000002
 30
0.0
 11
43.97840332232946
 21
9.52500000000002
 31
0.0
  0
SPLINE
  5
242
330
1F
100
AcDbEntity
  8
0
  6
Continuous
 62
     4
370
    15
100
AcDbSpline
210
0.0
220
0.0
230
1.0
 70
     8
 71
     3
 72
    14
 73
    10
 74
     0
 42
0.000000001
 43
0.00000001
 40
0.0
 40
0.0
 40
0.0
 40
0.0
 40
0.25
 40
0.25
 40
0.5
 40
0.5
 40
0.75
 40
0.75
 40
1.0
 40
1.0
 40
1.0
 40
1.0
 10
7.580379435335985
 20
-4.972456702874538
 30
0.0
 10
7.447221697117001
 20
-4.858522847368107
 30
0.0
 10
7.337716399378749
 20
-4.729201521601809
 30
0.0
 10
7.160167351948473
 20
-4.441134402195217
 30
0.0
 10
7.09397746906464
 20
-4.283761626318736
 30
0.0
 10
7.002544779804538
 20
-3.957779236170822
 30
0.0
 10
6.976588367477476
 20
-3.78671318317565
 30
0.0
 10
6.950556713839859
 20
-3.441954839778859
 30
0.0
 10
6.950423721520622
 20
-3.266892025107637
 30
0.0
 10
6.950423721520636
 20
-3.089786513737849
 30
0.0
  0
SPLINE
  5
243
330
1F
100
AcDbEntity
  8
0
  6
Continuous
 62
     4
370
    15
100
AcDbSpline
210
0.0
220
0.0
230
1.0
 70
     8
 71
     3
 72
    24
 73
    20
 74
     0
 42
0.000000001
 43
0.00000001
 40
0.0
 40
0.0
 40
0.0
 40
0.0
 40
0.125
 40
0.125
 40
0.2499999999999999
 40
0.2499999999999999
 40
0.3749999999999999
 40
0.3749999999999999
 40
0.4999999999999999
 40
0.4999999999999999
 40
0.6249999999999999
 40
0.6249999999999999
 40
0.6874999999999999
 40
0.6874999999999999
 40
0.7499999999999998
 40
0.7499999999999998
 40
0.8749999999999999
 40
0.8749999999999999
 40
1.0
 40
1.0
 40
1.0
 40
1.0
 10
6.950423721520622
 20
-3.089786513737891
 30
0.0
 10
6.950423721520622
 20
-2.896945905607382
 30
0.0
 10
6.950809584619222
 20
-2.702379664059734
 30
0.0
 10
6.984163665836576
 20
-2.312689574682167
 30
0.0
 10
7.01685957648381
 20
-2.11588028726176
 30
0.0
 10
7.133316919319896
 20
-1.730926785930578
 30
0.0
 10
7.215132590053258
 20
-1.547340634491349
 30
0.0
 10
7.438071507591076
 20
-1.203954826621654
 30
0.0
 10
7.572982397539164
 20
-1.053415537815923
 30
0.0
 10
7.892783867938363
 20
-0.7982860838033758
 30
0.0
 10
8.072947543312935
 20
-0.698430570065554
 30
0.0
 10
8.36294861304988
 20
-0.5974637427076459
 30
0.0
 10
8.463474933692538
 20
-0.5719072467418158
 30
0.0
 10
8.664517649908333
 20
-0.5387463834745461
 30
0.0
 10
8.76600183086802
 20
-0.5307528381771078
 30
0.0
 10
9.073392997808725
 20
-0.5329919724385661
 30
0.0
 10
9.276591018458973
 20
-0.5696749565145751
 30
0.0
 10
9.661847017237449
 20
-0.7101341864745336
 30
0.0
 10
9.840962179692099
 20
-0.8127639895836722
 30
0.0
 10
9.999999999999844
 20
-0.9437106350873705
 30
0.0
  0
SPLINE
  5
244
330
1F
100
AcDbEntity
  8
0
  6
Continuous
 62
     1
370
    15
100
AcDbSpline
210
0.0
220
0.0
230
1.0
 70
    24
 71
     3
 72
     8
 73
     4
 74
     0
 42
0.000000001
 43
0.00000001
 40
0.0
 40
0.0
 40
0.0
 40
0.0
 40
1.0
 40
1.0
 40
1.0
 40
1.0
 10
9.999999999999986
 20
-0.9437106350870295
 30
0.0
 10
9.999999999999986
 20
-1.019113301829123
 30
0.0
 10
9.999999999999986
 20
-1.111580720086451
 30
0.0
 10
9.999999999999986
 20
-1.223280287381286
 30
0.0
  0
SPLINE
  5
245
330
1F
100
AcDbEntity
  8
0
  6
Continuous
 62
     4
370
    15
100
AcDbSpline
210
0.0
220
0.0
230
1.0
 70
     8
 71
     3
 72
    24
 73
    20
 74
     0
 42
0.000000001
 43
0.00000001
 40
0.0
 40
0.0
 40
0.0
 40
0.0
 40
0.1249999999999999
 40
0.1249999999999999
 40
0.2499999999999998
 40
0.2499999999999998
 40
0.3749999999999998
 40
0.3749999999999998
 40
0.4999999999999998
 40
0.4999999999999998
 40
0.6249999999999998
 40
0.6249999999999998
 40
0.6874999999999999
 40
0.6874999999999999
 40
0.7499999999999999
 40
0.7499999999999999
 40
0.875
 40
0.875
 40
1.0
 40
1.0
 40
1.0
 40
1.0
 10
6.950423721520622
 20
-9.347721796869266
 30
0.0
 10
6.950423721520622
 20
-9.308572677277198
 30
0.0
 10
6.950809584619222
 20
-9.263058802312557
 30
0.0
 10
6.984163665836576
 20
-9.160307099085927
 30
0.0
 10
7.01685957648381
 20
-9.102532945171745
 30
0.0
 10
7.133316919319896
 20
-8.978792224673711
 30
0.0
 10
7.215132590053258
 20
-8.914376754242838
 30
0.0
 10
7.438071507591076
 20
-8.78608812580238
 30
0.0
 10
7.572982397539164
 20
-8.725748963468092
 30
0.0
 10
7.892783867938363
 20
-8.619763105369074
 30
0.0
 10
8.07294754331295
 20
-8.576108859681739
 30
0.0
 10
8.36294861304988
 20
-8.531431904042933
 30
0.0
 10
8.463474933692538
 20
-8.519975557523722
 30
0.0
 10
8.664517649908333
 20
-8.505072305169364
 30
0.0
 10
8.76600183086802
 20
-8.501452258812918
 30
0.0
 10
9.073392997808725
 20
-8.50246345182093
 30
0.0
 10
9.276591018458973
 20
-8.519188545788992
 30
0.0
 10
9.661847017237449
 20
-8.581227603968912
 30
0.0
 10
9.840962179692099
 20
-8.625978550135713
 30
0.0
 10
9.999999999999844
 20
-8.680160649822469
 30
0.0
  0
SPLINE
  5
246
330
1F
100
AcDbEntity
  8
0
  6
Continuous
 62
     4
370
    15
100
AcDbSpline
210
0.0
220
0.0
230
1.0
 70
     8
 71
     3
 72
    14
 73
    10
 74
     0
 42
0.000000001
 43
0.00000001
 40
0.0
 40
0.0
 40
0.0
 40
0.0
 40
0.25
 40
0.25
 40
0.5
 40
0.5
 40
0.75
 40
0.75
 40
1.0
 40
1.0
 40
1.0
 40
1.0
 10
7.580379435335999
 20
-9.521867945925322
 30
0.0
 10
7.447221697117001
 20
-9.525293306167626
 30
0.0
 10
7.337716399378749
 20
-9.526336637773142
 30
0.0
 10
7.160167351948473
 20
-9.519314693762396
 30
0.0
 10
7.09397746906464
 20
-9.511125754145198
 30
0.0
 10
7.002544779804538
 20
-9.483602729982977
 30
0.0
 10
6.976588367477476
 20
-9.4640801903669
 30
0.0
 10
6.950556713839859
 20
-9.414153845692354
 30
0.0
 10
6.950423721520622
 20
-9.3836764897746
 30
0.0
 10
6.950423721520622
 20
-9.347721796869166
 30
0.0
  0
SPLINE
  5
247
330
1F
100
AcDbEntity
  8
0
  6
Continuous
 62
     4
370
    15
100
AcDbSpline
210
0.0
220
0.0
230
1.0
 70
     8
 71
     3
 72
    10
 73
     6
 74
     0
 42
0.000000001
 43
0.00000001
 40
0.0
 40
0.0
 40
0.0
 40
0.0
 40
0.5
 40
0.5
 40
1.0
 40
1.0
 40
1.0
 40
1.0
 10
10.00000000000011
 20
-9.15477139411341
 30
0.0
 10
9.596942748233232
 20
-9.26611534308472
 30
0.0
 10
9.196260669759937
 20
-9.352675355782296
 30
0.0
 10
8.38728685881685
 20
-9.47553816826641
 30
0.0
 10
7.981861724165924
 20
-9.511540183614727
 30
0.0
 10
7.580379435335985
 20
-9.52186794592535
 30
0.0
  0
LINE
  5
248
330
1F
100
AcDbEntity
  8
0
  6
Continuous
 62
     4
370
    15
100
AcDbLine
 10
7.580379435335985
 20
9.52186794592538
 30
0.0
 11
7.376829730202928
 21
9.52482988464493
 31
0.0
  0
SPLINE
  5
249
330
1F
100
AcDbEntity
  8
0
  6
Continuous
 62
     4
370
    15
100
AcDbSpline
210
0.0
220
0.0
230
1.0
 70
     8
 71
     3
 72
    10
 73
     6
 74
     0
 42
0.000000001
 43
0.00000001
 40
0.0
 40
0.0
 40
0.0
 40
0.0
 40
0.5
 40
0.5
 40
1.0
 40
1.0
 40
1.0
 40
1.0
 10
10.00000000000011
 20
9.154771394113453
 30
0.0
 10
9.596942748233232
 20
9.26611534308475
 30
0.0
 10
9.196260669759937
 20
9.352675355782324
 30
0.0
 10
8.387286858816836
 20
9.47553816826644
 30
0.0
 10
7.981861724165924
 20
9.51154018361477
 30
0.0
 10
7.580379435335985
 20
9.52186794592538
 30
0.0
  0
SPLINE
  5
24A
330
1F
100
AcDbEntity
  8
0
  6
Continuous
 62
     4
370
    15
100
AcDbSpline
210
0.0
220
0.0
230
1.0
 70
     8
 71
     3
 72
    24
 73
    20
 74
     0
 42
0.000000001
 43
0.00000001
 40
0.0
 40
0.0
 40
0.0
 40
0.0
 40
0.1250000000000001
 40
0.1250000000000001
 40
0.2500000000000001
 40
0.2500000000000001
 40
0.3750000000000002
 40
0.3750000000000002
 40
0.5000000000000002
 40
0.5000000000000002
 40
0.6250000000000002
 40
0.6250000000000002
 40
0.6875000000000003
 40
0.6875000000000003
 40
0.7500000000000002
 40
0.7500000000000002
 40
0.8750000000000001
 40
0.8750000000000001
 40
1.0
 40
1.0
 40
1.0
 40
1.0
 10
6.950423721520622
 20
6.257935283131431
 30
0.0
 10
6.950423721520622
 20
6.411626771669873
 30
0.0
 10
6.950809584619222
 20
6.56067913825288
 30
0.0
 10
6.98416366583659
 20
6.84761752440383
 30
0.0
 10
7.01685957648381
 20
6.986652657910057
 30
0.0
 10
7.133316919319896
 20
7.247865438743219
 30
0.0
 10
7.215132590053258
 20
7.367036119751575
 30
0.0
 10
7.438071507591076
 20
7.582133299180796
 30
0.0
 10
7.572982397539164
 20
7.672333425652255
 30
0.0
 10
7.892783867938363
 20
7.821477021565784
 30
0.0
 10
8.07294754331295
 20
7.87767828961627
 30
0.0
 10
8.36294861304988
 20
7.933968161335372
 30
0.0
 10
8.463474933692538
 20
7.948068310781991
 30
0.0
 10
8.664517649908333
 20
7.966325921694903
 30
0.0
 10
8.76600183086802
 20
7.970699420635896
 30
0.0
 10
9.073392997808725
 20
7.969471479382449
 30
0.0
 10
9.276591018458973
 20
7.949513589274517
 30
0.0
 10
9.661847017237449
 20
7.871093417494464
 30
0.0
 10
9.840962179692099
 20
7.813214560552126
 30
0.0
 10
9.999999999999844
 20
7.736450014735183
 30
0.0
  0
SPLINE
  5
24B
330
1F
100
AcDbEntity
  8
0
  6
Continuous
 62
     4
370
    15
100
AcDbSpline
210
0.0
220
0.0
230
1.0
 70
     8
 71
     3
 72
    14
 73
    10
 74
     0
 42
0.000000001
 43
0.00000001
 40
0.0
 40
0.0
 40
0.0
 40
0.0
 40
0.25
 40
0.25
 40
0.5
 40
0.5
 40
0.75
 40
0.75
 40
1.0
 40
1.0
 40
1.0
 40
1.0
 10
7.580379435335985
 20
4.549411243050827
 30
0.0
 10
7.447221697117001
 20
4.666770458799562
 30
0.0
 10
7.337716399378749
 20
4.797135116171376
 30
0.0
 10
7.160167351948473
 20
5.078180291567236
 30
0.0
 10
7.09397746906464
 20
5.227364127826505
 30
0.0
 10
7.002544779804538
 20
5.525823493812197
 30
0.0
 10
6.976588367477476
 20
5.677367007191322
 30
0.0
 10
6.950556713839859
 20
5.972199005913552
 30
0.0
 10
6.950423721520622
 20
6.116784464667035
 30
0.0
 10
6.950423721520622
 20
6.257935283131374
 30
0.0
  0
SPLINE
  5
24C
330
1F
100
AcDbEntity
  8
0
  6
Continuous
 62
     4
370
    15
100
AcDbSpline
210
0.0
220
0.0
230
1.0
 70
     8
 71
     3
 72
    10
 73
     6
 74
     0
 42
0.000000001
 43
0.00000001
 40
0.0
 40
0.0
 40
0.0
 40
0.0
 40
0.5
 40
0.5
 40
1.0
 40
1.0
 40
1.0
 40
1.0
 10
10.00000000000011
 20
2.299922351327041
 30
0.0
 10
9.596942748233232
 20
2.691273185648626
 30
0.0
 10
9.196260669759937
 20
3.07568685785948
 30
0.0
 10
8.387286858816836
 20
3.828309026211031
 30
0.0
 10
7.981861724165924
 20
4.195562888578166
 30
0.0
 10
7.580379435335985
 20
4.549411243050827
 30
0.0
  0
SPLINE
  5
24D
330
1F
100
AcDbEntity
  8
0
  6
Continuous
 62
     4
370
    15
100
AcDbSpline
210
0.0
220
0.0
230
1.0
 70
     8
 71
     3
 72
    10
 73
     6
 74
     0
 42
0.000000001
 43
0.00000001
 40
0.0
 40
0.0
 40
0.0
 40
0.0
 40
0.5
 40
0.5
 40
1.0
 40
1.0
 40
1.0
 40
1.0
 10
10.00000000000011
 20
-6.85484904278637
 30
0.0
 10
9.596942748233232
 20
-6.574842157436109
 30
0.0
 10
9.196260669759937
 20
-6.276988497922829
 30
0.0
 10
8.38728685881685
 20
-5.647229142055394
 30
0.0
 10
7.981861724165924
 20
-5.315977295036603
 30
0.0
 10
7.580379435335985
 20
-4.972456702874553
 30
0.0
  0
LINE
  5
24E
330
1F
100
AcDbEntity
  8
0
  6
Continuous
 62
     4
370
    15
100
AcDbLine
 10
-53.0
 20
9.525000000000006
 30
0.0
 11
-53.0
 21
-9.524999999999991
 31
0.0
  0
LINE
  5
24F
330
1F
100
AcDbEntity
  8
0
  6
Continuous
 62
     1
370
    15
100
AcDbLine
 10
9.999999999999986
 20
9.154771394113482
 30
0.0
 11
9.999999999999986
 21
7.736450014735382
 31
0.0
  0
LINE
  5
250
330
1F
100
AcDbEntity
  8
0
  6
Continuous
 62
     4
370
    15
100
AcDbLine
 10
9.999999999999986
 20
-6.854849042786299
 30
0.0
 11
9.999999999999986
 21
-8.680160649822326
 31
0.0
  0
LINE
  5
251
330
1F
100
AcDbEntity
  8
0
  6
Continuous
 62
     1
370
    15
100
AcDbLine
 10
9.999999999999986
 20
2.299922351327169
 30
0.0
 11
9.999999999999986
 21
-0.9437106350870152
 31
0.0
  0
LINE
  5
252
330
1F
100
AcDbEntity
  8
0
  6
Continuous
 62
     4
370
    15
100
AcDbLine
 10
-53.5
 20
9.025000000000006
 30
0.0
 11
-53.5
 21
-9.024999999999963
 31
0.0
  0
SPLINE
  5
253
330
1F
100
AcDbEntity
  8
0
  6
Continuous
 62
     4
370
    15
100
AcDbSpline
210
0.0
220
0.0
230
1.0
 70
     8
 71
     3
 72
     9
 73
     5
 74
     0
 42
0.000000001
 43
0.00000001
 40
0.0
 40
0.0
 40
0.0
 40
0.0
 40
0.1757995199200042
 40
1.0
 40
1.0
 40
1.0
 40
1.0
 10
7.720819227689347
 20
4.46808704150034
 30
0.0
 10
7.712509876307067
 20
4.468432049276487
 30
0.0
 10
7.665243812178616
 20
4.470394556206514
 30
0.0
 10
7.637512999863233
 20
4.500859959286942
 30
0.0
 10
7.614657251039887
 20
4.525969559131653
 30
0.0
  0
SPLINE
  5
254
330
1F
100
AcDbEntity
  8
0
  6
Continuous
 62
     1
370
    15
100
AcDbSpline
210
0.0
220
0.0
230
1.0
 70
    24
 71
     3
 72
    16
 73
    12
 74
     0
 42
0.000000001
 43
0.00000001
 40
0.0
 40
0.0
 40
0.0
 40
0.0
 40
0.2500000000000002
 40
0.2500000000000002
 40
0.5000000000000003
 40
0.5000000000000003
 40
0.7500000000000002
 40
0.7500000000000002
 40
0.8750000000000001
 40
0.8750000000000001
 40
1.0
 40
1.0
 40
1.0
 40
1.0
 10
9.999999999999986
 20
7.049238855992016
 30
0.0
 10
9.999999999999986
 20
6.66341102167668
 30
0.0
 10
9.999999999999986
 20
6.235290071818795
 30
0.0
 10
9.999999999999986
 20
5.32349964301018
 30
0.0
 10
9.999999999999986
 20
4.839169833905657
 30
0.0
 10
9.999999999999986
 20
3.901248529620176
 30
0.0
 10
9.999999999999986
 20
3.449216208172004
 30
0.0
 10
9.999999999999986
 20
2.899277509625364
 30
0.0
 10
9.999999999999986
 20
2.737568045083066
 30
0.0
 10
9.999999999999986
 20
2.472531101816429
 30
0.0
 10
9.999999999999986
 20
2.369315230231649
 30
0.0
 10
9.999999999999986
 20
2.299922351327169
 30
0.0
  0
SPLINE
  5
255
330
1F
100
AcDbEntity
  8
0
  6
Continuous
 62
     1
370
    15
100
AcDbSpline
210
0.0
220
0.0
230
1.0
 70
    24
 71
     3
 72
    16
 73
    12
 74
     0
 42
0.000000001
 43
0.00000001
 40
0.0
 40
0.0
 40
0.0
 40
0.0
 40
0.2500000000000002
 40
0.2500000000000002
 40
0.5000000000000002
 40
0.5000000000000002
 40
0.7500000000000002
 40
0.7500000000000002
 40
0.8750000000000001
 40
0.8750000000000001
 40
1.0
 40
1.0
 40
1.0
 40
1.0
 10
9.999999999999986
 20
-1.223280287380888
 30
0.0
 10
9.999999999999986
 20
-1.40965645805052
 30
0.0
 10
9.999999999999986
 20
-1.656665622886891
 30
0.0
 10
9.999999999999986
 20
-2.313898907489644
 30
0.0
 10
9.999999999999986
 20
-2.725848431872194
 30
0.0
 10
9.999999999999986
 20
-3.719996711931429
 30
0.0
 10
9.999999999999986
 20
-4.303474908789852
 30
0.0
 10
9.999999999999986
 20
-5.24423167344365
 30
0.0
 10
9.999999999999986
 20
-5.567862197392472
 30
0.0
 10
9.999999999999986
 20
-6.216099375235871
 30
0.0
 10
9.999999999999986
 20
-6.54056928590839
 30
0.0
 10
9.999999999999986
 20
-6.854849042786284
 30
0.0
  0
SPLINE
  5
256
330
1F
100
AcDbEntity
  8
0
  6
Continuous
 62
     1
370
    15
100
AcDbSpline
210
0.0
220
0.0
230
1.0
 70
    24
 71
     3
 72
     8
 73
     4
 74
     0
 42
0.000000001
 43
0.00000001
 40
0.0
 40
0.0
 40
0.0
 40
0.0
 40
1.0
 40
1.0
 40
1.0
 40
1.0
 10
9.999999999999986
 20
7.736450014735482
 30
0.0
 10
9.999999999999986
 20
7.509460312016529
 30
0.0
 10
9.999999999999986
 20
7.280474437175059
 30
0.0
 10
9.999999999999986
 20
7.049238855990851
 30
0.0
  0
SPLINE
  5
257
330
1F
100
AcDbEntity
  8
0
  6
Continuous
 62
     4
370
    15
100
AcDbSpline
210
0.0
220
0.0
230
1.0
 70
    24
 71
     3
 72
     9
 73
     5
 74
     0
 42
0.000000001
 43
0.00000001
 40
0.0
 40
0.0
 40
0.0
 40
0.0
 40
0.0757348487745594
 40
1.0
 40
1.0
 40
1.0
 40
1.0
 10
9.999999999999986
 20
-8.747235537845171
 30
0.0
 10
9.999999999999986
 20
-8.755986366773584
 30
0.0
 10
9.999999999999986
 20
-8.871531971868237
 30
0.0
 10
9.999999999999986
 20
-9.018725523684537
 30
0.0
 10
9.999999999999986
 20
-9.154771394113453
 30
0.0
  0
SPLINE
  5
258
330
1F
100
AcDbEntity
  8
0
  6
Continuous
 62
     1
370
    15
100
AcDbSpline
210
0.0
220
0.0
230
1.0
 70
     8
 71
     3
 72
    24
 73
    20
 74
     0
 42
0.000000001
 43
0.00000001
 40
0.0
 40
0.0
 40
0.0
 40
0.0
 40
0.0603583670298473
 40
0.1206207714128332
 40
0.1808694231488792
 40
0.2412250157263172
 40
0.3014967451721482
 40
0.362679110523259
 40
0.4239625461388145
 40
0.4851932927082089
 40
0.5463699797808251
 40
0.6076295575871986
 40
0.6688876510313386
 40
0.7300642015084636
 40
0.791296167378738
 40
0.8525787115086286
 40
0.9137606671861357
 40
0.9749705118368566
 40
1.0
 40
1.0
 40
1.0
 40
1.0
 10
10.00000000000051
 20
7.743165608212763
 30
0.0
 10
10.48328267044114
 20
7.444909016308486
 30
0.0
 10
11.44907964917944
 20
6.848870025116653
 30
0.0
 10
12.89567575621547
 20
5.748491004664928
 30
0.0
 10
14.34176524253041
 20
4.527936361516538
 30
0.0
 10
15.79048042699432
 20
3.201844228351746
 30
0.0
 10
17.24464353075523
 20
1.793883337189499
 30
0.0
 10
18.7057128860221
 20
0.3355977434263053
 30
0.0
 10
20.17670899908683
 20
-1.135982539337419
 30
0.0
 10
21.64642510431901
 20
-2.581795180529312
 30
0.0
 10
23.11483913886478
 20
-3.967077017801245
 30
0.0
 10
24.5852521473637
 20
-5.256682112317691
 30
0.0
 10
26.05562858651911
 20
-6.421475270818007
 30
0.0
 10
27.52403907033288
 20
-7.435033155700737
 30
0.0
 10
28.99378364895955
 20
-8.270187870846385
 30
0.0
 10
30.46475947207374
 20
-8.912194686218868
 30
0.0
 10
31.93330657929295
 20
-9.32936480443999
 30
0.0
 10
33.11245730400205
 20
-9.527522136873188
 30
0.0
 10
33.80289390670187
 20
-9.50432482793775
 30
0.0
 10
34.00328129620053
 20
-9.49759220663293
 30
0.0
  0
LINE
  5
259
330
1F
100
AcDbEntity
  8
0
  6
Continuous
 62
     1
370
    15
100
AcDbLine
 10
10.0
 20
7.743165608211299
 30
0.0
 11
10.0
 21
9.154771394113482
 31
0.0
  0
SPLINE
  5
25A
330
1F
100
AcDbEntity
  8
0
  6
Continuous
 62
     1
370
    15
100
AcDbSpline
210
0.0
220
0.0
230
1.0
 70
     8
 71
     3
 72
    28
 73
    24
 74
     0
 42
0.000000001
 43
0.00000001
 40
0.0
 40
0.0
 40
0.0
 40
0.0
 40
0.0388657703509661
 40
0.0908032273641504
 40
0.1388217162681656
 40
0.1868399387439155
 40
0.2349381657720435
 40
0.2829696861644511
 40
0.3309793220088209
 40
0.379067889866978
 40
0.4271167688364927
 40
0.4751221632064091
 40
0.5231915445494243
 40
0.57126209067525
 40
0.619267592231995
 40
0.6673155144130156
 40
0.715404781822236
 40
0.763414739138522
 40
0.8107101181495712
 40
0.8580713047727605
 40
0.9053485746463908
 40
0.9526366362569664
 40
0.9999999999999999
 40
0.9999999999999999
 40
0.9999999999999999
 40
0.9999999999999999
 10
40.5895360733916
 20
-8.92563776627378
 30
0.0
 10
40.19324985642834
 20
-9.05732367417157
 30
0.0
 10
39.26739486538484
 20
-9.364985283024765
 30
0.0
 10
37.85060628939983
 20
-9.542746429170535
 30
0.0
 10
36.34260297356872
 20
-9.519804534519324
 30
0.0
 10
34.87380464974382
 20
-9.263573803494168
 30
0.0
 10
33.40252532511907
 20
-8.7898886903602
 30
0.0
 10
31.93330681595955
 20
-8.10627844297386
 30
0.0
 10
30.46475940855339
 20
-7.229693791940178
 30
0.0
 10
28.99378366597639
 20
-6.182679615219214
 30
0.0
 10
27.52403906577962
 20
-4.988058404760977
 30
0.0
 10
26.0556285877405
 20
-3.674010509147024
 30
0.0
 10
24.58525214703621
 20
-2.274038492207808
 30
0.0
 10
23.11483913895239
 20
-0.8201241174412104
 30
0.0
 10
21.64642510429552
 20
0.6548260132400543
 30
0.0
 10
20.17670899909312
 20
2.113296684651004
 30
0.0
 10
18.70571288602041
 20
3.520429837197099
 30
0.0
 10
17.24464353075564
 20
4.839195955661509
 30
0.0
 10
15.79048042699412
 20
6.037221002683879
 30
0.0
 10
14.34176524253027
 20
7.089699206158485
 30
0.0
 10
12.89567575621521
 20
7.97651136760814
 30
0.0
 10
11.44907964917911
 20
8.694194139857743
 30
0.0
 10
10.48328267044077
 20
9.001164236972684
 30
0.0
 10
10.00000000000011
 20
9.154771394113453
 30
0.0
  0
SPLINE
  5
25B
330
1F
100
AcDbEntity
  8
0
  6
Continuous
 62
     1
370
    15
100
AcDbSpline
210
0.0
220
0.0
230
1.0
 70
     8
 71
     3
 72
    31
 73
    27
 74
     0
 42
0.000000001
 43
0.00000001
 40
0.0
 40
0.0
 40
0.0
 40
0.0
 40
0.0226467439450692
 40
0.0661066822216779
 40
0.109556702387762
 40
0.1530838459679171
 40
0.1965505092774852
 40
0.2406739034400805
 40
0.2848701872840508
 40
0.3290284729313434
 40
0.3731477720427137
 40
0.4173268501524441
 40
0.4615048577723442
 40
0.5056240583740105
 40
0.5497832233546375
 40
0.5939788642784927
 40
0.6381019629933753
 40
0.6822451746305166
 40
0.7264496927829244
 40
0.7705806830132775
 40
0.8147119181036565
 40
0.8571539939014534
 40
0.8995228369812217
 40
0.9418890553074292
 40
0.9843314264144337
 40
1.0
 40
1.0
 40
1.0
 40
1.0
 10
10.69541246819652
 20
8.913080621823497
 30
0.0
 10
10.94683419993346
 20
9.004379748668015
 30
0.0
 10
11.68074352322833
 20
9.270885272820507
 30
0.0
 10
12.89565096521625
 20
9.484549998604564
 30
0.0
 10
14.3417718978117
 20
9.559043486342233
 30
0.0
 10
15.79047864603898
 20
9.403085421162658
 30
0.0
 10
17.24464401568348
 20
9.031242044580864
 30
0.0
 10
18.70571275502014
 20
8.444350859784421
 30
0.0
 10
20.17670903417634
 20
7.655043307256975
 30
0.0
 10
21.6464250949453
 20
6.683272452177874
 30
0.0
 10
23.11483914132175
 20
5.551919064744723
 30
0.0
 10
24.58525214692015
 20
4.289871668555918
 30
0.0
 10
26.05562858583522
 20
2.925974012181797
 30
0.0
 10
27.5240390735075
 20
1.491090060615093
 30
0.0
 10
28.99378363692712
 20
0.0216720961565215
 30
0.0
 10
30.4647595170333
 20
-1.447124613799474
 30
0.0
 10
31.93330641176878
 20
-2.883582848773315
 30
0.0
 10
33.40252683531375
 20
-4.250977612313989
 30
0.0
 10
34.87379900893839
 20
-5.515811240931299
 30
0.0
 10
36.34262398542452
 20
-6.65136256047542
 30
0.0
 10
37.79186046878243
 20
-7.615959234094746
 30
0.0
 10
39.22396787333068
 20
-8.392242215496935
 30
0.0
 10
40.63411427451851
 20
-8.97908463629895
 30
0.0
 10
42.04405750595392
 20
-9.355321649086335
 30
0.0
 10
43.16029819266079
 20
-9.530699612228673
 30
0.0
 10
43.80466214423421
 20
-9.507051853861554
 30
0.0
 10
43.97840332232946
 20
-9.500675660115789
 30
0.0
  0
SPLINE
  5
25C
330
1F
100
AcDbEntity
  8
0
  6
Continuous
 62
     1
370
    15
100
AcDbSpline
210
0.0
220
0.0
230
1.0
 70
     8
 71
     3
 72
    27
 73
    23
 74
     0
 42
0.000000001
 43
0.00000001
 40
0.016904706181837
 40
0.016904706181837
 40
0.016904706181837
 40
0.016904706181837
 40
0.0528637984364403
 40
0.1057780382868404
 40
0.1586288248392125
 40
0.2114593693306038
 40
0.2643308753186493
 40
0.3172417318442941
 40
0.3661601718890896
 40
0.4150783405122846
 40
0.4640780131142208
 40
0.5130097288804764
 40
0.5619191499436804
 40
0.610908982345771
 40
0.6598583820194727
 40
0.7087634821155142
 40
0.7577337684133423
 40
0.8067052413240644
 40
0.8556104506158047
 40
0.904558875569109
 40
0.9535494206330829
 40
1.0
 40
1.0
 40
1.0
 40
1.0
 10
46.83046254598821
 20
-9.503606007138682
 30
0.0
 10
46.47057844443931
 20
-9.486259277206981
 30
0.0
 10
45.58102429657625
 20
-9.423118958643611
 30
0.0
 10
44.16128810931829
 20
-9.072632326396516
 30
0.0
 10
42.57432007287089
 20
-8.447540029195352
 30
0.0
 10
40.98795268331594
 20
-7.583250548525569
 30
0.0
 10
39.40034080663619
 20
-6.51017232870781
 30
0.0
 10
37.85062275581514
 20
-5.288148762761267
 30
0.0
 10
36.34259870877329
 20
-3.962816129421668
 30
0.0
 10
34.87380579465679
 20
-2.577388866252988
 30
0.0
 10
33.40252501861914
 20
-1.13290718380712
 30
0.0
 10
31.93330689790255
 20
0.3403340358650837
 30
0.0
 10
30.46475938689352
 20
1.805947516842323
 30
0.0
 10
28.99378367053302
 20
3.226637589951935
 30
0.0
 10
27.52403906920357
 20
4.571815888283425
 30
0.0
 10
26.05562856950284
 20
5.809067848719295
 30
0.0
 10
24.58525221667301
 20
6.907142435078399
 30
0.0
 10
23.11483887882389
 20
7.840897402820246
 30
0.0
 10
21.64642607410944
 20
8.59050400388972
 30
0.0
 10
20.17670537462898
 20
9.130481872226653
 30
0.0
 10
18.73035983572736
 20
9.466065755309245
 30
0.0
 10
17.7757090285632
 20
9.502074055519046
 30
0.0
 10
17.3110866411983
 20
9.519599062865069
 30
0.0
  0
SPLINE
  5
25E
330
1F
100
AcDbEntity
  8
0
  6
Continuous
 62
     1
370
    15
100
AcDbSpline
210
0.0
220
0.0
230
1.0
 70
     8
 71
     3
 72
    25
 73
    21
 74
     0
 42
0.000000001
 43
0.00000001
 40
0.0
 40
0.0
 40
0.0
 40
0.0
 40
0.0381064216335874
 40
0.0954522100214609
 40
0.1528756985056426
 40
0.2102977955787067
 40
0.2676434559247312
 40
0.3250410615388149
 40
0.3824860781898766
 40
0.4398368052613505
 40
0.497213674891907
 40
0.5546702300687454
 40
0.6120312144467802
 40
0.6693925170912312
 40
0.7245582687342643
 40
0.7796288332814977
 40
0.8346959862024066
 40
0.8898621216851578
 40
0.944927966193361
 40
1.0
 40
1.0
 40
1.0
 40
1.0
 10
20.67088370522762
 20
8.915118578576084
 30
0.0
 10
20.99618967073999
 20
9.027825463078685
 30
0.0
 10
21.811043755962
 20
9.310143265412691
 30
0.0
 10
23.11481021600453
 20
9.513800862577199
 30
0.0
 10
24.58525990199442
 20
9.547935527969088
 30
0.0
 10
26.05562651101133
 20
9.347121103792063
 30
0.0
 10
27.52403962978056
 20
8.92605652822104
 30
0.0
 10
28.99378348733006
 20
8.292455940694524
 30
0.0
 10
30.46475955833452
 20
7.462752492557854
 30
0.0
 10
31.93330639594862
 20
6.454441699648328
 30
0.0
 10
33.40252685733171
 20
5.292928507952951
 30
0.0
 10
34.87379893665343
 20
4.007311912563864
 30
0.0
 10
36.34262425202796
 20
2.624587750729745
 30
0.0
 10
37.7918594905473
 20
1.198551232203641
 30
0.0
 10
39.22397136624372
 20
-0.2324509589219019
 30
0.0
 10
40.63410124729256
 20
-1.640990516634858
 30
0.0
 10
42.04410616513218
 20
-3.014382309829969
 30
0.0
 10
43.45669991770725
 20
-4.316538761547633
 30
0.0
 10
44.8665487072978
 20
-5.537068648443679
 30
0.0
 10
45.80643839074503
 20
-6.243193300893992
 30
0.0
 10
46.27640964144729
 20
-6.596275467778298
 30
0.0
  0
SPLINE
  5
25F
330
1F
100
AcDbEntity
  8
0
  6
Continuous
 62
     1
370
    15
100
AcDbSpline
210
0.0
220
0.0
230
1.0
 70
     8
 71
     3
 72
    10
 73
     6
 74
     0
 42
0.000000001
 43
0.00000001
 40
0.0
 40
0.0
 40
0.0
 40
0.0
 40
0.2430520473276336
 40
0.6150996743016109
 40
1.0
 40
1.0
 40
1.0
 40
1.0
 10
45.63522980693583
 20
-6.102343519348466
 30
0.0
 10
45.59137486489389
 20
-6.099414265079858
 30
0.0
 10
45.48038974519176
 20
-6.092001106596413
 30
0.0
 10
45.26062289828096
 20
-6.127870599867222
 30
0.0
 10
45.07414655791587
 20
-6.191299489342555
 30
0.0
 10
44.97932523778657
 20
-6.223552433724734
 30
0.0
  0
SPLINE
  5
260
330
1F
100
AcDbEntity
  8
0
  6
Continuous
 62
     1
370
    15
100
AcDbSpline
210
0.0
220
0.0
230
1.0
 70
     8
 71
     3
 72
     8
 73
     4
 74
     0
 42
0.000000001
 43
0.00000001
 40
0.0
 40
0.0
 40
0.0
 40
0.0
 40
1.0
 40
1.0
 40
1.0
 40
1.0
 10
48.09999999999999
 20
-7.253764870742771
 30
0.0
 10
47.05732811755888
 20
-6.998401971398579
 30
0.0
 10
46.01697297875259
 20
-6.656275217222017
 30
0.0
 10
44.979325237786
 20
-6.223552433724208
 30
0.0
  0
LINE
  5
261
330
1F
100
AcDbEntity
  8
0
  6
Continuous
 62
     1
370
    15
100
AcDbLine
 10
48.09999999999999
 20
-8.00100000000002
 30
0.0
 11
48.09999999999999
 21
-7.253764870742771
 31
0.0
  0
SPLINE
  5
262
330
1F
100
AcDbEntity
  8
0
  6
Continuous
 62
     1
370
    15
100
AcDbSpline
210
0.0
220
0.0
230
1.0
 70
     8
 71
     3
 72
    22
 73
    18
 74
     0
 42
0.000000001
 43
0.00000001
 40
0.0
 40
0.0
 40
0.0
 40
0.0
 40
0.0087470183187662
 40
0.0799973366457092
 40
0.1511888500201286
 40
0.2223159345354306
 40
0.2935378252053993
 40
0.3647614416731975
 40
0.4358886850016226
 40
0.5070787807525233
 40
0.5783301355677244
 40
0.6494639807622443
 40
0.7195390726192178
 40
0.7897116681765957
 40
0.8597599286708733
 40
0.9298241787179055
 40
1.0
 40
1.0
 40
1.0
 40
1.0
 10
30.64570257171783
 20
-8.927394943079875
 30
0.0
 10
30.58553470659854
 20
-8.95184681489421
 30
0.0
 10
30.03525931151043
 20
-9.175475547550732
 30
0.0
 10
28.99370748815689
 20
-9.396264127167157
 30
0.0
 10
27.52405944898209
 20
-9.563363011610065
 30
0.0
 10
26.05562312005353
 20
-9.482157244210583
 30
0.0
 10
24.58525361302567
 20
-9.181372877287288
 30
0.0
 10
23.11483874674153
 20
-8.661175375601289
 30
0.0
 10
21.64642520942897
 20
-7.934871913322695
 30
0.0
 10
20.17670897088264
 20
-7.02026019582469
 30
0.0
 10
18.70571289357201
 20
-5.939855887457568
 30
0.0
 10
17.24464352876717
 20
-4.722928446375505
 30
0.0
 10
15.79048042752439
 20
-3.402540021546287
 30
0.0
 10
14.34176524238845
 20
-2.012204789172046
 30
0.0
 10
12.89567575625301
 20
-0.5741593430493168
 30
0.0
 10
11.44907964916963
 20
0.880482615497101
 30
0.0
 10
10.4832826704376
 20
1.826524890773285
 30
0.0
 10
10.00000000000011
 20
2.299922351327041
 30
0.0
  0
SPLINE
  5
263
330
1F
100
AcDbEntity
  8
0
  6
Continuous
 62
     1
370
    15
100
AcDbSpline
210
0.0
220
0.0
230
1.0
 70
    24
 71
     3
 72
    18
 73
    14
 74
     0
 42
0.000000001
 43
0.00000001
 40
0.0
 40
0.0
 40
0.0
 40
0.0
 40
0.2499999999999998
 40
0.2499999999999998
 40
0.4999999999999998
 40
0.4999999999999998
 40
0.6249999999999999
 40
0.6249999999999999
 40
0.75
 40
0.75
 40
0.875
 40
0.875
 40
1.0
 40
1.0
 40
1.0
 40
1.0
 10
10.0
 20
7.743165608211228
 30
0.0
 10
10.0
 20
7.356424317042496
 30
0.0
 10
10.0
 20
6.912934810133521
 30
0.0
 10
10.0
 20
5.924520278296001
 30
0.0
 10
10.0
 20
5.377634671720344
 30
0.0
 10
10.0
 20
4.5509707481595
 30
0.0
 10
10.0
 20
4.275284636761285
 30
0.0
 10
10.0
 20
3.746552791334878
 30
0.0
 10
10.0
 20
3.493665560858616
 30
0.0
 10
10.0
 20
3.038103270097452
 30
0.0
 10
10.0
 20
2.83569133812334
 30
0.0
 10
10.0
 20
2.50675428657695
 30
0.0
 10
10.0
 20
2.380477532300915
 30
0.0
 10
10.0
 20
2.299922351327155
 30
0.0
  0
SPLINE
  5
264
330
1F
100
AcDbEntity
  8
0
  6
Continuous
 62
     1
370
    15
100
AcDbSpline
210
0.0
220
0.0
230
1.0
 70
     8
 71
     3
 72
    21
 73
    17
 74
     0
 42
0.000000001
 43
0.00000001
 40
0.0
 40
0.0
 40
0.0
 40
0.0
 40
0.0791613736082635
 40
0.1583982811685679
 40
0.2375401700132207
 40
0.3166517472003829
 40
0.3958246625515833
 40
0.4750565037215993
 40
0.5483098646842145
 40
0.6215628192040965
 40
0.6949378225948979
 40
0.7682110634068146
 40
0.8414509188137858
 40
0.9148111869082334
 40
0.9881109086474688
 40
1.0
 40
1.0
 40
1.0
 40
1.0
 10
47.33799999999999
 20
-4.851196296937857
 30
0.0
 10
46.80895791973681
 20
-4.38274094309314
 30
0.0
 10
45.75036895949191
 20
-3.445383246138405
 30
0.0
 10
44.1612881093258
 20
-1.909628502172666
 30
0.0
 10
42.57432007284271
 20
-0.3292487708633729
 30
0.0
 10
40.98795268342121
 20
1.262615484732947
 30
0.0
 10
39.40034080624285
 20
2.818706605850636
 30
0.0
 10
37.8506227572374
 20
4.259361950200713
 30
0.0
 10
36.3425987039093
 20
5.555771184791752
 30
0.0
 10
34.87380581286962
 20
6.686448799858255
 30
0.0
 10
33.40252495054898
 20
7.657146005061122
 30
0.0
 10
31.93330715149214
 20
8.445692649452127
 30
0.0
 10
30.46475844026617
 20
9.039157277464852
 30
0.0
 10
28.99378720869105
 20
9.396153628555197
 30
0.0
 10
27.9340494695472
 20
9.549578953866984
 30
0.0
 10
27.36492402770929
 20
9.51450705072439
 30
0.0
 10
27.28549594174956
 20
9.509612358038382
 30
0.0
  0
ELLIPSE
  5
266
330
1F
100
AcDbEntity
  8
0
  6
Continuous
 62
     1
370
    15
100
AcDbEllipse
 10
49.5281480067421
 20
0.0000000000000284
 30
0.0
 11
13.41987174966148
 21
8.916837433236193
 31
0.0
210
0.0
220
0.0
230
1.0
 40
0.2495534463455964
 41
4.306687302902417
 42
4.386360920362463
  0
SPLINE
  5
267
330
1F
100
AcDbEntity
  8
0
  6
Continuous
 62
     1
370
    15
100
AcDbSpline
210
0.0
220
0.0
230
1.0
 70
     8
 71
     3
 72
    14
 73
    10
 74
     0
 42
0.000000001
 43
0.00000001
 40
0.0
 40
0.0
 40
0.0
 40
0.0
 40
0.25
 40
0.25
 40
0.5
 40
0.5
 40
0.75
 40
0.75
 40
1.0
 40
1.0
 40
1.0
 40
1.0
 10
48.09999999999999
 20
-4.655134740655953
 30
0.0
 10
48.09999999999997
 20
-4.7657549457534
 30
0.0
 10
48.08458857635503
 20
-4.872741152235292
 30
0.0
 10
47.99861439225205
 20
-5.035391694291235
 30
0.0
 10
47.92767338884819
 20
-5.08217644019453
 30
0.0
 10
47.76399732151387
 20
-5.096355080730447
 30
0.0
 10
47.6761775707969
 20
-5.068966897273157
 30
0.0
 10
47.50502905396664
 20
-4.982192648442279
 30
0.0
 10
47.41994223925268
 20
-4.92160280441189
 30
0.0
 10
47.33799999999999
 20
-4.851196296937843
 30
0.0
  0
SPLINE
  5
268
330
1F
100
AcDbEntity
  8
0
  6
Continuous
 62
     1
370
    15
100
AcDbSpline
210
0.0
220
0.0
230
1.0
 70
     8
 71
     3
 72
    18
 73
    14
 74
     0
 42
0.000000001
 43
0.00000001
 40
0.0
 40
0.0
 40
0.0
 40
0.0
 40
0.0823942122418651
 40
0.1763835142005679
 40
0.2705033494023611
 40
0.3644666296591906
 40
0.4584304312696333
 40
0.5487976911487702
 40
0.6390090246285182
 40
0.7292147695082103
 40
0.8195826581568741
 40
0.909786259719971
 40
1.0
 40
1.0
 40
1.0
 40
1.0
 10
30.64570257171791
 20
8.927394943079918
 30
0.0
 10
31.07486271203263
 20
9.064651414838522
 30
0.0
 10
31.99357740865864
 20
9.358480048875194
 30
0.0
 10
33.402499800827
 20
9.540505261283698
 30
0.0
 10
34.87380617792111
 20
9.524020832777396
 30
0.0
 10
36.34262231056104
 20
9.275756214856372
 30
0.0
 10
37.79185998867277
 20
8.814388835324522
 30
0.0
 10
39.22397123523236
 20
8.160432903783544
 30
0.0
 10
40.63410128236609
 20
7.335643943475773
 30
0.0
 10
42.04410615571834
 20
6.350106517694456
 30
0.0
 10
43.45669992021439
 20
5.226499472055082
 30
0.0
 10
44.86654870667138
 20
3.990315695190745
 30
0.0
 10
45.80643839053624
 20
3.098510825601736
 30
0.0
 10
46.27640964144729
 20
2.652583332913579
 30
0.0
  0
SPLINE
  5
269
330
1F
100
AcDbEntity
  8
0
  6
Continuous
 62
     1
370
    15
100
AcDbSpline
210
0.0
220
0.0
230
1.0
 70
     8
 71
     3
 72
    14
 73
    10
 74
     0
 42
0.000000001
 43
0.00000001
 40
0.0
 40
0.0
 40
0.0
 40
0.0
 40
0.25
 40
0.25
 40
0.5
 40
0.5
 40
0.75
 40
0.75
 40
1.0
 40
1.0
 40
1.0
 40
1.0
 10
46.27640964144729
 20
2.652583332913565
 30
0.0
 10
46.24373063081788
 20
2.511084492586619
 30
0.0
 10
46.19727569797816
 20
2.364135801586031
 30
0.0
 10
46.06936842904543
 20
2.056393203360258
 30
0.0
 10
45.98788292775876
 20
1.895144362882732
 30
0.0
 10
45.77564480974988
 20
1.554978147069676
 30
0.0
 10
45.6489212104012
 20
1.382537529122089
 30
0.0
 10
45.34199401039771
 20
1.032757424427786
 30
0.0
 10
45.17060008146913
 20
0.8655184136679281
 30
0.0
 10
44.97932523778653
 20
0.7067627779871088
 30
0.0
  0
SPLINE
  5
26A
330
1F
100
AcDbEntity
  8
0
  6
Continuous
 62
     1
370
    15
100
AcDbSpline
210
0.0
220
0.0
230
1.0
 70
     8
 71
     3
 72
     8
 73
     4
 74
     0
 42
0.000000001
 43
0.00000001
 40
0.0
 40
0.0
 40
0.0
 40
0.0
 40
1.0
 40
1.0
 40
1.0
 40
1.0
 10
48.09999999999999
 20
-1.480306981946342
 30
0.0
 10
47.05732811755888
 20
-0.7581130517480545
 30
0.0
 10
46.01697297875259
 20
-0.0291255126739998
 30
0.0
 10
44.97932523778601
 20
0.706762777988061
 30
0.0
  0
LINE
  5
26B
330
1F
100
AcDbEntity
  8
0
  6
Continuous
 62
     1
370
    15
100
AcDbLine
 10
48.09999999999999
 20
-4.655134740655754
 30
0.0
 11
48.09999999999999
 21
-1.480306981946342
 31
0.0
  0
SPLINE
  5
26C
330
1F
100
AcDbEntity
  8
0
  6
Continuous
 62
     1
370
    15
100
AcDbSpline
210
0.0
220
0.0
230
1.0
 70
     8
 71
     3
 72
    17
 73
    13
 74
     0
 42
0.000000001
 43
0.00000001
 40
0.0
 40
0.0
 40
0.0
 40
0.0
 40
0.1032730562079412
 40
0.2063819205016399
 40
0.3094672540414379
 40
0.412735563166353
 40
0.5158603826256196
 40
0.6205432984625502
 40
0.7253991453381183
 40
0.8301648413515359
 40
0.9348380416642897
 40
1.0
 40
1.0
 40
1.0
 40
1.0
 10
10.00000000000051
 20
-0.932244682684086
 30
0.0
 10
10.48328266984973
 20
-1.41041013271419
 30
0.0
 10
11.44907964740614
 20
-2.365980806405133
 30
0.0
 10
12.89567576329483
 20
-3.740154771884065
 30
0.0
 10
14.34176521596828
 20
-5.030015070553745
 30
0.0
 10
15.79048052629844
 20
-6.201505463192376
 30
0.0
 10
17.24464315837031
 20
-7.237391496090297
 30
0.0
 10
18.70571430022856
 20
-8.108345832632239
 30
0.0
 10
20.17670371603724
 20
-8.792622430322538
 30
0.0
 10
21.6464447929248
 20
-9.259097497421052
 30
0.0
 10
22.92949058469796
 20
-9.505668203414643
 30
0.0
 10
23.72400202734191
 20
-9.500368684753468
 30
0.0
 10
24.02883832822806
 20
-9.498335377769521
 30
0.0
  0
LINE
  5
26D
330
1F
100
AcDbEntity
  8
0
  6
Continuous
 62
     1
370
    15
100
AcDbLine
 10
10.0
 20
-0.9322446826841997
 30
0.0
 11
10.0
 21
2.299922351327155
 31
0.0
  0
SPLINE
  5
270
330
1F
100
AcDbEntity
  8
0
  6
Continuous
 62
     1
370
    15
100
AcDbSpline
210
0.0
220
0.0
230
1.0
 70
     8
 71
     3
 72
    15
 73
    11
 74
     0
 42
0.000000001
 43
0.00000001
 40
0.0
 40
0.0
 40
0.0
 40
0.0
 40
0.0462919560775982
 40
0.1841496655334165
 40
0.3217800164051331
 40
0.4573618825796615
 40
0.5931323997185973
 40
0.7286623523510969
 40
0.8642232417022551
 40
1.0
 40
1.0
 40
1.0
 40
1.0
 10
20.67088370522755
 20
-8.915118578576042
 30
0.0
 10
20.50624568781147
 20
-8.978469721472564
 30
0.0
 10
19.85131471469737
 20
-9.230480929553693
 30
0.0
 10
18.70566180275
 20
-9.451125836305764
 30
0.0
 10
17.24465698185992
 20
-9.564536358288223
 30
0.0
 10
15.79047683997986
 20
-9.439117826372296
 30
0.0
 10
14.34176620199482
 20
-9.102076039679773
 30
0.0
 10
12.89567550049799
 20
-8.550624857266513
 30
0.0
 10
11.44907971323329
 20
-7.813723010099508
 30
0.0
 10
10.48328269180348
 20
-7.17464317680907
 30
0.0
 10
10.00000000000011
 20
-6.854849042786384
 30
0.0
  0
SPLINE
  5
271
330
1F
100
AcDbEntity
  8
0
  6
Continuous
 62
     1
370
    15
100
AcDbSpline
210
0.0
220
0.0
230
1.0
 70
    24
 71
     3
 72
    18
 73
    14
 74
     0
 42
0.000000001
 43
0.00000001
 40
0.0
 40
0.0
 40
0.0
 40
0.0
 40
0.2500000000000002
 40
0.2500000000000002
 40
0.5000000000000003
 40
0.5000000000000003
 40
0.6250000000000002
 40
0.6250000000000002
 40
0.7500000000000002
 40
0.7500000000000002
 40
0.8750000000000001
 40
0.8750000000000001
 40
1.0
 40
1.0
 40
1.0
 40
1.0
 10
10.0
 20
-0.9322446826842281
 30
0.0
 10
10.0
 20
-1.069490436980104
 30
0.0
 10
10.0
 20
-1.268379304158458
 30
0.0
 10
10.0
 20
-1.859787542588052
 30
0.0
 10
10.0
 20
-2.254995245897319
 30
0.0
 10
10.0
 20
-3.02621871176504
 30
0.0
 10
10.0
 20
-3.312516801521681
 30
0.0
 10
10.0
 20
-3.937207656982707
 30
0.0
 10
10.0
 20
-4.275648303170755
 30
0.0
 10
10.0
 20
-4.987010333709847
 30
0.0
 10
10.0
 20
-5.359821077057092
 30
0.0
 10
10.0
 20
-6.111459360542995
 30
0.0
 10
10.0
 20
-6.490015315012897
 30
0.0
 10
10.0
 20
-6.854849042786299
 30
0.0
  0
LINE
  5
272
330
1F
100
AcDbEntity
  8
0
  6
Continuous
 62
     1
370
    15
100
AcDbLine
 10
48.09999999999999
 20
-0.8660254037844197
 30
0.0
 11
48.09999999999999
 21
3.486852064052215
 31
0.0
  0
LINE
  5
273
330
1F
100
AcDbEntity
  8
0
  6
Continuous
 62
     1
370
    15
100
AcDbLine
 10
44.97932523778562
 20
0.7067627779880752
 30
0.0
 11
48.09999999999999
 21
-0.8660254037844197
 31
0.0
  0
ELLIPSE
  5
274
330
1F
100
AcDbEntity
  8
0
  6
Continuous
 62
     1
370
    15
100
AcDbEllipse
 10
49.5281480067421
 20
0.0000000000000142
 30
0.0
 11
13.41987174966148
 21
8.916837433236211
 31
0.0
210
0.0
220
0.0
230
1.0
 40
0.2495534463455927
 41
1.568182893029236
 42
1.647856510489284
  0
SPLINE
  5
275
330
1F
100
AcDbEntity
  8
0
  6
Continuous
 62
     1
370
    15
100
AcDbSpline
210
0.0
220
0.0
230
1.0
 70
     8
 71
     3
 72
    12
 73
     8
 74
     0
 42
0.000000001
 43
0.00000001
 40
0.0
 40
0.0
 40
0.0
 40
0.0
 40
0.2499999999999973
 40
0.2499999999999973
 40
0.4999999999999946
 40
0.4999999999999946
 40
1.0
 40
1.0
 40
1.0
 40
1.0
 10
48.09999999999999
 20
3.486852064052215
 30
0.0
 10
48.10000000000002
 20
3.541078863115914
 30
0.0
 10
48.07610161400954
 20
3.580877880132974
 30
0.0
 10
47.9875976924929
 20
3.621742664827678
 30
0.0
 10
47.92339047504419
 20
3.623174262196315
 30
0.0
 10
47.70154788491166
 20
3.580021889053626
 30
0.0
 10
47.51676035019264
 20
3.490876723066521
 30
0.0
 10
47.33799999999999
 20
3.37226734534417
 30
0.0
  0
SPLINE
  5
276
330
1F
100
AcDbEntity
  8
0
  6
Continuous
 62
     1
370
    15
100
AcDbSpline
210
0.0
220
0.0
230
1.0
 70
     8
 71
     3
 72
    14
 73
    10
 74
     0
 42
0.000000001
 43
0.00000001
 40
0.0
 40
0.0
 40
0.0
 40
0.0
 40
0.1575171789045608
 40
0.3151846570585502
 40
0.4726630647183027
 40
0.6300811575229911
 40
0.7876213024614171
 40
0.9452786993918364
 40
1.0
 40
1.0
 40
1.0
 40
1.0
 10
47.33799999999999
 20
4.67324961834737
 30
0.0
 10
46.80895800055511
 20
5.121854709631791
 30
0.0
 10
45.75036920202393
 20
6.019492940804483
 30
0.0
 10
44.16128713860303
 20
7.163197760738854
 30
0.0
 10
42.5743237074757
 20
8.117565110691189
 30
0.0
 10
40.98793911495551
 20
8.848576818455072
 30
0.0
 10
39.40039150613606
 20
9.318749821731487
 30
0.0
 10
38.15655701004101
 20
9.53172260256676
 30
0.0
 10
37.4434795204813
 20
9.505262765975061
 30
0.0
 10
37.25974862790429
 20
9.498445148723619
 30
0.0
  0
LINE
  5
277
330
1F
100
AcDbEntity
  8
0
  6
Continuous
 62
     1
370
    15
100
AcDbLine
 10
10.69541246819652
 20
-8.913080621823454
 30
0.0
 11
10.00000000000011
 21
-9.15477139411341
 31
0.0
  0
SPLINE
  5
279
330
1F
100
AcDbEntity
  8
0
  6
Continuous
 62
     1
370
    15
100
AcDbSpline
210
0.0
220
0.0
230
1.0
 70
     8
 71
     3
 72
    14
 73
    10
 74
     0
 42
0.000000001
 43
0.00000001
 40
0.0
 40
0.0
 40
0.0
 40
0.0
 40
0.25
 40
0.25
 40
0.5
 40
0.5
 40
0.75
 40
0.75
 40
1.0
 40
1.0
 40
1.0
 40
1.0
 10
48.09999999999999
 20
4.102045149859762
 30
0.0
 10
48.09999999999997
 20
4.077363396325964
 30
0.0
 10
48.08458857635505
 20
4.067395991496113
 30
0.0
 10
47.99861439225202
 20
4.107930384822296
 30
0.0
 10
47.92767338884818
 20
4.160555733360056
 30
0.0
 10
47.76399732151384
 20
4.296649589034644
 30
0.0
 10
47.67617757079691
 20
4.374632071954125
 30
0.0
 10
47.50502905396664
 20
4.526404865776627
 30
0.0
 10
47.41994223925268
 20
4.601960671598135
 30
0.0
 10
47.33799999999999
 20
4.67324961834737
 30
0.0
  0
LINE
  5
27A
330
1F
100
AcDbEntity
  8
0
  6
Continuous
 62
     1
370
    15
100
AcDbLine
 10
48.09999999999999
 20
3.486852064052215
 30
0.0
 11
48.09999999999999
 21
4.10204514985989
 31
0.0
  0
SPLINE
  5
27B
330
1F
100
AcDbEntity
  8
0
  6
Continuous
 62
     1
370
    15
100
AcDbSpline
210
0.0
220
0.0
230
1.0
 70
     8
 71
     3
 72
    10
 73
     6
 74
     0
 42
0.000000001
 43
0.00000001
 40
0.0
 40
0.0
 40
0.0
 40
0.0
 40
0.3573750533422164
 40
0.7141819227237238
 40
0.9999999999999999
 40
0.9999999999999999
 40
0.9999999999999999
 40
0.9999999999999999
 10
10.00000000000051
 20
-8.675410290896778
 30
0.0
 10
10.4832924514015
 20
-8.854053105344803
 30
0.0
 10
11.44910897650995
 20
-9.211054713347636
 30
0.0
 10
12.79978574592496
 20
-9.484417231787447
 30
0.0
 10
13.66788233944811
 20
-9.500409205261576
 30
0.0
 10
14.05398266210335
 20
-9.507521900051913
 30
0.0
  0
SPLINE
  5
27C
330
1F
100
AcDbEntity
  8
0
  6
Continuous
 62
     1
370
    15
100
AcDbSpline
210
0.0
220
0.0
230
1.0
 70
     8
 71
     3
 72
    12
 73
     8
 74
     0
 42
0.000000001
 43
0.00000001
 40
0.0
 40
0.0
 40
0.0
 40
0.0
 40
0.0078394291362704
 40
0.2557641403923466
 40
0.5041344934105702
 40
0.7520533138982821
 40
1.0
 40
1.0
 40
1.0
 40
1.0
 10
40.58953607339157
 20
8.925637766273809
 30
0.0
 10
40.60439380008989
 20
8.931791458140097
 30
0.0
 10
41.0891323736669
 20
9.1325578255707
 30
0.0
 10
42.04404080839984
 20
9.35049793567076
 30
0.0
 10
43.45671732391529
 20
9.546764374212174
 30
0.0
 10
44.86654435847532
 20
9.526453392792007
 30
0.0
 10
45.80643694108323
 20
9.341393797922791
 30
0.0
 10
46.27640964144729
 20
9.248858800691892
 30
0.0
  0
SPLINE
  5
27D
330
1F
100
AcDbEntity
  8
0
  6
Continuous
 62
     1
370
    15
100
AcDbSpline
210
0.0
220
0.0
230
1.0
 70
     8
 71
     3
 72
    14
 73
    10
 74
     0
 42
0.000000001
 43
0.00000001
 40
0.0
 40
0.0
 40
0.0
 40
0.0
 40
0.25
 40
0.25
 40
0.5
 40
0.5
 40
0.75
 40
0.75
 40
1.0
 40
1.0
 40
1.0
 40
1.0
 10
46.27640964144729
 20
9.248858800691892
 30
0.0
 10
46.24373063081786
 20
9.005494061780766
 30
0.0
 10
46.19727569797817
 20
8.76793699154058
 30
0.0
 10
46.06936842904548
 20
8.30757709541021
 30
0.0
 10
45.98788292775886
 20
8.08390462559747
 30
0.0
 10
45.77564480975006
 20
7.660973529098271
 30
0.0
 10
45.64892121040144
 20
7.469782044933169
 30
0.0
 10
45.34199401039805
 20
7.142461618901152
 30
0.0
 10
45.17060008146953
 20
7.015849302904712
 30
0.0
 10
44.97932523778701
 20
6.930315211712056
 30
0.0
  0
SPLINE
  5
27E
330
1F
100
AcDbEntity
  8
0
  6
Continuous
 62
     1
370
    15
100
AcDbSpline
210
0.0
220
0.0
230
1.0
 70
     8
 71
     3
 72
     8
 73
     4
 74
     0
 42
0.000000001
 43
0.00000001
 40
0.0
 40
0.0
 40
0.0
 40
0.0
 40
1.0
 40
1.0
 40
1.0
 40
1.0
 10
48.09999999999999
 20
5.773457888796457
 30
0.0
 10
47.05732811755888
 20
6.240288919650567
 30
0.0
 10
46.01697297875256
 20
6.627149704548046
 30
0.0
 10
44.97932523778596
 20
6.930315211712298
 30
0.0
  0
LINE
  5
27F
330
1F
100
AcDbEntity
  8
0
  6
Continuous
 62
     1
370
    15
100
AcDbLine
 10
48.09999999999999
 20
4.10204514985989
 30
0.0
 11
48.09999999999999
 21
5.773457888796457
 31
0.0
  0
SPLINE
  5
280
330
1F
100
AcDbEntity
  8
0
  6
Continuous
 62
     1
370
    15
100
AcDbSpline
210
0.0
220
0.0
230
1.0
 70
    24
 71
     3
 72
     9
 73
     5
 74
     0
 42
0.000000001
 43
0.00000001
 40
0.0
 40
0.0
 40
0.0
 40
0.0
 40
0.0757083673282584
 40
0.9999999999999999
 40
0.9999999999999999
 40
0.9999999999999999
 40
0.9999999999999999
 10
10.0
 20
-8.747245537845174
 30
0.0
 10
10.0
 20
-8.755993077479985
 30
0.0
 10
10.0
 20
-8.871535651484777
 30
0.0
 10
10.0
 20
-9.018725265480768
 30
0.0
 10
10.0
 20
-9.154771394113439
 30
0.0
  0
LINE
  5
281
330
1F
100
AcDbEntity
  8
0
  6
Continuous
 62
     1
370
    15
100
AcDbLine
 10
48.09999999999999
 20
-5.218902871621097
 30
0.0
 11
48.09999999999999
 21
-4.655134740655754
 31
0.0
  0
SPLINE
  5
282
330
1F
100
AcDbEntity
  8
0
  6
Continuous
 62
     1
370
    15
100
AcDbSpline
210
0.0
220
0.0
230
1.0
 70
     8
 71
     3
 72
    12
 73
     8
 74
     0
 42
0.000000001
 43
0.00000001
 40
0.0
 40
0.0
 40
0.0
 40
0.0
 40
0.2499999999999973
 40
0.2499999999999973
 40
0.4999999999999947
 40
0.4999999999999947
 40
1.0
 40
1.0
 40
1.0
 40
1.0
 10
48.09999999999999
 20
-5.218902871621097
 30
0.0
 10
48.09999999999999
 20
-5.273129670684796
 30
0.0
 10
48.07610161400954
 20
-5.34191253150442
 30
0.0
 10
47.9875976924929
 20
-5.490114432528969
 30
0.0
 10
47.92339047504419
 20
-5.569416224239376
 30
0.0
 10
47.70154788491166
 20
-5.795313442300284
 30
0.0
 10
47.51676035019264
 20
-5.93027768040001
 30
0.0
 10
47.33799999999999
 20
-6.028467967313787
 30
0.0
  0
LINE
  5
283
330
1F
100
AcDbEntity
  8
0
  6
Continuous
 62
     1
370
    15
100
AcDbLine
 10
48.09999999999999
 20
-0.8660254037844197
 30
0.0
 11
48.09999999999999
 21
-1.480306981946342
 31
0.0
  0
ELLIPSE
  5
285
330
1F
100
AcDbEntity
  8
0
  6
Continuous
 62
     1
370
    15
100
AcDbEllipse
 10
49.5281480067421
 20
0.0000000000000142
 30
0.0
 11
13.60310976421862
 21
0.0
 31
0.0
210
0.0
220
0.0
230
1.0
 40
0.7002075382097114
 41
1.741892077826506
 42
1.812177257383231
  0
LINE
  5
286
330
1F
100
AcDbEntity
  8
0
  6
Continuous
 62
     1
370
    15
100
AcDbLine
 10
10.0
 20
-8.675410290895414
 30
0.0
 11
10.0
 21
-6.854849042786299
 31
0.0
  0
LINE
  5
287
330
1F
100
AcDbEntity
  8
0
  6
Continuous
 62
     1
370
    15
100
AcDbLine
 10
48.09999999999999
 20
-5.218902871621097
 30
0.0
 11
48.09999999999999
 21
-7.253764870742771
 31
0.0
  0
LINE
  5
289
330
1F
100
AcDbEntity
  8
0
  6
Continuous
 62
     1
370
    15
100
AcDbLine
 10
48.09999999999999
 20
5.773457888796457
 30
0.0
 11
48.09999999999999
 21
8.00100000000002
 31
0.0
  0
LINE
  5
28C
330
1F
100
AcDbEntity
  8
중심선
100
AcDbLine
 10
-56.5
 20
0.0
 30
0.0
 11
51.09999999999999
 21
0.0
 31
0.0
  0
CIRCLE
  5
28D
330
1F
100
AcDbEntity
  8
외형선
100
AcDbCircle
 10
0.0
 20
0.0
 30
0.0
 40
3.000000000000001
  0
POINT
  5
28E
330
1F
100
AcDbEntity
  8
치수문자_일반주서
100
AcDbPoint
 10
0.0
 20
0.0
 30
0.0
  0
DIMENSION
  5
28F
330
1F
100
AcDbEntity
  8
치수문자_일반주서
100
AcDbDimension
  2
*D10
 10
48.09999999999999
 20
42.1805514180718
 30
0.0
 11
-2.700000000000003
 21
42.1805514180718
 31
0.0
 70
   160
  1
<>
 71
     2
 42
101.6
  3
SLDDIMSTYLE0
100
AcDbAlignedDimension
 13
-53.5
 23
9.025000000000006
 33
0.0
 14
48.09999999999999
 24
8.76300000000002
 34
0.0
100
AcDbRotatedDimension
1001
ACAD
1000
DSTYLE
1002
{
1070
   273
1070
     7
1002
}
  0
DIMENSION
  5
290
330
1F
100
AcDbEntity
  8
치수문자_일반주서
100
AcDbDimension
  2
*D11
 10
9.999999999999986
 20
26.38999453033794
 30
0.0
 11
28.63090169785221
 21
26.38999453033794
 31
0.0
 70
   160
  1
<>
 71
     2
 42
38.10000000000002
  3
SLDDIMSTYLE0
100
AcDbAlignedDimension
 13
48.09999999999999
 23
8.76300000000002
 33
0.0
 14
9.999999999999986
 24
-9.154771394113453
 34
0.0
 50
0.0000000000000374
100
AcDbRotatedDimension
1001
ACAD
1000
DSTYLE
1002
{
1070
   273
1070
     7
1002
}
  0
DIMENSION
  5
291
330
1F
100
AcDbEntity
  8
치수문자_일반주서
100
AcDbDimension
  2
*D12
 10
-66.49999999999997
 20
-9.525000000000027
 30
0.0
 11
-66.50000000000001
 21
0.0000000000000142
 31
0.0
 70
   160
  1
%%c<>
 71
     2
 42
19.05
 52
-270.0
  3
SLDDIMSTYLE1
100
AcDbAlignedDimension
 13
-53.0
 23
9.52500000000002
 33
0.0
 14
-53.0
 24
-9.524999999999977
 34
0.0
 50
90.0000000000002
100
AcDbRotatedDimension
1001
ACAD
1000
DSTYLE
1002
{
1070
   273
1070
     7
1002
}
  0
INSERT
  5
292
330
1F
100
AcDbEntity
  8
외형선
100
AcDbBlockReference
  2
SW_DOWELSYMBOL_0
 10
0.0
 20
0.0
 30
0.0
  0
DIMENSION
  5
2B9
102
{ACAD_REACTORS
102
}
102
{ACAD_XDICTIONARY
360
2BA
102
}
330
1F
100
AcDbEntity
  8
치수문자_일반주서
100
AcDbDimension
  2
*D13
 10
62.37195992015921
 20
-9.524999999999979
 30
0.0
 11
62.37195992015921
 21
-0.0002770423573821
 31
0.0
 70
   160
  1
{%%c<>}
 71
     5
 42
19.04944591528519
  3
SLDDIMSTYLE0
100
AcDbAlignedDimension
 13
47.33799999999999
 23
9.524445915285213
 33
0.0
 14
47.23545765885703
 24
-9.524999999999977
 34
0.0
 50
90.0
100
AcDbRotatedDimension
1001
ACAD
1000
DSTYLE
1002
{
1070
   273
1070
     7
1002
}
  0
ARC
  5
2CA
102
{ACAD_REACTORS
102
}
330
1F
100
AcDbEntity
  8
0
  6
Continuous
 62
     1
370
    15
100
AcDbCircle
 10
46.57599999999999
 20
8.00100000000002
 30
0.0
 40
1.524
100
AcDbArc
 50
0.0
 51
90.0
  0
ARC
  5
2CB
330
1F
100
AcDbEntity
  8
0
  6
Continuous
 62
     1
370
    15
100
AcDbCircle
 10
46.57599999999999
 20
-8.00100000000002
 30
0.0
 40
1.524
100
AcDbArc
 50
270.0
 51
0.0
  0
DIMENSION
  5
2CF
102
{ACAD_REACTORS
102
}
102
{ACAD_XDICTIONARY
360
2D0
102
}
330
1F
100
AcDbEntity
  8
치수문자_일반주서
100
AcDbDimension
  2
*D14
 10
46.57599999999999
 20
8.00100000000002
 30
0.0
 11
63.20381742500386
 21
24.21103888777688
 31
0.0
 70
   164
  1
<>
 71
     5
 42
1.523999999999999
  3
SLDDIMSTYLE0
100
AcDbRadialDimension
 15
47.66725254365867
 25
9.064834520006993
 35
0.0
 40
0.0
1001
ACAD
1000
DSTYLE
1002
{
1070
   171
1070
     3
1070
   273
1070
     2
1002
}
1001
ACAD_DSTYLE_DIMRADIAL_EXTENSION
1070
   387
1070
     1
1070
   388
1040
0.0
1070
   390
1040
1.570796326794897
  0
VIEWPORT
  5
2CC
330
1B
100
AcDbEntity
 67
     1
  8
0
100
AcDbViewport
 10
0.0
 20
0.0
 30
0.0
 40
388.8
 41
292.7003773584906
 68
     1
 69
     1
 12
263.1468396226415
 22
144.8165330188679
 13
0.0
 23
0.0
 14
0.5
 24
0.5
 15
0.0
 25
0.0
 16
0.0
 26
0.0
 36
1.0
 17
0.0
 27
0.0
 37
0.0
 42
50.0
 43
0.0
 44
0.0
 45
292.7003773584906
 50
0.0
 51
0.0
 72
   100
 90
   557168
  1

281
     0
 71
     1
 74
     0
110
0.0
120
0.0
130
0.0
111
1.0
121
0.0
131
0.0
112
0.0
122
1.0
132
0.0
 79
     0
146
0.0
  0
VIEWPORT
  5
2CD
330
1B
100
AcDbEntity
 67
     1
  8
0
100
AcDbViewport
 10
202.5
 20
128.5
 30
0.0
 40
324.0
 41
205.6
 68
     2
 69
     2
 12
-3.976353373253744
 22
-1.70812798536997
 13
0.0
 23
0.0
 14
0.5
 24
0.5
 15
0.0
 25
0.0
 16
0.0
 26
0.0
 36
1.0
 17
0.0
 27
0.0
 37
0.0
 42
50.0
 43
0.0
 44
0.0
 45
98.45790598302122
 50
0.0
 51
0.0
 72
   100
 90
   557152
  1

281
     0
 71
     1
 74
     0
110
0.0
120
0.0
130
0.0
111
1.0
121
0.0
131
0.0
112
0.0
122
1.0
132
0.0
 79
     0
146
0.0
  0
ENDSEC
  0
SECTION
  2
OBJECTS
  0
DICTIONARY
  5
C
330
0
100
AcDbDictionary
281
     1
  3
ACAD_GROUP
350
D
  3
ACAD_IMAGE_VARS
350
148
  3
ACAD_LAYOUT
350
1A
  3
ACAD_MLINESTYLE
350
17
  3
ACAD_PLOTSETTINGS
350
19
  3
ACAD_PLOTSTYLENAME
350
E
  3
ACAD_SCALELIST
350
47
  3
APPDATA
350
146
  3
DWGPROPS
350
2DD
  0
DICTIONARY
  5
2BA
330
2B9
100
AcDbDictionary
280
     1
281
     1
  0
DICTIONARY
  5
2D0
330
2CF
100
AcDbDictionary
280
     1
281
     1
  0
DICTIONARY
  5
D
102
{ACAD_REACTORS
330
C
102
}
330
C
100
AcDbDictionary
281
     1
  0
RASTERVARIABLES
  5
148
102
{ACAD_REACTORS
330
C
102
}
330
C
100
AcDbRasterVariables
 90
        0
 70
     1
 71
     1
 72
     1
  0
DICTIONARY
  5
1A
102
{ACAD_REACTORS
330
C
102
}
330
C
100
AcDbDictionary
281
     1
  3
Layout1
350
1E
  3
Layout2
350
26
  3
Model
350
22
  0
DICTIONARY
  5
17
102
{ACAD_REACTORS
330
C
102
}
330
C
100
AcDbDictionary
281
     1
  3
Standard
350
18
  0
DICTIONARY
  5
19
102
{ACAD_REACTORS
330
C
102
}
330
C
100
AcDbDictionary
281
     1
  0
ACDBDICTIONARYWDFLT
  5
E
102
{ACAD_REACTORS
330
C
102
}
330
C
100
AcDbDictionary
281
     1
  3
Normal
350
F
100
AcDbDictionaryWithDefault
340
F
  0
DICTIONARY
  5
47
102
{ACAD_REACTORS
330
C
102
}
330
C
100
AcDbDictionary
281
     1
  3
A0
350
48
  3
A1
350
49
  3
A2
350
4A
  3
A3
350
4B
  3
A4
350
4C
  3
A5
350
4D
  3
A6
350
4E
  3
A7
350
4F
  3
A8
350
50
  3
A9
350
51
  3
B0
350
52
  3
B1
350
53
  3
B2
350
54
  3
B3
350
55
  3
B4
350
56
  3
B5
350
57
  3
B6
350
58
  3
B7
350
59
  3
B8
350
5A
  3
B9
350
5B
  3
C0
350
5C
  3
C1
350
5D
  3
C2
350
5E
  3
C3
350
5F
  3
C4
350
60
  3
C5
350
61
  3
C6
350
62
  3
C7
350
63
  3
C8
350
64
  3
C9
350
65
  3
D0
350
66
  3
D1
350
67
  3
D2
350
68
  0
DICTIONARY
  5
146
102
{ACAD_REACTORS
330
C
102
}
330
C
100
AcDbDictionary
281
     1
  0
XRECORD
  5
2DD
102
{ACAD_REACTORS
330
C
102
}
330
C
100
AcDbXrecord
280
     1
  1
DWGPROPS COOKIE
  2

  3

  4

  6

  7

  8
12016016
  9

300
=
301
=
302
=
303
=
304
=
305
=
306
=
307
=
308
=
309
=
 40
0.0
 41
2458236.375393623
 42
2458242.003786968
  1

 90
        0
  0
LAYOUT
  5
1E
102
{ACAD_REACTORS
330
1A
102
}
330
1A
100
AcDbPlotSettings
  1

  2
none_device
  4
ISO_A3_(420.00_x_297.00_MM)
  6

 40
7.5
 41
20.0
 42
7.5
 43
20.0
 44
420.0
 45
297.0
 46
0.0
 47
0.0
 48
0.0
 49
0.0
140
0.0
141
0.0
142
1.0
143
1.0
 70
   688
 72
     1
 73
     0
 74
     5
  7

 75
    16
147
1.0
148
0.0
149
0.0
100
AcDbLayout
  1
Layout1
 70
     1
 71
     1
 10
0.0
 20
0.0
 11
412.5
 21
277.0
 12
0.0
 22
0.0
 32
0.0
 14
40.5
 24
25.69999999999999
 34
0.0
 15
364.5
 25
231.3
 35
0.0
146
0.0
 13
0.0
 23
0.0
 33
0.0
 16
1.0
 26
0.0
 36
0.0
 17
0.0
 27
1.0
 37
0.0
 76
     0
330
1B
331
2CC
  0
LAYOUT
  5
26
102
{ACAD_REACTORS
330
1A
102
}
330
1A
100
AcDbPlotSettings
  1

  2
none_device
  4

  6

 40
0.0
 41
0.0
 42
0.0
 43
0.0
 44
0.0
 45
0.0
 46
0.0
 47
0.0
 48
0.0
 49
0.0
140
0.0
141
0.0
142
1.0
143
1.0
 70
   688
 72
     1
 73
     0
 74
     5
  7

 75
    16
147
1.0
148
0.0
149
0.0
100
AcDbLayout
  1
Layout2
 70
     1
 71
     2
 10
0.0
 20
0.0
 11
0.0
 21
0.0
 12
0.0
 22
0.0
 32
0.0
 14
0.0
 24
0.0
 34
0.0
 15
0.0
 25
0.0
 35
0.0
146
0.0
 13
0.0
 23
0.0
 33
0.0
 16
1.0
 26
0.0
 36
0.0
 17
0.0
 27
1.0
 37
0.0
 76
     0
330
23
  0
LAYOUT
  5
22
102
{ACAD_REACTORS
330
1A
102
}
330
1A
100
AcDbPlotSettings
  1

  2
none_device
  4
ANSI_A_(11.00_x_8.50_Inches)
  6

 40
6.35
 41
19.05
 42
6.35000508
 43
19.05000254
 44
279.4
 45
215.9
 46
147.216122257536
 47
86.83625569318504
 48
0.0
 49
0.0
140
0.0
141
0.0
142
0.0813602952248001
143
1.0
 70
  1696
 72
     0
 73
     0
 74
     0
  7

 75
     0
147
0.0235690232323232
148
0.0
149
0.0
100
AcDbLayout
  1
Model
 70
     1
 71
     0
 10
0.0
 20
0.0
 11
420.0
 21
297.0
 12
0.0
 22
0.0
 32
0.0
 14
1.000000000000000E+20
 24
1.000000000000000E+20
 34
1.000000000000000E+20
 15
-1.000000000000000E+20
 25
-1.000000000000000E+20
 35
-1.000000000000000E+20
146
0.0
 13
0.0
 23
0.0
 33
0.0
 16
1.0
 26
0.0
 36
0.0
 17
0.0
 27
1.0
 37
0.0
 76
     0
330
1F
331
29
  0
MLINESTYLE
  5
18
102
{ACAD_REACTORS
330
17
102
}
330
17
100
AcDbMlineStyle
  2
Standard
 70
     0
  3

 62
   256
 51
90.0
 52
90.0
 71
     2
 49
0.5
 62
   256
  6
BYLAYER
 49
-0.5
 62
   256
  6
BYLAYER
  0
ACDBPLACEHOLDER
  5
F
102
{ACAD_REACTORS
330
E
102
}
330
E
  0
SCALE
  5
48
102
{ACAD_REACTORS
330
47
102
}
330
47
100
AcDbScale
 70
     0
300
1:1
140
1.0
141
1.0
290
     1
  0
SCALE
  5
49
102
{ACAD_REACTORS
330
47
102
}
330
47
100
AcDbScale
 70
     0
300
1:2
140
1.0
141
2.0
290
     0
  0
SCALE
  5
4A
102
{ACAD_REACTORS
330
47
102
}
330
47
100
AcDbScale
 70
     0
300
1:4
140
1.0
141
4.0
290
     0
  0
SCALE
  5
4B
102
{ACAD_REACTORS
330
47
102
}
330
47
100
AcDbScale
 70
     0
300
1:5
140
1.0
141
5.0
290
     0
  0
SCALE
  5
4C
102
{ACAD_REACTORS
330
47
102
}
330
47
100
AcDbScale
 70
     0
300
1:8
140
1.0
141
8.0
290
     0
  0
SCALE
  5
4D
102
{ACAD_REACTORS
330
47
102
}
330
47
100
AcDbScale
 70
     0
300
1:10
140
1.0
141
10.0
290
     0
  0
SCALE
  5
4E
102
{ACAD_REACTORS
330
47
102
}
330
47
100
AcDbScale
 70
     0
300
1:16
140
1.0
141
16.0
290
     0
  0
SCALE
  5
4F
102
{ACAD_REACTORS
330
47
102
}
330
47
100
AcDbScale
 70
     0
300
1:20
140
1.0
141
20.0
290
     0
  0
SCALE
  5
50
102
{ACAD_REACTORS
330
47
102
}
330
47
100
AcDbScale
 70
     0
300
1:30
140
1.0
141
30.0
290
     0
  0
SCALE
  5
51
102
{ACAD_REACTORS
330
47
102
}
330
47
100
AcDbScale
 70
     0
300
1:40
140
1.0
141
40.0
290
     0
  0
SCALE
  5
52
102
{ACAD_REACTORS
330
47
102
}
330
47
100
AcDbScale
 70
     0
300
1:50
140
1.0
141
50.0
290
     0
  0
SCALE
  5
53
102
{ACAD_REACTORS
330
47
102
}
330
47
100
AcDbScale
 70
     0
300
1:100
140
1.0
141
100.0
290
     0
  0
SCALE
  5
54
102
{ACAD_REACTORS
330
47
102
}
330
47
100
AcDbScale
 70
     0
300
2:1
140
2.0
141
1.0
290
     0
  0
SCALE
  5
55
102
{ACAD_REACTORS
330
47
102
}
330
47
100
AcDbScale
 70
     0
300
4:1
140
4.0
141
1.0
290
     0
  0
SCALE
  5
56
102
{ACAD_REACTORS
330
47
102
}
330
47
100
AcDbScale
 70
     0
300
8:1
140
8.0
141
1.0
290
     0
  0
SCALE
  5
57
102
{ACAD_REACTORS
330
47
102
}
330
47
100
AcDbScale
 70
     0
300
10:1
140
10.0
141
1.0
290
     0
  0
SCALE
  5
58
102
{ACAD_REACTORS
330
47
102
}
330
47
100
AcDbScale
 70
     0
300
100:1
140
100.0
141
1.0
290
     0
  0
SCALE
  5
59
102
{ACAD_REACTORS
330
47
102
}
330
47
100
AcDbScale
 70
     0
300
1/128" = 1'-0"
140
0.0078125
141
12.0
290
     0
  0
SCALE
  5
5A
102
{ACAD_REACTORS
330
47
102
}
330
47
100
AcDbScale
 70
     0
300
1/64" = 1'-0"
140
0.015625
141
12.0
290
     0
  0
SCALE
  5
5B
102
{ACAD_REACTORS
330
47
102
}
330
47
100
AcDbScale
 70
     0
300
1/32" = 1'-0"
140
0.03125
141
12.0
290
     0
  0
SCALE
  5
5C
102
{ACAD_REACTORS
330
47
102
}
330
47
100
AcDbScale
 70
     0
300
1/16" = 1'-0"
140
0.0625
141
12.0
290
     0
  0
SCALE
  5
5D
102
{ACAD_REACTORS
330
47
102
}
330
47
100
AcDbScale
 70
     0
300
3/32" = 1'-0"
140
0.09375
141
12.0
290
     0
  0
SCALE
  5
5E
102
{ACAD_REACTORS
330
47
102
}
330
47
100
AcDbScale
 70
     0
300
1/8" = 1'-0"
140
0.125
141
12.0
290
     0
  0
SCALE
  5
5F
102
{ACAD_REACTORS
330
47
102
}
330
47
100
AcDbScale
 70
     0
300
3/16" = 1'-0"
140
0.1875
141
12.0
290
     0
  0
SCALE
  5
60
102
{ACAD_REACTORS
330
47
102
}
330
47
100
AcDbScale
 70
     0
300
1/4" = 1'-0"
140
0.25
141
12.0
290
     0
  0
SCALE
  5
61
102
{ACAD_REACTORS
330
47
102
}
330
47
100
AcDbScale
 70
     0
300
3/8" = 1'-0"
140
0.375
141
12.0
290
     0
  0
SCALE
  5
62
102
{ACAD_REACTORS
330
47
102
}
330
47
100
AcDbScale
 70
     0
300
1/2" = 1'-0"
140
0.5
141
12.0
290
     0
  0
SCALE
  5
63
102
{ACAD_REACTORS
330
47
102
}
330
47
100
AcDbScale
 70
     0
300
3/4" = 1'-0"
140
0.75
141
12.0
290
     0
  0
SCALE
  5
64
102
{ACAD_REACTORS
330
47
102
}
330
47
100
AcDbScale
 70
     0
300
1" = 1'-0"
140
1.0
141
12.0
290
     0
  0
SCALE
  5
65
102
{ACAD_REACTORS
330
47
102
}
330
47
100
AcDbScale
 70
     0
300
1-1/2" = 1'-0"
140
1.5
141
12.0
290
     0
  0
SCALE
  5
66
102
{ACAD_REACTORS
330
47
102
}
330
47
100
AcDbScale
 70
     0
300
3" = 1'-0"
140
3.0
141
12.0
290
     0
  0
SCALE
  5
67
102
{ACAD_REACTORS
330
47
102
}
330
47
100
AcDbScale
 70
     0
300
6" = 1'-0"
140
6.0
141
12.0
290
     0
  0
SCALE
  5
68
102
{ACAD_REACTORS
330
47
102
}
330
47
100
AcDbScale
 70
     0
300
1'-0" = 1'-0"
140
12.0
141
12.0
290
     0
  0
ENDSEC
  0
EOF
