  0
SECTION
  2
HEADER
  9
$ACADVER
  1
AC1015
  9
$ACADMAINTVER
 70
     6
  9
$DWGCODEPAGE
  3
ANSI_949
  9
$INSBASE
 10
0.0
 20
0.0
 30
0.0
  9
$EXTMIN
 10
-59.53427784371419
 20
-49.71142936356762
 30
0.0
  9
$EXTMAX
 10
112.1632023017268
 20
44.96805141807179
 30
0.0
  9
$LIMMIN
 10
0.0
 20
0.0
  9
$LIMMAX
 10
420.0
 20
297.0
  9
$ORTHOMODE
 70
     0
  9
$REGENMODE
 70
     1
  9
$FILLMODE
 70
     1
  9
$QTEXTMODE
 70
     0
  9
$MIRRTEXT
 70
     1
  9
$LTSCALE
 40
1.0
  9
$ATTMODE
 70
     1
  9
$TEXTSIZE
 40
3.5
  9
$TRACEWID
 40
1.0
  9
$TEXTSTYLE
  7
Standard
  9
$CLAYER
  8
0
  9
$CELTYPE
  6
ByLayer
  9
$CECOLOR
 62
   256
  9
$CELTSCALE
 40
1.0
  9
$DISPSILH
 70
     0
  9
$DIMSCALE
 40
1.0
  9
$DIMASZ
 40
3.302
  9
$DIMEXO
 40
1.0
  9
$DIMDLI
 40
3.75
  9
$DIMRND
 40
0.0
  9
$DIMDLE
 40
0.0
  9
$DIMEXE
 40
1.0
  9
$DIMTP
 40
0.0
  9
$DIMTM
 40
0.0
  9
$DIMTXT
 40
3.5
  9
$DIMCEN
 40
2.5
  9
$DIMTSZ
 40
0.0
  9
$DIMTOL
 70
     0
  9
$DIMLIM
 70
     0
  9
$DIMTIH
 70
     1
  9
$DIMTOH
 70
     1
  9
$DIMSE1
 70
     0
  9
$DIMSE2
 70
     0
  9
$DIMTAD
 70
     1
  9
$DIMZIN
 70
     0
  9
$DIMBLK
  1

  9
$DIMASO
 70
     1
  9
$DIMSHO
 70
     1
  9
$DIMPOST
  1

  9
$DIMAPOST
  1

  9
$DIMALT
 70
     0
  9
$DIMALTD
 70
     3
  9
$DIMALTF
 40
0.0393700787401575
  9
$DIMLFAC
 40
1.0
  9
$DIMTOFL
 70
     1
  9
$DIMTVP
 40
0.0
  9
$DIMTIX
 70
     0
  9
$DIMSOXD
 70
     0
  9
$DIMSAH
 70
     0
  9
$DIMBLK1
  1

  9
$DIMBLK2
  1

  9
$DIMSTYLE
  2
ISO-25
  9
$DIMCLRD
 70
     0
  9
$DIMCLRE
 70
     0
  9
$DIMCLRT
 70
     0
  9
$DIMTFAC
 40
1.0
  9
$DIMGAP
 40
1.524
  9
$DIMJUST
 70
     0
  9
$DIMSD1
 70
     0
  9
$DIMSD2
 70
     0
  9
$DIMTOLJ
 70
     0
  9
$DIMTZIN
 70
     0
  9
$DIMALTZ
 70
     0
  9
$DIMALTTZ
 70
     0
  9
$DIMUPT
 70
     0
  9
$DIMDEC
 70
     2
  9
$DIMTDEC
 70
     2
  9
$DIMALTU
 70
     2
  9
$DIMALTTD
 70
     3
  9
$DIMTXSTY
  7
Standard
  9
$DIMAUNIT
 70
     0
  9
$DIMADEC
 70
     2
  9
$DIMALTRND
 40
0.0
  9
$DIMAZIN
 70
     0
  9
$DIMDSEP
 70
    44
  9
$DIMATFIT
 70
     3
  9
$DIMFRAC
 70
     0
  9
$DIMLDRBLK
  1

  9
$DIMLUNIT
 70
     2
  9
$DIMLWD
 70
    -2
  9
$DIMLWE
 70
    -2
  9
$DIMTMOVE
 70
     0
  9
$LUNITS
 70
     2
  9
$LUPREC
 70
     2
  9
$SKETCHINC
 40
1.0
  9
$FILLETRAD
 40
10.0
  9
$AUNITS
 70
     0
  9
$AUPREC
 70
     2
  9
$MENU
  1
.
  9
$ELEVATION
 40
0.0
  9
$PELEVATION
 40
0.0
  9
$THICKNESS
 40
0.0
  9
$LIMCHECK
 70
     0
  9
$CHAMFERA
 40
0.0
  9
$CHAMFERB
 40
0.0
  9
$CHAMFERC
 40
0.0
  9
$CHAMFERD
 40
0.0
  9
$SKPOLY
 70
     0
  9
$TDCREATE
 40
2458236.748145694
  9
$TDUCREATE
 40
2458236.373145694
  9
$TDUPDATE
 40
2458241.672464746
  9
$TDUUPDATE
 40
2458241.297464746
  9
$TDINDWG
 40
0.0049604398
  9
$TDUSRTIMER
 40
2458241.292504514
  9
$USRTIMER
 70
     1
  9
$ANGBASE
 50
0.0
  9
$ANGDIR
 70
     0
  9
$PDMODE
 70
     0
  9
$PDSIZE
 40
-1.0
  9
$PLINEWID
 40
0.0
  9
$SPLFRAME
 70
     0
  9
$SPLINETYPE
 70
     6
  9
$SPLINESEGS
 70
     8
  9
$HANDSEED
  5
1CD
  9
$SURFTAB1
 70
     6
  9
$SURFTAB2
 70
     6
  9
$SURFTYPE
 70
     6
  9
$SURFU
 70
     6
  9
$SURFV
 70
     6
  9
$UCSBASE
  2

  9
$UCSNAME
  2

  9
$UCSORG
 10
0.0
 20
0.0
 30
0.0
  9
$UCSXDIR
 10
1.0
 20
0.0
 30
0.0
  9
$UCSYDIR
 10
0.0
 20
1.0
 30
0.0
  9
$UCSORTHOREF
  2

  9
$UCSORTHOVIEW
 70
     0
  9
$UCSORGTOP
 10
0.0
 20
0.0
 30
0.0
  9
$UCSORGBOTTOM
 10
0.0
 20
0.0
 30
0.0
  9
$UCSORGLEFT
 10
0.0
 20
0.0
 30
0.0
  9
$UCSORGRIGHT
 10
0.0
 20
0.0
 30
0.0
  9
$UCSORGFRONT
 10
0.0
 20
0.0
 30
0.0
  9
$UCSORGBACK
 10
0.0
 20
0.0
 30
0.0
  9
$PUCSBASE
  2

  9
$PUCSNAME
  2

  9
$PUCSORG
 10
0.0
 20
0.0
 30
0.0
  9
$PUCSXDIR
 10
1.0
 20
0.0
 30
0.0
  9
$PUCSYDIR
 10
0.0
 20
1.0
 30
0.0
  9
$PUCSORTHOREF
  2

  9
$PUCSORTHOVIEW
 70
     0
  9
$PUCSORGTOP
 10
0.0
 20
0.0
 30
0.0
  9
$PUCSORGBOTTOM
 10
0.0
 20
0.0
 30
0.0
  9
$PUCSORGLEFT
 10
0.0
 20
0.0
 30
0.0
  9
$PUCSORGRIGHT
 10
0.0
 20
0.0
 30
0.0
  9
$PUCSORGFRONT
 10
0.0
 20
0.0
 30
0.0
  9
$PUCSORGBACK
 10
0.0
 20
0.0
 30
0.0
  9
$USERI1
 70
     0
  9
$USERI2
 70
     0
  9
$USERI3
 70
     0
  9
$USERI4
 70
     0
  9
$USERI5
 70
     0
  9
$USERR1
 40
0.0
  9
$USERR2
 40
0.0
  9
$USERR3
 40
0.0
  9
$USERR4
 40
0.0
  9
$USERR5
 40
0.0
  9
$WORLDVIEW
 70
     1
  9
$SHADEDGE
 70
     3
  9
$SHADEDIF
 70
    70
  9
$TILEMODE
 70
     1
  9
$MAXACTVP
 70
    64
  9
$PINSBASE
 10
0.0
 20
0.0
 30
0.0
  9
$PLIMCHECK
 70
     0
  9
$PEXTMIN
 10
1.000000000000000E+20
 20
1.000000000000000E+20
 30
1.000000000000000E+20
  9
$PEXTMAX
 10
-1.000000000000000E+20
 20
-1.000000000000000E+20
 30
-1.000000000000000E+20
  9
$PLIMMIN
 10
0.0
 20
0.0
  9
$PLIMMAX
 10
0.0
 20
0.0
  9
$UNITMODE
 70
     0
  9
$VISRETAIN
 70
     1
  9
$PLINEGEN
 70
     0
  9
$PSLTSCALE
 70
     1
  9
$TREEDEPTH
 70
  3020
  9
$CMLSTYLE
  2
Standard
  9
$CMLJUST
 70
     0
  9
$CMLSCALE
 40
20.0
  9
$PROXYGRAPHICS
 70
     1
  9
$MEASUREMENT
 70
     1
  9
$CELWEIGHT
370
    -1
  9
$ENDCAPS
280
     0
  9
$JOINSTYLE
280
     0
  9
$LWDISPLAY
290
     1
  9
$INSUNITS
 70
     4
  9
$HYPERLINKBASE
  1

  9
$STYLESHEET
  1

  9
$XEDIT
290
     1
  9
$CEPSNTYPE
380
     0
  9
$PSTYLEMODE
290
     1
  9
$FINGERPRINTGUID
  2
{74C87478-6784-4048-902F-9A6402D51985}
  9
$VERSIONGUID
  2
{FAEB1C32-E019-11D5-929B-00C0DF256EC4}
  9
$EXTNAMES
290
     1
  9
$PSVPSCALE
 40
0.0
  9
$OLESTARTUP
290
     0
  0
ENDSEC
  0
SECTION
  2
CLASSES
  0
CLASS
  1
ACDBDICTIONARYWDFLT
  2
AcDbDictionaryWithDefault
  3
ObjectDBX Classes
 90
        0
280
     0
281
     0
  0
CLASS
  1
VISUALSTYLE
  2
AcDbVisualStyle
  3
ObjectDBX Classes
 90
     4095
280
     0
281
     0
  0
CLASS
  1
MATERIAL
  2
AcDbMaterial
  3
ObjectDBX Classes
 90
     1153
280
     0
281
     0
  0
CLASS
  1
SCALE
  2
AcDbScale
  3
ObjectDBX Classes
 90
     1153
280
     0
281
     0
  0
CLASS
  1
SUN
  2
AcDbSun
  3
SCENEOE
 90
     1153
280
     0
281
     0
  0
CLASS
  1
ACDBPLACEHOLDER
  2
AcDbPlaceHolder
  3
ObjectDBX Classes
 90
        0
280
     0
281
     0
  0
CLASS
  1
LAYOUT
  2
AcDbLayout
  3
ObjectDBX Classes
 90
        0
280
     0
281
     0
  0
CLASS
  1
TABLESTYLE
  2
AcDbTableStyle
  3
ObjectDBX Classes
 90
     4095
280
     0
281
     0
  0
CLASS
  1
MLEADERSTYLE
  2
AcDbMLeaderStyle
  3
ACDB_MLEADERSTYLE_CLASS
 90
     4095
280
     0
281
     0
  0
CLASS
  1
RASTERVARIABLES
  2
AcDbRasterVariables
  3
ISM
 90
        0
280
     0
281
     0
  0
CLASS
  1
DIMASSOC
  2
AcDbDimAssoc
  3
"AcDbDimAssoc|Product Desc:     AcDim ARX App For Dimension|Company:          Autodesk, Inc.|WEB Address:      www.autodesk.com"
 90
        0
280
     0
281
     0
  0
ENDSEC
  0
SECTION
  2
TABLES
  0
TABLE
  2
VPORT
  5
8
330
0
100
AcDbSymbolTable
 70
     1
  0
VPORT
  5
29
330
8
100
AcDbSymbolTableRecord
100
AcDbViewportTableRecord
  2
*Active
 70
     0
 10
0.0
 20
0.0
 11
1.0
 21
1.0
 12
79.61791556678702
 22
9.402554482388602
 13
0.0
 23
0.0
 14
10.0
 24
10.0
 15
10.0
 25
10.0
 16
0.0
 26
0.0
 36
1.0
 17
0.0
 27
0.0
 37
0.0
 40
67.92678255647779
 41
1.321695760598504
 42
50.0
 43
0.0
 44
0.0
 50
0.0
 51
0.0
 71
    16
 72
  2000
 73
     1
 74
     3
 75
     0
 76
     0
 77
     0
 78
     0
281
     0
 65
     1
110
0.0
120
0.0
130
0.0
111
1.0
121
0.0
131
0.0
112
0.0
122
1.0
132
0.0
 79
     0
146
0.0
  0
ENDTAB
  0
TABLE
  2
LTYPE
  5
5
330
0
100
AcDbSymbolTable
 70
     6
  0
LTYPE
  5
14
330
5
100
AcDbSymbolTableRecord
100
AcDbLinetypeTableRecord
  2
ByBlock
 70
     0
  3

 72
    65
 73
     0
 40
0.0
  0
LTYPE
  5
15
330
5
100
AcDbSymbolTableRecord
100
AcDbLinetypeTableRecord
  2
ByLayer
 70
     0
  3

 72
    65
 73
     0
 40
0.0
  0
LTYPE
  5
16
330
5
100
AcDbSymbolTableRecord
100
AcDbLinetypeTableRecord
  2
Continuous
 70
     0
  3
Solid line
 72
    65
 73
     0
 40
0.0
  0
LTYPE
  5
6A
330
5
100
AcDbSymbolTableRecord
100
AcDbLinetypeTableRecord
  2
HIDDEN
 70
     0
  3
Hidden __ __ __ __ __ __ __ __ __ __ __ __ __ __
 72
    65
 73
     2
 40
1.905
 49
1.27
 74
     0
 49
-0.635
 74
     0
  0
LTYPE
  5
6B
330
5
100
AcDbSymbolTableRecord
100
AcDbLinetypeTableRecord
  2
PHANTOM
 70
     0
  3
Phantom ______  __  __  ______  __  __  ______
 72
    65
 73
     6
 40
12.7
 49
6.35
 74
     0
 49
-1.27
 74
     0
 49
1.27
 74
     0
 49
-1.27
 74
     0
 49
1.27
 74
     0
 49
-1.27
 74
     0
  0
LTYPE
  5
6C
330
5
100
AcDbSymbolTableRecord
100
AcDbLinetypeTableRecord
  2
CENTER
 70
     0
  3
Center ____ _ ____ _ ____ _ ____ _ ____ _ ____
 72
    65
 73
     4
 40
10.16
 49
6.35
 74
     0
 49
-1.27
 74
     0
 49
1.27
 74
     0
 49
-1.27
 74
     0
  0
LTYPE
  5
6D
330
5
100
AcDbSymbolTableRecord
100
AcDbLinetypeTableRecord
  2
CENTERX2
 70
     0
  3
Center (2x) ________  __  ________  __  _____
 72
    65
 73
     4
 40
20.32
 49
12.7
 74
     0
 49
-2.54
 74
     0
 49
2.54
 74
     0
 49
-2.54
 74
     0
  0
LTYPE
  5
6E
330
5
100
AcDbSymbolTableRecord
100
AcDbLinetypeTableRecord
  2
DOT2
 70
     0
  3
Dot (.5x) ........................................
 72
    65
 73
     2
 40
0.635
 49
0.0
 74
     0
 49
-0.635
 74
     0
  0
ENDTAB
  0
TABLE
  2
LAYER
  5
2
330
0
100
AcDbSymbolTable
 70
    17
  0
LAYER
  5
10
330
2
100
AcDbSymbolTableRecord
100
AcDbLayerTableRecord
  2
0
 70
     0
 62
     7
  6
Continuous
370
    -3
390
F
  0
LAYER
  5
6F
330
2
100
AcDbSymbolTableRecord
100
AcDbLayerTableRecord
  2
FORMAT
 70
     0
 62
     2
  6
Continuous
370
    -3
390
F
  0
LAYER
  5
70
330
2
100
AcDbSymbolTableRecord
100
AcDbLayerTableRecord
  2
외형선
 70
     0
 62
   100
  6
Continuous
370
    30
390
F
  0
LAYER
  5
71
330
2
100
AcDbSymbolTableRecord
100
AcDbLayerTableRecord
  2
숨은선
 70
     0
 62
     2
  6
HIDDEN
370
    15
390
F
  0
LAYER
  5
72
330
2
100
AcDbSymbolTableRecord
100
AcDbLayerTableRecord
  2
중심선
 70
     0
 62
     1
  6
CENTERX2
370
    -3
390
F
  0
LAYER
  5
73
330
2
100
AcDbSymbolTableRecord
100
AcDbLayerTableRecord
  2
파단선
 70
     0
 62
     4
  6
Continuous
370
    -3
390
F
  0
LAYER
  5
74
330
2
100
AcDbSymbolTableRecord
100
AcDbLayerTableRecord
  2
해칭선
 70
     0
 62
     4
  6
Continuous
370
    -3
390
F
  0
LAYER
  5
75
330
2
100
AcDbSymbolTableRecord
100
AcDbLayerTableRecord
  2
가는실선
 70
     0
 62
     4
  6
Continuous
370
    -3
390
F
  0
LAYER
  5
76
330
2
100
AcDbSymbolTableRecord
100
AcDbLayerTableRecord
  2
치수_보조선
 70
     0
 62
     4
  6
Continuous
370
    -3
390
F
  0
LAYER
  5
77
330
2
100
AcDbSymbolTableRecord
100
AcDbLayerTableRecord
  2
치수문자_일반주서
 70
     0
 62
     7
  6
Continuous
370
    15
390
F
  0
LAYER
  5
78
330
2
100
AcDbSymbolTableRecord
100
AcDbLayerTableRecord
  2
개별주서
 70
     0
 62
   100
  6
Continuous
370
    30
390
F
  0
LAYER
  5
79
330
2
100
AcDbSymbolTableRecord
100
AcDbLayerTableRecord
  2
중간선
 70
     0
 62
     2
  6
Continuous
370
    15
390
F
  0
LAYER
  5
7A
330
2
100
AcDbSymbolTableRecord
100
AcDbLayerTableRecord
  2
윤곽선
 70
     0
 62
     3
  6
Continuous
370
    40
390
F
  0
LAYER
  5
7B
330
2
100
AcDbSymbolTableRecord
100
AcDbLayerTableRecord
  2
중심마크
 70
     0
 62
   100
  6
Continuous
370
    30
390
F
  0
LAYER
  5
7C
330
2
100
AcDbSymbolTableRecord
100
AcDbLayerTableRecord
  2
가상선
 70
     0
 62
     4
  6
PHANTOM
370
    -3
390
F
  0
LAYER
  5
7D
330
2
100
AcDbSymbolTableRecord
100
AcDbLayerTableRecord
  2
특수지정선
 70
     0
 62
     5
  6
CENTERX2
370
    60
390
F
  0
LAYER
  5
180
330
2
100
AcDbSymbolTableRecord
100
AcDbLayerTableRecord
  2
Defpoints
 70
     0
 62
     7
  6
Continuous
290
     0
370
    -3
390
F
  0
ENDTAB
  0
TABLE
  2
STYLE
  5
3
330
0
100
AcDbSymbolTable
 70
     2
  0
STYLE
  5
11
330
3
100
AcDbSymbolTableRecord
100
AcDbTextStyleTableRecord
  2
Standard
 70
     0
 40
0.0
 41
1.0
 50
0.0
 71
     0
 42
3.5
  3
txt
  4

  0
STYLE
  5
93
330
3
100
AcDbSymbolTableRecord
100
AcDbTextStyleTableRecord
  2
SLDTEXTSTYLE0
 70
     0
 40
0.0
 41
0.75
 50
0.0
 71
     0
 42
3.5
  3
TXT
  4

  0
ENDTAB
  0
TABLE
  2
VIEW
  5
6
330
0
100
AcDbSymbolTable
 70
     0
  0
ENDTAB
  0
TABLE
  2
UCS
  5
7
330
0
100
AcDbSymbolTable
 70
     0
  0
ENDTAB
  0
TABLE
  2
APPID
  5
9
330
0
100
AcDbSymbolTable
 70
     3
  0
APPID
  5
12
330
9
100
AcDbSymbolTableRecord
100
AcDbRegAppTableRecord
  2
ACAD
 70
     0
  0
APPID
  5
1B9
330
9
100
AcDbSymbolTableRecord
100
AcDbRegAppTableRecord
  2
PE_DIMMEASUREMENT
 70
     0
  0
APPID
  5
1BE
330
9
100
AcDbSymbolTableRecord
100
AcDbRegAppTableRecord
  2
ACAD_DSTYLE_DIMRADIAL_EXTENSION
 70
     0
  0
ENDTAB
  0
TABLE
  2
DIMSTYLE
  5
A
330
0
100
AcDbSymbolTable
 70
     5
100
AcDbDimStyleTable
  0
DIMSTYLE
105
27
330
A
100
AcDbSymbolTableRecord
100
AcDbDimStyleTableRecord
  2
ISO-25
 70
     0
 41
2.5
 42
0.625
 43
3.75
 44
1.25
 73
     0
 74
     0
 77
     1
 78
     8
140
2.5
141
2.5
143
0.03937007874016
147
0.625
171
     3
172
     1
178
     0
271
     2
272
     2
274
     3
278
    44
283
     0
284
     8
340
11
  0
DIMSTYLE
105
108
102
{ACAD_REACTORS
330
107
330
1A8
330
1BF
102
}
330
A
100
AcDbSymbolTableRecord
100
AcDbDimStyleTableRecord
  2
SLDDIMSTYLE0
 70
     0
 41
3.302
 44
0.0
 45
0.000000001
 73
     0
 74
     0
 77
     1
 78
    12
 79
     3
140
3.5
143
0.0393700787401575
147
0.875
148
0.000000001
170
     1
172
     1
173
     1
178
     0
271
     2
272
     2
276
     2
284
    12
289
     0
340
93
  0
DIMSTYLE
105
11D
330
A
100
AcDbSymbolTableRecord
100
AcDbDimStyleTableRecord
  2
SLDDIMSTYLE1
 70
     0
 41
3.302
 44
0.0
 45
0.000000001
 73
     0
 74
     0
 77
     1
 78
    12
 79
     3
140
3.5
143
0.0393700787401575
147
0.875
148
0.000000001
170
     1
173
     1
178
     0
271
     2
272
     2
276
     2
284
    12
340
93
  0
DIMSTYLE
105
131
330
A
100
AcDbSymbolTableRecord
100
AcDbDimStyleTableRecord
  2
SLDDIMSTYLE2
 70
     0
 41
3.302
 44
0.0
 45
0.000000001
 73
     0
 74
     0
 77
     1
 78
     4
 79
     1
140
3.5
143
0.0393700787401575
147
0.875
148
0.000000001
170
     1
173
     1
178
     0
271
     2
272
     2
276
     2
284
    12
340
93
  0
DIMSTYLE
105
145
330
A
100
AcDbSymbolTableRecord
100
AcDbDimStyleTableRecord
  2
SLDDIMSTYLE3
 70
     0
 41
3.302
 44
0.0
 45
0.000000001
 73
     0
 74
     0
 77
     1
 78
     8
 79
     2
140
3.5
143
0.0393700787401575
147
0.875
148
0.000000001
170
     1
172
     1
173
     1
178
     0
271
     2
272
     2
276
     2
284
    12
289
     0
340
93
341
146
343
146
344
146
  0
ENDTAB
  0
TABLE
  2
BLOCK_RECORD
  5
1
330
0
100
AcDbSymbolTable
 70
    11
  0
BLOCK_RECORD
  5
1F
330
1
100
AcDbSymbolTableRecord
100
AcDbBlockTableRecord
  2
*Model_Space
340
22
  0
BLOCK_RECORD
  5
1B
330
1
100
AcDbSymbolTableRecord
100
AcDbBlockTableRecord
  2
*Paper_Space
340
1E
  0
BLOCK_RECORD
  5
23
330
1
100
AcDbSymbolTableRecord
100
AcDbBlockTableRecord
  2
*Paper_Space0
340
26
  0
BLOCK_RECORD
  5
7E
330
1
100
AcDbSymbolTableRecord
100
AcDbBlockTableRecord
  2
블럭10
340
0
102
{BLKREFS
331
FF
102
}
  0
BLOCK_RECORD
  5
109
330
1
100
AcDbSymbolTableRecord
100
AcDbBlockTableRecord
  2
_D
340
0
  0
BLOCK_RECORD
  5
11E
330
1
100
AcDbSymbolTableRecord
100
AcDbBlockTableRecord
  2
_D_1
340
0
  0
BLOCK_RECORD
  5
132
330
1
100
AcDbSymbolTableRecord
100
AcDbBlockTableRecord
  2
_D_2
340
0
  0
BLOCK_RECORD
  5
146
330
1
100
AcDbSymbolTableRecord
100
AcDbBlockTableRecord
  2
_NONE
340
0
  0
BLOCK_RECORD
  5
149
330
1
100
AcDbSymbolTableRecord
100
AcDbBlockTableRecord
  2
_D_3
340
0
  0
BLOCK_RECORD
  5
155
330
1
100
AcDbSymbolTableRecord
100
AcDbBlockTableRecord
  2
SW_DOWELSYMBOL_0
340
0
102
{BLKREFS
331
15B
102
}
  0
BLOCK_RECORD
  5
186
330
1
100
AcDbSymbolTableRecord
100
AcDbBlockTableRecord
  2
*D8
340
0
  0
BLOCK_RECORD
  5
1AB
330
1
100
AcDbSymbolTableRecord
100
AcDbBlockTableRecord
  2
*D9
340
0
  0
BLOCK_RECORD
  5
1C2
330
1
100
AcDbSymbolTableRecord
100
AcDbBlockTableRecord
  2
*D10
340
0
  0
ENDTAB
  0
ENDSEC
  0
SECTION
  2
BLOCKS
  0
BLOCK
  5
20
330
1F
100
AcDbEntity
  8
0
100
AcDbBlockBegin
  2
*Model_Space
 70
     0
 10
0.0
 20
0.0
 30
0.0
  3
*Model_Space
  1
*Model_Space
  0
ENDBLK
  5
21
330
1F
100
AcDbEntity
  8
0
100
AcDbBlockEnd
  0
BLOCK
  5
1C
330
1B
100
AcDbEntity
 67
     1
  8
0
100
AcDbBlockBegin
  2
*Paper_Space
 70
     0
 10
0.0
 20
0.0
 30
0.0
  3
*Paper_Space
  1
*Paper_Space
  0
ENDBLK
  5
1D
330
1B
100
AcDbEntity
 67
     1
  8
0
100
AcDbBlockEnd
  0
BLOCK
  5
24
330
23
100
AcDbEntity
  8
0
100
AcDbBlockBegin
  2
*Paper_Space0
 70
     0
 10
0.0
 20
0.0
 30
0.0
  3
*Paper_Space0
  1
*Paper_Space0
  0
ENDBLK
  5
25
330
23
100
AcDbEntity
  8
0
100
AcDbBlockEnd
  0
BLOCK
  5
7F
330
7E
100
AcDbEntity
  8
0
100
AcDbBlockBegin
  2
블럭10
 70
     2
 10
0.0
 20
0.0
 30
0.0
  3
블럭10
  1
블럭10
  0
ELLIPSE
  5
81
330
7E
100
AcDbEntity
  8
중심선
100
AcDbEllipse
 10
20.54032771741204
 20
12.0471743016438
 30
0.0
 11
6.600054785286829
 21
-1.261213355974178E-13
 31
0.0
210
0.0
220
0.0
230
1.0
 40
0.636358354079598
 41
0.9219305317359503
 42
6.513795318482858
  0
ELLIPSE
  5
82
330
7E
100
AcDbEntity
  8
중심선
100
AcDbEllipse
 10
20.54032771746488
 20
12.04717430159265
 30
0.0
 11
3.960054785062283
 21
1.540847449632565E-10
 31
0.0
210
0.0
220
0.0
230
1.0
 40
0.3939339440162632
 41
1.131841032648279
 42
5.62031148352944
  0
LINE
  5
83
330
7E
100
AcDbEntity
  8
중심선
100
AcDbLine
 10
2.268634060543552
 20
16.24717430164393
 30
0.0
 11
5.714909304380834
 21
16.24717430164393
 31
0.0
  0
LINE
  5
84
330
7E
100
AcDbEntity
  8
중심선
100
AcDbLine
 10
5.245725140726316
 20
7.84717430164391
 30
0.0
 11
8.692000384563599
 21
7.84717430164391
 31
0.0
  0
LINE
  5
85
330
7E
100
AcDbEntity
  8
중심선
100
AcDbLine
 10
15.74043728645272
 20
16.24717430164393
 30
0.0
 11
8.692000384563599
 21
7.84717430164391
 31
0.0
  0
LINE
  5
86
330
7E
100
AcDbEntity
  8
중심선
100
AcDbLine
 10
0.1404042013395286
 20
13.71084872107135
 30
0.0
 11
3.58671253028996
 21
13.71088815037384
 31
0.0
  0
LINE
  5
87
330
7E
100
AcDbEntity
  8
중심선
100
AcDbLine
 10
2.750260043222114
 20
10.84717430164391
 30
0.0
 11
6.196535287059397
 21
10.84717430164391
 31
0.0
  0
LINE
  5
88
330
7E
100
AcDbEntity
  8
중심선
100
AcDbLine
 10
12.29416204261559
 20
16.24717430164393
 30
0.0
 11
5.245725140726316
 21
7.84717430164391
 31
0.0
  0
LINE
  5
89
330
7E
100
AcDbEntity
  8
중심선
100
AcDbLine
 10
10.72767329541681
 20
16.24717430164393
 30
0.0
 11
6.196535287059397
 21
10.84717430164391
 31
0.0
  0
LINE
  5
8A
330
7E
100
AcDbEntity
  8
중심선
100
AcDbLine
 10
7.28139805157953
 20
16.24717430164393
 30
0.0
 11
2.750260043222114
 21
10.84717430164391
 31
0.0
  0
LINE
  5
8B
330
7E
100
AcDbEntity
  8
중심선
100
AcDbLine
 10
5.714909304380834
 20
16.24717430164393
 30
0.0
 11
3.58671253028996
 21
13.71088815037384
 31
0.0
  0
LINE
  5
8C
330
7E
100
AcDbEntity
  8
중심선
100
AcDbLine
 10
2.268634060543552
 20
16.24717430164393
 30
0.0
 11
0.1404042013395286
 21
13.71084872107135
 31
0.0
  0
LINE
  5
8D
330
7E
100
AcDbEntity
  8
중심선
100
AcDbLine
 10
7.28139805157953
 20
16.24717430164393
 30
0.0
 11
10.72767329541681
 21
16.24717430164393
 31
0.0
  0
LINE
  5
8E
330
7E
100
AcDbEntity
  8
중심선
100
AcDbLine
 10
12.29416204261559
 20
16.24717430164393
 30
0.0
 11
15.74043728645272
 21
16.24717430164393
 31
0.0
  0
LINE
  5
8F
330
7E
100
AcDbEntity
  8
중심선
100
AcDbLine
 10
19.22036997980202
 20
11.08717430171403
 30
0.0
 11
23.66174974927406
 21
11.08717430171406
 31
0.0
  0
LINE
  5
90
330
7E
100
AcDbEntity
  8
중심선
100
AcDbLine
 10
19.22039502424796
 20
13.00717430171391
 30
0.0
 11
19.22036997980202
 21
11.08717430171403
 31
0.0
  0
LINE
  5
91
330
7E
100
AcDbEntity
  8
중심선
100
AcDbLine
 10
19.22039502424796
 20
13.00717430171391
 30
0.0
 11
26.96566020931264
 21
13.00717430171391
 31
0.0
  0
LINE
  5
92
330
7E
100
AcDbEntity
  8
중심선
100
AcDbLine
 10
22.22332737316547
 20
13.45928029700563
 30
0.0
 11
24.52862924686651
 21
15.39360700705356
 31
0.0
  0
ATTDEF
  5
94
330
7E
100
AcDbEntity
  8
FORMAT
 62
     2
100
AcDbText
 10
-11.05102035218446
 20
2.075366912832191
 30
0.0
 40
4.233333333333333
  1
GMG22940[ 6 FLUTE ]
 41
0.75
  7
SLDTEXTSTYLE0
 11
-11.05102035218446
 21
-0.0412997538344756
 31
0.0
100
AcDbAttributeDefinition
  3

  2
AUTOATTR0
 70
     0
 74
     1
  0
ENDBLK
  5
80
330
7E
100
AcDbEntity
  8
0
100
AcDbBlockEnd
  0
BLOCK
  5
10A
330
109
100
AcDbEntity
  8
0
100
AcDbBlockBegin
  2
_D
 70
     0
 10
0.0
 20
0.0
 30
0.0
  3
_D
  1
_D
  0
LINE
  5
10C
330
109
100
AcDbEntity
  8
치수문자_일반주서
 62
     0
370
    -2
100
AcDbLine
 10
83.9765
 20
-7.937500000000004
 30
0.0
 11
104.020745715773
 21
-7.937499999999928
 31
0.0
  0
LINE
  5
10D
330
109
100
AcDbEntity
  8
치수문자_일반주서
 62
     0
370
    -2
100
AcDbLine
 10
83.9765
 20
7.937500000000007
 30
0.0
 11
104.020745715773
 21
7.937500000000083
 31
0.0
  0
LINE
  5
10E
330
109
100
AcDbEntity
  8
치수문자_일반주서
 62
     0
370
    -2
100
AcDbLine
 10
104.020745715773
 20
-4.635499999999928
 30
0.0
 11
104.020745715773
 21
4.635500000000083
 31
0.0
  0
SOLID
  5
10F
330
109
100
AcDbEntity
  8
치수문자_일반주서
 62
     0
100
AcDbTrace
 10
103.4704123824397
 20
-4.63549999999993
 30
0.0
 11
104.5710790491063
 21
-4.635499999999927
 31
0.0
 12
104.020745715773
 22
-7.937499999999928
 32
0.0
 13
104.020745715773
 23
-7.937499999999928
 33
0.0
  0
SOLID
  5
110
330
109
100
AcDbEntity
  8
치수문자_일반주서
 62
     0
100
AcDbTrace
 10
104.5710790491063
 20
4.635500000000085
 30
0.0
 11
103.4704123824397
 21
4.635500000000081
 31
0.0
 12
104.020745715773
 22
7.937500000000083
 32
0.0
 13
104.020745715773
 23
7.937500000000083
 33
0.0
  0
MTEXT
  5
111
330
109
100
AcDbEntity
  8
치수문자_일반주서
 62
     0
100
AcDbMText
 10
99.64574571577299
 20
4.265946215346463
 30
0.0
 40
3.5
 41
0.0
 71
     2
 72
     1
  1
\A1;%%c15.88 [5/8]
  7
SLDTEXTSTYLE0
 11
-3.580687802255621E-15
 21
1.0
 31
0.0
 73
     1
 44
1.0
  0
POINT
  5
112
330
109
100
AcDbEntity
  8
Defpoints
 62
     0
100
AcDbPoint
 10
83.914
 20
-7.937500000000004
 30
0.0
  0
POINT
  5
113
330
109
100
AcDbEntity
  8
Defpoints
 62
     0
100
AcDbPoint
 10
83.914
 20
7.937500000000007
 30
0.0
  0
POINT
  5
114
330
109
100
AcDbEntity
  8
Defpoints
 62
     0
100
AcDbPoint
 10
104.020745715773
 20
7.937500000000083
 30
0.0
  0
ENDBLK
  5
10B
330
109
100
AcDbEntity
  8
0
100
AcDbBlockEnd
  0
BLOCK
  5
11F
330
11E
100
AcDbEntity
  8
0
100
AcDbBlockBegin
  2
_D_1
 70
     0
 10
0.0
 20
0.0
 30
0.0
  3
_D_1
  1
_D_1
  0
LINE
  5
121
330
11E
100
AcDbEntity
  8
치수문자_일반주서
 62
     0
370
    -2
100
AcDbLine
 10
-40.80048592007449
 20
7.237725568829308
 30
0.0
 11
-40.80048592007448
 21
40.3307769869011
 31
0.0
  0
LINE
  5
122
330
11E
100
AcDbEntity
  8
치수문자_일반주서
 62
     0
370
    -2
100
AcDbLine
 10
86.19951407992552
 20
6.975725568829312
 30
0.0
 11
86.19951407992554
 21
40.3307769869011
 31
0.0
  0
LINE
  5
123
330
11E
100
AcDbEntity
  8
치수문자_일반주서
 62
     0
370
    -2
100
AcDbLine
 10
-37.49848592007448
 20
40.3307769869011
 30
0.0
 11
82.89751407992554
 21
40.3307769869011
 31
0.0
  0
SOLID
  5
124
330
11E
100
AcDbEntity
  8
치수문자_일반주서
 62
     0
100
AcDbTrace
 10
-37.49848592007448
 20
40.88111032023443
 30
0.0
 11
-37.49848592007448
 21
39.78044365356777
 31
0.0
 12
-40.80048592007448
 22
40.3307769869011
 32
0.0
 13
-40.80048592007448
 23
40.3307769869011
 33
0.0
  0
SOLID
  5
125
330
11E
100
AcDbEntity
  8
치수문자_일반주서
 62
     0
100
AcDbTrace
 10
82.89751407992554
 20
39.78044365356777
 30
0.0
 11
82.89751407992554
 21
40.88111032023443
 31
0.0
 12
86.19951407992554
 22
40.3307769869011
 32
0.0
 13
86.19951407992554
 23
40.3307769869011
 33
0.0
  0
MTEXT
  5
126
330
11E
100
AcDbEntity
  8
치수문자_일반주서
 62
     0
100
AcDbMText
 10
22.69951407992552
 20
44.7057769869011
 30
0.0
 40
3.5
 41
0.0
 71
     2
 72
     1
  1
\A1;127 [5]
  7
SLDTEXTSTYLE0
 73
     1
 44
1.0
  0
POINT
  5
127
330
11E
100
AcDbEntity
  8
Defpoints
 62
     0
100
AcDbPoint
 10
-40.80048592007449
 20
7.175225568829308
 30
0.0
  0
POINT
  5
128
330
11E
100
AcDbEntity
  8
Defpoints
 62
     0
100
AcDbPoint
 10
86.19951407992552
 20
6.913225568829312
 30
0.0
  0
POINT
  5
129
330
11E
100
AcDbEntity
  8
Defpoints
 62
     0
100
AcDbPoint
 10
86.19951407992552
 20
40.33077698690109
 30
0.0
  0
ENDBLK
  5
120
330
11E
100
AcDbEntity
  8
0
100
AcDbBlockEnd
  0
BLOCK
  5
133
330
132
100
AcDbEntity
  8
0
100
AcDbBlockBegin
  2
_D_2
 70
     0
 10
0.0
 20
0.0
 30
0.0
  3
_D_2
  1
_D_2
  0
LINE
  5
135
330
132
100
AcDbEntity
  8
치수문자_일반주서
 62
     0
370
    -2
100
AcDbLine
 10
86.19951407992552
 20
6.975725568829312
 30
0.0
 11
86.19951407992552
 21
24.54022009916724
 31
0.0
  0
LINE
  5
136
330
132
100
AcDbEntity
  8
치수문자_일반주서
 62
     0
370
    -2
100
AcDbLine
 10
9.99951407992552
 20
-8.137274431170688
 30
0.0
 11
9.999514079925518
 21
24.54022009916724
 31
0.0
  0
LINE
  5
137
330
132
100
AcDbEntity
  8
치수문자_일반주서
 62
     0
370
    -2
100
AcDbLine
 10
82.89751407992551
 20
24.54022009916724
 30
0.0
 11
13.30151407992552
 21
24.54022009916724
 31
0.0
  0
SOLID
  5
138
330
132
100
AcDbEntity
  8
치수문자_일반주서
 62
     0
100
AcDbTrace
 10
82.89751407992551
 20
23.98988676583391
 30
0.0
 11
82.89751407992551
 21
25.09055343250057
 31
0.0
 12
86.19951407992552
 22
24.54022009916724
 32
0.0
 13
86.19951407992552
 23
24.54022009916724
 33
0.0
  0
SOLID
  5
139
330
132
100
AcDbEntity
  8
치수문자_일반주서
 62
     0
100
AcDbTrace
 10
13.30151407992552
 20
25.09055343250057
 30
0.0
 11
13.30151407992552
 21
23.98988676583391
 31
0.0
 12
9.999514079925518
 22
24.54022009916724
 32
0.0
 13
9.999514079925518
 23
24.54022009916724
 33
0.0
  0
MTEXT
  5
13A
330
132
100
AcDbEntity
  8
치수문자_일반주서
 62
     0
100
AcDbMText
 10
47.26131747562998
 20
28.91522009916724
 30
0.0
 40
3.5
 41
0.0
 71
     2
 72
     1
  1
\A1;76.20 [3]
  7
SLDTEXTSTYLE0
 73
     1
 44
1.0
  0
POINT
  5
13B
330
132
100
AcDbEntity
  8
Defpoints
 62
     0
100
AcDbPoint
 10
86.19951407992552
 20
6.913225568829312
 30
0.0
  0
POINT
  5
13C
330
132
100
AcDbEntity
  8
Defpoints
 62
     0
100
AcDbPoint
 10
9.99951407992552
 20
-8.199774431170688
 30
0.0
  0
POINT
  5
13D
330
132
100
AcDbEntity
  8
Defpoints
 62
     0
100
AcDbPoint
 10
9.99951407992552
 20
24.54022009916724
 30
0.0
  0
ENDBLK
  5
134
330
132
100
AcDbEntity
  8
0
100
AcDbBlockEnd
  0
BLOCK
  5
147
330
146
100
AcDbEntity
  8
0
100
AcDbBlockBegin
  2
_NONE
 70
     0
 10
0.0
 20
0.0
 30
0.0
  3
_NONE
  1
_NONE
  0
ENDBLK
  5
148
330
146
100
AcDbEntity
  8
0
100
AcDbBlockEnd
  0
BLOCK
  5
14A
330
149
100
AcDbEntity
  8
0
100
AcDbBlockBegin
  2
_D_3
 70
     0
 10
0.0
 20
0.0
 30
0.0
  3
_D_3
  1
_D_3
  0
LINE
  5
14C
330
149
100
AcDbEntity
  8
치수문자_일반주서
100
AcDbLine
 10
-64.59336763611721
 20
-13.61414086223941
 30
0.0
 11
-64.59336763611721
 21
-14.32507834780391
 31
0.0
  0
LINE
  5
14D
330
149
100
AcDbEntity
  8
치수문자_일반주서
100
AcDbLine
 10
-64.59336763611721
 20
-14.32507834780391
 30
0.0
 11
-59.03711764505791
 21
-14.32507834780387
 31
0.0
  0
LINE
  5
14E
330
149
100
AcDbEntity
  8
치수문자_일반주서
100
AcDbLine
 10
-59.03711764505791
 20
-14.32507834780387
 30
0.0
 11
-59.03711764505791
 21
-13.61414086223937
 31
0.0
  0
LINE
  5
14F
330
149
100
AcDbEntity
  8
치수문자_일반주서
100
AcDbLine
 10
-64.59336763611729
 20
-2.785408000102152
 30
0.0
 11
-64.59336763611729
 21
-2.074470514537652
 31
0.0
  0
LINE
  5
150
330
149
100
AcDbEntity
  8
치수문자_일반주서
100
AcDbLine
 10
-64.59336763611729
 20
-2.074470514537652
 30
0.0
 11
-59.037117645058
 21
-2.074470514537613
 31
0.0
  0
LINE
  5
151
330
149
100
AcDbEntity
  8
치수문자_일반주서
100
AcDbLine
 10
-59.037117645058
 20
-2.074470514537613
 30
0.0
 11
-59.03711764505799
 21
-2.785408000102113
 31
0.0
  0
MTEXT
  5
152
330
149
100
AcDbEntity
  8
치수문자_일반주서
100
AcDbMText
 10
-63.54885455963682
 20
-12.72546896162803
 30
0.0
 40
3.5
 41
0.0
 71
     1
 72
     1
  1
0.00
  7
SLDTEXTSTYLE0
 11
-7.044195017643634E-15
 21
1.0
 31
0.0
 73
     1
 44
1.0
  0
MTEXT
  5
153
330
149
100
AcDbEntity
  8
치수문자_일반주서
100
AcDbMText
 10
-58.31222300927634
 20
-12.13204884353451
 30
0.0
 40
3.5
 41
0.0
 71
     1
 72
     1
  1
%%c
  7
SLDTEXTSTYLE0
 11
-7.044195017643634E-15
 21
1.0
 31
0.0
 73
     1
 44
1.0
  0
MTEXT
  5
154
330
149
100
AcDbEntity
  8
치수문자_일반주서
100
AcDbMText
 10
-58.31222300927638
 20
-6.853611445160426
 30
0.0
 40
3.5
 41
0.0
 71
     1
 72
     1
  1
0
  7
SLDTEXTSTYLE0
 11
-7.044195017643634E-15
 21
1.0
 31
0.0
 73
     1
 44
1.0
  0
ENDBLK
  5
14B
330
149
100
AcDbEntity
  8
0
100
AcDbBlockEnd
  0
BLOCK
  5
156
330
155
100
AcDbEntity
  8
0
100
AcDbBlockBegin
  2
SW_DOWELSYMBOL_0
 70
     0
 10
0.0
 20
0.0
 30
0.0
  3
SW_DOWELSYMBOL_0
  1
SW_DOWELSYMBOL_0
  0
CIRCLE
  5
158
330
155
100
AcDbEntity
  8
외형선
 62
     0
100
AcDbCircle
 10
0.0
 20
0.0
 30
0.0
 40
3.000000000000001
  0
HATCH
  5
159
330
155
100
AcDbEntity
  8
0
  6
Continuous
 62
     0
370
    30
100
AcDbHatch
 10
0.0
 20
0.0
 30
0.0
210
0.0
220
0.0
230
1.0
  2
SOLID
 70
     1
 71
     0
 91
        1
 92
        0
 93
        3
 72
     2
 10
0.0
 20
0.0
 40
3.000000000000001
 50
0.0
 51
90.0
 73
     1
 72
     1
 10
0.0
 20
3.000000000000001
 11
0.0
 21
0.0
 72
     1
 10
0.0
 20
0.0
 11
3.000000000000003
 21
0.0
 97
        0
 75
     0
 76
     1
 98
        1
 10
0.0
 20
0.0
  0
HATCH
  5
15A
330
155
100
AcDbEntity
  8
0
  6
Continuous
 62
     0
370
    30
100
AcDbHatch
 10
0.0
 20
0.0
 30
0.0
210
0.0
220
0.0
230
1.0
  2
SOLID
 70
     1
 71
     0
 91
        1
 92
        0
 93
        3
 72
     2
 10
0.0
 20
0.0
 40
3.000000000000001
 50
180.0
 51
270.0000000000008
 73
     1
 72
     1
 10
0.0
 20
-3.000000000000001
 11
0.0
 21
0.0
 72
     1
 10
0.0
 20
0.0
 11
-3.000000000000003
 21
0.0
 97
        0
 75
     0
 76
     1
 98
        1
 10
0.0
 20
0.0
  0
ENDBLK
  5
157
330
155
100
AcDbEntity
  8
0
100
AcDbBlockEnd
  0
BLOCK
  5
187
330
186
100
AcDbEntity
  8
0
100
AcDbBlockBegin
  2
*D8
 70
     1
 10
0.0
 20
0.0
 30
0.0
  3
*D8
  1
*D8
  0
LINE
  5
189
330
186
100
AcDbEntity
  8
치수문자_일반주서
 62
     0
370
    -2
100
AcDbLine
 10
-40.36298592007449
 20
7.675225568829307
 30
0.0
 11
-49.32652418232779
 21
7.675225568829308
 31
0.0
  0
LINE
  5
18A
330
186
100
AcDbEntity
  8
치수문자_일반주서
 62
     0
370
    -2
100
AcDbLine
 10
-40.36298592007449
 20
-8.199774431170692
 30
0.0
 11
-49.32652418232779
 21
-8.199774431170692
 31
0.0
  0
LINE
  5
18B
330
186
100
AcDbEntity
  8
치수문자_일반주서
 62
     0
370
    -2
100
AcDbLine
 10
-49.32652418232779
 20
-11.50177443117069
 30
0.0
 11
-49.32652418232779
 21
-40.17877443117069
 31
0.0
  0
LINE
  5
18C
330
186
100
AcDbEntity
  8
치수문자_일반주서
 62
     0
370
    -2
100
AcDbLine
 10
-49.32652418232779
 20
7.675225568829308
 30
0.0
 11
-49.32652418232779
 21
-8.199774431170692
 31
0.0
  0
LINE
  5
18D
330
186
100
AcDbEntity
  8
치수문자_일반주서
 62
     0
370
    -2
100
AcDbLine
 10
-49.32652418232779
 20
10.97722556882931
 30
0.0
 11
-49.32652418232779
 21
14.27922556882931
 31
0.0
  0
SOLID
  5
18E
330
186
100
AcDbEntity
  8
치수문자_일반주서
 62
     0
100
AcDbTrace
 10
-49.87685751566112
 20
10.97722556882931
 30
0.0
 11
-48.77619084899445
 21
10.97722556882931
 31
0.0
 12
-49.32652418232779
 22
7.675225568829308
 32
0.0
 13
-49.32652418232779
 23
7.675225568829308
 33
0.0
  0
SOLID
  5
18F
330
186
100
AcDbEntity
  8
치수문자_일반주서
 62
     0
100
AcDbTrace
 10
-48.77619084899445
 20
-11.50177443117069
 30
0.0
 11
-49.87685751566112
 21
-11.50177443117069
 31
0.0
 12
-49.32652418232779
 22
-8.199774431170692
 32
0.0
 13
-49.32652418232779
 23
-8.199774431170692
 33
0.0
  0
MTEXT
  5
190
330
186
100
AcDbEntity
  8
치수문자_일반주서
 62
     0
100
AcDbMText
 10
-51.95152418232779
 20
-27.49127443117069
 30
0.0
 40
3.5
 41
0.0
 71
     5
 72
     1
  1
\A1;15.88 [3/4]
  7
SLDTEXTSTYLE0
 11
0.0
 21
1.0
 31
0.0
 73
     1
 44
1.0
  0
POINT
  5
191
330
186
100
AcDbEntity
  8
Defpoints
 62
     0
100
AcDbPoint
 10
-40.30048592007449
 20
7.675225568829307
 30
0.0
  0
POINT
  5
192
330
186
100
AcDbEntity
  8
Defpoints
 62
     0
100
AcDbPoint
 10
-40.30048592007449
 20
-8.199774431170692
 30
0.0
  0
POINT
  5
193
330
186
100
AcDbEntity
  8
Defpoints
 62
     0
100
AcDbPoint
 10
-49.32652418232779
 20
-8.199774431170692
 30
0.0
  0
ENDBLK
  5
188
330
186
100
AcDbEntity
  8
0
100
AcDbBlockEnd
  0
BLOCK
  5
1AC
330
1AB
100
AcDbEntity
  8
0
100
AcDbBlockBegin
  2
*D9
 70
     1
 10
0.0
 20
0.0
 30
0.0
  3
*D9
  1
*D9
  0
LINE
  5
1AE
330
1AB
100
AcDbEntity
  8
치수문자_일반주서
 62
     0
370
    -2
100
AcDbLine
 10
-40.36250000000001
 20
7.937500000000004
 30
0.0
 11
-55.15927784371419
 21
7.937500000000005
 31
0.0
  0
LINE
  5
1AF
330
1AB
100
AcDbEntity
  8
치수문자_일반주서
 62
     0
370
    -2
100
AcDbLine
 10
-40.36250000000001
 20
-7.937499999999997
 30
0.0
 11
-55.15927784371419
 21
-7.937499999999996
 31
0.0
  0
LINE
  5
1B0
330
1AB
100
AcDbEntity
  8
치수문자_일반주서
 62
     0
370
    -2
100
AcDbLine
 10
-55.15927784371419
 20
4.635500000000006
 30
0.0
 11
-55.15927784371419
 21
-4.635499999999996
 31
0.0
  0
SOLID
  5
1B1
330
1AB
100
AcDbEntity
  8
치수문자_일반주서
 62
     0
100
AcDbTrace
 10
-54.60894451038086
 20
4.635500000000006
 30
0.0
 11
-55.70961117704753
 21
4.635500000000006
 31
0.0
 12
-55.15927784371419
 22
7.937500000000005
 32
0.0
 13
-55.15927784371419
 23
7.937500000000005
 33
0.0
  0
SOLID
  5
1B2
330
1AB
100
AcDbEntity
  8
치수문자_일반주서
 62
     0
100
AcDbTrace
 10
-55.70961117704753
 20
-4.635499999999996
 30
0.0
 11
-54.60894451038086
 21
-4.635499999999996
 31
0.0
 12
-55.15927784371419
 22
-7.937499999999996
 32
0.0
 13
-55.15927784371419
 23
-7.937499999999996
 33
0.0
  0
MTEXT
  5
1B3
330
1AB
100
AcDbEntity
  8
치수문자_일반주서
 62
     0
100
AcDbMText
 10
-57.78427784371419
 20
0.0000000000000062
 30
0.0
 40
3.5
 41
0.0
 71
     5
 72
     1
  1
\A1;{%%C15.88 [5/8]}
  7
SLDTEXTSTYLE0
 11
0.0
 21
1.0
 31
0.0
 73
     1
 44
1.0
  0
POINT
  5
1B4
330
1AB
100
AcDbEntity
  8
Defpoints
 62
     0
100
AcDbPoint
 10
-40.30000000000001
 20
7.937500000000004
 30
0.0
  0
POINT
  5
1B5
330
1AB
100
AcDbEntity
  8
Defpoints
 62
     0
100
AcDbPoint
 10
-40.30000000000001
 20
-7.937499999999997
 30
0.0
  0
POINT
  5
1B6
330
1AB
100
AcDbEntity
  8
Defpoints
 62
     0
100
AcDbPoint
 10
-55.15927784371419
 20
-7.937499999999996
 30
0.0
  0
ENDBLK
  5
1AD
330
1AB
100
AcDbEntity
  8
0
100
AcDbBlockEnd
  0
BLOCK
  5
1C3
330
1C2
100
AcDbEntity
  8
0
100
AcDbBlockBegin
  2
*D10
 70
     1
 10
0.0
 20
0.0
 30
0.0
  3
*D10
  1
*D10
  0
LINE
  5
1C5
330
1C2
100
AcDbEntity
  8
치수문자_일반주서
 62
     0
370
    -2
100
AcDbLine
 10
87.5481209591025
 20
9.896368532076348
 30
0.0
 11
112.1632023017268
 21
38.64824151090249
 31
0.0
  0
MTEXT
  5
1C6
330
1C2
100
AcDbEntity
  8
치수문자_일반주서
 62
     0
100
AcDbMText
 10
100.0684956011611
 20
28.55723455471664
 30
0.0
 40
3.5
 41
0.0
 71
     5
 72
     1
  1
\A1;R2.29 [R0.090]
  7
SLDTEXTSTYLE0
 11
0.6503437650505552
 21
0.7596400379521002
 31
0.0
 73
     1
 44
1.0
  0
LINE
  5
1C7
330
1C2
100
AcDbEntity
  8
치수문자_일반주서
 62
     0
370
    -2
100
AcDbLine
 10
83.914
 20
5.651500000000008
 30
0.0
 11
85.40068584690557
 21
7.388037126758513
 31
0.0
  0
SOLID
  5
1C8
330
1C2
100
AcDbEntity
  8
치수문자_일반주서
 62
     0
100
AcDbTrace
 10
87.13006572488287
 20
10.25427438410917
 30
0.0
 11
87.96617619332214
 21
9.538462680043526
 31
0.0
 12
85.40068584690557
 22
7.388037126758513
 32
0.0
 13
85.40068584690557
 23
7.388037126758513
 33
0.0
  0
POINT
  5
1C9
330
1C2
100
AcDbEntity
  8
Defpoints
 62
     0
100
AcDbPoint
 10
85.40068584690557
 20
7.388037126758513
 30
0.0
  0
POINT
  5
1CA
330
1C2
100
AcDbEntity
  8
Defpoints
 62
     0
100
AcDbPoint
 10
83.914
 20
5.651500000000008
 30
0.0
  0
ENDBLK
  5
1C4
330
1C2
100
AcDbEntity
  8
0
100
AcDbBlockEnd
  0
ENDSEC
  0
SECTION
  2
ENTITIES
  0
LINE
  5
95
102
{ACAD_REACTORS
102
}
330
1F
100
AcDbEntity
  8
0
  6
Continuous
 62
     4
370
    15
100
AcDbLine
 10
9.999999999999998
 20
7.937500000000007
 30
0.0
 11
-40.30000000000001
 21
7.937500000000004
 31
0.0
  0
LINE
  5
96
102
{ACAD_REACTORS
102
}
330
1F
100
AcDbEntity
  8
0
  6
Continuous
 62
     4
370
    15
100
AcDbLine
 10
-40.30000000000001
 20
-7.937499999999997
 30
0.0
 11
9.999999999999998
 21
-7.937499999999994
 31
0.0
  0
LINE
  5
97
102
{ACAD_REACTORS
102
}
330
1F
100
AcDbEntity
  8
0
  6
Continuous
 62
     4
370
    15
100
AcDbLine
 10
-40.30000000000001
 20
7.937500000000002
 30
0.0
 11
-40.80000000000001
 21
7.437500000000003
 31
0.0
  0
LINE
  5
98
330
1F
100
AcDbEntity
  8
0
  6
Continuous
 62
     4
370
    15
100
AcDbLine
 10
-40.80000000000001
 20
-7.437499999999997
 30
0.0
 11
-40.30000000000001
 21
-7.937499999999996
 31
0.0
  0
LINE
  5
99
330
1F
100
AcDbEntity
  8
0
  6
Continuous
 62
     1
370
    15
100
AcDbLine
 10
66.14180514623258
 20
-7.937499999999994
 30
0.0
 11
68.85425874182364
 21
-7.937499999999994
 31
0.0
  0
LINE
  5
9A
330
1F
100
AcDbEntity
  8
0
  6
Continuous
 62
     1
370
    15
100
AcDbLine
 10
16.26825525930481
 20
-7.937499999999994
 30
0.0
 11
18.98168592429745
 21
-7.937499999999994
 31
0.0
  0
LINE
  5
9B
330
1F
100
AcDbEntity
  8
0
  6
Continuous
 62
     1
370
    15
100
AcDbLine
 10
43.91868606926361
 20
7.937500000000007
 30
0.0
 11
41.20348403177894
 21
7.937500000000007
 31
0.0
  0
LINE
  5
9C
330
1F
100
AcDbEntity
  8
0
  6
Continuous
 62
     1
370
    15
100
AcDbLine
 10
41.20348403177903
 20
-7.937499999999994
 30
0.0
 11
43.91868606926364
 21
-7.937499999999994
 31
0.0
  0
LINE
  5
9D
330
1F
100
AcDbEntity
  8
0
  6
Continuous
 62
     1
370
    15
100
AcDbLine
 10
18.98168592429749
 20
7.937500000000007
 30
0.0
 11
16.26825525930488
 21
7.937500000000007
 31
0.0
  0
LINE
  5
9E
330
1F
100
AcDbEntity
  8
0
  6
Continuous
 62
     1
370
    15
100
AcDbLine
 10
68.85425874182374
 20
7.937500000000007
 30
0.0
 11
66.14180514623264
 21
7.937500000000007
 31
0.0
  0
LINE
  5
9F
330
1F
100
AcDbEntity
  8
0
  6
Continuous
 62
     1
370
    15
100
AcDbLine
 10
74.45258223878267
 20
-7.937499999999994
 30
0.0
 11
77.16762090141624
 21
-7.937499999999994
 31
0.0
  0
LINE
  5
A0
330
1F
100
AcDbEntity
  8
0
  6
Continuous
 62
     1
370
    15
100
AcDbLine
 10
24.57976282387613
 20
-7.937499999999994
 30
0.0
 11
27.29401414142929
 21
-7.937499999999994
 31
0.0
  0
LINE
  5
A1
330
1F
100
AcDbEntity
  8
0
  6
Continuous
 62
     1
370
    15
100
AcDbLine
 10
52.2295835124076
 20
7.937500000000007
 30
0.0
 11
49.51712807725617
 21
7.937500000000007
 31
0.0
  0
LINE
  5
A2
330
1F
100
AcDbEntity
  8
0
  6
Continuous
 62
     1
370
    15
100
AcDbLine
 10
49.5171280772562
 20
-7.937499999999994
 30
0.0
 11
52.22958351240763
 21
-7.937499999999994
 31
0.0
  0
LINE
  5
A3
330
1F
100
AcDbEntity
  8
0
  6
Continuous
 62
     1
370
    15
100
AcDbLine
 10
27.29401414142926
 20
7.937500000000007
 30
0.0
 11
24.57976282387621
 21
7.937500000000007
 31
0.0
  0
LINE
  5
A4
330
1F
100
AcDbEntity
  8
0
  6
Continuous
 62
     1
370
    15
100
AcDbLine
 10
77.16762090141621
 20
7.937500000000007
 30
0.0
 11
74.45258223878275
 21
7.937500000000007
 31
0.0
  0
LINE
  5
A5
330
1F
100
AcDbEntity
  8
0
  6
Continuous
 62
     1
370
    15
100
AcDbLine
 10
82.7656236172022
 20
-7.937499999999994
 30
0.0
 11
83.914
 21
-7.937499999999994
 31
0.0
  0
LINE
  5
A6
330
1F
100
AcDbEntity
  8
0
  6
Continuous
 62
     1
370
    15
100
AcDbLine
 10
32.89244016662605
 20
-7.937499999999994
 30
0.0
 11
35.6053294120162
 21
-7.937499999999994
 31
0.0
  0
LINE
  5
A7
330
1F
100
AcDbEntity
  8
0
  6
Continuous
 62
     1
370
    15
100
AcDbLine
 10
10.6693094313282
 20
7.937500000000007
 30
0.0
 11
10.0
 21
7.937500000000007
 31
0.0
  0
LINE
  5
A8
330
1F
100
AcDbEntity
  8
0
  6
Continuous
 62
     1
370
    15
100
AcDbLine
 10
60.54355686516746
 20
7.937500000000007
 30
0.0
 11
57.82796499344535
 21
7.937500000000007
 31
0.0
  0
LINE
  5
A9
330
1F
100
AcDbEntity
  8
0
  6
Continuous
 62
     1
370
    15
100
AcDbLine
 10
57.82796499344536
 20
-7.937499999999994
 30
0.0
 11
60.54355686516745
 21
-7.937499999999994
 31
0.0
  0
LINE
  5
AA
330
1F
100
AcDbEntity
  8
0
  6
Continuous
 62
     1
370
    15
100
AcDbLine
 10
10.0
 20
-7.937499999999994
 30
0.0
 11
10.66930943132817
 21
-7.937499999999994
 31
0.0
  0
LINE
  5
AB
330
1F
100
AcDbEntity
  8
0
  6
Continuous
 62
     1
370
    15
100
AcDbLine
 10
35.60532941201618
 20
7.937500000000007
 30
0.0
 11
32.89244016662607
 21
7.937500000000007
 31
0.0
  0
LINE
  5
AC
330
1F
100
AcDbEntity
  8
0
  6
Continuous
 62
     1
370
    15
100
AcDbLine
 10
83.914
 20
7.937500000000007
 30
0.0
 11
82.76562361720221
 21
7.937500000000007
 31
0.0
  0
SPLINE
  5
AD
330
1F
100
AcDbEntity
  8
0
  6
Continuous
 62
     4
370
    15
100
AcDbSpline
210
0.0
220
0.0
230
1.0
 70
     8
 71
     3
 72
    14
 73
    10
 74
     0
 42
0.000000001
 43
0.00000001
 40
0.0
 40
0.0
 40
0.0
 40
0.0
 40
0.25
 40
0.25
 40
0.5
 40
0.5
 40
0.75
 40
0.75
 40
1.0
 40
1.0
 40
1.0
 40
1.0
 10
7.475022619277322
 20
-0.9586835013695725
 30
0.0
 10
7.364175994525183
 20
-0.8482388887146384
 30
0.0
 10
7.273009987621966
 20
-0.724035434230212
 30
0.0
 10
7.125172672040004
 20
-0.4511372174159305
 30
0.0
 10
7.0700311209111
 20
-0.3037849346454345
 30
0.0
 10
6.993843147924223
 20
-0.0027923851158881
 30
0.0
 10
6.972199189646736
 20
0.1531408190285854
 30
0.0
 10
6.950487542448348
 20
0.4631904423732439
 30
0.0
 10
6.950376375227389
 20
0.6185829425969321
 30
0.0
 10
6.950376375227389
 20
0.7737443781102957
 30
0.0
  0
SPLINE
  5
AE
330
1F
100
AcDbEntity
  8
0
  6
Continuous
 62
     4
370
    15
100
AcDbSpline
210
0.0
220
0.0
230
1.0
 70
     8
 71
     3
 72
    22
 73
    18
 74
     0
 42
0.000000001
 43
0.00000001
 40
0.0
 40
0.0
 40
0.0
 40
0.0
 40
0.1250000000000002
 40
0.1250000000000002
 40
0.2500000000000003
 40
0.2500000000000003
 40
0.3750000000000002
 40
0.3750000000000002
 40
0.5000000000000001
 40
0.5000000000000001
 40
0.6250000000000001
 40
0.6250000000000001
 40
0.75
 40
0.75
 40
0.875
 40
0.875
 40
1.0
 40
1.0
 40
1.0
 40
1.0
 10
6.950376375227392
 20
0.7737443781102962
 30
0.0
 10
6.950376375227392
 20
0.9489281001591453
 30
0.0
 10
6.95071516858538
 20
1.123157892698978
 30
0.0
 10
6.98134606199401
 20
1.467101845905135
 30
0.0
 10
7.011591741340318
 20
1.638844593004271
 30
0.0
 10
7.118041222983547
 20
1.966822283427397
 30
0.0
 10
7.193689246770338
 20
2.121913127494921
 30
0.0
 10
7.395020239968055
 20
2.40114398946744
 30
0.0
 10
7.516820828651207
 20
2.521062629334022
 30
0.0
 10
7.805199336388949
 20
2.718309314733773
 30
0.0
 10
7.963503762085633
 20
2.790152340013725
 30
0.0
 10
8.306306816075777
 20
2.880087012736716
 30
0.0
 10
8.482507060447217
 20
2.895786705510607
 30
0.0
 10
8.836498229804928
 20
2.868772202891834
 30
0.0
 10
9.008391525794433
 20
2.826195754775692
 30
0.0
 10
9.329414701850915
 20
2.685587913853662
 30
0.0
 10
9.474515450777908
 20
2.589357822281162
 30
0.0
 10
9.60034311662465
 20
2.469408548968203
 30
0.0
  0
LINE
  5
B0
330
1F
100
AcDbEntity
  8
0
  6
Continuous
 62
     4
370
    15
100
AcDbLine
 10
-40.30000000000001
 20
7.937500000000002
 30
0.0
 11
-40.30000000000001
 21
-7.937499999999997
 31
0.0
  0
SPLINE
  5
B1
330
1F
100
AcDbEntity
  8
0
  6
Continuous
 62
     4
370
    15
100
AcDbSpline
210
0.0
220
0.0
230
1.0
 70
     8
 71
     3
 72
    10
 73
     6
 74
     0
 42
0.000000001
 43
0.00000001
 40
0.0
 40
0.0
 40
0.0
 40
0.0
 40
0.5
 40
0.5
 40
1.0
 40
1.0
 40
1.0
 40
1.0
 10
10.00000000000001
 20
-7.909334097421381
 30
0.0
 10
9.57826821716284
 20
-7.873871656364694
 30
0.0
 10
9.161070848835413
 20
-7.805209729233819
 30
0.0
 10
8.31624777733862
 20
-7.602060459799445
 30
0.0
 10
7.893809540603645
 20
-7.467763049098313
 30
0.0
 10
7.475022619277334
 20
-7.303096153185764
 30
0.0
  0
LINE
  5
B2
330
1F
100
AcDbEntity
  8
0
  6
Continuous
 62
     1
370
    15
100
AcDbLine
 10
9.999999999999998
 20
7.937500000000007
 30
0.0
 11
9.999999999999998
 21
7.675526893529134
 31
0.0
  0
SPLINE
  5
B3
330
1F
100
AcDbEntity
  8
0
  6
Continuous
 62
     4
370
    15
100
AcDbSpline
210
0.0
220
0.0
230
1.0
 70
     8
 71
     3
 72
     8
 73
     4
 74
     0
 42
0.000000001
 43
0.00000001
 40
0.0
 40
0.0
 40
0.0
 40
0.0
 40
1.0
 40
1.0
 40
1.0
 40
1.0
 10
9.999999999999998
 20
7.675526893529134
 30
0.0
 10
9.866422232286174
 20
7.709528958543766
 30
0.0
 10
9.733119370967987
 20
7.740251256665694
 30
0.0
 10
9.600343116624675
 20
7.767655043563281
 30
0.0
  0
SPLINE
  5
B4
330
1F
100
AcDbEntity
  8
0
  6
Continuous
 62
     4
370
    15
100
AcDbSpline
210
0.0
220
0.0
230
1.0
 70
     8
 71
     3
 72
    22
 73
    18
 74
     0
 42
0.000000001
 43
0.00000001
 40
0.0
 40
0.0
 40
0.0
 40
0.0
 40
0.1250000000000001
 40
0.1250000000000001
 40
0.2500000000000003
 40
0.2500000000000003
 40
0.3750000000000003
 40
0.3750000000000003
 40
0.5000000000000002
 40
0.5000000000000002
 40
0.6250000000000002
 40
0.6250000000000002
 40
0.7500000000000001
 40
0.7500000000000001
 40
0.8750000000000001
 40
0.8750000000000001
 40
1.0
 40
1.0
 40
1.0
 40
1.0
 10
6.950376375227392
 20
7.228211196552692
 30
0.0
 10
6.95037637522739
 20
7.300943310831287
 30
0.0
 10
6.95071516858538
 20
7.368164315846392
 30
0.0
 10
6.981346061994012
 20
7.49087482088025
 30
0.0
 10
7.011591741340318
 20
7.546965482425045
 30
0.0
 10
7.118041222983547
 20
7.64471008392702
 30
0.0
 10
7.193689246770338
 20
7.686056877248733
 30
0.0
 10
7.395020239968055
 20
7.753794202992367
 30
0.0
 10
7.516820828651207
 20
7.779296440341674
 30
0.0
 10
7.805199336388949
 20
7.818195778272861
 30
0.0
 10
7.963503762085635
 20
7.830599104770762
 30
0.0
 10
8.306306816075777
 20
7.845782503824791
 30
0.0
 10
8.482507060447217
 20
7.848198175343874
 30
0.0
 10
8.836498229804928
 20
7.843808605918984
 30
0.0
 10
9.008391525794433
 20
7.837006964015586
 30
0.0
 10
9.329414701850915
 20
7.811785992338139
 30
0.0
 10
9.474515450777908
 20
7.793624706269463
 30
0.0
 10
9.60034311662465
 20
7.767655043563289
 30
0.0
  0
SPLINE
  5
B5
330
1F
100
AcDbEntity
  8
0
  6
Continuous
 62
     4
370
    15
100
AcDbSpline
210
0.0
220
0.0
230
1.0
 70
     8
 71
     3
 72
    14
 73
    10
 74
     0
 42
0.000000001
 43
0.00000001
 40
0.0
 40
0.0
 40
0.0
 40
0.0
 40
0.2500000000000001
 40
0.2500000000000001
 40
0.5000000000000001
 40
0.5000000000000001
 40
0.75
 40
0.75
 40
1.0
 40
1.0
 40
1.0
 40
1.0
 10
7.47502261927732
 20
6.34441265181623
 30
0.0
 10
7.364175994525183
 20
6.41127240379187
 30
0.0
 10
7.273009987621966
 20
6.484426609442122
 30
0.0
 10
7.125172672040004
 20
6.638419066649559
 30
0.0
 10
7.0700311209111
 20
6.71838474009677
 30
0.0
 10
6.993843147924223
 20
6.873915947528123
 30
0.0
 10
6.972199189646736
 20
6.950680703456621
 30
0.0
 10
6.950487542448348
 20
7.095272979990133
 30
0.0
 10
6.95037637522739
 20
7.163791859371119
 30
0.0
 10
6.950376375227389
 20
7.228211196552692
 30
0.0
  0
SPLINE
  5
B6
330
1F
100
AcDbEntity
  8
0
  6
Continuous
 62
     4
370
    15
100
AcDbSpline
210
0.0
220
0.0
230
1.0
 70
     8
 71
     3
 72
    10
 73
     6
 74
     0
 42
0.000000001
 43
0.00000001
 40
0.0
 40
0.0
 40
0.0
 40
0.0
 40
0.5
 40
0.5
 40
1.0
 40
1.0
 40
1.0
 40
1.0
 10
10.00000000000001
 20
4.533247457146435
 30
0.0
 10
9.578268217162837
 20
4.879101345279753
 30
0.0
 10
9.161070848835413
 20
5.204617075712663
 30
0.0
 10
8.316247777338617
 20
5.811681258796244
 30
0.0
 10
7.893809540603635
 20
6.091811458472471
 30
0.0
 10
7.475022619277324
 20
6.344412651816231
 30
0.0
  0
LINE
  5
B7
330
1F
100
AcDbEntity
  8
0
  6
Continuous
 62
     1
370
    15
100
AcDbLine
 10
10.0
 20
4.53324745714645
 30
0.0
 11
10.0
 21
2.0862941014623
 31
0.0
  0
SPLINE
  5
B8
330
1F
100
AcDbEntity
  8
0
  6
Continuous
 62
     4
370
    15
100
AcDbSpline
210
0.0
220
0.0
230
1.0
 70
     8
 71
     3
 72
     8
 73
     4
 74
     0
 42
0.000000001
 43
0.00000001
 40
0.0
 40
0.0
 40
0.0
 40
0.0
 40
1.0
 40
1.0
 40
1.0
 40
1.0
 10
10.0
 20
2.0862941014623
 30
0.0
 10
9.866422232286174
 20
2.215051485210656
 30
0.0
 10
9.733119370967987
 20
2.342835309970844
 30
0.0
 10
9.600343116624675
 20
2.469408548968181
 30
0.0
  0
SPLINE
  5
B9
330
1F
100
AcDbEntity
  8
0
  6
Continuous
 62
     4
370
    15
100
AcDbSpline
210
0.0
220
0.0
230
1.0
 70
     8
 71
     3
 72
    10
 73
     6
 74
     0
 42
0.000000001
 43
0.00000001
 40
0.0
 40
0.0
 40
0.0
 40
0.0
 40
0.5
 40
0.5
 40
1.0
 40
1.0
 40
1.0
 40
1.0
 10
10.00000000000001
 20
-3.376086640275012
 30
0.0
 10
9.578268217162838
 20
-2.994770311085003
 30
0.0
 10
9.161070848835415
 20
-2.600592653521215
 30
0.0
 10
8.316247777338619
 20
-1.790379201003248
 30
0.0
 10
7.893809540603635
 20
-1.375951590625888
 30
0.0
 10
7.475022619277324
 20
-0.9586835013695725
 30
0.0
  0
LINE
  5
BA
330
1F
100
AcDbEntity
  8
0
  6
Continuous
 62
     1
370
    15
100
AcDbLine
 10
10.0
 20
-3.376086640275018
 30
0.0
 11
10.0
 21
-5.589232792066822
 31
0.0
  0
SPLINE
  5
BB
330
1F
100
AcDbEntity
  8
0
  6
Continuous
 62
     4
370
    15
100
AcDbSpline
210
0.0
220
0.0
230
1.0
 70
     8
 71
     3
 72
     8
 73
     4
 74
     0
 42
0.000000001
 43
0.00000001
 40
0.0
 40
0.0
 40
0.0
 40
0.0
 40
1.0
 40
1.0
 40
1.0
 40
1.0
 10
10.0
 20
-5.589232792066822
 30
0.0
 10
9.866422232286178
 20
-5.494477473333103
 30
0.0
 10
9.733119370967994
 20
-5.397415946694846
 30
0.0
 10
9.600343116624687
 20
-5.298246494595101
 30
0.0
  0
SPLINE
  5
BC
330
1F
100
AcDbEntity
  8
0
  6
Continuous
 62
     4
370
    15
100
AcDbSpline
210
0.0
220
0.0
230
1.0
 70
     8
 71
     3
 72
    22
 73
    18
 74
     0
 42
0.000000001
 43
0.00000001
 40
0.0
 40
0.0
 40
0.0
 40
0.0
 40
0.1250000000000001
 40
0.1250000000000001
 40
0.2500000000000001
 40
0.2500000000000001
 40
0.3750000000000002
 40
0.3750000000000002
 40
0.5000000000000002
 40
0.5000000000000002
 40
0.6250000000000001
 40
0.6250000000000001
 40
0.7500000000000001
 40
0.7500000000000001
 40
0.875
 40
0.875
 40
1.0
 40
1.0
 40
1.0
 40
1.0
 10
6.950376375227392
 20
-6.454466818442368
 30
0.0
 10
6.950376375227393
 20
-6.352015210672113
 30
0.0
 10
6.950715168585378
 20
-6.245006423147392
 30
0.0
 10
6.98134606199401
 20
-6.023772974975096
 30
0.0
 10
7.01159174134032
 20
-5.908120889420755
 30
0.0
 10
7.118041222983547
 20
-5.677887800499609
 30
0.0
 10
7.193689246770338
 20
-5.5641437497538
 30
0.0
 10
7.395020239968055
 20
-5.35265021352492
 30
0.0
 10
7.516820828651207
 20
-5.258233811007645
 30
0.0
 10
7.805199336388949
 20
-5.099886463539084
 30
0.0
 10
7.963503762085633
 20
-5.040446764757032
 30
0.0
 10
8.306306816075779
 20
-4.965695491088072
 30
0.0
 10
8.482507060447222
 20
-4.952411469833264
 30
0.0
 10
8.836498229804935
 20
-4.975036403027152
 30
0.0
 10
9.008391525794442
 20
-5.010811209239893
 30
0.0
 10
9.329414701850926
 20
-5.126198078484474
 30
0.0
 10
9.474515450777908
 20
-5.204266883988293
 30
0.0
 10
9.600343116624652
 20
-5.298246494595078
 30
0.0
  0
SPLINE
  5
BD
330
1F
100
AcDbEntity
  8
0
  6
Continuous
 62
     4
370
    15
100
AcDbSpline
210
0.0
220
0.0
230
1.0
 70
     8
 71
     3
 72
    14
 73
    10
 74
     0
 42
0.000000001
 43
0.00000001
 40
0.0
 40
0.0
 40
0.0
 40
0.0
 40
0.2500000000000001
 40
0.2500000000000001
 40
0.5000000000000001
 40
0.5000000000000001
 40
0.75
 40
0.75
 40
1.0
 40
1.0
 40
1.0
 40
1.0
 10
7.475022619277337
 20
-7.303096153185765
 30
0.0
 10
7.364175994525198
 20
-7.259511292506472
 30
0.0
 10
7.273009987621978
 20
-7.208462043672297
 30
0.0
 10
7.125172672040011
 20
-7.089556284065456
 30
0.0
 10
7.070031120911107
 20
-7.022169674742172
 30
0.0
 10
6.993843147924227
 20
-6.876708332643978
 30
0.0
 10
6.972199189646729
 20
-6.797539884428008
 30
0.0
 10
6.950487542448343
 20
-6.632082537616862
 30
0.0
 10
6.95037637522739
 20
-6.545208916774159
 30
0.0
 10
6.95037637522739
 20
-6.45446681844237
 30
0.0
  0
LINE
  5
BE
330
1F
100
AcDbEntity
  8
0
  6
Continuous
 62
     4
370
    15
100
AcDbLine
 10
-40.80000000000001
 20
7.437500000000003
 30
0.0
 11
-40.80000000000001
 21
-7.437499999999997
 31
0.0
  0
SPLINE
  5
BF
330
1F
100
AcDbEntity
  8
0
  6
Continuous
 62
     1
370
    15
100
AcDbSpline
210
0.0
220
0.0
230
1.0
 70
    24
 71
     3
 72
    18
 73
    14
 74
     0
 42
0.000000001
 43
0.00000001
 40
0.0
 40
0.0
 40
0.0
 40
0.0
 40
0.25
 40
0.25
 40
0.5
 40
0.5
 40
0.625
 40
0.625
 40
0.75
 40
0.75
 40
0.875
 40
0.875
 40
1.0
 40
1.0
 40
1.0
 40
1.0
 10
10.0
 20
2.086294101462264
 30
0.0
 10
10.0
 20
1.870437823661667
 30
0.0
 10
10.0
 20
1.597696170578526
 30
0.0
 10
10.0
 20
0.8998432471760344
 30
0.0
 10
10.0
 20
0.4724273123992885
 30
0.0
 10
10.0
 20
-0.2792431591267966
 30
0.0
 10
10.0
 20
-0.5475968792919738
 30
0.0
 10
10.0
 20
-1.10819325696173
 30
0.0
 10
10.0
 20
-1.40041070068401
 30
0.0
 10
10.0
 20
-1.988589647633249
 30
0.0
 10
10.0
 20
-2.284393801869006
 30
0.0
 10
10.0
 20
-2.8536603732165
 30
0.0
 10
10.0
 20
-3.126872732983599
 30
0.0
 10
10.0
 20
-3.376086640275024
 30
0.0
  0
SPLINE
  5
C0
330
1F
100
AcDbEntity
  8
0
  6
Continuous
 62
     1
370
    15
100
AcDbSpline
210
0.0
220
0.0
230
1.0
 70
    24
 71
     3
 72
    15
 73
    11
 74
     0
 42
0.000000001
 43
0.00000001
 40
0.0
 40
0.0
 40
0.0
 40
0.0
 40
0.0874097213635126
 40
0.2257650589412239
 40
0.3641203965189352
 40
0.5024757340966473
 40
0.6408310716743594
 40
0.779186409252071
 40
0.9175417468297828
 40
1.0
 40
1.0
 40
1.0
 40
1.0
 10
10.0
 20
-5.39481371530726
 30
0.0
 10
10.0
 20
-5.391093237899835
 30
0.0
 10
10.0
 20
-5.381483851345637
 30
0.0
 10
10.0
 20
-5.495021293490037
 30
0.0
 10
10.0
 20
-5.714212561478024
 30
0.0
 10
10.0
 20
-6.043415038165787
 30
0.0
 10
10.0
 20
-6.463147890394167
 30
0.0
 10
10.0
 20
-6.967342446237425
 30
0.0
 10
10.0
 20
-7.459229049747871
 30
0.0
 10
10.0
 20
-7.786952555189365
 30
0.0
 10
10.0
 20
-7.909334097421403
 30
0.0
  0
SPLINE
  5
C1
330
1F
100
AcDbEntity
  8
0
  6
Continuous
 62
     1
370
    15
100
AcDbSpline
210
0.0
220
0.0
230
1.0
 70
    24
 71
     3
 72
    16
 73
    12
 74
     0
 42
0.000000001
 43
0.00000001
 40
0.0
 40
0.0
 40
0.0
 40
0.0
 40
0.0563118354363342
 40
0.1825487333683491
 40
0.3087856313003639
 40
0.4350225292323786
 40
0.5612594271643933
 40
0.6874963250964085
 40
0.8137332230284239
 40
0.9399701209604386
 40
1.0
 40
1.0
 40
1.0
 40
1.0
 10
9.999999999999998
 20
7.675526893529134
 30
0.0
 10
9.999999999999998
 20
7.578479649556651
 30
0.0
 10
10.0
 20
7.263877020699077
 30
0.0
 10
10.0
 20
6.751465735867643
 30
0.0
 10
10.0
 20
6.169818531885153
 30
0.0
 10
10.0
 20
5.654456770255612
 30
0.0
 10
10.0
 20
5.217383140307555
 30
0.0
 10
10.0
 20
4.872504646046416
 30
0.0
 10
10.0
 20
4.633403219456533
 30
0.0
 10
10.0
 20
4.508558331927215
 30
0.0
 10
10.0
 20
4.505312946849619
 30
0.0
 10
10.0
 20
4.504267027245424
 30
0.0
  0
SPLINE
  5
C2
330
1F
100
AcDbEntity
  8
0
  6
Continuous
 62
     1
370
    15
100
AcDbSpline
210
0.0
220
0.0
230
1.0
 70
     8
 71
     3
 72
    16
 73
    12
 74
     0
 42
0.000000001
 43
0.00000001
 40
0.0
 40
0.0
 40
0.0
 40
0.0
 40
0.1164459024273427
 40
0.232873367879881
 40
0.3491419024436647
 40
0.4654728896966121
 40
0.5819785661424001
 40
0.7020657767830123
 40
0.8220960956061899
 40
0.9422414626065848
 40
1.0
 40
1.0
 40
1.0
 40
1.0
 10
10.00000000000001
 20
-3.376086640275009
 30
0.0
 10
10.45740637214073
 20
-3.780072344701343
 30
0.0
 10
11.37214669489782
 20
-4.587979790167591
 30
0.0
 10
12.74383031574119
 20
-5.635703287176371
 30
0.0
 10
14.1134791172094
 20
-6.523698976832188
 30
0.0
 10
15.4839132430496
 20
-7.215584310946758
 30
0.0
 10
16.87124204219174
 20
-7.696999591922578
 30
0.0
 10
18.27119780914236
 20
-7.949815813288832
 30
0.0
 10
19.68521320306683
 20
-7.940278243935201
 30
0.0
 10
20.85530411150762
 20
-7.763716482418444
 30
0.0
 10
21.55430619468839
 20
-7.503846247764886
 30
0.0
 10
21.78124521604962
 20
-7.419476403736915
 30
0.0
  0
SPLINE
  5
C3
330
1F
100
AcDbEntity
  8
0
  6
Continuous
 62
     1
370
    15
100
AcDbSpline
210
0.0
220
0.0
230
1.0
 70
     8
 71
     3
 72
    27
 73
    23
 74
     0
 42
0.000000001
 43
0.00000001
 40
0.0
 40
0.0
 40
0.0
 40
0.0
 40
0.044766193926368
 40
0.0957507152145763
 40
0.1467791709105431
 40
0.1978572085702806
 40
0.2488598793400558
 40
0.2998470577424497
 40
0.3508917448900039
 40
0.4019587836265627
 40
0.4529530242509432
 40
0.5039454011200183
 40
0.5550081934280784
 40
0.6060577563863183
 40
0.6570461040396645
 40
0.7080462176521933
 40
0.759121954387284
 40
0.8101545991911062
 40
0.8611395945340097
 40
0.9121499785915003
 40
0.9632315429113767
 40
1.0
 40
1.0
 40
1.0
 40
1.0
 10
43.91868606926361
 20
7.923969352372443
 30
0.0
 10
44.33254040891261
 20
7.910737616316085
 30
0.0
 10
45.21773625739658
 20
7.882436166498603
 30
0.0
 10
46.57390398284259
 20
7.532884306873065
 30
0.0
 10
47.98919830568659
 20
6.953545835635936
 30
0.0
 10
49.40595304208682
 20
6.148011128626012
 30
0.0
 10
50.82046805218832
 20
5.148425313998225
 30
0.0
 10
52.23454671870536
 20
3.985163119095862
 30
0.0
 10
53.6502973666563
 20
2.696082130809286
 30
0.0
 10
55.06672434399367
 20
1.322047648946187
 30
0.0
 10
56.48100369442722
 20
-0.0950329050506215
 30
0.0
 10
57.89523110301518
 20
-1.509075188265426
 30
0.0
 10
59.31152909726872
 20
-2.874262846940441
 30
0.0
 10
60.72742661626421
 20
-4.148676785371297
 30
0.0
 10
62.141539363682
 20
-5.292099104895755
 30
0.0
 10
63.55598039611357
 20
-6.267677683501534
 30
0.0
 10
64.97267335316137
 20
-7.043900532190113
 30
0.0
 10
66.388060704163
 20
-7.596809492904878
 30
0.0
 10
67.80208402123853
 20
-7.911084335900079
 30
0.0
 10
69.21679305757382
 20
-7.966063697497728
 30
0.0
 10
70.50187935100618
 20
-7.815327275916803
 30
0.0
 10
71.31385498362803
 20
-7.540330653440651
 30
0.0
 10
71.6536965764518
 20
-7.425234477584143
 30
0.0
  0
SPLINE
  5
C4
330
1F
100
AcDbEntity
  8
0
  6
Continuous
 62
     1
370
    15
100
AcDbSpline
210
0.0
220
0.0
230
1.0
 70
    24
 71
     3
 72
    18
 73
    14
 74
     0
 42
0.000000001
 43
0.00000001
 40
0.0
 40
0.0
 40
0.0
 40
0.0
 40
0.2499999999999999
 40
0.2499999999999999
 40
0.4999999999999998
 40
0.4999999999999998
 40
0.6249999999999998
 40
0.6249999999999998
 40
0.7499999999999999
 40
0.7499999999999999
 40
0.875
 40
0.875
 40
1.0
 40
1.0
 40
1.0
 40
1.0
 10
10.0
 20
2.086294101462269
 30
0.0
 10
10.0
 20
1.870437823661672
 30
0.0
 10
10.0
 20
1.59769617057853
 30
0.0
 10
10.0
 20
0.8998432471760399
 30
0.0
 10
10.0
 20
0.4724273123992943
 30
0.0
 10
10.0
 20
-0.2792431591267913
 30
0.0
 10
10.0
 20
-0.5475968792919702
 30
0.0
 10
10.0
 20
-1.108193256961727
 30
0.0
 10
10.0
 20
-1.400410700684005
 30
0.0
 10
10.0
 20
-1.988589647633246
 30
0.0
 10
10.0
 20
-2.284393801869006
 30
0.0
 10
10.0
 20
-2.8536603732165
 30
0.0
 10
10.0
 20
-3.126872732983599
 30
0.0
 10
10.0
 20
-3.376086640275024
 30
0.0
  0
SPLINE
  5
C5
330
1F
100
AcDbEntity
  8
0
  6
Continuous
 62
     1
370
    15
100
AcDbSpline
210
0.0
220
0.0
230
1.0
 70
     8
 71
     3
 72
    18
 73
    14
 74
     0
 42
0.000000001
 43
0.00000001
 40
0.0
 40
0.0
 40
0.0
 40
0.0
 40
0.0940927762684023
 40
0.1881706547507152
 40
0.2821201109506979
 40
0.3761200313300664
 40
0.4702611073086946
 40
0.567296200926986
 40
0.6642853237645302
 40
0.7613674099625137
 40
0.8585271169656508
 40
0.9555431055079529
 40
1.0
 40
1.0
 40
1.0
 40
1.0
 10
10.00000000000001
 20
2.086294101462291
 30
0.0
 10
10.45740637352711
 20
1.639238338341711
 30
0.0
 10
11.37214669905675
 20
0.745197594804528
 30
0.0
 10
12.74383029911801
 20
-0.6337965124767033
 30
0.0
 10
14.11347917946574
 20
-1.990584828931148
 30
0.0
 10
15.48391301032864
 20
-3.289136331696914
 30
0.0
 10
16.87124292348423
 20
-4.500889688204495
 30
0.0
 10
18.27119440820833
 20
-5.588883087712057
 30
0.0
 10
19.68522588114198
 20
-6.509767377015152
 30
0.0
 10
21.10064868905953
 20
-7.227908699212753
 30
0.0
 10
22.51734003658845
 20
-7.702455587786492
 30
0.0
 10
23.67646468284966
 20
-7.934889796694406
 30
0.0
 10
24.36377896865544
 20
-7.913077307490288
 30
0.0
 10
24.57976282387613
 20
-7.906222880618102
 30
0.0
  0
SPLINE
  5
C6
330
1F
100
AcDbEntity
  8
0
  6
Continuous
 62
     1
370
    15
100
AcDbSpline
210
0.0
220
0.0
230
1.0
 70
     8
 71
     3
 72
    27
 73
    23
 74
     0
 42
0.000000001
 43
0.00000001
 40
0.0
 40
0.0
 40
0.0
 40
0.0
 40
0.0458493835948485
 40
0.0969270205173186
 40
0.1479292911411245
 40
0.1989160695190955
 40
0.249960356191037
 40
0.3010269942766218
 40
0.352020834821172
 40
0.4030128116250394
 40
0.4540752033154405
 40
0.5051243657598146
 40
0.5561123133795646
 40
0.6071120268661864
 40
0.658187362882062
 40
0.7092196073047505
 40
0.7602042026403585
 40
0.8112141864913646
 40
0.8622953500463051
 40
0.9133131909207575
 40
0.9642969765967627
 40
1.0
 40
1.0
 40
1.0
 40
1.0
 10
46.71726908287458
 20
7.438262470488946
 30
0.0
 10
47.14109292364803
 20
7.570644122310164
 30
0.0
 10
48.03706968253719
 20
7.85050304463673
 30
0.0
 10
49.4059665903672
 20
7.975235112722167
 30
0.0
 10
50.82046442556869
 20
7.873266463172551
 30
0.0
 10
52.23454769154229
 20
7.515729237702278
 30
0.0
 10
53.65029710571179
 20
6.921598203111818
 30
0.0
 10
55.06672441385261
 20
6.108011050442376
 30
0.0
 10
56.48100367558274
 20
5.100175322904581
 30
0.0
 10
57.89523110859034
 20
3.930497970406947
 30
0.0
 10
59.3115290938379
 20
2.637134310953286
 30
0.0
 10
60.7274266244027
 20
1.259912497023617
 30
0.0
 10
62.14153933459097
 20
-0.1578742277361334
 30
0.0
 10
63.55598050444897
 20
-1.570794410431926
 30
0.0
 10
64.97267294841693
 20
-2.932562678325826
 30
0.0
 10
66.38806221257673
 20
-4.202297581530416
 30
0.0
 10
67.80207839629803
 20
-5.339087421219751
 30
0.0
 10
69.21681407485325
 20
-6.305968540393324
 30
0.0
 10
70.63367573450729
 20
-7.074570112914794
 30
0.0
 10
72.04867128728787
 20
-7.610450252946769
 30
0.0
 10
73.32099380472523
 20
-7.90627591333405
 30
0.0
 10
74.12248023991141
 20
-7.909636746092112
 30
0.0
 10
74.45258223878268
 20
-7.911020946201567
 30
0.0
  0
SPLINE
  5
C7
330
1F
100
AcDbEntity
  8
0
  6
Continuous
 62
     1
370
    15
100
AcDbSpline
210
0.0
220
0.0
230
1.0
 70
     8
 71
     3
 72
    16
 73
    12
 74
     0
 42
0.000000001
 43
0.00000001
 40
0.0
 40
0.0
 40
0.0
 40
0.0
 40
0.2500000000000193
 40
0.2500000000000193
 40
0.375000000000023
 40
0.375000000000023
 40
0.5000000000000266
 40
0.5000000000000266
 40
0.7500000000000133
 40
0.7500000000000133
 40
1.0
 40
1.0
 40
1.0
 40
1.0
 10
86.2
 20
-3.715775729237213
 30
0.0
 10
86.2
 20
-3.828607527234776
 30
0.0
 10
86.18619627883184
 20
-3.939010207517119
 30
0.0
 10
86.12416239104677
 20
-4.068178739357021
 30
0.0
 10
86.09679048303771
 20
-4.103695632457617
 30
0.0
 10
86.03028645829913
 20
-4.153772005214901
 30
0.0
 10
85.99169207109351
 20
-4.168022047359941
 30
0.0
 10
85.8680414545674
 20
-4.181807984287676
 30
0.0
 10
85.7792619805535
 20
-4.154264433387113
 30
0.0
 10
85.60651785092496
 20
-4.066288417097838
 30
0.0
 10
85.5206079666583
 20
-4.004487733496271
 30
0.0
 10
85.438
 20
-3.932885438819127
 30
0.0
  0
SPLINE
  5
C8
330
1F
100
AcDbEntity
  8
0
  6
Continuous
 62
     1
370
    15
100
AcDbSpline
210
0.0
220
0.0
230
1.0
 70
     8
 71
     3
 72
    28
 73
    24
 74
     0
 42
0.000000001
 43
0.00000001
 40
0.0
 40
0.0
 40
0.0
 40
0.0
 40
0.0253641695468934
 40
0.0763968730024397
 40
0.1274703790373961
 40
0.1784683372356701
 40
0.2294557535275842
 40
0.2805056000146702
 40
0.331565523282485
 40
0.3825559727075087
 40
0.4335495098084898
 40
0.4846164681121392
 40
0.5356582368630654
 40
0.5866437160616071
 40
0.637645910692068
 40
0.6887232286568193
 40
0.7397489920340807
 40
0.7907320424936963
 40
0.8417454262554217
 40
0.8928259850834104
 40
0.9438382607713043
 40
0.9948214254169906
 40
1.0
 40
1.0
 40
1.0
 40
1.0
 10
18.98168592429749
 20
7.906006772679892
 30
0.0
 10
19.21607846080233
 20
7.912115994073954
 30
0.0
 10
19.92206872833201
 20
7.930516967546512
 30
0.0
 10
21.1006636067679
 20
7.688535985706539
 30
0.0
 10
22.51731775653809
 20
7.203970321489636
 30
0.0
 10
23.9317398508814
 20
6.477241162676953
 30
0.0
 10
25.34586390631151
 20
5.548620742643699
 30
0.0
 10
26.76181124818681
 20
4.443615771986269
 30
0.0
 10
28.17806335564533
 20
3.198276134942843
 30
0.0
 10
29.59227474398731
 20
1.850574791911193
 30
0.0
 10
31.00657214090417
 20
0.4441320798518013
 30
0.0
 10
32.42303807525137
 20
-0.9751924069448514
 30
0.0
 10
33.83874159424084
 20
-2.364212500947667
 30
0.0
 10
35.2528110324749
 20
-3.67869017742441
 30
0.0
 10
36.66734879686351
 20
-4.876601868176449
 30
0.0
 10
38.08413104867701
 20
-5.918832943011089
 30
0.0
 10
39.49935597585429
 20
-6.774189798436953
 30
0.0
 10
40.91335456331302
 20
-7.415184477223321
 30
0.0
 10
42.32821969823954
 20
-7.819285869860548
 30
0.0
 10
43.74508126562209
 20
-7.981746540211563
 30
0.0
 10
45.15998274279123
 20
-7.867356531518593
 30
0.0
 10
46.15013001279239
 20
-7.675035676424296
 30
0.0
 10
46.66938911958695
 20
-7.458251734155859
 30
0.0
 10
46.71726908287464
 20
-7.438262470488927
 30
0.0
  0
SPLINE
  5
C9
330
1F
100
AcDbEntity
  8
0
  6
Continuous
 62
     1
370
    15
100
AcDbSpline
210
0.0
220
0.0
230
1.0
 70
     8
 71
     3
 72
    19
 73
    15
 74
     0
 42
0.000000001
 43
0.00000001
 40
0.0
 40
0.0
 40
0.0
 40
0.0
 40
0.0218459271997118
 40
0.1072841071953424
 40
0.1926163738914934
 40
0.2778916799788373
 40
0.3632322108964194
 40
0.4486682273903098
 40
0.5405431473209379
 40
0.632380825730199
 40
0.7242401362007439
 40
0.8161797226003564
 40
0.9081335076430994
 40
1.0
 40
1.0
 40
1.0
 40
1.0
 10
68.85425874182374
 20
7.913502520013338
 30
0.0
 10
68.97498066252811
 20
7.920674834565744
 30
0.0
 10
69.56783915570507
 20
7.955897663802726
 30
0.0
 10
70.63374177017424
 20
7.767881784520176
 30
0.0
 10
72.04863063998202
 20
7.345905219500396
 30
0.0
 10
73.46263736644467
 20
6.671022941707239
 30
0.0
 10
74.87776632780441
 20
5.7898662745087
 30
0.0
 10
76.33080482257856
 20
4.697446332044128
 30
0.0
 10
77.8182566124365
 20
3.413223409076041
 30
0.0
 10
79.34113451511634
 20
1.973018662020343
 30
0.0
 10
80.86442598681342
 20
0.4592919135425236
 30
0.0
 10
82.38928638642652
 20
-1.068259859344853
 30
0.0
 10
83.9144167839993
 20
-2.566770846603504
 30
0.0
 10
84.93029973570573
 20
-3.477658095645377
 30
0.0
 10
85.43800000000002
 20
-3.932885438819137
 30
0.0
  0
SPLINE
  5
CA
330
1F
100
AcDbEntity
  8
0
  6
Continuous
 62
     1
370
    15
100
AcDbSpline
210
0.0
220
0.0
230
1.0
 70
     8
 71
     3
 72
    28
 73
    24
 74
     0
 42
0.000000001
 43
0.00000001
 40
0.0
 40
0.0
 40
0.0
 40
0.0
 40
0.0265403661450966
 40
0.0775388235813619
 40
0.1285267390080686
 40
0.1795770852410996
 40
0.2306375083535047
 40
0.2816284569430136
 40
0.3326224932387062
 40
0.3836899514558146
 40
0.4347322198736098
 40
0.4857181981879815
 40
0.5367208920979055
 40
0.5877987100775305
 40
0.6388249729649783
 40
0.6898085225166478
 40
0.7408224056673711
 40
0.7919034645419593
 40
0.842916239608004
 40
0.8938999033468621
 40
0.9449275007545104
 40
0.9960046792919707
 40
1.0
 40
1.0
 40
1.0
 40
1.0
 10
21.78124521604968
 20
7.419476403736927
 30
0.0
 10
22.02676585090476
 20
7.509443755409327
 30
0.0
 10
22.74406496756103
 20
7.772287250908636
 30
0.0
 10
23.93172867411643
 20
7.945586939037604
 30
0.0
 10
25.3458669049265
 20
7.944442037176237
 30
0.0
 10
26.76181044408423
 20
7.679535857426882
 30
0.0
 10
28.17806357078623
 20
7.174581212389737
 30
0.0
 10
29.59227468640297
 20
6.440897066541914
 30
0.0
 10
31.0065721562453
 20
5.503046293025802
 30
0.0
 10
32.42303807156634
 20
4.391573803645655
 30
0.0
 10
33.83874159363873
 20
3.140472922041471
 30
0.0
 10
35.25281103855609
 20
1.789380809805062
 30
0.0
 10
36.66734877311497
 20
0.3813471368597823
 30
0.0
 10
38.08413113769103
 20
-1.037304168175898
 30
0.0
 10
39.49935564408268
 20
-2.424246323104484
 30
0.0
 10
40.91335580071572
 20
-3.734391153075218
 30
0.0
 10
42.32821507441442
 20
-4.926055480300761
 30
0.0
 10
43.74509853720193
 20
-5.961002752968558
 30
0.0
 10
45.1599183987164
 20
-6.806089303843057
 30
0.0
 10
46.57395028831677
 20
-7.442434875522165
 30
0.0
 10
47.98910759392234
 20
-7.815660513749068
 30
0.0
 10
48.97117526487898
 20
-7.97253947502394
 30
0.0
 10
49.48020007519663
 20
-7.931398832804157
 30
0.0
 10
49.51712807725622
 20
-7.92841422048305
 30
0.0
  0
SPLINE
  5
CB
330
1F
100
AcDbEntity
  8
0
  6
Continuous
 62
     1
370
    15
100
AcDbSpline
210
0.0
220
0.0
230
1.0
 70
     8
 71
     3
 72
    17
 73
    13
 74
     0
 42
0.000000001
 43
0.00000001
 40
0.0
 40
0.0
 40
0.0
 40
0.0
 40
0.0301071557716873
 40
0.1378273018634721
 40
0.2456298402510407
 40
0.3535529964434759
 40
0.4612758991180869
 40
0.5689556916604078
 40
0.6767471881064479
 40
0.7846081011212959
 40
0.8923108217228748
 40
1.0
 40
1.0
 40
1.0
 40
1.0
 10
71.65369657645185
 20
7.425234477584167
 30
0.0
 10
71.78543332560317
 20
7.477638431360679
 30
0.0
 10
72.38850991076718
 20
7.717538062224738
 30
0.0
 10
73.46259423863354
 20
7.9066109769647
 30
0.0
 10
74.87775833647811
 20
7.971157078639317
 30
0.0
 10
76.29438176536422
 20
7.765397680929913
 30
0.0
 10
77.70861606338397
 20
7.318152857643155
 30
0.0
 10
79.12208150527526
 20
6.637686411431856
 30
0.0
 10
80.53707034338284
 20
5.747767204935318
 30
0.0
 10
81.95307981555914
 20
4.675066150037759
 30
0.0
 10
83.36677083435471
 20
3.457983635272693
 30
0.0
 10
84.30897279882748
 20
2.562217462816439
 30
0.0
 10
84.78004416155457
 20
2.114362536319957
 30
0.0
  0
SPLINE
  5
CC
330
1F
100
AcDbEntity
  8
0
  6
Continuous
 62
     1
370
    15
100
AcDbSpline
210
0.0
220
0.0
230
1.0
 70
     8
 71
     3
 72
    18
 73
    14
 74
     0
 42
0.000000001
 43
0.00000001
 40
0.0
 40
0.0
 40
0.0
 40
0.0
 40
0.2500000000000031
 40
0.2500000000000031
 40
0.5000000000000061
 40
0.5000000000000061
 40
0.6250000000000046
 40
0.6250000000000046
 40
0.7500000000000029
 40
0.7500000000000029
 40
0.8750000000000014
 40
0.8750000000000014
 40
1.0
 40
1.0
 40
1.0
 40
1.0
 10
84.78004416153819
 20
2.114362536335752
 30
0.0
 10
84.75323747711822
 20
1.992138632474813
 30
0.0
 10
84.71400748351807
 20
1.864923748378937
 30
0.0
 10
84.60350971755392
 20
1.597623019780101
 30
0.0
 10
84.53168999582064
 20
1.456324509309092
 30
0.0
 10
84.39109535915182
 20
1.234432393112107
 30
0.0
 10
84.33943097463724
 20
1.159916049977068
 30
0.0
 10
84.2251199295192
 20
1.009619575327548
 30
0.0
 10
84.1617249177974
 20
0.9330609854575334
 30
0.0
 10
84.02542125201094
 20
0.7824677993752637
 30
0.0
 10
83.95304306955367
 20
0.7088823296042875
 30
0.0
 10
83.79946967122633
 20
0.5652811447210861
 30
0.0
 10
83.71724271411207
 20
0.4944706811508677
 30
0.0
 10
83.63293193635127
 20
0.4277506606739661
 30
0.0
  0
SPLINE
  5
CD
330
1F
100
AcDbEntity
  8
0
  6
Continuous
 62
     1
370
    15
100
AcDbSpline
210
0.0
220
0.0
230
1.0
 70
     8
 71
     3
 72
     8
 73
     4
 74
     0
 42
0.000000001
 43
0.00000001
 40
0.0
 40
0.0
 40
0.0
 40
0.0
 40
1.0
 40
1.0
 40
1.0
 40
1.0
 10
86.2
 20
-1.366360276448569
 30
0.0
 10
85.34343154747684
 20
-0.7747371623355963
 30
0.0
 10
84.48773586070884
 20
-0.1767463829160929
 30
0.0
 10
83.63293193635124
 20
0.427750660673979
 30
0.0
  0
LINE
  5
CE
330
1F
100
AcDbEntity
  8
0
  6
Continuous
 62
     1
370
    15
100
AcDbLine
 10
86.2
 20
-3.715775729237206
 30
0.0
 11
86.2
 21
-1.366360276448569
 31
0.0
  0
SPLINE
  5
CF
330
1F
100
AcDbEntity
  8
0
  6
Continuous
 62
     1
370
    15
100
AcDbSpline
210
0.0
220
0.0
230
1.0
 70
     8
 71
     3
 72
    12
 73
     8
 74
     0
 42
0.000000001
 43
0.00000001
 40
0.0
 40
0.0
 40
0.0
 40
0.0
 40
0.2188649892830455
 40
0.4376953254936439
 40
0.6562269443896873
 40
0.8748759457514043
 40
1.0
 40
1.0
 40
1.0
 40
1.0
 10
10.00000000000001
 20
-5.58923279206683
 30
0.0
 10
10.45740629260626
 20
-5.897559669438305
 30
0.0
 10
11.372146456307
 20
-6.514164606535021
 30
0.0
 10
12.74383126938546
 20
-7.202883756966
 30
0.0
 10
14.11347554566558
 20
-7.67888872259676
 30
0.0
 10
15.28790469336737
 20
-7.92287068749419
 30
0.0
 10
16.00665109323966
 20
-7.912329813495174
 30
0.0
 10
16.26825525930481
 20
-7.908493221683931
 30
0.0
  0
SPLINE
  5
D0
330
1F
100
AcDbEntity
  8
0
  6
Continuous
 62
     1
370
    15
100
AcDbSpline
210
0.0
220
0.0
230
1.0
 70
     8
 71
     3
 72
    27
 73
    23
 74
     0
 42
0.000000001
 43
0.00000001
 40
0.0
 40
0.0
 40
0.0
 40
0.0
 40
0.0394100547412155
 40
0.0903942685536746
 40
0.1414088163604018
 40
0.1924905407662211
 40
0.2435039804738325
 40
0.294488308474968
 40
0.3455165707173021
 40
0.3965944147354371
 40
0.4475968921493331
 40
0.4985838772545804
 40
0.5496283708869671
 40
0.6006952160236217
 40
0.6516892633240822
 40
0.7026814468763031
 40
0.7537440456005569
 40
0.804793415025145
 40
0.8557815693769122
 40
0.9067814896432563
 40
0.9578570327454677
 40
1.0
 40
1.0
 40
1.0
 40
1.0
 10
38.40657975720649
 20
7.428246197588166
 30
0.0
 10
38.7709726886161
 20
7.548853318562341
 30
0.0
 10
39.60677544801833
 20
7.825488115301749
 30
0.0
 10
40.91333295843836
 20
7.969627134029147
 30
0.0
 10
42.32822160920253
 20
7.900879953875811
 30
0.0
 10
43.74509528061668
 20
7.574446782286941
 30
0.0
 10
45.15992488418593
 20
7.009551829804151
 30
0.0
 10
46.57392760324498
 20
6.22182686021494
 30
0.0
 10
47.98919196715845
 20
5.236969156544212
 30
0.0
 10
49.40595473838199
 20
4.086996578388703
 30
0.0
 10
50.82046759822374
 20
2.806254302127147
 30
0.0
 10
52.23454684010119
 20
1.43663465160516
 30
0.0
 10
53.65029733551346
 20
0.0219387029244761
 30
0.0
 10
55.06672434703516
 20
-1.392915628484457
 30
0.0
 10
56.48100371332561
 20
-2.764774539889736
 30
0.0
 10
57.89523102433128
 20
-4.048845437699613
 30
0.0
 10
59.3115293935208
 20
-5.203814073837471
 30
0.0
 10
60.72742551098297
 20
-6.193630848279453
 30
0.0
 10
62.14154348372122
 20
-6.989389783979892
 30
0.0
 10
63.5559650056656
 20
-7.556281390962125
 30
0.0
 10
64.89047308259681
 20
-7.889505585074962
 30
0.0
 10
65.75221981432753
 20
-7.910076804317389
 30
0.0
 10
66.1418051462326
 20
-7.919376805096221
 30
0.0
  0
SPLINE
  5
D1
330
1F
100
AcDbEntity
  8
0
  6
Continuous
 62
     1
370
    15
100
AcDbSpline
210
0.0
220
0.0
230
1.0
 70
     8
 71
     3
 72
    28
 73
    24
 74
     0
 42
0.000000001
 43
0.00000001
 40
0.0
 40
0.0
 40
0.0
 40
0.0
 40
0.0232440548478518
 40
0.0726579622253386
 40
0.1221460723221414
 40
0.1731555105117552
 40
0.2241407827670497
 40
0.2751749240305699
 40
0.3262498690230821
 40
0.3772492640504085
 40
0.4282381168743648
 40
0.4792894016524166
 40
0.5303507634951029
 40
0.5813426495376252
 40
0.6323376233430975
 40
0.6834060204198253
 40
0.7344492272341332
 40
0.7854361429101413
 40
0.8364397744890126
 40
0.8875185315187182
 40
0.9385457325084219
 40
0.9895302193770756
 40
1.0
 40
1.0
 40
1.0
 40
1.0
 10
13.46893902838251
 20
7.421401240153128
 30
0.0
 10
13.68372965298634
 20
7.501491964025563
 30
0.0
 10
14.35513785568485
 20
7.751845391076661
 30
0.0
 10
15.48389504641971
 20
7.930674394333918
 30
0.0
 10
16.87124781413484
 20
7.957547908424184
 30
0.0
 10
18.27119343397769
 20
7.726450180700743
 30
0.0
 10
19.68522483180536
 20
7.251263704040444
 30
0.0
 10
21.10065386918315
 20
6.545289393175345
 30
0.0
 10
22.5173203623162
 20
5.632719304948683
 30
0.0
 10
23.93173915326863
 20
4.54057803300216
 30
0.0
 10
25.34586409355889
 20
3.304498240857038
 30
0.0
 10
26.76181119765793
 20
1.96425832318336
 30
0.0
 10
28.17806337034717
 20
0.5620207219304669
 30
0.0
 10
29.5922747356457
 20
-0.8590226978189512
 30
0.0
 10
31.00657215959247
 20
-2.252842041083594
 30
0.0
 10
32.42303800875682
 20
-3.574128687978066
 30
0.0
 10
33.83874184124312
 20
-4.782596306267171
 30
0.0
 10
35.2528101118815
 20
-5.840184333907481
 30
0.0
 10
36.66735223602397
 20
-6.711040748641491
 30
0.0
 10
38.08411819811535
 20
-7.374246650113851
 30
0.0
 10
39.49940386159069
 20
-7.782498423359464
 30
0.0
 10
40.53859088702539
 20
-7.960769363495603
 30
0.0
 10
41.106697413871
 20
-7.923332257448199
 30
0.0
 10
41.20348403177903
 20
-7.916954209129142
 30
0.0
  0
SPLINE
  5
D2
330
1F
100
AcDbEntity
  8
0
  6
Continuous
 62
     1
370
    15
100
AcDbSpline
210
0.0
220
0.0
230
1.0
 70
     8
 71
     3
 72
    23
 73
    19
 74
     0
 42
0.000000001
 43
0.00000001
 40
0.0
 40
0.0
 40
0.0
 40
0.0
 40
0.01004960676659
 40
0.0761221950978753
 40
0.1421390388502839
 40
0.2080942423128654
 40
0.2740822891213179
 40
0.3401624161321238
 40
0.4061606270220326
 40
0.4721147830846402
 40
0.5381193857399386
 40
0.6041978394418119
 40
0.6701536832861443
 40
0.7360831319528228
 40
0.8020809739235024
 40
0.8681213177972946
 40
0.9340648046996546
 40
0.9999999999999999
 40
0.9999999999999999
 40
0.9999999999999999
 40
0.9999999999999999
 10
63.34017883789951
 20
7.433783391160935
 30
0.0
 10
63.41197757100005
 20
7.463396793129316
 30
0.0
 10
63.95582742461133
 20
7.687707775091644
 30
0.0
 10
64.97274331664278
 20
7.879482041904289
 30
0.0
 10
66.38804325844116
 20
7.979516423291961
 30
0.0
 10
67.8020839443975
 20
7.804441619834961
 30
0.0
 10
69.21681083400286
 20
7.387645384871649
 30
0.0
 10
70.63368314696677
 20
6.735723452221888
 30
0.0
 10
72.04864492426225
 20
5.870042895038257
 30
0.0
 10
73.46263877236481
 20
4.818114169069531
 30
0.0
 10
74.87774638422813
 20
3.613375499341993
 30
0.0
 10
76.29438496288985
 20
2.295478698584455
 30
0.0
 10
77.70861520769581
 20
0.9035616882117179
 30
0.0
 10
79.12208173477245
 20
-0.5163866180395412
 30
0.0
 10
80.53707028183628
 20
-1.920558775322075
 30
0.0
 10
81.95307983194918
 20
-3.259761135542977
 30
0.0
 10
83.3667708302603
 20
-4.509645528272718
 30
0.0
 10
84.30897279746276
 20
-5.215582457865987
 30
0.0
 10
84.78004416155459
 20
-5.568528730493386
 30
0.0
  0
ELLIPSE
  5
D4
330
1F
100
AcDbEntity
  8
0
  6
Continuous
 62
     1
370
    15
100
AcDbEllipse
 10
87.62814800674211
 20
0.000000000000014
 30
0.0
 11
11.18322645805124
 21
7.430697861030159
 31
0.0
210
0.0
220
0.0
230
1.0
 40
0.2495534463455958
 41
4.294101075668092
 42
4.353641424318534
  0
SPLINE
  5
D5
330
1F
100
AcDbEntity
  8
0
  6
Continuous
 62
     1
370
    15
100
AcDbSpline
210
0.0
220
0.0
230
1.0
 70
     8
 71
     3
 72
    22
 73
    18
 74
     0
 42
0.000000001
 43
0.00000001
 40
0.0
 40
0.0
 40
0.0
 40
0.0
 40
0.06827402829501
 40
0.1365372467073773
 40
0.2047072814888087
 40
0.2729139332449741
 40
0.3412230079687685
 40
0.4116319914215072
 40
0.4820076183243602
 40
0.5524506997476635
 40
0.6229501030827811
 40
0.6933452238294715
 40
0.7637257930372903
 40
0.8341925378741466
 40
0.9046731922128967
 40
0.9750579482113054
 40
1.0
 40
1.0
 40
1.0
 40
1.0
 10
10.00000000000001
 20
4.533247457146434
 30
0.0
 10
10.45740637337396
 20
4.144956249588184
 30
0.0
 10
11.37214669859731
 20
3.368435312935596
 30
0.0
 10
12.74383030095438
 20
2.06807969005288
 30
0.0
 10
14.11347917258826
 20
0.7148038877214213
 30
0.0
 10
15.48391303603741
 20
-0.6621972280480133
 30
0.0
 10
16.87124282612753
 20
-2.031732248583403
 30
0.0
 10
18.27119478391073
 20
-3.355564437469983
 30
0.0
 10
19.68522448059047
 20
-4.586559483788045
 30
0.0
 10
21.10065392303695
 20
-5.671989618807812
 30
0.0
 10
22.51732049865931
 20
-6.576942749035631
 30
0.0
 10
23.93173855524157
 20
-7.274536738461815
 30
0.0
 10
25.34586635033978
 20
-7.740132433620569
 30
0.0
 10
26.76180275647335
 20
-7.964384684553592
 30
0.0
 10
28.1780948625554
 20
-7.920514349843743
 30
0.0
 10
29.28795144257295
 20
-7.735050791451076
 30
0.0
 10
29.92625711162869
 20
-7.486914441641509
 30
0.0
 10
30.09326840073178
 20
-7.421990105756584
 30
0.0
  0
SPLINE
  5
D6
330
1F
100
AcDbEntity
  8
0
  6
Continuous
 62
     1
370
    15
100
AcDbSpline
210
0.0
220
0.0
230
1.0
 70
     8
 71
     3
 72
    28
 73
    24
 74
     0
 42
0.000000001
 43
0.00000001
 40
0.0
 40
0.0
 40
0.0
 40
0.0
 40
0.0001663545408968
 40
0.0512226522262358
 40
0.1023013065846339
 40
0.1533071462723188
 40
0.2043111217807717
 40
0.2553855287447857
 40
0.3064467033498539
 40
0.3574466487260994
 40
0.4084583627377926
 40
0.4595457170731545
 40
0.5105899696756304
 40
0.5615865619789221
 40
0.6126085487716751
 40
0.6637017320173554
 40
0.7147315776823575
 40
0.7657273601355296
 40
0.8167621479163397
 40
0.8678540373588177
 40
0.9227964778454696
 40
0.9777166474003712
 40
1.0
 40
1.0
 40
1.0
 40
1.0
 10
52.2295835124076
 20
7.937091201104766
 30
0.0
 10
52.23112053861084
 20
7.937227422951543
 30
0.0
 10
52.70439020858954
 20
7.979171840250461
 30
0.0
 10
53.6503492406778
 20
7.832866875091185
 30
0.0
 10
55.06671046394236
 20
7.481290372343806
 30
0.0
 10
56.48100741088703
 20
6.861211355792653
 30
0.0
 10
57.89523010614012
 20
6.031721256874973
 30
0.0
 10
59.31152936269663
 20
5.009484909351953
 30
0.0
 10
60.72742655185804
 20
3.828874870818578
 30
0.0
 10
62.14153935629334
 20
2.52615829258528
 30
0.0
 10
63.55598049014439
 20
1.143195137452687
 30
0.0
 10
64.97267298393976
 20
-0.2746179421937317
 30
0.0
 10
66.38806208497697
 20
-1.684727759032592
 30
0.0
 10
67.80207887084136
 20
-3.041582020719218
 30
0.0
 10
69.21681230209249
 20
-4.302098864756531
 30
0.0
 10
70.63368235715984
 20
-5.425049735827466
 30
0.0
 10
72.04864661347655
 20
-6.377042052364391
 30
0.0
 10
73.4626328063718
 20
-7.126985533984582
 30
0.0
 10
74.87776858947849
 20
-7.649797884312243
 30
0.0
 10
76.33080016825511
 20
-7.941183536074521
 30
0.0
 10
77.81827419256518
 20
-7.949070290023566
 30
0.0
 10
79.03936927928
 20
-7.771526876736213
 30
0.0
 10
79.75291576947683
 20
-7.497451889151074
 30
0.0
 10
79.95886761718474
 20
-7.418345270480568
 30
0.0
  0
SPLINE
  5
D7
330
1F
100
AcDbEntity
  8
0
  6
Continuous
 62
     1
370
    15
100
AcDbSpline
210
0.0
220
0.0
230
1.0
 70
     8
 71
     3
 72
    27
 73
    23
 74
     0
 42
0.000000001
 43
0.00000001
 40
0.0
 40
0.0
 40
0.0
 40
0.0
 40
0.0318766478118246
 40
0.0828670106848776
 40
0.1338604612286469
 40
0.1849273328504582
 40
0.2359690149623034
 40
0.2869544076173111
 40
0.3379565156758647
 40
0.3890337469411934
 40
0.4400594237065416
 40
0.4910423876267456
 40
0.5420556847975713
 40
0.5931361569206361
 40
0.6441483460195111
 40
0.6951314241255919
 40
0.7461584353958115
 40
0.797235027226321
 40
0.8482362543002242
 40
0.8992219894452775
 40
0.9502652317076326
 40
1.0
 40
1.0
 40
1.0
 40
1.0
 10
27.29401414142927
 20
7.907911942911166
 30
0.0
 10
27.58886613048614
 20
7.910064018126121
 30
0.0
 10
28.35536777369124
 20
7.915658585060676
 30
0.0
 10
29.59226178027818
 20
7.640884721968669
 30
0.0
 10
31.00657562013964
 20
7.123714116382376
 30
0.0
 10
32.42303714329084
 20
6.370714039828748
 30
0.0
 10
33.83874184215865
 20
5.418336284013995
 30
0.0
 10
35.25281097141622
 20
4.293065730397942
 30
0.0
 10
36.66734879322603
 20
3.031643962592988
 30
0.0
 10
38.08413112450015
 20
1.67545175091333
 30
0.0
 10
39.49935567669125
 20
0.265034471558151
 30
0.0
 10
40.91335568352891
 20
-1.153848644423565
 30
0.0
 10
42.32821551111826
 20
-2.53626448193822
 30
0.0
 10
43.74509690628211
 20
-3.83693397328755
 30
0.0
 10
45.15992447450999
 20
-5.017309600422381
 30
0.0
 10
46.57392761838494
 20
-6.038383659643494
 30
0.0
 10
47.98919231706522
 20
-6.867985133785162
 30
0.0
 10
49.40595332295914
 20
-7.479043339550738
 30
0.0
 10
50.82047290021738
 20
-7.854886011473611
 30
0.0
 10
52.23452704132423
 20
-7.976624255785262
 30
0.0
 10
53.63806364276397
 20
-7.864574209166325
 30
0.0
 10
54.57018427971894
 20
-7.584337413648794
 30
0.0
 10
55.0301933992115
 20
-7.446038274626877
 30
0.0
  0
SPLINE
  5
D8
330
1F
100
AcDbEntity
  8
0
  6
Continuous
 62
     1
370
    15
100
AcDbSpline
210
0.0
220
0.0
230
1.0
 70
     8
 71
     3
 72
    13
 73
     9
 74
     0
 42
0.000000001
 43
0.00000001
 40
0.0
 40
0.0
 40
0.0
 40
0.0
 40
0.0787005162291796
 40
0.2628527499281825
 40
0.4470483600765243
 40
0.6314049389242719
 40
0.8157899887862406
 40
1.0
 40
1.0
 40
1.0
 40
1.0
 10
77.16762090141621
 20
7.901738363988799
 30
0.0
 10
77.38457148530935
 20
7.910188053285373
 30
0.0
 10
78.1091672097995
 20
7.938409266741902
 30
0.0
 10
79.34110505658897
 20
7.677570305837725
 30
0.0
 10
80.86443388593233
 20
7.138230027657703
 30
0.0
 10
82.38928427878784
 20
6.316531931063754
 30
0.0
 10
83.91441731035934
 20
5.278089536049137
 30
0.0
 10
84.93029991110353
 20
4.428899991966935
 30
0.0
 10
85.43800000000002
 20
4.004506851751063
 30
0.0
  0
ELLIPSE
  5
DA
330
1F
100
AcDbEntity
  8
0
  6
Continuous
 62
     1
370
    15
100
AcDbEllipse
 10
87.62814800674211
 20
0.0000000000000092
 30
0.0
 11
11.18322645805124
 21
7.430697861030173
 31
0.0
210
0.0
220
0.0
230
1.0
 40
0.2495534463455927
 41
1.600902389073167
 42
1.660442737725112
  0
SPLINE
  5
DB
330
1F
100
AcDbEntity
  8
0
  6
Continuous
 62
     1
370
    15
100
AcDbSpline
210
0.0
220
0.0
230
1.0
 70
     8
 71
     3
 72
    24
 73
    20
 74
     0
 42
0.000000001
 43
0.00000001
 40
0.0
 40
0.0
 40
0.0
 40
0.0
 40
0.0599269010480388
 40
0.119844313820907
 40
0.1796799355178735
 40
0.2395476974279833
 40
0.2995053601568881
 40
0.3613061984790888
 40
0.4230777583961007
 40
0.4849085258986793
 40
0.5467887294418786
 40
0.6085773999012132
 40
0.6703532978809997
 40
0.7322048357274097
 40
0.7940685825113094
 40
0.8558481554080689
 40
0.9176314693054283
 40
0.9795037396758836
 40
1.0
 40
1.0
 40
1.0
 40
1.0
 10
10.00000000000001
 20
7.675526893529133
 30
0.0
 10
10.45740637337258
 20
7.536949510390021
 30
0.0
 10
11.37214669859317
 20
7.259816685182014
 30
0.0
 10
12.74383030097091
 20
6.567270678713749
 30
0.0
 10
14.11347917252634
 20
5.695107210581357
 30
0.0
 10
15.48391303626887
 20
4.649025416967866
 30
0.0
 10
16.871242825251
 20
3.454540977669409
 30
0.0
 10
18.2711947872933
 20
2.138299666569105
 30
0.0
 10
19.68522446798089
 20
0.7407106590484602
 30
0.0
 10
21.10065397016
 20
-0.6802062397174172
 30
0.0
 10
22.51732032275358
 20
-2.07860382860608
 30
0.0
 10
23.93173921057335
 20
-3.412487769564297
 30
0.0
 10
25.34586390379023
 20
-4.637884830130859
 30
0.0
 10
26.76181190042425
 20
-5.716025760919123
 30
0.0
 10
28.17806075036252
 20
-6.611628716737811
 30
0.0
 10
29.59228449844514
 20
-7.302895058851792
 30
0.0
 10
31.00653569819423
 20
-7.744909752975498
 30
0.0
 10
32.10741978182227
 20
-7.948346835316419
 30
0.0
 10
32.73602141529885
 20
-7.917288669014318
 30
0.0
 10
32.89244016662605
 20
-7.909560277402261
 30
0.0
  0
SPLINE
  5
DC
330
1F
100
AcDbEntity
  8
0
  6
Continuous
 62
     1
370
    15
100
AcDbSpline
210
0.0
220
0.0
230
1.0
 70
     8
 71
     3
 72
    28
 73
    24
 74
     0
 42
0.000000001
 43
0.00000001
 40
0.0
 40
0.0
 40
0.0
 40
0.0
 40
0.0013308360496972
 40
0.0523240594284349
 40
0.1033154190890461
 40
0.154377192783977
 40
0.2054257373929912
 40
0.2564130679182492
 40
0.3074121641679798
 40
0.3584868820317234
 40
0.4095185088238066
 40
0.4605024871054945
 40
0.5115118535953096
 40
0.5625923989275889
 40
0.6136096223457587
 40
0.664592790977643
 40
0.7156149552891873
 40
0.7666942071382872
 40
0.8176786804409519
 40
0.8686427500287685
 40
0.919659688268984
 40
0.9707094808708192
 40
1.0
 40
1.0
 40
1.0
 40
1.0
 10
55.0301933992115
 20
7.446038274626895
 30
0.0
 10
55.04250240927541
 20
7.451262209652207
 30
0.0
 10
55.52645185912493
 20
7.656650008379862
 30
0.0
 10
56.48093785332487
 20
7.847898825901596
 30
0.0
 10
57.89524877260901
 20
7.983940682579595
 30
0.0
 10
59.31152435937233
 20
7.839635931066029
 30
0.0
 10
60.7274278905042
 20
7.454193576529326
 30
0.0
 10
62.14153899785805
 20
6.830226735832125
 30
0.0
 10
63.55598058580806
 20
5.989996709591329
 30
0.0
 10
64.97267296036837
 20
4.96071211628131
 30
0.0
 10
66.38806208362867
 20
3.773500825861038
 30
0.0
 10
67.8020788997475
 20
2.466453058569721
 30
0.0
 10
69.21681218767455
 20
1.08099886049623
 30
0.0
 10
70.63368278632797
 20
-0.3372339933562113
 30
0.0
 10
72.0486450140771
 20
-1.746169971949227
 30
0.0
 10
73.46263877325384
 20
-3.099640272464955
 30
0.0
 10
74.8777462906783
 20
-4.354752483937328
 30
0.0
 10
76.29438533637311
 20
-5.470872517628017
 30
0.0
 10
77.708613810551
 20
-6.413802991540055
 30
0.0
 10
79.12208695098929
 20
-7.156273734754496
 30
0.0
 10
80.53705078605365
 20
-7.660299996110308
 30
0.0
 10
81.75250577398575
 20
-7.92159479606994
 30
0.0
 10
82.49494476405471
 20
-7.910699082706567
 30
0.0
 10
82.76562361720221
 20
-7.906726716981075
 30
0.0
  0
SPLINE
  5
DD
330
1F
100
AcDbEntity
  8
0
  6
Continuous
 62
     1
370
    15
100
AcDbSpline
210
0.0
220
0.0
230
1.0
 70
     8
 71
     3
 72
    28
 73
    24
 74
     0
 42
0.000000001
 43
0.00000001
 40
0.0
 40
0.0
 40
0.0
 40
0.0
 40
0.0253358123980297
 40
0.0747871750112149
 40
0.124171033372034
 40
0.1735814178670948
 40
0.2230659997913118
 40
0.2740718013477813
 40
0.3250534386928015
 40
0.3760839415620127
 40
0.4271552452511819
 40
0.4781510043613744
 40
0.5291362220197857
 40
0.5801838671813103
 40
0.6312415886890417
 40
0.6822298393497706
 40
0.7332211775533128
 40
0.7842859337935202
 40
0.8353255015672056
 40
0.8863087822157745
 40
0.9373087775754742
 40
0.9883838930300638
 40
1.0
 40
1.0
 40
1.0
 40
1.0
 10
10.66930943132821
 20
7.907921260593743
 30
0.0
 10
10.90362103383455
 20
7.913345971322122
 30
0.0
 10
11.59527056725004
 20
7.929358830284568
 30
0.0
 10
12.74383398898269
 20
7.699041151673597
 30
0.0
 10
14.11347818443176
 20
7.239809723408831
 30
0.0
 10
15.48391330124737
 20
6.552900487041239
 30
0.0
 10
16.87124275183085
 20
5.665916902633143
 30
0.0
 10
18.27119480696667
 20
4.59208295293977
 30
0.0
 10
19.68522446359613
 20
3.361713792521923
 30
0.0
 10
21.10065396800565
 20
2.024843941768312
 30
0.0
 10
22.51732033576517
 20
0.6247599895922763
 30
0.0
 10
23.93173916077206
 20
-0.796512875441306
 30
0.0
 10
25.34586409006928
 20
-2.192377425363
 30
0.0
 10
26.7618112041128
 20
-3.518085618521902
 30
0.0
 10
28.17806334803008
 20
-4.732100588819447
 30
0.0
 10
29.59227481833821
 20
-5.796929183956965
 30
0.0
 10
31.00657185088382
 20
-6.677747355667925
 30
0.0
 10
32.42303916244681
 20
-7.346615396686945
 30
0.0
 10
33.83873754019824
 20
-7.781549033758833
 30
0.0
 10
35.25282614632118
 20
-7.975043389744997
 30
0.0
 10
36.66729233331297
 20
-7.896082227891839
 30
0.0
 10
37.71959475542084
 20
-7.705694664981262
 30
0.0
 10
38.29918670012167
 20
-7.471618380415157
 30
0.0
 10
38.40657975720654
 20
-7.428246197588148
 30
0.0
  0
SPLINE
  5
DE
330
1F
100
AcDbEntity
  8
0
  6
Continuous
 62
     1
370
    15
100
AcDbSpline
210
0.0
220
0.0
230
1.0
 70
     8
 71
     3
 72
    25
 73
    21
 74
     0
 42
0.000000001
 43
0.00000001
 40
0.0
 40
0.0
 40
0.0
 40
0.0
 40
0.0073991244726721
 40
0.06420751426834
 40
0.1210290130433399
 40
0.1779347669084099
 40
0.2347925101329863
 40
0.2915971649702348
 40
0.3484301065055441
 40
0.4053423531424594
 40
0.4621840486063228
 40
0.5189878013586586
 40
0.5758350018017757
 40
0.6327458072827037
 40
0.6939457076446515
 40
0.7551208006119511
 40
0.8163103031699876
 40
0.8775532792860323
 40
0.9388057134298555
 40
0.9617766534290864
 40
0.9617766534290864
 40
0.9617766534290864
 40
0.9617766534290864
 10
60.54355686516747
 20
7.92324115345053
 30
0.0
 10
60.6049707504266
 20
7.927843924092302
 30
0.0
 10
61.13790311676442
 20
7.967785468898995
 30
0.0
 10
62.14148419550783
 20
7.802799713049749
 30
0.0
 10
63.55599529669594
 20
7.415047022874394
 30
0.0
 10
64.9726690177656
 20
6.768071142852163
 30
0.0
 10
66.38806314582095
 20
5.912753522934745
 30
0.0
 10
67.80207858799132
 20
4.86802601000663
 30
0.0
 10
69.21681237265618
 20
3.669204707050251
 30
0.0
 10
70.63368235830492
 20
2.35530788834771
 30
0.0
 10
72.04864653852785
 20
0.9654796055295182
 30
0.0
 10
73.46263310491648
 20
-0.4548876157279389
 30
0.0
 10
74.87776746870404
 20
-1.860847486394782
 30
0.0
 10
76.33080449096555
 20
-3.241059102112726
 30
0.0
 10
77.81825670396196
 20
-4.546419317878634
 30
0.0
 10
79.34113449059126
 20
-5.715360561435695
 30
0.0
 10
80.86442599338964
 20
-6.676039770811106
 30
0.0
 10
82.3892863846718
 20
-7.385565124808739
 30
0.0
 10
83.59705773359195
 20
-7.749134295029025
 30
0.0
 10
84.2959831548848
 20
-7.844096708651088
 30
0.0
 10
84.48659013467274
 20
-7.864628224408944
 30
0.0
  0
SPLINE
  5
DF
330
1F
100
AcDbEntity
  8
0
  6
Continuous
 62
     1
370
    15
100
AcDbSpline
210
0.0
220
0.0
230
1.0
 70
    24
 71
     3
 72
    16
 73
    12
 74
     0
 42
0.000000001
 43
0.00000001
 40
0.0
 40
0.0
 40
0.0
 40
0.0
 40
0.0559977126611239
 40
0.1797423342730371
 40
0.3070755582947509
 40
0.4308201799066637
 40
0.5581534039283779
 40
0.6818980255402908
 40
0.8092312495620049
 40
0.9329758711739177
 40
1.0
 40
1.0
 40
1.0
 40
1.0
 10
10.0
 20
7.675526893529137
 30
0.0
 10
9.999999999999998
 20
7.578485635985017
 30
0.0
 10
9.999999999999998
 20
7.267001089154945
 30
0.0
 10
10.0
 20
6.75409128123398
 30
0.0
 10
10.0
 20
6.17525294526222
 30
0.0
 10
9.999999999999998
 20
5.656239925717024
 30
0.0
 10
9.999999999999998
 20
5.221394301048321
 30
0.0
 10
10.0
 20
4.873318839139062
 30
0.0
 10
9.999999999999998
 20
4.635322289323484
 30
0.0
 10
10.0
 20
4.507200917312436
 30
0.0
 10
10.0
 20
4.504453713877862
 30
0.0
 10
10.0
 20
4.503488519544475
 30
0.0
  0
SPLINE
  5
E0
330
1F
100
AcDbEntity
  8
0
  6
Continuous
 62
     1
370
    15
100
AcDbSpline
210
0.0
220
0.0
230
1.0
 70
     8
 71
     3
 72
    16
 73
    12
 74
     0
 42
0.000000001
 43
0.00000001
 40
0.0
 40
0.0
 40
0.0
 40
0.0
 40
0.2499999999999962
 40
0.2499999999999962
 40
0.3749999999999899
 40
0.3749999999999899
 40
0.4999999999999836
 40
0.4999999999999836
 40
0.7499999999999918
 40
0.7499999999999918
 40
1.0
 40
1.0
 40
1.0
 40
1.0
 10
86.2
 20
3.458182886886576
 30
0.0
 10
86.20000000000003
 20
3.428439608897566
 30
0.0
 10
86.18619627883183
 20
3.412235178921041
 30
0.0
 10
86.12416239104675
 20
3.434416381394051
 30
0.0
 10
86.09679048303771
 20
3.449709962256538
 30
0.0
 10
86.0302864582991
 20
3.495224623499819
 30
0.0
 10
85.99169207109351
 20
3.52501834415018
 30
0.0
 10
85.86804145456743
 20
3.626028222067209
 30
0.0
 10
85.77926198055353
 20
3.704712048302773
 30
0.0
 10
85.60651785092494
 20
3.857367501957479
 30
0.0
 10
85.5206079666583
 20
3.933333991073741
 30
0.0
 10
85.438
 20
4.004506851751078
 30
0.0
  0
SPLINE
  5
E1
330
1F
100
AcDbEntity
  8
0
  6
Continuous
 62
     1
370
    15
100
AcDbSpline
210
0.0
220
0.0
230
1.0
 70
     8
 71
     3
 72
    27
 73
    23
 74
     0
 42
0.000000001
 43
0.00000001
 40
0.0
 40
0.0
 40
0.0
 40
0.0
 40
0.032925245394871
 40
0.08399383721723
 40
0.1350372386811078
 40
0.1860243487920236
 40
0.2370281748695477
 40
0.2881071266843913
 40
0.3391345222626278
 40
0.3901192035569272
 40
0.4411342191236315
 40
0.4922164119053802
 40
0.5432303193628084
 40
0.5942151148468312
 40
0.6452438449748922
 40
0.6963221573333768
 40
0.7473251023965748
 40
0.7983125550090728
 40
0.8493575166760144
 40
0.9004248300521682
 40
0.9514193449246335
 40
1.0
 40
1.0
 40
1.0
 40
1.0
 10
30.09326840073178
 20
7.421990105756602
 30
0.0
 10
30.39752229520419
 20
7.528354656592222
 30
0.0
 10
31.17368817577817
 20
7.799695588494962
 30
0.0
 10
32.4230561233411
 20
7.959682773997548
 30
0.0
 10
33.83873676384398
 20
7.924744901869306
 30
0.0
 10
35.25281233194779
 20
7.628873789775913
 30
0.0
 10
36.66734842800128
 20
7.093479149567164
 30
0.0
 10
38.08413122235282
 20
6.333265456873849
 30
0.0
 10
39.49935565036795
 20
5.371847033454705
 30
0.0
 10
40.91335569110605
 20
4.239962378217355
 30
0.0
 10
42.32821550713386
 20
2.97347484245478
 30
0.0
 10
43.74509691463588
 20
1.614107810662304
 30
0.0
 10
45.15992444513155
 20
0.2021582210015224
 30
0.0
 10
46.5739277275343
 20
-1.21605460810099
 30
0.0
 10
47.98919190927272
 20
-2.595624444922929
 30
0.0
 10
49.40595484548248
 20
-3.891846635081813
 30
0.0
 10
50.82046722834723
 20
-5.066106864239209
 30
0.0
 10
52.23454821294789
 20
-6.079111513374642
 30
0.0
 10
53.65029220662446
 20
-6.900499409654114
 30
0.0
 10
55.06674348483946
 20
-7.497550694102343
 30
0.0
 10
56.45864610573641
 20
-7.871604300114194
 30
0.0
 10
57.37896200242857
 20
-7.912082860811959
 30
0.0
 10
57.82796499344536
 20
-7.93183150895623
 30
0.0
  0
SPLINE
  5
E2
330
1F
100
AcDbEntity
  8
0
  6
Continuous
 62
     1
370
    15
100
AcDbSpline
210
0.0
220
0.0
230
1.0
 70
     8
 71
     3
 72
    10
 73
     6
 74
     0
 42
0.000000001
 43
0.00000001
 40
0.0
 40
0.0
 40
0.0
 40
0.0
 40
0.1198787062906253
 40
0.4135519020386115
 40
0.6123690336681874
 40
0.6123690336681874
 40
0.6123690336681874
 40
0.6123690336681874
 10
79.95886761718477
 20
7.418345270480591
 30
0.0
 10
80.15153588443742
 20
7.492053976772466
 30
0.0
 10
80.81619377782222
 20
7.746330792288898
 30
0.0
 10
81.80122597515262
 20
7.901817488532641
 30
0.0
 10
82.59244925690712
 20
7.942639389630117
 30
0.0
 10
82.91183292611957
 20
7.937500000000008
 30
0.0
  0
SPLINE
  5
E3
330
1F
100
AcDbEntity
  8
0
  6
Continuous
 62
     1
370
    15
100
AcDbSpline
210
0.0
220
0.0
230
1.0
 70
     8
 71
     3
 72
    18
 73
    14
 74
     0
 42
0.000000001
 43
0.00000001
 40
0.0
 40
0.0
 40
0.0
 40
0.0
 40
0.2499999999999969
 40
0.2499999999999969
 40
0.4999999999999938
 40
0.4999999999999938
 40
0.6249999999999953
 40
0.6249999999999953
 40
0.7499999999999969
 40
0.7499999999999969
 40
0.8749999999999984
 40
0.8749999999999984
 40
1.0
 40
1.0
 40
1.0
 40
1.0
 10
84.81051684791126
 20
7.754367932470151
 30
0.0
 10
84.7532374771182
 20
7.47095447278523
 30
0.0
 10
84.71400748351785
 20
7.264102645936815
 30
0.0
 10
84.60350971755364
 20
6.863512330350241
 30
0.0
 10
84.53168999582039
 20
6.668017911127636
 30
0.0
 10
84.39109535915154
 20
6.394746155614765
 30
0.0
 10
84.33943097463698
 20
6.308371778216461
 30
0.0
 10
84.22511992951897
 20
6.146414696541957
 30
0.0
 10
84.1617249177972
 20
6.070182672073201
 30
0.0
 10
84.02542125201076
 20
5.934304708620989
 30
0.0
 10
83.9530430695535
 20
5.874913669189995
 30
0.0
 10
83.79946967122623
 20
5.773964353965784
 30
0.0
 10
83.71724271411202
 20
5.732067871911869
 30
0.0
 10
83.63293193635124
 20
5.700879523372292
 30
0.0
  0
SPLINE
  5
E4
330
1F
100
AcDbEntity
  8
0
  6
Continuous
 62
     1
370
    15
100
AcDbSpline
210
0.0
220
0.0
230
1.0
 70
     8
 71
     3
 72
     8
 73
     4
 74
     0
 42
0.000000001
 43
0.00000001
 40
0.0
 40
0.0
 40
0.0
 40
0.0
 40
1.0
 40
1.0
 40
1.0
 40
1.0
 10
86.2
 20
4.702505203340677
 30
0.0
 10
85.34343154747683
 20
5.10169517559394
 30
0.0
 10
84.48773586070884
 20
5.434964889949575
 30
0.0
 10
83.63293193635123
 20
5.700879523372296
 30
0.0
  0
LINE
  5
E5
330
1F
100
AcDbEntity
  8
0
  6
Continuous
 62
     1
370
    15
100
AcDbLine
 10
86.2
 20
3.458182886886584
 30
0.0
 11
86.2
 21
4.702505203340679
 31
0.0
  0
SPLINE
  5
E7
330
1F
100
AcDbEntity
  8
0
  6
Continuous
 62
     1
370
    15
100
AcDbSpline
210
0.0
220
0.0
230
1.0
 70
     8
 71
     3
 72
    10
 73
     6
 74
     0
 42
0.000000001
 43
0.00000001
 40
0.0
 40
0.0
 40
0.0
 40
0.0
 40
0.2129931666240471
 40
0.9051507076799032
 40
0.9999999999999999
 40
0.9999999999999999
 40
0.9999999999999999
 40
0.9999999999999999
 10
84.24472322681554
 20
-5.155412506333152
 30
0.0
 10
84.21276907055505
 20
-5.148684944325524
 30
0.0
 10
84.07697444572776
 20
-5.120095024711284
 30
0.0
 10
83.84210236101798
 20
-5.187758251850648
 30
0.0
 10
83.65542955946208
 20
-5.263946704988116
 30
0.0
 10
83.6329319363512
 20
-5.273128862698303
 30
0.0
  0
SPLINE
  5
E8
330
1F
100
AcDbEntity
  8
0
  6
Continuous
 62
     1
370
    15
100
AcDbSpline
210
0.0
220
0.0
230
1.0
 70
     8
 71
     3
 72
     8
 73
     4
 74
     0
 42
0.000000001
 43
0.00000001
 40
0.0143565955260526
 40
0.0143565955260526
 40
0.0143565955260526
 40
0.0143565955260526
 40
1.0
 40
1.0
 40
1.0
 40
1.0
 10
86.16310831927852
 20
-6.060532722593391
 30
0.0
 10
85.31886197754298
 20
-5.868816127715442
 30
0.0
 10
84.47546378651273
 20
-5.606850382150646
 30
0.0
 10
83.6329319363512
 20
-5.273128862698299
 30
0.0
  0
SPLINE
  5
EB
330
1F
100
AcDbEntity
  8
0
  6
Continuous
 62
     1
370
    15
100
AcDbSpline
210
0.0
220
0.0
230
1.0
 70
     8
 71
     3
 72
    10
 73
     6
 74
     0
 42
0.000000001
 43
0.00000001
 40
0.0
 40
0.0
 40
0.0
 40
0.0
 40
0.3955089633359558
 40
0.7909553054148305
 40
1.0
 40
1.0
 40
1.0
 40
1.0
 10
10.00000000000001
 20
-7.90933409742138
 30
0.0
 10
10.45740136438824
 20
-7.922949989283992
 30
0.0
 10
11.37213167243322
 20
-7.950179617193947
 30
0.0
 10
12.52889264054438
 20
-7.763417989536069
 30
0.0
 10
13.22738638048616
 20
-7.509285255779553
 30
0.0
 10
13.46893902838246
 20
-7.421401240153114
 30
0.0
  0
SPLINE
  5
EC
330
1F
100
AcDbEntity
  8
0
  6
Continuous
 62
     1
370
    15
100
AcDbSpline
210
0.0
220
0.0
230
1.0
 70
     8
 71
     3
 72
    27
 73
    23
 74
     0
 42
0.000000001
 43
0.00000001
 40
0.0
 40
0.0
 40
0.0
 40
0.0
 40
0.0382859973417314
 40
0.0893647846372927
 40
0.1403920158623037
 40
0.1913765329409552
 40
0.2423913841943083
 40
0.2934734124463362
 40
0.3444871555939822
 40
0.395471786861989
 40
0.4465003526325261
 40
0.4975785004737882
 40
0.5485812812625124
 40
0.5995685696504365
 40
0.6506133669075741
 40
0.7016805158019317
 40
0.7526748664270764
 40
0.8036673532928954
 40
0.854730255749594
 40
0.9057799288279351
 40
0.9567683864693338
 40
1.0
 40
1.0
 40
1.0
 40
1.0
 10
35.60532941201615
 20
7.913923859035383
 30
0.0
 10
35.95913942171599
 20
7.909629111925105
 30
0.0
 10
36.78498065649246
 20
7.899604581359639
 30
0.0
 10
38.08414595461863
 20
7.589045257717189
 30
0.0
 10
39.49935170832988
 20
7.04069790475855
 30
0.0
 10
40.91335674762108
 20
6.2606735784156
 30
0.0
 10
42.32821522366783
 20
5.28419796691739
 30
0.0
 10
43.74509699005174
 20
4.140766005743215
 30
0.0
 10
45.15992442669602
 20
2.865029119842973
 30
0.0
 10
46.5739277259585
 20
1.498501585060608
 30
0.0
 10
47.98919193406006
 20
0.0845413513443588
 30
0.0
 10
49.40595474786794
 20
-1.330962181186629
 30
0.0
 10
50.820467593345
 20
-2.705724205729359
 30
0.0
 10
52.23454685014271
 20
-3.994477778124324
 30
0.0
 10
53.65029730017798
 20
-5.156163013000703
 30
0.0
 10
55.06672447830115
 20
-6.154038311375
 30
0.0
 10
56.48100322438457
 20
-6.957709760311999
 30
0.0
 10
57.89523285011715
 20
-7.540134514435968
 30
0.0
 10
59.31152256984706
 20
-7.884929386175149
 30
0.0
 10
60.72745095586799
 20
-7.973491039299851
 30
0.0
 10
62.06967057587818
 20
-7.840417149419499
 30
0.0
 10
62.9405757170646
 20
-7.561678756893073
 30
0.0
 10
63.34017883789947
 20
-7.433783391160911
 30
0.0
  0
SPLINE
  5
ED
330
1F
100
AcDbEntity
  8
0
  6
Continuous
 62
     1
370
    15
100
AcDbSpline
210
0.0
220
0.0
230
1.0
 70
    24
 71
     3
 72
    15
 73
    11
 74
     0
 42
0.000000001
 43
0.00000001
 40
0.0
 40
0.0
 40
0.0
 40
0.0
 40
0.0762280878099217
 40
0.214277546551575
 40
0.3563304489488707
 40
0.4943799076905241
 40
0.6364328100878199
 40
0.7744822688294732
 40
0.9165351712267705
 40
1.0
 40
1.0
 40
1.0
 40
1.0
 10
10.0
 20
-5.395151791938238
 30
0.0
 10
10.0
 20
-5.392164577545103
 30
0.0
 10
10.0
 20
-5.383767502535423
 30
0.0
 10
9.999999999999998
 20
-5.494045310687858
 30
0.0
 10
10.0
 20
-5.711808053652763
 30
0.0
 10
10.0
 20
-6.040970693436779
 30
0.0
 10
10.0
 20
-6.459031045389372
 30
0.0
 10
9.999999999999998
 20
-6.964252862764229
 30
0.0
 10
10.0
 20
-7.456351181201812
 30
0.0
 10
10.0
 20
-7.7869707460842
 30
0.0
 10
10.0
 20
-7.909334097421405
 30
0.0
  0
LINE
  5
F0
330
1F
100
AcDbEntity
  8
0
  6
Continuous
 62
     1
370
    15
100
AcDbLine
 10
86.2
 20
-0.8660254037844308
 30
0.0
 11
86.2
 21
2.686712985472495
 31
0.0
  0
LINE
  5
F1
330
1F
100
AcDbEntity
  8
0
  6
Continuous
 62
     1
370
    15
100
AcDbLine
 10
83.63293193635123
 20
0.4277506606739792
 30
0.0
 11
86.2
 21
-0.8660254037844308
 31
0.0
  0
SPLINE
  5
F2
330
1F
100
AcDbEntity
  8
0
  6
Continuous
 62
     1
370
    15
100
AcDbSpline
210
0.0
220
0.0
230
1.0
 70
     8
 71
     3
 72
    14
 73
    10
 74
     0
 42
0.000000001
 43
0.00000001
 40
0.0
 40
0.0
 40
0.0
 40
0.0
 40
0.25
 40
0.25
 40
0.5
 40
0.5
 40
0.75
 40
0.75
 40
1.0
 40
1.0
 40
1.0
 40
1.0
 10
86.20000000000002
 20
2.6867129854725
 30
0.0
 10
86.20000000000002
 20
2.740611233680577
 30
0.0
 10
86.1764136580634
 20
2.780727472505718
 30
0.0
 10
86.08730444409862
 20
2.821411550334387
 30
0.0
 10
86.02327775192632
 20
2.822292273303612
 30
0.0
 10
85.87507674248508
 20
2.79226678629494
 30
0.0
 10
85.79093108451316
 20
2.761636073884303
 30
0.0
 10
85.61593975474162
 20
2.677900351790358
 30
0.0
 10
85.52697009230505
 20
2.625957658781917
 30
0.0
 10
85.43800000000002
 20
2.565872777925034
 30
0.0
  0
LINE
  5
F3
330
1F
100
AcDbEntity
  8
0
  6
Continuous
 62
     1
370
    15
100
AcDbLine
 10
86.2
 20
2.686712985472495
 30
0.0
 11
86.2
 21
3.458182886886584
 31
0.0
  0
LINE
  5
F4
330
1F
100
AcDbEntity
  8
0
  6
Continuous
 62
     1
370
    15
100
AcDbLine
 10
86.2
 20
-4.418763793041392
 30
0.0
 11
86.2
 21
-3.715775729237205
 31
0.0
  0
SPLINE
  5
F5
330
1F
100
AcDbEntity
  8
0
  6
Continuous
 62
     1
370
    15
100
AcDbSpline
210
0.0
220
0.0
230
1.0
 70
     8
 71
     3
 72
    14
 73
    10
 74
     0
 42
0.000000001
 43
0.00000001
 40
0.0
 40
0.0
 40
0.0
 40
0.0
 40
0.25
 40
0.25
 40
0.5
 40
0.5
 40
0.75
 40
0.75
 40
1.0
 40
1.0
 40
1.0
 40
1.0
 10
86.20000000000002
 20
-4.418763793041387
 30
0.0
 10
86.20000000000002
 20
-4.472662041249465
 30
0.0
 10
86.1764136580634
 20
-4.541383678398913
 30
0.0
 10
86.08730444409862
 20
-4.690138968231396
 30
0.0
 10
86.02327775192632
 20
-4.768670945384042
 30
0.0
 10
85.87507674248508
 20
-4.9183829063663
 30
0.0
 10
85.79093108451316
 20
-4.989803629910257
 30
0.0
 10
85.61593975474162
 20
-5.118296523210144
 30
0.0
 10
85.52697009230505
 20
-5.174255794805459
 30
0.0
 10
85.43800000000002
 20
-5.222073399894642
 30
0.0
  0
LINE
  5
F6
330
1F
100
AcDbEntity
  8
0
  6
Continuous
 62
     1
370
    15
100
AcDbLine
 10
86.2
 20
-0.8660254037844308
 30
0.0
 11
86.2
 21
-1.366360276448569
 31
0.0
  0
LINE
  5
F7
330
1F
100
AcDbEntity
  8
0
  6
Continuous
 62
     1
370
    15
100
AcDbLine
 10
86.2
 20
-4.418763793041393
 30
0.0
 11
86.2
 21
-5.651500000000005
 31
0.0
  0
LINE
  5
F9
330
1F
100
AcDbEntity
  8
0
  6
Continuous
 62
     1
370
    15
100
AcDbLine
 10
86.2
 20
4.702505203340679
 30
0.0
 11
86.2
 21
5.651500000000008
 31
0.0
  0
LINE
  5
FD
330
1F
100
AcDbEntity
  8
중심선
100
AcDbLine
 10
-43.8
 20
0.0000000000000014
 30
0.0
 11
89.20000000000002
 21
0.0000000000000014
 31
0.0
  0
CIRCLE
  5
FE
330
1F
100
AcDbEntity
  8
외형선
100
AcDbCircle
 10
0.0
 20
0.0
 30
0.0
 40
3.000000000000001
  0
INSERT
  5
FF
330
1F
100
AcDbEntity
  8
0
  6
Continuous
 62
     7
100
AcDbBlockReference
 66
     1
  2
블럭10
 10
-16.62936049909348
 20
-51.78679627639981
 30
0.0
  0
ATTRIB
  5
100
330
FF
100
AcDbEntity
  8
FORMAT
 62
     2
100
AcDbText
 10
-27.68038085127795
 20
-49.71142936356762
 30
0.0
 40
4.233333333333333
  1
GMG22940[ 6 FLUTE ]
 41
0.75
  7
SLDTEXTSTYLE0
 11
-27.68038085127795
 21
-51.82809603023428
 31
0.0
100
AcDbAttribute
  2
AUTOATTR0
 70
     0
 74
     1
  0
SEQEND
  5
101
330
FF
100
AcDbEntity
  8
0
  6
Continuous
 62
     7
  0
HATCH
  5
102
330
1F
100
AcDbEntity
  8
중심선
100
AcDbHatch
 10
0.0
 20
0.0
 30
0.0
210
0.0
220
0.0
230
1.0
  2
SOLID
 70
     1
 71
     0
 91
        1
 92
        0
 93
        4
 72
     1
 10
-10.91445119471263
 20
-35.53962197475587
 11
-14.36072643854991
 21
-35.53962197475587
 72
     1
 10
-14.36072643854991
 20
-35.53962197475587
 11
-16.48895629775394
 21
-38.07594755532847
 72
     1
 10
-16.48895629775394
 20
-38.07594755532847
 11
-13.04264796880351
 21
-38.07590812602598
 72
     1
 10
-13.04264796880351
 20
-38.07590812602598
 11
-10.91445119471263
 21
-35.53962197475587
 97
        0
 75
     0
 76
     1
 98
        1
 10
0.0004859200744782
 20
0.2622744311706944
  0
HATCH
  5
103
330
1F
100
AcDbEntity
  8
중심선
100
AcDbHatch
 10
0.0
 20
0.0
 30
0.0
210
0.0
220
0.0
230
1.0
  2
SOLID
 70
     1
 71
     0
 91
        1
 92
        0
 93
        4
 72
     1
 10
-5.901687203676681
 20
-35.53962197475587
 11
-9.347962447513963
 21
-35.53962197475587
 72
     1
 10
-9.347962447513963
 20
-35.53962197475587
 11
-13.87910045587135
 21
-40.93962197475589
 72
     1
 10
-13.87910045587135
 20
-40.93962197475589
 11
-10.43282521203407
 21
-40.93962197475589
 72
     1
 10
-10.43282521203407
 20
-40.93962197475589
 11
-5.901687203676681
 21
-35.53962197475587
 97
        0
 75
     0
 76
     1
 98
        1
 10
0.0004859200744782
 20
0.2622744311706944
  0
HATCH
  5
104
330
1F
100
AcDbEntity
  8
중심선
100
AcDbHatch
 10
0.0
 20
0.0
 30
0.0
210
0.0
220
0.0
230
1.0
  2
SOLID
 70
     1
 71
     0
 91
        1
 92
        0
 93
        4
 72
     1
 10
-0.8889232126407849
 20
-35.5396219747559
 11
-4.335198456477901
 21
-35.53962197475587
 72
     1
 10
-4.335198456477901
 20
-35.53962197475587
 11
-11.38363535836715
 21
-43.93962197475589
 72
     1
 10
-11.38363535836715
 20
-43.93962197475589
 11
-7.937360114529867
 21
-43.93962197475589
 72
     1
 10
-7.937360114529867
 20
-43.93962197475589
 11
-0.8889232126407851
 21
-35.5396219747559
 97
        0
 75
     0
 76
     1
 98
        1
 10
0.0004859200744782
 20
0.2622744311706944
  0
HATCH
  5
105
330
1F
100
AcDbEntity
  8
중심선
100
AcDbHatch
 10
0.0
 20
0.0
 30
0.0
210
0.0
220
0.0
230
1.0
  2
SOLID
 70
     1
 71
     0
 91
        1
 92
        0
 93
        6
 72
     3
 10
3.910967218371415
 20
-39.73962197480715
 11
3.960054785062283
 21
1.540882976769353E-10
 40
0.3939339440162628
 50
17.09539180608437
 51
320.0019657685081
 73
     0
 72
     1
 10
5.593966874072009
 20
-38.32751597939418
 11
7.899268747773048
 21
-36.39318926934625
 72
     3
 10
3.910967218318568
 20
-39.73962197475602
 11
6.600054785286829
 21
-1.278976924368180E-13
 40
0.636358354079598
 50
39.9987384933741
 51
368.4976242363725
 73
     1
 72
     1
 10
10.33629971021918
 20
-38.7796219746859
 11
2.59103452515449
 21
-38.77962197468587
 72
     1
 10
2.59103452515449
 20
-38.77962197468587
 11
2.591009480708556
 21
-40.69962197468579
 72
     1
 10
2.591009480708556
 20
-40.69962197468579
 11
7.032389250180593
 21
-40.69962197468576
 97
        0
 75
     0
 76
     1
 98
        1
 10
0.0004859200744782
 20
0.2622744311706944
  0
POINT
  5
106
330
1F
100
AcDbEntity
  8
치수문자_일반주서
100
AcDbPoint
 10
0.0
 20
0.0
 30
0.0
  0
DIMENSION
  5
107
330
1F
100
AcDbEntity
  8
치수문자_일반주서
100
AcDbDimension
  2
_D
 10
104.020745715773
 20
7.937500000000083
 30
0.0
 11
104.020745715773
 21
4.265946215346479
 31
0.0
 70
   160
  1
%%c<>
 71
     2
 42
15.87500000000001
 52
-270.0
  3
SLDDIMSTYLE0
100
AcDbAlignedDimension
 13
83.914
 23
-7.937500000000004
 33
0.0
 14
83.914
 24
7.937500000000007
 34
0.0
 50
90.0000000000002
100
AcDbRotatedDimension
1001
ACAD
1000
DSTYLE
1002
{
1070
   171
1070
     3
1070
   273
1070
     7
1002
}
  0
INSERT
  5
15B
330
1F
100
AcDbEntity
  8
외형선
100
AcDbBlockReference
  2
SW_DOWELSYMBOL_0
 10
0.0
 20
0.0
 30
0.0
  0
LINE
  5
19C
330
1F
100
AcDbEntity
  8
치수문자_일반주서
100
AcDbLine
 10
-40.80000000000001
 20
7.500000000000003
 30
0.0
 11
-40.8
 21
40.59305141807179
 31
0.0
1001
ACAD
1000
DSTYLE
1002
{
1070
   273
1070
     7
1002
}
  0
LINE
  5
19D
330
1F
100
AcDbEntity
  8
치수문자_일반주서
100
AcDbLine
 10
86.2
 20
5.651500000000008
 30
0.0
 11
86.20000000000002
 21
40.59305141807179
 31
0.0
1001
ACAD
1000
DSTYLE
1002
{
1070
   273
1070
     7
1002
}
  0
LINE
  5
19E
330
1F
100
AcDbEntity
  8
치수문자_일반주서
100
AcDbLine
 10
-37.498
 20
40.59305141807179
 30
0.0
 11
82.89800000000002
 21
40.59305141807179
 31
0.0
1001
ACAD
1000
DSTYLE
1002
{
1070
   273
1070
     7
1002
}
  0
SOLID
  5
19F
330
1F
100
AcDbEntity
  8
치수문자_일반주서
100
AcDbTrace
 10
-37.498
 20
41.14338475140513
 30
0.0
 11
-37.498
 21
40.04271808473846
 31
0.0
 12
-40.8
 22
40.59305141807179
 32
0.0
 13
-40.8
 23
40.59305141807179
 33
0.0
1001
ACAD
1000
DSTYLE
1002
{
1070
   273
1070
     7
1002
}
  0
SOLID
  5
1A0
330
1F
100
AcDbEntity
  8
치수문자_일반주서
100
AcDbTrace
 10
82.89800000000002
 20
40.04271808473846
 30
0.0
 11
82.89800000000002
 21
41.14338475140513
 31
0.0
 12
86.20000000000002
 22
40.59305141807179
 32
0.0
 13
86.20000000000002
 23
40.59305141807179
 33
0.0
1001
ACAD
1000
DSTYLE
1002
{
1070
   273
1070
     7
1002
}
  0
MTEXT
  5
1A1
330
1F
100
AcDbEntity
  8
치수문자_일반주서
100
AcDbMText
 10
22.7
 20
44.96805141807179
 30
0.0
 40
3.5
 41
0.0
 71
     2
 72
     1
  1
\A1;127 [5]
  7
SLDTEXTSTYLE0
 73
     1
 44
1.0
1001
ACAD
1000
DSTYLE
1002
{
1070
   273
1070
     7
1002
}
  0
LINE
  5
1A2
330
1F
100
AcDbEntity
  8
치수문자_일반주서
100
AcDbLine
 10
86.2
 20
5.651500000000008
 30
0.0
 11
86.2
 21
24.80249453033793
 31
0.0
1001
ACAD
1000
DSTYLE
1002
{
1070
   273
1070
     7
1002
}
  0
LINE
  5
1A3
330
1F
100
AcDbEntity
  8
치수문자_일반주서
100
AcDbLine
 10
9.999999999999998
 20
-7.874999999999994
 30
0.0
 11
9.999999999999996
 21
24.80249453033793
 31
0.0
1001
ACAD
1000
DSTYLE
1002
{
1070
   273
1070
     7
1002
}
  0
LINE
  5
1A4
330
1F
100
AcDbEntity
  8
치수문자_일반주서
100
AcDbLine
 10
82.898
 20
24.80249453033793
 30
0.0
 11
13.302
 21
24.80249453033793
 31
0.0
1001
ACAD
1000
DSTYLE
1002
{
1070
   273
1070
     7
1002
}
  0
SOLID
  5
1A5
330
1F
100
AcDbEntity
  8
치수문자_일반주서
100
AcDbTrace
 10
82.898
 20
24.2521611970046
 30
0.0
 11
82.898
 21
25.35282786367127
 31
0.0
 12
86.2
 22
24.80249453033793
 32
0.0
 13
86.2
 23
24.80249453033793
 33
0.0
1001
ACAD
1000
DSTYLE
1002
{
1070
   273
1070
     7
1002
}
  0
SOLID
  5
1A6
330
1F
100
AcDbEntity
  8
치수문자_일반주서
100
AcDbTrace
 10
13.302
 20
25.35282786367127
 30
0.0
 11
13.302
 21
24.2521611970046
 31
0.0
 12
9.999999999999996
 22
24.80249453033793
 32
0.0
 13
9.999999999999996
 23
24.80249453033793
 33
0.0
1001
ACAD
1000
DSTYLE
1002
{
1070
   273
1070
     7
1002
}
  0
MTEXT
  5
1A7
330
1F
100
AcDbEntity
  8
치수문자_일반주서
100
AcDbMText
 10
47.26180339570446
 20
29.17749453033793
 30
0.0
 40
3.5
 41
0.0
 71
     2
 72
     1
  1
\A1;76.20 [3]
  7
SLDTEXTSTYLE0
 73
     1
 44
1.0
1001
ACAD
1000
DSTYLE
1002
{
1070
   273
1070
     7
1002
}
  0
DIMENSION
  5
1A8
102
{ACAD_REACTORS
102
}
102
{ACAD_XDICTIONARY
360
1A9
102
}
330
1F
100
AcDbEntity
  8
치수문자_일반주서
100
AcDbDimension
  2
*D9
 10
-55.15927784371419
 20
-7.937499999999996
 30
0.0
 11
-55.15927784371419
 21
0.0000000000000062
 31
0.0
 70
   160
  1
{%%C<>[]}
 71
     5
 42
15.875
  3
SLDDIMSTYLE0
100
AcDbAlignedDimension
 13
-40.30000000000001
 23
7.937500000000004
 33
0.0
 14
-40.30000000000001
 24
-7.937499999999997
 34
0.0
 50
90.0
100
AcDbRotatedDimension
1001
ACAD
1000
DSTYLE
1002
{
1070
   171
1070
     3
1070
   283
1070
     1
1070
   170
1070
     1
1070
   273
1070
     7
1002
}
  0
ARC
  5
1BB
102
{ACAD_REACTORS
102
}
330
1F
100
AcDbEntity
  8
0
  6
Continuous
 62
     1
370
    15
100
AcDbCircle
 10
83.914
 20
5.651500000000008
 30
0.0
 40
2.285999999999999
100
AcDbArc
 50
0.0
 51
90.0
  0
ARC
  5
1BC
330
1F
100
AcDbEntity
  8
0
  6
Continuous
 62
     1
370
    15
100
AcDbCircle
 10
83.914
 20
-5.651500000000005
 30
0.0
 40
2.285999999999999
100
AcDbArc
 50
270.0
 51
0.0
  0
LINE
  5
1BD
330
1F
100
AcDbEntity
  8
0
  6
Continuous
 62
     1
370
    15
100
AcDbLine
 10
85.43800000000002
 20
-7.937499999999994
 30
0.0
 11
85.43802500000001
 21
-7.937499999999994
 31
0.0
  0
DIMENSION
  5
1BF
102
{ACAD_REACTORS
102
}
102
{ACAD_XDICTIONARY
360
1C0
102
}
330
1F
100
AcDbEntity
  8
치수문자_일반주서
100
AcDbDimension
  2
*D10
 10
83.914
 20
5.651500000000008
 30
0.0
 11
102.0625507007853
 21
26.85008217145894
 31
0.0
 70
   164
  1
<>
 71
     5
 42
2.286000000000006
  3
SLDDIMSTYLE0
100
AcDbRadialDimension
 15
85.40068584690557
 25
7.388037126758513
 35
0.0
 40
0.0
1001
ACAD
1000
DSTYLE
1002
{
1070
   171
1070
     3
1070
   273
1070
     2
1002
}
1001
ACAD_DSTYLE_DIMRADIAL_EXTENSION
1070
   387
1070
     1
1070
   388
1040
0.0
1070
   390
1040
1.570796326794897
  0
ENDSEC
  0
SECTION
  2
OBJECTS
  0
DICTIONARY
  5
C
330
0
100
AcDbDictionary
281
     1
  3
ACAD_GROUP
350
D
  3
ACAD_IMAGE_VARS
350
17F
  3
ACAD_LAYOUT
350
1A
  3
ACAD_MLINESTYLE
350
17
  3
ACAD_PLOTSETTINGS
350
19
  3
ACAD_PLOTSTYLENAME
350
E
  3
ACAD_SCALELIST
350
47
  3
APPDATA
350
17D
  3
DWGPROPS
350
1CC
  0
DICTIONARY
  5
1A9
330
1A8
100
AcDbDictionary
280
     1
281
     1
  0
DICTIONARY
  5
1C0
330
1BF
100
AcDbDictionary
280
     1
281
     1
  0
DICTIONARY
  5
D
102
{ACAD_REACTORS
330
C
102
}
330
C
100
AcDbDictionary
281
     1
  0
RASTERVARIABLES
  5
17F
102
{ACAD_REACTORS
330
C
102
}
330
C
100
AcDbRasterVariables
 90
        0
 70
     1
 71
     1
 72
     1
  0
DICTIONARY
  5
1A
102
{ACAD_REACTORS
330
C
102
}
330
C
100
AcDbDictionary
281
     1
  3
Layout1
350
1E
  3
Layout2
350
26
  3
Model
350
22
  0
DICTIONARY
  5
17
102
{ACAD_REACTORS
330
C
102
}
330
C
100
AcDbDictionary
281
     1
  3
Standard
350
18
  0
DICTIONARY
  5
19
102
{ACAD_REACTORS
330
C
102
}
330
C
100
AcDbDictionary
281
     1
  0
ACDBDICTIONARYWDFLT
  5
E
102
{ACAD_REACTORS
330
C
102
}
330
C
100
AcDbDictionary
281
     1
  3
Normal
350
F
100
AcDbDictionaryWithDefault
340
F
  0
DICTIONARY
  5
47
102
{ACAD_REACTORS
330
C
102
}
330
C
100
AcDbDictionary
281
     1
  3
A0
350
48
  3
A1
350
49
  3
A2
350
4A
  3
A3
350
4B
  3
A4
350
4C
  3
A5
350
4D
  3
A6
350
4E
  3
A7
350
4F
  3
A8
350
50
  3
A9
350
51
  3
B0
350
52
  3
B1
350
53
  3
B2
350
54
  3
B3
350
55
  3
B4
350
56
  3
B5
350
57
  3
B6
350
58
  3
B7
350
59
  3
B8
350
5A
  3
B9
350
5B
  3
C0
350
5C
  3
C1
350
5D
  3
C2
350
5E
  3
C3
350
5F
  3
C4
350
60
  3
C5
350
61
  3
C6
350
62
  3
C7
350
63
  3
C8
350
64
  3
C9
350
65
  3
D0
350
66
  3
D1
350
67
  3
D2
350
68
  0
DICTIONARY
  5
17D
102
{ACAD_REACTORS
330
C
102
}
330
C
100
AcDbDictionary
281
     1
  0
XRECORD
  5
1CC
102
{ACAD_REACTORS
330
C
102
}
330
C
100
AcDbXrecord
280
     1
  1
DWGPROPS COOKIE
  2

  3

  4

  6

  7

  8
12016016
  9

300
=
301
=
302
=
303
=
304
=
305
=
306
=
307
=
308
=
309
=
 40
0.0
 41
2458236.373145694
 42
2458241.297464746
  1

 90
        0
  0
LAYOUT
  5
1E
102
{ACAD_REACTORS
330
1A
102
}
330
1A
100
AcDbPlotSettings
  1

  2
none_device
  4

  6

 40
0.0
 41
0.0
 42
0.0
 43
0.0
 44
0.0
 45
0.0
 46
0.0
 47
0.0
 48
0.0
 49
0.0
140
0.0
141
0.0
142
1.0
143
1.0
 70
   688
 72
     1
 73
     0
 74
     5
  7

 75
    16
147
1.0
148
0.0
149
0.0
100
AcDbLayout
  1
Layout1
 70
     1
 71
     1
 10
0.0
 20
0.0
 11
420.0
 21
297.0
 12
0.0
 22
0.0
 32
0.0
 14
1.000000000000000E+20
 24
1.000000000000000E+20
 34
1.000000000000000E+20
 15
-1.000000000000000E+20
 25
-1.000000000000000E+20
 35
-1.000000000000000E+20
146
0.0
 13
0.0
 23
0.0
 33
0.0
 16
1.0
 26
0.0
 36
0.0
 17
0.0
 27
1.0
 37
0.0
 76
     0
330
1B
  0
LAYOUT
  5
26
102
{ACAD_REACTORS
330
1A
102
}
330
1A
100
AcDbPlotSettings
  1

  2
none_device
  4

  6

 40
0.0
 41
0.0
 42
0.0
 43
0.0
 44
0.0
 45
0.0
 46
0.0
 47
0.0
 48
0.0
 49
0.0
140
0.0
141
0.0
142
1.0
143
1.0
 70
   688
 72
     1
 73
     0
 74
     5
  7

 75
    16
147
1.0
148
0.0
149
0.0
100
AcDbLayout
  1
Layout2
 70
     1
 71
     2
 10
0.0
 20
0.0
 11
0.0
 21
0.0
 12
0.0
 22
0.0
 32
0.0
 14
0.0
 24
0.0
 34
0.0
 15
0.0
 25
0.0
 35
0.0
146
0.0
 13
0.0
 23
0.0
 33
0.0
 16
1.0
 26
0.0
 36
0.0
 17
0.0
 27
1.0
 37
0.0
 76
     0
330
23
  0
LAYOUT
  5
22
102
{ACAD_REACTORS
330
1A
102
}
330
1A
100
AcDbPlotSettings
  1

  2
none_device
  4
ANSI_A_(11.00_x_8.50_Inches)
  6

 40
6.35
 41
19.05
 42
6.35000508
 43
19.05000254
 44
279.4
 45
215.9
 46
78.1921821748933
 47
88.63870220843127
 48
0.0
 49
0.0
140
0.0
141
0.0
142
0.0506775322124551
143
1.0
 70
  1696
 72
     0
 73
     0
 74
     0
  7

 75
     0
147
0.0235690232323232
148
0.0
149
0.0
100
AcDbLayout
  1
Model
 70
     1
 71
     0
 10
0.0
 20
0.0
 11
420.0
 21
297.0
 12
0.0
 22
0.0
 32
0.0
 14
-59.53427784371419
 24
-49.71142936356762
 34
0.0
 15
112.1632023017268
 25
44.96805141807179
 35
0.0
146
0.0
 13
0.0
 23
0.0
 33
0.0
 16
1.0
 26
0.0
 36
0.0
 17
0.0
 27
1.0
 37
0.0
 76
     0
330
1F
331
29
  0
MLINESTYLE
  5
18
102
{ACAD_REACTORS
330
17
102
}
330
17
100
AcDbMlineStyle
  2
Standard
 70
     0
  3

 62
   256
 51
90.0
 52
90.0
 71
     2
 49
0.5
 62
   256
  6
BYLAYER
 49
-0.5
 62
   256
  6
BYLAYER
  0
ACDBPLACEHOLDER
  5
F
102
{ACAD_REACTORS
330
E
102
}
330
E
  0
SCALE
  5
48
102
{ACAD_REACTORS
330
47
102
}
330
47
100
AcDbScale
 70
     0
300
1:1
140
1.0
141
1.0
290
     1
  0
SCALE
  5
49
102
{ACAD_REACTORS
330
47
102
}
330
47
100
AcDbScale
 70
     0
300
1:2
140
1.0
141
2.0
290
     0
  0
SCALE
  5
4A
102
{ACAD_REACTORS
330
47
102
}
330
47
100
AcDbScale
 70
     0
300
1:4
140
1.0
141
4.0
290
     0
  0
SCALE
  5
4B
102
{ACAD_REACTORS
330
47
102
}
330
47
100
AcDbScale
 70
     0
300
1:5
140
1.0
141
5.0
290
     0
  0
SCALE
  5
4C
102
{ACAD_REACTORS
330
47
102
}
330
47
100
AcDbScale
 70
     0
300
1:8
140
1.0
141
8.0
290
     0
  0
SCALE
  5
4D
102
{ACAD_REACTORS
330
47
102
}
330
47
100
AcDbScale
 70
     0
300
1:10
140
1.0
141
10.0
290
     0
  0
SCALE
  5
4E
102
{ACAD_REACTORS
330
47
102
}
330
47
100
AcDbScale
 70
     0
300
1:16
140
1.0
141
16.0
290
     0
  0
SCALE
  5
4F
102
{ACAD_REACTORS
330
47
102
}
330
47
100
AcDbScale
 70
     0
300
1:20
140
1.0
141
20.0
290
     0
  0
SCALE
  5
50
102
{ACAD_REACTORS
330
47
102
}
330
47
100
AcDbScale
 70
     0
300
1:30
140
1.0
141
30.0
290
     0
  0
SCALE
  5
51
102
{ACAD_REACTORS
330
47
102
}
330
47
100
AcDbScale
 70
     0
300
1:40
140
1.0
141
40.0
290
     0
  0
SCALE
  5
52
102
{ACAD_REACTORS
330
47
102
}
330
47
100
AcDbScale
 70
     0
300
1:50
140
1.0
141
50.0
290
     0
  0
SCALE
  5
53
102
{ACAD_REACTORS
330
47
102
}
330
47
100
AcDbScale
 70
     0
300
1:100
140
1.0
141
100.0
290
     0
  0
SCALE
  5
54
102
{ACAD_REACTORS
330
47
102
}
330
47
100
AcDbScale
 70
     0
300
2:1
140
2.0
141
1.0
290
     0
  0
SCALE
  5
55
102
{ACAD_REACTORS
330
47
102
}
330
47
100
AcDbScale
 70
     0
300
4:1
140
4.0
141
1.0
290
     0
  0
SCALE
  5
56
102
{ACAD_REACTORS
330
47
102
}
330
47
100
AcDbScale
 70
     0
300
8:1
140
8.0
141
1.0
290
     0
  0
SCALE
  5
57
102
{ACAD_REACTORS
330
47
102
}
330
47
100
AcDbScale
 70
     0
300
10:1
140
10.0
141
1.0
290
     0
  0
SCALE
  5
58
102
{ACAD_REACTORS
330
47
102
}
330
47
100
AcDbScale
 70
     0
300
100:1
140
100.0
141
1.0
290
     0
  0
SCALE
  5
59
102
{ACAD_REACTORS
330
47
102
}
330
47
100
AcDbScale
 70
     0
300
1/128" = 1'-0"
140
0.0078125
141
12.0
290
     0
  0
SCALE
  5
5A
102
{ACAD_REACTORS
330
47
102
}
330
47
100
AcDbScale
 70
     0
300
1/64" = 1'-0"
140
0.015625
141
12.0
290
     0
  0
SCALE
  5
5B
102
{ACAD_REACTORS
330
47
102
}
330
47
100
AcDbScale
 70
     0
300
1/32" = 1'-0"
140
0.03125
141
12.0
290
     0
  0
SCALE
  5
5C
102
{ACAD_REACTORS
330
47
102
}
330
47
100
AcDbScale
 70
     0
300
1/16" = 1'-0"
140
0.0625
141
12.0
290
     0
  0
SCALE
  5
5D
102
{ACAD_REACTORS
330
47
102
}
330
47
100
AcDbScale
 70
     0
300
3/32" = 1'-0"
140
0.09375
141
12.0
290
     0
  0
SCALE
  5
5E
102
{ACAD_REACTORS
330
47
102
}
330
47
100
AcDbScale
 70
     0
300
1/8" = 1'-0"
140
0.125
141
12.0
290
     0
  0
SCALE
  5
5F
102
{ACAD_REACTORS
330
47
102
}
330
47
100
AcDbScale
 70
     0
300
3/16" = 1'-0"
140
0.1875
141
12.0
290
     0
  0
SCALE
  5
60
102
{ACAD_REACTORS
330
47
102
}
330
47
100
AcDbScale
 70
     0
300
1/4" = 1'-0"
140
0.25
141
12.0
290
     0
  0
SCALE
  5
61
102
{ACAD_REACTORS
330
47
102
}
330
47
100
AcDbScale
 70
     0
300
3/8" = 1'-0"
140
0.375
141
12.0
290
     0
  0
SCALE
  5
62
102
{ACAD_REACTORS
330
47
102
}
330
47
100
AcDbScale
 70
     0
300
1/2" = 1'-0"
140
0.5
141
12.0
290
     0
  0
SCALE
  5
63
102
{ACAD_REACTORS
330
47
102
}
330
47
100
AcDbScale
 70
     0
300
3/4" = 1'-0"
140
0.75
141
12.0
290
     0
  0
SCALE
  5
64
102
{ACAD_REACTORS
330
47
102
}
330
47
100
AcDbScale
 70
     0
300
1" = 1'-0"
140
1.0
141
12.0
290
     0
  0
SCALE
  5
65
102
{ACAD_REACTORS
330
47
102
}
330
47
100
AcDbScale
 70
     0
300
1-1/2" = 1'-0"
140
1.5
141
12.0
290
     0
  0
SCALE
  5
66
102
{ACAD_REACTORS
330
47
102
}
330
47
100
AcDbScale
 70
     0
300
3" = 1'-0"
140
3.0
141
12.0
290
     0
  0
SCALE
  5
67
102
{ACAD_REACTORS
330
47
102
}
330
47
100
AcDbScale
 70
     0
300
6" = 1'-0"
140
6.0
141
12.0
290
     0
  0
SCALE
  5
68
102
{ACAD_REACTORS
330
47
102
}
330
47
100
AcDbScale
 70
     0
300
1'-0" = 1'-0"
140
12.0
141
12.0
290
     0
  0
ENDSEC
  0
EOF
