  0
SECTION
  2
HEADER
  9
$ACADVER
  1
AC1015
  9
$ACADMAINTVER
 70
     6
  9
$DWGCODEPAGE
  3
ANSI_949
  9
$INSBASE
 10
0.0
 20
0.0
 30
0.0
  9
$EXTMIN
 10
-56.87463083155616
 20
-49.97370379473832
 30
0.0
  9
$EXTMAX
 10
123.9098291449257
 20
44.70577698690109
 30
0.0
  9
$LIMMIN
 10
0.0
 20
0.0
  9
$LIMMAX
 10
420.0
 20
297.0
  9
$ORTHOMODE
 70
     1
  9
$REGENMODE
 70
     1
  9
$FILLMODE
 70
     1
  9
$QTEXTMODE
 70
     0
  9
$MIRRTEXT
 70
     1
  9
$LTSCALE
 40
1.0
  9
$ATTMODE
 70
     1
  9
$TEXTSIZE
 40
3.5
  9
$TRACEWID
 40
1.0
  9
$TEXTSTYLE
  7
Standard
  9
$CLAYER
  8
0
  9
$CELTYPE
  6
ByLayer
  9
$CECOLOR
 62
   256
  9
$CELTSCALE
 40
1.0
  9
$DISPSILH
 70
     0
  9
$DIMSCALE
 40
1.0
  9
$DIMASZ
 40
3.302
  9
$DIMEXO
 40
1.0
  9
$DIMDLI
 40
3.75
  9
$DIMRND
 40
0.0
  9
$DIMDLE
 40
0.0
  9
$DIMEXE
 40
1.0
  9
$DIMTP
 40
0.0
  9
$DIMTM
 40
0.0
  9
$DIMTXT
 40
3.5
  9
$DIMCEN
 40
2.5
  9
$DIMTSZ
 40
0.0
  9
$DIMTOL
 70
     0
  9
$DIMLIM
 70
     0
  9
$DIMTIH
 70
     1
  9
$DIMTOH
 70
     1
  9
$DIMSE1
 70
     0
  9
$DIMSE2
 70
     0
  9
$DIMTAD
 70
     1
  9
$DIMZIN
 70
     0
  9
$DIMBLK
  1

  9
$DIMASO
 70
     1
  9
$DIMSHO
 70
     1
  9
$DIMPOST
  1

  9
$DIMAPOST
  1

  9
$DIMALT
 70
     0
  9
$DIMALTD
 70
     3
  9
$DIMALTF
 40
0.0393700787401575
  9
$DIMLFAC
 40
1.0
  9
$DIMTOFL
 70
     1
  9
$DIMTVP
 40
0.0
  9
$DIMTIX
 70
     0
  9
$DIMSOXD
 70
     0
  9
$DIMSAH
 70
     0
  9
$DIMBLK1
  1

  9
$DIMBLK2
  1

  9
$DIMSTYLE
  2
ISO-25
  9
$DIMCLRD
 70
     0
  9
$DIMCLRE
 70
     0
  9
$DIMCLRT
 70
     0
  9
$DIMTFAC
 40
1.0
  9
$DIMGAP
 40
1.524
  9
$DIMJUST
 70
     0
  9
$DIMSD1
 70
     0
  9
$DIMSD2
 70
     0
  9
$DIMTOLJ
 70
     0
  9
$DIMTZIN
 70
     0
  9
$DIMALTZ
 70
     0
  9
$DIMALTTZ
 70
     0
  9
$DIMUPT
 70
     0
  9
$DIMDEC
 70
     2
  9
$DIMTDEC
 70
     2
  9
$DIMALTU
 70
     2
  9
$DIMALTTD
 70
     3
  9
$DIMTXSTY
  7
Standard
  9
$DIMAUNIT
 70
     0
  9
$DIMADEC
 70
     2
  9
$DIMALTRND
 40
0.0
  9
$DIMAZIN
 70
     0
  9
$DIMDSEP
 70
    44
  9
$DIMATFIT
 70
     3
  9
$DIMFRAC
 70
     0
  9
$DIMLDRBLK
  1

  9
$DIMLUNIT
 70
     2
  9
$DIMLWD
 70
    -2
  9
$DIMLWE
 70
    -2
  9
$DIMTMOVE
 70
     0
  9
$LUNITS
 70
     2
  9
$LUPREC
 70
     2
  9
$SKETCHINC
 40
1.0
  9
$FILLETRAD
 40
10.0
  9
$AUNITS
 70
     0
  9
$AUPREC
 70
     2
  9
$MENU
  1
.
  9
$ELEVATION
 40
0.0
  9
$PELEVATION
 40
0.0
  9
$THICKNESS
 40
0.0
  9
$LIMCHECK
 70
     0
  9
$CHAMFERA
 40
0.0
  9
$CHAMFERB
 40
0.0
  9
$CHAMFERC
 40
0.0
  9
$CHAMFERD
 40
0.0
  9
$SKPOLY
 70
     0
  9
$TDCREATE
 40
2458236.747797211
  9
$TDUCREATE
 40
2458236.372797211
  9
$TDUPDATE
 40
2459683.753124005
  9
$TDUUPDATE
 40
2459683.378124005
  9
$TDINDWG
 40
0.0063184491
  9
$TDUSRTIMER
 40
0.002755544
  9
$USRTIMER
 70
     1
  9
$ANGBASE
 50
0.0
  9
$ANGDIR
 70
     0
  9
$PDMODE
 70
     0
  9
$PDSIZE
 40
-1.0
  9
$PLINEWID
 40
0.0
  9
$SPLFRAME
 70
     0
  9
$SPLINETYPE
 70
     6
  9
$SPLINESEGS
 70
     8
  9
$HANDSEED
  5
1F4
  9
$SURFTAB1
 70
     6
  9
$SURFTAB2
 70
     6
  9
$SURFTYPE
 70
     6
  9
$SURFU
 70
     6
  9
$SURFV
 70
     6
  9
$UCSBASE
  2

  9
$UCSNAME
  2

  9
$UCSORG
 10
0.0
 20
0.0
 30
0.0
  9
$UCSXDIR
 10
1.0
 20
0.0
 30
0.0
  9
$UCSYDIR
 10
0.0
 20
1.0
 30
0.0
  9
$UCSORTHOREF
  2

  9
$UCSORTHOVIEW
 70
     0
  9
$UCSORGTOP
 10
0.0
 20
0.0
 30
0.0
  9
$UCSORGBOTTOM
 10
0.0
 20
0.0
 30
0.0
  9
$UCSORGLEFT
 10
0.0
 20
0.0
 30
0.0
  9
$UCSORGRIGHT
 10
0.0
 20
0.0
 30
0.0
  9
$UCSORGFRONT
 10
0.0
 20
0.0
 30
0.0
  9
$UCSORGBACK
 10
0.0
 20
0.0
 30
0.0
  9
$PUCSBASE
  2

  9
$PUCSNAME
  2

  9
$PUCSORG
 10
0.0
 20
0.0
 30
0.0
  9
$PUCSXDIR
 10
1.0
 20
0.0
 30
0.0
  9
$PUCSYDIR
 10
0.0
 20
1.0
 30
0.0
  9
$PUCSORTHOREF
  2

  9
$PUCSORTHOVIEW
 70
     0
  9
$PUCSORGTOP
 10
0.0
 20
0.0
 30
0.0
  9
$PUCSORGBOTTOM
 10
0.0
 20
0.0
 30
0.0
  9
$PUCSORGLEFT
 10
0.0
 20
0.0
 30
0.0
  9
$PUCSORGRIGHT
 10
0.0
 20
0.0
 30
0.0
  9
$PUCSORGFRONT
 10
0.0
 20
0.0
 30
0.0
  9
$PUCSORGBACK
 10
0.0
 20
0.0
 30
0.0
  9
$USERI1
 70
     0
  9
$USERI2
 70
     0
  9
$USERI3
 70
     0
  9
$USERI4
 70
     0
  9
$USERI5
 70
     0
  9
$USERR1
 40
0.0
  9
$USERR2
 40
0.0
  9
$USERR3
 40
0.0
  9
$USERR4
 40
0.0
  9
$USERR5
 40
0.0
  9
$WORLDVIEW
 70
     1
  9
$SHADEDGE
 70
     3
  9
$SHADEDIF
 70
    70
  9
$TILEMODE
 70
     1
  9
$MAXACTVP
 70
    64
  9
$PINSBASE
 10
0.0
 20
0.0
 30
0.0
  9
$PLIMCHECK
 70
     0
  9
$PEXTMIN
 10
1.000000000000000E+20
 20
1.000000000000000E+20
 30
1.000000000000000E+20
  9
$PEXTMAX
 10
-1.000000000000000E+20
 20
-1.000000000000000E+20
 30
-1.000000000000000E+20
  9
$PLIMMIN
 10
0.0
 20
0.0
  9
$PLIMMAX
 10
0.0
 20
0.0
  9
$UNITMODE
 70
     0
  9
$VISRETAIN
 70
     1
  9
$PLINEGEN
 70
     0
  9
$PSLTSCALE
 70
     1
  9
$TREEDEPTH
 70
  3020
  9
$CMLSTYLE
  2
Standard
  9
$CMLJUST
 70
     0
  9
$CMLSCALE
 40
20.0
  9
$PROXYGRAPHICS
 70
     1
  9
$MEASUREMENT
 70
     1
  9
$CELWEIGHT
370
    -1
  9
$ENDCAPS
280
     0
  9
$JOINSTYLE
280
     0
  9
$LWDISPLAY
290
     1
  9
$INSUNITS
 70
     4
  9
$HYPERLINKBASE
  1

  9
$STYLESHEET
  1

  9
$XEDIT
290
     1
  9
$CEPSNTYPE
380
     0
  9
$PSTYLEMODE
290
     1
  9
$FINGERPRINTGUID
  2
{5BCE509E-21D6-4545-BD5E-CA35E8EB2BC9}
  9
$VERSIONGUID
  2
{FAEB1C32-E019-11D5-929B-00C0DF256EC4}
  9
$EXTNAMES
290
     1
  9
$PSVPSCALE
 40
0.0
  9
$OLESTARTUP
290
     0
  0
ENDSEC
  0
SECTION
  2
CLASSES
  0
CLASS
  1
ACDBDICTIONARYWDFLT
  2
AcDbDictionaryWithDefault
  3
ObjectDBX Classes
 90
        0
280
     0
281
     0
  0
CLASS
  1
VISUALSTYLE
  2
AcDbVisualStyle
  3
ObjectDBX Classes
 90
     4095
280
     0
281
     0
  0
CLASS
  1
MATERIAL
  2
AcDbMaterial
  3
ObjectDBX Classes
 90
     1153
280
     0
281
     0
  0
CLASS
  1
SCALE
  2
AcDbScale
  3
ObjectDBX Classes
 90
     1153
280
     0
281
     0
  0
CLASS
  1
SUN
  2
AcDbSun
  3
SCENEOE
 90
     1153
280
     0
281
     0
  0
CLASS
  1
ACDBPLACEHOLDER
  2
AcDbPlaceHolder
  3
ObjectDBX Classes
 90
        0
280
     0
281
     0
  0
CLASS
  1
LAYOUT
  2
AcDbLayout
  3
ObjectDBX Classes
 90
        0
280
     0
281
     0
  0
CLASS
  1
TABLESTYLE
  2
AcDbTableStyle
  3
ObjectDBX Classes
 90
     4095
280
     0
281
     0
  0
CLASS
  1
MLEADERSTYLE
  2
AcDbMLeaderStyle
  3
ACDB_MLEADERSTYLE_CLASS
 90
     4095
280
     0
281
     0
  0
CLASS
  1
RASTERVARIABLES
  2
AcDbRasterVariables
  3
ISM
 90
        0
280
     0
281
     0
  0
CLASS
  1
DIMASSOC
  2
AcDbDimAssoc
  3
"AcDbDimAssoc|Product Desc:     AcDim ARX App For Dimension|Company:          Autodesk, Inc.|WEB Address:      www.autodesk.com"
 90
        0
280
     0
281
     0
  0
CLASS
  1
BREAKDATA
  2
AcDbBreakData
  3
ObjectDBX Classes
 90
     1024
280
     0
281
     0
  0
ENDSEC
  0
SECTION
  2
TABLES
  0
TABLE
  2
VPORT
  5
8
330
0
100
AcDbSymbolTable
 70
     1
  0
VPORT
  5
29
330
8
100
AcDbSymbolTableRecord
100
AcDbViewportTableRecord
  2
*Active
 70
     0
 10
0.0
 20
0.0
 11
1.0
 21
1.0
 12
14.67361399030595
 22
5.501135366014239
 13
0.0
 23
0.0
 14
10.0
 24
10.0
 15
10.0
 25
10.0
 16
0.0
 26
0.0
 36
1.0
 17
0.0
 27
0.0
 37
0.0
 40
183.5844273090672
 41
1.326295585412668
 42
50.0
 43
0.0
 44
0.0
 50
0.0
 51
0.0
 71
    16
 72
  2000
 73
     1
 74
     3
 75
     0
 76
     0
 77
     0
 78
     0
281
     0
 65
     1
110
0.0
120
0.0
130
0.0
111
1.0
121
0.0
131
0.0
112
0.0
122
1.0
132
0.0
 79
     0
146
0.0
  0
ENDTAB
  0
TABLE
  2
LTYPE
  5
5
330
0
100
AcDbSymbolTable
 70
     6
  0
LTYPE
  5
14
330
5
100
AcDbSymbolTableRecord
100
AcDbLinetypeTableRecord
  2
ByBlock
 70
     0
  3

 72
    65
 73
     0
 40
0.0
  0
LTYPE
  5
15
330
5
100
AcDbSymbolTableRecord
100
AcDbLinetypeTableRecord
  2
ByLayer
 70
     0
  3

 72
    65
 73
     0
 40
0.0
  0
LTYPE
  5
16
330
5
100
AcDbSymbolTableRecord
100
AcDbLinetypeTableRecord
  2
Continuous
 70
     0
  3
Solid line
 72
    65
 73
     0
 40
0.0
  0
LTYPE
  5
6A
330
5
100
AcDbSymbolTableRecord
100
AcDbLinetypeTableRecord
  2
HIDDEN
 70
     0
  3
Hidden __ __ __ __ __ __ __ __ __ __ __ __ __ __
 72
    65
 73
     2
 40
1.905
 49
1.27
 74
     0
 49
-0.635
 74
     0
  0
LTYPE
  5
6B
330
5
100
AcDbSymbolTableRecord
100
AcDbLinetypeTableRecord
  2
PHANTOM
 70
     0
  3
Phantom ______  __  __  ______  __  __  ______
 72
    65
 73
     6
 40
12.7
 49
6.35
 74
     0
 49
-1.27
 74
     0
 49
1.27
 74
     0
 49
-1.27
 74
     0
 49
1.27
 74
     0
 49
-1.27
 74
     0
  0
LTYPE
  5
6C
330
5
100
AcDbSymbolTableRecord
100
AcDbLinetypeTableRecord
  2
CENTER
 70
     0
  3
Center ____ _ ____ _ ____ _ ____ _ ____ _ ____
 72
    65
 73
     4
 40
10.16
 49
6.35
 74
     0
 49
-1.27
 74
     0
 49
1.27
 74
     0
 49
-1.27
 74
     0
  0
LTYPE
  5
6D
330
5
100
AcDbSymbolTableRecord
100
AcDbLinetypeTableRecord
  2
CENTERX2
 70
     0
  3
Center (2x) ________  __  ________  __  _____
 72
    65
 73
     4
 40
20.32
 49
12.7
 74
     0
 49
-2.54
 74
     0
 49
2.54
 74
     0
 49
-2.54
 74
     0
  0
LTYPE
  5
6E
330
5
100
AcDbSymbolTableRecord
100
AcDbLinetypeTableRecord
  2
DOT2
 70
     0
  3
Dot (.5x) ........................................
 72
    65
 73
     2
 40
0.635
 49
0.0
 74
     0
 49
-0.635
 74
     0
  0
ENDTAB
  0
TABLE
  2
LAYER
  5
2
330
0
100
AcDbSymbolTable
 70
    17
  0
LAYER
  5
10
330
2
100
AcDbSymbolTableRecord
100
AcDbLayerTableRecord
  2
0
 70
     0
 62
     7
  6
Continuous
370
    -3
390
F
  0
LAYER
  5
6F
330
2
100
AcDbSymbolTableRecord
100
AcDbLayerTableRecord
  2
FORMAT
 70
     0
 62
     2
  6
Continuous
370
    -3
390
F
  0
LAYER
  5
70
330
2
100
AcDbSymbolTableRecord
100
AcDbLayerTableRecord
  2
외형선
 70
     0
 62
   100
  6
Continuous
370
    30
390
F
  0
LAYER
  5
71
330
2
100
AcDbSymbolTableRecord
100
AcDbLayerTableRecord
  2
숨은선
 70
     0
 62
     2
  6
HIDDEN
370
    15
390
F
  0
LAYER
  5
72
330
2
100
AcDbSymbolTableRecord
100
AcDbLayerTableRecord
  2
중심선
 70
     0
 62
     1
  6
CENTERX2
370
    -3
390
F
  0
LAYER
  5
73
330
2
100
AcDbSymbolTableRecord
100
AcDbLayerTableRecord
  2
파단선
 70
     0
 62
     4
  6
Continuous
370
    -3
390
F
  0
LAYER
  5
74
330
2
100
AcDbSymbolTableRecord
100
AcDbLayerTableRecord
  2
해칭선
 70
     0
 62
     4
  6
Continuous
370
    -3
390
F
  0
LAYER
  5
75
330
2
100
AcDbSymbolTableRecord
100
AcDbLayerTableRecord
  2
가는실선
 70
     0
 62
     4
  6
Continuous
370
    -3
390
F
  0
LAYER
  5
76
330
2
100
AcDbSymbolTableRecord
100
AcDbLayerTableRecord
  2
치수_보조선
 70
     0
 62
     4
  6
Continuous
370
    -3
390
F
  0
LAYER
  5
77
330
2
100
AcDbSymbolTableRecord
100
AcDbLayerTableRecord
  2
치수문자_일반주서
 70
     0
 62
     7
  6
Continuous
370
    15
390
F
  0
LAYER
  5
78
330
2
100
AcDbSymbolTableRecord
100
AcDbLayerTableRecord
  2
개별주서
 70
     0
 62
   100
  6
Continuous
370
    30
390
F
  0
LAYER
  5
79
330
2
100
AcDbSymbolTableRecord
100
AcDbLayerTableRecord
  2
중간선
 70
     0
 62
     2
  6
Continuous
370
    15
390
F
  0
LAYER
  5
7A
330
2
100
AcDbSymbolTableRecord
100
AcDbLayerTableRecord
  2
윤곽선
 70
     0
 62
     3
  6
Continuous
370
    40
390
F
  0
LAYER
  5
7B
330
2
100
AcDbSymbolTableRecord
100
AcDbLayerTableRecord
  2
중심마크
 70
     0
 62
   100
  6
Continuous
370
    30
390
F
  0
LAYER
  5
7C
330
2
100
AcDbSymbolTableRecord
100
AcDbLayerTableRecord
  2
가상선
 70
     0
 62
     4
  6
PHANTOM
370
    -3
390
F
  0
LAYER
  5
7D
330
2
100
AcDbSymbolTableRecord
100
AcDbLayerTableRecord
  2
특수지정선
 70
     0
 62
     5
  6
CENTERX2
370
    60
390
F
  0
LAYER
  5
16D
330
2
100
AcDbSymbolTableRecord
100
AcDbLayerTableRecord
  2
Defpoints
 70
     0
 62
     7
  6
Continuous
290
     0
370
    -3
390
F
  0
ENDTAB
  0
TABLE
  2
STYLE
  5
3
330
0
100
AcDbSymbolTable
 70
     2
  0
STYLE
  5
11
330
3
100
AcDbSymbolTableRecord
100
AcDbTextStyleTableRecord
  2
Standard
 70
     0
 40
0.0
 41
1.0
 50
0.0
 71
     0
 42
3.5
  3
txt
  4

  0
STYLE
  5
93
330
3
100
AcDbSymbolTableRecord
100
AcDbTextStyleTableRecord
  2
SLDTEXTSTYLE0
 70
     0
 40
0.0
 41
0.75
 50
0.0
 71
     0
 42
3.5
  3
TXT
  4

  0
ENDTAB
  0
TABLE
  2
VIEW
  5
6
330
0
100
AcDbSymbolTable
 70
     0
  0
ENDTAB
  0
TABLE
  2
UCS
  5
7
330
0
100
AcDbSymbolTable
 70
     0
  0
ENDTAB
  0
TABLE
  2
APPID
  5
9
330
0
100
AcDbSymbolTable
 70
     6
  0
APPID
  5
12
330
9
100
AcDbSymbolTableRecord
100
AcDbRegAppTableRecord
  2
ACAD
 70
     0
  0
APPID
  5
17F
330
9
100
AcDbSymbolTableRecord
100
AcDbRegAppTableRecord
  2
PE_DIMMEASUREMENT
 70
     0
  0
APPID
  5
182
330
9
100
AcDbSymbolTableRecord
100
AcDbRegAppTableRecord
  2
ACAD_DSTYLE_DIMRADIAL_EXTENSION
 70
     0
  0
APPID
  5
1D6
330
9
100
AcDbSymbolTableRecord
100
AcDbRegAppTableRecord
  2
ENABLE_CUSTOM_SPLIT
 70
     0
  0
APPID
  5
1ED
330
9
100
AcDbSymbolTableRecord
100
AcDbRegAppTableRecord
  2
FX_DIMP_FAV_VERSION
 70
     0
  0
APPID
  5
1EF
330
9
100
AcDbSymbolTableRecord
100
AcDbRegAppTableRecord
  2
FX_DIMP_RECENT_VERSION
 70
     0
  0
ENDTAB
  0
TABLE
  2
DIMSTYLE
  5
A
330
0
100
AcDbSymbolTable
 70
     5
100
AcDbDimStyleTable
  0
DIMSTYLE
105
27
102
{ACAD_REACTORS
330
1DF
102
}
330
A
100
AcDbSymbolTableRecord
100
AcDbDimStyleTableRecord
  2
ISO-25
 70
     0
 41
2.5
 42
0.625
 43
3.75
 44
1.25
 73
     0
 74
     0
 77
     1
 78
     8
140
2.5
141
2.5
143
0.03937007874016
147
0.625
171
     3
172
     1
178
     0
271
     2
272
     2
274
     3
278
    44
283
     0
284
     8
340
11
  0
DIMSTYLE
105
F5
102
{ACAD_REACTORS
330
F4
330
16E
330
109
330
11D
102
}
330
A
100
AcDbSymbolTableRecord
100
AcDbDimStyleTableRecord
  2
SLDDIMSTYLE0
 70
     0
 41
3.302
 44
0.0
 45
0.000000001
 73
     0
 74
     0
 77
     1
 78
    12
 79
     3
140
3.5
143
0.0393700787401575
147
0.875
148
0.000000001
170
     1
172
     1
173
     1
178
     0
271
     2
272
     2
276
     2
284
    12
289
     0
340
93
  0
DIMSTYLE
105
10A
330
A
100
AcDbSymbolTableRecord
100
AcDbDimStyleTableRecord
  2
SLDDIMSTYLE1
 70
     0
 41
3.302
 44
0.0
 45
0.000000001
 73
     0
 74
     0
 77
     1
 78
    12
 79
     3
140
3.5
143
0.0393700787401575
147
0.875
148
0.000000001
170
     1
173
     1
178
     0
271
     2
272
     2
276
     2
284
    12
340
93
  0
DIMSTYLE
105
11E
330
A
100
AcDbSymbolTableRecord
100
AcDbDimStyleTableRecord
  2
SLDDIMSTYLE2
 70
     0
 41
3.302
 44
0.0
 45
0.000000001
 73
     0
 74
     0
 77
     1
 78
     4
 79
     1
140
3.5
143
0.0393700787401575
147
0.875
148
0.000000001
170
     1
173
     1
178
     0
271
     2
272
     2
276
     2
284
    12
340
93
  0
DIMSTYLE
105
132
330
A
100
AcDbSymbolTableRecord
100
AcDbDimStyleTableRecord
  2
SLDDIMSTYLE3
 70
     0
 41
3.302
 44
0.0
 45
0.000000001
 73
     0
 74
     0
 77
     1
 78
     8
 79
     2
140
3.5
143
0.0393700787401575
147
0.875
148
0.000000001
170
     1
172
     1
173
     1
178
     0
271
     2
272
     2
276
     2
284
    12
289
     0
340
93
341
133
343
133
344
133
  0
ENDTAB
  0
TABLE
  2
BLOCK_RECORD
  5
1
330
0
100
AcDbSymbolTable
 70
    12
  0
BLOCK_RECORD
  5
1F
102
{ACAD_XDICTIONARY
360
1F1
102
}
330
1
100
AcDbSymbolTableRecord
100
AcDbBlockTableRecord
  2
*Model_Space
340
22
  0
BLOCK_RECORD
  5
1B
330
1
100
AcDbSymbolTableRecord
100
AcDbBlockTableRecord
  2
*Paper_Space
340
1E
  0
BLOCK_RECORD
  5
23
330
1
100
AcDbSymbolTableRecord
100
AcDbBlockTableRecord
  2
*Paper_Space0
340
26
  0
BLOCK_RECORD
  5
7E
330
1
100
AcDbSymbolTableRecord
100
AcDbBlockTableRecord
  2
블럭10
340
0
102
{BLKREFS
331
EC
102
}
  0
BLOCK_RECORD
  5
F6
330
1
100
AcDbSymbolTableRecord
100
AcDbBlockTableRecord
  2
_D
340
0
  0
BLOCK_RECORD
  5
10B
330
1
100
AcDbSymbolTableRecord
100
AcDbBlockTableRecord
  2
_D_1
340
0
  0
BLOCK_RECORD
  5
11F
330
1
100
AcDbSymbolTableRecord
100
AcDbBlockTableRecord
  2
_D_2
340
0
  0
BLOCK_RECORD
  5
133
330
1
100
AcDbSymbolTableRecord
100
AcDbBlockTableRecord
  2
_NONE
340
0
  0
BLOCK_RECORD
  5
136
330
1
100
AcDbSymbolTableRecord
100
AcDbBlockTableRecord
  2
_D_3
340
0
  0
BLOCK_RECORD
  5
142
330
1
100
AcDbSymbolTableRecord
100
AcDbBlockTableRecord
  2
SW_DOWELSYMBOL_0
340
0
102
{BLKREFS
331
148
102
}
  0
BLOCK_RECORD
  5
171
330
1
100
AcDbSymbolTableRecord
100
AcDbBlockTableRecord
  2
*D8
340
0
  0
BLOCK_RECORD
  5
187
330
1
100
AcDbSymbolTableRecord
100
AcDbBlockTableRecord
  2
*D9
340
0
  0
BLOCK_RECORD
  5
195
330
1
100
AcDbSymbolTableRecord
100
AcDbBlockTableRecord
  2
*D10
340
0
  0
BLOCK_RECORD
  5
1E2
330
1
100
AcDbSymbolTableRecord
100
AcDbBlockTableRecord
  2
*D12
340
0
  0
ENDTAB
  0
ENDSEC
  0
SECTION
  2
BLOCKS
  0
BLOCK
  5
20
330
1F
100
AcDbEntity
  8
0
100
AcDbBlockBegin
  2
*Model_Space
 70
     0
 10
0.0
 20
0.0
 30
0.0
  3
*Model_Space
  1
*Model_Space
  0
ENDBLK
  5
21
330
1F
100
AcDbEntity
  8
0
100
AcDbBlockEnd
  0
BLOCK
  5
1C
330
1B
100
AcDbEntity
 67
     1
  8
0
100
AcDbBlockBegin
  2
*Paper_Space
 70
     0
 10
0.0
 20
0.0
 30
0.0
  3
*Paper_Space
  1
*Paper_Space
  0
ENDBLK
  5
1D
330
1B
100
AcDbEntity
 67
     1
  8
0
100
AcDbBlockEnd
  0
BLOCK
  5
24
330
23
100
AcDbEntity
  8
0
100
AcDbBlockBegin
  2
*Paper_Space0
 70
     0
 10
0.0
 20
0.0
 30
0.0
  3
*Paper_Space0
  1
*Paper_Space0
  0
ENDBLK
  5
25
330
23
100
AcDbEntity
  8
0
100
AcDbBlockEnd
  0
BLOCK
  5
7F
330
7E
100
AcDbEntity
  8
0
100
AcDbBlockBegin
  2
블럭10
 70
     2
 10
0.0
 20
0.0
 30
0.0
  3
블럭10
  1
블럭10
  0
ELLIPSE
  5
81
330
7E
100
AcDbEntity
  8
중심선
100
AcDbEllipse
 10
20.54032771741204
 20
12.0471743016438
 30
0.0
 11
6.600054785286829
 21
-1.261213355974178E-13
 31
0.0
210
0.0
220
0.0
230
1.0
 40
0.636358354079598
 41
0.9219305317359503
 42
6.513795318482858
  0
ELLIPSE
  5
82
330
7E
100
AcDbEntity
  8
중심선
100
AcDbEllipse
 10
20.54032771746488
 20
12.04717430159265
 30
0.0
 11
3.960054785062283
 21
1.540847449632565E-10
 31
0.0
210
0.0
220
0.0
230
1.0
 40
0.3939339440162632
 41
1.131841032648279
 42
5.62031148352944
  0
LINE
  5
83
330
7E
100
AcDbEntity
  8
중심선
100
AcDbLine
 10
2.268634060543552
 20
16.24717430164393
 30
0.0
 11
5.714909304380834
 21
16.24717430164393
 31
0.0
  0
LINE
  5
84
330
7E
100
AcDbEntity
  8
중심선
100
AcDbLine
 10
5.245725140726316
 20
7.84717430164391
 30
0.0
 11
8.692000384563599
 21
7.84717430164391
 31
0.0
  0
LINE
  5
85
330
7E
100
AcDbEntity
  8
중심선
100
AcDbLine
 10
15.74043728645272
 20
16.24717430164393
 30
0.0
 11
8.692000384563599
 21
7.84717430164391
 31
0.0
  0
LINE
  5
86
330
7E
100
AcDbEntity
  8
중심선
100
AcDbLine
 10
0.1404042013395286
 20
13.71084872107135
 30
0.0
 11
3.58671253028996
 21
13.71088815037384
 31
0.0
  0
LINE
  5
87
330
7E
100
AcDbEntity
  8
중심선
100
AcDbLine
 10
2.750260043222114
 20
10.84717430164391
 30
0.0
 11
6.196535287059397
 21
10.84717430164391
 31
0.0
  0
LINE
  5
88
330
7E
100
AcDbEntity
  8
중심선
100
AcDbLine
 10
12.29416204261559
 20
16.24717430164393
 30
0.0
 11
5.245725140726316
 21
7.84717430164391
 31
0.0
  0
LINE
  5
89
330
7E
100
AcDbEntity
  8
중심선
100
AcDbLine
 10
10.72767329541681
 20
16.24717430164393
 30
0.0
 11
6.196535287059397
 21
10.84717430164391
 31
0.0
  0
LINE
  5
8A
330
7E
100
AcDbEntity
  8
중심선
100
AcDbLine
 10
7.28139805157953
 20
16.24717430164393
 30
0.0
 11
2.750260043222114
 21
10.84717430164391
 31
0.0
  0
LINE
  5
8B
330
7E
100
AcDbEntity
  8
중심선
100
AcDbLine
 10
5.714909304380834
 20
16.24717430164393
 30
0.0
 11
3.58671253028996
 21
13.71088815037384
 31
0.0
  0
LINE
  5
8C
330
7E
100
AcDbEntity
  8
중심선
100
AcDbLine
 10
2.268634060543552
 20
16.24717430164393
 30
0.0
 11
0.1404042013395286
 21
13.71084872107135
 31
0.0
  0
LINE
  5
8D
330
7E
100
AcDbEntity
  8
중심선
100
AcDbLine
 10
7.28139805157953
 20
16.24717430164393
 30
0.0
 11
10.72767329541681
 21
16.24717430164393
 31
0.0
  0
LINE
  5
8E
330
7E
100
AcDbEntity
  8
중심선
100
AcDbLine
 10
12.29416204261559
 20
16.24717430164393
 30
0.0
 11
15.74043728645272
 21
16.24717430164393
 31
0.0
  0
LINE
  5
8F
330
7E
100
AcDbEntity
  8
중심선
100
AcDbLine
 10
19.22036997980202
 20
11.08717430171403
 30
0.0
 11
23.66174974927406
 21
11.08717430171406
 31
0.0
  0
LINE
  5
90
330
7E
100
AcDbEntity
  8
중심선
100
AcDbLine
 10
19.22039502424796
 20
13.00717430171391
 30
0.0
 11
19.22036997980202
 21
11.08717430171403
 31
0.0
  0
LINE
  5
91
330
7E
100
AcDbEntity
  8
중심선
100
AcDbLine
 10
19.22039502424796
 20
13.00717430171391
 30
0.0
 11
26.96566020931264
 21
13.00717430171391
 31
0.0
  0
LINE
  5
92
330
7E
100
AcDbEntity
  8
중심선
100
AcDbLine
 10
22.22332737316547
 20
13.45928029700563
 30
0.0
 11
24.52862924686651
 21
15.39360700705356
 31
0.0
  0
ATTDEF
  5
94
330
7E
100
AcDbEntity
  8
FORMAT
 62
     2
100
AcDbText
 10
-11.05102035218446
 20
2.075366912832191
 30
0.0
 40
4.233333333333333
  1
GMG22938[ 6 FLUTE ]
 41
0.75
  7
SLDTEXTSTYLE0
 11
-11.05102035218446
 21
-0.0412997538344756
 31
0.0
100
AcDbAttributeDefinition
  3

  2
AUTOATTR0
 70
     0
 74
     1
  0
ENDBLK
  5
80
330
7E
100
AcDbEntity
  8
0
100
AcDbBlockEnd
  0
BLOCK
  5
F7
330
F6
100
AcDbEntity
  8
0
100
AcDbBlockBegin
  2
_D
 70
     0
 10
0.0
 20
0.0
 30
0.0
  3
_D
  1
_D
  0
LINE
  5
F9
330
F6
100
AcDbEntity
  8
치수문자_일반주서
 62
     0
370
    -2
100
AcDbLine
 10
85.48001407992554
 20
-8.199774431170688
 30
0.0
 11
101.3770612739105
 21
-8.19977443117062
 31
0.0
  0
LINE
  5
FA
330
F6
100
AcDbEntity
  8
치수문자_일반주서
 62
     0
370
    -2
100
AcDbLine
 10
86.26201407992554
 20
7.675225568829323
 30
0.0
 11
101.3770612739105
 21
7.675225568829382
 31
0.0
  0
LINE
  5
FB
330
F6
100
AcDbEntity
  8
치수문자_일반주서
 62
     0
370
    -2
100
AcDbLine
 10
101.3770612739105
 20
-4.897774431170621
 30
0.0
 11
101.3770612739105
 21
4.373225568829382
 31
0.0
  0
SOLID
  5
FC
330
F6
100
AcDbEntity
  8
치수문자_일반주서
 62
     0
100
AcDbTrace
 10
100.8267279405772
 20
-4.897774431170623
 30
0.0
 11
101.9273946072439
 21
-4.897774431170619
 31
0.0
 12
101.3770612739105
 22
-8.19977443117062
 32
0.0
 13
101.3770612739105
 23
-8.19977443117062
 33
0.0
  0
SOLID
  5
FD
330
F6
100
AcDbEntity
  8
치수문자_일반주서
 62
     0
100
AcDbTrace
 10
101.9273946072438
 20
4.373225568829383
 30
0.0
 11
100.8267279405772
 21
4.37322556882938
 31
0.0
 12
101.3770612739105
 22
7.675225568829382
 32
0.0
 13
101.3770612739105
 23
7.675225568829382
 33
0.0
  0
MTEXT
  5
FE
330
F6
100
AcDbEntity
  8
치수문자_일반주서
 62
     0
100
AcDbMText
 10
97.0020612739105
 20
3.720141088259105
 30
0.0
 40
3.5
 41
0.0
 71
     2
 72
     1
  1
\A1;%%c15.88 [5/8]
  7
SLDTEXTSTYLE0
 11
-3.580687802255623E-15
 21
1.0
 31
0.0
 73
     1
 44
1.0
  0
POINT
  5
FF
330
F6
100
AcDbEntity
  8
Defpoints
 62
     0
100
AcDbPoint
 10
83.91351407992556
 20
-8.199774431170688
 30
0.0
  0
POINT
  5
100
330
F6
100
AcDbEntity
  8
Defpoints
 62
     0
100
AcDbPoint
 10
86.19951407992554
 20
7.675225568829323
 30
0.0
  0
POINT
  5
101
330
F6
100
AcDbEntity
  8
Defpoints
 62
     0
100
AcDbPoint
 10
101.3770612739105
 20
7.67522556882938
 30
0.0
  0
ENDBLK
  5
F8
330
F6
100
AcDbEntity
  8
0
100
AcDbBlockEnd
  0
BLOCK
  5
10C
330
10B
100
AcDbEntity
  8
0
100
AcDbBlockBegin
  2
_D_1
 70
     0
 10
0.0
 20
0.0
 30
0.0
  3
_D_1
  1
_D_1
  0
LINE
  5
10E
330
10B
100
AcDbEntity
  8
치수문자_일반주서
 62
     0
370
    -2
100
AcDbLine
 10
-40.80048592007447
 20
7.237725568829307
 30
0.0
 11
-40.80048592007446
 21
40.33077698690109
 31
0.0
  0
LINE
  5
10F
330
10B
100
AcDbEntity
  8
치수문자_일반주서
 62
     0
370
    -2
100
AcDbLine
 10
86.19951407992554
 20
7.551813903600403
 30
0.0
 11
86.19951407992555
 21
40.33077698690109
 31
0.0
  0
LINE
  5
110
330
10B
100
AcDbEntity
  8
치수문자_일반주서
 62
     0
370
    -2
100
AcDbLine
 10
-37.49848592007447
 20
40.33077698690109
 30
0.0
 11
82.89751407992554
 21
40.33077698690109
 31
0.0
  0
SOLID
  5
111
330
10B
100
AcDbEntity
  8
치수문자_일반주서
 62
     0
100
AcDbTrace
 10
-37.49848592007447
 20
40.88111032023443
 30
0.0
 11
-37.49848592007447
 21
39.78044365356776
 31
0.0
 12
-40.80048592007446
 22
40.33077698690109
 32
0.0
 13
-40.80048592007446
 23
40.33077698690109
 33
0.0
  0
SOLID
  5
112
330
10B
100
AcDbEntity
  8
치수문자_일반주서
 62
     0
100
AcDbTrace
 10
82.89751407992554
 20
39.78044365356776
 30
0.0
 11
82.89751407992554
 21
40.88111032023443
 31
0.0
 12
86.19951407992555
 22
40.33077698690109
 32
0.0
 13
86.19951407992555
 23
40.33077698690109
 33
0.0
  0
MTEXT
  5
113
330
10B
100
AcDbEntity
  8
치수문자_일반주서
 62
     0
100
AcDbMText
 10
22.69951407992554
 20
44.70577698690109
 30
0.0
 40
3.5
 41
0.0
 71
     2
 72
     1
  1
\A1;127 [5]
  7
SLDTEXTSTYLE0
 73
     1
 44
1.0
  0
POINT
  5
114
330
10B
100
AcDbEntity
  8
Defpoints
 62
     0
100
AcDbPoint
 10
-40.80048592007447
 20
7.175225568829307
 30
0.0
  0
POINT
  5
115
330
10B
100
AcDbEntity
  8
Defpoints
 62
     0
100
AcDbPoint
 10
86.19951407992554
 20
7.489313903600403
 30
0.0
  0
POINT
  5
116
330
10B
100
AcDbEntity
  8
Defpoints
 62
     0
100
AcDbPoint
 10
86.19951407992554
 20
40.33077698690109
 30
0.0
  0
ENDBLK
  5
10D
330
10B
100
AcDbEntity
  8
0
100
AcDbBlockEnd
  0
BLOCK
  5
120
330
11F
100
AcDbEntity
  8
0
100
AcDbBlockBegin
  2
_D_2
 70
     0
 10
0.0
 20
0.0
 30
0.0
  3
_D_2
  1
_D_2
  0
LINE
  5
122
330
11F
100
AcDbEntity
  8
치수문자_일반주서
 62
     0
370
    -2
100
AcDbLine
 10
86.19951407992554
 20
7.737725568829323
 30
0.0
 11
86.19951407992554
 21
23.01622009916723
 31
0.0
  0
LINE
  5
123
330
11F
100
AcDbEntity
  8
치수문자_일반주서
 62
     0
370
    -2
100
AcDbLine
 10
9.999514079925536
 20
-8.109108528592078
 30
0.0
 11
9.999514079925524
 21
-5.914007223237509
 31
0.0
  0
LINE
  5
124
330
11F
100
AcDbEntity
  8
치수문자_일반주서
 62
     0
370
    -2
100
AcDbLine
 10
9.999514079925525
 20
-3.575861071445707
 30
0.0
 11
9.999514079925524
 21
1.761519670291616
 31
0.0
  0
LINE
  5
125
330
11F
100
AcDbEntity
  8
치수문자_일반주서
 62
     0
370
    -2
100
AcDbLine
 10
9.999514079925525
 20
4.333473025975765
 30
0.0
 11
9.999514079925524
 21
7.350752462358443
 31
0.0
  0
LINE
  5
126
330
11F
100
AcDbEntity
  8
치수문자_일반주서
 62
     0
370
    -2
100
AcDbLine
 10
9.99951407992552
 20
7.737725568829313
 30
0.0
 11
9.999514079925532
 21
23.01622009916723
 31
0.0
  0
LINE
  5
127
330
11F
100
AcDbEntity
  8
치수문자_일반주서
 62
     0
370
    -2
100
AcDbLine
 10
82.89751407992553
 20
23.01622009916723
 30
0.0
 11
13.30151407992553
 21
23.01622009916723
 31
0.0
  0
SOLID
  5
128
330
11F
100
AcDbEntity
  8
치수문자_일반주서
 62
     0
100
AcDbTrace
 10
82.89751407992553
 20
22.4658867658339
 30
0.0
 11
82.89751407992553
 21
23.56655343250057
 31
0.0
 12
86.19951407992554
 22
23.01622009916723
 32
0.0
 13
86.19951407992554
 23
23.01622009916723
 33
0.0
  0
SOLID
  5
129
330
11F
100
AcDbEntity
  8
치수문자_일반주서
 62
     0
100
AcDbTrace
 10
13.30151407992553
 20
23.56655343250057
 30
0.0
 11
13.30151407992553
 21
22.4658867658339
 31
0.0
 12
9.999514079925532
 22
23.01622009916723
 32
0.0
 13
9.999514079925532
 23
23.01622009916723
 33
0.0
  0
MTEXT
  5
12A
330
11F
100
AcDbEntity
  8
치수문자_일반주서
 62
     0
100
AcDbMText
 10
47.26131747562998
 20
27.39122009916723
 30
0.0
 40
3.5
 41
0.0
 71
     2
 72
     1
  1
\A1;76.2 [3]
  7
SLDTEXTSTYLE0
 73
     1
 44
1.0
  0
POINT
  5
1D7
330
11F
100
AcDbEntity
  8
Defpoints
 62
     0
100
AcDbPoint
 10
86.19951407992554
 20
7.675225568829323
 30
0.0
  0
POINT
  5
1D8
330
11F
100
AcDbEntity
  8
Defpoints
 62
     0
100
AcDbPoint
 10
9.999514079925536
 20
-8.171608528592078
 30
0.0
  0
POINT
  5
1D9
330
11F
100
AcDbEntity
  8
Defpoints
 62
     0
100
AcDbPoint
 10
9.999514079925536
 20
23.01622009916723
 30
0.0
  0
ENDBLK
  5
121
330
11F
100
AcDbEntity
  8
0
100
AcDbBlockEnd
  0
BLOCK
  5
134
330
133
100
AcDbEntity
  8
0
100
AcDbBlockBegin
  2
_NONE
 70
     0
 10
0.0
 20
0.0
 30
0.0
  3
_NONE
  1
_NONE
  0
ENDBLK
  5
135
330
133
100
AcDbEntity
  8
0
100
AcDbBlockEnd
  0
BLOCK
  5
137
330
136
100
AcDbEntity
  8
0
100
AcDbBlockBegin
  2
_D_3
 70
     0
 10
0.0
 20
0.0
 30
0.0
  3
_D_3
  1
_D_3
  0
LINE
  5
139
330
136
100
AcDbEntity
  8
치수문자_일반주서
100
AcDbLine
 10
-64.5933676361172
 20
-13.61414086223942
 30
0.0
 11
-64.5933676361172
 21
-14.32507834780392
 31
0.0
  0
LINE
  5
13A
330
136
100
AcDbEntity
  8
치수문자_일반주서
100
AcDbLine
 10
-64.5933676361172
 20
-14.32507834780392
 30
0.0
 11
-59.0371176450579
 21
-14.32507834780388
 31
0.0
  0
LINE
  5
13B
330
136
100
AcDbEntity
  8
치수문자_일반주서
100
AcDbLine
 10
-59.0371176450579
 20
-14.32507834780388
 30
0.0
 11
-59.0371176450579
 21
-13.61414086223938
 31
0.0
  0
LINE
  5
13C
330
136
100
AcDbEntity
  8
치수문자_일반주서
100
AcDbLine
 10
-64.59336763611728
 20
-2.785408000102166
 30
0.0
 11
-64.59336763611728
 21
-2.074470514537666
 31
0.0
  0
LINE
  5
13D
330
136
100
AcDbEntity
  8
치수문자_일반주서
100
AcDbLine
 10
-64.59336763611728
 20
-2.074470514537666
 30
0.0
 11
-59.03711764505798
 21
-2.074470514537627
 31
0.0
  0
LINE
  5
13E
330
136
100
AcDbEntity
  8
치수문자_일반주서
100
AcDbLine
 10
-59.03711764505798
 20
-2.074470514537627
 30
0.0
 11
-59.03711764505798
 21
-2.785408000102127
 31
0.0
  0
MTEXT
  5
13F
330
136
100
AcDbEntity
  8
치수문자_일반주서
100
AcDbMText
 10
-63.54885455963681
 20
-12.72546896162804
 30
0.0
 40
3.5
 41
0.0
 71
     1
 72
     1
  1
0.00
  7
SLDTEXTSTYLE0
 11
-7.044195017643634E-15
 21
1.0
 31
0.0
 73
     1
 44
1.0
  0
MTEXT
  5
140
330
136
100
AcDbEntity
  8
치수문자_일반주서
100
AcDbMText
 10
-58.31222300927633
 20
-12.13204884353452
 30
0.0
 40
3.5
 41
0.0
 71
     1
 72
     1
  1
%%c
  7
SLDTEXTSTYLE0
 11
-7.044195017643634E-15
 21
1.0
 31
0.0
 73
     1
 44
1.0
  0
MTEXT
  5
141
330
136
100
AcDbEntity
  8
치수문자_일반주서
100
AcDbMText
 10
-58.31222300927637
 20
-6.85361144516044
 30
0.0
 40
3.5
 41
0.0
 71
     1
 72
     1
  1
0
  7
SLDTEXTSTYLE0
 11
-7.044195017643634E-15
 21
1.0
 31
0.0
 73
     1
 44
1.0
  0
ENDBLK
  5
138
330
136
100
AcDbEntity
  8
0
100
AcDbBlockEnd
  0
BLOCK
  5
143
330
142
100
AcDbEntity
  8
0
100
AcDbBlockBegin
  2
SW_DOWELSYMBOL_0
 70
     0
 10
0.0
 20
0.0
 30
0.0
  3
SW_DOWELSYMBOL_0
  1
SW_DOWELSYMBOL_0
  0
CIRCLE
  5
145
330
142
100
AcDbEntity
  8
외형선
 62
     0
100
AcDbCircle
 10
0.0
 20
0.0
 30
0.0
 40
3.000000000000001
  0
HATCH
  5
146
330
142
100
AcDbEntity
  8
0
  6
Continuous
 62
     0
370
    30
100
AcDbHatch
 10
0.0
 20
0.0
 30
0.0
210
0.0
220
0.0
230
1.0
  2
SOLID
 70
     1
 71
     0
 91
        1
 92
        0
 93
        3
 72
     2
 10
0.0
 20
0.0
 40
3.000000000000001
 50
0.0
 51
90.0
 73
     1
 72
     1
 10
0.0
 20
3.000000000000001
 11
0.0
 21
0.0
 72
     1
 10
0.0
 20
0.0
 11
3.000000000000003
 21
0.0
 97
        0
 75
     0
 76
     1
 98
        1
 10
0.0
 20
0.0
  0
HATCH
  5
147
330
142
100
AcDbEntity
  8
0
  6
Continuous
 62
     0
370
    30
100
AcDbHatch
 10
0.0
 20
0.0
 30
0.0
210
0.0
220
0.0
230
1.0
  2
SOLID
 70
     1
 71
     0
 91
        1
 92
        0
 93
        3
 72
     2
 10
0.0
 20
0.0
 40
3.000000000000001
 50
180.0
 51
270.0000000000007
 73
     1
 72
     1
 10
0.0
 20
-3.000000000000001
 11
0.0
 21
0.0
 72
     1
 10
0.0
 20
0.0
 11
-3.000000000000003
 21
0.0
 97
        0
 75
     0
 76
     1
 98
        1
 10
0.0
 20
0.0
  0
ENDBLK
  5
144
330
142
100
AcDbEntity
  8
0
100
AcDbBlockEnd
  0
BLOCK
  5
172
330
171
100
AcDbEntity
  8
0
100
AcDbBlockBegin
  2
*D8
 70
     1
 10
0.0
 20
0.0
 30
0.0
  3
*D8
  1
*D8
  0
LINE
  5
174
330
171
100
AcDbEntity
  8
치수문자_일반주서
 62
     0
370
    -2
100
AcDbLine
 10
-40.36298592007447
 20
7.675225568829307
 30
0.0
 11
-52.49963083155616
 21
7.675225568829308
 31
0.0
  0
LINE
  5
175
330
171
100
AcDbEntity
  8
치수문자_일반주서
 62
     0
370
    -2
100
AcDbLine
 10
-40.36298592007447
 20
-8.199774431170692
 30
0.0
 11
-52.49963083155616
 21
-8.199774431170692
 31
0.0
  0
LINE
  5
176
330
171
100
AcDbEntity
  8
치수문자_일반주서
 62
     0
370
    -2
100
AcDbLine
 10
-52.49963083155616
 20
4.373225568829309
 30
0.0
 11
-52.49963083155616
 21
-4.897774431170692
 31
0.0
  0
SOLID
  5
177
330
171
100
AcDbEntity
  8
치수문자_일반주서
 62
     0
100
AcDbTrace
 10
-51.94929749822283
 20
4.373225568829309
 30
0.0
 11
-53.0499641648895
 21
4.373225568829309
 31
0.0
 12
-52.49963083155616
 22
7.675225568829308
 32
0.0
 13
-52.49963083155616
 23
7.675225568829308
 33
0.0
  0
SOLID
  5
178
330
171
100
AcDbEntity
  8
치수문자_일반주서
 62
     0
100
AcDbTrace
 10
-53.0499641648895
 20
-4.897774431170692
 30
0.0
 11
-51.94929749822283
 21
-4.897774431170692
 31
0.0
 12
-52.49963083155616
 22
-8.199774431170692
 32
0.0
 13
-52.49963083155616
 23
-8.199774431170692
 33
0.0
  0
MTEXT
  5
179
330
171
100
AcDbEntity
  8
치수문자_일반주서
 62
     0
100
AcDbMText
 10
-55.12463083155616
 20
-0.2622744311706917
 30
0.0
 40
3.5
 41
0.0
 71
     5
 72
     1
  1
\A1;{%%C15.88 [5/8]}
  7
SLDTEXTSTYLE0
 11
0.0
 21
1.0
 31
0.0
 73
     1
 44
1.0
  0
POINT
  5
17A
330
171
100
AcDbEntity
  8
Defpoints
 62
     0
100
AcDbPoint
 10
-40.30048592007447
 20
7.675225568829307
 30
0.0
  0
POINT
  5
17B
330
171
100
AcDbEntity
  8
Defpoints
 62
     0
100
AcDbPoint
 10
-40.30048592007447
 20
-8.199774431170692
 30
0.0
  0
POINT
  5
17C
330
171
100
AcDbEntity
  8
Defpoints
 62
     0
100
AcDbPoint
 10
-52.49963083155616
 20
-8.199774431170692
 30
0.0
  0
ENDBLK
  5
173
330
171
100
AcDbEntity
  8
0
100
AcDbBlockEnd
  0
BLOCK
  5
188
330
187
100
AcDbEntity
  8
0
100
AcDbBlockBegin
  2
*D9
 70
     1
 10
0.0
 20
0.0
 30
0.0
  3
*D9
  1
*D9
  0
LINE
  5
18A
330
187
100
AcDbEntity
  8
치수문자_일반주서
 62
     0
370
    -2
100
AcDbLine
 10
87.79180264813694
 20
10.21614744495891
 30
0.0
 11
107.1550474768161
 21
37.31586510166389
 31
0.0
  0
MTEXT
  5
18B
330
187
100
AcDbEntity
  8
치수문자_일반주서
 62
     0
100
AcDbMText
 10
96.88014300086118
 20
27.45092906487166
 30
0.0
 40
3.5
 41
0.0
 71
     5
 72
     1
  1
\A1;R.78 [R0.031]
  7
SLDTEXTSTYLE0
 11
0.5813635083769348
 21
0.8136439461629772
 31
0.0
 73
     1
 44
1.0
  0
LINE
  5
18C
330
187
100
AcDbEntity
  8
치수문자_일반주서
 62
     0
370
    -2
100
AcDbLine
 10
85.41751407992554
 20
6.893225568829313
 30
0.0
 11
85.8721403434763
 21
7.529495134728763
 31
0.0
  0
SOLID
  5
18D
330
187
100
AcDbEntity
  8
치수문자_일반주서
 62
     0
100
AcDbTrace
 10
87.34402726309858
 20
10.53609116240235
 30
0.0
 11
88.23957803317529
 21
9.896203727515474
 31
0.0
 12
85.8721403434763
 22
7.529495134728763
 32
0.0
 13
85.8721403434763
 23
7.529495134728763
 33
0.0
  0
POINT
  5
18E
330
187
100
AcDbEntity
  8
Defpoints
 62
     0
100
AcDbPoint
 10
85.8721403434763
 20
7.529495134728763
 30
0.0
  0
POINT
  5
18F
330
187
100
AcDbEntity
  8
Defpoints
 62
     0
100
AcDbPoint
 10
85.41751407992554
 20
6.893225568829313
 30
0.0
  0
ENDBLK
  5
189
330
187
100
AcDbEntity
  8
0
100
AcDbBlockEnd
  0
BLOCK
  5
196
330
195
100
AcDbEntity
  8
0
100
AcDbBlockBegin
  2
*D10
 70
     1
 10
0.0
 20
0.0
 30
0.0
  3
*D10
  1
*D10
  0
LINE
  5
198
330
195
100
AcDbEntity
  8
0
 62
     0
370
    -2
100
AcDbLine
 10
134.0957342590547
 20
21.12421701538844
 30
0.0
 11
94.65506759238801
 21
21.12421701538844
 31
0.0
  0
LINE
  5
199
330
195
100
AcDbEntity
  8
0
 62
     0
370
    -2
100
AcDbLine
 10
94.65506759238801
 20
21.12421701538844
 30
0.0
 11
87.64111545571491
 21
10.31881353611137
 31
0.0
  0
MTEXT
  5
19A
330
195
100
AcDbEntity
  8
0
 62
     0
100
AcDbMText
 10
115.7207342590547
 20
24.68988368205511
 30
0.0
 40
3.5
 41
0.0
 71
     5
 72
     1
  1
R0,78 [R0,03]
 73
     1
 44
1.0
  0
LINE
  5
19B
330
195
100
AcDbEntity
  8
0
 62
     0
370
    -2
100
AcDbLine
 10
85.41751407992554
 20
6.893225568829313
 30
0.0
 11
85.8432869192662
 21
7.54915352926383
 31
0.0
  0
SOLID
  5
19C
330
195
100
AcDbEntity
  8
0
 62
     0
100
AcDbTrace
 10
87.17950545457366
 20
10.61845162551949
 30
0.0
 11
88.10272545685616
 21
10.01917544670325
 31
0.0
 12
85.8432869192662
 22
7.54915352926383
 32
0.0
 13
85.8432869192662
 23
7.54915352926383
 33
0.0
  0
POINT
  5
19D
330
195
100
AcDbEntity
  8
Defpoints
 62
     0
100
AcDbPoint
 10
85.8432869192662
 20
7.54915352926383
 30
0.0
  0
POINT
  5
19E
330
195
100
AcDbEntity
  8
Defpoints
 62
     0
100
AcDbPoint
 10
85.41751407992554
 20
6.893225568829313
 30
0.0
  0
ENDBLK
  5
197
330
195
100
AcDbEntity
  8
0
100
AcDbBlockEnd
  0
BLOCK
  5
1E3
330
1E2
100
AcDbEntity
  8
0
100
AcDbBlockBegin
  2
*D12
 70
     1
 10
0.0
 20
0.0
 30
0.0
  3
*D12
  1

  0
LINE
  5
1E5
330
1E2
100
AcDbEntity
  8
0
 62
     0
370
    -2
100
AcDbLine
 10
123.9098291449257
 20
21.57522556882931
 30
0.0
 11
89.71916247825901
 21
21.57522556882931
 31
0.0
  0
LINE
  5
1E6
330
1E2
100
AcDbEntity
  8
0
 62
     0
370
    -2
100
AcDbLine
 10
89.71916247825901
 20
21.57522556882931
 30
0.0
 11
86.57671687458159
 21
10.81429119153394
 31
0.0
  0
MTEXT
  5
1E7
330
1E2
100
AcDbEntity
  8
0
 62
     0
100
AcDbMText
 10
107.5764958115924
 20
25.14089223549598
 30
0.0
 40
3.5
 41
0.0
 71
     5
 72
     1
  1
R0,76 [0.03]
 73
     1
 44
1.0
  0
LINE
  5
1E8
330
1E2
100
AcDbEntity
  8
0
 62
     0
370
    -2
100
AcDbLine
 10
85.43751407992553
 20
6.913225568829313
 30
0.0
 11
85.65111460392355
 21
7.644675373086434
 31
0.0
  0
SOLID
  5
1E9
330
1E2
100
AcDbEntity
  8
0
 62
     0
100
AcDbTrace
 10
86.04844757150701
 20
10.96855823664362
 30
0.0
 11
87.10498617765617
 21
10.66002414642427
 31
0.0
 12
85.65111460392355
 22
7.644675373086434
 32
0.0
 13
85.65111460392355
 23
7.644675373086434
 33
0.0
  0
POINT
  5
1EA
330
1E2
100
AcDbEntity
  8
Defpoints
 62
     0
100
AcDbPoint
 10
85.65111460392355
 20
7.644675373086434
 30
0.0
  0
POINT
  5
1EB
330
1E2
100
AcDbEntity
  8
Defpoints
 62
     0
100
AcDbPoint
 10
85.43751407992553
 20
6.913225568829313
 30
0.0
  0
ENDBLK
  5
1E4
330
1E2
100
AcDbEntity
  8
0
100
AcDbBlockEnd
  0
ENDSEC
  0
SECTION
  2
ENTITIES
  0
LINE
  5
95
102
{ACAD_REACTORS
330
1D5
102
}
330
1F
100
AcDbEntity
  8
0
  6
Continuous
 62
     4
370
    15
100
AcDbLine
 10
9.99951407992552
 20
7.675225568829313
 30
0.0
 11
-40.30048592007447
 21
7.675225568829309
 31
0.0
  0
LINE
  5
96
330
1F
100
AcDbEntity
  8
0
  6
Continuous
 62
     4
370
    15
100
AcDbLine
 10
-40.30048592007447
 20
-8.199774431170692
 30
0.0
 11
9.99951407992552
 21
-8.199774431170688
 31
0.0
  0
LINE
  5
97
330
1F
100
AcDbEntity
  8
0
  6
Continuous
 62
     4
370
    15
100
AcDbLine
 10
-40.30048592007447
 20
7.675225568829307
 30
0.0
 11
-40.80048592007447
 21
7.175225568829306
 31
0.0
  0
LINE
  5
98
330
1F
100
AcDbEntity
  8
0
  6
Continuous
 62
     4
370
    15
100
AcDbLine
 10
-40.80048592007447
 20
-7.699774431170689
 30
0.0
 11
-40.30048592007447
 21
-8.19977443117069
 31
0.0
  0
LINE
  5
99
330
1F
100
AcDbEntity
  8
0
  6
Continuous
 62
     1
370
    15
100
AcDbLine
 10
74.45209631870821
 20
-8.199774431170688
 30
0.0
 11
77.16713487810351
 21
-8.199774431170688
 31
0.0
  0
LINE
  5
9A
330
1F
100
AcDbEntity
  8
0
  6
Continuous
 62
     1
370
    15
100
AcDbLine
 10
24.57927690380167
 20
-8.199774431170688
 30
0.0
 11
27.29352822135482
 21
-8.199774431170688
 31
0.0
  0
LINE
  5
9B
330
1F
100
AcDbEntity
  8
0
  6
Continuous
 62
     1
370
    15
100
AcDbLine
 10
52.22909759233315
 20
7.675225568829313
 30
0.0
 11
49.51664215718173
 21
7.675225568829313
 31
0.0
  0
LINE
  5
9C
330
1F
100
AcDbEntity
  8
0
  6
Continuous
 62
     1
370
    15
100
AcDbLine
 10
57.8274790733709
 20
-8.199774431170688
 30
0.0
 11
60.54307094509296
 21
-8.199774431170688
 31
0.0
  0
LINE
  5
9D
330
1F
100
AcDbEntity
  8
0
  6
Continuous
 62
     1
370
    15
100
AcDbLine
 10
9.999514079925522
 20
-8.199774431170688
 30
0.0
 11
10.6688235112537
 21
-8.199774431170688
 31
0.0
  0
LINE
  5
9E
330
1F
100
AcDbEntity
  8
0
  6
Continuous
 62
     1
370
    15
100
AcDbLine
 10
35.60484349194172
 20
7.675225568829313
 30
0.0
 11
32.89195424655161
 21
7.675225568829313
 31
0.0
  0
LINE
  5
9F
330
1F
100
AcDbEntity
  8
0
  6
Continuous
 62
     1
370
    15
100
AcDbLine
 10
85.43751407992553
 20
7.675225568829313
 30
0.0
 11
82.76424722378981
 21
7.675225568829313
 31
0.0
  0
LINE
  5
A0
330
1F
100
AcDbEntity
  8
0
  6
Continuous
 62
     1
370
    15
100
AcDbLine
 10
49.51664215718176
 20
-8.199774431170688
 30
0.0
 11
52.22909759233317
 21
-8.199774431170688
 31
0.0
  0
LINE
  5
A1
330
1F
100
AcDbEntity
  8
0
  6
Continuous
 62
     1
370
    15
100
AcDbLine
 10
27.29352822135482
 20
7.675225568829313
 30
0.0
 11
24.57927690380172
 21
7.675225568829313
 31
0.0
  0
LINE
  5
A2
330
1F
100
AcDbEntity
  8
0
  6
Continuous
 62
     1
370
    15
100
AcDbLine
 10
77.16713487810352
 20
7.675225568829313
 30
0.0
 11
74.4520963187083
 21
7.675225568829313
 31
0.0
  0
LINE
  5
A3
330
1F
100
AcDbEntity
  8
0
  6
Continuous
 62
     1
370
    15
100
AcDbLine
 10
66.14131922615812
 20
-8.199774431170688
 30
0.0
 11
68.85377282174919
 21
-8.199774431170688
 31
0.0
  0
LINE
  5
A4
330
1F
100
AcDbEntity
  8
0
  6
Continuous
 62
     1
370
    15
100
AcDbLine
 10
16.26776933923034
 20
-8.199774431170688
 30
0.0
 11
18.98120000422299
 21
-8.199774431170688
 31
0.0
  0
LINE
  5
A5
330
1F
100
AcDbEntity
  8
0
  6
Continuous
 62
     1
370
    15
100
AcDbLine
 10
43.91820014918915
 20
7.675225568829313
 30
0.0
 11
41.2029981117045
 21
7.675225568829313
 31
0.0
  0
LINE
  5
A6
330
1F
100
AcDbEntity
  8
0
  6
Continuous
 62
     1
370
    15
100
AcDbLine
 10
41.20299811170457
 20
-8.199774431170688
 30
0.0
 11
43.91820014918918
 21
-8.199774431170688
 31
0.0
  0
LINE
  5
A7
330
1F
100
AcDbEntity
  8
0
  6
Continuous
 62
     1
370
    15
100
AcDbLine
 10
18.98120000422307
 20
7.675225568829313
 30
0.0
 11
16.26776933923041
 21
7.675225568829313
 31
0.0
  0
LINE
  5
A8
330
1F
100
AcDbEntity
  8
0
  6
Continuous
 62
     1
370
    15
100
AcDbLine
 10
68.85377282174927
 20
7.675225568829313
 30
0.0
 11
66.14131922615819
 21
7.675225568829313
 31
0.0
  0
LINE
  5
A9
102
{ACAD_REACTORS
330
1DD
102
}
330
1F
100
AcDbEntity
  8
0
  6
Continuous
 62
     1
370
    15
100
AcDbLine
 10
82.76424722378985
 20
-8.199774431170688
 30
0.0
 11
85.43751407992555
 21
-8.19977443117069
 31
0.0
  0
LINE
  5
AA
330
1F
100
AcDbEntity
  8
0
  6
Continuous
 62
     1
370
    15
100
AcDbLine
 10
32.89195424655158
 20
-8.199774431170688
 30
0.0
 11
35.60484349194174
 21
-8.199774431170688
 31
0.0
  0
LINE
  5
AB
102
{ACAD_REACTORS
330
1D5
102
}
330
1F
100
AcDbEntity
  8
0
  6
Continuous
 62
     1
370
    15
100
AcDbLine
 10
10.66882351125375
 20
7.675225568829313
 30
0.0
 11
9.999514079925522
 21
7.675225568829313
 31
0.0
  0
LINE
  5
AC
330
1F
100
AcDbEntity
  8
0
  6
Continuous
 62
     1
370
    15
100
AcDbLine
 10
60.54307094509301
 20
7.675225568829313
 30
0.0
 11
57.82747907337088
 21
7.675225568829313
 31
0.0
  0
SPLINE
  5
AF
330
1F
100
AcDbEntity
  8
0
  6
Continuous
 62
     4
370
    15
100
AcDbSpline
210
0.0
220
0.0
230
1.0
 70
     8
 71
     3
 72
    14
 73
    10
 74
     0
 42
0.000000001
 43
0.00000001
 40
0.0
 40
0.0
 40
0.0
 40
0.0
 40
0.25
 40
0.25
 40
0.5
 40
0.5
 40
0.75
 40
0.75
 40
1.0
 40
1.0
 40
1.0
 40
1.0
 10
7.474536699202857
 20
-1.220957932540267
 30
0.0
 10
7.363690074450719
 20
-1.110513319885333
 30
0.0
 10
7.272524067547502
 20
-0.9863098654009066
 30
0.0
 10
7.12468675196554
 20
-0.7134116485866253
 30
0.0
 10
7.069545200836636
 20
-0.566059365816129
 30
0.0
 10
6.993357227849756
 20
-0.2650668162865825
 30
0.0
 10
6.971713269572271
 20
-0.109133612142109
 30
0.0
 10
6.950001622373884
 20
0.2009160112025495
 30
0.0
 10
6.949890455152926
 20
0.3563085114262383
 30
0.0
 10
6.949890455152926
 20
0.5114699469396018
 30
0.0
  0
SPLINE
  5
B0
330
1F
100
AcDbEntity
  8
0
  6
Continuous
 62
     4
370
    15
100
AcDbSpline
210
0.0
220
0.0
230
1.0
 70
     8
 71
     3
 72
    22
 73
    18
 74
     0
 42
0.000000001
 43
0.00000001
 40
0.0
 40
0.0
 40
0.0
 40
0.0
 40
0.1250000000000001
 40
0.1250000000000001
 40
0.2500000000000001
 40
0.2500000000000001
 40
0.3750000000000001
 40
0.3750000000000001
 40
0.5000000000000001
 40
0.5000000000000001
 40
0.6250000000000001
 40
0.6250000000000001
 40
0.7500000000000001
 40
0.7500000000000001
 40
0.8750000000000001
 40
0.8750000000000001
 40
1.0
 40
1.0
 40
1.0
 40
1.0
 10
6.949890455152928
 20
0.5114699469396018
 30
0.0
 10
6.949890455152929
 20
0.6866536689884513
 30
0.0
 10
6.950229248510915
 20
0.8608834615282832
 30
0.0
 10
6.980860141919546
 20
1.20482741473444
 30
0.0
 10
7.011105821265854
 20
1.376570161833577
 30
0.0
 10
7.117555302909083
 20
1.704547852256701
 30
0.0
 10
7.193203326695874
 20
1.859638696324227
 30
0.0
 10
7.39453431989359
 20
2.138869558296747
 30
0.0
 10
7.516334908576743
 20
2.258788198163328
 30
0.0
 10
7.804713416314484
 20
2.456034883563078
 30
0.0
 10
7.96301784201117
 20
2.527877908843021
 30
0.0
 10
8.305820896001313
 20
2.617812581566012
 30
0.0
 10
8.482021140372753
 20
2.633512274339909
 30
0.0
 10
8.836012309730464
 20
2.606497771721137
 30
0.0
 10
9.007905605719971
 20
2.563921323604998
 30
0.0
 10
9.328928781776451
 20
2.423313482682969
 30
0.0
 10
9.474029530703444
 20
2.327083391110467
 30
0.0
 10
9.599857196550186
 20
2.207134117797509
 30
0.0
  0
LINE
  5
B2
330
1F
100
AcDbEntity
  8
0
  6
Continuous
 62
     4
370
    15
100
AcDbLine
 10
-40.30048592007447
 20
7.675225568829307
 30
0.0
 11
-40.30048592007447
 21
-8.199774431170692
 31
0.0
  0
SPLINE
  5
B3
330
1F
100
AcDbEntity
  8
0
  6
Continuous
 62
     4
370
    15
100
AcDbSpline
210
0.0
220
0.0
230
1.0
 70
     8
 71
     3
 72
    10
 73
     6
 74
     0
 42
0.000000001
 43
0.00000001
 40
0.0
 40
0.0
 40
0.0
 40
0.0
 40
0.5
 40
0.5
 40
1.0
 40
1.0
 40
1.0
 40
1.0
 10
9.999514079925536
 20
-8.171608528592078
 30
0.0
 10
9.577782297088364
 20
-8.136146087535389
 30
0.0
 10
9.160584928760937
 20
-8.06748416040451
 30
0.0
 10
8.315761857264146
 20
-7.864334890970135
 30
0.0
 10
7.893323620529169
 20
-7.730037480269008
 30
0.0
 10
7.474536699202859
 20
-7.565370584356456
 30
0.0
  0
LINE
  5
B4
102
{ACAD_REACTORS
330
1D5
102
}
330
1F
100
AcDbEntity
  8
0
  6
Continuous
 62
     1
370
    15
100
AcDbLine
 10
9.99951407992552
 20
7.675225568829313
 30
0.0
 11
9.999514079925524
 21
7.413252462358443
 31
0.0
  0
SPLINE
  5
B5
102
{ACAD_REACTORS
330
1D5
102
}
330
1F
100
AcDbEntity
  8
0
  6
Continuous
 62
     4
370
    15
100
AcDbSpline
210
0.0
220
0.0
230
1.0
 70
     8
 71
     3
 72
     8
 73
     4
 74
     0
 42
0.000000001
 43
0.00000001
 40
0.0
 40
0.0
 40
0.0
 40
0.0
 40
1.0
 40
1.0
 40
1.0
 40
1.0
 10
9.999514079925524
 20
7.413252462358443
 30
0.0
 10
9.865936312211707
 20
7.447254527373073
 30
0.0
 10
9.732633450893527
 20
7.477976825494999
 30
0.0
 10
9.59985719655022
 20
7.505380612392585
 30
0.0
  0
SPLINE
  5
B6
330
1F
100
AcDbEntity
  8
0
  6
Continuous
 62
     4
370
    15
100
AcDbSpline
210
0.0
220
0.0
230
1.0
 70
     8
 71
     3
 72
    22
 73
    18
 74
     0
 42
0.000000001
 43
0.00000001
 40
0.0
 40
0.0
 40
0.0
 40
0.0
 40
0.1250000000000001
 40
0.1250000000000001
 40
0.2500000000000002
 40
0.2500000000000002
 40
0.3750000000000002
 40
0.3750000000000002
 40
0.5000000000000002
 40
0.5000000000000002
 40
0.6250000000000002
 40
0.6250000000000002
 40
0.7500000000000001
 40
0.7500000000000001
 40
0.8750000000000001
 40
0.8750000000000001
 40
1.0
 40
1.0
 40
1.0
 40
1.0
 10
6.949890455152928
 20
6.965936765381998
 30
0.0
 10
6.949890455152928
 20
7.038668879660589
 30
0.0
 10
6.950229248510915
 20
7.105889884675697
 30
0.0
 10
6.980860141919547
 20
7.228600389709557
 30
0.0
 10
7.011105821265854
 20
7.284691051254351
 30
0.0
 10
7.117555302909083
 20
7.382435652756327
 30
0.0
 10
7.193203326695875
 20
7.42378244607804
 30
0.0
 10
7.394534319893594
 20
7.491519771821676
 30
0.0
 10
7.516334908576748
 20
7.517022009170981
 30
0.0
 10
7.804713416314491
 20
7.555921347102168
 30
0.0
 10
7.963017842011179
 20
7.568324673600066
 30
0.0
 10
8.305820896001324
 20
7.583508072654097
 30
0.0
 10
8.482021140372764
 20
7.585923744173179
 30
0.0
 10
8.836012309730476
 20
7.581534174748293
 30
0.0
 10
9.007905605719982
 20
7.57473253284489
 30
0.0
 10
9.328928781776463
 20
7.549511561167442
 30
0.0
 10
9.474029530703445
 20
7.53135027509877
 30
0.0
 10
9.599857196550188
 20
7.505380612392594
 30
0.0
  0
SPLINE
  5
B7
330
1F
100
AcDbEntity
  8
0
  6
Continuous
 62
     4
370
    15
100
AcDbSpline
210
0.0
220
0.0
230
1.0
 70
     8
 71
     3
 72
    14
 73
    10
 74
     0
 42
0.000000001
 43
0.00000001
 40
0.0
 40
0.0
 40
0.0
 40
0.0
 40
0.2499999999999999
 40
0.2499999999999999
 40
0.4999999999999999
 40
0.4999999999999999
 40
0.7499999999999999
 40
0.7499999999999999
 40
1.0
 40
1.0
 40
1.0
 40
1.0
 10
7.474536699202856
 20
6.082138220645535
 30
0.0
 10
7.363690074450719
 20
6.148997972621173
 30
0.0
 10
7.272524067547503
 20
6.222152178271427
 30
0.0
 10
7.12468675196554
 20
6.376144635478865
 30
0.0
 10
7.069545200836636
 20
6.456110308926078
 30
0.0
 10
6.993357227849755
 20
6.611641516357431
 30
0.0
 10
6.971713269572271
 20
6.688406272285928
 30
0.0
 10
6.950001622373884
 20
6.832998548819438
 30
0.0
 10
6.949890455152929
 20
6.901517428200426
 30
0.0
 10
6.949890455152931
 20
6.965936765382
 30
0.0
  0
SPLINE
  5
B8
102
{ACAD_REACTORS
330
1D5
102
}
330
1F
100
AcDbEntity
  8
0
  6
Continuous
 62
     4
370
    15
100
AcDbSpline
210
0.0
220
0.0
230
1.0
 70
     8
 71
     3
 72
    10
 73
     6
 74
     0
 42
0.000000001
 43
0.00000001
 40
0.0
 40
0.0
 40
0.0
 40
0.0
 40
0.5
 40
0.5
 40
1.0
 40
1.0
 40
1.0
 40
1.0
 10
9.999514079925536
 20
4.270973025975751
 30
0.0
 10
9.577782297088364
 20
4.616826914109068
 30
0.0
 10
9.160584928760937
 20
4.94234264454198
 30
0.0
 10
8.315761857264144
 20
5.549406827625558
 30
0.0
 10
7.893323620529169
 20
5.829537027301779
 30
0.0
 10
7.474536699202859
 20
6.082138220645537
 30
0.0
  0
LINE
  5
B9
102
{ACAD_REACTORS
330
1D5
102
}
330
1F
100
AcDbEntity
  8
0
  6
Continuous
 62
     1
370
    15
100
AcDbLine
 10
9.999514079925525
 20
4.270973025975765
 30
0.0
 11
9.999514079925524
 21
1.824019670291616
 31
0.0
  0
SPLINE
  5
BA
102
{ACAD_REACTORS
330
1D5
102
}
330
1F
100
AcDbEntity
  8
0
  6
Continuous
 62
     4
370
    15
100
AcDbSpline
210
0.0
220
0.0
230
1.0
 70
     8
 71
     3
 72
     8
 73
     4
 74
     0
 42
0.000000001
 43
0.00000001
 40
0.0
 40
0.0
 40
0.0
 40
0.0
 40
1.0
 40
1.0
 40
1.0
 40
1.0
 10
9.999514079925524
 20
1.824019670291616
 30
0.0
 10
9.865936312211703
 20
1.952777054039968
 30
0.0
 10
9.73263345089352
 20
2.080560878800153
 30
0.0
 10
9.59985719655021
 20
2.207134117797486
 30
0.0
  0
SPLINE
  5
BB
102
{ACAD_REACTORS
330
1D5
102
}
330
1F
100
AcDbEntity
  8
0
  6
Continuous
 62
     4
370
    15
100
AcDbSpline
210
0.0
220
0.0
230
1.0
 70
     8
 71
     3
 72
    10
 73
     6
 74
     0
 42
0.000000001
 43
0.00000001
 40
0.0
 40
0.0
 40
0.0
 40
0.0
 40
0.5
 40
0.5
 40
1.0
 40
1.0
 40
1.0
 40
1.0
 10
9.999514079925536
 20
-3.638361071445698
 30
0.0
 10
9.577782297088364
 20
-3.25704474225569
 30
0.0
 10
9.160584928760937
 20
-2.862867084691897
 30
0.0
 10
8.315761857264144
 20
-2.052653632173933
 30
0.0
 10
7.893323620529169
 20
-1.638226021796581
 30
0.0
 10
7.474536699202859
 20
-1.220957932540267
 30
0.0
  0
LINE
  5
BC
102
{ACAD_REACTORS
330
1D5
102
}
330
1F
100
AcDbEntity
  8
0
  6
Continuous
 62
     1
370
    15
100
AcDbLine
 10
9.999514079925525
 20
-3.638361071445707
 30
0.0
 11
9.999514079925524
 21
-5.851507223237509
 31
0.0
  0
SPLINE
  5
BD
102
{ACAD_REACTORS
330
1D5
102
}
330
1F
100
AcDbEntity
  8
0
  6
Continuous
 62
     4
370
    15
100
AcDbSpline
210
0.0
220
0.0
230
1.0
 70
     8
 71
     3
 72
     8
 73
     4
 74
     0
 42
0.000000001
 43
0.00000001
 40
0.0
 40
0.0
 40
0.0
 40
0.0
 40
1.0
 40
1.0
 40
1.0
 40
1.0
 10
9.999514079925525
 20
-5.851507223237508
 30
0.0
 10
9.865936312211707
 20
-5.756751904503792
 30
0.0
 10
9.732633450893527
 20
-5.659690377865537
 30
0.0
 10
9.59985719655022
 20
-5.560520925765795
 30
0.0
  0
SPLINE
  5
BE
330
1F
100
AcDbEntity
  8
0
  6
Continuous
 62
     4
370
    15
100
AcDbSpline
210
0.0
220
0.0
230
1.0
 70
     8
 71
     3
 72
    22
 73
    18
 74
     0
 42
0.000000001
 43
0.00000001
 40
0.0
 40
0.0
 40
0.0
 40
0.0
 40
0.1249999999999999
 40
0.1249999999999999
 40
0.2499999999999999
 40
0.2499999999999999
 40
0.3749999999999998
 40
0.3749999999999998
 40
0.4999999999999998
 40
0.4999999999999998
 40
0.6249999999999998
 40
0.6249999999999998
 40
0.7499999999999998
 40
0.7499999999999998
 40
0.8749999999999998
 40
0.8749999999999998
 40
1.0
 40
1.0
 40
1.0
 40
1.0
 10
6.949890455152928
 20
-6.716741249613063
 30
0.0
 10
6.949890455152929
 20
-6.614289641842807
 30
0.0
 10
6.950229248510915
 20
-6.507280854318085
 30
0.0
 10
6.980860141919549
 20
-6.28604740614579
 30
0.0
 10
7.011105821265854
 20
-6.170395320591446
 30
0.0
 10
7.117555302909083
 20
-5.940162231670301
 30
0.0
 10
7.193203326695877
 20
-5.826418180924493
 30
0.0
 10
7.394534319893592
 20
-5.614924644695614
 30
0.0
 10
7.516334908576743
 20
-5.520508242178342
 30
0.0
 10
7.804713416314484
 20
-5.362160894709779
 30
0.0
 10
7.963017842011166
 20
-5.302721195927727
 30
0.0
 10
8.305820896001315
 20
-5.227969922258766
 30
0.0
 10
8.482021140372757
 20
-5.214685901003959
 30
0.0
 10
8.83601230973047
 20
-5.237310834197845
 30
0.0
 10
9.007905605719978
 20
-5.273085640410584
 30
0.0
 10
9.328928781776462
 20
-5.38847250965517
 30
0.0
 10
9.474029530703444
 20
-5.466541315158988
 30
0.0
 10
9.599857196550188
 20
-5.560520925765771
 30
0.0
  0
SPLINE
  5
BF
330
1F
100
AcDbEntity
  8
0
  6
Continuous
 62
     4
370
    15
100
AcDbSpline
210
0.0
220
0.0
230
1.0
 70
     8
 71
     3
 72
    14
 73
    10
 74
     0
 42
0.000000001
 43
0.00000001
 40
0.0
 40
0.0
 40
0.0
 40
0.0
 40
0.2500000000000001
 40
0.2500000000000001
 40
0.5000000000000002
 40
0.5000000000000002
 40
0.7500000000000001
 40
0.7500000000000001
 40
1.0
 40
1.0
 40
1.0
 40
1.0
 10
7.474536699202857
 20
-7.565370584356459
 30
0.0
 10
7.363690074450719
 20
-7.521785723677165
 30
0.0
 10
7.272524067547505
 20
-7.470736474842986
 30
0.0
 10
7.12468675196554
 20
-7.351830715236146
 30
0.0
 10
7.069545200836637
 20
-7.284444105912866
 30
0.0
 10
6.99335722784976
 20
-7.138982763814674
 30
0.0
 10
6.971713269572273
 20
-7.059814315598696
 30
0.0
 10
6.950001622373886
 20
-6.894356968787552
 30
0.0
 10
6.949890455152933
 20
-6.807483347944851
 30
0.0
 10
6.949890455152933
 20
-6.716741249613064
 30
0.0
  0
LINE
  5
C0
330
1F
100
AcDbEntity
  8
0
  6
Continuous
 62
     4
370
    15
100
AcDbLine
 10
-40.80048592007447
 20
7.175225568829307
 30
0.0
 11
-40.80048592007447
 21
-7.699774431170689
 31
0.0
  0
SPLINE
  5
C1
102
{ACAD_REACTORS
330
1D5
102
}
330
1F
100
AcDbEntity
  8
0
  6
Continuous
 62
     1
370
    15
100
AcDbSpline
210
0.0
220
0.0
230
1.0
 70
    24
 71
     3
 72
    18
 73
    14
 74
     0
 42
0.000000001
 43
0.00000001
 40
0.0
 40
0.0
 40
0.0
 40
0.0
 40
0.2499999999999999
 40
0.2499999999999999
 40
0.5
 40
0.5
 40
0.625
 40
0.625
 40
0.75
 40
0.75
 40
0.875
 40
0.875
 40
1.0
 40
1.0
 40
1.0
 40
1.0
 10
9.999514079925524
 20
1.82401967029158
 30
0.0
 10
9.999514079925524
 20
1.608163392490981
 30
0.0
 10
9.999514079925524
 20
1.335421739407839
 30
0.0
 10
9.999514079925524
 20
0.637568816005348
 30
0.0
 10
9.999514079925524
 20
0.2101528812286007
 30
0.0
 10
9.999514079925524
 20
-0.541517590297485
 30
0.0
 10
9.999514079925524
 20
-0.8098713104626625
 30
0.0
 10
9.999514079925524
 20
-1.370467688132418
 30
0.0
 10
9.999514079925524
 20
-1.662685131854698
 30
0.0
 10
9.999514079925524
 20
-2.250864078803937
 30
0.0
 10
9.999514079925524
 20
-2.546668233039695
 30
0.0
 10
9.999514079925524
 20
-3.115934804387188
 30
0.0
 10
9.999514079925524
 20
-3.389147164154286
 30
0.0
 10
9.999514079925524
 20
-3.63836107144571
 30
0.0
  0
SPLINE
  5
C2
102
{ACAD_REACTORS
330
1D5
102
}
330
1F
100
AcDbEntity
  8
0
  6
Continuous
 62
     1
370
    15
100
AcDbSpline
210
0.0
220
0.0
230
1.0
 70
    24
 71
     3
 72
    15
 73
    11
 74
     0
 42
0.000000001
 43
0.00000001
 40
0.0
 40
0.0
 40
0.0
 40
0.0
 40
0.087407394996735
 40
0.2257630852686056
 40
0.3641187755404759
 40
0.5024744658123467
 40
0.6408301560842173
 40
0.7791858463560881
 40
0.9175415366279592
 40
1.0
 40
1.0
 40
1.0
 40
1.0
 10
9.999514079925529
 20
-5.65708817072941
 30
0.0
 10
9.999514079925527
 20
-5.65336786923342
 30
0.0
 10
9.999514079925529
 20
-5.643758765290955
 30
0.0
 10
9.999514079925527
 20
-5.757295823700322
 30
0.0
 10
9.999514079925527
 20
-5.976486966111019
 30
0.0
 10
9.999514079925527
 20
-6.305689476447689
 30
0.0
 10
9.999514079925529
 20
-6.725422319657731
 30
0.0
 10
9.999514079925529
 20
-7.22961687792542
 30
0.0
 10
9.999514079925527
 20
-7.721503480847997
 30
0.0
 10
9.999514079925527
 20
-8.049226986340873
 30
0.0
 10
9.999514079925527
 20
-8.1716085285921
 30
0.0
  0
SPLINE
  5
C3
102
{ACAD_REACTORS
330
1D5
102
}
330
1F
100
AcDbEntity
  8
0
  6
Continuous
 62
     1
370
    15
100
AcDbSpline
210
0.0
220
0.0
230
1.0
 70
    24
 71
     3
 72
    16
 73
    12
 74
     0
 42
0.000000001
 43
0.00000001
 40
0.0
 40
0.0
 40
0.0
 40
0.0
 40
0.0563118354363355
 40
0.1825487333683517
 40
0.3087856313003681
 40
0.4350225292323837
 40
0.5612594271643996
 40
0.6874963250964157
 40
0.8137332230284318
 40
0.9399701209604482
 40
1.0
 40
1.0
 40
1.0
 40
1.0
 10
9.999514079925524
 20
7.413252462358443
 30
0.0
 10
9.999514079925525
 20
7.31620521838596
 30
0.0
 10
9.999514079925529
 20
7.001602589528385
 30
0.0
 10
9.999514079925527
 20
6.489191304696944
 30
0.0
 10
9.999514079925527
 20
5.907544100714458
 30
0.0
 10
9.999514079925527
 20
5.392182339084917
 30
0.0
 10
9.999514079925527
 20
4.955108709136861
 30
0.0
 10
9.999514079925527
 20
4.610230214875725
 30
0.0
 10
9.999514079925527
 20
4.371128788285843
 30
0.0
 10
9.999514079925527
 20
4.24628390075653
 30
0.0
 10
9.999514079925527
 20
4.243038515678934
 30
0.0
 10
9.999514079925527
 20
4.241992596074738
 30
0.0
  0
SPLINE
  5
C4
102
{ACAD_REACTORS
330
1D5
102
}
330
1F
100
AcDbEntity
  8
0
  6
Continuous
 62
     1
370
    15
100
AcDbSpline
210
0.0
220
0.0
230
1.0
 70
     8
 71
     3
 72
    16
 73
    12
 74
     0
 42
0.000000001
 43
0.00000001
 40
0.0
 40
0.0
 40
0.0
 40
0.0
 40
0.1164459024273426
 40
0.2328733678798807
 40
0.3491419024436643
 40
0.4654728896966117
 40
0.5819785661424004
 40
0.7020657767830125
 40
0.82209609560619
 40
0.9422414626065848
 40
1.0
 40
1.0
 40
1.0
 40
1.0
 10
9.999514079925536
 20
-3.638361071445693
 30
0.0
 10
10.45692045206625
 20
-4.042346775872026
 30
0.0
 10
11.37166077482334
 20
-4.850254221338278
 30
0.0
 10
12.74334439566671
 20
-5.897977718347055
 30
0.0
 10
14.11299319713492
 20
-6.785973408002876
 30
0.0
 10
15.48342732297513
 20
-7.477858742117449
 30
0.0
 10
16.87075612211727
 20
-7.959274023093273
 30
0.0
 10
18.27071188906789
 20
-8.212090244459521
 30
0.0
 10
19.68472728299237
 20
-8.202552675105899
 30
0.0
 10
20.85481819143316
 20
-8.02599091358914
 30
0.0
 10
21.55382027461393
 20
-7.766120678935581
 30
0.0
 10
21.78075929597516
 20
-7.681750834907609
 30
0.0
  0
SPLINE
  5
C5
330
1F
100
AcDbEntity
  8
0
  6
Continuous
 62
     1
370
    15
100
AcDbSpline
210
0.0
220
0.0
230
1.0
 70
     8
 71
     3
 72
    27
 73
    23
 74
     0
 42
0.000000001
 43
0.00000001
 40
0.0
 40
0.0
 40
0.0
 40
0.0
 40
0.044766193926368
 40
0.0957507152145763
 40
0.146779170910543
 40
0.1978572085702807
 40
0.2488598793400555
 40
0.2998470577424495
 40
0.3508917448900037
 40
0.4019587836265625
 40
0.4529530242509429
 40
0.5039454011200182
 40
0.5550081934280781
 40
0.606057756386318
 40
0.6570461040396642
 40
0.7080462176521934
 40
0.7591219543872838
 40
0.8101545991911061
 40
0.8611395945340093
 40
0.9121499785914999
 40
0.9632315429113767
 40
1.0
 40
1.0
 40
1.0
 40
1.0
 10
43.91820014918915
 20
7.661694921201748
 30
0.0
 10
44.33205448883816
 20
7.64846318514539
 30
0.0
 10
45.21725033732211
 20
7.620161735327907
 30
0.0
 10
46.57341806276811
 20
7.27060987570237
 30
0.0
 10
47.9887123856121
 20
6.691271404465236
 30
0.0
 10
49.40546712201238
 20
5.885736697455325
 30
0.0
 10
50.81998213211385
 20
4.886150882827526
 30
0.0
 10
52.2340607986309
 20
3.722888687925168
 30
0.0
 10
53.64981144658184
 20
2.433807699638593
 30
0.0
 10
55.06623842391921
 20
1.059773217775495
 30
0.0
 10
56.48051777435276
 20
-0.3573073362213227
 30
0.0
 10
57.8947451829407
 20
-1.771349619436112
 30
0.0
 10
59.31104317719425
 20
-3.13653727811114
 30
0.0
 10
60.72694069618974
 20
-4.41095121654199
 30
0.0
 10
62.14105344360754
 20
-5.554373536066454
 30
0.0
 10
63.55549447603912
 20
-6.52995211467222
 30
0.0
 10
64.97218743308692
 20
-7.306174963360816
 30
0.0
 10
66.38757478408853
 20
-7.859083924075565
 30
0.0
 10
67.80159810116406
 20
-8.173358767070773
 30
0.0
 10
69.21630713749937
 20
-8.228338128668424
 30
0.0
 10
70.50139343093171
 20
-8.077601707087496
 30
0.0
 10
71.31336906355358
 20
-7.802605084611345
 30
0.0
 10
71.65321065637734
 20
-7.687508908754839
 30
0.0
  0
SPLINE
  5
C6
102
{ACAD_REACTORS
330
1D5
102
}
330
1F
100
AcDbEntity
  8
0
  6
Continuous
 62
     1
370
    15
100
AcDbSpline
210
0.0
220
0.0
230
1.0
 70
    24
 71
     3
 72
    18
 73
    14
 74
     0
 42
0.000000001
 43
0.00000001
 40
0.0
 40
0.0
 40
0.0
 40
0.0
 40
0.25
 40
0.25
 40
0.5
 40
0.5
 40
0.625
 40
0.625
 40
0.75
 40
0.75
 40
0.875
 40
0.875
 40
1.0
 40
1.0
 40
1.0
 40
1.0
 10
9.999514079925524
 20
1.824019670291581
 30
0.0
 10
9.999514079925524
 20
1.608163392490983
 30
0.0
 10
9.999514079925524
 20
1.33542173940784
 30
0.0
 10
9.999514079925524
 20
0.637568816005349
 30
0.0
 10
9.999514079925524
 20
0.2101528812286039
 30
0.0
 10
9.999514079925524
 20
-0.5415175902974821
 30
0.0
 10
9.999514079925524
 20
-0.8098713104626624
 30
0.0
 10
9.999514079925524
 20
-1.370467688132419
 30
0.0
 10
9.999514079925524
 20
-1.662685131854698
 30
0.0
 10
9.999514079925524
 20
-2.250864078803937
 30
0.0
 10
9.999514079925524
 20
-2.546668233039695
 30
0.0
 10
9.999514079925524
 20
-3.11593480438719
 30
0.0
 10
9.999514079925524
 20
-3.389147164154286
 30
0.0
 10
9.999514079925524
 20
-3.63836107144571
 30
0.0
  0
SPLINE
  5
C7
102
{ACAD_REACTORS
330
1D5
102
}
330
1F
100
AcDbEntity
  8
0
  6
Continuous
 62
     1
370
    15
100
AcDbSpline
210
0.0
220
0.0
230
1.0
 70
     8
 71
     3
 72
    18
 73
    14
 74
     0
 42
0.000000001
 43
0.00000001
 40
0.0
 40
0.0
 40
0.0
 40
0.0
 40
0.0940927762684022
 40
0.1881706547507151
 40
0.2821201109506976
 40
0.3761200313300661
 40
0.470261107308695
 40
0.5672962009269863
 40
0.6642853237645305
 40
0.7613674099625138
 40
0.8585271169656509
 40
0.9555431055079529
 40
1.0
 40
1.0
 40
1.0
 40
1.0
 10
9.999514079925536
 20
1.824019670291607
 30
0.0
 10
10.45692045345264
 20
1.376963907171027
 30
0.0
 10
11.37166077898227
 20
0.4829231636338446
 30
0.0
 10
12.74334437904353
 20
-0.8960709436473863
 30
0.0
 10
14.11299325939126
 20
-2.252859260101832
 30
0.0
 10
15.48342709025416
 20
-3.551410762867601
 30
0.0
 10
16.87075700340976
 20
-4.763164119375186
 30
0.0
 10
18.27070848813387
 20
-5.851157518882754
 30
0.0
 10
19.68473996106751
 20
-6.772041808185844
 30
0.0
 10
21.10016276898507
 20
-7.490183130383447
 30
0.0
 10
22.51685411651399
 20
-7.964730018957186
 30
0.0
 10
23.67597876277519
 20
-8.1971642278651
 30
0.0
 10
24.36329304858097
 20
-8.175351738660982
 30
0.0
 10
24.57927690380166
 20
-8.168497311788796
 30
0.0
  0
SPLINE
  5
C8
330
1F
100
AcDbEntity
  8
0
  6
Continuous
 62
     1
370
    15
100
AcDbSpline
210
0.0
220
0.0
230
1.0
 70
     8
 71
     3
 72
    27
 73
    23
 74
     0
 42
0.000000001
 43
0.00000001
 40
0.0
 40
0.0
 40
0.0
 40
0.0
 40
0.0458493835948482
 40
0.0969270205173187
 40
0.1479292911411247
 40
0.1989160695190954
 40
0.2499603561910368
 40
0.3010269942766218
 40
0.3520208348211719
 40
0.4030128116250393
 40
0.4540752033154404
 40
0.5051243657598146
 40
0.5561123133795645
 40
0.6071120268661864
 40
0.6581873628820619
 40
0.7092196073047504
 40
0.7602042026403584
 40
0.8112141864913645
 40
0.862295350046305
 40
0.9133131909207572
 40
0.9642969765967627
 40
1.0
 40
1.0
 40
1.0
 40
1.0
 10
46.71678316280012
 20
7.175988039318254
 30
0.0
 10
47.14060700357357
 20
7.308369691139471
 30
0.0
 10
48.03658376246273
 20
7.588228613466039
 30
0.0
 10
49.40548067029274
 20
7.712960681551469
 30
0.0
 10
50.81997850549426
 20
7.610992032001862
 30
0.0
 10
52.23406177146781
 20
7.253454806531581
 30
0.0
 10
53.64981118563732
 20
6.659323771941122
 30
0.0
 10
55.06623849377814
 20
5.845736619271687
 30
0.0
 10
56.48051775550827
 20
4.837900891733885
 30
0.0
 10
57.89474518851586
 20
3.668223539236252
 30
0.0
 10
59.31104317376343
 20
2.374859879782591
 30
0.0
 10
60.72694070432823
 20
0.9976380658529261
 30
0.0
 10
62.14105341451652
 20
-0.4201486589068325
 30
0.0
 10
63.55549458437449
 20
-1.833068841602616
 30
0.0
 10
64.97218702834247
 20
-3.194837109496523
 30
0.0
 10
66.38757629250225
 20
-4.464572012701108
 30
0.0
 10
67.80159247622356
 20
-5.601361852390445
 30
0.0
 10
69.2163281547788
 20
-6.568242971564019
 30
0.0
 10
70.63318981443282
 20
-7.336844544085487
 30
0.0
 10
72.04818536721338
 20
-7.872724684117462
 30
0.0
 10
73.32050788465081
 20
-8.168550344504744
 30
0.0
 10
74.12199431983696
 20
-8.171911177262807
 30
0.0
 10
74.45209631870823
 20
-8.173295377372261
 30
0.0
  0
SPLINE
  5
C9
330
1F
100
AcDbEntity
  8
0
  6
Continuous
 62
     1
370
    15
100
AcDbSpline
210
0.0
220
0.0
230
1.0
 70
     8
 71
     3
 72
    36
 73
    32
 74
     0
 42
0.000000001
 43
0.00000001
 40
0.0
 40
0.0
 40
0.0
 40
0.0
 40
0.1249999999999979
 40
0.1249999999999979
 40
0.2499999999999958
 40
0.2499999999999958
 40
0.3749999999999938
 40
0.3749999999999938
 40
0.4374999999999928
 40
0.4374999999999928
 40
0.4999999999999918
 40
0.4999999999999918
 40
0.5624999999999908
 40
0.5624999999999908
 40
0.6249999999999897
 40
0.6249999999999897
 40
0.6562499999999892
 40
0.6562499999999892
 40
0.6874999999999887
 40
0.6874999999999887
 40
0.749999999999989
 40
0.749999999999989
 40
0.7812499999999892
 40
0.7812499999999892
 40
0.8124999999999893
 40
0.8124999999999893
 40
0.8749999999999929
 40
0.8749999999999929
 40
0.9374999999999963
 40
0.9374999999999963
 40
1.0
 40
1.0
 40
1.0
 40
1.0
 10
83.91351407992553
 20
2.674245412690825
 30
0.0
 10
84.1988432158586
 20
2.40907190948024
 30
0.0
 10
84.46351108906907
 20
2.115541060857479
 30
0.0
 10
84.96763839914445
 20
1.487353764214148
 30
0.0
 10
85.19413803206727
 20
1.166627080621301
 30
0.0
 10
85.58512303238567
 20
0.5041530873474316
 30
0.0
 10
85.74154329473059
 20
0.1736057810756952
 30
0.0
 10
85.91016330983388
 20
-0.3392913189352695
 30
0.0
 10
85.95535073067195
 20
-0.513436372743615
 30
0.0
 10
86.02449057266102
 20
-0.8658853378519775
 30
0.0
 10
86.04883803622303
 20
-1.045042588396419
 30
0.0
 10
86.08123512501517
 20
-1.413045867232254
 30
0.0
 10
86.08950674241606
 20
-1.601824385736117
 30
0.0
 10
86.0907854958372
 20
-1.99292813722605
 30
0.0
 10
86.0840657504463
 20
-2.19168172293536
 30
0.0
 10
86.05602291824172
 20
-2.492206772132137
 30
0.0
 10
86.04366405604073
 20
-2.591806771227648
 30
0.0
 10
86.00988521107756
 20
-2.789331283276142
 30
0.0
 10
85.98821034892983
 20
-2.888325208970221
 30
0.0
 10
85.90305073177426
 20
-3.172275390727388
 30
0.0
 10
85.81669708233575
 20
-3.346416624357347
 30
0.0
 10
85.63069672640422
 20
-3.515815113261079
 30
0.0
 10
85.5622239096698
 20
-3.555177726672418
 30
0.0
 10
85.41570432342652
 20
-3.602812786143018
 30
0.0
 10
85.3404723315926
 20
-3.610616869208664
 30
0.0
 10
85.1082240566626
 20
-3.598869395984435
 30
0.0
 10
84.95301591817433
 20
-3.545608625222645
 30
0.0
 10
84.64550634134038
 20
-3.392719326056471
 30
0.0
 10
84.49671491955691
 20
-3.294376038704647
 30
0.0
 10
84.20181980486504
 20
-3.068969668222357
 30
0.0
 10
84.05612546440508
 20
-2.941953747500289
 30
0.0
 10
83.91351407992553
 20
-2.806823709394343
 30
0.0
  0
SPLINE
  5
CA
330
1F
100
AcDbEntity
  8
0
  6
Continuous
 62
     1
370
    15
100
AcDbSpline
210
0.0
220
0.0
230
1.0
 70
     8
 71
     3
 72
    28
 73
    24
 74
     0
 42
0.000000001
 43
0.00000001
 40
0.0
 40
0.0
 40
0.0
 40
0.0
 40
0.0253641695468926
 40
0.0763968730024389
 40
0.1274703790373954
 40
0.1784683372356693
 40
0.2294557535275835
 40
0.2805056000146696
 40
0.3315655232824843
 40
0.3825559727075081
 40
0.4335495098084893
 40
0.4846164681121385
 40
0.5356582368630648
 40
0.5866437160616067
 40
0.6376459106920674
 40
0.6887232286568189
 40
0.7397489920340803
 40
0.790732042493696
 40
0.8417454262554215
 40
0.89282598508341
 40
0.9438382607713041
 40
0.9948214254169904
 40
1.0
 40
1.0
 40
1.0
 40
1.0
 10
18.98120000422305
 20
7.6437323415092
 30
0.0
 10
19.21559254072788
 20
7.649841562903259
 30
0.0
 10
19.92158280825756
 20
7.668242536375818
 30
0.0
 10
21.10017768669344
 20
7.426261554535849
 30
0.0
 10
22.51683183646362
 20
6.941695890318939
 30
0.0
 10
23.93125393080692
 20
6.214966731506258
 30
0.0
 10
25.34537798623704
 20
5.286346311473003
 30
0.0
 10
26.76132532811235
 20
4.181341340815576
 30
0.0
 10
28.17757743557086
 20
2.936001703772146
 30
0.0
 10
29.59178882391285
 20
1.588300360740501
 30
0.0
 10
31.00608622082969
 20
0.1818576486811085
 30
0.0
 10
32.42255215517689
 20
-1.237466838115549
 30
0.0
 10
33.83825567416638
 20
-2.626486932118361
 30
0.0
 10
35.25232511240043
 20
-3.9409646085951
 30
0.0
 10
36.66686287678904
 20
-5.138876299347148
 30
0.0
 10
38.08364512860255
 20
-6.181107374181781
 30
0.0
 10
39.49887005577982
 20
-7.036464229607652
 30
0.0
 10
40.91286864323855
 20
-7.677458908394016
 30
0.0
 10
42.32773377816507
 20
-8.08156030103124
 30
0.0
 10
43.74459534554762
 20
-8.244020971382257
 30
0.0
 10
45.15949682271678
 20
-8.129630962689287
 30
0.0
 10
46.14964409271789
 20
-7.937310107594988
 30
0.0
 10
46.6689031995125
 20
-7.720526165326552
 30
0.0
 10
46.71678316280019
 20
-7.700536901659621
 30
0.0
  0
SPLINE
  5
CB
330
1F
100
AcDbEntity
  8
0
  6
Continuous
 62
     1
370
    15
100
AcDbSpline
210
0.0
220
0.0
230
1.0
 70
     8
 71
     3
 72
    18
 73
    14
 74
     0
 42
0.000000001
 43
0.00000001
 40
0.0
 40
0.0
 40
0.0
 40
0.0
 40
0.0240569849172173
 40
0.1181424860140303
 40
0.2121113541739649
 40
0.306017496659937
 40
0.3999954654750419
 40
0.4940785840989912
 40
0.5952428741119489
 40
0.6963661471478947
 40
0.7975133054660558
 40
0.8987489975068537
 40
0.9999999999999999
 40
0.9999999999999999
 40
0.9999999999999999
 40
0.9999999999999999
 10
68.85377282174926
 20
7.651228088842643
 30
0.0
 10
68.97449474243801
 20
7.658400404661173
 30
0.0
 10
69.56735323553822
 20
7.69362324011603
 30
0.0
 10
70.6332558519002
 20
7.505607207527346
 30
0.0
 10
72.04814471343346
 20
7.083631312695612
 30
0.0
 10
73.46215147045997
 20
6.408746559393708
 30
0.0
 10
74.87728031772104
 20
5.527599133570207
 30
0.0
 10
76.33027191226046
 20
4.435179382828053
 30
0.0
 10
77.81762741684992
 20
3.151187899755332
 30
0.0
 10
79.34036790608077
 20
1.710595679445489
 30
0.0
 10
80.86350101844072
 20
0.1990222790165225
 30
0.0
 10
82.38828707101375
 20
-1.335864930493152
 30
0.0
 10
83.4050794496723
 20
-2.316479400974322
 30
0.0
 10
83.91351407992555
 20
-2.806823709394351
 30
0.0
  0
SPLINE
  5
CC
330
1F
100
AcDbEntity
  8
0
  6
Continuous
 62
     1
370
    15
100
AcDbSpline
210
0.0
220
0.0
230
1.0
 70
     8
 71
     3
 72
    28
 73
    24
 74
     0
 42
0.000000001
 43
0.00000001
 40
0.0
 40
0.0
 40
0.0
 40
0.0
 40
0.0265403661450966
 40
0.0775388235813618
 40
0.1285267390080686
 40
0.1795770852410996
 40
0.2306375083535047
 40
0.2816284569430136
 40
0.3326224932387062
 40
0.3836899514558146
 40
0.4347322198736097
 40
0.4857181981879816
 40
0.5367208920979053
 40
0.5877987100775304
 40
0.6388249729649782
 40
0.6898085225166478
 40
0.7408224056673711
 40
0.7919034645419593
 40
0.8429162396080039
 40
0.8938999033468618
 40
0.9449275007545099
 40
0.9960046792919707
 40
1.0
 40
1.0
 40
1.0
 40
1.0
 10
21.78075929597521
 20
7.157201972566233
 30
0.0
 10
22.0262799308303
 20
7.247169324238634
 30
0.0
 10
22.74357904748656
 20
7.510012819737939
 30
0.0
 10
23.93124275404197
 20
7.683312507866913
 30
0.0
 10
25.34538098485202
 20
7.68216760600554
 30
0.0
 10
26.76132452400977
 20
7.41726142625619
 30
0.0
 10
28.17757765071176
 20
6.91230678121904
 30
0.0
 10
29.59178876632851
 20
6.17862263537122
 30
0.0
 10
31.00608623617083
 20
5.240771861855105
 30
0.0
 10
32.42255215149188
 20
4.129299372474965
 30
0.0
 10
33.83825567356424
 20
2.878198490870767
 30
0.0
 10
35.25232511848163
 20
1.527106378634379
 30
0.0
 10
36.66686285304051
 20
0.1190727056890783
 30
0.0
 10
38.08364521761656
 20
-1.299578599346588
 30
0.0
 10
39.49886972400822
 20
-2.686520754275182
 30
0.0
 10
40.91286988064127
 20
-3.996665584245909
 30
0.0
 10
42.32772915433996
 20
-5.188329911471458
 30
0.0
 10
43.74461261712747
 20
-6.22327718413925
 30
0.0
 10
45.15943247864193
 20
-7.068363735013752
 30
0.0
 10
46.57346436824229
 20
-7.704709306692861
 30
0.0
 10
47.98862167384787
 20
-8.077934944919765
 30
0.0
 10
48.97068934480455
 20
-8.234813906194642
 30
0.0
 10
49.4797141551222
 20
-8.193673263974855
 30
0.0
 10
49.51664215718176
 20
-8.190688651653744
 30
0.0
  0
SPLINE
  5
CD
330
1F
100
AcDbEntity
  8
0
  6
Continuous
 62
     1
370
    15
100
AcDbSpline
210
0.0
220
0.0
230
1.0
 70
     8
 71
     3
 72
    16
 73
    12
 74
     0
 42
0.000000001
 43
0.00000001
 40
0.0
 40
0.0
 40
0.0
 40
0.0
 40
0.0322381744859215
 40
0.1475828749847216
 40
0.263015799599672
 40
0.3785778794848469
 40
0.5028377460261795
 40
0.627047231508262
 40
0.7512860552279756
 40
0.8756336247171511
 40
0.9999999999999999
 40
0.9999999999999999
 40
0.9999999999999999
 40
0.9999999999999999
 10
71.6532106563774
 20
7.162960046413473
 30
0.0
 10
71.78494746466517
 20
7.215363945338273
 30
0.0
 10
72.38802432054958
 20
7.455263325097145
 30
0.0
 10
73.46210250484913
 20
7.644341938268769
 30
0.0
 10
74.87729342687143
 20
7.708863159324483
 30
0.0
 10
76.33026810236552
 20
7.497903528280267
 30
0.0
 10
77.81762846831988
 20
7.017456680940569
 30
0.0
 10
79.34036762441954
 20
6.257168459317624
 30
0.0
 10
80.86350109363087
 20
5.255485483232221
 30
0.0
 10
82.38828705220608
 20
4.058963345228886
 30
0.0
 10
83.40507944340274
 20
3.135841323280766
 30
0.0
 10
83.91351407992552
 20
2.674245412690812
 30
0.0
  0
SPLINE
  5
CE
330
1F
100
AcDbEntity
  8
0
  6
Continuous
 62
     1
370
    15
100
AcDbSpline
210
0.0
220
0.0
230
1.0
 70
     8
 71
     3
 72
    36
 73
    32
 74
     0
 42
0.000000001
 43
0.00000001
 40
0.0
 40
0.0
 40
0.0
 40
0.0
 40
0.1250000000000004
 40
0.1250000000000004
 40
0.2500000000000007
 40
0.2500000000000007
 40
0.3750000000000011
 40
0.3750000000000011
 40
0.4375000000000013
 40
0.4375000000000013
 40
0.5000000000000014
 40
0.5000000000000014
 40
0.5625000000000017
 40
0.5625000000000017
 40
0.6250000000000018
 40
0.6250000000000018
 40
0.656250000000002
 40
0.656250000000002
 40
0.6875000000000022
 40
0.6875000000000022
 40
0.7500000000000038
 40
0.7500000000000038
 40
0.7812500000000044
 40
0.7812500000000044
 40
0.8125000000000052
 40
0.8125000000000052
 40
0.8750000000000036
 40
0.8750000000000036
 40
0.9375000000000018
 40
0.9375000000000018
 40
1.0
 40
1.0
 40
1.0
 40
1.0
 10
83.91351407992553
 20
7.592343458526646
 30
0.0
 10
84.19884321585863
 20
7.551204045706744
 30
0.0
 10
84.46351108906906
 20
7.443991864603118
 30
0.0
 10
84.96763839914446
 20
7.109680235750666
 30
0.0
 10
85.19413803206724
 20
6.888997587532931
 30
0.0
 10
85.58512303238571
 20
6.35430243814702
 30
0.0
 10
85.7415432947306
 20
6.048319310295984
 30
0.0
 10
85.91016330983386
 20
5.563459428361925
 30
0.0
 10
85.95535073067194
 20
5.397643875439443
 30
0.0
 10
86.02449057266101
 20
5.071340079097731
 30
0.0
 10
86.04883803622303
 20
4.910101291401339
 30
0.0
 10
86.08123512501517
 20
4.598542047002555
 30
0.0
 10
86.08950674241606
 20
4.448174046992217
 30
0.0
 10
86.0907854958372
 20
4.16468356740446
 30
0.0
 10
86.08406575044637
 20
4.0339889888931
 30
0.0
 10
86.05602291824178
 20
3.864047528821188
 30
0.0
 10
86.04366405604078
 20
3.812342418261104
 30
0.0
 10
86.00988521107763
 20
3.721378322819138
 30
0.0
 10
85.98821034892978
 20
3.681741698842785
 30
0.0
 10
85.9030507317742
 20
3.59211942433636
 30
0.0
 10
85.81669708233574
 20
3.57334221847054
 30
0.0
 10
85.63069672640421
 20
3.638209340449503
 30
0.0
 10
85.56222390966977
 20
3.673553053022782
 30
0.0
 10
85.4157043234265
 20
3.764162885479203
 30
0.0
 10
85.34047233159255
 20
3.817476093632505
 30
0.0
 10
85.10822405666254
 20
3.992794624854616
 30
0.0
 10
84.95301591817434
 20
4.12317626349199
 30
0.0
 10
84.64550634134036
 20
4.382640681371156
 30
0.0
 10
84.49671491955687
 20
4.509336585055925
 30
0.0
 10
84.20181980486501
 20
4.753096440680863
 30
0.0
 10
84.0561254644051
 20
4.869569034946084
 30
0.0
 10
83.91351407992553
 20
4.976739697351643
 30
0.0
  0
SPLINE
  5
CF
330
1F
100
AcDbEntity
  8
0
  6
Continuous
 62
     1
370
    15
100
AcDbSpline
210
0.0
220
0.0
230
1.0
 70
     8
 71
     3
 72
    27
 73
    23
 74
     0
 42
0.000000001
 43
0.00000001
 40
0.0
 40
0.0
 40
0.0
 40
0.0
 40
0.0318766478118241
 40
0.0828670106848772
 40
0.1338604612286464
 40
0.1849273328504576
 40
0.235969014962303
 40
0.2869544076173108
 40
0.3379565156758643
 40
0.389033746941193
 40
0.4400594237065412
 40
0.4910423876267452
 40
0.5420556847975708
 40
0.5931361569206358
 40
0.6441483460195108
 40
0.6951314241255916
 40
0.7461584353958112
 40
0.7972350272263207
 40
0.8482362543002236
 40
0.8992219894452772
 40
0.9502652317076322
 40
1.0
 40
1.0
 40
1.0
 40
1.0
 10
27.29352822135482
 20
7.645637511740471
 30
0.0
 10
27.58838021041169
 20
7.647789586955427
 30
0.0
 10
28.35488185361678
 20
7.65338415388998
 30
0.0
 10
29.59177586020371
 20
7.378610290797972
 30
0.0
 10
31.00608970006517
 20
6.861439685211684
 30
0.0
 10
32.42255122321636
 20
6.108439608658053
 30
0.0
 10
33.83825592208419
 20
5.156061852843302
 30
0.0
 10
35.25232505134176
 20
4.030791299227248
 30
0.0
 10
36.66686287315157
 20
2.769369531422292
 30
0.0
 10
38.08364520442569
 20
1.413177319742638
 30
0.0
 10
39.49886975661678
 20
0.0027600403874541
 30
0.0
 10
40.91286976345445
 20
-1.416123075594256
 30
0.0
 10
42.32772959104379
 20
-2.798538913108918
 30
0.0
 10
43.74461098620766
 20
-4.099208404458245
 30
0.0
 10
45.15943855443551
 20
-5.279584031593074
 30
0.0
 10
46.57344169831049
 20
-6.300658090814188
 30
0.0
 10
47.98870639699075
 20
-7.130259564955855
 30
0.0
 10
49.40546740288468
 20
-7.74131777072143
 30
0.0
 10
50.81998698014292
 20
-8.117160442644309
 30
0.0
 10
52.23404112124975
 20
-8.238898686955954
 30
0.0
 10
53.63757772268951
 20
-8.12684864033702
 30
0.0
 10
54.5696983596445
 20
-7.84661184481949
 30
0.0
 10
55.02970747913704
 20
-7.708312705797571
 30
0.0
  0
SPLINE
  5
D0
330
1F
100
AcDbEntity
  8
0
  6
Continuous
 62
     1
370
    15
100
AcDbSpline
210
0.0
220
0.0
230
1.0
 70
     8
 71
     3
 72
    12
 73
     8
 74
     0
 42
0.000000001
 43
0.00000001
 40
0.0
 40
0.0
 40
0.0
 40
0.0
 40
0.0964606137442818
 40
0.3221981096675506
 40
0.547988924709503
 40
0.773977373592339
 40
0.9999999999999999
 40
0.9999999999999999
 40
0.9999999999999999
 40
0.9999999999999999
 10
77.16713487810352
 20
7.639471731080153
 30
0.0
 10
77.384037996401
 20
7.647904086748539
 30
0.0
 10
78.10853861881793
 20
7.676069873290198
 30
0.0
 10
79.34033853842645
 20
7.416137975238235
 30
0.0
 10
80.86350885821216
 20
6.873317507226792
 30
0.0
 10
82.38828511001053
 20
6.065123975022963
 30
0.0
 10
83.40507879597162
 20
5.339552743906645
 30
0.0
 10
83.91351407992555
 20
4.976739697351636
 30
0.0
  0
SPLINE
  5
D1
330
1F
100
AcDbEntity
  8
0
  6
Continuous
 62
     1
370
    15
100
AcDbSpline
210
0.0
220
0.0
230
1.0
 70
     8
 71
     3
 72
    27
 73
    23
 74
     0
 42
0.000000001
 43
0.00000001
 40
0.0
 40
0.0
 40
0.0
 40
0.0
 40
0.032925245394871
 40
0.08399383721723
 40
0.1350372386811076
 40
0.1860243487920237
 40
0.2370281748695475
 40
0.2881071266843911
 40
0.3391345222626277
 40
0.3901192035569272
 40
0.4411342191236315
 40
0.4922164119053802
 40
0.5432303193628083
 40
0.594215114846831
 40
0.645243844974892
 40
0.6963221573333768
 40
0.7473251023965749
 40
0.7983125550090726
 40
0.8493575166760143
 40
0.9004248300521682
 40
0.9514193449246335
 40
1.0
 40
1.0
 40
1.0
 40
1.0
 10
30.09278248065731
 20
7.159715674585907
 30
0.0
 10
30.39703637512972
 20
7.266080225421528
 30
0.0
 10
31.1732022557037
 20
7.53742115732427
 30
0.0
 10
32.42257020326663
 20
7.697408342826852
 30
0.0
 10
33.83825084376952
 20
7.662470470698613
 30
0.0
 10
35.25232641187333
 20
7.366599358605218
 30
0.0
 10
36.66686250792682
 20
6.83120471839647
 30
0.0
 10
38.08364530227837
 20
6.070991025703156
 30
0.0
 10
39.49886973029348
 20
5.109572602284008
 30
0.0
 10
40.9128697710316
 20
3.977687947046662
 30
0.0
 10
42.32772958705939
 20
2.711200411284084
 30
0.0
 10
43.74461099456142
 20
1.351833379491611
 30
0.0
 10
45.15943852505711
 20
-0.0601162101691721
 30
0.0
 10
46.57344180745982
 20
-1.478329039271686
 30
0.0
 10
47.98870598919826
 20
-2.857898876093626
 30
0.0
 10
49.40546892540804
 20
-4.154121066252507
 30
0.0
 10
50.81998130827278
 20
-5.328381295409896
 30
0.0
 10
52.2340622928734
 20
-6.341385944545341
 30
0.0
 10
53.64980628654999
 20
-7.162773840824804
 30
0.0
 10
55.066257564765
 20
-7.759825125273038
 30
0.0
 10
56.45816018566191
 20
-8.133878731284884
 30
0.0
 10
57.37847608235412
 20
-8.174357291982655
 30
0.0
 10
57.8274790733709
 20
-8.194105940126924
 30
0.0
  0
SPLINE
  5
D2
330
1F
100
AcDbEntity
  8
0
  6
Continuous
 62
     1
370
    15
100
AcDbSpline
210
0.0
220
0.0
230
1.0
 70
     8
 71
     3
 72
    10
 73
     6
 74
     0
 42
0.000000001
 43
0.00000001
 40
0.0
 40
0.0
 40
0.0
 40
0.0
 40
0.227518870624867
 40
0.6137302308366822
 40
1.0
 40
1.0
 40
1.0
 40
1.0
 10
79.96525047803219
 20
7.153590307670613
 30
0.0
 10
80.26455016515025
 20
7.260321399246448
 30
0.0
 10
81.07190854188549
 20
7.548227616829129
 30
0.0
 10
82.38829937758528
 20
7.721187505635513
 30
0.0
 10
83.40508355206956
 20
7.635293639102631
 30
0.0
 10
83.91351407992552
 20
7.59234345852665
 30
0.0
  0
SPLINE
  5
D3
102
{ACAD_REACTORS
330
1D5
102
}
330
1F
100
AcDbEntity
  8
0
  6
Continuous
 62
     1
370
    15
100
AcDbSpline
210
0.0
220
0.0
230
1.0
 70
     8
 71
     3
 72
    22
 73
    18
 74
     0
 42
0.000000001
 43
0.00000001
 40
0.0
 40
0.0
 40
0.0
 40
0.0
 40
0.0682740282950101
 40
0.1365372467073773
 40
0.2047072814888087
 40
0.2729139332449741
 40
0.3412230079687689
 40
0.4116319914215076
 40
0.4820076183243606
 40
0.5524506997476638
 40
0.6229501030827814
 40
0.6933452238294718
 40
0.7637257930372906
 40
0.8341925378741468
 40
0.9046731922128969
 40
0.9750579482113054
 40
1.0
 40
1.0
 40
1.0
 40
1.0
 10
9.999514079925536
 20
4.27097302597575
 30
0.0
 10
10.45692045329949
 20
3.882681818417499
 30
0.0
 10
11.37166077852283
 20
3.106160881764915
 30
0.0
 10
12.7433443808799
 20
1.805805258882196
 30
0.0
 10
14.11299325251378
 20
0.4525294565507376
 30
0.0
 10
15.48342711596293
 20
-0.9244716592186982
 30
0.0
 10
16.87075690605306
 20
-2.294006679754095
 30
0.0
 10
18.27070886383627
 20
-3.617838868640678
 30
0.0
 10
19.684738560516
 20
-4.848833914958738
 30
0.0
 10
21.10016800296249
 20
-5.934264049978509
 30
0.0
 10
22.51683457858485
 20
-6.839217180206325
 30
0.0
 10
23.93125263516711
 20
-7.53681116963251
 30
0.0
 10
25.3453804302653
 20
-8.00240686479126
 30
0.0
 10
26.76131683639889
 20
-8.226659115724289
 30
0.0
 10
28.17760894248094
 20
-8.18278878101444
 30
0.0
 10
29.28746552249849
 20
-7.997325222621766
 30
0.0
 10
29.92577119155423
 20
-7.749188872812205
 30
0.0
 10
30.09278248065731
 20
-7.684264536927278
 30
0.0
  0
SPLINE
  5
D4
330
1F
100
AcDbEntity
  8
0
  6
Continuous
 62
     1
370
    15
100
AcDbSpline
210
0.0
220
0.0
230
1.0
 70
     8
 71
     3
 72
    28
 73
    24
 74
     0
 42
0.000000001
 43
0.00000001
 40
0.0
 40
0.0
 40
0.0
 40
0.0
 40
0.0001663133350628
 40
0.0512099644325945
 40
0.1022759666654625
 40
0.1532691722637296
 40
0.2042605141445201
 40
0.2553222700350785
 40
0.306370796844332
 40
0.3573581095911742
 40
0.4083571880583864
 40
0.4594318881132434
 40
0.5104634971114658
 40
0.5614474576159064
 40
0.6124568063196218
 40
0.663537333840983
 40
0.7145545394703134
 40
0.7655376903252336
 40
0.8165598368462155
 40
0.8676390708848482
 40
0.9225627864408564
 40
0.9774642332222003
 40
1.0
 40
1.0
 40
1.0
 40
1.0
 10
52.22909759233317
 20
7.674816769934074
 30
0.0
 10
52.23063461853637
 20
7.674952991780849
 30
0.0
 10
52.70390428851604
 20
7.716897409080126
 30
0.0
 10
53.64986332060288
 20
7.570592443920337
 30
0.0
 10
55.06622454386802
 20
7.219015941173102
 30
0.0
 10
56.48052149081254
 20
6.598936924622145
 30
0.0
 10
57.89474418606569
 20
5.769446825703532
 30
0.0
 10
59.31104344262219
 20
4.747210478184084
 30
0.0
 10
60.72694063178351
 20
3.56660043963733
 30
0.0
 10
62.14105343621906
 20
2.26388386145393
 30
0.0
 10
63.55549457006919
 20
0.8809207061350032
 30
0.0
 10
64.9721870638681
 20
-0.5368923728151087
 30
0.0
 10
66.387576164892
 20
-1.947002192250565
 30
0.0
 10
67.80159295080622
 20
-3.303856444255496
 30
0.0
 10
69.21632638187101
 20
-4.564373324452807
 30
0.0
 10
70.63319643763467
 20
-5.687324060431251
 30
0.0
 10
72.04816069135575
 20
-6.639316880568493
 30
0.0
 10
73.46214689393149
 20
-7.38925848397274
 30
0.0
 10
74.87728264087445
 20
-7.91207785079335
 30
0.0
 10
76.33026702113408
 20
-8.20342713311798
 30
0.0
 10
77.8176459532069
 20
-8.211435085428286
 30
0.0
 10
79.04103019961326
 20
-8.033262268519339
 30
0.0
 10
79.7569140597763
 20
-7.758190512868804
 30
0.0
 10
79.96525047803219
 20
-7.678139170011979
 30
0.0
  0
SPLINE
  5
D5
102
{ACAD_REACTORS
330
1D5
102
}
330
1F
100
AcDbEntity
  8
0
  6
Continuous
 62
     1
370
    15
100
AcDbSpline
210
0.0
220
0.0
230
1.0
 70
    24
 71
     3
 72
    16
 73
    12
 74
     0
 42
0.000000001
 43
0.00000001
 40
0.0
 40
0.0
 40
0.0
 40
0.0
 40
0.0559977918036298
 40
0.1797425883058922
 40
0.307075992289787
 40
0.4308207887920494
 40
0.5581541927759455
 40
0.6818989892782075
 40
0.8092323932621028
 40
0.9329771897643656
 40
1.0
 40
1.0
 40
1.0
 40
1.0
 10
9.999514079925522
 20
7.413252462358445
 30
0.0
 10
9.999514079925524
 20
7.316211204816573
 30
0.0
 10
9.99951407992553
 20
7.004726657993713
 30
0.0
 10
9.999514079925525
 20
6.491816849966435
 30
0.0
 10
9.999514079925527
 20
5.912978514452541
 30
0.0
 10
9.999514079925527
 20
5.393965493228437
 30
0.0
 10
9.999514079925525
 20
4.959119874898493
 30
0.0
 10
9.999514079925527
 20
4.611044389611414
 30
0.0
 10
9.999514079925525
 20
4.37304792809614
 30
0.0
 10
9.999514079925527
 20
4.2449268515599
 30
0.0
 10
9.999514079925527
 20
4.242179555832477
 30
0.0
 10
9.999514079925527
 20
4.241214342275789
 30
0.0
  0
SPLINE
  5
D6
102
{ACAD_REACTORS
330
1D5
102
}
330
1F
100
AcDbEntity
  8
0
  6
Continuous
 62
     1
370
    15
100
AcDbSpline
210
0.0
220
0.0
230
1.0
 70
     8
 71
     3
 72
    24
 73
    20
 74
     0
 42
0.000000001
 43
0.00000001
 40
0.0
 40
0.0
 40
0.0
 40
0.0
 40
0.0599269010480388
 40
0.1198443138209069
 40
0.1796799355178733
 40
0.2395476974279832
 40
0.2995053601568884
 40
0.361306198479089
 40
0.4230777583961008
 40
0.4849085258986794
 40
0.5467887294418785
 40
0.6085773999012131
 40
0.6703532978809996
 40
0.7322048357274096
 40
0.7940685825113092
 40
0.8558481554080687
 40
0.917631469305428
 40
0.9795037396758832
 40
1.0
 40
1.0
 40
1.0
 40
1.0
 10
9.999514079925534
 20
7.413252462358443
 30
0.0
 10
10.45692045329811
 20
7.274675079219332
 30
0.0
 10
11.3716607785187
 20
6.997542254011326
 30
0.0
 10
12.74334438089643
 20
6.304996247543056
 30
0.0
 10
14.11299325245186
 20
5.432832779410674
 30
0.0
 10
15.4834271161944
 20
4.386750985797176
 30
0.0
 10
16.87075690517653
 20
3.19226654649872
 30
0.0
 10
18.27070886721884
 20
1.876025235398411
 30
0.0
 10
19.68473854790642
 20
0.4784362278777646
 30
0.0
 10
21.10016805008554
 20
-0.9424806708881067
 30
0.0
 10
22.51683440267912
 20
-2.34087825977678
 30
0.0
 10
23.93125329049888
 20
-3.674762200734991
 30
0.0
 10
25.34537798371577
 20
-4.900159261301553
 30
0.0
 10
26.76132598034978
 20
-5.978300192089818
 30
0.0
 10
28.17757483028805
 20
-6.873903147908503
 30
0.0
 10
29.59179857837068
 20
-7.565169490022488
 30
0.0
 10
31.00604977811975
 20
-8.007184184146192
 30
0.0
 10
32.10693386174781
 20
-8.21062126648711
 30
0.0
 10
32.7355354952244
 20
-8.179563100185014
 30
0.0
 10
32.8919542465516
 20
-8.171834708572955
 30
0.0
  0
SPLINE
  5
D7
330
1F
100
AcDbEntity
  8
0
  6
Continuous
 62
     1
370
    15
100
AcDbSpline
210
0.0
220
0.0
230
1.0
 70
     8
 71
     3
 72
    28
 73
    24
 74
     0
 42
0.000000001
 43
0.00000001
 40
0.0
 40
0.0
 40
0.0
 40
0.0
 40
0.0013309041924954
 40
0.052326738577247
 40
0.1033207091484443
 40
0.1543850973593712
 40
0.2054362558070125
 40
0.2564261970365527
 40
0.307427904593006
 40
0.3585052376355257
 40
0.409539477399993
 40
0.4605260662143181
 40
0.511538044536723
 40
0.5626212053461623
 40
0.6136410409992201
 40
0.6646268201222856
 40
0.7156515969217065
 40
0.766733464181736
 40
0.8216600111487021
 40
0.8765642881930115
 40
0.9314815336086228
 40
0.9864468478800921
 40
1.0
 40
1.0
 40
1.0
 40
1.0
 10
55.02970747913704
 20
7.183763843456202
 30
0.0
 10
55.04201648920098
 20
7.188987778481515
 30
0.0
 10
55.52596593905066
 20
7.39437557720923
 30
0.0
 10
56.48045193324949
 20
7.5856243947296
 30
0.0
 10
57.89476285253746
 20
7.721666251413399
 30
0.0
 10
59.31103843928706
 20
7.577361499878609
 30
0.0
 10
60.72694197046997
 20
7.191919145420986
 30
0.0
 10
62.14105307763371
 20
6.567952304429021
 30
0.0
 10
63.55549466629333
 20
5.727722279288777
 30
0.0
 10
64.97218703820225
 20
4.69843768186649
 30
0.0
 10
66.38757617134951
 20
3.511226406780834
 30
0.0
 10
67.801592950604
 20
2.204178582313021
 30
0.0
 10
69.21632637621488
 20
0.8187245977869025
 30
0.0
 10
70.63319646048632
 20
-0.5995090538710873
 30
0.0
 10
72.0481606057584
 20
-2.008442058389481
 30
0.0
 10
73.46214721338626
 20
-3.361923450944459
 30
0.0
 10
74.87728144701062
 20
-4.616994225639686
 30
0.0
 10
76.33027162407235
 20
-5.761993386555186
 30
0.0
 10
77.81762733325937
 20
-6.745811262247027
 30
0.0
 10
79.34036853314022
 20
-7.521062277129409
 30
0.0
 10
80.86349859216149
 20
-8.006329540455319
 30
0.0
 10
82.00518745867905
 20
-8.22216037583231
 30
0.0
 10
82.6388975273752
 20
-8.180803794825849
 30
0.0
 10
82.76424722378984
 20
-8.172623342707462
 30
0.0
  0
SPLINE
  5
D8
330
1F
100
AcDbEntity
  8
0
  6
Continuous
 62
     1
370
    15
100
AcDbSpline
210
0.0
220
0.0
230
1.0
 70
     8
 71
     3
 72
    36
 73
    32
 74
     0
 42
0.000000001
 43
0.00000001
 40
0.0
 40
0.0
 40
0.0
 40
0.0
 40
0.1250000000000005
 40
0.1250000000000005
 40
0.250000000000001
 40
0.250000000000001
 40
0.3750000000000015
 40
0.3750000000000015
 40
0.4375000000000018
 40
0.4375000000000018
 40
0.5000000000000021
 40
0.5000000000000021
 40
0.5625000000000024
 40
0.5625000000000024
 40
0.6250000000000028
 40
0.6250000000000028
 40
0.6562500000000029
 40
0.6562500000000029
 40
0.687500000000003
 40
0.687500000000003
 40
0.7500000000000043
 40
0.7500000000000043
 40
0.781250000000005
 40
0.781250000000005
 40
0.8125000000000057
 40
0.8125000000000057
 40
0.8750000000000039
 40
0.8750000000000039
 40
0.937500000000002
 40
0.937500000000002
 40
1.0
 40
1.0
 40
1.0
 40
1.0
 10
83.91351407992553
 20
-5.180372477006517
 30
0.0
 10
84.19884321585862
 20
-5.404406567397197
 30
0.0
 10
84.46351108906906
 20
-5.590725234916347
 30
0.0
 10
84.96763839914449
 20
-5.884600902707223
 30
0.0
 10
85.19413803206727
 20
-5.984644938082322
 30
0.0
 10
85.5851230323857
 20
-6.112423781970282
 30
0.0
 10
85.7415432947306
 20
-6.136987960390985
 30
0.0
 10
85.91016330983389
 20
-6.165025178467892
 30
0.0
 10
85.95535073067194
 20
-6.173354679353745
 30
0.0
 10
86.02449057266102
 20
-6.199499848120396
 30
0.0
 10
86.04883803622306
 20
-6.217418310968443
 30
0.0
 10
86.0812351250152
 20
-6.273862345405496
 30
0.0
 10
86.08950674241603
 20
-6.312272863899014
 30
0.0
 10
86.09078549583717
 20
-6.419886135801185
 30
0.0
 10
86.0840657504464
 20
-6.487945142999148
 30
0.0
 10
86.05602291824178
 20
-6.61852873212401
 30
0.0
 10
86.04366405604075
 20
-6.666423620659432
 30
0.0
 10
86.00988521107763
 20
-6.772984037265961
 30
0.0
 10
85.98821034892984
 20
-6.832341338983675
 30
0.0
 10
85.9030507317743
 20
-7.026669246234414
 30
0.0
 10
85.81669708233572
 20
-7.182033273998559
 30
0.0
 10
85.63069672640421
 20
-7.416298884881249
 30
0.0
 10
85.5622239096698
 20
-7.491005210865862
 30
0.0
 10
85.41570432342655
 20
-7.629250102792886
 30
0.0
 10
85.3404723315926
 20
-7.690367394011819
 30
0.0
 10
85.10822405666258
 20
-7.85393845200969
 30
0.0
 10
84.95301591817436
 20
-7.93105931988531
 30
0.0
 10
84.64550634134035
 20
-8.037634438598301
 30
0.0
 10
84.4967149195569
 20
-8.06598705493124
 30
0.0
 10
84.20181980486505
 20
-8.084340540073894
 30
0.0
 10
84.05612546440508
 20
-8.073797213617047
 30
0.0
 10
83.91351407992553
 20
-8.04583783791666
 30
0.0
  0
SPLINE
  5
D9
330
1F
100
AcDbEntity
  8
0
  6
Continuous
 62
     1
370
    15
100
AcDbSpline
210
0.0
220
0.0
230
1.0
 70
     8
 71
     3
 72
    28
 73
    24
 74
     0
 42
0.000000001
 43
0.00000001
 40
0.0
 40
0.0
 40
0.0
 40
0.0
 40
0.0253358123980289
 40
0.0747871750112141
 40
0.1241710333720332
 40
0.1735814178670941
 40
0.2230659997913115
 40
0.2740718013477809
 40
0.3250534386928012
 40
0.3760839415620124
 40
0.4271552452511816
 40
0.4781510043613742
 40
0.5291362220197855
 40
0.5801838671813101
 40
0.6312415886890415
 40
0.6822298393497703
 40
0.7332211775533126
 40
0.78428593379352
 40
0.8353255015672058
 40
0.8863087822157745
 40
0.9373087775754743
 40
0.9883838930300639
 40
1.0
 40
1.0
 40
1.0
 40
1.0
 10
10.66882351125376
 20
7.64564682942305
 30
0.0
 10
10.90313511376009
 20
7.651071540151429
 30
0.0
 10
11.59478464717557
 20
7.667084399113874
 30
0.0
 10
12.74334806890822
 20
7.436766720502903
 30
0.0
 10
14.11299226435728
 20
6.977535292238143
 30
0.0
 10
15.4834273811729
 20
6.290626055870547
 30
0.0
 10
16.87075683175637
 20
5.403642471462451
 30
0.0
 10
18.2707088868922
 20
4.329808521769077
 30
0.0
 10
19.68473854352167
 20
3.099439361351227
 30
0.0
 10
21.10016804793118
 20
1.762569510597618
 30
0.0
 10
22.51683441569071
 20
0.3624855584215826
 30
0.0
 10
23.9312532406976
 20
-1.058787306612
 30
0.0
 10
25.34537816999482
 20
-2.454651856533694
 30
0.0
 10
26.76132528403834
 20
-3.780360049692596
 30
0.0
 10
28.17757742795562
 20
-4.994375019990142
 30
0.0
 10
29.59178889826375
 20
-6.059203615127659
 30
0.0
 10
31.00608593080935
 20
-6.940021786838621
 30
0.0
 10
32.42255324237235
 20
-7.608889827857642
 30
0.0
 10
33.83825162012374
 20
-8.043823464929522
 30
0.0
 10
35.25234022624674
 20
-8.237317820915694
 30
0.0
 10
36.6668064132385
 20
-8.158356659062532
 30
0.0
 10
37.71910883534637
 20
-7.967969096151957
 30
0.0
 10
38.29870078004721
 20
-7.733892811585851
 30
0.0
 10
38.40609383713209
 20
-7.690520628758843
 30
0.0
  0
SPLINE
  5
DA
330
1F
100
AcDbEntity
  8
0
  6
Continuous
 62
     1
370
    15
100
AcDbSpline
210
0.0
220
0.0
230
1.0
 70
     8
 71
     3
 72
    24
 73
    20
 74
     0
 42
0.000000001
 43
0.00000001
 40
0.0
 40
0.0
 40
0.0
 40
0.0
 40
0.007881661215545
 40
0.0683948319594347
 40
0.1289219665897763
 40
0.1895388510382303
 40
0.2501045938138409
 40
0.310613786022564
 40
0.3711531096572209
 40
0.4317769103061291
 40
0.4923255587601508
 40
0.5528337900541475
 40
0.6133883024967582
 40
0.674010568004138
 40
0.7391955718467931
 40
0.8043541464840063
 40
0.8695281115540767
 40
0.9347591231476725
 40
1.0
 40
1.0
 40
1.0
 40
1.0
 10
60.54307094509301
 20
7.660966722279833
 30
0.0
 10
60.60448483035213
 20
7.665569492921985
 30
0.0
 10
61.13741719668992
 20
7.705511037731964
 30
0.0
 10
62.14099827543404
 20
7.540525281727694
 30
0.0
 10
63.55550937661911
 20
7.152772592242656
 30
0.0
 10
64.97218309770004
 20
6.505796709674573
 30
0.0
 10
66.38757722571319
 20
5.650479099241607
 30
0.0
 10
67.801592668041
 20
4.605751550952278
 30
0.0
 10
69.21632645211788
 20
3.406930380065166
 30
0.0
 10
70.63319643996326
 20
2.093033067956597
 30
0.0
 10
72.04816061199763
 20
0.7032066244667357
 30
0.0
 10
73.462147208926
 20
-0.7171674567067254
 30
0.0
 10
74.87728145862565
 20
-2.123101700633142
 30
0.0
 10
76.33027158068087
 20
-3.503366514743528
 30
0.0
 10
77.81762750836059
 20
-4.808255707155117
 30
0.0
 10
79.34036788156746
 20
-5.978602677414881
 30
0.0
 10
80.86350102498461
 20
-6.933690321943271
 30
0.0
 10
82.38828706937687
 20
-7.663983560493167
 30
0.0
 10
83.40507944912665
 20
-7.918546662755165
 30
0.0
 10
83.91351407992555
 20
-8.04583783791666
 30
0.0
  0
SPLINE
  5
DB
330
1F
100
AcDbEntity
  8
0
  6
Continuous
 62
     1
370
    15
100
AcDbSpline
210
0.0
220
0.0
230
1.0
 70
     8
 71
     3
 72
    28
 73
    24
 74
     0
 42
0.000000001
 43
0.00000001
 40
0.0
 40
0.0
 40
0.0
 40
0.0
 40
0.0232440548478513
 40
0.0726579622253382
 40
0.1221460723221414
 40
0.1731555105117552
 40
0.2241407827670496
 40
0.2751749240305699
 40
0.3262498690230821
 40
0.3772492640504084
 40
0.4282381168743646
 40
0.4792894016524165
 40
0.5303507634951028
 40
0.581342649537625
 40
0.6323376233430974
 40
0.6834060204198252
 40
0.734449227234133
 40
0.7854361429101413
 40
0.8364397744890124
 40
0.887518531518718
 40
0.9385457325084217
 40
0.9895302193770755
 40
0.9999999999999999
 40
0.9999999999999999
 40
0.9999999999999999
 40
0.9999999999999999
 10
13.46845310830805
 20
7.159126808982434
 30
0.0
 10
13.68324373291187
 20
7.239217532854866
 30
0.0
 10
14.35465193561038
 20
7.48957095990596
 30
0.0
 10
15.48340912634523
 20
7.66839996316322
 30
0.0
 10
16.87076189406037
 20
7.695273477253489
 30
0.0
 10
18.27070751390322
 20
7.464175749530047
 30
0.0
 10
19.6847389117309
 20
6.988989272869749
 30
0.0
 10
21.10016794910869
 20
6.283014962004655
 30
0.0
 10
22.51683444224173
 20
5.370444873777987
 30
0.0
 10
23.93125323319417
 20
4.278303601831467
 30
0.0
 10
25.34537817348443
 20
3.042223809686343
 30
0.0
 10
26.76132527758346
 20
1.701983892012664
 30
0.0
 10
28.17757745027271
 20
0.2997462907597736
 30
0.0
 10
29.59178881557123
 20
-1.121297128989646
 30
0.0
 10
31.00608623951799
 20
-2.515116472254288
 30
0.0
 10
32.42255208868235
 20
-3.836403119148757
 30
0.0
 10
33.83825592116863
 20
-5.044870737437869
 30
0.0
 10
35.25232419180704
 20
-6.102458765078169
 30
0.0
 10
36.66686631594951
 20
-6.973315179812188
 30
0.0
 10
38.08363227804088
 20
-7.636521081284546
 30
0.0
 10
39.49891794151625
 20
-8.044772854530157
 30
0.0
 10
40.53810496695091
 20
-8.2230437946663
 30
0.0
 10
41.10621149379654
 20
-8.185606688618892
 30
0.0
 10
41.20299811170457
 20
-8.179228640299836
 30
0.0
  0
SPLINE
  5
DC
330
1F
100
AcDbEntity
  8
0
  6
Continuous
 62
     1
370
    15
100
AcDbSpline
210
0.0
220
0.0
230
1.0
 70
     8
 71
     3
 72
    22
 73
    18
 74
     0
 42
0.000000001
 43
0.00000001
 40
0.0
 40
0.0
 40
0.0
 40
0.0
 40
0.0104734973643517
 40
0.0793330155341783
 40
0.1481344378288626
 40
0.2168716198574313
 40
0.2856430305582661
 40
0.3545104053877535
 40
0.423292408889164
 40
0.4920284993386175
 40
0.5608171642089269
 40
0.629682795149613
 40
0.7037316018038113
 40
0.7777503854311121
 40
0.851786652269577
 40
0.9258877227705702
 40
1.0
 40
1.0
 40
1.0
 40
1.0
 10
63.33969291782505
 20
7.171508959990241
 30
0.0
 10
63.41149165093293
 20
7.201122361962393
 30
0.0
 10
63.95534150459965
 20
7.425433343953275
 30
0.0
 10
64.97225739438083
 20
7.617207609607529
 30
0.0
 10
66.38755734615698
 20
7.717241996131555
 30
0.0
 10
67.80159799536962
 20
7.542167173759612
 30
0.0
 10
69.21632502208509
 20
7.125371009377976
 30
0.0
 10
70.63319682284356
 20
6.473448813054528
 30
0.0
 10
72.04816050953933
 20
5.607769238794101
 30
0.0
 10
73.46214723638943
 20
4.555836846939161
 30
0.0
 10
74.87728145127309
 20
3.351111871943794
 30
0.0
 10
76.33027158281774
 20
1.999250017066731
 30
0.0
 10
77.81762750777081
 20
0.532874068701186
 30
0.0
 10
79.34036788172543
 20
-0.9985527491016191
 30
0.0
 10
80.86350102494242
 20
-2.499797925000722
 30
0.0
 10
82.38828706938746
 20
-3.931459761257721
 30
0.0
 10
83.40507944913016
 20
-4.7640472538495
 30
0.0
 10
83.91351407992552
 20
-5.180372477006523
 30
0.0
  0
SPLINE
  5
DD
330
1F
100
AcDbEntity
  8
0
  6
Continuous
 62
     1
370
    15
100
AcDbSpline
210
0.0
220
0.0
230
1.0
 70
     8
 71
     3
 72
    10
 73
     6
 74
     0
 42
0.000000001
 43
0.00000001
 40
0.0
 40
0.0
 40
0.0
 40
0.0
 40
0.3955089633359546
 40
0.790955305414828
 40
0.9999999999999999
 40
0.9999999999999999
 40
0.9999999999999999
 40
0.9999999999999999
 10
9.999514079925536
 20
-8.171608528592072
 30
0.0
 10
10.45691544431376
 20
-8.185224420454686
 30
0.0
 10
11.37164575235875
 20
-8.21245404836464
 30
0.0
 10
12.52840672046991
 20
-8.025692420706768
 30
0.0
 10
13.22690046041169
 20
-7.771559686950248
 30
0.0
 10
13.46845310830799
 20
-7.683675671323809
 30
0.0
  0
SPLINE
  5
DE
330
1F
100
AcDbEntity
  8
0
  6
Continuous
 62
     1
370
    15
100
AcDbSpline
210
0.0
220
0.0
230
1.0
 70
     8
 71
     3
 72
    27
 73
    23
 74
     0
 42
0.000000001
 43
0.00000001
 40
0.0
 40
0.0
 40
0.0
 40
0.0
 40
0.038285997341731
 40
0.0893647846372924
 40
0.1403920158623033
 40
0.1913765329409548
 40
0.2423913841943081
 40
0.293473412446336
 40
0.344487155593982
 40
0.3954717868619887
 40
0.4465003526325259
 40
0.4975785004737882
 40
0.5485812812625122
 40
0.5995685696504364
 40
0.6506133669075741
 40
0.7016805158019316
 40
0.7526748664270763
 40
0.8036673532928955
 40
0.8547302557495939
 40
0.9057799288279352
 40
0.9567683864693338
 40
1.0
 40
1.0
 40
1.0
 40
1.0
 10
35.60484349194169
 20
7.651649427864688
 30
0.0
 10
35.95865350164154
 20
7.647354680754411
 30
0.0
 10
36.78449473641803
 20
7.637330150188946
 30
0.0
 10
38.08366003454417
 20
7.326770826546491
 30
0.0
 10
39.49886578825542
 20
6.778423473587858
 30
0.0
 10
40.91287082754662
 20
5.998399147244903
 30
0.0
 10
42.32772930359335
 20
5.021923535746697
 30
0.0
 10
43.74461106997727
 20
3.878491574572519
 30
0.0
 10
45.15943850662156
 20
2.602754688672279
 30
0.0
 10
46.57344180588403
 20
1.236227153889915
 30
0.0
 10
47.9887060139856
 20
-0.1777330798263406
 30
0.0
 10
49.40546882779348
 20
-1.593236612357314
 30
0.0
 10
50.81998167327053
 20
-2.96799863690006
 30
0.0
 10
52.23406093006826
 20
-4.256752209295018
 30
0.0
 10
53.64981138010352
 20
-5.418437444171394
 30
0.0
 10
55.06623855822669
 20
-6.416312742545697
 30
0.0
 10
56.4805173043101
 20
-7.219984191482697
 30
0.0
 10
57.89474693004268
 20
-7.802408945606657
 30
0.0
 10
59.31103664977261
 20
-8.147203817345845
 30
0.0
 10
60.72696503579351
 20
-8.235765470470543
 30
0.0
 10
62.06918465580373
 20
-8.102691580590196
 30
0.0
 10
62.94008979699014
 20
-7.823953188063771
 30
0.0
 10
63.33969291782501
 20
-7.696057822331607
 30
0.0
  0
SPLINE
  5
DF
102
{ACAD_REACTORS
330
1D5
102
}
330
1F
100
AcDbEntity
  8
0
  6
Continuous
 62
     1
370
    15
100
AcDbSpline
210
0.0
220
0.0
230
1.0
 70
    24
 71
     3
 72
    15
 73
    11
 74
     0
 42
0.000000001
 43
0.00000001
 40
0.0
 40
0.0
 40
0.0
 40
0.0
 40
0.0762280878099118
 40
0.2142775465515674
 40
0.3563304489488644
 40
0.4943799076905189
 40
0.6364328100878156
 40
0.7744822688294706
 40
0.9165351712267686
 40
1.0
 40
1.0
 40
1.0
 40
1.0
 10
9.999514079925527
 20
-5.657426223108925
 30
0.0
 10
9.999514079925527
 20
-5.654439008715793
 30
0.0
 10
9.999514079925527
 20
-5.646041933706114
 30
0.0
 10
9.999514079925527
 20
-5.75631974185855
 30
0.0
 10
9.999514079925525
 20
-5.97408248482345
 30
0.0
 10
9.999514079925527
 20
-6.303245124607474
 30
0.0
 10
9.999514079925527
 20
-6.721305476560061
 30
0.0
 10
9.999514079925527
 20
-7.226527293934922
 30
0.0
 10
9.999514079925529
 20
-7.718625612372506
 30
0.0
 10
9.999514079925527
 20
-8.049245177254894
 30
0.0
 10
9.999514079925525
 20
-8.1716085285921
 30
0.0
  0
SPLINE
  5
E0
102
{ACAD_REACTORS
330
1D5
102
}
330
1F
100
AcDbEntity
  8
0
  6
Continuous
 62
     1
370
    15
100
AcDbSpline
210
0.0
220
0.0
230
1.0
 70
     8
 71
     3
 72
    12
 73
     8
 74
     0
 42
0.000000001
 43
0.00000001
 40
0.0
 40
0.0
 40
0.0
 40
0.0
 40
0.218864989283045
 40
0.437695325493643
 40
0.6562269443896861
 40
0.8748759457514027
 40
1.0
 40
1.0
 40
1.0
 40
1.0
 10
9.999514079925536
 20
-5.851507223237517
 30
0.0
 10
10.45692037253179
 20
-6.15983410060899
 30
0.0
 10
11.37166053623253
 20
-6.776439037705706
 30
0.0
 10
12.74334534931099
 20
-7.465158188136692
 30
0.0
 10
14.11298962559111
 20
-7.94116315376745
 30
0.0
 10
15.2874187732929
 20
-8.185145118664883
 30
0.0
 10
16.00616517316519
 20
-8.174604244665865
 30
0.0
 10
16.26776933923034
 20
-8.170767652854623
 30
0.0
  0
SPLINE
  5
E1
330
1F
100
AcDbEntity
  8
0
  6
Continuous
 62
     1
370
    15
100
AcDbSpline
210
0.0
220
0.0
230
1.0
 70
     8
 71
     3
 72
    27
 73
    23
 74
     0
 42
0.000000001
 43
0.00000001
 40
0.0
 40
0.0
 40
0.0
 40
0.0
 40
0.0394100547412155
 40
0.0903942685536748
 40
0.1414088163604019
 40
0.1924905407662212
 40
0.2435039804738325
 40
0.2944883084749679
 40
0.3455165707173019
 40
0.3965944147354372
 40
0.4475968921493333
 40
0.4985838772545804
 40
0.5496283708869671
 40
0.6006952160236219
 40
0.6516892633240822
 40
0.7026814468763031
 40
0.7537440456005569
 40
0.8047934150251452
 40
0.8557815693769122
 40
0.9067814896432563
 40
0.9578570327454677
 40
1.0
 40
1.0
 40
1.0
 40
1.0
 10
38.40609383713203
 20
7.165971766417472
 30
0.0
 10
38.77048676854163
 20
7.286578887391647
 30
0.0
 10
39.60628952794386
 20
7.563213684131055
 30
0.0
 10
40.9128470383639
 20
7.707352702858451
 30
0.0
 10
42.32773568912808
 20
7.638605522705117
 30
0.0
 10
43.74460936054221
 20
7.312172351116246
 30
0.0
 10
45.15943896411147
 20
6.747277398633458
 30
0.0
 10
46.57344168317051
 20
5.959552429044245
 30
0.0
 10
47.98870604708398
 20
4.974694725373514
 30
0.0
 10
49.40546881830753
 20
3.824722147218013
 30
0.0
 10
50.81998167814929
 20
2.543979870956454
 30
0.0
 10
52.23406092002674
 20
1.174360220434463
 30
0.0
 10
53.64981141543898
 20
-0.2403357282462207
 30
0.0
 10
55.06623842696071
 20
-1.655190059655147
 30
0.0
 10
56.48051779325111
 20
-3.027048971060432
 30
0.0
 10
57.89474510425682
 20
-4.311119868870305
 30
0.0
 10
59.31104347344633
 20
-5.466088505008171
 30
0.0
 10
60.72693959090851
 20
-6.45590527945014
 30
0.0
 10
62.14105756364678
 20
-7.251664215150591
 30
0.0
 10
63.55547908559113
 20
-7.818555822132818
 30
0.0
 10
64.88998716252236
 20
-8.151780016245656
 30
0.0
 10
65.75173389425305
 20
-8.172351235488083
 30
0.0
 10
66.14131922615813
 20
-8.181651236266916
 30
0.0
  0
LINE
  5
E4
330
1F
100
AcDbEntity
  8
0
  6
Continuous
 62
     1
370
    15
100
AcDbLine
 10
86.19951407992554
 20
-0.2622744311706875
 30
0.0
 11
86.19951407992554
 21
6.913225568829313
 31
0.0
  0
LINE
  5
E5
330
1F
100
AcDbEntity
  8
0
  6
Continuous
 62
     1
370
    15
100
AcDbLine
 10
86.19951407992555
 20
-7.43777443117069
 30
0.0
 11
86.19951407992554
 21
-0.2622744311706875
 31
0.0
  0
LINE
  5
EA
102
{ACAD_REACTORS
330
1D5
102
}
330
1F
100
AcDbEntity
  8
중심선
100
AcDbLine
 10
-43.80048592007447
 20
-0.2622744311706926
 30
0.0
 11
89.19951407992554
 21
-0.2622744311706926
 31
0.0
  0
CIRCLE
  5
EB
330
1F
100
AcDbEntity
  8
외형선
100
AcDbCircle
 10
-0.0004859200744818
 20
-0.2622744311706926
 30
0.0
 40
3.000000000000001
  0
INSERT
  5
EC
330
1F
100
AcDbEntity
  8
0
  6
Continuous
 62
     7
100
AcDbBlockReference
 66
     1
  2
블럭10
 10
-16.62984641916796
 20
-52.04907070757051
 30
0.0
  0
ATTRIB
  5
ED
330
EC
100
AcDbEntity
  8
FORMAT
 62
     2
100
AcDbText
 10
-27.68086677135242
 20
-49.97370379473831
 30
0.0
 40
4.233333333333333
  1
GMG22938[ 6 FLUTE ]
 41
0.75
  7
SLDTEXTSTYLE0
 11
-27.68086677135242
 21
-52.09037046140498
 31
0.0
100
AcDbAttribute
  2
AUTOATTR0
 70
     0
 74
     1
  0
SEQEND
  5
EE
330
EC
100
AcDbEntity
  8
0
  6
Continuous
 62
     7
  0
HATCH
  5
EF
330
1F
100
AcDbEntity
  8
중심선
100
AcDbHatch
 10
0.0
 20
0.0
 30
0.0
210
0.0
220
0.0
230
1.0
  2
SOLID
 70
     1
 71
     0
 91
        1
 92
        0
 93
        4
 72
     1
 10
-10.91493711478711
 20
-35.80189640592657
 11
-14.36121235862439
 21
-35.80189640592657
 72
     1
 10
-14.36121235862439
 20
-35.80189640592657
 11
-16.48944221782842
 21
-38.33822198649916
 72
     1
 10
-16.48944221782842
 20
-38.33822198649916
 11
-13.04313388887798
 21
-38.33818255719667
 72
     1
 10
-13.04313388887798
 20
-38.33818255719667
 11
-10.91493711478711
 21
-35.80189640592657
 97
        0
 75
     0
 76
     1
 98
        1
 10
0.0
 20
0.0
  0
HATCH
  5
F0
330
1F
100
AcDbEntity
  8
중심선
100
AcDbHatch
 10
0.0
 20
0.0
 30
0.0
210
0.0
220
0.0
230
1.0
  2
SOLID
 70
     1
 71
     0
 91
        1
 92
        0
 93
        4
 72
     1
 10
-5.902173123751159
 20
-35.80189640592657
 11
-9.348448367588441
 21
-35.80189640592657
 72
     1
 10
-9.348448367588441
 20
-35.80189640592657
 11
-13.87958637594583
 21
-41.20189640592658
 72
     1
 10
-13.87958637594583
 20
-41.20189640592658
 11
-10.43331113210855
 21
-41.20189640592658
 72
     1
 10
-10.43331113210855
 20
-41.20189640592658
 11
-5.902173123751159
 21
-35.80189640592657
 97
        0
 75
     0
 76
     1
 98
        1
 10
0.0
 20
0.0
  0
HATCH
  5
F1
330
1F
100
AcDbEntity
  8
중심선
100
AcDbHatch
 10
0.0
 20
0.0
 30
0.0
210
0.0
220
0.0
230
1.0
  2
SOLID
 70
     1
 71
     0
 91
        1
 92
        0
 93
        4
 72
     1
 10
-0.8894091327152631
 20
-35.8018964059266
 11
-4.335684376552379
 21
-35.80189640592657
 72
     1
 10
-4.335684376552379
 20
-35.80189640592657
 11
-11.38412127844163
 21
-44.20189640592659
 72
     1
 10
-11.38412127844163
 20
-44.20189640592659
 11
-7.937846034604346
 21
-44.20189640592659
 72
     1
 10
-7.937846034604346
 20
-44.20189640592659
 11
-0.8894091327152633
 21
-35.8018964059266
 97
        0
 75
     0
 76
     1
 98
        1
 10
0.0
 20
0.0
  0
HATCH
  5
F2
330
1F
100
AcDbEntity
  8
중심선
100
AcDbHatch
 10
0.0
 20
0.0
 30
0.0
210
0.0
220
0.0
230
1.0
  2
SOLID
 70
     1
 71
     0
 91
        1
 92
        0
 93
        6
 72
     3
 10
3.910481298296936
 20
-40.00189640597785
 11
3.960054785062284
 21
1.540850780301639E-10
 40
0.3939339440162633
 50
17.09539180608434
 51
320.0019657685079
 73
     0
 72
     1
 10
5.593480953997531
 20
-38.58979041056487
 11
7.89878282769857
 21
-36.65546370051695
 72
     3
 10
3.91048129824409
 20
-40.00189640592671
 11
6.600054785286829
 21
-1.249000902703301E-13
 40
0.6363583540795982
 50
39.99873849337408
 51
368.4976242363724
 73
     1
 72
     1
 10
10.3358137901447
 20
-39.04189640585659
 11
2.590548605080012
 21
-39.04189640585656
 72
     1
 10
2.590548605080012
 20
-39.04189640585656
 11
2.590523560634078
 21
-40.96189640585649
 72
     1
 10
2.590523560634078
 20
-40.96189640585649
 11
7.031903330106115
 21
-40.96189640585646
 97
        0
 75
     0
 76
     1
 98
        1
 10
0.0
 20
0.0
  0
POINT
  5
F3
330
1F
100
AcDbEntity
  8
치수문자_일반주서
100
AcDbPoint
 10
-0.0004859200744818
 20
-0.2622744311706926
 30
0.0
  0
DIMENSION
  5
F4
102
{ACAD_XDICTIONARY
360
1DC
102
}
330
1F
100
AcDbEntity
  8
치수문자_일반주서
100
AcDbDimension
  2
_D
 10
101.3770612739105
 20
7.675225568829382
 30
0.0
 11
101.3770612739105
 21
3.720141088259121
 31
0.0
 70
   160
  1
%%c<>
 71
     2
 42
15.875
 52
-270.0
  3
SLDDIMSTYLE0
100
AcDbAlignedDimension
 13
83.91351407992556
 23
-8.199774431170688
 33
0.0
 14
86.19951407992554
 24
7.675225568829323
 34
0.0
 50
90.0000000000002
100
AcDbRotatedDimension
1001
ACAD
1000
DSTYLE
1002
{
1070
   171
1070
     3
1070
   273
1070
     7
1002
}
1001
ENABLE_CUSTOM_SPLIT
1070
     1
  0
DIMENSION
  5
109
102
{ACAD_XDICTIONARY
360
1DA
102
}
330
1F
100
AcDbEntity
  8
치수문자_일반주서
100
AcDbDimension
  2
_D_1
 10
86.19951407992555
 20
40.33077698690109
 30
0.0
 11
22.69951407992554
 21
40.33077698690109
 31
0.0
 70
   160
  1
<>
 71
     2
 42
127.0
  3
SLDDIMSTYLE0
100
AcDbAlignedDimension
 13
-40.80048592007447
 23
7.175225568829307
 33
0.0
 14
86.19951407992554
 24
7.489313903600403
 34
0.0
 50
-0.0000000000000064
100
AcDbRotatedDimension
1001
ACAD
1000
DSTYLE
1002
{
1070
   171
1070
     3
1070
   273
1070
     7
1002
}
1001
ENABLE_CUSTOM_SPLIT
1070
     1
  0
DIMENSION
  5
11D
102
{ACAD_XDICTIONARY
360
1D4
102
}
330
1F
100
AcDbEntity
  8
치수문자_일반주서
100
AcDbDimension
  2
_D_2
 10
9.999514079925532
 20
23.01622009916723
 30
0.0
 11
47.26131747562998
 21
23.01622009916723
 31
0.0
 70
   160
  1
<>
 71
     2
 42
76.2
  3
SLDDIMSTYLE0
100
AcDbAlignedDimension
 13
86.19951407992554
 23
7.675225568829323
 33
0.0
 14
9.999514079925536
 24
-8.171608528592078
 34
0.0
 50
0.0000000000000214
100
AcDbRotatedDimension
1001
ACAD
1000
DSTYLE
1002
{
1070
   171
1070
     3
1070
   273
1070
     7
1002
}
1001
ENABLE_CUSTOM_SPLIT
1070
     1
  0
INSERT
  5
148
330
1F
100
AcDbEntity
  8
외형선
100
AcDbBlockReference
  2
SW_DOWELSYMBOL_0
 10
-0.0004859200744818
 20
-0.2622744311706926
 30
0.0
  0
DIMENSION
  5
16E
330
1F
100
AcDbEntity
  8
치수문자_일반주서
100
AcDbDimension
  2
*D8
 10
-52.49963083155616
 20
-8.199774431170692
 30
0.0
 11
-52.49963083155616
 21
-0.2622744311706917
 31
0.0
 70
   160
  1
{%%C<>[]}
 71
     5
 42
15.875
  3
SLDDIMSTYLE0
100
AcDbAlignedDimension
 13
-40.30048592007447
 23
7.675225568829307
 33
0.0
 14
-40.30048592007447
 24
-8.199774431170692
 34
0.0
 50
90.0
100
AcDbRotatedDimension
1001
ACAD
1000
DSTYLE
1002
{
1070
   283
1070
     1
1070
   170
1070
     1
1070
   171
1070
     3
1070
   273
1070
     7
1002
}
  0
ARC
  5
1D3
102
{ACAD_REACTORS
102
}
330
1F
100
AcDbEntity
  8
0
  6
Continuous
 62
     1
370
    15
100
AcDbCircle
 10
85.43751407992553
 20
6.913225568829313
 30
0.0
 40
0.7619999999999998
100
AcDbArc
 50
0.0
 51
90.0
  0
ARC
  5
1DE
330
1F
100
AcDbEntity
  8
0
  6
Continuous
 62
     1
370
    15
100
AcDbCircle
 10
85.43751407992555
 20
-7.43777443117069
 30
0.0
 40
0.7619999999999998
100
AcDbArc
 50
270.0
 51
0.0000000000001336
  0
DIMENSION
  5
1DF
102
{ACAD_REACTORS
102
}
102
{ACAD_XDICTIONARY
360
1E0
102
}
330
1F
100
AcDbEntity
  8
0
100
AcDbDimension
  2
*D12
 10
85.43751407992553
 20
6.913225568829313
 30
0.0
 11
107.5764958115924
 21
21.57522556882931
 31
0.0
 70
   164
 71
     5
 42
0.7620000000000035
  3
ISO-25
100
AcDbRadialDimension
 15
85.65111460392355
 25
7.644675373086434
 35
0.0
 40
0.0
1001
ACAD
1000
DSTYLE
1002
{
1070
     3
1000
R<> [0.03]
1070
   179
1070
     2
1070
   143
1040
0.0393700787401575
1070
    41
1040
3.302
1070
    44
1040
1.0
1070
    42
1040
1.0
1070
   147
1040
1.524
1070
    73
1070
     1
1070
    74
1070
     1
1070
   140
1040
3.5
1070
   284
1070
     0
1070
    78
1070
     0
1002
}
1001
ACAD_DSTYLE_DIMRADIAL_EXTENSION
1070
   387
1070
     1
1070
   388
1040
0.0
1070
   390
1040
1.570796326794897
  0
ENDSEC
  0
SECTION
  2
OBJECTS
  0
DICTIONARY
  5
C
330
0
100
AcDbDictionary
281
     1
  3
ACAD_GROUP
350
D
  3
ACAD_IMAGE_VARS
350
16C
  3
ACAD_LAYOUT
350
1A
  3
ACAD_MLINESTYLE
350
17
  3
ACAD_PLOTSETTINGS
350
19
  3
ACAD_PLOTSTYLENAME
350
E
  3
ACAD_SCALELIST
350
47
  3
APPDATA
350
16A
  3
DWGPROPS
350
1F3
  3
FX_DICT_DIMENSION_PALETTE
350
1EC
  3
FX_DICT_DIMENSION_PALETTE_RECENTLIST
350
1EE
  0
DICTIONARY
  5
1F1
330
1F
100
AcDbDictionary
280
     1
281
     1
  3
DIM_BOUNDING_BOXES_V1
360
1F2
  0
DICTIONARY
  5
1DC
330
F4
100
AcDbDictionary
280
     1
281
     1
  3
ACAD_CUSTOM_BREAKDATA
360
1DD
  0
DICTIONARY
  5
1DA
330
109
100
AcDbDictionary
280
     1
281
     1
  3
ACAD_CUSTOM_BREAKDATA
360
1DB
  0
DICTIONARY
  5
1D4
330
11D
100
AcDbDictionary
280
     1
281
     1
  3
ACAD_CUSTOM_BREAKDATA
360
1D5
  0
DICTIONARY
  5
1E0
330
1DF
100
AcDbDictionary
280
     1
281
     1
  0
DICTIONARY
  5
D
102
{ACAD_REACTORS
330
C
102
}
330
C
100
AcDbDictionary
281
     1
  0
RASTERVARIABLES
  5
16C
102
{ACAD_REACTORS
330
C
102
}
330
C
100
AcDbRasterVariables
 90
        0
 70
     1
 71
     1
 72
     1
  0
DICTIONARY
  5
1A
102
{ACAD_REACTORS
330
C
102
}
330
C
100
AcDbDictionary
281
     1
  3
Layout1
350
1E
  3
Layout2
350
26
  3
Model
350
22
  0
DICTIONARY
  5
17
102
{ACAD_REACTORS
330
C
102
}
330
C
100
AcDbDictionary
281
     1
  3
Standard
350
18
  0
DICTIONARY
  5
19
102
{ACAD_REACTORS
330
C
102
}
330
C
100
AcDbDictionary
281
     1
  0
ACDBDICTIONARYWDFLT
  5
E
102
{ACAD_REACTORS
330
C
102
}
330
C
100
AcDbDictionary
281
     1
  3
Normal
350
F
100
AcDbDictionaryWithDefault
340
F
  0
DICTIONARY
  5
47
102
{ACAD_REACTORS
330
C
102
}
330
C
100
AcDbDictionary
281
     1
  3
A0
350
48
  3
A1
350
49
  3
A2
350
4A
  3
A3
350
4B
  3
A4
350
4C
  3
A5
350
4D
  3
A6
350
4E
  3
A7
350
4F
  3
A8
350
50
  3
A9
350
51
  3
B0
350
52
  3
B1
350
53
  3
B2
350
54
  3
B3
350
55
  3
B4
350
56
  3
B5
350
57
  3
B6
350
58
  3
B7
350
59
  3
B8
350
5A
  3
B9
350
5B
  3
C0
350
5C
  3
C1
350
5D
  3
C2
350
5E
  3
C3
350
5F
  3
C4
350
60
  3
C5
350
61
  3
C6
350
62
  3
C7
350
63
  3
C8
350
64
  3
C9
350
65
  3
D0
350
66
  3
D1
350
67
  3
D2
350
68
  0
DICTIONARY
  5
16A
102
{ACAD_REACTORS
330
C
102
}
330
C
100
AcDbDictionary
281
     1
  0
XRECORD
  5
1F3
102
{ACAD_REACTORS
330
C
102
}
330
C
100
AcDbXrecord
280
     1
  1
DWGPROPS COOKIE
  2

  3

  4

  6

  7

  8
12018024
  9

300
=
301
=
302
=
303
=
304
=
305
=
306
=
307
=
308
=
309
=
 40
0.0
 41
2458236.372797211
 42
2459683.378124005
  1

 90
        0
  0
DICTIONARY
  5
1EC
102
{ACAD_REACTORS
330
C
102
}
330
C
100
AcDbDictionary
281
     1
1001
FX_DIMP_FAV_VERSION
1071
        1
  0
DICTIONARY
  5
1EE
102
{ACAD_REACTORS
330
C
102
}
330
C
100
AcDbDictionary
281
     1
  3
0
350
1F0
1001
FX_DIMP_RECENT_VERSION
1071
        1
  0
DICTIONARY
  5
1F2
102
{ACAD_REACTORS
330
1F1
102
}
330
1F1
100
AcDbDictionary
281
     1
  0
BREAKDATA
  5
1DD
102
{ACAD_REACTORS
330
1DC
102
}
330
1DC
100
AcDbBreakData
 70
     0
330
F4
 90
        1
100
AcDbBreakPointRef
 71
     0
 72
     0
 91
       -1
 10
0.0
 20
0.0
 30
0.0
 11
0.0
 21
0.0
 31
0.0
331
A9
 73
     2
 92
        0
  0
BREAKDATA
  5
1DB
102
{ACAD_REACTORS
330
1DA
102
}
330
1DA
100
AcDbBreakData
 70
     0
330
109
 90
        0
  0
BREAKDATA
  5
1D5
102
{ACAD_REACTORS
330
1D4
102
}
330
1D4
100
AcDbBreakData
 70
     0
330
11D
 90
       22
100
AcDbBreakPointRef
 71
     0
 72
     0
 91
       -1
 10
0.0
 20
0.0
 30
0.0
 11
0.0
 21
0.0
 31
0.0
331
EA
 73
     2
 92
        0
100
AcDbBreakPointRef
 71
     0
 72
     0
 91
       -1
 10
0.0
 20
0.0
 30
0.0
 11
0.0
 21
0.0
 31
0.0
331
C7
 73
     2
 92
        0
100
AcDbBreakPointRef
 71
     0
 72
     0
 91
       -1
 10
0.0
 20
0.0
 30
0.0
 11
0.0
 21
0.0
 31
0.0
331
D3
 73
     2
 92
        0
100
AcDbBreakPointRef
 71
     0
 72
     0
 91
       -1
 10
0.0
 20
0.0
 30
0.0
 11
0.0
 21
0.0
 31
0.0
331
C1
 73
     2
 92
        0
100
AcDbBreakPointRef
 71
     0
 72
     0
 91
       -1
 10
0.0
 20
0.0
 30
0.0
 11
0.0
 21
0.0
 31
0.0
331
D6
 73
     2
 92
        0
100
AcDbBreakPointRef
 71
     0
 72
     0
 91
       -1
 10
0.0
 20
0.0
 30
0.0
 11
0.0
 21
0.0
 31
0.0
331
C6
 73
     2
 92
        0
100
AcDbBreakPointRef
 71
     0
 72
     0
 91
       -1
 10
0.0
 20
0.0
 30
0.0
 11
0.0
 21
0.0
 31
0.0
331
BB
 73
     2
 92
        0
100
AcDbBreakPointRef
 71
     0
 72
     0
 91
       -1
 10
0.0
 20
0.0
 30
0.0
 11
0.0
 21
0.0
 31
0.0
331
C4
 73
     2
 92
        0
100
AcDbBreakPointRef
 71
     0
 72
     0
 91
       -1
 10
0.0
 20
0.0
 30
0.0
 11
0.0
 21
0.0
 31
0.0
331
C2
 73
     2
 92
        0
100
AcDbBreakPointRef
 71
     0
 72
     0
 91
       -1
 10
0.0
 20
0.0
 30
0.0
 11
0.0
 21
0.0
 31
0.0
331
DF
 73
     2
 92
        0
100
AcDbBreakPointRef
 71
     0
 72
     0
 91
       -1
 10
0.0
 20
0.0
 30
0.0
 11
0.0
 21
0.0
 31
0.0
331
BD
 73
     2
 92
        0
100
AcDbBreakPointRef
 71
     0
 72
     0
 91
       -1
 10
0.0
 20
0.0
 30
0.0
 11
0.0
 21
0.0
 31
0.0
331
E0
 73
     2
 92
        0
100
AcDbBreakPointRef
 71
     0
 72
     0
 91
       -1
 10
0.0
 20
0.0
 30
0.0
 11
0.0
 21
0.0
 31
0.0
331
BC
 73
     2
 92
        0
100
AcDbBreakPointRef
 71
     0
 72
     0
 91
       -1
 10
0.0
 20
0.0
 30
0.0
 11
0.0
 21
0.0
 31
0.0
331
B5
 73
     2
 92
        0
100
AcDbBreakPointRef
 71
     0
 72
     0
 91
       -1
 10
0.0
 20
0.0
 30
0.0
 11
0.0
 21
0.0
 31
0.0
331
BA
 73
     2
 92
        0
100
AcDbBreakPointRef
 71
     0
 72
     0
 91
       -1
 10
0.0
 20
0.0
 30
0.0
 11
0.0
 21
0.0
 31
0.0
331
C3
 73
     2
 92
        0
100
AcDbBreakPointRef
 71
     0
 72
     0
 91
       -1
 10
0.0
 20
0.0
 30
0.0
 11
0.0
 21
0.0
 31
0.0
331
D5
 73
     2
 92
        0
100
AcDbBreakPointRef
 71
     0
 72
     0
 91
       -1
 10
0.0
 20
0.0
 30
0.0
 11
0.0
 21
0.0
 31
0.0
331
B8
 73
     2
 92
        0
100
AcDbBreakPointRef
 71
     0
 72
     0
 91
       -1
 10
0.0
 20
0.0
 30
0.0
 11
0.0
 21
0.0
 31
0.0
331
B4
 73
     2
 92
        0
100
AcDbBreakPointRef
 71
     0
 72
     0
 91
       -1
 10
0.0
 20
0.0
 30
0.0
 11
0.0
 21
0.0
 31
0.0
331
B9
 73
     2
 92
        0
100
AcDbBreakPointRef
 71
     0
 72
     0
 91
       -1
 10
0.0
 20
0.0
 30
0.0
 11
0.0
 21
0.0
 31
0.0
331
AB
 73
     2
 92
        0
100
AcDbBreakPointRef
 71
     0
 72
     0
 91
       -1
 10
0.0
 20
0.0
 30
0.0
 11
0.0
 21
0.0
 31
0.0
331
95
 73
     2
 92
        0
  0
LAYOUT
  5
1E
102
{ACAD_REACTORS
330
1A
102
}
330
1A
100
AcDbPlotSettings
  1

  2
none_device
  4

  6

 40
0.0
 41
0.0
 42
0.0
 43
0.0
 44
0.0
 45
0.0
 46
0.0
 47
0.0
 48
0.0
 49
0.0
140
0.0
141
0.0
142
1.0
143
1.0
 70
   688
 72
     1
 73
     0
 74
     5
  7

 75
    16
147
1.0
148
0.0
149
0.0
100
AcDbLayout
  1
Layout1
 70
     1
 71
     1
 10
0.0
 20
0.0
 11
420.0
 21
297.0
 12
0.0
 22
0.0
 32
0.0
 14
1.000000000000000E+20
 24
1.000000000000000E+20
 34
1.000000000000000E+20
 15
-1.000000000000000E+20
 25
-1.000000000000000E+20
 35
-1.000000000000000E+20
146
0.0
 13
0.0
 23
0.0
 33
0.0
 16
1.0
 26
0.0
 36
0.0
 17
0.0
 27
1.0
 37
0.0
 76
     0
330
1B
  0
LAYOUT
  5
26
102
{ACAD_REACTORS
330
1A
102
}
330
1A
100
AcDbPlotSettings
  1

  2
none_device
  4

  6

 40
0.0
 41
0.0
 42
0.0
 43
0.0
 44
0.0
 45
0.0
 46
0.0
 47
0.0
 48
0.0
 49
0.0
140
0.0
141
0.0
142
1.0
143
1.0
 70
   688
 72
     1
 73
     0
 74
     5
  7

 75
    16
147
1.0
148
0.0
149
0.0
100
AcDbLayout
  1
Layout2
 70
     1
 71
     2
 10
0.0
 20
0.0
 11
0.0
 21
0.0
 12
0.0
 22
0.0
 32
0.0
 14
0.0
 24
0.0
 34
0.0
 15
0.0
 25
0.0
 35
0.0
146
0.0
 13
0.0
 23
0.0
 33
0.0
 16
1.0
 26
0.0
 36
0.0
 17
0.0
 27
1.0
 37
0.0
 76
     0
330
23
  0
LAYOUT
  5
22
102
{ACAD_REACTORS
330
1A
102
}
330
1A
100
AcDbPlotSettings
  1

  2
none_device
  4
ANSI_A_(11.00_x_8.50_Inches)
  6

 40
6.35
 41
19.05
 42
6.35000508
 43
19.05000254
 44
279.4
 45
215.9
 46
78.19218217489329
 47
88.63870220843127
 48
0.0
 49
0.0
140
0.0
141
0.0
142
0.0506775322124551
143
1.0
 70
  1696
 72
     0
 73
     0
 74
     0
  7

 75
     0
147
0.0235690232323232
148
0.0
149
0.0
100
AcDbLayout
  1
Model
 70
     1
 71
     0
 10
0.0
 20
0.0
 11
420.0
 21
297.0
 12
0.0
 22
0.0
 32
0.0
 14
-56.87463083155616
 24
-49.97370379473832
 34
0.0
 15
123.9098291449257
 25
44.70577698690109
 35
0.0
146
0.0
 13
0.0
 23
0.0
 33
0.0
 16
1.0
 26
0.0
 36
0.0
 17
0.0
 27
1.0
 37
0.0
 76
     0
330
1F
331
29
  0
MLINESTYLE
  5
18
102
{ACAD_REACTORS
330
17
102
}
330
17
100
AcDbMlineStyle
  2
Standard
 70
     0
  3

 62
   256
 51
90.0
 52
90.0
 71
     2
 49
0.5
 62
   256
  6
BYLAYER
 49
-0.5
 62
   256
  6
BYLAYER
  0
ACDBPLACEHOLDER
  5
F
102
{ACAD_REACTORS
330
E
102
}
330
E
  0
SCALE
  5
48
102
{ACAD_REACTORS
330
47
102
}
330
47
100
AcDbScale
 70
     0
300
1:1
140
1.0
141
1.0
290
     1
  0
SCALE
  5
49
102
{ACAD_REACTORS
330
47
102
}
330
47
100
AcDbScale
 70
     0
300
1:2
140
1.0
141
2.0
290
     0
  0
SCALE
  5
4A
102
{ACAD_REACTORS
330
47
102
}
330
47
100
AcDbScale
 70
     0
300
1:4
140
1.0
141
4.0
290
     0
  0
SCALE
  5
4B
102
{ACAD_REACTORS
330
47
102
}
330
47
100
AcDbScale
 70
     0
300
1:5
140
1.0
141
5.0
290
     0
  0
SCALE
  5
4C
102
{ACAD_REACTORS
330
47
102
}
330
47
100
AcDbScale
 70
     0
300
1:8
140
1.0
141
8.0
290
     0
  0
SCALE
  5
4D
102
{ACAD_REACTORS
330
47
102
}
330
47
100
AcDbScale
 70
     0
300
1:10
140
1.0
141
10.0
290
     0
  0
SCALE
  5
4E
102
{ACAD_REACTORS
330
47
102
}
330
47
100
AcDbScale
 70
     0
300
1:16
140
1.0
141
16.0
290
     0
  0
SCALE
  5
4F
102
{ACAD_REACTORS
330
47
102
}
330
47
100
AcDbScale
 70
     0
300
1:20
140
1.0
141
20.0
290
     0
  0
SCALE
  5
50
102
{ACAD_REACTORS
330
47
102
}
330
47
100
AcDbScale
 70
     0
300
1:30
140
1.0
141
30.0
290
     0
  0
SCALE
  5
51
102
{ACAD_REACTORS
330
47
102
}
330
47
100
AcDbScale
 70
     0
300
1:40
140
1.0
141
40.0
290
     0
  0
SCALE
  5
52
102
{ACAD_REACTORS
330
47
102
}
330
47
100
AcDbScale
 70
     0
300
1:50
140
1.0
141
50.0
290
     0
  0
SCALE
  5
53
102
{ACAD_REACTORS
330
47
102
}
330
47
100
AcDbScale
 70
     0
300
1:100
140
1.0
141
100.0
290
     0
  0
SCALE
  5
54
102
{ACAD_REACTORS
330
47
102
}
330
47
100
AcDbScale
 70
     0
300
2:1
140
2.0
141
1.0
290
     0
  0
SCALE
  5
55
102
{ACAD_REACTORS
330
47
102
}
330
47
100
AcDbScale
 70
     0
300
4:1
140
4.0
141
1.0
290
     0
  0
SCALE
  5
56
102
{ACAD_REACTORS
330
47
102
}
330
47
100
AcDbScale
 70
     0
300
8:1
140
8.0
141
1.0
290
     0
  0
SCALE
  5
57
102
{ACAD_REACTORS
330
47
102
}
330
47
100
AcDbScale
 70
     0
300
10:1
140
10.0
141
1.0
290
     0
  0
SCALE
  5
58
102
{ACAD_REACTORS
330
47
102
}
330
47
100
AcDbScale
 70
     0
300
100:1
140
100.0
141
1.0
290
     0
  0
SCALE
  5
59
102
{ACAD_REACTORS
330
47
102
}
330
47
100
AcDbScale
 70
     0
300
1/128" = 1'-0"
140
0.0078125
141
12.0
290
     0
  0
SCALE
  5
5A
102
{ACAD_REACTORS
330
47
102
}
330
47
100
AcDbScale
 70
     0
300
1/64" = 1'-0"
140
0.015625
141
12.0
290
     0
  0
SCALE
  5
5B
102
{ACAD_REACTORS
330
47
102
}
330
47
100
AcDbScale
 70
     0
300
1/32" = 1'-0"
140
0.03125
141
12.0
290
     0
  0
SCALE
  5
5C
102
{ACAD_REACTORS
330
47
102
}
330
47
100
AcDbScale
 70
     0
300
1/16" = 1'-0"
140
0.0625
141
12.0
290
     0
  0
SCALE
  5
5D
102
{ACAD_REACTORS
330
47
102
}
330
47
100
AcDbScale
 70
     0
300
3/32" = 1'-0"
140
0.09375
141
12.0
290
     0
  0
SCALE
  5
5E
102
{ACAD_REACTORS
330
47
102
}
330
47
100
AcDbScale
 70
     0
300
1/8" = 1'-0"
140
0.125
141
12.0
290
     0
  0
SCALE
  5
5F
102
{ACAD_REACTORS
330
47
102
}
330
47
100
AcDbScale
 70
     0
300
3/16" = 1'-0"
140
0.1875
141
12.0
290
     0
  0
SCALE
  5
60
102
{ACAD_REACTORS
330
47
102
}
330
47
100
AcDbScale
 70
     0
300
1/4" = 1'-0"
140
0.25
141
12.0
290
     0
  0
SCALE
  5
61
102
{ACAD_REACTORS
330
47
102
}
330
47
100
AcDbScale
 70
     0
300
3/8" = 1'-0"
140
0.375
141
12.0
290
     0
  0
SCALE
  5
62
102
{ACAD_REACTORS
330
47
102
}
330
47
100
AcDbScale
 70
     0
300
1/2" = 1'-0"
140
0.5
141
12.0
290
     0
  0
SCALE
  5
63
102
{ACAD_REACTORS
330
47
102
}
330
47
100
AcDbScale
 70
     0
300
3/4" = 1'-0"
140
0.75
141
12.0
290
     0
  0
SCALE
  5
64
102
{ACAD_REACTORS
330
47
102
}
330
47
100
AcDbScale
 70
     0
300
1" = 1'-0"
140
1.0
141
12.0
290
     0
  0
SCALE
  5
65
102
{ACAD_REACTORS
330
47
102
}
330
47
100
AcDbScale
 70
     0
300
1-1/2" = 1'-0"
140
1.5
141
12.0
290
     0
  0
SCALE
  5
66
102
{ACAD_REACTORS
330
47
102
}
330
47
100
AcDbScale
 70
     0
300
3" = 1'-0"
140
3.0
141
12.0
290
     0
  0
SCALE
  5
67
102
{ACAD_REACTORS
330
47
102
}
330
47
100
AcDbScale
 70
     0
300
6" = 1'-0"
140
6.0
141
12.0
290
     0
  0
SCALE
  5
68
102
{ACAD_REACTORS
330
47
102
}
330
47
100
AcDbScale
 70
     0
300
1'-0" = 1'-0"
140
12.0
141
12.0
290
     0
  0
XRECORD
  5
1F0
102
{ACAD_REACTORS
330
1EE
102
}
330
1EE
100
AcDbXrecord
280
     1
  2

  2

  2

 40
0.0
 40
0.0
 90
        0
 40
0.7620000000000031
 90
        2
 90
        2
 90
        0
 90
        5
  2

  2
R
  2
[0.03]
  2

290
     0
290
     0
  2
0
  2

  0
ENDSEC
  0
EOF
