  0
SECTION
  2
HEADER
  9
$ACADVER
  1
AC1015
  9
$ACADMAINTVER
 70
     6
  9
$DWGCODEPAGE
  3
ANSI_949
  9
$INSBASE
 10
0.0
 20
0.0
 30
0.0
  9
$EXTMIN
 10
-51.6826325890669
 20
-49.97370379473832
 30
0.0
  9
$EXTMAX
 10
85.386502152933
 20
44.7057769869011
 30
0.0
  9
$LIMMIN
 10
0.0
 20
0.0
  9
$LIMMAX
 10
420.0
 20
297.0
  9
$ORTHOMODE
 70
     0
  9
$REGENMODE
 70
     1
  9
$FILLMODE
 70
     1
  9
$QTEXTMODE
 70
     0
  9
$MIRRTEXT
 70
     1
  9
$LTSCALE
 40
1.0
  9
$ATTMODE
 70
     1
  9
$TEXTSIZE
 40
3.5
  9
$TRACEWID
 40
1.0
  9
$TEXTSTYLE
  7
Standard
  9
$CLAYER
  8
0
  9
$CELTYPE
  6
ByLayer
  9
$CECOLOR
 62
   256
  9
$CELTSCALE
 40
1.0
  9
$DISPSILH
 70
     0
  9
$DIMSCALE
 40
1.0
  9
$DIMASZ
 40
3.302
  9
$DIMEXO
 40
1.0
  9
$DIMDLI
 40
3.75
  9
$DIMRND
 40
0.0
  9
$DIMDLE
 40
0.0
  9
$DIMEXE
 40
1.0
  9
$DIMTP
 40
0.0
  9
$DIMTM
 40
0.0
  9
$DIMTXT
 40
3.5
  9
$DIMCEN
 40
2.5
  9
$DIMTSZ
 40
0.0
  9
$DIMTOL
 70
     0
  9
$DIMLIM
 70
     0
  9
$DIMTIH
 70
     1
  9
$DIMTOH
 70
     1
  9
$DIMSE1
 70
     0
  9
$DIMSE2
 70
     0
  9
$DIMTAD
 70
     1
  9
$DIMZIN
 70
     0
  9
$DIMBLK
  1

  9
$DIMASO
 70
     1
  9
$DIMSHO
 70
     1
  9
$DIMPOST
  1

  9
$DIMAPOST
  1

  9
$DIMALT
 70
     0
  9
$DIMALTD
 70
     3
  9
$DIMALTF
 40
0.0393700787401575
  9
$DIMLFAC
 40
1.0
  9
$DIMTOFL
 70
     1
  9
$DIMTVP
 40
0.0
  9
$DIMTIX
 70
     0
  9
$DIMSOXD
 70
     0
  9
$DIMSAH
 70
     0
  9
$DIMBLK1
  1

  9
$DIMBLK2
  1

  9
$DIMSTYLE
  2
ISO-25
  9
$DIMCLRD
 70
     0
  9
$DIMCLRE
 70
     0
  9
$DIMCLRT
 70
     0
  9
$DIMTFAC
 40
1.0
  9
$DIMGAP
 40
1.524
  9
$DIMJUST
 70
     0
  9
$DIMSD1
 70
     0
  9
$DIMSD2
 70
     0
  9
$DIMTOLJ
 70
     0
  9
$DIMTZIN
 70
     0
  9
$DIMALTZ
 70
     0
  9
$DIMALTTZ
 70
     0
  9
$DIMUPT
 70
     0
  9
$DIMDEC
 70
     2
  9
$DIMTDEC
 70
     2
  9
$DIMALTU
 70
     2
  9
$DIMALTTD
 70
     3
  9
$DIMTXSTY
  7
Standard
  9
$DIMAUNIT
 70
     0
  9
$DIMADEC
 70
     2
  9
$DIMALTRND
 40
0.0
  9
$DIMAZIN
 70
     0
  9
$DIMDSEP
 70
    44
  9
$DIMATFIT
 70
     3
  9
$DIMFRAC
 70
     0
  9
$DIMLDRBLK
  1

  9
$DIMLUNIT
 70
     2
  9
$DIMLWD
 70
    -2
  9
$DIMLWE
 70
    -2
  9
$DIMTMOVE
 70
     0
  9
$LUNITS
 70
     2
  9
$LUPREC
 70
     2
  9
$SKETCHINC
 40
1.0
  9
$FILLETRAD
 40
10.0
  9
$AUNITS
 70
     0
  9
$AUPREC
 70
     2
  9
$MENU
  1
.
  9
$ELEVATION
 40
0.0
  9
$PELEVATION
 40
0.0
  9
$THICKNESS
 40
0.0
  9
$LIMCHECK
 70
     0
  9
$CHAMFERA
 40
0.0
  9
$CHAMFERB
 40
0.0
  9
$CHAMFERC
 40
0.0
  9
$CHAMFERD
 40
0.0
  9
$SKPOLY
 70
     0
  9
$TDCREATE
 40
2458236.747648438
  9
$TDUCREATE
 40
2458236.372648438
  9
$TDUPDATE
 40
2459683.729862685
  9
$TDUUPDATE
 40
2459683.354862685
  9
$TDINDWG
 40
0.0022933333
  9
$TDUSRTIMER
 40
0.0003990741
  9
$USRTIMER
 70
     1
  9
$ANGBASE
 50
0.0
  9
$ANGDIR
 70
     0
  9
$PDMODE
 70
     0
  9
$PDSIZE
 40
-1.0
  9
$PLINEWID
 40
0.0
  9
$SPLFRAME
 70
     0
  9
$SPLINETYPE
 70
     6
  9
$SPLINESEGS
 70
     8
  9
$HANDSEED
  5
1D7
  9
$SURFTAB1
 70
     6
  9
$SURFTAB2
 70
     6
  9
$SURFTYPE
 70
     6
  9
$SURFU
 70
     6
  9
$SURFV
 70
     6
  9
$UCSBASE
  2

  9
$UCSNAME
  2

  9
$UCSORG
 10
0.0
 20
0.0
 30
0.0
  9
$UCSXDIR
 10
1.0
 20
0.0
 30
0.0
  9
$UCSYDIR
 10
0.0
 20
1.0
 30
0.0
  9
$UCSORTHOREF
  2

  9
$UCSORTHOVIEW
 70
     0
  9
$UCSORGTOP
 10
0.0
 20
0.0
 30
0.0
  9
$UCSORGBOTTOM
 10
0.0
 20
0.0
 30
0.0
  9
$UCSORGLEFT
 10
0.0
 20
0.0
 30
0.0
  9
$UCSORGRIGHT
 10
0.0
 20
0.0
 30
0.0
  9
$UCSORGFRONT
 10
0.0
 20
0.0
 30
0.0
  9
$UCSORGBACK
 10
0.0
 20
0.0
 30
0.0
  9
$PUCSBASE
  2

  9
$PUCSNAME
  2

  9
$PUCSORG
 10
0.0
 20
0.0
 30
0.0
  9
$PUCSXDIR
 10
1.0
 20
0.0
 30
0.0
  9
$PUCSYDIR
 10
0.0
 20
1.0
 30
0.0
  9
$PUCSORTHOREF
  2

  9
$PUCSORTHOVIEW
 70
     0
  9
$PUCSORGTOP
 10
0.0
 20
0.0
 30
0.0
  9
$PUCSORGBOTTOM
 10
0.0
 20
0.0
 30
0.0
  9
$PUCSORGLEFT
 10
0.0
 20
0.0
 30
0.0
  9
$PUCSORGRIGHT
 10
0.0
 20
0.0
 30
0.0
  9
$PUCSORGFRONT
 10
0.0
 20
0.0
 30
0.0
  9
$PUCSORGBACK
 10
0.0
 20
0.0
 30
0.0
  9
$USERI1
 70
     0
  9
$USERI2
 70
     0
  9
$USERI3
 70
     0
  9
$USERI4
 70
     0
  9
$USERI5
 70
     0
  9
$USERR1
 40
0.0
  9
$USERR2
 40
0.0
  9
$USERR3
 40
0.0
  9
$USERR4
 40
0.0
  9
$USERR5
 40
0.0
  9
$WORLDVIEW
 70
     1
  9
$SHADEDGE
 70
     3
  9
$SHADEDIF
 70
    70
  9
$TILEMODE
 70
     1
  9
$MAXACTVP
 70
    64
  9
$PINSBASE
 10
0.0
 20
0.0
 30
0.0
  9
$PLIMCHECK
 70
     0
  9
$PEXTMIN
 10
1.000000000000000E+20
 20
1.000000000000000E+20
 30
1.000000000000000E+20
  9
$PEXTMAX
 10
-1.000000000000000E+20
 20
-1.000000000000000E+20
 30
-1.000000000000000E+20
  9
$PLIMMIN
 10
0.0
 20
0.0
  9
$PLIMMAX
 10
0.0
 20
0.0
  9
$UNITMODE
 70
     0
  9
$VISRETAIN
 70
     1
  9
$PLINEGEN
 70
     0
  9
$PSLTSCALE
 70
     1
  9
$TREEDEPTH
 70
  3020
  9
$CMLSTYLE
  2
Standard
  9
$CMLJUST
 70
     0
  9
$CMLSCALE
 40
20.0
  9
$PROXYGRAPHICS
 70
     1
  9
$MEASUREMENT
 70
     1
  9
$CELWEIGHT
370
    -1
  9
$ENDCAPS
280
     0
  9
$JOINSTYLE
280
     0
  9
$LWDISPLAY
290
     1
  9
$INSUNITS
 70
     4
  9
$HYPERLINKBASE
  1

  9
$STYLESHEET
  1

  9
$XEDIT
290
     1
  9
$CEPSNTYPE
380
     0
  9
$PSTYLEMODE
290
     1
  9
$FINGERPRINTGUID
  2
{BDFF6697-8ADD-4991-80B1-65A7B37105EE}
  9
$VERSIONGUID
  2
{FAEB1C32-E019-11D5-929B-00C0DF256EC4}
  9
$EXTNAMES
290
     1
  9
$PSVPSCALE
 40
0.0
  9
$OLESTARTUP
290
     0
  0
ENDSEC
  0
SECTION
  2
CLASSES
  0
CLASS
  1
ACDBDICTIONARYWDFLT
  2
AcDbDictionaryWithDefault
  3
ObjectDBX Classes
 90
        0
280
     0
281
     0
  0
CLASS
  1
VISUALSTYLE
  2
AcDbVisualStyle
  3
ObjectDBX Classes
 90
     4095
280
     0
281
     0
  0
CLASS
  1
MATERIAL
  2
AcDbMaterial
  3
ObjectDBX Classes
 90
     1153
280
     0
281
     0
  0
CLASS
  1
SCALE
  2
AcDbScale
  3
ObjectDBX Classes
 90
     1153
280
     0
281
     0
  0
CLASS
  1
SUN
  2
AcDbSun
  3
SCENEOE
 90
     1153
280
     0
281
     0
  0
CLASS
  1
ACDBPLACEHOLDER
  2
AcDbPlaceHolder
  3
ObjectDBX Classes
 90
        0
280
     0
281
     0
  0
CLASS
  1
LAYOUT
  2
AcDbLayout
  3
ObjectDBX Classes
 90
        0
280
     0
281
     0
  0
CLASS
  1
TABLESTYLE
  2
AcDbTableStyle
  3
ObjectDBX Classes
 90
     4095
280
     0
281
     0
  0
CLASS
  1
MLEADERSTYLE
  2
AcDbMLeaderStyle
  3
ACDB_MLEADERSTYLE_CLASS
 90
     4095
280
     0
281
     0
  0
CLASS
  1
RASTERVARIABLES
  2
AcDbRasterVariables
  3
ISM
 90
        0
280
     0
281
     0
  0
CLASS
  1
DIMASSOC
  2
AcDbDimAssoc
  3
"AcDbDimAssoc|Product Desc:     AcDim ARX App For Dimension|Company:          Autodesk, Inc.|WEB Address:      www.autodesk.com"
 90
        0
280
     0
281
     0
  0
CLASS
  1
BREAKDATA
  2
AcDbBreakData
  3
ObjectDBX Classes
 90
     1024
280
     0
281
     0
  0
ENDSEC
  0
SECTION
  2
TABLES
  0
TABLE
  2
VPORT
  5
8
330
0
100
AcDbSymbolTable
 70
     1
  0
VPORT
  5
29
330
8
100
AcDbSymbolTableRecord
100
AcDbViewportTableRecord
  2
*Active
 70
     0
 10
0.0
 20
0.0
 11
1.0
 21
1.0
 12
-23.24664162953168
 22
-9.499287391620186
 13
0.0
 23
0.0
 14
10.0
 24
10.0
 15
10.0
 25
10.0
 16
0.0
 26
0.0
 36
1.0
 17
0.0
 27
0.0
 37
0.0
 40
194.7158269232926
 41
2.073569482288828
 42
50.0
 43
0.0
 44
0.0
 50
0.0
 51
0.0
 71
    16
 72
  2000
 73
     1
 74
     3
 75
     0
 76
     0
 77
     0
 78
     0
281
     0
 65
     1
110
0.0
120
0.0
130
0.0
111
1.0
121
0.0
131
0.0
112
0.0
122
1.0
132
0.0
 79
     0
146
0.0
  0
ENDTAB
  0
TABLE
  2
LTYPE
  5
5
330
0
100
AcDbSymbolTable
 70
     6
  0
LTYPE
  5
14
330
5
100
AcDbSymbolTableRecord
100
AcDbLinetypeTableRecord
  2
ByBlock
 70
     0
  3

 72
    65
 73
     0
 40
0.0
  0
LTYPE
  5
15
330
5
100
AcDbSymbolTableRecord
100
AcDbLinetypeTableRecord
  2
ByLayer
 70
     0
  3

 72
    65
 73
     0
 40
0.0
  0
LTYPE
  5
16
330
5
100
AcDbSymbolTableRecord
100
AcDbLinetypeTableRecord
  2
Continuous
 70
     0
  3
Solid line
 72
    65
 73
     0
 40
0.0
  0
LTYPE
  5
6A
330
5
100
AcDbSymbolTableRecord
100
AcDbLinetypeTableRecord
  2
HIDDEN
 70
     0
  3
Hidden __ __ __ __ __ __ __ __ __ __ __ __ __ __
 72
    65
 73
     2
 40
1.905
 49
1.27
 74
     0
 49
-0.635
 74
     0
  0
LTYPE
  5
6B
330
5
100
AcDbSymbolTableRecord
100
AcDbLinetypeTableRecord
  2
PHANTOM
 70
     0
  3
Phantom ______  __  __  ______  __  __  ______
 72
    65
 73
     6
 40
12.7
 49
6.35
 74
     0
 49
-1.27
 74
     0
 49
1.27
 74
     0
 49
-1.27
 74
     0
 49
1.27
 74
     0
 49
-1.27
 74
     0
  0
LTYPE
  5
6C
330
5
100
AcDbSymbolTableRecord
100
AcDbLinetypeTableRecord
  2
CENTER
 70
     0
  3
Center ____ _ ____ _ ____ _ ____ _ ____ _ ____
 72
    65
 73
     4
 40
10.16
 49
6.35
 74
     0
 49
-1.27
 74
     0
 49
1.27
 74
     0
 49
-1.27
 74
     0
  0
LTYPE
  5
6D
330
5
100
AcDbSymbolTableRecord
100
AcDbLinetypeTableRecord
  2
CENTERX2
 70
     0
  3
Center (2x) ________  __  ________  __  _____
 72
    65
 73
     4
 40
20.32
 49
12.7
 74
     0
 49
-2.54
 74
     0
 49
2.54
 74
     0
 49
-2.54
 74
     0
  0
LTYPE
  5
6E
330
5
100
AcDbSymbolTableRecord
100
AcDbLinetypeTableRecord
  2
DOT2
 70
     0
  3
Dot (.5x) ........................................
 72
    65
 73
     2
 40
0.635
 49
0.0
 74
     0
 49
-0.635
 74
     0
  0
ENDTAB
  0
TABLE
  2
LAYER
  5
2
330
0
100
AcDbSymbolTable
 70
    17
  0
LAYER
  5
10
330
2
100
AcDbSymbolTableRecord
100
AcDbLayerTableRecord
  2
0
 70
     0
 62
     7
  6
Continuous
370
    -3
390
F
  0
LAYER
  5
6F
330
2
100
AcDbSymbolTableRecord
100
AcDbLayerTableRecord
  2
FORMAT
 70
     0
 62
     2
  6
Continuous
370
    -3
390
F
  0
LAYER
  5
70
330
2
100
AcDbSymbolTableRecord
100
AcDbLayerTableRecord
  2
외형선
 70
     0
 62
   100
  6
Continuous
370
    30
390
F
  0
LAYER
  5
71
330
2
100
AcDbSymbolTableRecord
100
AcDbLayerTableRecord
  2
숨은선
 70
     0
 62
     2
  6
HIDDEN
370
    15
390
F
  0
LAYER
  5
72
330
2
100
AcDbSymbolTableRecord
100
AcDbLayerTableRecord
  2
중심선
 70
     0
 62
     1
  6
CENTERX2
370
    -3
390
F
  0
LAYER
  5
73
330
2
100
AcDbSymbolTableRecord
100
AcDbLayerTableRecord
  2
파단선
 70
     0
 62
     4
  6
Continuous
370
    -3
390
F
  0
LAYER
  5
74
330
2
100
AcDbSymbolTableRecord
100
AcDbLayerTableRecord
  2
해칭선
 70
     0
 62
     4
  6
Continuous
370
    -3
390
F
  0
LAYER
  5
75
330
2
100
AcDbSymbolTableRecord
100
AcDbLayerTableRecord
  2
가는실선
 70
     0
 62
     4
  6
Continuous
370
    -3
390
F
  0
LAYER
  5
76
330
2
100
AcDbSymbolTableRecord
100
AcDbLayerTableRecord
  2
치수_보조선
 70
     0
 62
     4
  6
Continuous
370
    -3
390
F
  0
LAYER
  5
77
330
2
100
AcDbSymbolTableRecord
100
AcDbLayerTableRecord
  2
치수문자_일반주서
 70
     0
 62
     7
  6
Continuous
370
    15
390
F
  0
LAYER
  5
78
330
2
100
AcDbSymbolTableRecord
100
AcDbLayerTableRecord
  2
개별주서
 70
     0
 62
   100
  6
Continuous
370
    30
390
F
  0
LAYER
  5
79
330
2
100
AcDbSymbolTableRecord
100
AcDbLayerTableRecord
  2
중간선
 70
     0
 62
     2
  6
Continuous
370
    15
390
F
  0
LAYER
  5
7A
330
2
100
AcDbSymbolTableRecord
100
AcDbLayerTableRecord
  2
윤곽선
 70
     0
 62
     3
  6
Continuous
370
    40
390
F
  0
LAYER
  5
7B
330
2
100
AcDbSymbolTableRecord
100
AcDbLayerTableRecord
  2
중심마크
 70
     0
 62
   100
  6
Continuous
370
    30
390
F
  0
LAYER
  5
7C
330
2
100
AcDbSymbolTableRecord
100
AcDbLayerTableRecord
  2
가상선
 70
     0
 62
     4
  6
PHANTOM
370
    -3
390
F
  0
LAYER
  5
7D
330
2
100
AcDbSymbolTableRecord
100
AcDbLayerTableRecord
  2
특수지정선
 70
     0
 62
     5
  6
CENTERX2
370
    60
390
F
  0
LAYER
  5
178
330
2
100
AcDbSymbolTableRecord
100
AcDbLayerTableRecord
  2
Defpoints
 70
     0
 62
     7
  6
Continuous
290
     0
370
    -3
390
F
  0
ENDTAB
  0
TABLE
  2
STYLE
  5
3
330
0
100
AcDbSymbolTable
 70
     2
  0
STYLE
  5
11
330
3
100
AcDbSymbolTableRecord
100
AcDbTextStyleTableRecord
  2
Standard
 70
     0
 40
0.0
 41
1.0
 50
0.0
 71
     0
 42
3.5
  3
txt
  4

  0
STYLE
  5
93
330
3
100
AcDbSymbolTableRecord
100
AcDbTextStyleTableRecord
  2
SLDTEXTSTYLE0
 70
     0
 40
0.0
 41
0.75
 50
0.0
 71
     0
 42
3.5
  3
TXT
  4

  0
ENDTAB
  0
TABLE
  2
VIEW
  5
6
330
0
100
AcDbSymbolTable
 70
     0
  0
ENDTAB
  0
TABLE
  2
UCS
  5
7
330
0
100
AcDbSymbolTable
 70
     0
  0
ENDTAB
  0
TABLE
  2
APPID
  5
9
330
0
100
AcDbSymbolTable
 70
     6
  0
APPID
  5
12
330
9
100
AcDbSymbolTableRecord
100
AcDbRegAppTableRecord
  2
ACAD
 70
     0
  0
APPID
  5
18A
330
9
100
AcDbSymbolTableRecord
100
AcDbRegAppTableRecord
  2
PE_DIMMEASUREMENT
 70
     0
  0
APPID
  5
18B
330
9
100
AcDbSymbolTableRecord
100
AcDbRegAppTableRecord
  2
ACAD_DSTYLE_DIMRADIAL_EXTENSION
 70
     0
  0
APPID
  5
1CE
330
9
100
AcDbSymbolTableRecord
100
AcDbRegAppTableRecord
  2
ENABLE_CUSTOM_SPLIT
 70
     0
  0
APPID
  5
1D0
330
9
100
AcDbSymbolTableRecord
100
AcDbRegAppTableRecord
  2
FX_DIMP_FAV_VERSION
 70
     0
  0
APPID
  5
1D2
330
9
100
AcDbSymbolTableRecord
100
AcDbRegAppTableRecord
  2
FX_DIMP_RECENT_VERSION
 70
     0
  0
ENDTAB
  0
TABLE
  2
DIMSTYLE
  5
A
330
0
100
AcDbSymbolTable
 70
     4
100
AcDbDimStyleTable
  0
DIMSTYLE
105
27
102
{ACAD_REACTORS
330
1BD
102
}
330
A
100
AcDbSymbolTableRecord
100
AcDbDimStyleTableRecord
  2
ISO-25
 70
     0
 41
2.5
 42
0.625
 43
3.75
 44
1.25
 73
     0
 74
     0
 77
     1
 78
     8
140
2.5
141
2.5
143
0.03937007874016
147
0.625
171
     3
172
     1
178
     0
271
     2
272
     2
274
     3
278
    44
283
     0
284
     8
340
11
  0
DIMSTYLE
105
101
102
{ACAD_REACTORS
330
100
330
179
330
18E
102
}
330
A
100
AcDbSymbolTableRecord
100
AcDbDimStyleTableRecord
  2
SLDDIMSTYLE0
 70
     0
 41
3.302
 44
0.0
 45
0.000000001
 73
     0
 74
     0
 77
     1
 78
    12
 79
     3
140
3.5
143
0.0393700787401575
147
0.875
148
0.000000001
170
     1
172
     1
173
     1
178
     0
271
     2
272
     2
276
     2
284
    12
289
     0
340
93
  0
DIMSTYLE
105
116
102
{ACAD_REACTORS
330
115
102
}
330
A
100
AcDbSymbolTableRecord
100
AcDbDimStyleTableRecord
  2
SLDDIMSTYLE1
 70
     0
 41
3.302
 44
0.0
 45
0.000000001
 73
     0
 74
     0
 77
     1
 78
     4
 79
     1
140
3.5
143
0.0393700787401575
147
0.875
148
0.000000001
170
     1
173
     1
178
     0
271
     2
272
     2
276
     2
284
    12
340
93
  0
DIMSTYLE
105
13D
330
A
100
AcDbSymbolTableRecord
100
AcDbDimStyleTableRecord
  2
SLDDIMSTYLE2
 70
     0
 41
3.302
 44
0.0
 45
0.000000001
 73
     0
 74
     0
 77
     1
 78
     8
 79
     2
140
3.5
143
0.0393700787401575
147
0.875
148
0.000000001
170
     1
172
     1
173
     1
178
     0
271
     2
272
     2
276
     2
284
    12
289
     0
340
93
341
13E
343
13E
344
13E
  0
ENDTAB
  0
TABLE
  2
BLOCK_RECORD
  5
1
330
0
100
AcDbSymbolTable
 70
    11
  0
BLOCK_RECORD
  5
1F
102
{ACAD_XDICTIONARY
360
1D4
102
}
330
1
100
AcDbSymbolTableRecord
100
AcDbBlockTableRecord
  2
*Model_Space
340
22
  0
BLOCK_RECORD
  5
1B
330
1
100
AcDbSymbolTableRecord
100
AcDbBlockTableRecord
  2
*Paper_Space
340
1E
  0
BLOCK_RECORD
  5
23
330
1
100
AcDbSymbolTableRecord
100
AcDbBlockTableRecord
  2
*Paper_Space0
340
26
  0
BLOCK_RECORD
  5
7E
330
1
100
AcDbSymbolTableRecord
100
AcDbBlockTableRecord
  2
블럭10
340
0
102
{BLKREFS
331
F8
102
}
  0
BLOCK_RECORD
  5
102
330
1
100
AcDbSymbolTableRecord
100
AcDbBlockTableRecord
  2
_D
340
0
  0
BLOCK_RECORD
  5
117
330
1
100
AcDbSymbolTableRecord
100
AcDbBlockTableRecord
  2
_D_1
340
0
  0
BLOCK_RECORD
  5
12A
330
1
100
AcDbSymbolTableRecord
100
AcDbBlockTableRecord
  2
_D_2
340
0
  0
BLOCK_RECORD
  5
13E
330
1
100
AcDbSymbolTableRecord
100
AcDbBlockTableRecord
  2
_NONE
340
0
  0
BLOCK_RECORD
  5
141
330
1
100
AcDbSymbolTableRecord
100
AcDbBlockTableRecord
  2
_D_3
340
0
  0
BLOCK_RECORD
  5
14D
330
1
100
AcDbSymbolTableRecord
100
AcDbBlockTableRecord
  2
SW_DOWELSYMBOL_0
340
0
102
{BLKREFS
331
153
102
}
  0
BLOCK_RECORD
  5
17C
330
1
100
AcDbSymbolTableRecord
100
AcDbBlockTableRecord
  2
*D8
340
0
  0
BLOCK_RECORD
  5
191
330
1
100
AcDbSymbolTableRecord
100
AcDbBlockTableRecord
  2
*D9
340
0
  0
BLOCK_RECORD
  5
1C0
330
1
100
AcDbSymbolTableRecord
100
AcDbBlockTableRecord
  2
*D10
340
0
  0
ENDTAB
  0
ENDSEC
  0
SECTION
  2
BLOCKS
  0
BLOCK
  5
20
330
1F
100
AcDbEntity
  8
0
100
AcDbBlockBegin
  2
*Model_Space
 70
     0
 10
0.0
 20
0.0
 30
0.0
  3
*Model_Space
  1
*Model_Space
  0
ENDBLK
  5
21
330
1F
100
AcDbEntity
  8
0
100
AcDbBlockEnd
  0
BLOCK
  5
1C
330
1B
100
AcDbEntity
 67
     1
  8
0
100
AcDbBlockBegin
  2
*Paper_Space
 70
     0
 10
0.0
 20
0.0
 30
0.0
  3
*Paper_Space
  1
*Paper_Space
  0
ENDBLK
  5
1D
330
1B
100
AcDbEntity
 67
     1
  8
0
100
AcDbBlockEnd
  0
BLOCK
  5
24
330
23
100
AcDbEntity
  8
0
100
AcDbBlockBegin
  2
*Paper_Space0
 70
     0
 10
0.0
 20
0.0
 30
0.0
  3
*Paper_Space0
  1
*Paper_Space0
  0
ENDBLK
  5
25
330
23
100
AcDbEntity
  8
0
100
AcDbBlockEnd
  0
BLOCK
  5
7F
330
7E
100
AcDbEntity
  8
0
100
AcDbBlockBegin
  2
블럭10
 70
     2
 10
0.0
 20
0.0
 30
0.0
  3
블럭10
  1
블럭10
  0
ELLIPSE
  5
81
330
7E
100
AcDbEntity
  8
중심선
100
AcDbEllipse
 10
20.54032771741204
 20
12.0471743016438
 30
0.0
 11
6.600054785286829
 21
-1.261213355974178E-13
 31
0.0
210
0.0
220
0.0
230
1.0
 40
0.636358354079598
 41
0.9219305317359503
 42
6.513795318482858
  0
ELLIPSE
  5
82
330
7E
100
AcDbEntity
  8
중심선
100
AcDbEllipse
 10
20.54032771746488
 20
12.04717430159265
 30
0.0
 11
3.960054785062283
 21
1.540847449632565E-10
 31
0.0
210
0.0
220
0.0
230
1.0
 40
0.3939339440162632
 41
1.131841032648279
 42
5.62031148352944
  0
LINE
  5
83
330
7E
100
AcDbEntity
  8
중심선
100
AcDbLine
 10
2.268634060543552
 20
16.24717430164393
 30
0.0
 11
5.714909304380834
 21
16.24717430164393
 31
0.0
  0
LINE
  5
84
330
7E
100
AcDbEntity
  8
중심선
100
AcDbLine
 10
5.245725140726316
 20
7.84717430164391
 30
0.0
 11
8.692000384563599
 21
7.84717430164391
 31
0.0
  0
LINE
  5
85
330
7E
100
AcDbEntity
  8
중심선
100
AcDbLine
 10
15.74043728645272
 20
16.24717430164393
 30
0.0
 11
8.692000384563599
 21
7.84717430164391
 31
0.0
  0
LINE
  5
86
330
7E
100
AcDbEntity
  8
중심선
100
AcDbLine
 10
0.1404042013395286
 20
13.71084872107135
 30
0.0
 11
3.58671253028996
 21
13.71088815037384
 31
0.0
  0
LINE
  5
87
330
7E
100
AcDbEntity
  8
중심선
100
AcDbLine
 10
2.750260043222114
 20
10.84717430164391
 30
0.0
 11
6.196535287059397
 21
10.84717430164391
 31
0.0
  0
LINE
  5
88
330
7E
100
AcDbEntity
  8
중심선
100
AcDbLine
 10
12.29416204261559
 20
16.24717430164393
 30
0.0
 11
5.245725140726316
 21
7.84717430164391
 31
0.0
  0
LINE
  5
89
330
7E
100
AcDbEntity
  8
중심선
100
AcDbLine
 10
10.72767329541681
 20
16.24717430164393
 30
0.0
 11
6.196535287059397
 21
10.84717430164391
 31
0.0
  0
LINE
  5
8A
330
7E
100
AcDbEntity
  8
중심선
100
AcDbLine
 10
7.28139805157953
 20
16.24717430164393
 30
0.0
 11
2.750260043222114
 21
10.84717430164391
 31
0.0
  0
LINE
  5
8B
330
7E
100
AcDbEntity
  8
중심선
100
AcDbLine
 10
5.714909304380834
 20
16.24717430164393
 30
0.0
 11
3.58671253028996
 21
13.71088815037384
 31
0.0
  0
LINE
  5
8C
330
7E
100
AcDbEntity
  8
중심선
100
AcDbLine
 10
2.268634060543552
 20
16.24717430164393
 30
0.0
 11
0.1404042013395286
 21
13.71084872107135
 31
0.0
  0
LINE
  5
8D
330
7E
100
AcDbEntity
  8
중심선
100
AcDbLine
 10
7.28139805157953
 20
16.24717430164393
 30
0.0
 11
10.72767329541681
 21
16.24717430164393
 31
0.0
  0
LINE
  5
8E
330
7E
100
AcDbEntity
  8
중심선
100
AcDbLine
 10
12.29416204261559
 20
16.24717430164393
 30
0.0
 11
15.74043728645272
 21
16.24717430164393
 31
0.0
  0
LINE
  5
8F
330
7E
100
AcDbEntity
  8
중심선
100
AcDbLine
 10
19.22036997980202
 20
11.08717430171403
 30
0.0
 11
23.66174974927406
 21
11.08717430171406
 31
0.0
  0
LINE
  5
90
330
7E
100
AcDbEntity
  8
중심선
100
AcDbLine
 10
19.22039502424796
 20
13.00717430171391
 30
0.0
 11
19.22036997980202
 21
11.08717430171403
 31
0.0
  0
LINE
  5
91
330
7E
100
AcDbEntity
  8
중심선
100
AcDbLine
 10
19.22039502424796
 20
13.00717430171391
 30
0.0
 11
26.96566020931264
 21
13.00717430171391
 31
0.0
  0
LINE
  5
92
330
7E
100
AcDbEntity
  8
중심선
100
AcDbLine
 10
22.22332737316547
 20
13.45928029700563
 30
0.0
 11
24.52862924686651
 21
15.39360700705356
 31
0.0
  0
ATTDEF
  5
94
330
7E
100
AcDbEntity
  8
FORMAT
 62
     2
100
AcDbText
 10
-11.05102035218446
 20
2.075366912832191
 30
0.0
 40
4.233333333333333
  1
GMG22937[ 6 FLUTE ]
 41
0.75
  7
SLDTEXTSTYLE0
 11
-11.05102035218446
 21
-0.0412997538344756
 31
0.0
100
AcDbAttributeDefinition
  3

  2
AUTOATTR0
 70
     0
 74
     1
  0
ENDBLK
  5
80
330
7E
100
AcDbEntity
  8
0
100
AcDbBlockEnd
  0
BLOCK
  5
103
330
102
100
AcDbEntity
  8
0
100
AcDbBlockBegin
  2
_D
 70
     0
 10
0.0
 20
0.0
 30
0.0
  3
_D
  1
_D
  0
LINE
  5
105
330
102
100
AcDbEntity
  8
치수문자_일반주서
 62
     0
370
    -2
100
AcDbLine
 10
57.6207884047534
 20
-8.199774431170688
 30
0.0
 11
76.92075979569854
 21
-8.199774431170615
 31
0.0
  0
LINE
  5
106
330
102
100
AcDbEntity
  8
치수문자_일반주서
 62
     0
370
    -2
100
AcDbLine
 10
57.81401407992552
 20
7.675225568829313
 30
0.0
 11
76.92075979569849
 21
7.675225568829385
 31
0.0
  0
LINE
  5
107
330
102
100
AcDbEntity
  8
치수문자_일반주서
 62
     0
370
    -2
100
AcDbLine
 10
76.92075979569853
 20
-4.897774431170616
 30
0.0
 11
76.9207597956985
 21
4.373225568829385
 31
0.0
  0
SOLID
  5
108
330
102
100
AcDbEntity
  8
치수문자_일반주서
 62
     0
100
AcDbTrace
 10
76.3704264623652
 20
-4.897774431170618
 30
0.0
 11
77.47109312903186
 21
-4.897774431170614
 31
0.0
 12
76.92075979569854
 22
-8.199774431170615
 32
0.0
 13
76.92075979569854
 23
-8.199774431170615
 33
0.0
  0
SOLID
  5
109
330
102
100
AcDbEntity
  8
치수문자_일반주서
 62
     0
100
AcDbTrace
 10
77.47109312903183
 20
4.373225568829387
 30
0.0
 11
76.37042646236517
 21
4.373225568829383
 31
0.0
 12
76.92075979569849
 22
7.675225568829385
 32
0.0
 13
76.92075979569849
 23
7.675225568829385
 33
0.0
  0
MTEXT
  5
10A
330
102
100
AcDbEntity
  8
치수문자_일반주서
 62
     0
100
AcDbMText
 10
72.5457597956985
 20
4.003671784175769
 30
0.0
 40
3.5
 41
0.0
 71
     2
 72
     1
  1
\A1;%%c15.88 [5/8]
  7
SLDTEXTSTYLE0
 11
-3.580687802255623E-15
 21
1.0
 31
0.0
 73
     1
 44
1.0
  0
POINT
  5
10B
330
102
100
AcDbEntity
  8
Defpoints
 62
     0
100
AcDbPoint
 10
57.5582884047534
 20
-8.199774431170688
 30
0.0
  0
POINT
  5
10C
330
102
100
AcDbEntity
  8
Defpoints
 62
     0
100
AcDbPoint
 10
57.75151407992552
 20
7.675225568829313
 30
0.0
  0
POINT
  5
10D
330
102
100
AcDbEntity
  8
Defpoints
 62
     0
100
AcDbPoint
 10
76.92075979569849
 20
7.675225568829385
 30
0.0
  0
ENDBLK
  5
104
330
102
100
AcDbEntity
  8
0
100
AcDbBlockEnd
  0
BLOCK
  5
118
330
117
100
AcDbEntity
  8
0
100
AcDbBlockBegin
  2
_D_1
 70
     0
 10
0.0
 20
0.0
 30
0.0
  3
_D_1
  1
_D_1
  0
LINE
  5
11A
330
117
100
AcDbEntity
  8
치수문자_일반주서
 62
     0
370
    -2
100
AcDbLine
 10
-40.80048592007449
 20
7.237725568829308
 30
0.0
 11
-40.80048592007449
 21
40.3307769869011
 31
0.0
  0
LINE
  5
11B
330
117
100
AcDbEntity
  8
치수문자_일반주서
 62
     0
370
    -2
100
AcDbLine
 10
60.79951407992552
 20
4.213519202904676
 30
0.0
 11
60.79951407992552
 21
40.3307769869011
 31
0.0
  0
LINE
  5
11C
330
117
100
AcDbEntity
  8
치수문자_일반주서
 62
     0
370
    -2
100
AcDbLine
 10
-37.49848592007449
 20
40.3307769869011
 30
0.0
 11
57.49751407992552
 21
40.3307769869011
 31
0.0
  0
SOLID
  5
11D
330
117
100
AcDbEntity
  8
치수문자_일반주서
 62
     0
100
AcDbTrace
 10
-37.49848592007449
 20
40.88111032023443
 30
0.0
 11
-37.49848592007449
 21
39.78044365356777
 31
0.0
 12
-40.80048592007449
 22
40.3307769869011
 32
0.0
 13
-40.80048592007449
 23
40.3307769869011
 33
0.0
  0
SOLID
  5
11E
330
117
100
AcDbEntity
  8
치수문자_일반주서
 62
     0
100
AcDbTrace
 10
57.49751407992552
 20
39.78044365356777
 30
0.0
 11
57.49751407992552
 21
40.88111032023443
 31
0.0
 12
60.79951407992552
 22
40.3307769869011
 32
0.0
 13
60.79951407992552
 23
40.3307769869011
 33
0.0
  0
MTEXT
  5
11F
330
117
100
AcDbEntity
  8
치수문자_일반주서
 62
     0
100
AcDbMText
 10
9.999514079925516
 20
44.7057769869011
 30
0.0
 40
3.5
 41
0.0
 71
     2
 72
     1
  1
\A1;101.60 [4]
  7
SLDTEXTSTYLE0
 73
     1
 44
1.0
  0
POINT
  5
120
330
117
100
AcDbEntity
  8
Defpoints
 62
     0
100
AcDbPoint
 10
-40.80048592007449
 20
7.175225568829308
 30
0.0
  0
POINT
  5
121
330
117
100
AcDbEntity
  8
Defpoints
 62
     0
100
AcDbPoint
 10
60.79951407992552
 20
4.151019202904676
 30
0.0
  0
POINT
  5
122
330
117
100
AcDbEntity
  8
Defpoints
 62
     0
100
AcDbPoint
 10
60.79951407992552
 20
40.3307769869011
 30
0.0
  0
ENDBLK
  5
119
330
117
100
AcDbEntity
  8
0
100
AcDbBlockEnd
  0
BLOCK
  5
12B
330
12A
100
AcDbEntity
  8
0
100
AcDbBlockBegin
  2
_D_2
 70
     0
 10
0.0
 20
0.0
 30
0.0
  3
_D_2
  1
_D_2
  0
LINE
  5
12D
330
12A
100
AcDbEntity
  8
치수문자_일반주서
 62
     0
370
    -2
100
AcDbLine
 10
60.79951407992552
 20
6.213725568829314
 30
0.0
 11
60.79951407992552
 21
23.77822009916723
 31
0.0
  0
LINE
  5
12E
330
12A
100
AcDbEntity
  8
치수문자_일반주서
 62
     0
370
    -2
100
AcDbLine
 10
9.999514079925518
 20
7.737725568829313
 30
0.0
 11
9.999514079925518
 21
23.77822009916723
 31
0.0
  0
LINE
  5
12F
330
12A
100
AcDbEntity
  8
치수문자_일반주서
 62
     0
370
    -2
100
AcDbLine
 10
57.49751407992552
 20
23.77822009916723
 30
0.0
 11
13.30151407992552
 21
23.77822009916723
 31
0.0
  0
SOLID
  5
130
330
12A
100
AcDbEntity
  8
치수문자_일반주서
 62
     0
100
AcDbTrace
 10
57.49751407992552
 20
23.2278867658339
 30
0.0
 11
57.49751407992552
 21
24.32855343250057
 31
0.0
 12
60.79951407992552
 22
23.77822009916723
 32
0.0
 13
60.79951407992552
 23
23.77822009916723
 33
0.0
  0
SOLID
  5
131
330
12A
100
AcDbEntity
  8
치수문자_일반주서
 62
     0
100
AcDbTrace
 10
13.30151407992552
 20
24.32855343250057
 30
0.0
 11
13.30151407992552
 21
23.2278867658339
 31
0.0
 12
9.999514079925518
 22
23.77822009916723
 32
0.0
 13
9.999514079925518
 23
23.77822009916723
 33
0.0
  0
MTEXT
  5
132
330
12A
100
AcDbEntity
  8
치수문자_일반주서
 62
     0
100
AcDbMText
 10
34.84071634372848
 20
28.15322009916723
 30
0.0
 40
3.5
 41
0.0
 71
     2
 72
     1
  1
\A1;50.80 [2]
  7
SLDTEXTSTYLE0
 73
     1
 44
1.0
  0
POINT
  5
133
330
12A
100
AcDbEntity
  8
Defpoints
 62
     0
100
AcDbPoint
 10
60.79951407992552
 20
6.151225568829314
 30
0.0
  0
POINT
  5
134
330
12A
100
AcDbEntity
  8
Defpoints
 62
     0
100
AcDbPoint
 10
9.999514079925518
 20
7.675225568829313
 30
0.0
  0
POINT
  5
135
330
12A
100
AcDbEntity
  8
Defpoints
 62
     0
100
AcDbPoint
 10
9.999514079925518
 20
23.77822009916723
 30
0.0
  0
ENDBLK
  5
12C
330
12A
100
AcDbEntity
  8
0
100
AcDbBlockEnd
  0
BLOCK
  5
13F
330
13E
100
AcDbEntity
  8
0
100
AcDbBlockBegin
  2
_NONE
 70
     0
 10
0.0
 20
0.0
 30
0.0
  3
_NONE
  1
_NONE
  0
ENDBLK
  5
140
330
13E
100
AcDbEntity
  8
0
100
AcDbBlockEnd
  0
BLOCK
  5
142
330
141
100
AcDbEntity
  8
0
100
AcDbBlockBegin
  2
_D_3
 70
     0
 10
0.0
 20
0.0
 30
0.0
  3
_D_3
  1
_D_3
  0
LINE
  5
144
330
141
100
AcDbEntity
  8
치수문자_일반주서
100
AcDbLine
 10
-64.59336763611721
 20
-13.61414086223941
 30
0.0
 11
-64.59336763611721
 21
-14.32507834780391
 31
0.0
  0
LINE
  5
145
330
141
100
AcDbEntity
  8
치수문자_일반주서
100
AcDbLine
 10
-64.59336763611721
 20
-14.32507834780391
 30
0.0
 11
-59.03711764505791
 21
-14.32507834780387
 31
0.0
  0
LINE
  5
146
330
141
100
AcDbEntity
  8
치수문자_일반주서
100
AcDbLine
 10
-59.03711764505791
 20
-14.32507834780387
 30
0.0
 11
-59.03711764505791
 21
-13.61414086223937
 31
0.0
  0
LINE
  5
147
330
141
100
AcDbEntity
  8
치수문자_일반주서
100
AcDbLine
 10
-64.59336763611729
 20
-2.785408000102152
 30
0.0
 11
-64.59336763611729
 21
-2.074470514537652
 31
0.0
  0
LINE
  5
148
330
141
100
AcDbEntity
  8
치수문자_일반주서
100
AcDbLine
 10
-64.59336763611729
 20
-2.074470514537652
 30
0.0
 11
-59.037117645058
 21
-2.074470514537613
 31
0.0
  0
LINE
  5
149
330
141
100
AcDbEntity
  8
치수문자_일반주서
100
AcDbLine
 10
-59.037117645058
 20
-2.074470514537613
 30
0.0
 11
-59.03711764505799
 21
-2.785408000102113
 31
0.0
  0
MTEXT
  5
14A
330
141
100
AcDbEntity
  8
치수문자_일반주서
100
AcDbMText
 10
-63.54885455963682
 20
-12.72546896162803
 30
0.0
 40
3.5
 41
0.0
 71
     1
 72
     1
  1
0.00
  7
SLDTEXTSTYLE0
 11
-7.044195017643634E-15
 21
1.0
 31
0.0
 73
     1
 44
1.0
  0
MTEXT
  5
14B
330
141
100
AcDbEntity
  8
치수문자_일반주서
100
AcDbMText
 10
-58.31222300927634
 20
-12.13204884353451
 30
0.0
 40
3.5
 41
0.0
 71
     1
 72
     1
  1
%%c
  7
SLDTEXTSTYLE0
 11
-7.044195017643634E-15
 21
1.0
 31
0.0
 73
     1
 44
1.0
  0
MTEXT
  5
14C
330
141
100
AcDbEntity
  8
치수문자_일반주서
100
AcDbMText
 10
-58.31222300927638
 20
-6.853611445160426
 30
0.0
 40
3.5
 41
0.0
 71
     1
 72
     1
  1
0
  7
SLDTEXTSTYLE0
 11
-7.044195017643634E-15
 21
1.0
 31
0.0
 73
     1
 44
1.0
  0
ENDBLK
  5
143
330
141
100
AcDbEntity
  8
0
100
AcDbBlockEnd
  0
BLOCK
  5
14E
330
14D
100
AcDbEntity
  8
0
100
AcDbBlockBegin
  2
SW_DOWELSYMBOL_0
 70
     0
 10
0.0
 20
0.0
 30
0.0
  3
SW_DOWELSYMBOL_0
  1
SW_DOWELSYMBOL_0
  0
CIRCLE
  5
150
330
14D
100
AcDbEntity
  8
외형선
 62
     0
100
AcDbCircle
 10
0.0
 20
0.0
 30
0.0
 40
3.000000000000004
  0
HATCH
  5
151
330
14D
100
AcDbEntity
  8
0
  6
Continuous
 62
     0
370
    30
100
AcDbHatch
 10
0.0
 20
0.0
 30
0.0
210
0.0
220
0.0
230
1.0
  2
SOLID
 70
     1
 71
     0
 91
        1
 92
        0
 93
        3
 72
     2
 10
0.0
 20
0.0
 40
3.000000000000004
 50
0.0
 51
90.0
 73
     1
 72
     1
 10
0.0
 20
3.000000000000004
 11
0.0
 21
0.0
 72
     1
 10
0.0
 20
0.0
 11
3.000000000000004
 21
0.0
 97
        0
 75
     0
 76
     1
 98
        1
 10
0.0
 20
0.0
  0
HATCH
  5
152
330
14D
100
AcDbEntity
  8
0
  6
Continuous
 62
     0
370
    30
100
AcDbHatch
 10
0.0
 20
0.0
 30
0.0
210
0.0
220
0.0
230
1.0
  2
SOLID
 70
     1
 71
     0
 91
        1
 92
        0
 93
        3
 72
     2
 10
0.0
 20
0.0
 40
3.000000000000004
 50
180.0
 51
270.0000000000007
 73
     1
 72
     1
 10
0.0
 20
-3.000000000000004
 11
0.0
 21
0.0
 72
     1
 10
0.0
 20
0.0
 11
-3.000000000000004
 21
0.0
 97
        0
 75
     0
 76
     1
 98
        1
 10
0.0
 20
0.0
  0
ENDBLK
  5
14F
330
14D
100
AcDbEntity
  8
0
100
AcDbBlockEnd
  0
BLOCK
  5
17D
330
17C
100
AcDbEntity
  8
0
100
AcDbBlockBegin
  2
*D8
 70
     1
 10
0.0
 20
0.0
 30
0.0
  3
*D8
  1
*D8
  0
LINE
  5
17F
330
17C
100
AcDbEntity
  8
치수문자_일반주서
 62
     0
370
    -2
100
AcDbLine
 10
-40.36298592007449
 20
7.675225568829309
 30
0.0
 11
-47.30763258906691
 21
7.675225568829308
 31
0.0
  0
LINE
  5
180
330
17C
100
AcDbEntity
  8
치수문자_일반주서
 62
     0
370
    -2
100
AcDbLine
 10
-40.36298592007449
 20
-8.199774431170692
 30
0.0
 11
-47.30763258906691
 21
-8.199774431170692
 31
0.0
  0
LINE
  5
181
330
17C
100
AcDbEntity
  8
치수문자_일반주서
 62
     0
370
    -2
100
AcDbLine
 10
-47.30763258906691
 20
4.373225568829309
 30
0.0
 11
-47.30763258906691
 21
-4.897774431170692
 31
0.0
  0
SOLID
  5
182
330
17C
100
AcDbEntity
  8
치수문자_일반주서
 62
     0
100
AcDbTrace
 10
-46.75729925573357
 20
4.373225568829309
 30
0.0
 11
-47.85796592240024
 21
4.373225568829309
 31
0.0
 12
-47.30763258906691
 22
7.675225568829308
 32
0.0
 13
-47.30763258906691
 23
7.675225568829308
 33
0.0
  0
SOLID
  5
183
330
17C
100
AcDbEntity
  8
치수문자_일반주서
 62
     0
100
AcDbTrace
 10
-47.85796592240024
 20
-4.897774431170692
 30
0.0
 11
-46.75729925573357
 21
-4.897774431170692
 31
0.0
 12
-47.30763258906691
 22
-8.199774431170692
 32
0.0
 13
-47.30763258906691
 23
-8.199774431170692
 33
0.0
  0
MTEXT
  5
184
330
17C
100
AcDbEntity
  8
치수문자_일반주서
 62
     0
100
AcDbMText
 10
-49.93263258906691
 20
-0.2622744311706917
 30
0.0
 40
3.5
 41
0.0
 71
     5
 72
     1
  1
\A1;{%%C15.88 [5/8]}
  7
SLDTEXTSTYLE0
 11
0.0
 21
1.0
 31
0.0
 73
     1
 44
1.0
  0
POINT
  5
185
330
17C
100
AcDbEntity
  8
Defpoints
 62
     0
100
AcDbPoint
 10
-40.30048592007449
 20
7.675225568829309
 30
0.0
  0
POINT
  5
186
330
17C
100
AcDbEntity
  8
Defpoints
 62
     0
100
AcDbPoint
 10
-40.30048592007449
 20
-8.199774431170692
 30
0.0
  0
POINT
  5
187
330
17C
100
AcDbEntity
  8
Defpoints
 62
     0
100
AcDbPoint
 10
-47.30763258906691
 20
-8.199774431170692
 30
0.0
  0
ENDBLK
  5
17E
330
17C
100
AcDbEntity
  8
0
100
AcDbBlockEnd
  0
BLOCK
  5
192
330
191
100
AcDbEntity
  8
0
100
AcDbBlockBegin
  2
*D9
 70
     1
 10
0.0
 20
0.0
 30
0.0
  3
*D9
  1
*D9
  0
LINE
  5
194
330
191
100
AcDbEntity
  8
치수문자_일반주서
 62
     0
370
    -2
100
AcDbLine
 10
61.88731589020322
 20
9.445694556599566
 30
0.0
 11
85.386502152933
 21
36.82372315637846
 31
0.0
  0
MTEXT
  5
195
330
191
100
AcDbEntity
  8
치수문자_일반주서
 62
     0
100
AcDbMText
 10
73.56394472509427
 20
27.08005598595668
 30
0.0
 40
3.5
 41
0.0
 71
     5
 72
     1
  1
\A1;R3.05 [R0.120]
  7
SLDTEXTSTYLE0
 11
0.6513073716972758
 21
0.7588140138220872
 31
0.0
 73
     1
 44
1.0
  0
LINE
  5
196
330
191
100
AcDbEntity
  8
치수문자_일반주서
 62
     0
370
    -2
100
AcDbLine
 10
57.75151407992552
 20
4.627225568829314
 30
0.0
 11
59.73669894885882
 21
6.940090682959034
 31
0.0
  0
SOLID
  5
197
330
191
100
AcDbEntity
  8
치수문자_일반주서
 62
     0
100
AcDbTrace
 10
61.46971524459646
 20
9.8041307134903
 30
0.0
 11
62.30491653580997
 21
9.087258399708832
 31
0.0
 12
59.73669894885882
 22
6.940090682959034
 32
0.0
 13
59.73669894885882
 23
6.940090682959034
 33
0.0
  0
POINT
  5
198
330
191
100
AcDbEntity
  8
Defpoints
 62
     0
100
AcDbPoint
 10
59.73669894885882
 20
6.940090682959034
 30
0.0
  0
POINT
  5
199
330
191
100
AcDbEntity
  8
Defpoints
 62
     0
100
AcDbPoint
 10
57.75151407992552
 20
4.627225568829314
 30
0.0
  0
ENDBLK
  5
193
330
191
100
AcDbEntity
  8
0
100
AcDbBlockEnd
  0
BLOCK
  5
1C1
330
1C0
100
AcDbEntity
  8
0
100
AcDbBlockBegin
  2
*D10
 70
     1
 10
0.0
 20
0.0
 30
0.0
  3
*D10
  1

  0
LINE
  5
1C3
330
1C0
100
AcDbEntity
  8
0
 62
     0
370
    -2
100
AcDbLine
 10
9.999514079925518
 20
8.478808436963407
 30
0.0
 11
9.999514079925518
 21
24.00737446191012
 31
0.0
  0
LINE
  5
1C4
330
1C0
100
AcDbEntity
  8
0
 62
     0
370
    -2
100
AcDbLine
 10
60.79951407992552
 20
7.528623918501848
 30
0.0
 11
60.79951407992552
 21
24.00737446191012
 31
0.0
  0
LINE
  5
1C5
330
1C0
100
AcDbEntity
  8
0
 62
     0
370
    -2
100
AcDbLine
 10
13.30151407992552
 20
23.00737446191012
 30
0.0
 11
57.49751407992552
 21
23.00737446191012
 31
0.0
  0
LINE
  5
1C6
330
1C0
100
AcDbEntity
  8
0
 62
     0
370
    -2
100
AcDbLine
 10
57.49751407992552
 20
23.00737446191012
 30
0.0
 11
13.30151407992552
 21
23.00737446191012
 31
0.0
  0
SOLID
  5
1C7
330
1C0
100
AcDbEntity
  8
0
 62
     0
100
AcDbTrace
 10
13.30151407992552
 20
23.55770779524345
 30
0.0
 11
13.30151407992552
 21
22.45704112857678
 31
0.0
 12
9.999514079925518
 22
23.00737446191012
 32
0.0
 13
9.999514079925518
 23
23.00737446191012
 33
0.0
  0
SOLID
  5
1C8
330
1C0
100
AcDbEntity
  8
0
 62
     0
100
AcDbTrace
 10
57.49751407992552
 20
22.45704112857678
 30
0.0
 11
57.49751407992552
 21
23.55770779524345
 31
0.0
 12
60.79951407992552
 22
23.00737446191012
 32
0.0
 13
60.79951407992552
 23
23.00737446191012
 33
0.0
  0
MTEXT
  5
1C9
330
1C0
100
AcDbEntity
  8
0
 62
     0
100
AcDbMText
 10
35.39951407992552
 20
26.57304112857679
 30
0.0
 40
3.5
 41
0.0
 71
     5
 72
     1
  1
50,80 [3]
 73
     1
 44
1.0
  0
POINT
  5
1CA
330
1C0
100
AcDbEntity
  8
Defpoints
 62
     0
100
AcDbPoint
 10
9.999514079925518
 20
7.478808436963407
 30
0.0
  0
POINT
  5
1CB
330
1C0
100
AcDbEntity
  8
Defpoints
 62
     0
100
AcDbPoint
 10
60.79951407992552
 20
6.528623918501848
 30
0.0
  0
POINT
  5
1CC
330
1C0
100
AcDbEntity
  8
Defpoints
 62
     0
100
AcDbPoint
 10
60.79951407992552
 20
23.00737446191012
 30
0.0
  0
ENDBLK
  5
1C2
330
1C0
100
AcDbEntity
  8
0
100
AcDbBlockEnd
  0
ENDSEC
  0
SECTION
  2
ENTITIES
  0
LINE
  5
95
330
1F
100
AcDbEntity
  8
0
  6
Continuous
 62
     4
370
    15
100
AcDbLine
 10
9.999514079925518
 20
7.675225568829313
 30
0.0
 11
-40.30048592007449
 21
7.675225568829309
 31
0.0
  0
LINE
  5
96
330
1F
100
AcDbEntity
  8
0
  6
Continuous
 62
     4
370
    15
100
AcDbLine
 10
-40.30048592007449
 20
-8.199774431170692
 30
0.0
 11
9.999514079925518
 21
-8.199774431170688
 31
0.0
  0
LINE
  5
97
330
1F
100
AcDbEntity
  8
0
  6
Continuous
 62
     4
370
    15
100
AcDbLine
 10
-40.30048592007449
 20
7.675225568829307
 30
0.0
 11
-40.80048592007449
 21
7.175225568829307
 31
0.0
  0
LINE
  5
98
330
1F
100
AcDbEntity
  8
0
  6
Continuous
 62
     4
370
    15
100
AcDbLine
 10
-40.80048592007449
 20
-7.699774431170692
 30
0.0
 11
-40.30048592007449
 21
-8.19977443117069
 31
0.0
  0
LINE
  5
99
330
1F
100
AcDbEntity
  8
0
  6
Continuous
 62
     1
370
    15
100
AcDbLine
 10
40.73985974581785
 20
-8.199774431170688
 30
0.0
 11
43.45460662200053
 21
-8.199774431170688
 31
0.0
  0
LINE
  5
9A
330
1F
100
AcDbEntity
  8
0
  6
Continuous
 62
     1
370
    15
100
AcDbLine
 10
18.51745107239159
 20
7.675225568829313
 30
0.0
 11
15.80418119408876
 21
7.675225568829313
 31
0.0
  0
LINE
  5
9B
330
1F
100
AcDbEntity
  8
0
  6
Continuous
 62
     1
370
    15
100
AcDbLine
 10
15.80418119408881
 20
-8.199774431170688
 30
0.0
 11
18.51745107239165
 21
-8.199774431170688
 31
0.0
  0
LINE
  5
9C
330
1F
100
AcDbEntity
  8
0
  6
Continuous
 62
     1
370
    15
100
AcDbLine
 10
43.45460662200057
 20
7.675225568829313
 30
0.0
 11
40.73985974581792
 21
7.675225568829313
 31
0.0
  0
LINE
  5
9D
330
1F
100
AcDbEntity
  8
0
  6
Continuous
 62
     1
370
    15
100
AcDbLine
 10
32.4275753048607
 20
-8.199774431170688
 30
0.0
 11
35.14283695900252
 21
-8.199774431170688
 31
0.0
  0
LINE
  5
9E
330
1F
100
AcDbEntity
  8
0
  6
Continuous
 62
     1
370
    15
100
AcDbLine
 10
10.2053179704968
 20
7.675225568829313
 30
0.0
 11
9.99951407992552
 21
7.675225568829313
 31
0.0
  0
LINE
  5
9F
330
1F
100
AcDbEntity
  8
0
  6
Continuous
 62
     1
370
    15
100
AcDbLine
 10
57.75151407992552
 20
7.675225568829313
 30
0.0
 11
57.36506272958128
 21
7.675225568829313
 31
0.0
  0
LINE
  5
A0
330
1F
100
AcDbEntity
  8
0
  6
Continuous
 62
     1
370
    15
100
AcDbLine
 10
24.11587753432438
 20
-8.199774431170688
 30
0.0
 11
26.83023156311218
 21
-8.199774431170688
 31
0.0
  0
LINE
  5
A1
330
1F
100
AcDbEntity
  8
0
  6
Continuous
 62
     1
370
    15
100
AcDbLine
 10
51.76582128905666
 20
7.675225568829313
 30
0.0
 11
49.05253647178437
 21
7.675225568829313
 31
0.0
  0
LINE
  5
A2
330
1F
100
AcDbEntity
  8
0
  6
Continuous
 62
     1
370
    15
100
AcDbLine
 10
57.36506272958127
 20
-8.199774431170688
 30
0.0
 11
57.75151407992552
 21
-8.199774431170688
 31
0.0
  0
LINE
  5
A3
330
1F
100
AcDbEntity
  8
0
  6
Continuous
 62
     1
370
    15
100
AcDbLine
 10
9.99951407992552
 20
-8.199774431170688
 30
0.0
 11
10.20531797049686
 21
-8.199774431170688
 31
0.0
  0
LINE
  5
A4
330
1F
100
AcDbEntity
  8
0
  6
Continuous
 62
     1
370
    15
100
AcDbLine
 10
35.14283695900258
 20
7.675225568829313
 30
0.0
 11
32.4275753048607
 21
7.675225568829313
 31
0.0
  0
LINE
  5
A5
330
1F
100
AcDbEntity
  8
0
  6
Continuous
 62
     1
370
    15
100
AcDbLine
 10
49.0525364717843
 20
-8.199774431170688
 30
0.0
 11
51.76582128905666
 21
-8.199774431170688
 31
0.0
  0
LINE
  5
A6
330
1F
100
AcDbEntity
  8
0
  6
Continuous
 62
     1
370
    15
100
AcDbLine
 10
26.83023156311219
 20
7.675225568829313
 30
0.0
 11
24.11587753432433
 21
7.675225568829313
 31
0.0
  0
SPLINE
  5
AB
330
1F
100
AcDbEntity
  8
0
  6
Continuous
 62
     4
370
    15
100
AcDbSpline
210
0.0
220
0.0
230
1.0
 70
     8
 71
     3
 72
    14
 73
    10
 74
     0
 42
0.000000001
 43
0.00000001
 40
0.0
 40
0.0
 40
0.0
 40
0.0
 40
0.25
 40
0.25
 40
0.5
 40
0.5
 40
0.7500000000000001
 40
0.7500000000000001
 40
1.0
 40
1.0
 40
1.0
 40
1.0
 10
7.47651797427757
 20
-1.682444993904458
 30
0.0
 10
7.365176210392187
 20
-1.572881829925028
 30
0.0
 10
7.27360327300249
 20
-1.449431268212942
 30
0.0
 10
7.125120265208139
 20
-1.177559005185429
 30
0.0
 10
7.069784957189664
 20
-1.030539054499446
 30
0.0
 10
6.993343353162169
 20
-0.7295901874145574
 30
0.0
 10
6.971654127486858
 20
-0.573423780530575
 30
0.0
 10
6.94990353561142
 20
-0.2624058992491347
 30
0.0
 10
6.949788896125949
 20
-0.1062548746318232
 30
0.0
 10
6.949788896125953
 20
0.0499355884147594
 30
0.0
  0
SPLINE
  5
AC
330
1F
100
AcDbEntity
  8
0
  6
Continuous
 62
     4
370
    15
100
AcDbSpline
210
0.0
220
0.0
230
1.0
 70
     8
 71
     3
 72
    22
 73
    18
 74
     0
 42
0.000000001
 43
0.00000001
 40
0.0
 40
0.0
 40
0.0
 40
0.0
 40
0.1249999999999999
 40
0.1249999999999999
 40
0.2499999999999999
 40
0.2499999999999999
 40
0.3749999999999999
 40
0.3749999999999999
 40
0.4999999999999998
 40
0.4999999999999998
 40
0.6249999999999998
 40
0.6249999999999998
 40
0.7499999999999998
 40
0.7499999999999998
 40
0.8749999999999999
 40
0.8749999999999999
 40
1.0
 40
1.0
 40
1.0
 40
1.0
 10
6.949788896125946
 20
0.0499355884147177
 30
0.0
 10
6.949788896125949
 20
0.2256330187703676
 30
0.0
 10
6.950217575936787
 20
0.4007096002436178
 30
0.0
 10
6.980938750375934
 20
0.7469898649862198
 30
0.0
 10
7.011166921539074
 20
0.9202294544984492
 30
0.0
 10
7.117473490169793
 20
1.251783023057785
 30
0.0
 10
7.192963584546396
 20
1.408859949394507
 30
0.0
 10
7.393949777418585
 20
1.692304038629286
 30
0.0
 10
7.515454991579511
 20
1.814236733041889
 30
0.0
 10
7.803392727046385
 20
2.015269662404411
 30
0.0
 10
7.961341315126693
 20
2.088624563929218
 30
0.0
 10
8.30374575490256
 20
2.180763101366752
 30
0.0
 10
8.479620704088207
 20
2.197017877427891
 30
0.0
 10
8.833380469507345
 20
2.169998633541929
 30
0.0
 10
9.005061835843271
 20
2.126882261356226
 30
0.0
 10
9.32612038971102
 20
1.984185033106998
 30
0.0
 10
9.471203784188143
 20
1.886541199110695
 30
0.0
 10
9.597170618997415
 20
1.76491603402506
 30
0.0
  0
SPLINE
  5
AD
330
1F
100
AcDbEntity
  8
0
  6
Continuous
 62
     4
370
    15
100
AcDbSpline
210
0.0
220
0.0
230
1.0
 70
     8
 71
     3
 72
     8
 73
     4
 74
     0
 42
0.000000001
 43
0.00000001
 40
0.0
 40
0.0
 40
0.0
 40
0.0
 40
1.0
 40
1.0
 40
1.0
 40
1.0
 10
9.99951407992552
 20
7.2823913050975
 30
0.0
 10
9.865334167605265
 20
7.323979539999524
 30
0.0
 10
9.731133947693593
 20
7.362349461563102
 30
0.0
 10
9.597170618997415
 20
7.397432732538839
 30
0.0
  0
SPLINE
  5
AE
330
1F
100
AcDbEntity
  8
0
  6
Continuous
 62
     4
370
    15
100
AcDbSpline
210
0.0
220
0.0
230
1.0
 70
     8
 71
     3
 72
    22
 73
    18
 74
     0
 42
0.000000001
 43
0.00000001
 40
0.0
 40
0.0
 40
0.0
 40
0.0
 40
0.125
 40
0.125
 40
0.25
 40
0.25
 40
0.375
 40
0.375
 40
0.5
 40
0.5
 40
0.625
 40
0.625
 40
0.75
 40
0.75
 40
0.875
 40
0.875
 40
1.0
 40
1.0
 40
1.0
 40
1.0
 10
6.949788896125946
 20
6.762587625225278
 30
0.0
 10
6.949788896125949
 20
6.844446774408819
 30
0.0
 10
6.950217575936789
 20
6.920933006504502
 30
0.0
 10
6.980938750375937
 20
7.062306710737892
 30
0.0
 10
7.01116692153907
 20
7.127905143186537
 30
0.0
 10
7.117473490169791
 20
7.244189534344655
 30
0.0
 10
7.192963584546398
 20
7.294476060138208
 30
0.0
 10
7.393949777418585
 20
7.378612916496214
 30
0.0
 10
7.515454991579507
 20
7.411280676351728
 30
0.0
 10
7.803392727046381
 20
7.462142491380964
 30
0.0
 10
7.961341315126689
 20
7.478967983483314
 30
0.0
 10
8.303745754902558
 20
7.499760897658291
 30
0.0
 10
8.479620704088203
 20
7.503195461197512
 30
0.0
 10
8.833380469507341
 20
7.497264636064494
 30
0.0
 10
9.00506183584327
 20
7.487916112164754
 30
0.0
 10
9.326120389711019
 20
7.454298038988185
 30
0.0
 10
9.471203784188146
 20
7.430421824722361
 30
0.0
 10
9.597170618997415
 20
7.397432732538839
 30
0.0
  0
SPLINE
  5
AF
330
1F
100
AcDbEntity
  8
0
  6
Continuous
 62
     4
370
    15
100
AcDbSpline
210
0.0
220
0.0
230
1.0
 70
     8
 71
     3
 72
    14
 73
    10
 74
     0
 42
0.000000001
 43
0.00000001
 40
0.0
 40
0.0
 40
0.0
 40
0.0
 40
0.2499999999999999
 40
0.2499999999999999
 40
0.4999999999999999
 40
0.4999999999999999
 40
0.7499999999999999
 40
0.7499999999999999
 40
1.0
 40
1.0
 40
1.0
 40
1.0
 10
7.476517974277557
 20
5.790795347569983
 30
0.0
 10
7.365176210392174
 20
5.862832010087282
 30
0.0
 10
7.273603273002494
 20
5.941943121465401
 30
0.0
 10
7.125120265208141
 20
6.109338489654739
 30
0.0
 10
7.069784957189664
 20
6.19664390765775
 30
0.0
 10
6.993343353162169
 20
6.367465325390848
 30
0.0
 10
6.971654127486855
 20
6.45226468494034
 30
0.0
 10
6.949903535611418
 20
6.613056108726503
 30
0.0
 10
6.949788896125945
 20
6.689816962673143
 30
0.0
 10
6.949788896125949
 20
6.76258762522464
 30
0.0
  0
SPLINE
  5
B0
330
1F
100
AcDbEntity
  8
0
  6
Continuous
 62
     4
370
    15
100
AcDbSpline
210
0.0
220
0.0
230
1.0
 70
     8
 71
     3
 72
    12
 73
     8
 74
     0
 42
0.000000001
 43
0.00000001
 40
0.0
 40
0.0
 40
0.0
 40
0.0
 40
0.2500000000000001
 40
0.2500000000000001
 40
0.5000000000000002
 40
0.5000000000000002
 40
1.0
 40
1.0
 40
1.0
 40
1.0
 10
9.999514079925513
 20
3.883678678850119
 30
0.0
 10
9.788620014066481
 20
4.063082031177383
 30
0.0
 10
9.577676483017783
 20
4.238123095193068
 30
0.0
 10
9.157682677396387
 20
4.577864916493333
 30
0.0
 10
8.949553740002056
 20
4.742340220069005
 30
0.0
 10
8.320438609164864
 20
5.220749365460338
 30
0.0
 10
7.896670289844426
 20
5.518962303919729
 30
0.0
 10
7.476517974277558
 20
5.790795347569982
 30
0.0
  0
LINE
  5
B1
330
1F
100
AcDbEntity
  8
0
  6
Continuous
 62
     4
370
    15
100
AcDbLine
 10
9.999514079925527
 20
3.883678678850121
 30
0.0
 11
9.999514079925522
 21
1.374304733118872
 31
0.0
  0
SPLINE
  5
B2
330
1F
100
AcDbEntity
  8
0
  6
Continuous
 62
     4
370
    15
100
AcDbSpline
210
0.0
220
0.0
230
1.0
 70
     8
 71
     3
 72
     8
 73
     4
 74
     0
 42
0.000000001
 43
0.00000001
 40
0.0
 40
0.0
 40
0.0
 40
0.0
 40
1.0
 40
1.0
 40
1.0
 40
1.0
 10
9.999514079925522
 20
1.374304733118868
 30
0.0
 10
9.865334167605267
 20
1.505283371261228
 30
0.0
 10
9.731133947693593
 20
1.635569988355472
 30
0.0
 10
9.597170618997415
 20
1.76491603402506
 30
0.0
  0
SPLINE
  5
B3
330
1F
100
AcDbEntity
  8
0
  6
Continuous
 62
     4
370
    15
100
AcDbSpline
210
0.0
220
0.0
230
1.0
 70
     8
 71
     3
 72
    12
 73
     8
 74
     0
 42
0.000000001
 43
0.00000001
 40
0.0
 40
0.0
 40
0.0
 40
0.0
 40
0.2499999999999999
 40
0.2499999999999999
 40
0.4999999999999999
 40
0.4999999999999999
 40
1.0
 40
1.0
 40
1.0
 40
1.0
 10
9.999514079925513
 20
-4.051143515089361
 30
0.0
 10
9.788620014066481
 20
-3.866275836738243
 30
0.0
 10
9.577676483017784
 20
-3.67739541526616
 30
0.0
 10
9.157682677396387
 20
-3.29342660035354
 30
0.0
 10
8.949553740002056
 20
-3.098634988207958
 30
0.0
 10
8.320438609164864
 20
-2.504491150983395
 30
0.0
 10
7.896670289844426
 20
-2.095885696120923
 30
0.0
 10
7.476517974277558
 20
-1.682444993904472
 30
0.0
  0
LINE
  5
B4
330
1F
100
AcDbEntity
  8
0
  6
Continuous
 62
     1
370
    15
100
AcDbLine
 10
9.999514079925527
 20
-4.05114351508947
 30
0.0
 11
9.999514079925522
 21
-6.170361003149328
 31
0.0
  0
SPLINE
  5
B5
330
1F
100
AcDbEntity
  8
0
  6
Continuous
 62
     4
370
    15
100
AcDbSpline
210
0.0
220
0.0
230
1.0
 70
     8
 71
     3
 72
     8
 73
     4
 74
     0
 42
0.000000001
 43
0.00000001
 40
0.0
 40
0.0
 40
0.0
 40
0.0
 40
1.0
 40
1.0
 40
1.0
 40
1.0
 10
9.999514079925522
 20
-6.170361003149327
 30
0.0
 10
9.865334167605267
 20
-6.080970599908992
 30
0.0
 10
9.731133947693595
 20
-5.989053904378327
 30
0.0
 10
9.597170618997415
 20
-5.894791129684475
 30
0.0
  0
SPLINE
  5
B6
330
1F
100
AcDbEntity
  8
0
  6
Continuous
 62
     4
370
    15
100
AcDbSpline
210
0.0
220
0.0
230
1.0
 70
     8
 71
     3
 72
    22
 73
    18
 74
     0
 42
0.000000001
 43
0.00000001
 40
0.0
 40
0.0
 40
0.0
 40
0.0
 40
0.1249999999999999
 40
0.1249999999999999
 40
0.2499999999999998
 40
0.2499999999999998
 40
0.3749999999999998
 40
0.3749999999999998
 40
0.4999999999999998
 40
0.4999999999999998
 40
0.6249999999999998
 40
0.6249999999999998
 40
0.7499999999999998
 40
0.7499999999999998
 40
0.875
 40
0.875
 40
1.0
 40
1.0
 40
1.0
 40
1.0
 10
6.949788896125948
 20
-6.974926467981253
 30
0.0
 10
6.949788896125951
 20
-6.881088186809144
 30
0.0
 10
6.950217575936789
 20
-6.78249783743158
 30
0.0
 10
6.980938750375936
 20
-6.577591276922371
 30
0.0
 10
7.011166921539074
 20
-6.469950119858784
 30
0.0
 10
7.117473490169793
 20
-6.254680942457565
 30
0.0
 10
7.1929635845464
 20
-6.147890541914395
 30
0.0
 10
7.393949777418586
 20
-5.948583309037628
 30
0.0
 10
7.515454991579509
 20
-5.859318374480537
 30
0.0
 10
7.803392727046383
 20
-5.709147260147249
 30
0.0
 10
7.961341315126695
 20
-5.652617850724795
 30
0.0
 10
8.30374575490256
 20
-5.581272227462238
 30
0.0
 10
8.479620704088207
 20
-5.568452014940322
 30
0.0
 10
8.833380469507343
 20
-5.589540433693265
 30
0.0
 10
9.005061835843271
 20
-5.623308281979229
 30
0.0
 10
9.32612038971102
 20
-5.732387437051887
 30
0.0
 10
9.471203784188145
 20
-5.806155056782361
 30
0.0
 10
9.597170618997417
 20
-5.894791129684475
 30
0.0
  0
SPLINE
  5
B7
330
1F
100
AcDbEntity
  8
0
  6
Continuous
 62
     4
370
    15
100
AcDbSpline
210
0.0
220
0.0
230
1.0
 70
     8
 71
     3
 72
    14
 73
    10
 74
     0
 42
0.000000001
 43
0.00000001
 40
0.0
 40
0.0
 40
0.0
 40
0.0
 40
0.2500000000000001
 40
0.2500000000000001
 40
0.5000000000000001
 40
0.5000000000000001
 40
0.75
 40
0.75
 40
1.0
 40
1.0
 40
1.0
 40
1.0
 10
7.476517974277572
 20
-7.735514772645099
 30
0.0
 10
7.365176210392189
 20
-7.697988271182966
 30
0.0
 10
7.273603273002492
 20
-7.653648820849024
 30
0.0
 10
7.125120265208141
 20
-7.549171926010848
 30
0.0
 10
7.069784957189664
 20
-7.489457393327879
 30
0.0
 10
6.993343353162169
 20
-7.359329943976089
 30
0.0
 10
6.971654127486858
 20
-7.287962896641601
 30
0.0
 10
6.949903535611422
 20
-7.137736439146325
 30
0.0
 10
6.949788896125941
 20
-7.05834626847566
 30
0.0
 10
6.949788896125945
 20
-6.974926467980573
 30
0.0
  0
SPLINE
  5
B8
330
1F
100
AcDbEntity
  8
0
  6
Continuous
 62
     4
370
    15
100
AcDbSpline
210
0.0
220
0.0
230
1.0
 70
     8
 71
     3
 72
    12
 73
     8
 74
     0
 42
0.000000001
 43
0.00000001
 40
0.0
 40
0.0
 40
0.0
 40
0.0
 40
0.25
 40
0.25
 40
0.5
 40
0.5
 40
1.0
 40
1.0
 40
1.0
 40
1.0
 10
9.999514079925515
 20
-8.197096625110154
 30
0.0
 10
9.788620014066481
 20
-8.1916322990863
 30
0.0
 10
9.577676483017784
 20
-8.177792941629903
 30
0.0
 10
9.157682677396389
 20
-8.133565948017552
 30
0.0
 10
8.949553740002058
 20
-8.103249639447641
 30
0.0
 10
8.320438609164865
 20
-7.987514947614415
 30
0.0
 10
7.896670289844428
 20
-7.877122431211336
 30
0.0
 10
7.476517974277558
 20
-7.735514772645137
 30
0.0
  0
LINE
  5
B9
330
1F
100
AcDbEntity
  8
0
  6
Continuous
 62
     1
370
    15
100
AcDbLine
 10
9.999514079925527
 20
-8.197096625110264
 30
0.0
 11
9.999514079925518
 21
-8.199774431170688
 31
0.0
  0
LINE
  5
BA
102
{ACAD_REACTORS
102
}
330
1F
100
AcDbEntity
  8
0
  6
Continuous
 62
     4
370
    15
100
AcDbLine
 10
9.999514079925518
 20
7.675225568829313
 30
0.0
 11
9.99951407992552
 21
7.2823913050975
 31
0.0
  0
LINE
  5
BB
330
1F
100
AcDbEntity
  8
0
  6
Continuous
 62
     4
370
    15
100
AcDbLine
 10
-40.30048592007449
 20
7.675225568829307
 30
0.0
 11
-40.30048592007449
 21
-8.19977443117069
 31
0.0
  0
LINE
  5
BC
330
1F
100
AcDbEntity
  8
0
  6
Continuous
 62
     4
370
    15
100
AcDbLine
 10
-40.80048592007449
 20
7.175225568829308
 30
0.0
 11
-40.80048592007449
 21
-7.69977443117068
 31
0.0
  0
SPLINE
  5
BD
330
1F
100
AcDbEntity
  8
0
  6
Continuous
 62
     4
370
    15
100
AcDbSpline
210
0.0
220
0.0
230
1.0
 70
    24
 71
     3
 72
    18
 73
    14
 74
     0
 42
0.000000001
 43
0.00000001
 40
0.0
 40
0.0
 40
0.0
 40
0.0
 40
0.25
 40
0.25
 40
0.5
 40
0.5
 40
0.625
 40
0.625
 40
0.75
 40
0.75
 40
0.875
 40
0.875
 40
1.0
 40
1.0
 40
1.0
 40
1.0
 10
9.999514079925522
 20
1.37430473311884
 30
0.0
 10
9.999514079925522
 20
1.173108140584858
 30
0.0
 10
9.999514079925522
 20
0.9154155675528111
 30
0.0
 10
9.999514079925522
 20
0.2448149337268971
 30
0.0
 10
9.999514079925524
 20
-0.1704080501563548
 30
0.0
 10
9.999514079925524
 20
-0.91102632345434
 30
0.0
 10
9.999514079925524
 20
-1.17692942886793
 30
0.0
 10
9.999514079925524
 20
-1.73603500080225
 30
0.0
 10
9.999514079925525
 20
-2.029222681582091
 30
0.0
 10
9.999514079925525
 20
-2.623465332375564
 30
0.0
 10
9.999514079925525
 20
-2.924372194724217
 30
0.0
 10
9.999514079925525
 20
-3.50811919284464
 30
0.0
 10
9.999514079925525
 20
-3.790710899217709
 30
0.0
 10
9.999514079925525
 20
-4.051143515089471
 30
0.0
  0
SPLINE
  5
BE
330
1F
100
AcDbEntity
  8
0
  6
Continuous
 62
     1
370
    15
100
AcDbSpline
210
0.0
220
0.0
230
1.0
 70
    24
 71
     3
 72
    12
 73
     8
 74
     0
 42
0.000000001
 43
0.00000001
 40
0.0
 40
0.0
 40
0.0
 40
0.0
 40
0.1158387595073732
 40
0.3501547275057129
 40
0.5844706955040525
 40
0.7922353477520264
 40
1.0
 40
1.0
 40
1.0
 40
1.0
 10
9.999514079925529
 20
-6.241625249920719
 30
0.0
 10
9.999514079925529
 20
-6.284133452288319
 30
0.0
 10
9.999514079925529
 20
-6.412626264884765
 30
0.0
 10
9.999514079925529
 20
-6.736989363344261
 30
0.0
 10
9.99951407992553
 20
-7.177000930826929
 30
0.0
 10
9.999514079925529
 20
-7.668711704175114
 30
0.0
 10
9.999514079925527
 20
-8.020968318131882
 30
0.0
 10
9.999514079925527
 20
-8.197096625110264
 30
0.0
  0
SPLINE
  5
BF
330
1F
100
AcDbEntity
  8
0
  6
Continuous
 62
     4
370
    15
100
AcDbSpline
210
0.0
220
0.0
230
1.0
 70
    24
 71
     3
 72
    15
 73
    11
 74
     0
 42
0.000000001
 43
0.00000001
 40
0.0
 40
0.0
 40
0.0
 40
0.0
 40
0.156533264197808
 40
0.2800407678132555
 40
0.4035482714287031
 40
0.52705577504415
 40
0.6505632786595968
 40
0.7740707822750436
 40
0.8975782858904903
 40
1.0
 40
1.0
 40
1.0
 40
1.0
 10
9.99951407992552
 20
7.2823913050975
 30
0.0
 10
9.999514079925522
 20
7.004440857757736
 30
0.0
 10
9.999514079925525
 20
6.507182609896097
 30
0.0
 10
9.999514079925525
 20
5.846252755432105
 30
0.0
 10
9.999514079925527
 20
5.293313430385257
 30
0.0
 10
9.999514079925527
 20
4.814535782304838
 30
0.0
 10
9.999514079925529
 20
4.419010760648574
 30
0.0
 10
9.999514079925529
 20
4.124805769828283
 30
0.0
 10
9.999514079925529
 20
3.93641509480811
 30
0.0
 10
9.999514079925529
 20
3.895882904232367
 30
0.0
 10
9.999514079925527
 20
3.877508227078237
 30
0.0
  0
SPLINE
  5
C0
330
1F
100
AcDbEntity
  8
0
  6
Continuous
 62
     1
370
    15
100
AcDbSpline
210
0.0
220
0.0
230
1.0
 70
     8
 71
     3
 72
    29
 73
    25
 74
     0
 42
0.000000001
 43
0.00000001
 40
0.0
 40
0.0
 40
0.0
 40
0.0
 40
0.0095111995614369
 40
0.0580071040650077
 40
0.1065310610164164
 40
0.1551287780605085
 40
0.2036404904692918
 40
0.2521422452691972
 40
0.3007316921517725
 40
0.3492726259145723
 40
0.397765619087636
 40
0.4463179844898499
 40
0.4948987451944379
 40
0.543396441102806
 40
0.5919155546927787
 40
0.6405141030697326
 40
0.6890299532793801
 40
0.7375292083919642
 40
0.786113974119362
 40
0.834661380832801
 40
0.8831542247921785
 40
0.9316998220481798
 40
0.9802859626710444
 40
0.9999999999999999
 40
0.9999999999999999
 40
0.9999999999999999
 40
0.9999999999999999
 10
46.25326950543178
 20
-7.694450443956432
 30
0.0
 10
46.16529653739058
 20
-7.730006314544863
 30
0.0
 10
45.62876514835708
 20
-7.94685520642466
 30
0.0
 10
44.64477572734587
 20
-8.13690381517952
 30
0.0
 10
43.29886026149969
 20
-8.239457827746918
 30
0.0
 10
41.95093979515513
 20
-8.094782891664556
 30
0.0
 10
40.6054254017366
 20
-7.730085344059588
 30
0.0
 10
39.26019595875307
 20
-7.149383773084617
 30
0.0
 10
37.91249241594429
 20
-6.372439291295473
 30
0.0
 10
36.56618023000728
 20
-5.419438759404325
 30
0.0
 10
35.2212055090415
 20
-4.317848240151927
 30
0.0
 10
33.8745706199183
 20
-3.10059864117677
 30
0.0
 10
32.52711763033206
 20
-1.802652006066758
 30
0.0
 10
31.18200281157128
 20
-0.4588304557395056
 30
0.0
 10
29.83628954239366
 20
0.890371137182847
 30
0.0
 10
28.4883268280426
 20
2.204641996899647
 30
0.0
 10
27.14270314117459
 20
3.450048665373368
 30
0.0
 10
25.79754374553817
 20
4.588880244146144
 30
0.0
 10
24.4499742988428
 20
5.587365789104959
 30
0.0
 10
23.1034836446426
 20
6.417779771972611
 30
0.0
 10
21.75850013039513
 20
7.060553888432888
 30
0.0
 10
20.41210688297133
 20
7.47873634603781
 30
0.0
 10
19.33072032640985
 20
7.677943583034355
 30
0.0
 10
18.69961278775838
 20
7.654491403888143
 30
0.0
 10
18.5174510723916
 20
7.64772221017594
 30
0.0
  0
SPLINE
  5
C1
330
1F
100
AcDbEntity
  8
0
  6
Continuous
 62
     1
370
    15
100
AcDbSpline
210
0.0
220
0.0
230
1.0
 70
     8
 71
     3
 72
    29
 73
    25
 74
     0
 42
0.000000001
 43
0.00000001
 40
0.0
 40
0.0
 40
0.0
 40
0.0
 40
0.015929453011567
 40
0.0644227540892315
 40
0.1129706184352934
 40
0.1615558421474795
 40
0.2100555544387852
 40
0.2585718619835884
 40
0.3071708684752529
 40
0.355690439431143
 40
0.404188592503535
 40
0.4527698111551576
 40
0.5013226342367381
 40
0.549816084529495
 40
0.5983574758639004
 40
0.6469473807753908
 40
0.6954495927775812
 40
0.7439617624825152
 40
0.7925599376334809
 40
0.8410843519964636
 40
0.8895807136471713
 40
0.9381555912444222
 40
0.9867155882714722
 40
1.0
 40
1.0
 40
1.0
 40
1.0
 10
21.31696691023651
 20
7.163159038586284
 30
0.0
 10
21.46426194278477
 20
7.22052630331716
 30
0.0
 10
22.05996046762001
 20
7.452534093279914
 30
0.0
 10
23.10343223676302
 20
7.639406482960128
 30
0.0
 10
24.44998809268953
 20
7.708761905805757
 30
0.0
 10
25.7975400555854
 20
7.534735365947237
 30
0.0
 10
27.14270412948439
 20
7.14062509180491
 30
0.0
 10
28.48832656266299
 20
6.532772911901582
 30
0.0
 10
29.83628961345142
 20
5.731378079845897
 30
0.0
 10
31.1820027924544
 20
4.756793532455418
 30
0.0
 10
32.5271176358388
 20
3.63778624685099
 30
0.0
 10
33.87457061703872
 20
2.408360059713349
 30
0.0
 10
35.2212055150444
 20
1.101689250239389
 30
0.0
 10
36.5661802088907
 20
-0.2450521934095178
 30
0.0
 10
37.91249249453551
 20
-1.591637541155514
 30
0.0
 10
39.26019566544424
 20
-2.898906064943211
 30
0.0
 10
40.60542649421274
 20
-4.132370651228245
 30
0.0
 10
41.95093571376235
 20
-5.254406133271302
 30
0.0
 10
43.29887551369535
 20
-6.232057448184414
 30
0.0
 10
44.64471891879035
 20
-7.038462555101179
 30
0.0
 10
45.98979021346616
 20
-7.655038832437789
 30
0.0
 10
47.33702745392913
 20
-8.041355244279064
 30
0.0
 10
48.35832578072439
 20
-8.214829386616813
 30
0.0
 10
48.92978490205432
 20
-8.183779328965336
 30
0.0
 10
49.0525364717843
 20
-8.177109659736757
 30
0.0
  0
SPLINE
  5
C2
330
1F
100
AcDbEntity
  8
0
  6
Continuous
 62
     1
370
    15
100
AcDbSpline
210
0.0
220
0.0
230
1.0
 70
     8
 71
     3
 72
    22
 73
    18
 74
     0
 42
0.000000001
 43
0.00000001
 40
0.0
 40
0.0
 40
0.0
 40
0.0
 40
0.1249999999999979
 40
0.1249999999999979
 40
0.2499999999999958
 40
0.2499999999999958
 40
0.3749999999999937
 40
0.3749999999999937
 40
0.4374999999999938
 40
0.4374999999999938
 40
0.4999999999999939
 40
0.4999999999999939
 40
0.6249999999999943
 40
0.6249999999999943
 40
0.7499999999999948
 40
0.7499999999999948
 40
1.0
 40
1.0
 40
1.0
 40
1.0
 10
60.79951407992552
 20
-2.453902054118541
 30
0.0
 10
60.79951407992551
 20
-2.5900230245882
 30
0.0
 10
60.79870544911498
 20
-2.725906466622956
 30
0.0
 10
60.78990735497547
 20
-2.996808774995224
 30
0.0
 10
60.78211960926225
 20
-3.131844671480976
 30
0.0
 10
60.74844030261669
 20
-3.400191493687654
 30
0.0
 10
60.7223997504752
 20
-3.534209032417243
 30
0.0
 10
60.65484521569999
 20
-3.714185685898083
 30
0.0
 10
60.62804706667058
 20
-3.769111627638403
 30
0.0
 10
60.56370152949646
 20
-3.866045919691143
 30
0.0
 10
60.52552524441084
 20
-3.908167354454811
 30
0.0
 10
60.40046353017052
 20
-4.004236130895358
 30
0.0
 10
60.29942806562992
 20
-4.030249604421525
 30
0.0
 10
60.09300644315184
 20
-4.021919730182723
 30
0.0
 10
59.98771370706081
 20
-3.990275185210881
 30
0.0
 10
59.67448847607535
 20
-3.848862317391224
 30
0.0
 10
59.47122805408042
 20
-3.695934621932654
 30
0.0
 10
59.27551407992551
 20
-3.517418827685757
 30
0.0
  0
SPLINE
  5
C3
330
1F
100
AcDbEntity
  8
0
  6
Continuous
 62
     1
370
    15
100
AcDbSpline
210
0.0
220
0.0
230
1.0
 70
     8
 71
     3
 72
    19
 73
    15
 74
     0
 42
0.000000001
 43
0.00000001
 40
0.0
 40
0.0
 40
0.0
 40
0.0
 40
0.0822397459184604
 40
0.1644995226205374
 40
0.2469120056828973
 40
0.3291643868715569
 40
0.4141933524326982
 40
0.4993774619120424
 40
0.5844593736488831
 40
0.6694688609064441
 40
0.754594022438719
 40
0.8397452694532759
 40
0.924758878843419
 40
1.0
 40
1.0
 40
1.0
 40
1.0
 10
59.27551407992551
 20
-3.51741882768577
 30
0.0
 10
58.84194967193456
 20
-3.113279424048277
 30
0.0
 10
57.97471525452182
 20
-2.304902182265077
 30
0.0
 10
56.67340496744227
 20
-1.01285753886152
 30
0.0
 10
55.36947530401783
 20
0.2906286290433746
 30
0.0
 10
54.05351850669521
 20
1.597945604761135
 30
0.0
 10
52.7228298123208
 20
2.867749618362409
 30
0.0
 10
51.37503093409415
 20
4.060047875208763
 30
0.0
 10
50.02888482643436
 20
5.12971004186175
 30
0.0
 10
48.68389146831353
 20
6.04447463513323
 30
0.0
 10
47.33706021700407
 20
6.779040899753531
 30
0.0
 10
45.98975684407726
 20
7.305825118074408
 30
0.0
 10
44.6965753716365
 20
7.624529766085032
 30
0.0
 10
43.85141667401701
 20
7.651108995262165
 30
0.0
 10
43.45460662200058
 20
7.663588196318773
 30
0.0
  0
SPLINE
  5
C4
330
1F
100
AcDbEntity
  8
0
  6
Continuous
 62
     1
370
    15
100
AcDbSpline
210
0.0
220
0.0
230
1.0
 70
     8
 71
     3
 72
    16
 73
    12
 74
     0
 42
0.000000001
 43
0.00000001
 40
0.0
 40
0.0
 40
0.0
 40
0.0
 40
0.079932495815646
 40
0.1990021679908207
 40
0.3178604850063199
 40
0.4367550260427961
 40
0.5558547833218039
 40
0.6747633375444737
 40
0.7830809708151483
 40
0.8916584152771101
 40
1.0
 40
1.0
 40
1.0
 40
1.0
 10
21.31696691023655
 20
-7.68770790092766
 30
0.0
 10
21.01544022897272
 20
-7.791909162310561
 30
0.0
 10
20.26475100469312
 20
-8.051331525030236
 30
0.0
 10
19.06443204979019
 20
-8.213717894815849
 30
0.0
 10
17.71929112384721
 20
-8.198984494273217
 30
0.0
 10
16.37367847822637
 20
-7.947934645436413
 30
0.0
 10
15.02576764122189
 20
-7.479077030786606
 30
0.0
 10
13.7195777047756
 20
-6.822461823212717
 30
0.0
 10
12.45422271884763
 20
-6.014676941819807
 30
0.0
 10
11.22551681310866
 20
-5.10381336353292
 30
0.0
 10
10.40788531612241
 20
-4.401779019954811
 30
0.0
 10
9.999514079925559
 20
-4.051143515089396
 30
0.0
  0
SPLINE
  5
C5
330
1F
100
AcDbEntity
  8
0
  6
Continuous
 62
     1
370
    15
100
AcDbSpline
210
0.0
220
0.0
230
1.0
 70
    24
 71
     3
 72
    18
 73
    14
 74
     0
 42
0.000000001
 43
0.00000001
 40
0.0
 40
0.0
 40
0.0
 40
0.0
 40
0.2500000000000001
 40
0.2500000000000001
 40
0.5000000000000002
 40
0.5000000000000002
 40
0.6250000000000002
 40
0.6250000000000002
 40
0.7500000000000001
 40
0.7500000000000001
 40
0.875
 40
0.875
 40
1.0
 40
1.0
 40
1.0
 40
1.0
 10
9.999514079925522
 20
1.374304733127104
 30
0.0
 10
9.999514079925522
 20
1.17310814059397
 30
0.0
 10
9.999514079925522
 20
0.9154155675627099
 30
0.0
 10
9.999514079925522
 20
0.2448149337376574
 30
0.0
 10
9.999514079925524
 20
-0.1704080501455474
 30
0.0
 10
9.999514079925524
 20
-0.9110263234445328
 30
0.0
 10
9.999514079925524
 20
-1.176929428858634
 30
0.0
 10
9.999514079925524
 20
-1.736035000794321
 30
0.0
 10
9.999514079925525
 20
-2.029222681575023
 30
0.0
 10
9.999514079925524
 20
-2.62346533237043
 30
0.0
 10
9.999514079925525
 20
-2.924372194720156
 30
0.0
 10
9.999514079925525
 20
-3.508119192842702
 30
0.0
 10
9.999514079925525
 20
-3.790710899216819
 30
0.0
 10
9.999514079925525
 20
-4.051143515089471
 30
0.0
  0
SPLINE
  5
C6
330
1F
100
AcDbEntity
  8
0
  6
Continuous
 62
     1
370
    15
100
AcDbSpline
210
0.0
220
0.0
230
1.0
 70
     8
 71
     3
 72
    18
 73
    14
 74
     0
 42
0.000000001
 43
0.00000001
 40
0.0
 40
0.0
 40
0.0
 40
0.0
 40
0.0868572920169445
 40
0.1739036724460982
 40
0.2607417626183889
 40
0.3560705788235355
 40
0.4515526822428327
 40
0.546870264096844
 40
0.6421588052055488
 40
0.7376167894405484
 40
0.8329951174603136
 40
0.9282698002163703
 40
1.0
 40
1.0
 40
1.0
 40
1.0
 10
9.999514079922566
 20
1.374304733121755
 30
0.0
 10
10.40788531892894
 20
0.9703344650590897
 30
0.0
 10
11.22551682154033
 20
0.1615144852532811
 30
0.0
 10
12.45422268506005
 20
-1.069021176136799
 30
0.0
 10
13.71957783634242
 20
-2.319910343793896
 30
0.0
 10
15.02576709584815
 20
-3.556257213122628
 30
0.0
 10
16.3736805094924
 20
-4.733869506577873
 30
0.0
 10
17.71928356064612
 20
-5.785069558545052
 30
0.0
 10
19.06446028873929
 20
-6.677130768975327
 30
0.0
 10
20.41206179039325
 20
-7.386084693657882
 30
0.0
 10
21.75853256830598
 20
-7.883725776655344
 30
0.0
 10
22.99219451626258
 20
-8.165417564052595
 30
0.0
 10
23.77825640803392
 20
-8.174571283829323
 30
0.0
 10
24.11587753432438
 20
-8.17850289432096
 30
0.0
  0
SPLINE
  5
C7
330
1F
100
AcDbEntity
  8
0
  6
Continuous
 62
     1
370
    15
100
AcDbSpline
210
0.0
220
0.0
230
1.0
 70
     8
 71
     3
 72
    17
 73
    13
 74
     0
 42
0.000000001
 43
0.00000001
 40
0.0
 40
0.0
 40
0.0
 40
0.0
 40
0.083198129555284
 40
0.1866218315645803
 40
0.289904993908484
 40
0.3932761491281545
 40
0.4967714705599809
 40
0.6000782982717837
 40
0.7000116858681843
 40
0.8001395909043002
 40
0.9000819637567885
 40
1.0
 40
1.0
 40
1.0
 40
1.0
 10
46.25326950543184
 20
7.16990158161506
 30
0.0
 10
46.61455006788682
 20
7.288052993640947
 30
0.0
 10
47.4249389628587
 20
7.553078578135133
 30
0.0
 10
48.68391633687254
 20
7.700714512838743
 30
0.0
 10
50.02887816063679
 20
7.654098170518679
 30
0.0
 10
51.37503272347113
 20
7.373720998696491
 30
0.0
 10
52.72282933306062
 20
6.876572866427273
 30
0.0
 10
54.05351863034627
 20
6.180901487730957
 30
0.0
 10
55.36947527128996
 20
5.31534253543245
 30
0.0
 10
56.67340497615887
 20
4.310360263286004
 30
0.0
 10
57.97471525234496
 20
3.184947821514645
 30
0.0
 10
58.84194967120899
 20
2.363051933936572
 30
0.0
 10
59.27551407992553
 20
1.952154030471111
 30
0.0
  0
SPLINE
  5
C8
330
1F
100
AcDbEntity
  8
0
  6
Continuous
 62
     1
370
    15
100
AcDbSpline
210
0.0
220
0.0
230
1.0
 70
     8
 71
     3
 72
     8
 73
     4
 74
     0
 42
0.000000001
 43
0.00000001
 40
0.0
 40
0.0
 40
0.0
 40
0.0
 40
1.0
 40
1.0
 40
1.0
 40
1.0
 10
59.27551407992553
 20
1.952154030471117
 30
0.0
 10
59.31046522299635
 20
1.918587495909952
 30
0.0
 10
59.34497343156502
 20
1.884499574358254
 30
0.0
 10
59.37908556326028
 20
1.849938360669019
 30
0.0
  0
SPLINE
  5
C9
330
1F
100
AcDbEntity
  8
0
  6
Continuous
 62
     1
370
    15
100
AcDbSpline
210
0.0
220
0.0
230
1.0
 70
     8
 71
     3
 72
    18
 73
    14
 74
     0
 42
0.000000001
 43
0.00000001
 40
0.0
 40
0.0
 40
0.0
 40
0.0
 40
0.2500000000000014
 40
0.2500000000000014
 40
0.5000000000000029
 40
0.5000000000000029
 40
0.6250000000000021
 40
0.6250000000000021
 40
0.7500000000000014
 40
0.7500000000000014
 40
0.8750000000000007
 40
0.8750000000000007
 40
1.0
 40
1.0
 40
1.0
 40
1.0
 10
59.37908556326002
 20
1.849938360668961
 30
0.0
 10
59.35217032388098
 20
1.727834166358636
 30
0.0
 10
59.31285383453707
 20
1.600747853953528
 30
0.0
 10
59.20223237137708
 20
1.33372407238367
 30
0.0
 10
59.13035515196552
 20
1.192545651865048
 30
0.0
 10
58.98979702572306
 20
0.9709591805739596
 30
0.0
 10
58.9381558125195
 20
0.8965459850366758
 30
0.0
 10
58.82391505090074
 20
0.7464585605855543
 30
0.0
 10
58.76056465940481
 20
0.6700041866182221
 30
0.0
 10
58.6244110493551
 20
0.5196517866307543
 30
0.0
 10
58.5521199973016
 20
0.4461818099504343
 30
0.0
 10
58.39874572615864
 20
0.3028015435919053
 30
0.0
 10
58.31663324854523
 20
0.2320984812488553
 30
0.0
 10
58.23244601627675
 20
0.1654762295032706
 30
0.0
  0
SPLINE
  5
CA
330
1F
100
AcDbEntity
  8
0
  6
Continuous
 62
     1
370
    15
100
AcDbSpline
210
0.0
220
0.0
230
1.0
 70
     8
 71
     3
 72
     8
 73
     4
 74
     0
 42
0.000000001
 43
0.00000001
 40
0.0
 40
0.0
 40
0.0
 40
0.0
 40
1.0
 40
1.0
 40
1.0
 40
1.0
 10
60.79951407992551
 20
-1.628634707619265
 30
0.0
 10
59.94395741883557
 20
-1.0377104275537
 30
0.0
 10
59.08663284636155
 20
-0.4385844196659278
 30
0.0
 10
58.23244601627674
 20
0.1654762295032783
 30
0.0
  0
LINE
  5
CB
330
1F
100
AcDbEntity
  8
0
  6
Continuous
 62
     1
370
    15
100
AcDbLine
 10
60.79951407992552
 20
-2.453902054148482
 30
0.0
 11
60.79951407992552
 21
-1.628634707619264
 31
0.0
  0
SPLINE
  5
CC
330
1F
100
AcDbEntity
  8
0
  6
Continuous
 62
     1
370
    15
100
AcDbSpline
210
0.0
220
0.0
230
1.0
 70
     8
 71
     3
 72
    29
 73
    25
 74
     0
 42
0.000000001
 43
0.00000001
 40
0.0
 40
0.0
 40
0.0
 40
0.0
 40
0.0179347777337155
 40
0.0664403919420559
 40
0.1150345095326668
 40
0.16357032741049
 40
0.2120648300279429
 40
0.2606253201792448
 40
0.3092006910518592
 40
0.357697545180605
 40
0.4062224523064992
 40
0.454821120969414
 40
0.5033337833129157
 40
0.5518364878525539
 40
0.6004268861920093
 40
0.648968770461727
 40
0.6974627132029573
 40
0.7460160293359384
 40
0.7945977413273175
 40
0.8430963868959391
 40
0.8916164505655567
 40
0.9402159505776121
 40
0.9887327508030026
 40
1.0
 40
1.0
 40
1.0
 40
1.0
 10
54.5653824550371
 20
-7.687674014303961
 30
0.0
 10
54.39962557870487
 20
-7.750971470698235
 30
0.0
 10
53.78556991578462
 20
-7.985460454850227
 30
0.0
 10
52.72287497401592
 20
-8.171940531105777
 30
0.0
 10
51.37501896654595
 20
-8.230500536096539
 30
0.0
 10
50.02888755546943
 20
-8.047222189628647
 30
0.0
 10
48.68389250016358
 20
-7.643766304058301
 30
0.0
 10
47.33705334501855
 20
-7.027872875039562
 30
0.0
 10
45.98978328771312
 20
-6.218472470658186
 30
0.0
 10
44.64472077437556
 20
-5.237053089395366
 30
0.0
 10
43.29887501551546
 20
-4.112982760149849
 30
0.0
 10
41.95093584701498
 20
-2.880057773990309
 30
0.0
 10
40.60542645875767
 20
-1.570173634720015
 30
0.0
 10
39.26019567416791
 20
-0.2225758573542506
 30
0.0
 10
37.9124924951717
 20
1.121970524347994
 30
0.0
 10
36.5661801976446
 20
2.428019014650884
 30
0.0
 10
35.22120555936886
 20
3.657440176545633
 30
0.0
 10
33.87457045070632
 20
4.773417051609063
 30
0.0
 10
32.52711825670241
 20
5.744825333438532
 30
0.0
 10
31.18200047934396
 20
6.543646982387337
 30
0.0
 10
29.83629825680936
 20
7.151783026534015
 30
0.0
 10
28.4882942700036
 20
7.527806658513279
 30
0.0
 10
27.48685009534162
 20
7.693950903645978
 30
0.0
 10
26.93435752243669
 20
7.661095545635663
 30
0.0
 10
26.83023156311218
 20
7.654903434031725
 30
0.0
  0
SPLINE
  5
CD
330
1F
100
AcDbEntity
  8
0
  6
Continuous
 62
     1
370
    15
100
AcDbSpline
210
0.0
220
0.0
230
1.0
 70
     8
 71
     3
 72
    29
 73
    25
 74
     0
 42
0.000000001
 43
0.00000001
 40
0.0
 40
0.0
 40
0.0
 40
0.0
 40
0.0074829264225466
 40
0.0560014694650459
 40
0.1044985950777965
 40
0.1530787845099885
 40
0.2016305789737138
 40
0.2501230019064603
 40
0.2986633648651985
 40
0.347252240373235
 40
0.3957534248297935
 40
0.4442645667781361
 40
0.4928617123504385
 40
0.5413850986974202
 40
0.5898804329264388
 40
0.6384542814385978
 40
0.6870132496958088
 40
0.735506232487231
 40
0.784040529244197
 40
0.8326331238868272
 40
0.8811372179208976
 40
0.9280574315842316
 40
0.9750689740822245
 40
1.0
 40
1.0
 40
1.0
 40
1.0
 10
29.62900101748504
 20
7.172810026700101
 30
0.0
 10
29.69823003211522
 20
7.201081049379529
 30
0.0
 10
30.2163330215052
 20
7.412658542451924
 30
0.0
 10
31.18197290705145
 20
7.602828872243698
 30
0.0
 10
32.52712565754738
 20
7.716061486901077
 30
0.0
 10
33.87456846743658
 20
7.58051094409038
 30
0.0
 10
35.22120608991289
 20
7.225314034408936
 30
0.0
 10
36.56618005540101
 20
6.653383835695305
 30
0.0
 10
37.91249253336894
 20
5.883537715449157
 30
0.0
 10
39.26019566386505
 20
4.938160785343146
 30
0.0
 10
40.60542646183058
 20
3.842179287170828
 30
0.0
 10
41.95093584501715
 20
2.62833365788597
 30
0.0
 10
43.29887502043393
 20
1.333457920433311
 30
0.0
 10
44.6447207567357
 20
-0.008918237110856
 30
0.0
 10
45.98978335336952
 20
-1.358927996758744
 30
0.0
 10
47.33705309961907
 20
-2.675939366722723
 30
0.0
 10
48.68389341510778
 20
-3.924131415170355
 30
0.0
 10
50.0288841447704
 20
-5.068131317351868
 30
0.0
 10
51.37503171457291
 20
-6.073870537527149
 30
0.0
 10
52.7228273719796
 20
-6.911198962482362
 30
0.0
 10
54.05352734483323
 20
-7.554794065866763
 30
0.0
 10
55.36944352003341
 20
-7.978734767444654
 30
0.0
 10
56.46990364595739
 20
-8.19056468351992
 30
0.0
 10
57.13468793583181
 20
-8.177673132719011
 30
0.0
 10
57.36506272958128
 20
-8.17320568605683
 30
0.0
  0
SPLINE
  5
CE
330
1F
100
AcDbEntity
  8
0
  6
Continuous
 62
     1
370
    15
100
AcDbSpline
210
0.0
220
0.0
230
1.0
 70
     8
 71
     3
 72
    22
 73
    18
 74
     0
 42
0.000000001
 43
0.00000001
 40
0.0
 40
0.0
 40
0.0
 40
0.0
 40
0.1249999999999983
 40
0.1249999999999983
 40
0.2499999999999968
 40
0.2499999999999968
 40
0.3749999999999953
 40
0.3749999999999953
 40
0.4374999999999956
 40
0.4374999999999956
 40
0.4999999999999959
 40
0.4999999999999959
 40
0.6249999999999967
 40
0.6249999999999967
 40
0.7499999999999976
 40
0.7499999999999976
 40
1.0
 40
1.0
 40
1.0
 40
1.0
 10
60.79951407992552
 20
3.86180763363958
 30
0.0
 10
60.79951407992554
 20
3.779412721730572
 30
0.0
 10
60.7987054491154
 20
3.703374702865528
 30
0.0
 10
60.78990735497668
 20
3.566490677929308
 30
0.0
 10
60.78211960926406
 20
3.50545844886614
 30
0.0
 10
60.74844030262022
 20
3.406622035985774
 30
0.0
 10
60.72239975047977
 20
3.368843755274753
 30
0.0
 10
60.65484521570662
 20
3.349449429267186
 30
0.0
 10
60.62804706667757
 20
3.34942368603005
 30
0.0
 10
60.56370152950463
 20
3.364365783885506
 30
0.0
 10
60.52552524441937
 20
3.379821534595194
 30
0.0
 10
60.40046353017966
 20
3.446447122863329
 30
0.0
 10
60.29942806563894
 20
3.519606612552067
 30
0.0
 10
60.09300644315917
 20
3.683680238344007
 30
0.0
 10
59.98771370706732
 20
3.77372775308843
 30
0.0
 10
59.67448847607887
 20
4.043617883443022
 30
0.0
 10
59.47122805408214
 20
4.220826619866114
 30
0.0
 10
59.27551407992551
 20
4.379599590604092
 30
0.0
  0
SPLINE
  5
CF
330
1F
100
AcDbEntity
  8
0
  6
Continuous
 62
     1
370
    15
100
AcDbSpline
210
0.0
220
0.0
230
1.0
 70
     8
 71
     3
 72
    13
 73
     9
 74
     0
 42
0.000000001
 43
0.00000001
 40
0.0
 40
0.0
 40
0.0
 40
0.0
 40
0.1732551171835137
 40
0.3465524333758411
 40
0.5201714572540324
 40
0.6934531932602895
 40
0.8725843813222616
 40
1.0
 40
1.0
 40
1.0
 40
1.0
 10
59.27551407992551
 20
4.37959959060409
 30
0.0
 10
58.84194964983594
 20
4.719536189191436
 30
0.0
 10
57.97471518822057
 20
5.39949218327137
 30
0.0
 10
56.67340523292783
 20
6.234281779174048
 30
0.0
 10
55.36947430720961
 20
6.904340667531909
 30
0.0
 10
54.05352227279536
 20
7.378325238835285
 30
0.0
 10
52.85302199695079
 20
7.645810844469464
 30
0.0
 10
52.08503406580789
 20
7.649980444351761
 30
0.0
 10
51.76582128905666
 20
7.651713530904813
 30
0.0
  0
SPLINE
  5
D0
330
1F
100
AcDbEntity
  8
0
  6
Continuous
 62
     1
370
    15
100
AcDbSpline
210
0.0
220
0.0
230
1.0
 70
     8
 71
     3
 72
    22
 73
    18
 74
     0
 42
0.000000001
 43
0.00000001
 40
0.0
 40
0.0
 40
0.0
 40
0.0
 40
0.0580947007437211
 40
0.1266457695929014
 40
0.1951733901950359
 40
0.2638218340748847
 40
0.3324174910752505
 40
0.4009360529593998
 40
0.469529153264565
 40
0.5381795398199188
 40
0.6067080681963837
 40
0.6752574817655027
 40
0.743925214081284
 40
0.8124827070431776
 40
0.874933936302069
 40
0.9375349613770355
 40
1.0
 40
1.0
 40
1.0
 40
1.0
 10
29.62900101748504
 20
-7.697358889041472
 30
0.0
 10
29.24857175381197
 20
-7.81943929507929
 30
0.0
 10
28.41924039902839
 20
-8.085573155430477
 30
0.0
 10
27.14268472248544
 20
-8.228073829736504
 30
0.0
 10
25.79754850257751
 20
-8.171334178933122
 30
0.0
 10
24.44997372480566
 20
-7.882035645558318
 30
0.0
 10
23.10348118780366
 20
-7.375579780244203
 30
0.0
 10
21.75851052253689
 20
-6.664073713908707
 30
0.0
 10
20.4120677060928
 20
-5.769289820424952
 30
0.0
 10
19.06445870622652
 20
-4.717326490977116
 30
0.0
 10
17.71928398448845
 20
-3.536042931238391
 30
0.0
 10
16.37368039566009
 20
-2.26080438087258
 30
0.0
 10
15.02576712641094
 20
-0.9302987051480596
 30
0.0
 10
13.71957782896971
 20
0.3818202600415767
 30
0.0
 10
12.45422268695445
 20
1.635115181319685
 30
0.0
 10
11.2255168210697
 20
2.807923344650748
 30
0.0
 10
10.40788531877416
 20
3.52535359214187
 30
0.0
 10
9.999514079925559
 20
3.883678678850081
 30
0.0
  0
SPLINE
  5
D1
330
1F
100
AcDbEntity
  8
0
  6
Continuous
 62
     1
370
    15
100
AcDbSpline
210
0.0
220
0.0
230
1.0
 70
    24
 71
     3
 72
    15
 73
    11
 74
     0
 42
0.000000001
 43
0.00000001
 40
0.0
 40
0.0
 40
0.0
 40
0.0
 40
0.1560522229621485
 40
0.2774263375825469
 40
0.4023203097494039
 40
0.5236944243698025
 40
0.6485883965366585
 40
0.7699625111570656
 40
0.8948564833239122
 40
1.0
 40
1.0
 40
1.0
 40
1.0
 10
9.999514079925522
 20
7.282391305110801
 30
0.0
 10
9.999514079925522
 20
7.004475771859543
 30
0.0
 10
9.999514079925524
 20
6.510403421695722
 30
0.0
 10
9.999514079925524
 20
5.848713980715651
 30
0.0
 10
9.999514079925525
 20
5.298462926140858
 30
0.0
 10
9.999514079925525
 20
4.816068927545182
 30
0.0
 10
9.999514079925527
 20
4.422654633830414
 30
0.0
 10
9.999514079925527
 20
4.12514679767675
 30
0.0
 10
9.999514079925527
 20
3.935813438468624
 30
0.0
 10
9.999514079925527
 20
3.893844092373842
 30
0.0
 10
9.999514079925529
 20
3.874661111968355
 30
0.0
  0
SPLINE
  5
D2
330
1F
100
AcDbEntity
  8
0
  6
Continuous
 62
     1
370
    15
100
AcDbSpline
210
0.0
220
0.0
230
1.0
 70
     8
 71
     3
 72
    24
 73
    20
 74
     0
 42
0.000000001
 43
0.00000001
 40
0.0
 40
0.0
 40
0.0
 40
0.0
 40
0.0546690641286415
 40
0.1094571428649573
 40
0.1641141211128121
 40
0.2241152683441804
 40
0.2842128964621375
 40
0.344206972652625
 40
0.4041827702354026
 40
0.4642652174376016
 40
0.5242975280233142
 40
0.5842646029858944
 40
0.6442991511774255
 40
0.7043798981605244
 40
0.7643549012641154
 40
0.8243504261467646
 40
0.8844482169885367
 40
0.9444477774227555
 40
1.0
 40
1.0
 40
1.0
 40
1.0
 10
9.999514079922564
 20
7.282391305098419
 30
0.0
 10
10.40788531877225
 20
7.137910941186166
 30
0.0
 10
11.22551682106995
 20
6.848635679463897
 30
0.0
 10
12.45422268694449
 20
6.198502602792891
 30
0.0
 10
13.71957782900428
 20
5.379830775044903
 30
0.0
 10
15.02576712626625
 20
4.381080137554114
 30
0.0
 10
16.37368039619899
 20
3.221349135122879
 30
0.0
 10
17.71928398248194
 20
1.959676428765573
 30
0.0
 10
19.0644587137183
 20
0.6340405680842204
 30
0.0
 10
20.41206767808726
 20
-0.7154994874641573
 30
0.0
 10
21.75851062690383
 20
-2.053058528684629
 30
0.0
 10
23.10348079857792
 20
-3.339936633136238
 30
0.0
 10
24.44997517976386
 20
-4.537672066158204
 30
0.0
 10
25.79754307217937
 20
-5.612136699709876
 30
0.0
 10
27.14270495165852
 20
-6.534081205850997
 30
0.0
 10
28.48832025088888
 20
-7.277050937164132
 30
0.0
 10
29.83631406771843
 20
-7.81271139049609
 30
0.0
 10
31.14887614517735
 20
-8.143642358637635
 30
0.0
 10
32.012420907489
 20
-8.176300002033706
 30
0.0
 10
32.4275753048607
 20
-8.192000362750829
 30
0.0
  0
SPLINE
  5
D3
330
1F
100
AcDbEntity
  8
0
  6
Continuous
 62
     1
370
    15
100
AcDbSpline
210
0.0
220
0.0
230
1.0
 70
     8
 71
     3
 72
    10
 73
     6
 74
     0
 42
0.000000001
 43
0.00000001
 40
0.0
 40
0.0
 40
0.0
 40
0.0
 40
0.1706715436589923
 40
0.4474787291674699
 40
0.6276298034652282
 40
0.6276298034652282
 40
0.6276298034652282
 40
0.6276298034652282
 10
54.5653824550371
 20
7.163125151962591
 30
0.0
 10
54.83320706937865
 20
7.257753436439001
 30
0.0
 10
55.53540859340532
 20
7.505856568179621
 30
0.0
 10
56.5222618377513
 20
7.650545581093239
 30
0.0
 10
57.23952246551666
 20
7.680363292709892
 30
0.0
 10
57.52224848366602
 20
7.675225568829314
 30
0.0
  0
SPLINE
  5
D5
330
1F
100
AcDbEntity
  8
0
  6
Continuous
 62
     1
370
    15
100
AcDbSpline
210
0.0
220
0.0
230
1.0
 70
     8
 71
     3
 72
    18
 73
    14
 74
     0
 42
0.000000001
 43
0.00000001
 40
0.0772930179358776
 40
0.0772930179358776
 40
0.0772930179358776
 40
0.0772930179358776
 40
0.25
 40
0.25
 40
0.5
 40
0.5
 40
0.625
 40
0.625
 40
0.75
 40
0.75
 40
0.875
 40
0.875
 40
1.0
 40
1.0
 40
1.0
 40
1.0
 10
59.35045885019086
 20
7.222159021086053
 30
0.0
 10
59.32633035540304
 20
7.078268911551723
 30
0.0
 10
59.29575330106481
 20
6.937018252845582
 30
0.0
 10
59.20223237137705
 20
6.598948704373988
 30
0.0
 10
59.13035515196552
 20
6.403764197954636
 30
0.0
 10
58.98979702572306
 20
6.131059452589649
 30
0.0
 10
58.93815581251948
 20
6.04486326833593
 30
0.0
 10
58.82391505090076
 20
5.883239047579298
 30
0.0
 10
58.76056465940486
 20
5.807161339727589
 30
0.0
 10
58.62441104935513
 20
5.67158296161283
 30
0.0
 10
58.55211999730159
 20
5.612317237042272
 30
0.0
 10
58.39874572615861
 20
5.5115682584074
 30
0.0
 10
58.31663324854523
 20
5.469747738637878
 30
0.0
 10
58.23244601627675
 20
5.438605092201596
 30
0.0
  0
SPLINE
  5
D6
330
1F
100
AcDbEntity
  8
0
  6
Continuous
 62
     1
370
    15
100
AcDbSpline
210
0.0
220
0.0
230
1.0
 70
     8
 71
     3
 72
     8
 73
     4
 74
     0
 42
0.000000001
 43
0.00000001
 40
0.0
 40
0.0
 40
0.0
 40
0.0
 40
1.0
 40
1.0
 40
1.0
 40
1.0
 10
60.79951407992551
 20
4.440230772169985
 30
0.0
 10
59.94395741883557
 20
4.838949215273454
 30
0.0
 10
59.08663284636155
 20
5.172882426074139
 30
0.0
 10
58.23244601627674
 20
5.438605092201598
 30
0.0
  0
LINE
  5
D7
330
1F
100
AcDbEntity
  8
0
  6
Continuous
 62
     1
370
    15
100
AcDbLine
 10
60.79951407992552
 20
3.861807633639363
 30
0.0
 11
60.79951407992552
 21
4.440230772169988
 31
0.0
  0
SPLINE
  5
D9
330
1F
100
AcDbEntity
  8
0
  6
Continuous
 62
     1
370
    15
100
AcDbSpline
210
0.0
220
0.0
230
1.0
 70
     8
 71
     3
 72
    26
 73
    22
 74
     0
 42
0.000000001
 43
0.00000001
 40
0.0257044919271458
 40
0.0257044919271458
 40
0.0257044919271458
 40
0.0257044919271458
 40
0.0539159957203301
 40
0.1078451235294294
 40
0.1618743649195655
 40
0.2157986442643934
 40
0.2715432394367079
 40
0.3273895462417184
 40
0.3831688526810795
 40
0.4389006779679725
 40
0.4947083387724827
 40
0.550533101098105
 40
0.6062676288359866
 40
0.6620343962021037
 40
0.7178859332817396
 40
0.7736386284533573
 40
0.8293798797178267
 40
0.8852219122104016
 40
0.941008190390371
 40
0.9967393722450782
 40
1.0
 40
1.0
 40
1.0
 40
1.0
 10
58.65541480017019
 20
-8.062662180284553
 30
0.0
 10
58.42856045880963
 20
-8.023825281381914
 30
0.0
 10
57.76807648382395
 20
-7.89404217162306
 30
0.0
 10
56.67340496810865
 20
-7.509760669746664
 30
0.0
 10
55.36947530151586
 20
-6.87468390059128
 30
0.0
 10
54.05351851614805
 20
-6.047575378572726
 30
0.0
 10
52.72282977568249
 20
-5.050272704902063
 30
0.0
 10
51.37503107088785
 20
-3.905923227529447
 30
0.0
 10
50.02888431684958
 20
-2.655904992188371
 30
0.0
 10
48.68389336945727
 20
-1.336599652399232
 30
0.0
 10
47.33705310995261
 20
0.0124384044633415
 30
0.0
 10
45.98978335773229
 20
1.353223711097481
 30
0.0
 10
44.64472072901611
 20
2.649144404648057
 30
0.0
 10
43.29887512710378
 20
3.861115134441
 30
0.0
 10
41.95093544572376
 20
4.953200305485725
 30
0.0
 10
40.60542794909287
 20
5.897719747970928
 30
0.0
 10
39.26019010998827
 20
6.663454118463988
 30
0.0
 10
37.9125132939181
 20
7.236377446463623
 30
0.0
 10
36.56610269898157
 20
7.569321526650767
 30
0.0
 10
35.64371192331316
 20
7.708489892325827
 30
0.0
 10
35.16907154321353
 20
7.671025534060449
 30
0.0
 10
35.14283695900258
 20
7.66895478343949
 30
0.0
  0
SPLINE
  5
DA
330
1F
100
AcDbEntity
  8
0
  6
Continuous
 62
     1
370
    15
100
AcDbSpline
210
0.0
220
0.0
230
1.0
 70
     8
 71
     3
 72
    10
 73
     6
 74
     0
 42
0.000000001
 43
0.00000001
 40
0.0
 40
0.0
 40
0.0
 40
0.0
 40
0.1832721583087801
 40
0.5920801001707992
 40
1.0
 40
1.0
 40
1.0
 40
1.0
 10
13.00524726530473
 20
-7.689324797511317
 30
0.0
 10
12.82176879503152
 20
-7.757485351950877
 30
0.0
 10
12.22902218222893
 20
-7.977685235406595
 30
0.0
 10
11.22547868597071
 20
-8.16831720352715
 30
0.0
 10
10.40787261629228
 20
-8.18751044096
 30
0.0
 10
9.999514079925559
 20
-8.19709662511015
 30
0.0
  0
SPLINE
  5
DB
330
1F
100
AcDbEntity
  8
0
  6
Continuous
 62
     1
370
    15
100
AcDbSpline
210
0.0
220
0.0
230
1.0
 70
    24
 71
     3
 72
    12
 73
     8
 74
     0
 42
0.000000001
 43
0.00000001
 40
0.0
 40
0.0
 40
0.0
 40
0.0
 40
0.1159829631319568
 40
0.346914269639758
 40
0.5845425996806479
 40
0.7899405336934748
 40
1.0
 40
1.0
 40
1.0
 40
1.0
 10
9.999514079925527
 20
-6.241615249925749
 30
0.0
 10
9.999514079925527
 20
-6.284118535912662
 30
0.0
 10
9.999514079925527
 20
-6.41124924560719
 30
0.0
 10
9.999514079925529
 20
-6.734446232682823
 30
0.0
 10
9.999514079925527
 20
-7.173139381415579
 30
0.0
 10
9.999514079925529
 20
-7.666578088898067
 30
0.0
 10
9.999514079925527
 20
-8.01893925393724
 30
0.0
 10
9.999514079925527
 20
-8.197096625110264
 30
0.0
  0
SPLINE
  5
DC
330
1F
100
AcDbEntity
  8
0
  6
Continuous
 62
     1
370
    15
100
AcDbSpline
210
0.0
220
0.0
230
1.0
 70
     8
 71
     3
 72
    12
 73
     8
 74
     0
 42
0.000000001
 43
0.00000001
 40
0.0
 40
0.0
 40
0.0
 40
0.0
 40
0.211225578978656
 40
0.4229109962555085
 40
0.6340898788583015
 40
0.8659170971459011
 40
1.0
 40
1.0
 40
1.0
 40
1.0
 10
9.999514079922566
 20
-6.17036100314736
 30
0.0
 10
10.40788514803221
 20
-6.429725408426447
 30
0.0
 10
11.2255163084781
 20
-6.949018855556163
 30
0.0
 10
12.45422474047064
 20
-7.531307611182257
 30
0.0
 10
13.71956983244046
 20
-7.956137844449398
 30
0.0
 10
14.83598633270067
 20
-8.185055392075137
 30
0.0
 10
15.54454081649739
 20
-8.175428378722481
 30
0.0
 10
15.80418119408881
 20
-8.17190068757223
 30
0.0
  0
SPLINE
  5
DD
330
1F
100
AcDbEntity
  8
0
  6
Continuous
 62
     1
370
    15
100
AcDbSpline
210
0.0
220
0.0
230
1.0
 70
     8
 71
     3
 72
    23
 73
    19
 74
     0
 42
0.000000001
 43
0.00000001
 40
0.0
 40
0.0
 40
0.0
 40
0.0
 40
0.0618300430539248
 40
0.1248828956462732
 40
0.187948693247464
 40
0.2511262978876931
 40
0.3142080135385383
 40
0.3772532606767347
 40
0.4404005785081878
 40
0.5035285516054392
 40
0.5665707418111131
 40
0.6296666412902537
 40
0.6928383295987274
 40
0.755894964720596
 40
0.8168925124890537
 40
0.8780087902145978
 40
0.9390118224222461
 40
1.0
 40
1.0
 40
1.0
 40
1.0
 10
37.94079809855776
 20
7.184547211336558
 30
0.0
 10
38.38084507121011
 20
7.317424176168233
 30
0.0
 10
39.26964180255435
 20
7.585806006638498
 30
0.0
 10
40.60544116712314
 20
7.709547840212227
 30
0.0
 10
41.95093189648124
 20
7.621250153458494
 30
0.0
 10
43.29887607723917
 20
7.302835077659496
 30
0.0
 10
44.64472047476879
 20
6.768107494536882
 30
0.0
 10
45.98978342596467
 20
6.030890876638232
 30
0.0
 10
47.33705309166277
 20
5.114104350999792
 30
0.0
 10
48.68389337434982
 20
4.042878007465812
 30
0.0
 10
50.02888431553816
 20
2.847127124770915
 30
0.0
 10
51.37503107123992
 20
1.562560437427175
 30
0.0
 10
52.72282977558819
 20
0.2270220839722601
 30
0.0
 10
54.05351851617235
 20
-1.109581866032632
 30
0.0
 10
55.36947530150943
 20
-2.408381502667289
 30
0.0
 10
56.67340496811035
 20
-3.629967424391051
 30
0.0
 10
57.97471525435496
 20
-4.773978123977028
 30
0.0
 10
58.84194967187894
 20
-5.428824992575425
 30
0.0
 10
59.27551407992553
 20
-5.756208557166439
 30
0.0
  0
SPLINE
  5
DE
330
1F
100
AcDbEntity
  8
0
  6
Continuous
 62
     1
370
    15
100
AcDbSpline
210
0.0
220
0.0
230
1.0
 70
     8
 71
     3
 72
     8
 73
     4
 74
     0
 42
0.000000001
 43
0.00000001
 40
0.0
 40
0.0
 40
0.0
 40
0.0
 40
1.0
 40
1.0
 40
1.0
 40
1.0
 10
59.27551407992553
 20
-5.756208557166433
 30
0.0
 10
59.31046522299633
 20
-5.78143702429783
 30
0.0
 10
59.34497343156502
 20
-5.80576710160788
 30
0.0
 10
59.37908556326028
 20
-5.829226678933972
 30
0.0
  0
SPLINE
  5
DF
330
1F
100
AcDbEntity
  8
0
  6
Continuous
 62
     1
370
    15
100
AcDbSpline
210
0.0
220
0.0
230
1.0
 70
     8
 71
     3
 72
    10
 73
     6
 74
     0
 42
0.000000001
 43
0.00000001
 40
0.0
 40
0.0
 40
0.0
 40
0.0
 40
0.2022360292799804
 40
0.90385426802509
 40
1.0
 40
1.0
 40
1.0
 40
1.0
 10
58.83789925300639
 20
-5.416724132832769
 30
0.0
 10
58.80790666121612
 20
-5.41049427556482
 30
0.0
 10
58.67386065469942
 20
-5.382651150376539
 30
0.0
 10
58.44159548432036
 20
-5.450057196631018
 30
0.0
 10
58.25494138536894
 20
-5.526223772754723
 30
0.0
 10
58.23244601627674
 20
-5.535403293869003
 30
0.0
  0
SPLINE
  5
E0
330
1F
100
AcDbEntity
  8
0
  6
Continuous
 62
     1
370
    15
100
AcDbSpline
210
0.0
220
0.0
230
1.0
 70
     8
 71
     3
 72
     8
 73
     4
 74
     0
 42
0.000000001
 43
0.00000001
 40
0.0844707932547964
 40
0.0844707932547964
 40
0.0844707932547964
 40
0.0844707932547964
 40
1.0
 40
1.0
 40
1.0
 40
1.0
 10
60.58267054336569
 20
-6.280870122208857
 30
0.0
 10
59.79914203418821
 20
-6.093610068190863
 30
0.0
 10
59.01447900723649
 20
-5.845161599094987
 30
0.0
 10
58.23244601627674
 20
-5.535403293869005
 30
0.0
  0
SPLINE
  5
E2
330
1F
100
AcDbEntity
  8
0
  6
Continuous
 62
     1
370
    15
100
AcDbSpline
210
0.0
220
0.0
230
1.0
 70
     8
 71
     3
 72
    29
 73
    25
 74
     0
 42
0.000000001
 43
0.00000001
 40
0.0
 40
0.0
 40
0.0
 40
0.0
 40
0.0010283016951037
 40
0.049569018977442
 40
0.0980617958838474
 40
0.1466139447546176
 40
0.1951944888011259
 40
0.2436919684218626
 40
0.2922108656286863
 40
0.3408091972682319
 40
0.3893248311092845
 40
0.4378238699272836
 40
0.4864084189787403
 40
0.53495560918285
 40
0.5834482368762347
 40
0.6319936176309766
 40
0.6805795415717686
 40
0.7290792228487075
 40
0.7775936851987431
 40
0.8261918852509905
 40
0.8747120656280108
 40
0.9189106612518663
 40
0.9632152718377878
 40
1.0
 40
1.0
 40
1.0
 40
1.0
 10
37.9407980985577
 20
-7.709096073677931
 30
0.0
 10
37.93128608579605
 20
-7.713100290365603
 30
0.0
 10
37.472761954852
 20
-7.906122526861018
 30
0.0
 10
36.56618929044592
 20
-8.09415509866538
 30
0.0
 10
35.22120307906643
 20
-8.24172555104053
 30
0.0
 10
33.87457127175586
 20
-8.135229630871292
 30
0.0
 10
32.52711745622433
 20
-7.809825472273416
 30
0.0
 10
31.18200285724516
 20
-7.265514239424526
 30
0.0
 10
29.83628953373601
 20
-6.520558976029594
 30
0.0
 10
28.48832681688416
 20
-5.597198054864693
 30
0.0
 10
27.14270319433437
 20
-4.519439010271909
 30
0.0
 10
25.79754354394737
 20
-3.319147576114289
 30
0.0
 10
24.44997505327014
 20
-2.032828323403811
 30
0.0
 10
23.10348083276608
 20
-0.6948268974210298
 30
0.0
 10
21.75851061643543
 20
0.6563939166996947
 30
0.0
 10
20.41206768576087
 20
1.98047948919912
 30
0.0
 10
19.0644586935059
 20
3.239293362719595
 30
0.0
 10
17.71928405552405
 20
4.399274962961769
 30
0.0
 10
16.37368012389956
 20
5.425251338756754
 30
0.0
 10
15.02576814359493
 20
6.286316963185466
 30
0.0
 10
13.71957418196962
 20
6.942343627022195
 30
0.0
 10
12.45423496849732
 20
7.386461278681366
 30
0.0
 10
11.29420556552865
 20
7.638470240682942
 30
0.0
 10
10.54512498006504
 20
7.654657470177622
 30
0.0
 10
10.2053179704968
 20
7.662000517313703
 30
0.0
  0
SPLINE
  5
E3
330
1F
100
AcDbEntity
  8
0
  6
Continuous
 62
     1
370
    15
100
AcDbSpline
210
0.0
220
0.0
230
1.0
 70
     8
 71
     3
 72
    29
 73
    25
 74
     0
 42
0.000000001
 43
0.00000001
 40
0.0
 40
0.0
 40
0.0
 40
0.0
 40
0.0243373945579296
 40
0.0728594519375421
 40
0.1214595320105717
 40
0.1699758711419975
 40
0.2184774286285209
 40
0.2670652321151936
 40
0.3156124908474037
 40
0.3641069944775052
 40
0.4126560627290816
 40
0.4612424912732317
 40
0.5097434062759617
 40
0.5582609169437238
 40
0.606861128609142
 40
0.6553819027689181
 40
0.7038812585140684
 40
0.7524636818983362
 40
0.8010177090083994
 40
0.8495123618572938
 40
0.8980549569366939
 40
0.9466460667962342
 40
0.9951494815718376
 40
0.9999999999999999
 40
0.9999999999999999
 40
0.9999999999999999
 40
0.9999999999999999
 10
13.00524726530467
 20
7.164775935169941
 30
0.0
 10
13.23010817867303
 20
7.245764698771597
 30
0.0
 10
13.90327978178763
 20
7.48822273654841
 30
0.0
 10
15.02572745220023
 20
7.669152241600651
 30
0.0
 10
16.3736910136696
 20
7.694548563968303
 30
0.0
 10
17.71928114090126
 20
7.481958207069909
 30
0.0
 10
19.06445947594588
 20
7.049348147497486
 30
0.0
 10
20.41206747613657
 20
6.407017932187519
 30
0.0
 10
21.75851067251643
 20
5.573105584105711
 30
0.0
 10
23.10348081771915
 20
4.571051076091249
 30
0.0
 10
24.44997505733928
 20
3.430851416860089
 30
0.0
 10
25.79754354274044
 20
2.185603682177148
 30
0.0
 10
27.14270319509859
 20
0.8684052223933996
 30
0.0
 10
28.48832681503129
 20
-0.4810802925215229
 30
0.0
 10
29.83628954039003
 20
-1.822342244448026
 30
0.0
 10
31.18200283253517
 20
-3.120719480904925
 30
0.0
 10
32.52711754845011
 20
-4.337237605186533
 30
0.0
 10
33.87457092699231
 20
-5.435242212619658
 30
0.0
 10
35.22120436416688
 20
-6.385944072479086
 30
0.0
 10
36.56618449883962
 20
-7.159716527608805
 30
0.0
 10
37.9124764594853
 20
-7.741387111155888
 30
0.0
 10
39.26025552807144
 20
-8.0845823593344
 30
0.0
 10
40.20189937820742
 20
-8.229671919449467
 30
0.0
 10
40.69502835228088
 20
-8.192870157033127
 30
0.0
 10
40.73985974581785
 20
-8.18952443130926
 30
0.0
  0
LINE
  5
E5
330
1F
100
AcDbEntity
  8
0
  6
Continuous
 62
     1
370
    15
100
AcDbLine
 10
9.999514079925522
 20
7.282391305110801
 30
0.0
 11
9.99951407992552
 21
7.675225568829313
 31
0.0
  0
LINE
  5
E7
330
1F
100
AcDbEntity
  8
0
  6
Continuous
 62
     1
370
    15
100
AcDbLine
 10
9.999514079925522
 20
1.374304733127137
 30
0.0
 11
9.999514079925525
 21
3.883678678850121
 31
0.0
  0
LINE
  5
E8
330
1F
100
AcDbEntity
  8
0
  6
Continuous
 62
     1
370
    15
100
AcDbLine
 10
60.79951407992552
 20
-1.128299834955126
 30
0.0
 11
60.79951407992552
 21
2.039230048487164
 31
0.0
  0
LINE
  5
E9
330
1F
100
AcDbEntity
  8
0
  6
Continuous
 62
     1
370
    15
100
AcDbLine
 10
58.23244601627675
 20
0.1654762295032848
 30
0.0
 11
60.79951407992552
 21
-1.128299834955126
 31
0.0
  0
SPLINE
  5
EA
330
1F
100
AcDbEntity
  8
0
  6
Continuous
 62
     1
370
    15
100
AcDbSpline
210
0.0
220
0.0
230
1.0
 70
     8
 71
     3
 72
    16
 73
    12
 74
     0
 42
0.000000001
 43
0.00000001
 40
0.0
 40
0.0
 40
0.0
 40
0.0
 40
0.2499999999999999
 40
0.2499999999999999
 40
0.3750000000000016
 40
0.3750000000000016
 40
0.5000000000000032
 40
0.5000000000000032
 40
0.7500000000000016
 40
0.7500000000000016
 40
1.0
 40
1.0
 40
1.0
 40
1.0
 10
60.79951407992552
 20
2.039230048487163
 30
0.0
 10
60.79951407992551
 20
2.141711766750376
 30
0.0
 10
60.75717556601605
 20
2.21911398302172
 30
0.0
 10
60.63733205069158
 20
2.282037173152841
 30
0.0
 10
60.58752728131633
 20
2.294663135217913
 30
0.0
 10
60.47485909597003
 20
2.302836371537886
 30
0.0
 10
60.41122205007447
 20
2.298649883954647
 30
0.0
 10
60.20399602030376
 20
2.263157760202005
 30
0.0
 10
60.04626813083723
 20
2.209316461457737
 30
0.0
 10
59.71891112411897
 20
2.058873271745018
 30
0.0
 10
59.54754992888638
 20
1.961486167051727
 30
0.0
 10
59.37908556325981
 20
1.849938360668813
 30
0.0
  0
LINE
  5
EB
330
1F
100
AcDbEntity
  8
0
  6
Continuous
 62
     1
370
    15
100
AcDbLine
 10
60.79951407992552
 20
2.039230048487164
 30
0.0
 11
60.79951407992552
 21
3.861807633639363
 31
0.0
  0
LINE
  5
EC
330
1F
100
AcDbEntity
  8
0
  6
Continuous
 62
     1
370
    15
100
AcDbLine
 10
60.79951407992552
 20
-4.295829718397448
 30
0.0
 11
60.79951407992551
 21
-2.453902054147648
 31
0.0
  0
SPLINE
  5
ED
330
1F
100
AcDbEntity
  8
0
  6
Continuous
 62
     1
370
    15
100
AcDbSpline
210
0.0
220
0.0
230
1.0
 70
     8
 71
     3
 72
    16
 73
    12
 74
     0
 42
0.000000001
 43
0.00000001
 40
0.0
 40
0.0
 40
0.0
 40
0.0
 40
0.249999999999998
 40
0.249999999999998
 40
0.3749999999999983
 40
0.3749999999999983
 40
0.4999999999999987
 40
0.4999999999999987
 40
0.7499999999999993
 40
0.7499999999999993
 40
1.0
 40
1.0
 40
1.0
 40
1.0
 10
60.79951407992552
 20
-4.295829718397447
 30
0.0
 10
60.79951407992551
 20
-4.398311436660659
 30
0.0
 10
60.75717556601607
 20
-4.527061592264613
 30
0.0
 10
60.63733205069159
 20
-4.735330402401281
 30
0.0
 10
60.58752728131633
 20
-4.808359341335664
 30
0.0
 10
60.47485909597002
 20
-4.953175993110567
 30
0.0
 10
60.41122205007443
 20
-5.026168198642041
 30
0.0
 10
60.20399602030374
 20
-5.241998774300934
 30
0.0
 10
60.04626813083723
 20
-5.379449076312966
 30
0.0
 10
59.71891112411897
 20
-5.626022838045738
 30
0.0
 10
59.54754992888636
 20
-5.736461739611877
 30
0.0
 10
59.3790855632598
 20
-5.829226678933592
 30
0.0
  0
LINE
  5
EE
330
1F
100
AcDbEntity
  8
0
  6
Continuous
 62
     1
370
    15
100
AcDbLine
 10
60.79951407992552
 20
-1.128299834955126
 30
0.0
 11
60.79951407992552
 21
-1.628634707619264
 31
0.0
  0
LINE
  5
EF
330
1F
100
AcDbEntity
  8
0
  6
Continuous
 62
     1
370
    15
100
AcDbLine
 10
60.79951407992552
 20
-4.295829718397449
 30
0.0
 11
60.79951407992552
 21
-5.151774431170695
 31
0.0
  0
LINE
  5
F1
330
1F
100
AcDbEntity
  8
0
  6
Continuous
 62
     1
370
    15
100
AcDbLine
 10
60.79951407992552
 20
4.440230772169988
 30
0.0
 11
60.79951407992552
 21
4.627225568829314
 31
0.0
  0
LINE
  5
F6
330
1F
100
AcDbEntity
  8
중심선
100
AcDbLine
 10
-43.80048592007447
 20
-0.2622744311706908
 30
0.0
 11
63.79951407992552
 21
-0.2622744311706908
 31
0.0
  0
CIRCLE
  5
F7
330
1F
100
AcDbEntity
  8
외형선
100
AcDbCircle
 10
-0.0004859200744764
 20
-0.2622744311706908
 30
0.0
 40
3.000000000000005
  0
INSERT
  5
F8
330
1F
100
AcDbEntity
  8
0
  6
Continuous
 62
     7
100
AcDbBlockReference
 66
     1
  2
블럭10
 10
-16.62984641916796
 20
-52.04907070757051
 30
0.0
  0
ATTRIB
  5
F9
330
F8
100
AcDbEntity
  8
FORMAT
 62
     2
100
AcDbText
 10
-27.68086677135242
 20
-49.97370379473831
 30
0.0
 40
4.233333333333333
  1
GMG22937[ 6 FLUTE ]
 41
0.75
  7
SLDTEXTSTYLE0
 11
-27.68086677135242
 21
-52.09037046140498
 31
0.0
100
AcDbAttribute
  2
AUTOATTR0
 70
     0
 74
     1
  0
SEQEND
  5
FA
330
F8
100
AcDbEntity
  8
0
  6
Continuous
 62
     7
  0
HATCH
  5
FB
330
1F
100
AcDbEntity
  8
중심선
100
AcDbHatch
 10
0.0
 20
0.0
 30
0.0
210
0.0
220
0.0
230
1.0
  2
SOLID
 70
     1
 71
     0
 91
        1
 92
        0
 93
        4
 72
     1
 10
-10.91493711478711
 20
-35.80189640592657
 11
-14.36121235862439
 21
-35.80189640592657
 72
     1
 10
-14.36121235862439
 20
-35.80189640592657
 11
-16.48944221782842
 21
-38.33822198649916
 72
     1
 10
-16.48944221782842
 20
-38.33822198649916
 11
-13.04313388887798
 21
-38.33818255719667
 72
     1
 10
-13.04313388887798
 20
-38.33818255719667
 11
-10.91493711478711
 21
-35.80189640592657
 97
        0
 75
     0
 76
     1
 98
        1
 10
0.0
 20
0.0
  0
HATCH
  5
FC
330
1F
100
AcDbEntity
  8
중심선
100
AcDbHatch
 10
0.0
 20
0.0
 30
0.0
210
0.0
220
0.0
230
1.0
  2
SOLID
 70
     1
 71
     0
 91
        1
 92
        0
 93
        4
 72
     1
 10
-5.902173123751159
 20
-35.80189640592657
 11
-9.348448367588441
 21
-35.80189640592657
 72
     1
 10
-9.348448367588441
 20
-35.80189640592657
 11
-13.87958637594583
 21
-41.20189640592658
 72
     1
 10
-13.87958637594583
 20
-41.20189640592658
 11
-10.43331113210855
 21
-41.20189640592658
 72
     1
 10
-10.43331113210855
 20
-41.20189640592658
 11
-5.902173123751159
 21
-35.80189640592657
 97
        0
 75
     0
 76
     1
 98
        1
 10
0.0
 20
0.0
  0
HATCH
  5
FD
330
1F
100
AcDbEntity
  8
중심선
100
AcDbHatch
 10
0.0
 20
0.0
 30
0.0
210
0.0
220
0.0
230
1.0
  2
SOLID
 70
     1
 71
     0
 91
        1
 92
        0
 93
        4
 72
     1
 10
-0.8894091327152631
 20
-35.8018964059266
 11
-4.335684376552379
 21
-35.80189640592657
 72
     1
 10
-4.335684376552379
 20
-35.80189640592657
 11
-11.38412127844163
 21
-44.20189640592659
 72
     1
 10
-11.38412127844163
 20
-44.20189640592659
 11
-7.937846034604346
 21
-44.20189640592659
 72
     1
 10
-7.937846034604346
 20
-44.20189640592659
 11
-0.8894091327152633
 21
-35.8018964059266
 97
        0
 75
     0
 76
     1
 98
        1
 10
0.0
 20
0.0
  0
HATCH
  5
FE
330
1F
100
AcDbEntity
  8
중심선
100
AcDbHatch
 10
0.0
 20
0.0
 30
0.0
210
0.0
220
0.0
230
1.0
  2
SOLID
 70
     1
 71
     0
 91
        1
 92
        0
 93
        6
 72
     3
 10
3.910481298296936
 20
-40.00189640597785
 11
3.960054785062284
 21
1.540850780301639E-10
 40
0.3939339440162633
 50
17.09539180608434
 51
320.0019657685079
 73
     0
 72
     1
 10
5.593480953997531
 20
-38.58979041056487
 11
7.89878282769857
 21
-36.65546370051695
 72
     3
 10
3.91048129824409
 20
-40.00189640592671
 11
6.600054785286829
 21
-1.249000902703301E-13
 40
0.6363583540795982
 50
39.99873849337408
 51
368.4976242363724
 73
     1
 72
     1
 10
10.3358137901447
 20
-39.04189640585659
 11
2.590548605080012
 21
-39.04189640585656
 72
     1
 10
2.590548605080012
 20
-39.04189640585656
 11
2.590523560634078
 21
-40.96189640585649
 72
     1
 10
2.590523560634078
 20
-40.96189640585649
 11
7.031903330106115
 21
-40.96189640585646
 97
        0
 75
     0
 76
     1
 98
        1
 10
0.0
 20
0.0
  0
POINT
  5
FF
330
1F
100
AcDbEntity
  8
치수문자_일반주서
100
AcDbPoint
 10
-0.0004859200744764
 20
-0.2622744311706908
 30
0.0
  0
DIMENSION
  5
100
330
1F
100
AcDbEntity
  8
치수문자_일반주서
100
AcDbDimension
  2
_D
 10
76.92075979569849
 20
7.675225568829385
 30
0.0
 11
76.9207597956985
 21
4.003671784175785
 31
0.0
 70
   160
  1
%%c<>
 71
     2
 42
15.875
 52
-270.0
  3
SLDDIMSTYLE0
100
AcDbAlignedDimension
 13
57.5582884047534
 23
-8.199774431170688
 33
0.0
 14
57.75151407992552
 24
7.675225568829313
 34
0.0
 50
90.0000000000002
100
AcDbRotatedDimension
1001
ACAD
1000
DSTYLE
1002
{
1070
   171
1070
     3
1070
   273
1070
     7
1002
}
  0
DIMENSION
  5
115
330
1F
100
AcDbEntity
  8
치수문자_일반주서
100
AcDbDimension
  2
_D_1
 10
60.79951407992552
 20
40.3307769869011
 30
0.0
 11
9.999514079925516
 21
40.3307769869011
 31
0.0
 70
   160
  1
<>
 71
     2
 42
101.6
  3
SLDDIMSTYLE1
100
AcDbAlignedDimension
 13
-40.80048592007449
 23
7.175225568829308
 33
0.0
 14
60.79951407992552
 24
4.151019202904676
 34
0.0
100
AcDbRotatedDimension
1001
ACAD
1000
DSTYLE
1002
{
1070
   171
1070
     3
1070
   273
1070
     7
1002
}
  0
INSERT
  5
153
330
1F
100
AcDbEntity
  8
외형선
100
AcDbBlockReference
  2
SW_DOWELSYMBOL_0
 10
-0.0004859200744764
 20
-0.2622744311706908
 30
0.0
  0
DIMENSION
  5
179
330
1F
100
AcDbEntity
  8
치수문자_일반주서
100
AcDbDimension
  2
*D8
 10
-47.30763258906691
 20
-8.199774431170692
 30
0.0
 11
-47.30763258906691
 21
-0.2622744311706917
 31
0.0
 70
   160
  1
{%%C<>[]}
 71
     5
 42
15.875
  3
SLDDIMSTYLE0
100
AcDbAlignedDimension
 13
-40.30048592007449
 23
7.675225568829309
 33
0.0
 14
-40.30048592007449
 24
-8.199774431170692
 34
0.0
 50
90.0
100
AcDbRotatedDimension
1001
ACAD
1000
DSTYLE
1002
{
1070
   171
1070
     3
1070
   273
1070
     7
1070
   283
1070
     1
1070
   170
1070
     1
1002
}
  0
ARC
  5
18C
330
1F
100
AcDbEntity
  8
0
  6
Continuous
 62
     1
370
    15
100
AcDbCircle
 10
57.75151407992552
 20
4.627225568829314
 30
0.0
 40
3.047999999999999
100
AcDbArc
 50
0.0
 51
90.0
  0
ARC
  5
18D
330
1F
100
AcDbEntity
  8
0
  6
Continuous
 62
     1
370
    15
100
AcDbCircle
 10
57.75151407992552
 20
-5.151774431170695
 30
0.0
 40
3.047999999999999
100
AcDbArc
 50
270.0
 51
0.0000000000000167
  0
DIMENSION
  5
18E
330
1F
100
AcDbEntity
  8
치수문자_일반주서
100
AcDbDimension
  2
*D9
 10
57.75151407992552
 20
4.627225568829314
 30
0.0
 11
75.55583151137725
 21
25.37037413525133
 31
0.0
 70
   164
  1
<>
 71
     5
 42
3.047999999999998
  3
SLDDIMSTYLE0
100
AcDbRadialDimension
 15
59.73669894885882
 25
6.940090682959034
 35
0.0
 40
0.0
1001
ACAD
1000
DSTYLE
1002
{
1070
   171
1070
     3
1070
   273
1070
     2
1002
}
1001
ACAD_DSTYLE_DIMRADIAL_EXTENSION
1070
   387
1070
     1
1070
   388
1040
0.0
1070
   390
1040
1.570796326794897
  0
DIMENSION
  5
1BD
102
{ACAD_REACTORS
102
}
102
{ACAD_XDICTIONARY
360
1BE
102
}
330
1F
100
AcDbEntity
  8
0
100
AcDbDimension
  2
*D10
 10
60.79951407992552
 20
23.00737446191012
 30
0.0
 11
35.39951407992552
 21
26.57304112857679
 31
0.0
 70
    32
 71
     5
 42
50.8
  3
ISO-25
100
AcDbAlignedDimension
 13
9.999514079925518
 23
7.478808436963407
 33
0.0
 14
60.79951407992552
 24
6.528623918501848
 34
0.0
100
AcDbRotatedDimension
1001
ACAD
1000
DSTYLE
1002
{
1070
     3
1000
<> [3]
1070
   179
1070
     2
1070
   143
1040
0.0393700787401575
1070
    41
1040
3.302
1070
    44
1040
1.0
1070
    42
1040
1.0
1070
   147
1040
1.524
1070
    73
1070
     1
1070
    74
1070
     1
1070
   140
1040
3.5
1070
   284
1070
     0
1070
    78
1070
     0
1002
}
1001
ENABLE_CUSTOM_SPLIT
1070
     1
  0
ENDSEC
  0
SECTION
  2
OBJECTS
  0
DICTIONARY
  5
C
330
0
100
AcDbDictionary
281
     1
  3
ACAD_GROUP
350
D
  3
ACAD_IMAGE_VARS
350
177
  3
ACAD_LAYOUT
350
1A
  3
ACAD_MLINESTYLE
350
17
  3
ACAD_PLOTSETTINGS
350
19
  3
ACAD_PLOTSTYLENAME
350
E
  3
ACAD_SCALELIST
350
47
  3
APPDATA
350
175
  3
DWGPROPS
350
1D6
  3
FX_DICT_DIMENSION_PALETTE
350
1CF
  3
FX_DICT_DIMENSION_PALETTE_RECENTLIST
350
1D1
  0
DICTIONARY
  5
1D4
330
1F
100
AcDbDictionary
280
     1
281
     1
  3
DIM_BOUNDING_BOXES_V1
360
1D5
  0
DICTIONARY
  5
1BE
330
1BD
100
AcDbDictionary
280
     1
281
     1
  3
ACAD_CUSTOM_BREAKDATA
360
1CD
  0
DICTIONARY
  5
D
102
{ACAD_REACTORS
330
C
102
}
330
C
100
AcDbDictionary
281
     1
  0
RASTERVARIABLES
  5
177
102
{ACAD_REACTORS
330
C
102
}
330
C
100
AcDbRasterVariables
 90
        0
 70
     1
 71
     1
 72
     1
  0
DICTIONARY
  5
1A
102
{ACAD_REACTORS
330
C
102
}
330
C
100
AcDbDictionary
281
     1
  3
Layout1
350
1E
  3
Layout2
350
26
  3
Model
350
22
  0
DICTIONARY
  5
17
102
{ACAD_REACTORS
330
C
102
}
330
C
100
AcDbDictionary
281
     1
  3
Standard
350
18
  0
DICTIONARY
  5
19
102
{ACAD_REACTORS
330
C
102
}
330
C
100
AcDbDictionary
281
     1
  0
ACDBDICTIONARYWDFLT
  5
E
102
{ACAD_REACTORS
330
C
102
}
330
C
100
AcDbDictionary
281
     1
  3
Normal
350
F
100
AcDbDictionaryWithDefault
340
F
  0
DICTIONARY
  5
47
102
{ACAD_REACTORS
330
C
102
}
330
C
100
AcDbDictionary
281
     1
  3
A0
350
48
  3
A1
350
49
  3
A2
350
4A
  3
A3
350
4B
  3
A4
350
4C
  3
A5
350
4D
  3
A6
350
4E
  3
A7
350
4F
  3
A8
350
50
  3
A9
350
51
  3
B0
350
52
  3
B1
350
53
  3
B2
350
54
  3
B3
350
55
  3
B4
350
56
  3
B5
350
57
  3
B6
350
58
  3
B7
350
59
  3
B8
350
5A
  3
B9
350
5B
  3
C0
350
5C
  3
C1
350
5D
  3
C2
350
5E
  3
C3
350
5F
  3
C4
350
60
  3
C5
350
61
  3
C6
350
62
  3
C7
350
63
  3
C8
350
64
  3
C9
350
65
  3
D0
350
66
  3
D1
350
67
  3
D2
350
68
  0
DICTIONARY
  5
175
102
{ACAD_REACTORS
330
C
102
}
330
C
100
AcDbDictionary
281
     1
  0
XRECORD
  5
1D6
102
{ACAD_REACTORS
330
C
102
}
330
C
100
AcDbXrecord
280
     1
  1
DWGPROPS COOKIE
  2

  3

  4

  6

  7

  8
12018024
  9

300
=
301
=
302
=
303
=
304
=
305
=
306
=
307
=
308
=
309
=
 40
0.0
 41
2458236.372648438
 42
2459683.354862685
  1

 90
        0
  0
DICTIONARY
  5
1CF
102
{ACAD_REACTORS
330
C
102
}
330
C
100
AcDbDictionary
281
     1
1001
FX_DIMP_FAV_VERSION
1071
        1
  0
DICTIONARY
  5
1D1
102
{ACAD_REACTORS
330
C
102
}
330
C
100
AcDbDictionary
281
     1
  3
0
350
1D3
1001
FX_DIMP_RECENT_VERSION
1071
        1
  0
DICTIONARY
  5
1D5
102
{ACAD_REACTORS
330
1D4
102
}
330
1D4
100
AcDbDictionary
281
     1
  0
BREAKDATA
  5
1CD
102
{ACAD_REACTORS
330
1BE
102
}
330
1BE
100
AcDbBreakData
 70
     0
330
1BD
 90
        0
  0
LAYOUT
  5
1E
102
{ACAD_REACTORS
330
1A
102
}
330
1A
100
AcDbPlotSettings
  1

  2
none_device
  4

  6

 40
0.0
 41
0.0
 42
0.0
 43
0.0
 44
0.0
 45
0.0
 46
0.0
 47
0.0
 48
0.0
 49
0.0
140
0.0
141
0.0
142
1.0
143
1.0
 70
   688
 72
     1
 73
     0
 74
     5
  7

 75
    16
147
1.0
148
0.0
149
0.0
100
AcDbLayout
  1
Layout1
 70
     1
 71
     1
 10
0.0
 20
0.0
 11
420.0
 21
297.0
 12
0.0
 22
0.0
 32
0.0
 14
1.000000000000000E+20
 24
1.000000000000000E+20
 34
1.000000000000000E+20
 15
-1.000000000000000E+20
 25
-1.000000000000000E+20
 35
-1.000000000000000E+20
146
0.0
 13
0.0
 23
0.0
 33
0.0
 16
1.0
 26
0.0
 36
0.0
 17
0.0
 27
1.0
 37
0.0
 76
     0
330
1B
  0
LAYOUT
  5
26
102
{ACAD_REACTORS
330
1A
102
}
330
1A
100
AcDbPlotSettings
  1

  2
none_device
  4

  6

 40
0.0
 41
0.0
 42
0.0
 43
0.0
 44
0.0
 45
0.0
 46
0.0
 47
0.0
 48
0.0
 49
0.0
140
0.0
141
0.0
142
1.0
143
1.0
 70
   688
 72
     1
 73
     0
 74
     5
  7

 75
    16
147
1.0
148
0.0
149
0.0
100
AcDbLayout
  1
Layout2
 70
     1
 71
     2
 10
0.0
 20
0.0
 11
0.0
 21
0.0
 12
0.0
 22
0.0
 32
0.0
 14
0.0
 24
0.0
 34
0.0
 15
0.0
 25
0.0
 35
0.0
146
0.0
 13
0.0
 23
0.0
 33
0.0
 16
1.0
 26
0.0
 36
0.0
 17
0.0
 27
1.0
 37
0.0
 76
     0
330
23
  0
LAYOUT
  5
22
102
{ACAD_REACTORS
330
1A
102
}
330
1A
100
AcDbPlotSettings
  1

  2
none_device
  4
ANSI_A_(11.00_x_8.50_Inches)
  6

 40
6.35
 41
19.05
 42
6.35000508
 43
19.05000254
 44
279.4
 45
215.9
 46
89.3374065242036
 47
88.60367662800151
 48
0.0
 49
0.0
140
0.0
141
0.0
142
0.057470619123188
143
1.0
 70
  1696
 72
     0
 73
     0
 74
     0
  7

 75
     0
147
0.0235690232323232
148
0.0
149
0.0
100
AcDbLayout
  1
Model
 70
     1
 71
     0
 10
0.0
 20
0.0
 11
420.0
 21
297.0
 12
0.0
 22
0.0
 32
0.0
 14
-51.6826325890669
 24
-49.97370379473832
 34
0.0
 15
85.386502152933
 25
44.7057769869011
 35
0.0
146
0.0
 13
0.0
 23
0.0
 33
0.0
 16
1.0
 26
0.0
 36
0.0
 17
0.0
 27
1.0
 37
0.0
 76
     0
330
1F
331
29
  0
MLINESTYLE
  5
18
102
{ACAD_REACTORS
330
17
102
}
330
17
100
AcDbMlineStyle
  2
Standard
 70
     0
  3

 62
   256
 51
90.0
 52
90.0
 71
     2
 49
0.5
 62
   256
  6
BYLAYER
 49
-0.5
 62
   256
  6
BYLAYER
  0
ACDBPLACEHOLDER
  5
F
102
{ACAD_REACTORS
330
E
102
}
330
E
  0
SCALE
  5
48
102
{ACAD_REACTORS
330
47
102
}
330
47
100
AcDbScale
 70
     0
300
1:1
140
1.0
141
1.0
290
     1
  0
SCALE
  5
49
102
{ACAD_REACTORS
330
47
102
}
330
47
100
AcDbScale
 70
     0
300
1:2
140
1.0
141
2.0
290
     0
  0
SCALE
  5
4A
102
{ACAD_REACTORS
330
47
102
}
330
47
100
AcDbScale
 70
     0
300
1:4
140
1.0
141
4.0
290
     0
  0
SCALE
  5
4B
102
{ACAD_REACTORS
330
47
102
}
330
47
100
AcDbScale
 70
     0
300
1:5
140
1.0
141
5.0
290
     0
  0
SCALE
  5
4C
102
{ACAD_REACTORS
330
47
102
}
330
47
100
AcDbScale
 70
     0
300
1:8
140
1.0
141
8.0
290
     0
  0
SCALE
  5
4D
102
{ACAD_REACTORS
330
47
102
}
330
47
100
AcDbScale
 70
     0
300
1:10
140
1.0
141
10.0
290
     0
  0
SCALE
  5
4E
102
{ACAD_REACTORS
330
47
102
}
330
47
100
AcDbScale
 70
     0
300
1:16
140
1.0
141
16.0
290
     0
  0
SCALE
  5
4F
102
{ACAD_REACTORS
330
47
102
}
330
47
100
AcDbScale
 70
     0
300
1:20
140
1.0
141
20.0
290
     0
  0
SCALE
  5
50
102
{ACAD_REACTORS
330
47
102
}
330
47
100
AcDbScale
 70
     0
300
1:30
140
1.0
141
30.0
290
     0
  0
SCALE
  5
51
102
{ACAD_REACTORS
330
47
102
}
330
47
100
AcDbScale
 70
     0
300
1:40
140
1.0
141
40.0
290
     0
  0
SCALE
  5
52
102
{ACAD_REACTORS
330
47
102
}
330
47
100
AcDbScale
 70
     0
300
1:50
140
1.0
141
50.0
290
     0
  0
SCALE
  5
53
102
{ACAD_REACTORS
330
47
102
}
330
47
100
AcDbScale
 70
     0
300
1:100
140
1.0
141
100.0
290
     0
  0
SCALE
  5
54
102
{ACAD_REACTORS
330
47
102
}
330
47
100
AcDbScale
 70
     0
300
2:1
140
2.0
141
1.0
290
     0
  0
SCALE
  5
55
102
{ACAD_REACTORS
330
47
102
}
330
47
100
AcDbScale
 70
     0
300
4:1
140
4.0
141
1.0
290
     0
  0
SCALE
  5
56
102
{ACAD_REACTORS
330
47
102
}
330
47
100
AcDbScale
 70
     0
300
8:1
140
8.0
141
1.0
290
     0
  0
SCALE
  5
57
102
{ACAD_REACTORS
330
47
102
}
330
47
100
AcDbScale
 70
     0
300
10:1
140
10.0
141
1.0
290
     0
  0
SCALE
  5
58
102
{ACAD_REACTORS
330
47
102
}
330
47
100
AcDbScale
 70
     0
300
100:1
140
100.0
141
1.0
290
     0
  0
SCALE
  5
59
102
{ACAD_REACTORS
330
47
102
}
330
47
100
AcDbScale
 70
     0
300
1/128" = 1'-0"
140
0.0078125
141
12.0
290
     0
  0
SCALE
  5
5A
102
{ACAD_REACTORS
330
47
102
}
330
47
100
AcDbScale
 70
     0
300
1/64" = 1'-0"
140
0.015625
141
12.0
290
     0
  0
SCALE
  5
5B
102
{ACAD_REACTORS
330
47
102
}
330
47
100
AcDbScale
 70
     0
300
1/32" = 1'-0"
140
0.03125
141
12.0
290
     0
  0
SCALE
  5
5C
102
{ACAD_REACTORS
330
47
102
}
330
47
100
AcDbScale
 70
     0
300
1/16" = 1'-0"
140
0.0625
141
12.0
290
     0
  0
SCALE
  5
5D
102
{ACAD_REACTORS
330
47
102
}
330
47
100
AcDbScale
 70
     0
300
3/32" = 1'-0"
140
0.09375
141
12.0
290
     0
  0
SCALE
  5
5E
102
{ACAD_REACTORS
330
47
102
}
330
47
100
AcDbScale
 70
     0
300
1/8" = 1'-0"
140
0.125
141
12.0
290
     0
  0
SCALE
  5
5F
102
{ACAD_REACTORS
330
47
102
}
330
47
100
AcDbScale
 70
     0
300
3/16" = 1'-0"
140
0.1875
141
12.0
290
     0
  0
SCALE
  5
60
102
{ACAD_REACTORS
330
47
102
}
330
47
100
AcDbScale
 70
     0
300
1/4" = 1'-0"
140
0.25
141
12.0
290
     0
  0
SCALE
  5
61
102
{ACAD_REACTORS
330
47
102
}
330
47
100
AcDbScale
 70
     0
300
3/8" = 1'-0"
140
0.375
141
12.0
290
     0
  0
SCALE
  5
62
102
{ACAD_REACTORS
330
47
102
}
330
47
100
AcDbScale
 70
     0
300
1/2" = 1'-0"
140
0.5
141
12.0
290
     0
  0
SCALE
  5
63
102
{ACAD_REACTORS
330
47
102
}
330
47
100
AcDbScale
 70
     0
300
3/4" = 1'-0"
140
0.75
141
12.0
290
     0
  0
SCALE
  5
64
102
{ACAD_REACTORS
330
47
102
}
330
47
100
AcDbScale
 70
     0
300
1" = 1'-0"
140
1.0
141
12.0
290
     0
  0
SCALE
  5
65
102
{ACAD_REACTORS
330
47
102
}
330
47
100
AcDbScale
 70
     0
300
1-1/2" = 1'-0"
140
1.5
141
12.0
290
     0
  0
SCALE
  5
66
102
{ACAD_REACTORS
330
47
102
}
330
47
100
AcDbScale
 70
     0
300
3" = 1'-0"
140
3.0
141
12.0
290
     0
  0
SCALE
  5
67
102
{ACAD_REACTORS
330
47
102
}
330
47
100
AcDbScale
 70
     0
300
6" = 1'-0"
140
6.0
141
12.0
290
     0
  0
SCALE
  5
68
102
{ACAD_REACTORS
330
47
102
}
330
47
100
AcDbScale
 70
     0
300
1'-0" = 1'-0"
140
12.0
141
12.0
290
     0
  0
XRECORD
  5
1D3
102
{ACAD_REACTORS
330
1D1
102
}
330
1D1
100
AcDbXrecord
280
     1
  2

  2

  2

 40
0.0
 40
0.0
 90
        0
 40
50.8
 90
        2
 90
        2
 90
        0
 90
        5
  2

  2

  2
[3]
  2

290
     1
290
     0
  2
0
  2

  0
ENDSEC
  0
EOF
