  0
SECTION
  2
HEADER
  9
$ACADVER
  1
AC1015
  9
$ACADMAINTVER
 70
     6
  9
$DWGCODEPAGE
  3
ANSI_949
  9
$INSBASE
 10
0.0
 20
0.0
 30
0.0
  9
$EXTMIN
 10
-54.41546603812088
 20
-49.97370379473832
 30
0.0
  9
$EXTMAX
 10
84.58860968272464
 20
44.70577698690109
 30
0.0
  9
$LIMMIN
 10
0.0
 20
0.0
  9
$LIMMAX
 10
420.0
 20
297.0
  9
$ORTHOMODE
 70
     0
  9
$REGENMODE
 70
     1
  9
$FILLMODE
 70
     1
  9
$QTEXTMODE
 70
     0
  9
$MIRRTEXT
 70
     1
  9
$LTSCALE
 40
1.0
  9
$ATTMODE
 70
     1
  9
$TEXTSIZE
 40
3.5
  9
$TRACEWID
 40
1.0
  9
$TEXTSTYLE
  7
Standard
  9
$CLAYER
  8
0
  9
$CELTYPE
  6
ByLayer
  9
$CECOLOR
 62
   256
  9
$CELTSCALE
 40
1.0
  9
$DISPSILH
 70
     0
  9
$DIMSCALE
 40
1.0
  9
$DIMASZ
 40
3.302
  9
$DIMEXO
 40
1.0
  9
$DIMDLI
 40
3.75
  9
$DIMRND
 40
0.0
  9
$DIMDLE
 40
0.0
  9
$DIMEXE
 40
1.0
  9
$DIMTP
 40
0.0
  9
$DIMTM
 40
0.0
  9
$DIMTXT
 40
3.5
  9
$DIMCEN
 40
2.5
  9
$DIMTSZ
 40
0.0
  9
$DIMTOL
 70
     0
  9
$DIMLIM
 70
     0
  9
$DIMTIH
 70
     1
  9
$DIMTOH
 70
     1
  9
$DIMSE1
 70
     0
  9
$DIMSE2
 70
     0
  9
$DIMTAD
 70
     1
  9
$DIMZIN
 70
     0
  9
$DIMBLK
  1

  9
$DIMASO
 70
     1
  9
$DIMSHO
 70
     1
  9
$DIMPOST
  1

  9
$DIMAPOST
  1

  9
$DIMALT
 70
     0
  9
$DIMALTD
 70
     3
  9
$DIMALTF
 40
0.0393700787401575
  9
$DIMLFAC
 40
1.0
  9
$DIMTOFL
 70
     1
  9
$DIMTVP
 40
0.0
  9
$DIMTIX
 70
     0
  9
$DIMSOXD
 70
     0
  9
$DIMSAH
 70
     0
  9
$DIMBLK1
  1

  9
$DIMBLK2
  1

  9
$DIMSTYLE
  2
ISO-25
  9
$DIMCLRD
 70
     0
  9
$DIMCLRE
 70
     0
  9
$DIMCLRT
 70
     0
  9
$DIMTFAC
 40
1.0
  9
$DIMGAP
 40
1.524
  9
$DIMJUST
 70
     0
  9
$DIMSD1
 70
     0
  9
$DIMSD2
 70
     0
  9
$DIMTOLJ
 70
     0
  9
$DIMTZIN
 70
     0
  9
$DIMALTZ
 70
     0
  9
$DIMALTTZ
 70
     0
  9
$DIMUPT
 70
     0
  9
$DIMDEC
 70
     2
  9
$DIMTDEC
 70
     2
  9
$DIMALTU
 70
     2
  9
$DIMALTTD
 70
     3
  9
$DIMTXSTY
  7
Standard
  9
$DIMAUNIT
 70
     0
  9
$DIMADEC
 70
     2
  9
$DIMALTRND
 40
0.0
  9
$DIMAZIN
 70
     0
  9
$DIMDSEP
 70
    44
  9
$DIMATFIT
 70
     3
  9
$DIMFRAC
 70
     0
  9
$DIMLDRBLK
  1

  9
$DIMLUNIT
 70
     2
  9
$DIMLWD
 70
    -2
  9
$DIMLWE
 70
    -2
  9
$DIMTMOVE
 70
     0
  9
$LUNITS
 70
     2
  9
$LUPREC
 70
     2
  9
$SKETCHINC
 40
1.0
  9
$FILLETRAD
 40
10.0
  9
$AUNITS
 70
     0
  9
$AUPREC
 70
     2
  9
$MENU
  1
.
  9
$ELEVATION
 40
0.0
  9
$PELEVATION
 40
0.0
  9
$THICKNESS
 40
0.0
  9
$LIMCHECK
 70
     0
  9
$CHAMFERA
 40
0.0
  9
$CHAMFERB
 40
0.0
  9
$CHAMFERC
 40
0.0
  9
$CHAMFERD
 40
0.0
  9
$SKPOLY
 70
     0
  9
$TDCREATE
 40
2458236.747468426
  9
$TDUCREATE
 40
2458236.372468426
  9
$TDUPDATE
 40
2458241.687662384
  9
$TDUUPDATE
 40
2458241.312662384
  9
$TDINDWG
 40
0.0011116782
  9
$TDUSRTIMER
 40
2458241.310028704
  9
$USRTIMER
 70
     1
  9
$ANGBASE
 50
0.0
  9
$ANGDIR
 70
     0
  9
$PDMODE
 70
     0
  9
$PDSIZE
 40
-1.0
  9
$PLINEWID
 40
0.0
  9
$SPLFRAME
 70
     0
  9
$SPLINETYPE
 70
     6
  9
$SPLINESEGS
 70
     8
  9
$HANDSEED
  5
199
  9
$SURFTAB1
 70
     6
  9
$SURFTAB2
 70
     6
  9
$SURFTYPE
 70
     6
  9
$SURFU
 70
     6
  9
$SURFV
 70
     6
  9
$UCSBASE
  2

  9
$UCSNAME
  2

  9
$UCSORG
 10
0.0
 20
0.0
 30
0.0
  9
$UCSXDIR
 10
1.0
 20
0.0
 30
0.0
  9
$UCSYDIR
 10
0.0
 20
1.0
 30
0.0
  9
$UCSORTHOREF
  2

  9
$UCSORTHOVIEW
 70
     0
  9
$UCSORGTOP
 10
0.0
 20
0.0
 30
0.0
  9
$UCSORGBOTTOM
 10
0.0
 20
0.0
 30
0.0
  9
$UCSORGLEFT
 10
0.0
 20
0.0
 30
0.0
  9
$UCSORGRIGHT
 10
0.0
 20
0.0
 30
0.0
  9
$UCSORGFRONT
 10
0.0
 20
0.0
 30
0.0
  9
$UCSORGBACK
 10
0.0
 20
0.0
 30
0.0
  9
$PUCSBASE
  2

  9
$PUCSNAME
  2

  9
$PUCSORG
 10
0.0
 20
0.0
 30
0.0
  9
$PUCSXDIR
 10
1.0
 20
0.0
 30
0.0
  9
$PUCSYDIR
 10
0.0
 20
1.0
 30
0.0
  9
$PUCSORTHOREF
  2

  9
$PUCSORTHOVIEW
 70
     0
  9
$PUCSORGTOP
 10
0.0
 20
0.0
 30
0.0
  9
$PUCSORGBOTTOM
 10
0.0
 20
0.0
 30
0.0
  9
$PUCSORGLEFT
 10
0.0
 20
0.0
 30
0.0
  9
$PUCSORGRIGHT
 10
0.0
 20
0.0
 30
0.0
  9
$PUCSORGFRONT
 10
0.0
 20
0.0
 30
0.0
  9
$PUCSORGBACK
 10
0.0
 20
0.0
 30
0.0
  9
$USERI1
 70
     0
  9
$USERI2
 70
     0
  9
$USERI3
 70
     0
  9
$USERI4
 70
     0
  9
$USERI5
 70
     0
  9
$USERR1
 40
0.0
  9
$USERR2
 40
0.0
  9
$USERR3
 40
0.0
  9
$USERR4
 40
0.0
  9
$USERR5
 40
0.0
  9
$WORLDVIEW
 70
     1
  9
$SHADEDGE
 70
     3
  9
$SHADEDIF
 70
    70
  9
$TILEMODE
 70
     1
  9
$MAXACTVP
 70
    64
  9
$PINSBASE
 10
0.0
 20
0.0
 30
0.0
  9
$PLIMCHECK
 70
     0
  9
$PEXTMIN
 10
1.000000000000000E+20
 20
1.000000000000000E+20
 30
1.000000000000000E+20
  9
$PEXTMAX
 10
-1.000000000000000E+20
 20
-1.000000000000000E+20
 30
-1.000000000000000E+20
  9
$PLIMMIN
 10
0.0
 20
0.0
  9
$PLIMMAX
 10
0.0
 20
0.0
  9
$UNITMODE
 70
     0
  9
$VISRETAIN
 70
     1
  9
$PLINEGEN
 70
     0
  9
$PSLTSCALE
 70
     1
  9
$TREEDEPTH
 70
  3020
  9
$CMLSTYLE
  2
Standard
  9
$CMLJUST
 70
     0
  9
$CMLSCALE
 40
20.0
  9
$PROXYGRAPHICS
 70
     1
  9
$MEASUREMENT
 70
     1
  9
$CELWEIGHT
370
    -1
  9
$ENDCAPS
280
     0
  9
$JOINSTYLE
280
     0
  9
$LWDISPLAY
290
     1
  9
$INSUNITS
 70
     4
  9
$HYPERLINKBASE
  1

  9
$STYLESHEET
  1

  9
$XEDIT
290
     1
  9
$CEPSNTYPE
380
     0
  9
$PSTYLEMODE
290
     1
  9
$FINGERPRINTGUID
  2
{AAD6340D-5D35-458D-95F3-FE801676140D}
  9
$VERSIONGUID
  2
{FAEB1C32-E019-11D5-929B-00C0DF256EC4}
  9
$EXTNAMES
290
     1
  9
$PSVPSCALE
 40
0.0
  9
$OLESTARTUP
290
     0
  0
ENDSEC
  0
SECTION
  2
CLASSES
  0
CLASS
  1
ACDBDICTIONARYWDFLT
  2
AcDbDictionaryWithDefault
  3
ObjectDBX Classes
 90
        0
280
     0
281
     0
  0
CLASS
  1
VISUALSTYLE
  2
AcDbVisualStyle
  3
ObjectDBX Classes
 90
     4095
280
     0
281
     0
  0
CLASS
  1
MATERIAL
  2
AcDbMaterial
  3
ObjectDBX Classes
 90
     1153
280
     0
281
     0
  0
CLASS
  1
SCALE
  2
AcDbScale
  3
ObjectDBX Classes
 90
     1153
280
     0
281
     0
  0
CLASS
  1
SUN
  2
AcDbSun
  3
SCENEOE
 90
     1153
280
     0
281
     0
  0
CLASS
  1
ACDBPLACEHOLDER
  2
AcDbPlaceHolder
  3
ObjectDBX Classes
 90
        0
280
     0
281
     0
  0
CLASS
  1
LAYOUT
  2
AcDbLayout
  3
ObjectDBX Classes
 90
        0
280
     0
281
     0
  0
CLASS
  1
TABLESTYLE
  2
AcDbTableStyle
  3
ObjectDBX Classes
 90
     4095
280
     0
281
     0
  0
CLASS
  1
MLEADERSTYLE
  2
AcDbMLeaderStyle
  3
ACDB_MLEADERSTYLE_CLASS
 90
     4095
280
     0
281
     0
  0
CLASS
  1
RASTERVARIABLES
  2
AcDbRasterVariables
  3
ISM
 90
        0
280
     0
281
     0
  0
CLASS
  1
DIMASSOC
  2
AcDbDimAssoc
  3
"AcDbDimAssoc|Product Desc:     AcDim ARX App For Dimension|Company:          Autodesk, Inc.|WEB Address:      www.autodesk.com"
 90
        0
280
     0
281
     0
  0
ENDSEC
  0
SECTION
  2
TABLES
  0
TABLE
  2
VPORT
  5
8
330
0
100
AcDbSymbolTable
 70
     1
  0
VPORT
  5
29
330
8
100
AcDbSymbolTableRecord
100
AcDbViewportTableRecord
  2
*Active
 70
     0
 10
0.0
 20
0.0
 11
1.0
 21
1.0
 12
4.268900154028231
 22
18.88544430883696
 13
0.0
 23
0.0
 14
10.0
 24
10.0
 15
10.0
 25
10.0
 16
0.0
 26
0.0
 36
1.0
 17
0.0
 27
0.0
 37
0.0
 40
228.4918451714658
 41
1.321695760598504
 42
50.0
 43
0.0
 44
0.0
 50
0.0
 51
0.0
 71
    16
 72
  2000
 73
     1
 74
     3
 75
     0
 76
     0
 77
     0
 78
     0
281
     0
 65
     1
110
0.0
120
0.0
130
0.0
111
1.0
121
0.0
131
0.0
112
0.0
122
1.0
132
0.0
 79
     0
146
0.0
  0
ENDTAB
  0
TABLE
  2
LTYPE
  5
5
330
0
100
AcDbSymbolTable
 70
     6
  0
LTYPE
  5
14
330
5
100
AcDbSymbolTableRecord
100
AcDbLinetypeTableRecord
  2
ByBlock
 70
     0
  3

 72
    65
 73
     0
 40
0.0
  0
LTYPE
  5
15
330
5
100
AcDbSymbolTableRecord
100
AcDbLinetypeTableRecord
  2
ByLayer
 70
     0
  3

 72
    65
 73
     0
 40
0.0
  0
LTYPE
  5
16
330
5
100
AcDbSymbolTableRecord
100
AcDbLinetypeTableRecord
  2
Continuous
 70
     0
  3
Solid line
 72
    65
 73
     0
 40
0.0
  0
LTYPE
  5
6A
330
5
100
AcDbSymbolTableRecord
100
AcDbLinetypeTableRecord
  2
HIDDEN
 70
     0
  3
Hidden __ __ __ __ __ __ __ __ __ __ __ __ __ __
 72
    65
 73
     2
 40
1.905
 49
1.27
 74
     0
 49
-0.635
 74
     0
  0
LTYPE
  5
6B
330
5
100
AcDbSymbolTableRecord
100
AcDbLinetypeTableRecord
  2
PHANTOM
 70
     0
  3
Phantom ______  __  __  ______  __  __  ______
 72
    65
 73
     6
 40
12.7
 49
6.35
 74
     0
 49
-1.27
 74
     0
 49
1.27
 74
     0
 49
-1.27
 74
     0
 49
1.27
 74
     0
 49
-1.27
 74
     0
  0
LTYPE
  5
6C
330
5
100
AcDbSymbolTableRecord
100
AcDbLinetypeTableRecord
  2
CENTER
 70
     0
  3
Center ____ _ ____ _ ____ _ ____ _ ____ _ ____
 72
    65
 73
     4
 40
10.16
 49
6.35
 74
     0
 49
-1.27
 74
     0
 49
1.27
 74
     0
 49
-1.27
 74
     0
  0
LTYPE
  5
6D
330
5
100
AcDbSymbolTableRecord
100
AcDbLinetypeTableRecord
  2
CENTERX2
 70
     0
  3
Center (2x) ________  __  ________  __  _____
 72
    65
 73
     4
 40
20.32
 49
12.7
 74
     0
 49
-2.54
 74
     0
 49
2.54
 74
     0
 49
-2.54
 74
     0
  0
LTYPE
  5
6E
330
5
100
AcDbSymbolTableRecord
100
AcDbLinetypeTableRecord
  2
DOT2
 70
     0
  3
Dot (.5x) ........................................
 72
    65
 73
     2
 40
0.635
 49
0.0
 74
     0
 49
-0.635
 74
     0
  0
ENDTAB
  0
TABLE
  2
LAYER
  5
2
330
0
100
AcDbSymbolTable
 70
    17
  0
LAYER
  5
10
330
2
100
AcDbSymbolTableRecord
100
AcDbLayerTableRecord
  2
0
 70
     0
 62
     7
  6
Continuous
370
    -3
390
F
  0
LAYER
  5
6F
330
2
100
AcDbSymbolTableRecord
100
AcDbLayerTableRecord
  2
FORMAT
 70
     0
 62
     2
  6
Continuous
370
    -3
390
F
  0
LAYER
  5
70
330
2
100
AcDbSymbolTableRecord
100
AcDbLayerTableRecord
  2
외형선
 70
     0
 62
   100
  6
Continuous
370
    30
390
F
  0
LAYER
  5
71
330
2
100
AcDbSymbolTableRecord
100
AcDbLayerTableRecord
  2
숨은선
 70
     0
 62
     2
  6
HIDDEN
370
    15
390
F
  0
LAYER
  5
72
330
2
100
AcDbSymbolTableRecord
100
AcDbLayerTableRecord
  2
중심선
 70
     0
 62
     1
  6
CENTERX2
370
    -3
390
F
  0
LAYER
  5
73
330
2
100
AcDbSymbolTableRecord
100
AcDbLayerTableRecord
  2
파단선
 70
     0
 62
     4
  6
Continuous
370
    -3
390
F
  0
LAYER
  5
74
330
2
100
AcDbSymbolTableRecord
100
AcDbLayerTableRecord
  2
해칭선
 70
     0
 62
     4
  6
Continuous
370
    -3
390
F
  0
LAYER
  5
75
330
2
100
AcDbSymbolTableRecord
100
AcDbLayerTableRecord
  2
가는실선
 70
     0
 62
     4
  6
Continuous
370
    -3
390
F
  0
LAYER
  5
76
330
2
100
AcDbSymbolTableRecord
100
AcDbLayerTableRecord
  2
치수_보조선
 70
     0
 62
     4
  6
Continuous
370
    -3
390
F
  0
LAYER
  5
77
330
2
100
AcDbSymbolTableRecord
100
AcDbLayerTableRecord
  2
치수문자_일반주서
 70
     0
 62
     7
  6
Continuous
370
    15
390
F
  0
LAYER
  5
78
330
2
100
AcDbSymbolTableRecord
100
AcDbLayerTableRecord
  2
개별주서
 70
     0
 62
   100
  6
Continuous
370
    30
390
F
  0
LAYER
  5
79
330
2
100
AcDbSymbolTableRecord
100
AcDbLayerTableRecord
  2
중간선
 70
     0
 62
     2
  6
Continuous
370
    15
390
F
  0
LAYER
  5
7A
330
2
100
AcDbSymbolTableRecord
100
AcDbLayerTableRecord
  2
윤곽선
 70
     0
 62
     3
  6
Continuous
370
    40
390
F
  0
LAYER
  5
7B
330
2
100
AcDbSymbolTableRecord
100
AcDbLayerTableRecord
  2
중심마크
 70
     0
 62
   100
  6
Continuous
370
    30
390
F
  0
LAYER
  5
7C
330
2
100
AcDbSymbolTableRecord
100
AcDbLayerTableRecord
  2
가상선
 70
     0
 62
     4
  6
PHANTOM
370
    -3
390
F
  0
LAYER
  5
7D
330
2
100
AcDbSymbolTableRecord
100
AcDbLayerTableRecord
  2
특수지정선
 70
     0
 62
     5
  6
CENTERX2
370
    60
390
F
  0
LAYER
  5
174
330
2
100
AcDbSymbolTableRecord
100
AcDbLayerTableRecord
  2
Defpoints
 70
     0
 62
     7
  6
Continuous
290
     0
370
    -3
390
F
  0
ENDTAB
  0
TABLE
  2
STYLE
  5
3
330
0
100
AcDbSymbolTable
 70
     2
  0
STYLE
  5
11
330
3
100
AcDbSymbolTableRecord
100
AcDbTextStyleTableRecord
  2
Standard
 70
     0
 40
0.0
 41
1.0
 50
0.0
 71
     0
 42
3.5
  3
txt
  4

  0
STYLE
  5
93
330
3
100
AcDbSymbolTableRecord
100
AcDbTextStyleTableRecord
  2
SLDTEXTSTYLE0
 70
     0
 40
0.0
 41
0.75
 50
0.0
 71
     0
 42
3.5
  3
TXT
  4

  0
ENDTAB
  0
TABLE
  2
VIEW
  5
6
330
0
100
AcDbSymbolTable
 70
     0
  0
ENDTAB
  0
TABLE
  2
UCS
  5
7
330
0
100
AcDbSymbolTable
 70
     0
  0
ENDTAB
  0
TABLE
  2
APPID
  5
9
330
0
100
AcDbSymbolTable
 70
     3
  0
APPID
  5
12
330
9
100
AcDbSymbolTableRecord
100
AcDbRegAppTableRecord
  2
ACAD
 70
     0
  0
APPID
  5
186
330
9
100
AcDbSymbolTableRecord
100
AcDbRegAppTableRecord
  2
PE_DIMMEASUREMENT
 70
     0
  0
APPID
  5
18A
330
9
100
AcDbSymbolTableRecord
100
AcDbRegAppTableRecord
  2
ACAD_DSTYLE_DIMRADIAL_EXTENSION
 70
     0
  0
ENDTAB
  0
TABLE
  2
DIMSTYLE
  5
A
330
0
100
AcDbSymbolTable
 70
     4
100
AcDbDimStyleTable
  0
DIMSTYLE
105
27
330
A
100
AcDbSymbolTableRecord
100
AcDbDimStyleTableRecord
  2
ISO-25
 70
     0
 41
2.5
 42
0.625
 43
3.75
 44
1.25
 73
     0
 74
     0
 77
     1
 78
     8
140
2.5
141
2.5
143
0.03937007874016
147
0.625
171
     3
172
     1
178
     0
271
     2
272
     2
274
     3
278
    44
283
     0
284
     8
340
11
  0
DIMSTYLE
105
FD
102
{ACAD_REACTORS
330
FC
330
175
330
18B
102
}
330
A
100
AcDbSymbolTableRecord
100
AcDbDimStyleTableRecord
  2
SLDDIMSTYLE0
 70
     0
 41
3.302
 44
0.0
 45
0.000000001
 73
     0
 74
     0
 77
     1
 78
    12
 79
     3
140
3.5
143
0.0393700787401575
147
0.875
148
0.000000001
170
     1
172
     1
173
     1
178
     0
271
     2
272
     2
276
     2
284
    12
289
     0
340
93
  0
DIMSTYLE
105
112
102
{ACAD_REACTORS
330
111
330
125
102
}
330
A
100
AcDbSymbolTableRecord
100
AcDbDimStyleTableRecord
  2
SLDDIMSTYLE1
 70
     0
 41
3.302
 44
0.0
 45
0.000000001
 73
     0
 74
     0
 77
     1
 78
     4
 79
     1
140
3.5
143
0.0393700787401575
147
0.875
148
0.000000001
170
     1
173
     1
178
     0
271
     2
272
     2
276
     2
284
    12
340
93
  0
DIMSTYLE
105
139
330
A
100
AcDbSymbolTableRecord
100
AcDbDimStyleTableRecord
  2
SLDDIMSTYLE2
 70
     0
 41
3.302
 44
0.0
 45
0.000000001
 73
     0
 74
     0
 77
     1
 78
     8
 79
     2
140
3.5
143
0.0393700787401575
147
0.875
148
0.000000001
170
     1
172
     1
173
     1
178
     0
271
     2
272
     2
276
     2
284
    12
289
     0
340
93
341
13A
343
13A
344
13A
  0
ENDTAB
  0
TABLE
  2
BLOCK_RECORD
  5
1
330
0
100
AcDbSymbolTable
 70
    10
  0
BLOCK_RECORD
  5
1F
330
1
100
AcDbSymbolTableRecord
100
AcDbBlockTableRecord
  2
*Model_Space
340
22
  0
BLOCK_RECORD
  5
1B
330
1
100
AcDbSymbolTableRecord
100
AcDbBlockTableRecord
  2
*Paper_Space
340
1E
  0
BLOCK_RECORD
  5
23
330
1
100
AcDbSymbolTableRecord
100
AcDbBlockTableRecord
  2
*Paper_Space0
340
26
  0
BLOCK_RECORD
  5
7E
330
1
100
AcDbSymbolTableRecord
100
AcDbBlockTableRecord
  2
블럭10
340
0
102
{BLKREFS
331
F4
102
}
  0
BLOCK_RECORD
  5
FE
330
1
100
AcDbSymbolTableRecord
100
AcDbBlockTableRecord
  2
_D
340
0
  0
BLOCK_RECORD
  5
113
330
1
100
AcDbSymbolTableRecord
100
AcDbBlockTableRecord
  2
_D_1
340
0
  0
BLOCK_RECORD
  5
126
330
1
100
AcDbSymbolTableRecord
100
AcDbBlockTableRecord
  2
_D_2
340
0
  0
BLOCK_RECORD
  5
13A
330
1
100
AcDbSymbolTableRecord
100
AcDbBlockTableRecord
  2
_NONE
340
0
  0
BLOCK_RECORD
  5
13D
330
1
100
AcDbSymbolTableRecord
100
AcDbBlockTableRecord
  2
_D_3
340
0
  0
BLOCK_RECORD
  5
149
330
1
100
AcDbSymbolTableRecord
100
AcDbBlockTableRecord
  2
SW_DOWELSYMBOL_0
340
0
102
{BLKREFS
331
14F
102
}
  0
BLOCK_RECORD
  5
178
330
1
100
AcDbSymbolTableRecord
100
AcDbBlockTableRecord
  2
*D8
340
0
  0
BLOCK_RECORD
  5
18E
330
1
100
AcDbSymbolTableRecord
100
AcDbBlockTableRecord
  2
*D9
340
0
  0
ENDTAB
  0
ENDSEC
  0
SECTION
  2
BLOCKS
  0
BLOCK
  5
20
330
1F
100
AcDbEntity
  8
0
100
AcDbBlockBegin
  2
*Model_Space
 70
     0
 10
0.0
 20
0.0
 30
0.0
  3
*Model_Space
  1
*Model_Space
  0
ENDBLK
  5
21
330
1F
100
AcDbEntity
  8
0
100
AcDbBlockEnd
  0
BLOCK
  5
1C
330
1B
100
AcDbEntity
 67
     1
  8
0
100
AcDbBlockBegin
  2
*Paper_Space
 70
     0
 10
0.0
 20
0.0
 30
0.0
  3
*Paper_Space
  1
*Paper_Space
  0
ENDBLK
  5
1D
330
1B
100
AcDbEntity
 67
     1
  8
0
100
AcDbBlockEnd
  0
BLOCK
  5
24
330
23
100
AcDbEntity
  8
0
100
AcDbBlockBegin
  2
*Paper_Space0
 70
     0
 10
0.0
 20
0.0
 30
0.0
  3
*Paper_Space0
  1
*Paper_Space0
  0
ENDBLK
  5
25
330
23
100
AcDbEntity
  8
0
100
AcDbBlockEnd
  0
BLOCK
  5
7F
330
7E
100
AcDbEntity
  8
0
100
AcDbBlockBegin
  2
블럭10
 70
     2
 10
0.0
 20
0.0
 30
0.0
  3
블럭10
  1
블럭10
  0
ELLIPSE
  5
81
330
7E
100
AcDbEntity
  8
중심선
100
AcDbEllipse
 10
20.54032771741204
 20
12.0471743016438
 30
0.0
 11
6.600054785286829
 21
-1.261213355974178E-13
 31
0.0
210
0.0
220
0.0
230
1.0
 40
0.636358354079598
 41
0.9219305317359503
 42
6.513795318482858
  0
ELLIPSE
  5
82
330
7E
100
AcDbEntity
  8
중심선
100
AcDbEllipse
 10
20.54032771746488
 20
12.04717430159265
 30
0.0
 11
3.960054785062283
 21
1.540847449632565E-10
 31
0.0
210
0.0
220
0.0
230
1.0
 40
0.3939339440162632
 41
1.131841032648279
 42
5.62031148352944
  0
LINE
  5
83
330
7E
100
AcDbEntity
  8
중심선
100
AcDbLine
 10
2.268634060543552
 20
16.24717430164393
 30
0.0
 11
5.714909304380834
 21
16.24717430164393
 31
0.0
  0
LINE
  5
84
330
7E
100
AcDbEntity
  8
중심선
100
AcDbLine
 10
5.245725140726316
 20
7.84717430164391
 30
0.0
 11
8.692000384563599
 21
7.84717430164391
 31
0.0
  0
LINE
  5
85
330
7E
100
AcDbEntity
  8
중심선
100
AcDbLine
 10
15.74043728645272
 20
16.24717430164393
 30
0.0
 11
8.692000384563599
 21
7.84717430164391
 31
0.0
  0
LINE
  5
86
330
7E
100
AcDbEntity
  8
중심선
100
AcDbLine
 10
0.1404042013395286
 20
13.71084872107135
 30
0.0
 11
3.58671253028996
 21
13.71088815037384
 31
0.0
  0
LINE
  5
87
330
7E
100
AcDbEntity
  8
중심선
100
AcDbLine
 10
2.750260043222114
 20
10.84717430164391
 30
0.0
 11
6.196535287059397
 21
10.84717430164391
 31
0.0
  0
LINE
  5
88
330
7E
100
AcDbEntity
  8
중심선
100
AcDbLine
 10
12.29416204261559
 20
16.24717430164393
 30
0.0
 11
5.245725140726316
 21
7.84717430164391
 31
0.0
  0
LINE
  5
89
330
7E
100
AcDbEntity
  8
중심선
100
AcDbLine
 10
10.72767329541681
 20
16.24717430164393
 30
0.0
 11
6.196535287059397
 21
10.84717430164391
 31
0.0
  0
LINE
  5
8A
330
7E
100
AcDbEntity
  8
중심선
100
AcDbLine
 10
7.28139805157953
 20
16.24717430164393
 30
0.0
 11
2.750260043222114
 21
10.84717430164391
 31
0.0
  0
LINE
  5
8B
330
7E
100
AcDbEntity
  8
중심선
100
AcDbLine
 10
5.714909304380834
 20
16.24717430164393
 30
0.0
 11
3.58671253028996
 21
13.71088815037384
 31
0.0
  0
LINE
  5
8C
330
7E
100
AcDbEntity
  8
중심선
100
AcDbLine
 10
2.268634060543552
 20
16.24717430164393
 30
0.0
 11
0.1404042013395286
 21
13.71084872107135
 31
0.0
  0
LINE
  5
8D
330
7E
100
AcDbEntity
  8
중심선
100
AcDbLine
 10
7.28139805157953
 20
16.24717430164393
 30
0.0
 11
10.72767329541681
 21
16.24717430164393
 31
0.0
  0
LINE
  5
8E
330
7E
100
AcDbEntity
  8
중심선
100
AcDbLine
 10
12.29416204261559
 20
16.24717430164393
 30
0.0
 11
15.74043728645272
 21
16.24717430164393
 31
0.0
  0
LINE
  5
8F
330
7E
100
AcDbEntity
  8
중심선
100
AcDbLine
 10
19.22036997980202
 20
11.08717430171403
 30
0.0
 11
23.66174974927406
 21
11.08717430171406
 31
0.0
  0
LINE
  5
90
330
7E
100
AcDbEntity
  8
중심선
100
AcDbLine
 10
19.22039502424796
 20
13.00717430171391
 30
0.0
 11
19.22036997980202
 21
11.08717430171403
 31
0.0
  0
LINE
  5
91
330
7E
100
AcDbEntity
  8
중심선
100
AcDbLine
 10
19.22039502424796
 20
13.00717430171391
 30
0.0
 11
26.96566020931264
 21
13.00717430171391
 31
0.0
  0
LINE
  5
92
330
7E
100
AcDbEntity
  8
중심선
100
AcDbLine
 10
22.22332737316547
 20
13.45928029700563
 30
0.0
 11
24.52862924686651
 21
15.39360700705356
 31
0.0
  0
ATTDEF
  5
94
330
7E
100
AcDbEntity
  8
FORMAT
 62
     2
100
AcDbText
 10
-11.05102035218446
 20
2.075366912832191
 30
0.0
 40
4.233333333333333
  1
GMG22936[ 6 FLUTE ]
 41
0.75
  7
SLDTEXTSTYLE0
 11
-11.05102035218446
 21
-0.0412997538344756
 31
0.0
100
AcDbAttributeDefinition
  3

  2
AUTOATTR0
 70
     0
 74
     1
  0
ENDBLK
  5
80
330
7E
100
AcDbEntity
  8
0
100
AcDbBlockEnd
  0
BLOCK
  5
FF
330
FE
100
AcDbEntity
  8
0
100
AcDbBlockBegin
  2
_D
 70
     0
 10
0.0
 20
0.0
 30
0.0
  3
_D
  1
_D
  0
LINE
  5
101
330
FE
100
AcDbEntity
  8
치수문자_일반주서
 62
     0
370
    -2
100
AcDbLine
 10
58.76379471463882
 20
-8.199774431170688
 30
0.0
 11
76.34654043041185
 21
-8.199774431170622
 31
0.0
  0
LINE
  5
102
330
FE
100
AcDbEntity
  8
치수문자_일반주서
 62
     0
370
    -2
100
AcDbLine
 10
57.76379471463883
 20
7.675225568829314
 30
0.0
 11
76.34654043041179
 21
7.675225568829383
 31
0.0
  0
LINE
  5
103
330
FE
100
AcDbEntity
  8
치수문자_일반주서
 62
     0
370
    -2
100
AcDbLine
 10
76.34654043041184
 20
-4.897774431170623
 30
0.0
 11
76.3465404304118
 21
4.373225568829383
 31
0.0
  0
SOLID
  5
104
330
FE
100
AcDbEntity
  8
치수문자_일반주서
 62
     0
100
AcDbTrace
 10
75.79620709707851
 20
-4.897774431170625
 30
0.0
 11
76.89687376374516
 21
-4.897774431170621
 31
0.0
 12
76.34654043041185
 22
-8.199774431170622
 32
0.0
 13
76.34654043041185
 23
-8.199774431170622
 33
0.0
  0
SOLID
  5
105
330
FE
100
AcDbEntity
  8
치수문자_일반주서
 62
     0
100
AcDbTrace
 10
76.89687376374513
 20
4.373225568829385
 30
0.0
 11
75.79620709707848
 21
4.373225568829382
 31
0.0
 12
76.34654043041179
 22
7.675225568829383
 32
0.0
 13
76.34654043041179
 23
7.675225568829383
 33
0.0
  0
MTEXT
  5
106
330
FE
100
AcDbEntity
  8
치수문자_일반주서
 62
     0
100
AcDbMText
 10
71.9715404304118
 20
4.003671784175769
 30
0.0
 40
3.5
 41
0.0
 71
     2
 72
     1
  1
\A1;%%c15.88 [5/8]
  7
SLDTEXTSTYLE0
 11
-3.580687802255622E-15
 21
1.0
 31
0.0
 73
     1
 44
1.0
  0
POINT
  5
107
330
FE
100
AcDbEntity
  8
Defpoints
 62
     0
100
AcDbPoint
 10
58.70129471463882
 20
-8.199774431170688
 30
0.0
  0
POINT
  5
108
330
FE
100
AcDbEntity
  8
Defpoints
 62
     0
100
AcDbPoint
 10
57.70129471463883
 20
7.675225568829314
 30
0.0
  0
POINT
  5
109
330
FE
100
AcDbEntity
  8
Defpoints
 62
     0
100
AcDbPoint
 10
76.34654043041179
 20
7.675225568829383
 30
0.0
  0
ENDBLK
  5
100
330
FE
100
AcDbEntity
  8
0
100
AcDbBlockEnd
  0
BLOCK
  5
114
330
113
100
AcDbEntity
  8
0
100
AcDbBlockBegin
  2
_D_1
 70
     0
 10
0.0
 20
0.0
 30
0.0
  3
_D_1
  1
_D_1
  0
LINE
  5
116
330
113
100
AcDbEntity
  8
치수문자_일반주서
 62
     0
370
    -2
100
AcDbLine
 10
-40.80048592007447
 20
7.237725568829306
 30
0.0
 11
-40.80048592007447
 21
40.33077698690109
 31
0.0
  0
LINE
  5
117
330
113
100
AcDbEntity
  8
치수문자_일반주서
 62
     0
370
    -2
100
AcDbLine
 10
60.79951407992552
 20
6.975725568829314
 30
0.0
 11
60.79951407992552
 21
40.33077698690109
 31
0.0
  0
LINE
  5
118
330
113
100
AcDbEntity
  8
치수문자_일반주서
 62
     0
370
    -2
100
AcDbLine
 10
-37.49848592007447
 20
40.33077698690109
 30
0.0
 11
57.49751407992552
 21
40.33077698690109
 31
0.0
  0
SOLID
  5
119
330
113
100
AcDbEntity
  8
치수문자_일반주서
 62
     0
100
AcDbTrace
 10
-37.49848592007447
 20
40.88111032023443
 30
0.0
 11
-37.49848592007447
 21
39.78044365356776
 31
0.0
 12
-40.80048592007447
 22
40.33077698690109
 32
0.0
 13
-40.80048592007447
 23
40.33077698690109
 33
0.0
  0
SOLID
  5
11A
330
113
100
AcDbEntity
  8
치수문자_일반주서
 62
     0
100
AcDbTrace
 10
57.49751407992552
 20
39.78044365356776
 30
0.0
 11
57.49751407992552
 21
40.88111032023443
 31
0.0
 12
60.79951407992552
 22
40.33077698690109
 32
0.0
 13
60.79951407992552
 23
40.33077698690109
 33
0.0
  0
MTEXT
  5
11B
330
113
100
AcDbEntity
  8
치수문자_일반주서
 62
     0
100
AcDbMText
 10
9.99951407992553
 20
44.70577698690109
 30
0.0
 40
3.5
 41
0.0
 71
     2
 72
     1
  1
\A1;101.60 [4]
  7
SLDTEXTSTYLE0
 73
     1
 44
1.0
  0
POINT
  5
11C
330
113
100
AcDbEntity
  8
Defpoints
 62
     0
100
AcDbPoint
 10
-40.80048592007447
 20
7.175225568829306
 30
0.0
  0
POINT
  5
11D
330
113
100
AcDbEntity
  8
Defpoints
 62
     0
100
AcDbPoint
 10
60.79951407992552
 20
6.913225568829314
 30
0.0
  0
POINT
  5
11E
330
113
100
AcDbEntity
  8
Defpoints
 62
     0
100
AcDbPoint
 10
60.79951407992552
 20
40.33077698690109
 30
0.0
  0
ENDBLK
  5
115
330
113
100
AcDbEntity
  8
0
100
AcDbBlockEnd
  0
BLOCK
  5
127
330
126
100
AcDbEntity
  8
0
100
AcDbBlockBegin
  2
_D_2
 70
     0
 10
0.0
 20
0.0
 30
0.0
  3
_D_2
  1
_D_2
  0
LINE
  5
129
330
126
100
AcDbEntity
  8
치수문자_일반주서
 62
     0
370
    -2
100
AcDbLine
 10
60.79951407992552
 20
5.451725568829314
 30
0.0
 11
60.79951407992552
 21
24.54022009916724
 31
0.0
  0
LINE
  5
12A
330
126
100
AcDbEntity
  8
치수문자_일반주서
 62
     0
370
    -2
100
AcDbLine
 10
9.999514079925518
 20
-8.137274431170688
 30
0.0
 11
9.999514079925518
 21
24.54022009916724
 31
0.0
  0
LINE
  5
12B
330
126
100
AcDbEntity
  8
치수문자_일반주서
 62
     0
370
    -2
100
AcDbLine
 10
57.49751407992552
 20
24.54022009916724
 30
0.0
 11
13.30151407992552
 21
24.54022009916724
 31
0.0
  0
SOLID
  5
12C
330
126
100
AcDbEntity
  8
치수문자_일반주서
 62
     0
100
AcDbTrace
 10
57.49751407992552
 20
23.98988676583391
 30
0.0
 11
57.49751407992552
 21
25.09055343250057
 31
0.0
 12
60.79951407992552
 22
24.54022009916724
 32
0.0
 13
60.79951407992552
 23
24.54022009916724
 33
0.0
  0
SOLID
  5
12D
330
126
100
AcDbEntity
  8
치수문자_일반주서
 62
     0
100
AcDbTrace
 10
13.30151407992552
 20
25.09055343250057
 30
0.0
 11
13.30151407992552
 21
23.98988676583391
 31
0.0
 12
9.999514079925518
 22
24.54022009916724
 32
0.0
 13
9.999514079925518
 23
24.54022009916724
 33
0.0
  0
MTEXT
  5
12E
330
126
100
AcDbEntity
  8
치수문자_일반주서
 62
     0
100
AcDbMText
 10
34.84071634372848
 20
28.91522009916724
 30
0.0
 40
3.5
 41
0.0
 71
     2
 72
     1
  1
\A1;50.80 [2]
  7
SLDTEXTSTYLE0
 73
     1
 44
1.0
  0
POINT
  5
12F
330
126
100
AcDbEntity
  8
Defpoints
 62
     0
100
AcDbPoint
 10
60.79951407992552
 20
5.389225568829314
 30
0.0
  0
POINT
  5
130
330
126
100
AcDbEntity
  8
Defpoints
 62
     0
100
AcDbPoint
 10
9.999514079925518
 20
-8.199774431170688
 30
0.0
  0
POINT
  5
131
330
126
100
AcDbEntity
  8
Defpoints
 62
     0
100
AcDbPoint
 10
9.999514079925518
 20
24.54022009916724
 30
0.0
  0
ENDBLK
  5
128
330
126
100
AcDbEntity
  8
0
100
AcDbBlockEnd
  0
BLOCK
  5
13B
330
13A
100
AcDbEntity
  8
0
100
AcDbBlockBegin
  2
_NONE
 70
     0
 10
0.0
 20
0.0
 30
0.0
  3
_NONE
  1
_NONE
  0
ENDBLK
  5
13C
330
13A
100
AcDbEntity
  8
0
100
AcDbBlockEnd
  0
BLOCK
  5
13E
330
13D
100
AcDbEntity
  8
0
100
AcDbBlockBegin
  2
_D_3
 70
     0
 10
0.0
 20
0.0
 30
0.0
  3
_D_3
  1
_D_3
  0
LINE
  5
140
330
13D
100
AcDbEntity
  8
치수문자_일반주서
100
AcDbLine
 10
-64.5933676361172
 20
-13.61414086223942
 30
0.0
 11
-64.5933676361172
 21
-14.32507834780392
 31
0.0
  0
LINE
  5
141
330
13D
100
AcDbEntity
  8
치수문자_일반주서
100
AcDbLine
 10
-64.5933676361172
 20
-14.32507834780392
 30
0.0
 11
-59.0371176450579
 21
-14.32507834780388
 31
0.0
  0
LINE
  5
142
330
13D
100
AcDbEntity
  8
치수문자_일반주서
100
AcDbLine
 10
-59.0371176450579
 20
-14.32507834780388
 30
0.0
 11
-59.0371176450579
 21
-13.61414086223938
 31
0.0
  0
LINE
  5
143
330
13D
100
AcDbEntity
  8
치수문자_일반주서
100
AcDbLine
 10
-64.59336763611728
 20
-2.785408000102166
 30
0.0
 11
-64.59336763611728
 21
-2.074470514537666
 31
0.0
  0
LINE
  5
144
330
13D
100
AcDbEntity
  8
치수문자_일반주서
100
AcDbLine
 10
-64.59336763611728
 20
-2.074470514537666
 30
0.0
 11
-59.03711764505798
 21
-2.074470514537627
 31
0.0
  0
LINE
  5
145
330
13D
100
AcDbEntity
  8
치수문자_일반주서
100
AcDbLine
 10
-59.03711764505798
 20
-2.074470514537627
 30
0.0
 11
-59.03711764505798
 21
-2.785408000102127
 31
0.0
  0
MTEXT
  5
146
330
13D
100
AcDbEntity
  8
치수문자_일반주서
100
AcDbMText
 10
-63.54885455963681
 20
-12.72546896162804
 30
0.0
 40
3.5
 41
0.0
 71
     1
 72
     1
  1
0.00
  7
SLDTEXTSTYLE0
 11
-7.044195017643634E-15
 21
1.0
 31
0.0
 73
     1
 44
1.0
  0
MTEXT
  5
147
330
13D
100
AcDbEntity
  8
치수문자_일반주서
100
AcDbMText
 10
-58.31222300927633
 20
-12.13204884353452
 30
0.0
 40
3.5
 41
0.0
 71
     1
 72
     1
  1
%%c
  7
SLDTEXTSTYLE0
 11
-7.044195017643634E-15
 21
1.0
 31
0.0
 73
     1
 44
1.0
  0
MTEXT
  5
148
330
13D
100
AcDbEntity
  8
치수문자_일반주서
100
AcDbMText
 10
-58.31222300927637
 20
-6.85361144516044
 30
0.0
 40
3.5
 41
0.0
 71
     1
 72
     1
  1
0
  7
SLDTEXTSTYLE0
 11
-7.044195017643634E-15
 21
1.0
 31
0.0
 73
     1
 44
1.0
  0
ENDBLK
  5
13F
330
13D
100
AcDbEntity
  8
0
100
AcDbBlockEnd
  0
BLOCK
  5
14A
330
149
100
AcDbEntity
  8
0
100
AcDbBlockBegin
  2
SW_DOWELSYMBOL_0
 70
     0
 10
0.0
 20
0.0
 30
0.0
  3
SW_DOWELSYMBOL_0
  1
SW_DOWELSYMBOL_0
  0
CIRCLE
  5
14C
330
149
100
AcDbEntity
  8
외형선
 62
     0
100
AcDbCircle
 10
0.0
 20
0.0
 30
0.0
 40
3.000000000000004
  0
HATCH
  5
14D
330
149
100
AcDbEntity
  8
0
  6
Continuous
 62
     0
370
    30
100
AcDbHatch
 10
0.0
 20
0.0
 30
0.0
210
0.0
220
0.0
230
1.0
  2
SOLID
 70
     1
 71
     0
 91
        1
 92
        0
 93
        3
 72
     2
 10
0.0
 20
0.0
 40
3.000000000000004
 50
0.0
 51
90.0
 73
     1
 72
     1
 10
0.0
 20
3.000000000000004
 11
0.0
 21
0.0
 72
     1
 10
0.0
 20
0.0
 11
3.000000000000004
 21
0.0
 97
        0
 75
     0
 76
     1
 98
        1
 10
0.0
 20
0.0
  0
HATCH
  5
14E
330
149
100
AcDbEntity
  8
0
  6
Continuous
 62
     0
370
    30
100
AcDbHatch
 10
0.0
 20
0.0
 30
0.0
210
0.0
220
0.0
230
1.0
  2
SOLID
 70
     1
 71
     0
 91
        1
 92
        0
 93
        3
 72
     2
 10
0.0
 20
0.0
 40
3.000000000000004
 50
180.0
 51
270.0000000000008
 73
     1
 72
     1
 10
0.0
 20
-3.000000000000004
 11
0.0
 21
0.0
 72
     1
 10
0.0
 20
0.0
 11
-3.000000000000004
 21
0.0
 97
        0
 75
     0
 76
     1
 98
        1
 10
0.0
 20
0.0
  0
ENDBLK
  5
14B
330
149
100
AcDbEntity
  8
0
100
AcDbBlockEnd
  0
BLOCK
  5
179
330
178
100
AcDbEntity
  8
0
100
AcDbBlockBegin
  2
*D8
 70
     1
 10
0.0
 20
0.0
 30
0.0
  3
*D8
  1
*D8
  0
LINE
  5
17B
330
178
100
AcDbEntity
  8
치수문자_일반주서
 62
     0
370
    -2
100
AcDbLine
 10
-40.36298592007447
 20
7.675225568829309
 30
0.0
 11
-50.04046603812089
 21
7.675225568829308
 31
0.0
  0
LINE
  5
17C
330
178
100
AcDbEntity
  8
치수문자_일반주서
 62
     0
370
    -2
100
AcDbLine
 10
-40.36298592007447
 20
-8.199774431170692
 30
0.0
 11
-50.04046603812089
 21
-8.199774431170692
 31
0.0
  0
LINE
  5
17D
330
178
100
AcDbEntity
  8
치수문자_일반주서
 62
     0
370
    -2
100
AcDbLine
 10
-50.04046603812089
 20
4.373225568829309
 30
0.0
 11
-50.04046603812089
 21
-4.897774431170692
 31
0.0
  0
SOLID
  5
17E
330
178
100
AcDbEntity
  8
치수문자_일반주서
 62
     0
100
AcDbTrace
 10
-49.49013270478756
 20
4.373225568829309
 30
0.0
 11
-50.59079937145422
 21
4.373225568829309
 31
0.0
 12
-50.04046603812089
 22
7.675225568829308
 32
0.0
 13
-50.04046603812089
 23
7.675225568829308
 33
0.0
  0
SOLID
  5
17F
330
178
100
AcDbEntity
  8
치수문자_일반주서
 62
     0
100
AcDbTrace
 10
-50.59079937145422
 20
-4.897774431170692
 30
0.0
 11
-49.49013270478756
 21
-4.897774431170692
 31
0.0
 12
-50.04046603812089
 22
-8.199774431170692
 32
0.0
 13
-50.04046603812089
 23
-8.199774431170692
 33
0.0
  0
MTEXT
  5
180
330
178
100
AcDbEntity
  8
치수문자_일반주서
 62
     0
100
AcDbMText
 10
-52.66546603812089
 20
-0.2622744311706917
 30
0.0
 40
3.5
 41
0.0
 71
     5
 72
     1
  1
\A1;{%%C15.88 [5/8]}
  7
SLDTEXTSTYLE0
 11
0.0
 21
1.0
 31
0.0
 73
     1
 44
1.0
  0
POINT
  5
181
330
178
100
AcDbEntity
  8
Defpoints
 62
     0
100
AcDbPoint
 10
-40.30048592007447
 20
7.675225568829309
 30
0.0
  0
POINT
  5
182
330
178
100
AcDbEntity
  8
Defpoints
 62
     0
100
AcDbPoint
 10
-40.30048592007447
 20
-8.199774431170692
 30
0.0
  0
POINT
  5
183
330
178
100
AcDbEntity
  8
Defpoints
 62
     0
100
AcDbPoint
 10
-50.04046603812089
 20
-8.199774431170692
 30
0.0
  0
ENDBLK
  5
17A
330
178
100
AcDbEntity
  8
0
100
AcDbBlockEnd
  0
BLOCK
  5
18F
330
18E
100
AcDbEntity
  8
0
100
AcDbBlockBegin
  2
*D9
 70
     1
 10
0.0
 20
0.0
 30
0.0
  3
*D9
  1
*D9
  0
LINE
  5
191
330
18E
100
AcDbEntity
  8
치수문자_일반주서
 62
     0
370
    -2
100
AcDbLine
 10
61.96342621918619
 20
9.785115721162732
 30
0.0
 11
84.58860968272464
 21
38.61420387394681
 31
0.0
  0
MTEXT
  5
192
330
18E
100
AcDbEntity
  8
치수문자_일반주서
 62
     0
100
AcDbMText
 10
72.93494834364672
 20
28.01691511895948
 30
0.0
 40
3.5
 41
0.0
 71
     5
 72
     1
  1
\A1;R2.29 [R0.090]
  7
SLDTEXTSTYLE0
 11
0.6173786934968978
 21
0.786666097411134
 31
0.0
 73
     1
 44
1.0
  0
LINE
  5
193
330
18E
100
AcDbEntity
  8
치수문자_일반주서
 62
     0
370
    -2
100
AcDbLine
 10
58.51351407992552
 20
5.389225568829314
 30
0.0
 11
59.92484177325943
 21
7.187544267511168
 31
0.0
  0
SOLID
  5
194
330
18E
100
AcDbEntity
  8
치수문자_일반주서
 62
     0
100
AcDbTrace
 10
61.5304976435776
 20
10.12487979548386
 30
0.0
 11
62.39635479479478
 21
9.445351646841607
 31
0.0
 12
59.92484177325943
 22
7.187544267511168
 32
0.0
 13
59.92484177325943
 23
7.187544267511168
 33
0.0
  0
POINT
  5
195
330
18E
100
AcDbEntity
  8
Defpoints
 62
     0
100
AcDbPoint
 10
59.92484177325943
 20
7.187544267511168
 30
0.0
  0
POINT
  5
196
330
18E
100
AcDbEntity
  8
Defpoints
 62
     0
100
AcDbPoint
 10
58.51351407992552
 20
5.389225568829314
 30
0.0
  0
ENDBLK
  5
190
330
18E
100
AcDbEntity
  8
0
100
AcDbBlockEnd
  0
ENDSEC
  0
SECTION
  2
ENTITIES
  0
LINE
  5
95
330
1F
100
AcDbEntity
  8
0
  6
Continuous
 62
     4
370
    15
100
AcDbLine
 10
9.999514079925518
 20
7.675225568829313
 30
0.0
 11
-40.30048592007447
 21
7.675225568829309
 31
0.0
  0
LINE
  5
96
330
1F
100
AcDbEntity
  8
0
  6
Continuous
 62
     4
370
    15
100
AcDbLine
 10
-40.30048592007447
 20
-8.199774431170692
 30
0.0
 11
9.999514079925518
 21
-8.199774431170688
 31
0.0
  0
LINE
  5
97
330
1F
100
AcDbEntity
  8
0
  6
Continuous
 62
     4
370
    15
100
AcDbLine
 10
-40.30048592007447
 20
7.675225568829309
 30
0.0
 11
-40.80048592007447
 21
7.175225568829305
 31
0.0
  0
LINE
  5
98
102
{ACAD_REACTORS
102
}
330
1F
100
AcDbEntity
  8
0
  6
Continuous
 62
     4
370
    15
100
AcDbLine
 10
-40.80048592007447
 20
-7.699774431170687
 30
0.0
 11
-40.30048592007447
 21
-8.199774431170692
 31
0.0
  0
LINE
  5
99
330
1F
100
AcDbEntity
  8
0
  6
Continuous
 62
     1
370
    15
100
AcDbLine
 10
40.73985974581785
 20
-8.199774431170688
 30
0.0
 11
43.45460662200051
 21
-8.199774431170688
 31
0.0
  0
LINE
  5
9A
330
1F
100
AcDbEntity
  8
0
  6
Continuous
 62
     1
370
    15
100
AcDbLine
 10
18.51745107239159
 20
7.675225568829313
 30
0.0
 11
15.80418119408875
 21
7.675225568829313
 31
0.0
  0
LINE
  5
9B
330
1F
100
AcDbEntity
  8
0
  6
Continuous
 62
     1
370
    15
100
AcDbLine
 10
15.80418119408881
 20
-8.199774431170688
 30
0.0
 11
18.51745107239165
 21
-8.199774431170688
 31
0.0
  0
LINE
  5
9C
330
1F
100
AcDbEntity
  8
0
  6
Continuous
 62
     1
370
    15
100
AcDbLine
 10
43.45460662200058
 20
7.675225568829313
 30
0.0
 11
40.73985974581792
 21
7.675225568829313
 31
0.0
  0
LINE
  5
9D
330
1F
100
AcDbEntity
  8
0
  6
Continuous
 62
     1
370
    15
100
AcDbLine
 10
49.0525364717843
 20
-8.199774431170688
 30
0.0
 11
51.76582128905666
 21
-8.199774431170688
 31
0.0
  0
LINE
  5
9E
330
1F
100
AcDbEntity
  8
0
  6
Continuous
 62
     1
370
    15
100
AcDbLine
 10
26.83023156311219
 20
7.675225568829313
 30
0.0
 11
24.11587753432433
 21
7.675225568829313
 31
0.0
  0
LINE
  5
9F
330
1F
100
AcDbEntity
  8
0
  6
Continuous
 62
     1
370
    15
100
AcDbLine
 10
24.11587753432438
 20
-8.199774431170688
 30
0.0
 11
26.83023156311217
 21
-8.199774431170688
 31
0.0
  0
LINE
  5
A0
330
1F
100
AcDbEntity
  8
0
  6
Continuous
 62
     1
370
    15
100
AcDbLine
 10
51.76582128905666
 20
7.675225568829313
 30
0.0
 11
49.05253647178437
 21
7.675225568829313
 31
0.0
  0
LINE
  5
A1
330
1F
100
AcDbEntity
  8
0
  6
Continuous
 62
     1
370
    15
100
AcDbLine
 10
57.36507534935212
 20
-8.199774431170688
 30
0.0
 11
58.51351407992552
 21
-8.199774431170688
 31
0.0
  0
LINE
  5
A2
330
1F
100
AcDbEntity
  8
0
  6
Continuous
 62
     1
370
    15
100
AcDbLine
 10
9.99951407992552
 20
-8.199774431170688
 30
0.0
 11
10.20531797049686
 21
-8.199774431170688
 31
0.0
  0
LINE
  5
A3
330
1F
100
AcDbEntity
  8
0
  6
Continuous
 62
     1
370
    15
100
AcDbLine
 10
35.14283695900258
 20
7.675225568829313
 30
0.0
 11
32.4275753048607
 21
7.675225568829313
 31
0.0
  0
LINE
  5
A4
330
1F
100
AcDbEntity
  8
0
  6
Continuous
 62
     1
370
    15
100
AcDbLine
 10
32.4275753048607
 20
-8.199774431170688
 30
0.0
 11
35.1428369590025
 21
-8.199774431170688
 31
0.0
  0
LINE
  5
A5
330
1F
100
AcDbEntity
  8
0
  6
Continuous
 62
     1
370
    15
100
AcDbLine
 10
10.2053179704968
 20
7.675225568829313
 30
0.0
 11
9.99951407992552
 21
7.675225568829313
 31
0.0
  0
LINE
  5
A6
330
1F
100
AcDbEntity
  8
0
  6
Continuous
 62
     1
370
    15
100
AcDbLine
 10
58.51351407992552
 20
7.675225568829313
 30
0.0
 11
57.36507534935213
 21
7.675225568829313
 31
0.0
  0
SPLINE
  5
A7
330
1F
100
AcDbEntity
  8
0
  6
Continuous
 62
     4
370
    15
100
AcDbSpline
210
0.0
220
0.0
230
1.0
 70
     8
 71
     3
 72
    14
 73
    10
 74
     0
 42
0.000000001
 43
0.00000001
 40
0.0
 40
0.0
 40
0.0
 40
0.0
 40
0.25
 40
0.25
 40
0.5
 40
0.5
 40
0.7500000000000001
 40
0.7500000000000001
 40
1.0
 40
1.0
 40
1.0
 40
1.0
 10
7.47651797427757
 20
-1.682444993904458
 30
0.0
 10
7.365176210392187
 20
-1.572881829925028
 30
0.0
 10
7.27360327300249
 20
-1.449431268212942
 30
0.0
 10
7.125120265208139
 20
-1.177559005185429
 30
0.0
 10
7.069784957189664
 20
-1.030539054499446
 30
0.0
 10
6.993343353162169
 20
-0.7295901874145574
 30
0.0
 10
6.971654127486858
 20
-0.573423780530575
 30
0.0
 10
6.94990353561142
 20
-0.2624058992491347
 30
0.0
 10
6.949788896125949
 20
-0.1062548746318232
 30
0.0
 10
6.949788896125953
 20
0.0499355884147594
 30
0.0
  0
SPLINE
  5
A8
330
1F
100
AcDbEntity
  8
0
  6
Continuous
 62
     4
370
    15
100
AcDbSpline
210
0.0
220
0.0
230
1.0
 70
     8
 71
     3
 72
    22
 73
    18
 74
     0
 42
0.000000001
 43
0.00000001
 40
0.0
 40
0.0
 40
0.0
 40
0.0
 40
0.1249999999999999
 40
0.1249999999999999
 40
0.2499999999999999
 40
0.2499999999999999
 40
0.3749999999999999
 40
0.3749999999999999
 40
0.4999999999999998
 40
0.4999999999999998
 40
0.6249999999999998
 40
0.6249999999999998
 40
0.7499999999999998
 40
0.7499999999999998
 40
0.8749999999999999
 40
0.8749999999999999
 40
1.0
 40
1.0
 40
1.0
 40
1.0
 10
6.949788896125946
 20
0.0499355884147177
 30
0.0
 10
6.949788896125949
 20
0.2256330187703676
 30
0.0
 10
6.950217575936787
 20
0.4007096002436178
 30
0.0
 10
6.980938750375934
 20
0.7469898649862198
 30
0.0
 10
7.011166921539074
 20
0.9202294544984492
 30
0.0
 10
7.117473490169793
 20
1.251783023057785
 30
0.0
 10
7.192963584546396
 20
1.408859949394507
 30
0.0
 10
7.393949777418585
 20
1.692304038629286
 30
0.0
 10
7.515454991579511
 20
1.814236733041889
 30
0.0
 10
7.803392727046385
 20
2.015269662404411
 30
0.0
 10
7.961341315126693
 20
2.088624563929218
 30
0.0
 10
8.30374575490256
 20
2.180763101366752
 30
0.0
 10
8.479620704088207
 20
2.197017877427891
 30
0.0
 10
8.833380469507345
 20
2.169998633541929
 30
0.0
 10
9.005061835843271
 20
2.126882261356226
 30
0.0
 10
9.32612038971102
 20
1.984185033106998
 30
0.0
 10
9.471203784188143
 20
1.886541199110695
 30
0.0
 10
9.597170618997415
 20
1.76491603402506
 30
0.0
  0
SPLINE
  5
A9
330
1F
100
AcDbEntity
  8
0
  6
Continuous
 62
     4
370
    15
100
AcDbSpline
210
0.0
220
0.0
230
1.0
 70
     8
 71
     3
 72
     8
 73
     4
 74
     0
 42
0.000000001
 43
0.00000001
 40
0.0
 40
0.0
 40
0.0
 40
0.0
 40
1.0
 40
1.0
 40
1.0
 40
1.0
 10
9.99951407992552
 20
7.2823913050975
 30
0.0
 10
9.865334167605265
 20
7.323979539999524
 30
0.0
 10
9.731133947693593
 20
7.362349461563102
 30
0.0
 10
9.597170618997415
 20
7.397432732538839
 30
0.0
  0
SPLINE
  5
AA
330
1F
100
AcDbEntity
  8
0
  6
Continuous
 62
     4
370
    15
100
AcDbSpline
210
0.0
220
0.0
230
1.0
 70
     8
 71
     3
 72
    22
 73
    18
 74
     0
 42
0.000000001
 43
0.00000001
 40
0.0
 40
0.0
 40
0.0
 40
0.0
 40
0.125
 40
0.125
 40
0.25
 40
0.25
 40
0.375
 40
0.375
 40
0.5
 40
0.5
 40
0.625
 40
0.625
 40
0.75
 40
0.75
 40
0.875
 40
0.875
 40
1.0
 40
1.0
 40
1.0
 40
1.0
 10
6.949788896125946
 20
6.762587625225278
 30
0.0
 10
6.949788896125949
 20
6.844446774408819
 30
0.0
 10
6.950217575936789
 20
6.920933006504502
 30
0.0
 10
6.980938750375937
 20
7.062306710737892
 30
0.0
 10
7.01116692153907
 20
7.127905143186537
 30
0.0
 10
7.117473490169791
 20
7.244189534344655
 30
0.0
 10
7.192963584546398
 20
7.294476060138208
 30
0.0
 10
7.393949777418585
 20
7.378612916496214
 30
0.0
 10
7.515454991579507
 20
7.411280676351728
 30
0.0
 10
7.803392727046381
 20
7.462142491380964
 30
0.0
 10
7.961341315126689
 20
7.478967983483314
 30
0.0
 10
8.303745754902558
 20
7.499760897658291
 30
0.0
 10
8.479620704088203
 20
7.503195461197512
 30
0.0
 10
8.833380469507341
 20
7.497264636064494
 30
0.0
 10
9.00506183584327
 20
7.487916112164754
 30
0.0
 10
9.326120389711019
 20
7.454298038988185
 30
0.0
 10
9.471203784188146
 20
7.430421824722361
 30
0.0
 10
9.597170618997415
 20
7.397432732538839
 30
0.0
  0
SPLINE
  5
AB
330
1F
100
AcDbEntity
  8
0
  6
Continuous
 62
     4
370
    15
100
AcDbSpline
210
0.0
220
0.0
230
1.0
 70
     8
 71
     3
 72
    14
 73
    10
 74
     0
 42
0.000000001
 43
0.00000001
 40
0.0
 40
0.0
 40
0.0
 40
0.0
 40
0.2499999999999999
 40
0.2499999999999999
 40
0.4999999999999999
 40
0.4999999999999999
 40
0.7499999999999999
 40
0.7499999999999999
 40
1.0
 40
1.0
 40
1.0
 40
1.0
 10
7.476517974277557
 20
5.790795347569983
 30
0.0
 10
7.365176210392174
 20
5.862832010087282
 30
0.0
 10
7.273603273002494
 20
5.941943121465401
 30
0.0
 10
7.125120265208141
 20
6.109338489654739
 30
0.0
 10
7.069784957189664
 20
6.19664390765775
 30
0.0
 10
6.993343353162169
 20
6.367465325390848
 30
0.0
 10
6.971654127486855
 20
6.45226468494034
 30
0.0
 10
6.949903535611418
 20
6.613056108726503
 30
0.0
 10
6.949788896125945
 20
6.689816962673143
 30
0.0
 10
6.949788896125949
 20
6.76258762522464
 30
0.0
  0
SPLINE
  5
AC
330
1F
100
AcDbEntity
  8
0
  6
Continuous
 62
     4
370
    15
100
AcDbSpline
210
0.0
220
0.0
230
1.0
 70
     8
 71
     3
 72
    12
 73
     8
 74
     0
 42
0.000000001
 43
0.00000001
 40
0.0
 40
0.0
 40
0.0
 40
0.0
 40
0.2500000000000001
 40
0.2500000000000001
 40
0.5000000000000002
 40
0.5000000000000002
 40
1.0
 40
1.0
 40
1.0
 40
1.0
 10
9.999514079925513
 20
3.883678678850119
 30
0.0
 10
9.788620014066481
 20
4.063082031177383
 30
0.0
 10
9.577676483017783
 20
4.238123095193068
 30
0.0
 10
9.157682677396387
 20
4.577864916493333
 30
0.0
 10
8.949553740002056
 20
4.742340220069005
 30
0.0
 10
8.320438609164864
 20
5.220749365460338
 30
0.0
 10
7.896670289844426
 20
5.518962303919729
 30
0.0
 10
7.476517974277558
 20
5.790795347569982
 30
0.0
  0
LINE
  5
AD
330
1F
100
AcDbEntity
  8
0
  6
Continuous
 62
     4
370
    15
100
AcDbLine
 10
9.999514079925527
 20
3.883678678850121
 30
0.0
 11
9.999514079925522
 21
1.374304733118872
 31
0.0
  0
SPLINE
  5
AE
330
1F
100
AcDbEntity
  8
0
  6
Continuous
 62
     4
370
    15
100
AcDbSpline
210
0.0
220
0.0
230
1.0
 70
     8
 71
     3
 72
     8
 73
     4
 74
     0
 42
0.000000001
 43
0.00000001
 40
0.0
 40
0.0
 40
0.0
 40
0.0
 40
1.0
 40
1.0
 40
1.0
 40
1.0
 10
9.999514079925522
 20
1.374304733118868
 30
0.0
 10
9.865334167605267
 20
1.505283371261228
 30
0.0
 10
9.731133947693593
 20
1.635569988355472
 30
0.0
 10
9.597170618997415
 20
1.76491603402506
 30
0.0
  0
SPLINE
  5
AF
330
1F
100
AcDbEntity
  8
0
  6
Continuous
 62
     4
370
    15
100
AcDbSpline
210
0.0
220
0.0
230
1.0
 70
     8
 71
     3
 72
    12
 73
     8
 74
     0
 42
0.000000001
 43
0.00000001
 40
0.0
 40
0.0
 40
0.0
 40
0.0
 40
0.2499999999999999
 40
0.2499999999999999
 40
0.4999999999999999
 40
0.4999999999999999
 40
1.0
 40
1.0
 40
1.0
 40
1.0
 10
9.999514079925513
 20
-4.051143515089361
 30
0.0
 10
9.788620014066481
 20
-3.866275836738243
 30
0.0
 10
9.577676483017784
 20
-3.67739541526616
 30
0.0
 10
9.157682677396387
 20
-3.29342660035354
 30
0.0
 10
8.949553740002056
 20
-3.098634988207958
 30
0.0
 10
8.320438609164864
 20
-2.504491150983395
 30
0.0
 10
7.896670289844426
 20
-2.095885696120923
 30
0.0
 10
7.476517974277558
 20
-1.682444993904472
 30
0.0
  0
LINE
  5
B0
330
1F
100
AcDbEntity
  8
0
  6
Continuous
 62
     1
370
    15
100
AcDbLine
 10
9.999514079925527
 20
-4.05114351508947
 30
0.0
 11
9.999514079925522
 21
-6.170361003149328
 31
0.0
  0
SPLINE
  5
B1
330
1F
100
AcDbEntity
  8
0
  6
Continuous
 62
     4
370
    15
100
AcDbSpline
210
0.0
220
0.0
230
1.0
 70
     8
 71
     3
 72
     8
 73
     4
 74
     0
 42
0.000000001
 43
0.00000001
 40
0.0
 40
0.0
 40
0.0
 40
0.0
 40
1.0
 40
1.0
 40
1.0
 40
1.0
 10
9.999514079925522
 20
-6.170361003149327
 30
0.0
 10
9.865334167605267
 20
-6.080970599908992
 30
0.0
 10
9.731133947693595
 20
-5.989053904378327
 30
0.0
 10
9.597170618997415
 20
-5.894791129684475
 30
0.0
  0
SPLINE
  5
B2
330
1F
100
AcDbEntity
  8
0
  6
Continuous
 62
     4
370
    15
100
AcDbSpline
210
0.0
220
0.0
230
1.0
 70
     8
 71
     3
 72
    22
 73
    18
 74
     0
 42
0.000000001
 43
0.00000001
 40
0.0
 40
0.0
 40
0.0
 40
0.0
 40
0.1249999999999999
 40
0.1249999999999999
 40
0.2499999999999998
 40
0.2499999999999998
 40
0.3749999999999998
 40
0.3749999999999998
 40
0.4999999999999998
 40
0.4999999999999998
 40
0.6249999999999998
 40
0.6249999999999998
 40
0.7499999999999998
 40
0.7499999999999998
 40
0.875
 40
0.875
 40
1.0
 40
1.0
 40
1.0
 40
1.0
 10
6.949788896125948
 20
-6.974926467981253
 30
0.0
 10
6.949788896125951
 20
-6.881088186809144
 30
0.0
 10
6.950217575936789
 20
-6.78249783743158
 30
0.0
 10
6.980938750375936
 20
-6.577591276922371
 30
0.0
 10
7.011166921539074
 20
-6.469950119858784
 30
0.0
 10
7.117473490169793
 20
-6.254680942457565
 30
0.0
 10
7.1929635845464
 20
-6.147890541914395
 30
0.0
 10
7.393949777418586
 20
-5.948583309037628
 30
0.0
 10
7.515454991579509
 20
-5.859318374480537
 30
0.0
 10
7.803392727046383
 20
-5.709147260147249
 30
0.0
 10
7.961341315126695
 20
-5.652617850724795
 30
0.0
 10
8.30374575490256
 20
-5.581272227462238
 30
0.0
 10
8.479620704088207
 20
-5.568452014940322
 30
0.0
 10
8.833380469507343
 20
-5.589540433693265
 30
0.0
 10
9.005061835843271
 20
-5.623308281979229
 30
0.0
 10
9.32612038971102
 20
-5.732387437051887
 30
0.0
 10
9.471203784188145
 20
-5.806155056782361
 30
0.0
 10
9.597170618997417
 20
-5.894791129684475
 30
0.0
  0
SPLINE
  5
B3
330
1F
100
AcDbEntity
  8
0
  6
Continuous
 62
     4
370
    15
100
AcDbSpline
210
0.0
220
0.0
230
1.0
 70
     8
 71
     3
 72
    14
 73
    10
 74
     0
 42
0.000000001
 43
0.00000001
 40
0.0
 40
0.0
 40
0.0
 40
0.0
 40
0.2500000000000001
 40
0.2500000000000001
 40
0.5000000000000001
 40
0.5000000000000001
 40
0.75
 40
0.75
 40
1.0
 40
1.0
 40
1.0
 40
1.0
 10
7.476517974277572
 20
-7.735514772645099
 30
0.0
 10
7.365176210392189
 20
-7.697988271182966
 30
0.0
 10
7.273603273002492
 20
-7.653648820849024
 30
0.0
 10
7.125120265208141
 20
-7.549171926010848
 30
0.0
 10
7.069784957189664
 20
-7.489457393327879
 30
0.0
 10
6.993343353162169
 20
-7.359329943976089
 30
0.0
 10
6.971654127486858
 20
-7.287962896641601
 30
0.0
 10
6.949903535611422
 20
-7.137736439146325
 30
0.0
 10
6.949788896125941
 20
-7.05834626847566
 30
0.0
 10
6.949788896125945
 20
-6.974926467980573
 30
0.0
  0
SPLINE
  5
B4
330
1F
100
AcDbEntity
  8
0
  6
Continuous
 62
     4
370
    15
100
AcDbSpline
210
0.0
220
0.0
230
1.0
 70
     8
 71
     3
 72
    12
 73
     8
 74
     0
 42
0.000000001
 43
0.00000001
 40
0.0
 40
0.0
 40
0.0
 40
0.0
 40
0.25
 40
0.25
 40
0.5
 40
0.5
 40
1.0
 40
1.0
 40
1.0
 40
1.0
 10
9.999514079925515
 20
-8.197096625110154
 30
0.0
 10
9.788620014066481
 20
-8.1916322990863
 30
0.0
 10
9.577676483017784
 20
-8.177792941629903
 30
0.0
 10
9.157682677396389
 20
-8.133565948017552
 30
0.0
 10
8.949553740002058
 20
-8.103249639447641
 30
0.0
 10
8.320438609164865
 20
-7.987514947614415
 30
0.0
 10
7.896670289844428
 20
-7.877122431211336
 30
0.0
 10
7.476517974277558
 20
-7.735514772645137
 30
0.0
  0
LINE
  5
B5
330
1F
100
AcDbEntity
  8
0
  6
Continuous
 62
     1
370
    15
100
AcDbLine
 10
9.999514079925527
 20
-8.197096625110264
 30
0.0
 11
9.999514079925518
 21
-8.199774431170688
 31
0.0
  0
LINE
  5
B6
330
1F
100
AcDbEntity
  8
0
  6
Continuous
 62
     4
370
    15
100
AcDbLine
 10
9.999514079925518
 20
7.675225568829313
 30
0.0
 11
9.99951407992552
 21
7.2823913050975
 31
0.0
  0
LINE
  5
B7
102
{ACAD_REACTORS
102
}
330
1F
100
AcDbEntity
  8
0
  6
Continuous
 62
     4
370
    15
100
AcDbLine
 10
-40.30048592007447
 20
7.675225568829309
 30
0.0
 11
-40.30048592007447
 21
-8.199774431170692
 31
0.0
  0
LINE
  5
B8
330
1F
100
AcDbEntity
  8
0
  6
Continuous
 62
     4
370
    15
100
AcDbLine
 10
-40.80048592007447
 20
7.175225568829306
 30
0.0
 11
-40.80048592007447
 21
-7.699774431170677
 31
0.0
  0
SPLINE
  5
B9
330
1F
100
AcDbEntity
  8
0
  6
Continuous
 62
     4
370
    15
100
AcDbSpline
210
0.0
220
0.0
230
1.0
 70
    24
 71
     3
 72
    18
 73
    14
 74
     0
 42
0.000000001
 43
0.00000001
 40
0.0
 40
0.0
 40
0.0
 40
0.0
 40
0.25
 40
0.25
 40
0.5
 40
0.5
 40
0.625
 40
0.625
 40
0.75
 40
0.75
 40
0.875
 40
0.875
 40
1.0
 40
1.0
 40
1.0
 40
1.0
 10
9.999514079925522
 20
1.37430473311884
 30
0.0
 10
9.999514079925522
 20
1.173108140584858
 30
0.0
 10
9.999514079925522
 20
0.9154155675528111
 30
0.0
 10
9.999514079925522
 20
0.2448149337268971
 30
0.0
 10
9.999514079925524
 20
-0.1704080501563548
 30
0.0
 10
9.999514079925524
 20
-0.91102632345434
 30
0.0
 10
9.999514079925524
 20
-1.17692942886793
 30
0.0
 10
9.999514079925524
 20
-1.73603500080225
 30
0.0
 10
9.999514079925525
 20
-2.029222681582091
 30
0.0
 10
9.999514079925525
 20
-2.623465332375564
 30
0.0
 10
9.999514079925525
 20
-2.924372194724217
 30
0.0
 10
9.999514079925525
 20
-3.50811919284464
 30
0.0
 10
9.999514079925525
 20
-3.790710899217709
 30
0.0
 10
9.999514079925525
 20
-4.051143515089471
 30
0.0
  0
SPLINE
  5
BA
330
1F
100
AcDbEntity
  8
0
  6
Continuous
 62
     1
370
    15
100
AcDbSpline
210
0.0
220
0.0
230
1.0
 70
    24
 71
     3
 72
    12
 73
     8
 74
     0
 42
0.000000001
 43
0.00000001
 40
0.0
 40
0.0
 40
0.0
 40
0.0
 40
0.115977853137233
 40
0.3502569592408974
 40
0.5845360653445617
 40
0.792268032672281
 40
1.0
 40
1.0
 40
1.0
 40
1.0
 10
9.999514079925529
 20
-6.241442249191024
 30
0.0
 10
9.999514079925529
 20
-6.284006111714548
 30
0.0
 10
9.999514079925529
 20
-6.412550386830563
 30
0.0
 10
9.999514079925529
 20
-6.736985450613054
 30
0.0
 10
9.999514079925529
 20
-7.177001843076979
 30
0.0
 10
9.999514079925529
 20
-7.668711487642524
 30
0.0
 10
9.999514079925527
 20
-8.02096824595435
 30
0.0
 10
9.999514079925527
 20
-8.197096625110264
 30
0.0
  0
SPLINE
  5
BB
330
1F
100
AcDbEntity
  8
0
  6
Continuous
 62
     4
370
    15
100
AcDbSpline
210
0.0
220
0.0
230
1.0
 70
    24
 71
     3
 72
    15
 73
    11
 74
     0
 42
0.000000001
 43
0.00000001
 40
0.0
 40
0.0
 40
0.0
 40
0.0
 40
0.156533264197808
 40
0.2800407678132555
 40
0.4035482714287031
 40
0.52705577504415
 40
0.6505632786595968
 40
0.7740707822750436
 40
0.8975782858904903
 40
1.0
 40
1.0
 40
1.0
 40
1.0
 10
9.99951407992552
 20
7.2823913050975
 30
0.0
 10
9.999514079925522
 20
7.004440857757736
 30
0.0
 10
9.999514079925525
 20
6.507182609896097
 30
0.0
 10
9.999514079925525
 20
5.846252755432105
 30
0.0
 10
9.999514079925527
 20
5.293313430385257
 30
0.0
 10
9.999514079925527
 20
4.814535782304838
 30
0.0
 10
9.999514079925529
 20
4.419010760648574
 30
0.0
 10
9.999514079925529
 20
4.124805769828283
 30
0.0
 10
9.999514079925529
 20
3.93641509480811
 30
0.0
 10
9.999514079925529
 20
3.895882904232367
 30
0.0
 10
9.999514079925527
 20
3.877508227078237
 30
0.0
  0
SPLINE
  5
BC
330
1F
100
AcDbEntity
  8
0
  6
Continuous
 62
     1
370
    15
100
AcDbSpline
210
0.0
220
0.0
230
1.0
 70
     8
 71
     3
 72
    29
 73
    25
 74
     0
 42
0.000000001
 43
0.00000001
 40
0.0
 40
0.0
 40
0.0
 40
0.0
 40
0.0095111995614369
 40
0.0580071040650077
 40
0.1065310610164164
 40
0.1551287780605085
 40
0.2036404904692918
 40
0.2521422452691972
 40
0.3007316921517725
 40
0.3492726259145723
 40
0.397765619087636
 40
0.4463179844898499
 40
0.4948987451944379
 40
0.543396441102806
 40
0.5919155546927787
 40
0.6405141030697326
 40
0.6890299532793801
 40
0.7375292083919642
 40
0.786113974119362
 40
0.834661380832801
 40
0.8831542247921785
 40
0.9316998220481798
 40
0.9802859626710444
 40
0.9999999999999999
 40
0.9999999999999999
 40
0.9999999999999999
 40
0.9999999999999999
 10
46.25326950543178
 20
-7.694450443956432
 30
0.0
 10
46.16529653739058
 20
-7.730006314544863
 30
0.0
 10
45.62876514835708
 20
-7.94685520642466
 30
0.0
 10
44.64477572734587
 20
-8.13690381517952
 30
0.0
 10
43.29886026149969
 20
-8.239457827746918
 30
0.0
 10
41.95093979515513
 20
-8.094782891664556
 30
0.0
 10
40.6054254017366
 20
-7.730085344059588
 30
0.0
 10
39.26019595875307
 20
-7.149383773084617
 30
0.0
 10
37.91249241594429
 20
-6.372439291295473
 30
0.0
 10
36.56618023000728
 20
-5.419438759404325
 30
0.0
 10
35.2212055090415
 20
-4.317848240151927
 30
0.0
 10
33.8745706199183
 20
-3.10059864117677
 30
0.0
 10
32.52711763033206
 20
-1.802652006066758
 30
0.0
 10
31.18200281157128
 20
-0.4588304557395056
 30
0.0
 10
29.83628954239366
 20
0.890371137182847
 30
0.0
 10
28.4883268280426
 20
2.204641996899647
 30
0.0
 10
27.14270314117459
 20
3.450048665373368
 30
0.0
 10
25.79754374553817
 20
4.588880244146144
 30
0.0
 10
24.4499742988428
 20
5.587365789104959
 30
0.0
 10
23.1034836446426
 20
6.417779771972611
 30
0.0
 10
21.75850013039513
 20
7.060553888432888
 30
0.0
 10
20.41210688297133
 20
7.47873634603781
 30
0.0
 10
19.33072032640985
 20
7.677943583034355
 30
0.0
 10
18.69961278775838
 20
7.654491403888143
 30
0.0
 10
18.5174510723916
 20
7.64772221017594
 30
0.0
  0
SPLINE
  5
BD
330
1F
100
AcDbEntity
  8
0
  6
Continuous
 62
     1
370
    15
100
AcDbSpline
210
0.0
220
0.0
230
1.0
 70
     8
 71
     3
 72
    29
 73
    25
 74
     0
 42
0.000000001
 43
0.00000001
 40
0.0
 40
0.0
 40
0.0
 40
0.0
 40
0.015929453011567
 40
0.0644227540892315
 40
0.1129706184352934
 40
0.1615558421474795
 40
0.2100555544387852
 40
0.2585718619835884
 40
0.3071708684752529
 40
0.355690439431143
 40
0.404188592503535
 40
0.4527698111551576
 40
0.5013226342367381
 40
0.549816084529495
 40
0.5983574758639004
 40
0.6469473807753908
 40
0.6954495927775812
 40
0.7439617624825152
 40
0.7925599376334809
 40
0.8410843519964636
 40
0.8895807136471713
 40
0.9381555912444222
 40
0.9867155882714722
 40
1.0
 40
1.0
 40
1.0
 40
1.0
 10
21.31696691023651
 20
7.163159038586284
 30
0.0
 10
21.46426194278477
 20
7.22052630331716
 30
0.0
 10
22.05996046762001
 20
7.452534093279914
 30
0.0
 10
23.10343223676302
 20
7.639406482960128
 30
0.0
 10
24.44998809268953
 20
7.708761905805757
 30
0.0
 10
25.7975400555854
 20
7.534735365947237
 30
0.0
 10
27.14270412948439
 20
7.14062509180491
 30
0.0
 10
28.48832656266299
 20
6.532772911901582
 30
0.0
 10
29.83628961345142
 20
5.731378079845897
 30
0.0
 10
31.1820027924544
 20
4.756793532455418
 30
0.0
 10
32.5271176358388
 20
3.63778624685099
 30
0.0
 10
33.87457061703872
 20
2.408360059713349
 30
0.0
 10
35.2212055150444
 20
1.101689250239389
 30
0.0
 10
36.5661802088907
 20
-0.2450521934095178
 30
0.0
 10
37.91249249453551
 20
-1.591637541155514
 30
0.0
 10
39.26019566544424
 20
-2.898906064943211
 30
0.0
 10
40.60542649421274
 20
-4.132370651228245
 30
0.0
 10
41.95093571376235
 20
-5.254406133271302
 30
0.0
 10
43.29887551369535
 20
-6.232057448184414
 30
0.0
 10
44.64471891879035
 20
-7.038462555101179
 30
0.0
 10
45.98979021346616
 20
-7.655038832437789
 30
0.0
 10
47.33702745392913
 20
-8.041355244279064
 30
0.0
 10
48.35832578072439
 20
-8.214829386616813
 30
0.0
 10
48.92978490205432
 20
-8.183779328965336
 30
0.0
 10
49.0525364717843
 20
-8.177109659736757
 30
0.0
  0
SPLINE
  5
BE
330
1F
100
AcDbEntity
  8
0
  6
Continuous
 62
     1
370
    15
100
AcDbSpline
210
0.0
220
0.0
230
1.0
 70
     8
 71
     3
 72
    16
 73
    12
 74
     0
 42
0.000000001
 43
0.00000001
 40
0.0
 40
0.0
 40
0.0
 40
0.0
 40
0.2499999999999942
 40
0.2499999999999942
 40
0.3749999999999951
 40
0.3749999999999951
 40
0.4999999999999961
 40
0.4999999999999961
 40
0.749999999999998
 40
0.749999999999998
 40
1.0
 40
1.0
 40
1.0
 40
1.0
 10
60.79951407992552
 20
-3.978050160407899
 30
0.0
 10
60.79951407992552
 20
-4.090881958405466
 30
0.0
 10
60.78571035875736
 20
-4.201284638687809
 30
0.0
 10
60.72367647097222
 20
-4.330453170527714
 30
0.0
 10
60.69630456296318
 20
-4.365970063628311
 30
0.0
 10
60.62980053822459
 20
-4.4160464363856
 30
0.0
 10
60.59120615101899
 20
-4.430296478530635
 30
0.0
 10
60.4675555344929
 20
-4.444082415458369
 30
0.0
 10
60.37877606047899
 20
-4.416538864557801
 30
0.0
 10
60.20603193085046
 20
-4.328562848268519
 30
0.0
 10
60.12012204658383
 20
-4.266762164666964
 30
0.0
 10
60.03751407992551
 20
-4.19515986998982
 30
0.0
  0
SPLINE
  5
BF
330
1F
100
AcDbEntity
  8
0
  6
Continuous
 62
     1
370
    15
100
AcDbSpline
210
0.0
220
0.0
230
1.0
 70
     8
 71
     3
 72
    20
 73
    16
 74
     0
 42
0.000000001
 43
0.00000001
 40
0.0
 40
0.0
 40
0.0
 40
0.0
 40
0.0720077728933698
 40
0.1440458506007281
 40
0.2159479903041038
 40
0.2880340207990834
 40
0.3599835649363715
 40
0.4411061743366122
 40
0.5223768001144973
 40
0.6035499232649896
 40
0.6846539492236619
 40
0.7658683352101595
 40
0.8471076082733869
 40
0.9282155669877871
 40
1.0
 40
1.0
 40
1.0
 40
1.0
 10
60.03751407992551
 20
-4.195159869989815
 30
0.0
 10
59.63952451379436
 20
-3.840851311665785
 30
0.0
 10
58.84337788572864
 20
-3.132085082574397
 30
0.0
 10
57.64872685612835
 20
-1.98202266127459
 30
0.0
 10
56.45653048141397
 20
-0.7962914046607712
 30
0.0
 10
55.26114117706626
 20
0.3991338830322676
 30
0.0
 10
54.01751506504744
 20
1.632207752717661
 30
0.0
 10
52.72281876874686
 20
2.867786657777731
 30
0.0
 10
51.37503389160995
 20
4.060037955896676
 30
0.0
 10
50.02888403515952
 20
5.129712695745127
 30
0.0
 10
48.6838916805776
 20
6.04447392321352
 30
0.0
 10
47.33706016007589
 20
6.77904109068694
 30
0.0
 10
45.98975685929462
 20
7.305825067036412
 30
0.0
 10
44.69657536834019
 20
7.624529777140707
 30
0.0
 10
43.85141667296384
 20
7.65110899879446
 30
0.0
 10
43.45460662200058
 20
7.663588196318773
 30
0.0
  0
SPLINE
  5
C0
330
1F
100
AcDbEntity
  8
0
  6
Continuous
 62
     1
370
    15
100
AcDbSpline
210
0.0
220
0.0
230
1.0
 70
     8
 71
     3
 72
    16
 73
    12
 74
     0
 42
0.000000001
 43
0.00000001
 40
0.0
 40
0.0
 40
0.0
 40
0.0
 40
0.079932495815646
 40
0.1990021679908207
 40
0.3178604850063199
 40
0.4367550260427961
 40
0.5558547833218039
 40
0.6747633375444737
 40
0.7830809708151483
 40
0.8916584152771101
 40
1.0
 40
1.0
 40
1.0
 40
1.0
 10
21.31696691023655
 20
-7.68770790092766
 30
0.0
 10
21.01544022897272
 20
-7.791909162310561
 30
0.0
 10
20.26475100469312
 20
-8.051331525030236
 30
0.0
 10
19.06443204979019
 20
-8.213717894815849
 30
0.0
 10
17.71929112384721
 20
-8.198984494273217
 30
0.0
 10
16.37367847822637
 20
-7.947934645436413
 30
0.0
 10
15.02576764122189
 20
-7.479077030786606
 30
0.0
 10
13.7195777047756
 20
-6.822461823212717
 30
0.0
 10
12.45422271884763
 20
-6.014676941819807
 30
0.0
 10
11.22551681310866
 20
-5.10381336353292
 30
0.0
 10
10.40788531612241
 20
-4.401779019954811
 30
0.0
 10
9.999514079925559
 20
-4.051143515089396
 30
0.0
  0
SPLINE
  5
C1
330
1F
100
AcDbEntity
  8
0
  6
Continuous
 62
     1
370
    15
100
AcDbSpline
210
0.0
220
0.0
230
1.0
 70
    24
 71
     3
 72
    18
 73
    14
 74
     0
 42
0.000000001
 43
0.00000001
 40
0.0
 40
0.0
 40
0.0
 40
0.0
 40
0.2500000000000001
 40
0.2500000000000001
 40
0.5000000000000002
 40
0.5000000000000002
 40
0.6250000000000002
 40
0.6250000000000002
 40
0.7500000000000001
 40
0.7500000000000001
 40
0.875
 40
0.875
 40
1.0
 40
1.0
 40
1.0
 40
1.0
 10
9.999514079925522
 20
1.374304733127104
 30
0.0
 10
9.999514079925522
 20
1.17310814059397
 30
0.0
 10
9.999514079925522
 20
0.9154155675627099
 30
0.0
 10
9.999514079925522
 20
0.2448149337376574
 30
0.0
 10
9.999514079925524
 20
-0.1704080501455474
 30
0.0
 10
9.999514079925524
 20
-0.9110263234445328
 30
0.0
 10
9.999514079925524
 20
-1.176929428858634
 30
0.0
 10
9.999514079925524
 20
-1.736035000794321
 30
0.0
 10
9.999514079925525
 20
-2.029222681575023
 30
0.0
 10
9.999514079925524
 20
-2.62346533237043
 30
0.0
 10
9.999514079925525
 20
-2.924372194720156
 30
0.0
 10
9.999514079925525
 20
-3.508119192842702
 30
0.0
 10
9.999514079925525
 20
-3.790710899216819
 30
0.0
 10
9.999514079925525
 20
-4.051143515089471
 30
0.0
  0
SPLINE
  5
C2
330
1F
100
AcDbEntity
  8
0
  6
Continuous
 62
     1
370
    15
100
AcDbSpline
210
0.0
220
0.0
230
1.0
 70
     8
 71
     3
 72
    18
 73
    14
 74
     0
 42
0.000000001
 43
0.00000001
 40
0.0
 40
0.0
 40
0.0
 40
0.0
 40
0.0868572920169445
 40
0.1739036724460982
 40
0.2607417626183889
 40
0.3560705788235355
 40
0.4515526822428327
 40
0.546870264096844
 40
0.6421588052055488
 40
0.7376167894405484
 40
0.8329951174603136
 40
0.9282698002163703
 40
1.0
 40
1.0
 40
1.0
 40
1.0
 10
9.999514079922566
 20
1.374304733121755
 30
0.0
 10
10.40788531892894
 20
0.9703344650590897
 30
0.0
 10
11.22551682154033
 20
0.1615144852532811
 30
0.0
 10
12.45422268506005
 20
-1.069021176136799
 30
0.0
 10
13.71957783634242
 20
-2.319910343793896
 30
0.0
 10
15.02576709584815
 20
-3.556257213122628
 30
0.0
 10
16.3736805094924
 20
-4.733869506577873
 30
0.0
 10
17.71928356064612
 20
-5.785069558545052
 30
0.0
 10
19.06446028873929
 20
-6.677130768975327
 30
0.0
 10
20.41206179039325
 20
-7.386084693657882
 30
0.0
 10
21.75853256830598
 20
-7.883725776655344
 30
0.0
 10
22.99219451626258
 20
-8.165417564052595
 30
0.0
 10
23.77825640803392
 20
-8.174571283829323
 30
0.0
 10
24.11587753432438
 20
-8.17850289432096
 30
0.0
  0
SPLINE
  5
C3
330
1F
100
AcDbEntity
  8
0
  6
Continuous
 62
     1
370
    15
100
AcDbSpline
210
0.0
220
0.0
230
1.0
 70
     8
 71
     3
 72
    17
 73
    13
 74
     0
 42
0.000000001
 43
0.00000001
 40
0.0
 40
0.0
 40
0.0
 40
0.0
 40
0.0825395276427196
 40
0.1851445207662284
 40
0.2876100867456586
 40
0.390162949043414
 40
0.4928389946453533
 40
0.5953280386560604
 40
0.6964474330537644
 40
0.7977567423560943
 40
0.8989059112079711
 40
1.0
 40
1.0
 40
1.0
 40
1.0
 10
46.25326950543184
 20
7.16990158161506
 30
0.0
 10
46.61455007329542
 20
7.288052992987303
 30
0.0
 10
47.42493898039928
 20
7.553078576015304
 30
0.0
 10
48.68391624643707
 20
7.700714523768129
 30
0.0
 10
50.02887849693201
 20
7.654098129876415
 30
0.0
 10
51.37503146673686
 20
7.373721150576504
 30
0.0
 10
52.72283402573589
 20
6.876572299303749
 30
0.0
 10
54.06214674456591
 20
6.176383808807882
 30
0.0
 10
55.39545944286864
 20
5.297688351166955
 30
0.0
 10
56.72533340322313
 20
4.268197196292898
 30
0.0
 10
58.05291597361766
 20
3.114818927886969
 30
0.0
 10
58.93742444952094
 20
2.272921950418098
 30
0.0
 10
59.37955824148007
 20
1.852088105149272
 30
0.0
  0
SPLINE
  5
C4
330
1F
100
AcDbEntity
  8
0
  6
Continuous
 62
     1
370
    15
100
AcDbSpline
210
0.0
220
0.0
230
1.0
 70
     8
 71
     3
 72
    18
 73
    14
 74
     0
 42
0.000000001
 43
0.00000001
 40
0.0
 40
0.0
 40
0.0
 40
0.0
 40
0.2499999999999982
 40
0.2499999999999982
 40
0.4999999999999964
 40
0.4999999999999964
 40
0.6249999999999973
 40
0.6249999999999973
 40
0.7499999999999982
 40
0.7499999999999982
 40
0.8749999999999991
 40
0.8749999999999991
 40
1.0
 40
1.0
 40
1.0
 40
1.0
 10
59.37955824146532
 20
1.852088105172407
 30
0.0
 10
59.35275155704571
 20
1.729864201311124
 30
0.0
 10
59.31352156344591
 20
1.602649317214852
 30
0.0
 10
59.2030237974822
 20
1.335348588615091
 30
0.0
 10
59.13120407574911
 20
1.19405007814357
 30
0.0
 10
58.99060943908015
 20
0.9721579619455855
 30
0.0
 10
58.93894505456552
 20
0.8976416188101932
 30
0.0
 10
58.82463400944722
 20
0.7473451441599346
 30
0.0
 10
58.76123899772524
 20
0.6707865542895198
 30
0.0
 10
58.6249353319383
 20
0.5201933682064724
 30
0.0
 10
58.55255714948071
 20
0.4466078984351142
 30
0.0
 10
58.39898375115267
 20
0.3030067135511303
 30
0.0
 10
58.31675679403797
 20
0.2321962499804976
 30
0.0
 10
58.23244601627675
 20
0.1654762295032762
 30
0.0
  0
SPLINE
  5
C5
330
1F
100
AcDbEntity
  8
0
  6
Continuous
 62
     1
370
    15
100
AcDbSpline
210
0.0
220
0.0
230
1.0
 70
     8
 71
     3
 72
     8
 73
     4
 74
     0
 42
0.000000001
 43
0.00000001
 40
0.0
 40
0.0
 40
0.0
 40
0.0
 40
1.0
 40
1.0
 40
1.0
 40
1.0
 10
60.79951407992552
 20
-1.628634707619264
 30
0.0
 10
59.94294562740235
 20
-1.03701159350629
 30
0.0
 10
59.08724994063436
 20
-0.43902081408679
 30
0.0
 10
58.23244601627675
 20
0.1654762295032837
 30
0.0
  0
LINE
  5
C6
330
1F
100
AcDbEntity
  8
0
  6
Continuous
 62
     1
370
    15
100
AcDbLine
 10
60.79951407992552
 20
-3.978050160407907
 30
0.0
 11
60.79951407992552
 21
-1.628634707619264
 31
0.0
  0
SPLINE
  5
C7
330
1F
100
AcDbEntity
  8
0
  6
Continuous
 62
     1
370
    15
100
AcDbSpline
210
0.0
220
0.0
230
1.0
 70
     8
 71
     3
 72
    29
 73
    25
 74
     0
 42
0.000000001
 43
0.00000001
 40
0.0
 40
0.0
 40
0.0
 40
0.0
 40
0.0243373945579296
 40
0.0728594519375421
 40
0.1214595320105717
 40
0.1699758711419975
 40
0.2184774286285209
 40
0.2670652321151936
 40
0.3156124908474037
 40
0.3641069944775052
 40
0.4126560627290816
 40
0.4612424912732317
 40
0.5097434062759617
 40
0.5582609169437238
 40
0.606861128609142
 40
0.6553819027689181
 40
0.7038812585140684
 40
0.7524636818983362
 40
0.8010177090083994
 40
0.8495123618572938
 40
0.8980549569366939
 40
0.9466460667962342
 40
0.9951494815718376
 40
0.9999999999999999
 40
0.9999999999999999
 40
0.9999999999999999
 40
0.9999999999999999
 10
13.00524726530467
 20
7.164775935169941
 30
0.0
 10
13.23010817867303
 20
7.245764698771597
 30
0.0
 10
13.90327978178763
 20
7.48822273654841
 30
0.0
 10
15.02572745220023
 20
7.669152241600651
 30
0.0
 10
16.3736910136696
 20
7.694548563968303
 30
0.0
 10
17.71928114090126
 20
7.481958207069909
 30
0.0
 10
19.06445947594588
 20
7.049348147497486
 30
0.0
 10
20.41206747613657
 20
6.407017932187519
 30
0.0
 10
21.75851067251643
 20
5.573105584105711
 30
0.0
 10
23.10348081771915
 20
4.571051076091249
 30
0.0
 10
24.44997505733928
 20
3.430851416860089
 30
0.0
 10
25.79754354274044
 20
2.185603682177148
 30
0.0
 10
27.14270319509859
 20
0.8684052223933996
 30
0.0
 10
28.48832681503129
 20
-0.4810802925215229
 30
0.0
 10
29.83628954039003
 20
-1.822342244448026
 30
0.0
 10
31.18200283253517
 20
-3.120719480904925
 30
0.0
 10
32.52711754845011
 20
-4.337237605186533
 30
0.0
 10
33.87457092699231
 20
-5.435242212619658
 30
0.0
 10
35.22120436416688
 20
-6.385944072479086
 30
0.0
 10
36.56618449883962
 20
-7.159716527608805
 30
0.0
 10
37.9124764594853
 20
-7.741387111155888
 30
0.0
 10
39.26025552807144
 20
-8.0845823593344
 30
0.0
 10
40.20189937820742
 20
-8.229671919449467
 30
0.0
 10
40.69502835228088
 20
-8.192870157033127
 30
0.0
 10
40.73985974581785
 20
-8.18952443130926
 30
0.0
  0
SPLINE
  5
C8
330
1F
100
AcDbEntity
  8
0
  6
Continuous
 62
     1
370
    15
100
AcDbSpline
210
0.0
220
0.0
230
1.0
 70
     8
 71
     3
 72
    12
 73
     8
 74
     0
 42
0.000000001
 43
0.00000001
 40
0.0
 40
0.0
 40
0.0
 40
0.0
 40
0.211225578978656
 40
0.4229109962555085
 40
0.6340898788583015
 40
0.8659170971459011
 40
1.0
 40
1.0
 40
1.0
 40
1.0
 10
9.999514079922566
 20
-6.17036100314736
 30
0.0
 10
10.40788514803221
 20
-6.429725408426447
 30
0.0
 10
11.2255163084781
 20
-6.949018855556163
 30
0.0
 10
12.45422474047064
 20
-7.531307611182257
 30
0.0
 10
13.71956983244046
 20
-7.956137844449398
 30
0.0
 10
14.83598633270067
 20
-8.185055392075137
 30
0.0
 10
15.54454081649739
 20
-8.175428378722481
 30
0.0
 10
15.80418119408881
 20
-8.17190068757223
 30
0.0
  0
SPLINE
  5
C9
330
1F
100
AcDbEntity
  8
0
  6
Continuous
 62
     1
370
    15
100
AcDbSpline
210
0.0
220
0.0
230
1.0
 70
     8
 71
     3
 72
    23
 73
    19
 74
     0
 42
0.000000001
 43
0.00000001
 40
0.0
 40
0.0
 40
0.0
 40
0.0
 40
0.0615303668361072
 40
0.1242776165296996
 40
0.1870377484906079
 40
0.249909145587154
 40
0.3126851184465344
 40
0.3754247995478889
 40
0.4382660566289629
 40
0.5010880627353814
 40
0.5638247017204733
 40
0.6266147896623453
 40
0.6894802991022561
 40
0.7522313129923047
 40
0.8141437308868529
 40
0.8761724280669884
 40
0.9381030759802219
 40
1.0
 40
1.0
 40
1.0
 40
1.0
 10
37.94079809855776
 20
7.184547211336557
 30
0.0
 10
38.38084507121279
 20
7.317424176167608
 30
0.0
 10
39.26964180256245
 20
7.585806006636616
 30
0.0
 10
40.60544116708996
 20
7.709547840219925
 30
0.0
 10
41.95093189660573
 20
7.621250153429621
 30
0.0
 10
43.29887607677374
 20
7.302835077767407
 30
0.0
 10
44.64472047650244
 20
6.768107494134958
 30
0.0
 10
45.98978341949402
 20
6.030890878138355
 30
0.0
 10
47.33705311585258
 20
5.114104345391768
 30
0.0
 10
48.68389328415957
 20
4.042878028374999
 30
0.0
 10
50.02888465174681
 20
2.847127046826242
 30
0.0
 10
51.37502981460681
 20
1.56256072875774
 30
0.0
 10
52.72283446794526
 20
0.2270209961232822
 30
0.0
 10
54.06214662793766
 20
-1.118261757496082
 30
0.0
 10
55.39545947399721
 20
-2.433901187695658
 30
0.0
 10
56.7253333949301
 20
-3.677867374270147
 30
0.0
 10
58.05291597568821
 20
-4.839498083099272
 30
0.0
 10
58.93742445021101
 20
-5.500428135938106
 30
0.0
 10
59.37955824148008
 20
-5.830803161664076
 30
0.0
  0
ELLIPSE
  5
CB
330
1F
100
AcDbEntity
  8
0
  6
Continuous
 62
     1
370
    15
100
AcDbEllipse
 10
62.22766208666764
 20
-0.2622744311706827
 30
0.0
 11
11.18322645805122
 21
7.430697861030158
 31
0.0
210
0.0
220
0.0
230
1.0
 40
0.249553446345596
 41
4.294101075668088
 42
4.35364142431853
  0
SPLINE
  5
CC
330
1F
100
AcDbEntity
  8
0
  6
Continuous
 62
     1
370
    15
100
AcDbSpline
210
0.0
220
0.0
230
1.0
 70
     8
 71
     3
 72
    29
 73
    25
 74
     0
 42
0.000000001
 43
0.00000001
 40
0.0
 40
0.0
 40
0.0
 40
0.0
 40
0.0181392747674573
 40
0.0666347885730947
 40
0.1152187873317999
 40
0.1637444985175612
 40
0.2122289030460957
 40
0.260779281367788
 40
0.3093445373121562
 40
0.3578312928623246
 40
0.4063460955681205
 40
0.4549346444514523
 40
0.5034372049246064
 40
0.5519298096674268
 40
0.6005100899494422
 40
0.6490418662638833
 40
0.6975257110327792
 40
0.7460689168300082
 40
0.7946405125727197
 40
0.8431290591897295
 40
0.8916390194478094
 40
0.9402283995071687
 40
0.9887350970005737
 40
1.0
 40
1.0
 40
1.0
 40
1.0
 10
54.57112804211096
 20
-7.688767391762199
 30
0.0
 10
54.40345729205258
 20
-7.751600998070868
 30
0.0
 10
53.78751728765523
 20
-7.982420814482416
 30
0.0
 10
52.7228664618457
 20
-8.172926960725425
 30
0.0
 10
51.37502124614116
 20
-8.230236366067212
 30
0.0
 10
50.02888694557016
 20
-8.04729286757747
 30
0.0
 10
48.68389266377322
 20
-7.64374734421748
 30
0.0
 10
47.33705330113701
 20
-7.027877960232856
 30
0.0
 10
45.98978329945125
 20
-6.218471110391032
 30
0.0
 10
44.64472077123061
 20
-5.2370534538463
 30
0.0
 10
43.29887501635984
 20
-4.112982662300558
 30
0.0
 10
41.95093584678904
 20
-2.880057800174168
 30
0.0
 10
40.60542645881814
 20
-1.570173627711329
 30
0.0
 10
39.26019567415167
 20
-0.2225758592359056
 30
0.0
 10
37.91249249517605
 20
1.121970524852022
 30
0.0
 10
36.56618019764344
 20
2.428019014516039
 30
0.0
 10
35.22120555936918
 20
3.6574401765818
 30
0.0
 10
33.87457045070622
 20
4.773417051599359
 30
0.0
 10
32.52711825670243
 20
5.744825333441125
 30
0.0
 10
31.18200047934396
 20
6.543646982386645
 30
0.0
 10
29.83629825680935
 20
7.1517830265342
 30
0.0
 10
28.48829427000361
 20
7.527806658513226
 30
0.0
 10
27.48685009534161
 20
7.69395090364598
 30
0.0
 10
26.93435752243669
 20
7.661095545635663
 30
0.0
 10
26.83023156311218
 20
7.654903434031725
 30
0.0
  0
LINE
  5
CD
330
1F
100
AcDbEntity
  8
0
  6
Continuous
 62
     1
370
    15
100
AcDbLine
 10
9.999514079925522
 20
1.374304733127137
 30
0.0
 11
9.999514079925525
 21
3.883678678850121
 31
0.0
  0
SPLINE
  5
CE
330
1F
100
AcDbEntity
  8
0
  6
Continuous
 62
     1
370
    15
100
AcDbSpline
210
0.0
220
0.0
230
1.0
 70
     8
 71
     3
 72
    14
 73
    10
 74
     0
 42
0.000000001
 43
0.00000001
 40
0.0
 40
0.0
 40
0.0
 40
0.0
 40
0.1443595524800703
 40
0.2887798593649714
 40
0.432927640817806
 40
0.5774440823654396
 40
0.7216868991539077
 40
0.8843196694574116
 40
1.0
 40
1.0
 40
1.0
 40
1.0
 10
60.03751407992551
 20
3.742232420580399
 30
0.0
 10
59.63952451938253
 20
4.077127482664812
 30
0.0
 10
58.84337790249555
 20
4.74705854901466
 30
0.0
 10
57.64872678908059
 20
5.613517075663789
 30
0.0
 10
56.4565307325807
 20
6.35539231441438
 30
0.0
 10
55.26114023740084
 20
6.945647113709667
 30
0.0
 10
54.01751875286607
 20
7.386264153788299
 30
0.0
 10
52.85301501372139
 20
7.645827059512658
 30
0.0
 10
52.08503201546334
 20
7.649985205247267
 30
0.0
 10
51.76582128905666
 20
7.651713530904814
 30
0.0
  0
SPLINE
  5
CF
330
1F
100
AcDbEntity
  8
0
  6
Continuous
 62
     1
370
    15
100
AcDbSpline
210
0.0
220
0.0
230
1.0
 70
     8
 71
     3
 72
    22
 73
    18
 74
     0
 42
0.000000001
 43
0.00000001
 40
0.0
 40
0.0
 40
0.0
 40
0.0
 40
0.0580947007437211
 40
0.1266457695929014
 40
0.1951733901950359
 40
0.2638218340748847
 40
0.3324174910752505
 40
0.4009360529593998
 40
0.469529153264565
 40
0.5381795398199188
 40
0.6067080681963837
 40
0.6752574817655027
 40
0.743925214081284
 40
0.8124827070431776
 40
0.874933936302069
 40
0.9375349613770355
 40
1.0
 40
1.0
 40
1.0
 40
1.0
 10
29.62900101748504
 20
-7.697358889041472
 30
0.0
 10
29.24857175381197
 20
-7.81943929507929
 30
0.0
 10
28.41924039902839
 20
-8.085573155430477
 30
0.0
 10
27.14268472248544
 20
-8.228073829736504
 30
0.0
 10
25.79754850257751
 20
-8.171334178933122
 30
0.0
 10
24.44997372480566
 20
-7.882035645558318
 30
0.0
 10
23.10348118780366
 20
-7.375579780244203
 30
0.0
 10
21.75851052253689
 20
-6.664073713908707
 30
0.0
 10
20.4120677060928
 20
-5.769289820424952
 30
0.0
 10
19.06445870622652
 20
-4.717326490977116
 30
0.0
 10
17.71928398448845
 20
-3.536042931238391
 30
0.0
 10
16.37368039566009
 20
-2.26080438087258
 30
0.0
 10
15.02576712641094
 20
-0.9302987051480596
 30
0.0
 10
13.71957782896971
 20
0.3818202600415767
 30
0.0
 10
12.45422268695445
 20
1.635115181319685
 30
0.0
 10
11.2255168210697
 20
2.807923344650748
 30
0.0
 10
10.40788531877416
 20
3.52535359214187
 30
0.0
 10
9.999514079925559
 20
3.883678678850081
 30
0.0
  0
ELLIPSE
  5
D1
330
1F
100
AcDbEntity
  8
0
  6
Continuous
 62
     1
370
    15
100
AcDbEllipse
 10
62.22766208666764
 20
-0.2622744311706859
 30
0.0
 11
11.18322645805124
 21
7.430697861030171
 31
0.0
210
0.0
220
0.0
230
1.0
 40
0.249553446345593
 41
1.600902389073169
 42
1.660442737725113
  0
SPLINE
  5
D2
330
1F
100
AcDbEntity
  8
0
  6
Continuous
 62
     1
370
    15
100
AcDbSpline
210
0.0
220
0.0
230
1.0
 70
     8
 71
     3
 72
    29
 73
    25
 74
     0
 42
0.000000001
 43
0.00000001
 40
0.0
 40
0.0
 40
0.0
 40
0.0
 40
0.0074829547867166
 40
0.0560016817396445
 40
0.1044989911816405
 40
0.1530793647579328
 40
0.2016313432581268
 40
0.2501239500022931
 40
0.2986644969541686
 40
0.3472535566392303
 40
0.3957549249404193
 40
0.4442662507711365
 40
0.4928635805518117
 40
0.5413871508275807
 40
0.5898826688790544
 40
0.6384567015112784
 40
0.6870158538321505
 40
0.7355090204371145
 40
0.7840435011642239
 40
0.8326362799979766
 40
0.8811405578877064
 40
0.9289966312197496
 40
0.9769425842594076
 40
1.0
 40
1.0
 40
1.0
 40
1.0
 10
29.62900101748504
 20
7.172810026700101
 30
0.0
 10
29.69823003211521
 20
7.201081049379529
 30
0.0
 10
30.21633302150521
 20
7.412658542451925
 30
0.0
 10
31.18197290705145
 20
7.602828872243736
 30
0.0
 10
32.52712565754736
 20
7.716061486900942
 30
0.0
 10
33.87456846743663
 20
7.580510944090877
 30
0.0
 10
35.22120608991272
 20
7.225314034407097
 30
0.0
 10
36.56618005540157
 20
6.653383835702151
 30
0.0
 10
37.91249253336672
 20
5.883537715423553
 30
0.0
 10
39.26019566387335
 20
4.938160785438746
 30
0.0
 10
40.60542646179965
 20
3.842179286814748
 30
0.0
 10
41.95093584513268
 20
2.628333659216254
 30
0.0
 10
43.29887502000215
 20
1.333457915462034
 30
0.0
 10
44.64472075834396
 20
-0.0089182185947695
 30
0.0
 10
45.98978334736687
 20
-1.358928065867698
 30
0.0
 10
47.33705312205925
 20
-2.675939108367305
 30
0.0
 10
48.68389333144092
 20
-3.924132378433168
 30
0.0
 10
50.0288844566612
 20
-5.068127726528471
 30
0.0
 10
51.37503054883162
 20
-6.073883958798413
 30
0.0
 10
52.72283172494024
 20
-6.911148846503862
 30
0.0
 10
54.06215678646034
 20
-7.559161099640549
 30
0.0
 10
55.39542209361984
 20
-7.985686901679254
 30
0.0
 10
56.49576814553499
 20
-8.1951646340318
 30
0.0
 10
57.15197934226682
 20
-8.177721915100207
 30
0.0
 10
57.36507534935212
 20
-8.172057620166585
 30
0.0
  0
SPLINE
  5
D3
330
1F
100
AcDbEntity
  8
0
  6
Continuous
 62
     1
370
    15
100
AcDbSpline
210
0.0
220
0.0
230
1.0
 70
     8
 71
     3
 72
    27
 73
    23
 74
     0
 42
0.000000001
 43
0.00000001
 40
0.0390312787048554
 40
0.0390312787048554
 40
0.0390312787048554
 40
0.0390312787048554
 40
0.0479669161873629
 40
0.095954019479732
 40
0.143850569675099
 40
0.1918696160098975
 40
0.2397977439699562
 40
0.2938363741017849
 40
0.3479736031611395
 40
0.4020458822828933
 40
0.4560721333291266
 40
0.5101718990806814
 40
0.5642882429914501
 40
0.6183171137849246
 40
0.6723772375696607
 40
0.7265195368403083
 40
0.7805660190852443
 40
0.834601407643631
 40
0.8887344931983452
 40
0.9428135307028792
 40
0.9968391580080341
 40
1.0
 40
1.0
 40
1.0
 40
1.0
 10
59.06586816872505
 20
-8.132039735544009
 30
0.0
 10
58.99170509325327
 20
-8.123787984341044
 30
0.0
 10
58.51923070022433
 20
-8.064459957137494
 30
0.0
 10
57.64872685597183
 20
-7.85773267150585
 30
0.0
 10
56.45653048200029
 20
-7.414263443581502
 30
0.0
 10
55.26114117487271
 20
-6.807645497724283
 30
0.0
 10
54.01751507365635
 20
-6.020813378892428
 30
0.0
 10
52.72281873199447
 20
-5.050202035415946
 30
0.0
 10
51.37503402843429
 20
-3.90594215311709
 30
0.0
 10
50.02888352556634
 20
-2.655899928700591
 30
0.0
 10
48.6838935817244
 20
-1.336601010714295
 30
0.0
 10
47.33705305302075
 20
0.0124387687751919
 30
0.0
 10
45.98978337296132
 20
1.353223613645641
 30
0.0
 10
44.64472072493586
 20
2.649144430757937
 30
0.0
 10
43.29887512819928
 20
3.861115127430913
 30
0.0
 10
41.9509354454306
 20
4.953200307361582
 30
0.0
 10
40.60542794917134
 20
5.897719747468802
 30
0.0
 10
39.26019010996719
 20
6.663454118598835
 30
0.0
 10
37.91251329392378
 20
7.236377446427354
 30
0.0
 10
36.56610269897993
 20
7.569321526661023
 30
0.0
 10
35.64371192331321
 20
7.708489892325736
 30
0.0
 10
35.16907154321352
 20
7.671025534060441
 30
0.0
 10
35.14283695900258
 20
7.66895478343949
 30
0.0
  0
SPLINE
  5
D4
330
1F
100
AcDbEntity
  8
0
  6
Continuous
 62
     1
370
    15
100
AcDbSpline
210
0.0
220
0.0
230
1.0
 70
     8
 71
     3
 72
    10
 73
     6
 74
     0
 42
0.000000001
 43
0.00000001
 40
0.0
 40
0.0
 40
0.0
 40
0.0
 40
0.1832721583087801
 40
0.5920801001707992
 40
1.0
 40
1.0
 40
1.0
 40
1.0
 10
13.00524726530473
 20
-7.689324797511317
 30
0.0
 10
12.82176879503152
 20
-7.757485351950877
 30
0.0
 10
12.22902218222893
 20
-7.977685235406595
 30
0.0
 10
11.22547868597071
 20
-8.16831720352715
 30
0.0
 10
10.40787261629228
 20
-8.18751044096
 30
0.0
 10
9.999514079925559
 20
-8.19709662511015
 30
0.0
  0
LINE
  5
D5
330
1F
100
AcDbEntity
  8
0
  6
Continuous
 62
     1
370
    15
100
AcDbLine
 10
60.03751407992552
 20
-8.199774431170688
 30
0.0
 11
60.03751407992551
 21
-8.199666721740883
 31
0.0
  0
SPLINE
  5
D6
330
1F
100
AcDbEntity
  8
0
  6
Continuous
 62
     1
370
    15
100
AcDbSpline
210
0.0
220
0.0
230
1.0
 70
     8
 71
     3
 72
    16
 73
    12
 74
     0
 42
0.000000001
 43
0.00000001
 40
0.0
 40
0.0
 40
0.0
 40
0.0
 40
0.2499999999999979
 40
0.2499999999999979
 40
0.3749999999999951
 40
0.3749999999999951
 40
0.4999999999999922
 40
0.4999999999999922
 40
0.7499999999999961
 40
0.7499999999999961
 40
1.0
 40
1.0
 40
1.0
 40
1.0
 10
60.79951407992552
 20
3.195908455715888
 30
0.0
 10
60.79951407992552
 20
3.166165177726878
 30
0.0
 10
60.78571035875736
 20
3.149960747750347
 30
0.0
 10
60.72367647097225
 20
3.172141950223354
 30
0.0
 10
60.6963045629632
 20
3.187435531085856
 30
0.0
 10
60.62980053822457
 20
3.232950192329142
 30
0.0
 10
60.59120615101902
 20
3.262743912979484
 30
0.0
 10
60.46755553449292
 20
3.363753790896518
 30
0.0
 10
60.37877606047899
 20
3.4424376171321
 30
0.0
 10
60.20603193085043
 20
3.595093070786814
 30
0.0
 10
60.12012204658383
 20
3.671059559903051
 30
0.0
 10
60.03751407992551
 20
3.742232420580389
 30
0.0
  0
SPLINE
  5
D7
330
1F
100
AcDbEntity
  8
0
  6
Continuous
 62
     1
370
    15
100
AcDbSpline
210
0.0
220
0.0
230
1.0
 70
    24
 71
     3
 72
    15
 73
    11
 74
     0
 42
0.000000001
 43
0.00000001
 40
0.0
 40
0.0
 40
0.0
 40
0.0
 40
0.1560522229621485
 40
0.2774263375825469
 40
0.4023203097494039
 40
0.5236944243698025
 40
0.6485883965366585
 40
0.7699625111570656
 40
0.8948564833239122
 40
1.0
 40
1.0
 40
1.0
 40
1.0
 10
9.999514079925522
 20
7.282391305110801
 30
0.0
 10
9.999514079925522
 20
7.004475771859543
 30
0.0
 10
9.999514079925524
 20
6.510403421695722
 30
0.0
 10
9.999514079925524
 20
5.848713980715651
 30
0.0
 10
9.999514079925525
 20
5.298462926140858
 30
0.0
 10
9.999514079925525
 20
4.816068927545182
 30
0.0
 10
9.999514079925527
 20
4.422654633830414
 30
0.0
 10
9.999514079925527
 20
4.12514679767675
 30
0.0
 10
9.999514079925527
 20
3.935813438468624
 30
0.0
 10
9.999514079925527
 20
3.893844092373842
 30
0.0
 10
9.999514079925529
 20
3.874661111968355
 30
0.0
  0
SPLINE
  5
D8
330
1F
100
AcDbEntity
  8
0
  6
Continuous
 62
     1
370
    15
100
AcDbSpline
210
0.0
220
0.0
230
1.0
 70
     8
 71
     3
 72
    24
 73
    20
 74
     0
 42
0.000000001
 43
0.00000001
 40
0.0
 40
0.0
 40
0.0
 40
0.0
 40
0.0546690641286415
 40
0.1094571428649573
 40
0.1641141211128121
 40
0.2241152683441804
 40
0.2842128964621375
 40
0.344206972652625
 40
0.4041827702354026
 40
0.4642652174376016
 40
0.5242975280233142
 40
0.5842646029858944
 40
0.6442991511774255
 40
0.7043798981605244
 40
0.7643549012641154
 40
0.8243504261467646
 40
0.8844482169885367
 40
0.9444477774227555
 40
1.0
 40
1.0
 40
1.0
 40
1.0
 10
9.999514079922564
 20
7.282391305098419
 30
0.0
 10
10.40788531877225
 20
7.137910941186166
 30
0.0
 10
11.22551682106995
 20
6.848635679463897
 30
0.0
 10
12.45422268694449
 20
6.198502602792891
 30
0.0
 10
13.71957782900428
 20
5.379830775044903
 30
0.0
 10
15.02576712626625
 20
4.381080137554114
 30
0.0
 10
16.37368039619899
 20
3.221349135122879
 30
0.0
 10
17.71928398248194
 20
1.959676428765573
 30
0.0
 10
19.0644587137183
 20
0.6340405680842204
 30
0.0
 10
20.41206767808726
 20
-0.7154994874641573
 30
0.0
 10
21.75851062690383
 20
-2.053058528684629
 30
0.0
 10
23.10348079857792
 20
-3.339936633136238
 30
0.0
 10
24.44997517976386
 20
-4.537672066158204
 30
0.0
 10
25.79754307217937
 20
-5.612136699709876
 30
0.0
 10
27.14270495165852
 20
-6.534081205850997
 30
0.0
 10
28.48832025088888
 20
-7.277050937164132
 30
0.0
 10
29.83631406771843
 20
-7.81271139049609
 30
0.0
 10
31.14887614517735
 20
-8.143642358637635
 30
0.0
 10
32.012420907489
 20
-8.176300002033706
 30
0.0
 10
32.4275753048607
 20
-8.192000362750829
 30
0.0
  0
SPLINE
  5
D9
330
1F
100
AcDbEntity
  8
0
  6
Continuous
 62
     1
370
    15
100
AcDbSpline
210
0.0
220
0.0
230
1.0
 70
     8
 71
     3
 72
    10
 73
     6
 74
     0
 42
0.000000001
 43
0.00000001
 40
0.0
 40
0.0
 40
0.0
 40
0.0
 40
0.1713911603097069
 40
0.4479356483874406
 40
0.6126292247064391
 40
0.6126292247064391
 40
0.6126292247064391
 40
0.6126292247064391
 10
54.57112804211094
 20
7.164218529420833
 30
0.0
 10
54.84569783299899
 20
7.260969883325398
 30
0.0
 10
55.56329375268819
 20
7.513832285127747
 30
0.0
 10
56.54654477036006
 20
7.652958994186138
 30
0.0
 10
57.25372218525779
 20
7.679606297945834
 30
0.0
 10
57.51762398120304
 20
7.675225568829315
 30
0.0
  0
SPLINE
  5
DA
330
1F
100
AcDbEntity
  8
0
  6
Continuous
 62
     1
370
    15
100
AcDbSpline
210
0.0
220
0.0
230
1.0
 70
     8
 71
     3
 72
    18
 73
    14
 74
     0
 42
0.000000001
 43
0.00000001
 40
0.0
 40
0.0
 40
0.0
 40
0.0
 40
0.2500000000000001
 40
0.2500000000000001
 40
0.5000000000000002
 40
0.5000000000000002
 40
0.6250000000000001
 40
0.6250000000000001
 40
0.7500000000000001
 40
0.7500000000000001
 40
0.875
 40
0.875
 40
1.0
 40
1.0
 40
1.0
 40
1.0
 10
59.41003092783343
 20
7.492093501300884
 30
0.0
 10
59.35275155704586
 20
7.208680041627176
 30
0.0
 10
59.31352156344342
 20
7.001828214766458
 30
0.0
 10
59.20302379747925
 20
6.601237899179854
 30
0.0
 10
59.13120407574596
 20
6.40574347995708
 30
0.0
 10
58.99060943907716
 20
6.132471724444228
 30
0.0
 10
58.93894505456261
 20
6.046097347045921
 30
0.0
 10
58.82463400944454
 20
5.884140265371366
 30
0.0
 10
58.76123899772273
 20
5.807908240902542
 30
0.0
 10
58.62493533193634
 20
5.672030277450352
 30
0.0
 10
58.5525571494791
 20
5.612639238019356
 30
0.0
 10
58.3989837511518
 20
5.511689922795108
 30
0.0
 10
58.31675679403752
 20
5.469793440741166
 30
0.0
 10
58.23244601627675
 20
5.438605092201596
 30
0.0
  0
SPLINE
  5
DB
330
1F
100
AcDbEntity
  8
0
  6
Continuous
 62
     1
370
    15
100
AcDbSpline
210
0.0
220
0.0
230
1.0
 70
     8
 71
     3
 72
     8
 73
     4
 74
     0
 42
0.000000001
 43
0.00000001
 40
0.0
 40
0.0
 40
0.0
 40
0.0
 40
1.0
 40
1.0
 40
1.0
 40
1.0
 10
60.79951407992552
 20
4.440230772169983
 30
0.0
 10
59.94294562740235
 20
4.839420744423244
 30
0.0
 10
59.08724994063436
 20
5.17269045877888
 30
0.0
 10
58.23244601627675
 20
5.438605092201602
 30
0.0
  0
LINE
  5
DC
330
1F
100
AcDbEntity
  8
0
  6
Continuous
 62
     1
370
    15
100
AcDbLine
 10
60.79951407992552
 20
3.195908455715887
 30
0.0
 11
60.79951407992552
 21
4.440230772169985
 31
0.0
  0
SPLINE
  5
DE
330
1F
100
AcDbEntity
  8
0
  6
Continuous
 62
     1
370
    15
100
AcDbSpline
210
0.0
220
0.0
230
1.0
 70
    24
 71
     3
 72
    12
 73
     8
 74
     0
 42
0.000000001
 43
0.00000001
 40
0.0
 40
0.0
 40
0.0
 40
0.0
 40
0.1161145896045412
 40
0.3470115113980018
 40
0.5846044595655058
 40
0.7899718106773221
 40
1.0
 40
1.0
 40
1.0
 40
1.0
 10
9.999514079925527
 20
-6.241442249196055
 30
0.0
 10
9.999514079925527
 20
-6.283998146901163
 30
0.0
 10
9.999514079925529
 20
-6.411177568813971
 30
0.0
 10
9.999514079925527
 20
-6.734442484931638
 30
0.0
 10
9.999514079925529
 20
-7.173140240332168
 30
0.0
 10
9.999514079925529
 20
-7.666577881973095
 30
0.0
 10
9.999514079925527
 20
-8.01893918444823
 30
0.0
 10
9.999514079925527
 20
-8.197096625110266
 30
0.0
  0
SPLINE
  5
DF
330
1F
100
AcDbEntity
  8
0
  6
Continuous
 62
     1
370
    15
100
AcDbSpline
210
0.0
220
0.0
230
1.0
 70
     8
 71
     3
 72
    11
 73
     7
 74
     0
 42
0.000000001
 43
0.00000001
 40
0.0
 40
0.0
 40
0.0
 40
0.0
 40
0.1695803384631743
 40
0.528302733467944
 40
0.9003258282088986
 40
1.0
 40
1.0
 40
1.0
 40
1.0
 10
58.82692503705622
 20
-5.406094853572954
 30
0.0
 10
58.80000136355401
 20
-5.404048368526234
 30
0.0
 10
58.71612459791523
 20
-5.397672843780963
 30
0.0
 10
58.53957832301477
 20
-5.428541246277534
 30
0.0
 10
58.36186346193814
 20
-5.482264941364691
 30
0.0
 10
58.25502253278846
 20
-5.526133454809922
 30
0.0
 10
58.23244601627675
 20
-5.535403293869003
 30
0.0
  0
SPLINE
  5
E0
330
1F
100
AcDbEntity
  8
0
  6
Continuous
 62
     1
370
    15
100
AcDbSpline
210
0.0
220
0.0
230
1.0
 70
     8
 71
     3
 72
     8
 73
     4
 74
     0
 42
0.000000001
 43
0.00000001
 40
0.0143565955260522
 40
0.0143565955260522
 40
0.0143565955260522
 40
0.0143565955260522
 40
1.0
 40
1.0
 40
1.0
 40
1.0
 10
60.76262239920403
 20
-6.322807153764086
 30
0.0
 10
59.91837605746851
 20
-6.131090558886138
 30
0.0
 10
59.07497786643827
 20
-5.869124813321347
 30
0.0
 10
58.23244601627674
 20
-5.535403293869007
 30
0.0
  0
SPLINE
  5
E3
330
1F
100
AcDbEntity
  8
0
  6
Continuous
 62
     1
370
    15
100
AcDbSpline
210
0.0
220
0.0
230
1.0
 70
     8
 71
     3
 72
    29
 73
    25
 74
     0
 42
0.000000001
 43
0.00000001
 40
0.0
 40
0.0
 40
0.0
 40
0.0
 40
0.0010283016951037
 40
0.049569018977442
 40
0.0980617958838474
 40
0.1466139447546176
 40
0.1951944888011259
 40
0.2436919684218626
 40
0.2922108656286863
 40
0.3408091972682319
 40
0.3893248311092845
 40
0.4378238699272836
 40
0.4864084189787403
 40
0.53495560918285
 40
0.5834482368762347
 40
0.6319936176309766
 40
0.6805795415717686
 40
0.7290792228487075
 40
0.7775936851987431
 40
0.8261918852509905
 40
0.8747120656280108
 40
0.9189106612518663
 40
0.9632152718377878
 40
1.0
 40
1.0
 40
1.0
 40
1.0
 10
37.9407980985577
 20
-7.709096073677931
 30
0.0
 10
37.93128608579605
 20
-7.713100290365603
 30
0.0
 10
37.472761954852
 20
-7.906122526861018
 30
0.0
 10
36.56618929044592
 20
-8.09415509866538
 30
0.0
 10
35.22120307906643
 20
-8.24172555104053
 30
0.0
 10
33.87457127175586
 20
-8.135229630871292
 30
0.0
 10
32.52711745622433
 20
-7.809825472273416
 30
0.0
 10
31.18200285724516
 20
-7.265514239424526
 30
0.0
 10
29.83628953373601
 20
-6.520558976029594
 30
0.0
 10
28.48832681688416
 20
-5.597198054864693
 30
0.0
 10
27.14270319433437
 20
-4.519439010271909
 30
0.0
 10
25.79754354394737
 20
-3.319147576114289
 30
0.0
 10
24.44997505327014
 20
-2.032828323403811
 30
0.0
 10
23.10348083276608
 20
-0.6948268974210298
 30
0.0
 10
21.75851061643543
 20
0.6563939166996947
 30
0.0
 10
20.41206768576087
 20
1.98047948919912
 30
0.0
 10
19.0644586935059
 20
3.239293362719595
 30
0.0
 10
17.71928405552405
 20
4.399274962961769
 30
0.0
 10
16.37368012389956
 20
5.425251338756754
 30
0.0
 10
15.02576814359493
 20
6.286316963185466
 30
0.0
 10
13.71957418196962
 20
6.942343627022195
 30
0.0
 10
12.45423496849732
 20
7.386461278681366
 30
0.0
 10
11.29420556552865
 20
7.638470240682942
 30
0.0
 10
10.54512498006504
 20
7.654657470177622
 30
0.0
 10
10.2053179704968
 20
7.662000517313703
 30
0.0
  0
LINE
  5
E4
330
1F
100
AcDbEntity
  8
0
  6
Continuous
 62
     1
370
    15
100
AcDbLine
 10
9.999514079925522
 20
7.282391305110801
 30
0.0
 11
9.99951407992552
 21
7.675225568829313
 31
0.0
  0
LINE
  5
E7
330
1F
100
AcDbEntity
  8
0
  6
Continuous
 62
     1
370
    15
100
AcDbLine
 10
60.79951407992552
 20
-1.128299834955126
 30
0.0
 11
60.79951407992552
 21
2.424438554301801
 31
0.0
  0
LINE
  5
E8
330
1F
100
AcDbEntity
  8
0
  6
Continuous
 62
     1
370
    15
100
AcDbLine
 10
58.23244601627675
 20
0.1654762295032839
 30
0.0
 11
60.79951407992552
 21
-1.128299834955126
 31
0.0
  0
SPLINE
  5
E9
330
1F
100
AcDbEntity
  8
0
  6
Continuous
 62
     1
370
    15
100
AcDbSpline
210
0.0
220
0.0
230
1.0
 70
     8
 71
     3
 72
    14
 73
    10
 74
     0
 42
0.000000001
 43
0.00000001
 40
0.0
 40
0.0
 40
0.0
 40
0.0
 40
0.25
 40
0.25
 40
0.5
 40
0.5
 40
0.75
 40
0.75
 40
1.0
 40
1.0
 40
1.0
 40
1.0
 10
60.79951407992552
 20
2.424438554301801
 30
0.0
 10
60.79951407992552
 20
2.478336802509876
 30
0.0
 10
60.7759277379889
 20
2.518453041335021
 30
0.0
 10
60.68681852402415
 20
2.559137119163689
 30
0.0
 10
60.62279183185182
 20
2.560017842132914
 30
0.0
 10
60.4745908224106
 20
2.529992355124241
 30
0.0
 10
60.39044516443866
 20
2.499361642713604
 30
0.0
 10
60.21545383466714
 20
2.41562592061966
 30
0.0
 10
60.12648417223054
 20
2.363683227611218
 30
0.0
 10
60.03751407992552
 20
2.303598346754334
 30
0.0
  0
LINE
  5
EA
330
1F
100
AcDbEntity
  8
0
  6
Continuous
 62
     1
370
    15
100
AcDbLine
 10
60.79951407992552
 20
2.424438554301801
 30
0.0
 11
60.79951407992552
 21
3.195908455715887
 31
0.0
  0
LINE
  5
EB
330
1F
100
AcDbEntity
  8
0
  6
Continuous
 62
     1
370
    15
100
AcDbLine
 10
60.79951407992552
 20
-4.681038224212089
 30
0.0
 11
60.79951407992552
 21
-3.978050160407908
 31
0.0
  0
SPLINE
  5
EC
330
1F
100
AcDbEntity
  8
0
  6
Continuous
 62
     1
370
    15
100
AcDbSpline
210
0.0
220
0.0
230
1.0
 70
     8
 71
     3
 72
    14
 73
    10
 74
     0
 42
0.000000001
 43
0.00000001
 40
0.0
 40
0.0
 40
0.0
 40
0.0
 40
0.25
 40
0.25
 40
0.5
 40
0.5
 40
0.75
 40
0.75
 40
1.0
 40
1.0
 40
1.0
 40
1.0
 10
60.79951407992552
 20
-4.68103822421209
 30
0.0
 10
60.79951407992552
 20
-4.734936472420168
 30
0.0
 10
60.7759277379889
 20
-4.803658109569615
 30
0.0
 10
60.68681852402415
 20
-4.9524133994021
 30
0.0
 10
60.62279183185182
 20
-5.03094537655475
 30
0.0
 10
60.4745908224106
 20
-5.180657337537008
 30
0.0
 10
60.39044516443866
 20
-5.252078061080964
 30
0.0
 10
60.21545383466714
 20
-5.380570954380849
 30
0.0
 10
60.12648417223054
 20
-5.436530225976169
 30
0.0
 10
60.03751407992552
 20
-5.48434783106535
 30
0.0
  0
LINE
  5
ED
330
1F
100
AcDbEntity
  8
0
  6
Continuous
 62
     1
370
    15
100
AcDbLine
 10
60.79951407992552
 20
-1.128299834955126
 30
0.0
 11
60.79951407992552
 21
-1.628634707619264
 31
0.0
  0
LINE
  5
EE
330
1F
100
AcDbEntity
  8
0
  6
Continuous
 62
     1
370
    15
100
AcDbLine
 10
60.79951407992552
 20
-4.68103822421209
 30
0.0
 11
60.79951407992552
 21
-5.913774431170696
 31
0.0
  0
LINE
  5
F0
330
1F
100
AcDbEntity
  8
0
  6
Continuous
 62
     1
370
    15
100
AcDbLine
 10
60.79951407992552
 20
4.440230772169985
 30
0.0
 11
60.79951407992552
 21
5.389225568829314
 31
0.0
  0
LINE
  5
F2
330
1F
100
AcDbEntity
  8
중심선
100
AcDbLine
 10
-43.80048592007447
 20
-0.2622744311706912
 30
0.0
 11
63.79951407992552
 21
-0.2622744311706912
 31
0.0
  0
CIRCLE
  5
F3
330
1F
100
AcDbEntity
  8
외형선
100
AcDbCircle
 10
-0.0004859200744764
 20
-0.2622744311706912
 30
0.0
 40
3.000000000000005
  0
INSERT
  5
F4
330
1F
100
AcDbEntity
  8
0
  6
Continuous
 62
     7
100
AcDbBlockReference
 66
     1
  2
블럭10
 10
-16.62984641916796
 20
-52.04907070757051
 30
0.0
  0
ATTRIB
  5
F5
330
F4
100
AcDbEntity
  8
FORMAT
 62
     2
100
AcDbText
 10
-27.68086677135242
 20
-49.97370379473831
 30
0.0
 40
4.233333333333333
  1
GMG22936[ 6 FLUTE ]
 41
0.75
  7
SLDTEXTSTYLE0
 11
-27.68086677135242
 21
-52.09037046140498
 31
0.0
100
AcDbAttribute
  2
AUTOATTR0
 70
     0
 74
     1
  0
SEQEND
  5
F6
330
F4
100
AcDbEntity
  8
0
  6
Continuous
 62
     7
  0
HATCH
  5
F7
330
1F
100
AcDbEntity
  8
중심선
100
AcDbHatch
 10
0.0
 20
0.0
 30
0.0
210
0.0
220
0.0
230
1.0
  2
SOLID
 70
     1
 71
     0
 91
        1
 92
        0
 93
        4
 72
     1
 10
-10.91493711478711
 20
-35.80189640592657
 11
-14.36121235862439
 21
-35.80189640592657
 72
     1
 10
-14.36121235862439
 20
-35.80189640592657
 11
-16.48944221782842
 21
-38.33822198649916
 72
     1
 10
-16.48944221782842
 20
-38.33822198649916
 11
-13.04313388887798
 21
-38.33818255719667
 72
     1
 10
-13.04313388887798
 20
-38.33818255719667
 11
-10.91493711478711
 21
-35.80189640592657
 97
        0
 75
     0
 76
     1
 98
        1
 10
0.0
 20
0.0
  0
HATCH
  5
F8
330
1F
100
AcDbEntity
  8
중심선
100
AcDbHatch
 10
0.0
 20
0.0
 30
0.0
210
0.0
220
0.0
230
1.0
  2
SOLID
 70
     1
 71
     0
 91
        1
 92
        0
 93
        4
 72
     1
 10
-5.902173123751159
 20
-35.80189640592657
 11
-9.348448367588441
 21
-35.80189640592657
 72
     1
 10
-9.348448367588441
 20
-35.80189640592657
 11
-13.87958637594583
 21
-41.20189640592658
 72
     1
 10
-13.87958637594583
 20
-41.20189640592658
 11
-10.43331113210855
 21
-41.20189640592658
 72
     1
 10
-10.43331113210855
 20
-41.20189640592658
 11
-5.902173123751159
 21
-35.80189640592657
 97
        0
 75
     0
 76
     1
 98
        1
 10
0.0
 20
0.0
  0
HATCH
  5
F9
330
1F
100
AcDbEntity
  8
중심선
100
AcDbHatch
 10
0.0
 20
0.0
 30
0.0
210
0.0
220
0.0
230
1.0
  2
SOLID
 70
     1
 71
     0
 91
        1
 92
        0
 93
        4
 72
     1
 10
-0.8894091327152631
 20
-35.8018964059266
 11
-4.335684376552379
 21
-35.80189640592657
 72
     1
 10
-4.335684376552379
 20
-35.80189640592657
 11
-11.38412127844163
 21
-44.20189640592659
 72
     1
 10
-11.38412127844163
 20
-44.20189640592659
 11
-7.937846034604346
 21
-44.20189640592659
 72
     1
 10
-7.937846034604346
 20
-44.20189640592659
 11
-0.8894091327152633
 21
-35.8018964059266
 97
        0
 75
     0
 76
     1
 98
        1
 10
0.0
 20
0.0
  0
HATCH
  5
FA
330
1F
100
AcDbEntity
  8
중심선
100
AcDbHatch
 10
0.0
 20
0.0
 30
0.0
210
0.0
220
0.0
230
1.0
  2
SOLID
 70
     1
 71
     0
 91
        1
 92
        0
 93
        6
 72
     3
 10
3.910481298296936
 20
-40.00189640597785
 11
3.960054785062284
 21
1.540850780301639E-10
 40
0.3939339440162633
 50
17.09539180608434
 51
320.0019657685079
 73
     0
 72
     1
 10
5.593480953997531
 20
-38.58979041056487
 11
7.89878282769857
 21
-36.65546370051695
 72
     3
 10
3.91048129824409
 20
-40.00189640592671
 11
6.600054785286829
 21
-1.249000902703301E-13
 40
0.6363583540795982
 50
39.99873849337408
 51
368.4976242363725
 73
     1
 72
     1
 10
10.3358137901447
 20
-39.04189640585659
 11
2.590548605080012
 21
-39.04189640585656
 72
     1
 10
2.590548605080012
 20
-39.04189640585656
 11
2.590523560634078
 21
-40.96189640585649
 72
     1
 10
2.590523560634078
 20
-40.96189640585649
 11
7.031903330106115
 21
-40.96189640585646
 97
        0
 75
     0
 76
     1
 98
        1
 10
0.0
 20
0.0
  0
POINT
  5
FB
330
1F
100
AcDbEntity
  8
치수문자_일반주서
100
AcDbPoint
 10
-0.0004859200744764
 20
-0.2622744311706912
 30
0.0
  0
DIMENSION
  5
FC
330
1F
100
AcDbEntity
  8
치수문자_일반주서
100
AcDbDimension
  2
_D
 10
76.34654043041179
 20
7.675225568829383
 30
0.0
 11
76.3465404304118
 21
4.003671784175785
 31
0.0
 70
   160
  1
%%c<>
 71
     2
 42
15.87500000000001
 52
-270.0
  3
SLDDIMSTYLE0
100
AcDbAlignedDimension
 13
58.70129471463882
 23
-8.199774431170688
 33
0.0
 14
57.70129471463883
 24
7.675225568829314
 34
0.0
 50
90.0000000000002
100
AcDbRotatedDimension
1001
ACAD
1000
DSTYLE
1002
{
1070
   171
1070
     3
1070
   273
1070
     7
1002
}
  0
DIMENSION
  5
111
330
1F
100
AcDbEntity
  8
치수문자_일반주서
100
AcDbDimension
  2
_D_1
 10
60.79951407992552
 20
40.33077698690109
 30
0.0
 11
9.99951407992553
 21
40.33077698690109
 31
0.0
 70
   160
  1
<>
 71
     2
 42
101.6
  3
SLDDIMSTYLE1
100
AcDbAlignedDimension
 13
-40.80048592007447
 23
7.175225568829306
 33
0.0
 14
60.79951407992552
 24
6.913225568829314
 34
0.0
100
AcDbRotatedDimension
1001
ACAD
1000
DSTYLE
1002
{
1070
   171
1070
     3
1070
   273
1070
     7
1002
}
  0
DIMENSION
  5
125
330
1F
100
AcDbEntity
  8
치수문자_일반주서
100
AcDbDimension
  2
_D_2
 10
9.999514079925518
 20
24.54022009916724
 30
0.0
 11
34.84071634372848
 21
24.54022009916724
 31
0.0
 70
   160
  1
<>
 71
     2
 42
50.80000000000001
  3
SLDDIMSTYLE1
100
AcDbAlignedDimension
 13
60.79951407992552
 23
5.389225568829314
 33
0.0
 14
9.999514079925518
 24
-8.199774431170688
 34
0.0
 50
0.000000000000028
100
AcDbRotatedDimension
1001
ACAD
1000
DSTYLE
1002
{
1070
   171
1070
     3
1070
   273
1070
     7
1002
}
  0
INSERT
  5
14F
330
1F
100
AcDbEntity
  8
외형선
100
AcDbBlockReference
  2
SW_DOWELSYMBOL_0
 10
-0.0004859200744764
 20
-0.2622744311706912
 30
0.0
  0
DIMENSION
  5
175
102
{ACAD_REACTORS
102
}
102
{ACAD_XDICTIONARY
360
176
102
}
330
1F
100
AcDbEntity
  8
치수문자_일반주서
100
AcDbDimension
  2
*D8
 10
-50.04046603812089
 20
-8.199774431170692
 30
0.0
 11
-50.04046603812089
 21
-0.2622744311706917
 31
0.0
 70
   160
  1
{%%C<>[]}
 71
     5
 42
15.875
  3
SLDDIMSTYLE0
100
AcDbAlignedDimension
 13
-40.30048592007447
 23
7.675225568829309
 33
0.0
 14
-40.30048592007447
 24
-8.199774431170692
 34
0.0
 50
90.0
100
AcDbRotatedDimension
1001
ACAD
1000
DSTYLE
1002
{
1070
   283
1070
     1
1070
   170
1070
     1
1070
   171
1070
     3
1070
   273
1070
     7
1002
}
  0
ARC
  5
187
102
{ACAD_REACTORS
102
}
330
1F
100
AcDbEntity
  8
0
  6
Continuous
 62
     1
370
    15
100
AcDbCircle
 10
58.51351407992552
 20
5.389225568829314
 30
0.0
 40
2.285999999999999
100
AcDbArc
 50
0.0
 51
90.0
  0
ARC
  5
188
330
1F
100
AcDbEntity
  8
0
  6
Continuous
 62
     1
370
    15
100
AcDbCircle
 10
58.51351407992552
 20
-5.913774431170696
 30
0.0
 40
2.285999999999999
100
AcDbArc
 50
270.0
 51
0.0
  0
DIMENSION
  5
18B
102
{ACAD_REACTORS
102
}
102
{ACAD_XDICTIONARY
360
18C
102
}
330
1F
100
AcDbEntity
  8
치수문자_일반주서
100
AcDbDimension
  2
*D9
 10
58.51351407992552
 20
5.389225568829314
 30
0.0
 11
74.99994684935095
 21
26.39629604853013
 31
0.0
 70
   164
  1
<>
 71
     5
 42
2.286000000000002
  3
SLDDIMSTYLE0
100
AcDbRadialDimension
 15
59.92484177325943
 25
7.187544267511168
 35
0.0
 40
0.0
1001
ACAD
1000
DSTYLE
1002
{
1070
   171
1070
     3
1070
   273
1070
     2
1002
}
1001
ACAD_DSTYLE_DIMRADIAL_EXTENSION
1070
   387
1070
     1
1070
   388
1040
0.0
1070
   390
1040
1.570796326794897
  0
ENDSEC
  0
SECTION
  2
OBJECTS
  0
DICTIONARY
  5
C
330
0
100
AcDbDictionary
281
     1
  3
ACAD_GROUP
350
D
  3
ACAD_IMAGE_VARS
350
173
  3
ACAD_LAYOUT
350
1A
  3
ACAD_MLINESTYLE
350
17
  3
ACAD_PLOTSETTINGS
350
19
  3
ACAD_PLOTSTYLENAME
350
E
  3
ACAD_SCALELIST
350
47
  3
APPDATA
350
171
  3
DWGPROPS
350
198
  0
DICTIONARY
  5
176
330
175
100
AcDbDictionary
280
     1
281
     1
  0
DICTIONARY
  5
18C
330
18B
100
AcDbDictionary
280
     1
281
     1
  0
DICTIONARY
  5
D
102
{ACAD_REACTORS
330
C
102
}
330
C
100
AcDbDictionary
281
     1
  0
RASTERVARIABLES
  5
173
102
{ACAD_REACTORS
330
C
102
}
330
C
100
AcDbRasterVariables
 90
        0
 70
     1
 71
     1
 72
     1
  0
DICTIONARY
  5
1A
102
{ACAD_REACTORS
330
C
102
}
330
C
100
AcDbDictionary
281
     1
  3
Layout1
350
1E
  3
Layout2
350
26
  3
Model
350
22
  0
DICTIONARY
  5
17
102
{ACAD_REACTORS
330
C
102
}
330
C
100
AcDbDictionary
281
     1
  3
Standard
350
18
  0
DICTIONARY
  5
19
102
{ACAD_REACTORS
330
C
102
}
330
C
100
AcDbDictionary
281
     1
  0
ACDBDICTIONARYWDFLT
  5
E
102
{ACAD_REACTORS
330
C
102
}
330
C
100
AcDbDictionary
281
     1
  3
Normal
350
F
100
AcDbDictionaryWithDefault
340
F
  0
DICTIONARY
  5
47
102
{ACAD_REACTORS
330
C
102
}
330
C
100
AcDbDictionary
281
     1
  3
A0
350
48
  3
A1
350
49
  3
A2
350
4A
  3
A3
350
4B
  3
A4
350
4C
  3
A5
350
4D
  3
A6
350
4E
  3
A7
350
4F
  3
A8
350
50
  3
A9
350
51
  3
B0
350
52
  3
B1
350
53
  3
B2
350
54
  3
B3
350
55
  3
B4
350
56
  3
B5
350
57
  3
B6
350
58
  3
B7
350
59
  3
B8
350
5A
  3
B9
350
5B
  3
C0
350
5C
  3
C1
350
5D
  3
C2
350
5E
  3
C3
350
5F
  3
C4
350
60
  3
C5
350
61
  3
C6
350
62
  3
C7
350
63
  3
C8
350
64
  3
C9
350
65
  3
D0
350
66
  3
D1
350
67
  3
D2
350
68
  0
DICTIONARY
  5
171
102
{ACAD_REACTORS
330
C
102
}
330
C
100
AcDbDictionary
281
     1
  0
XRECORD
  5
198
102
{ACAD_REACTORS
330
C
102
}
330
C
100
AcDbXrecord
280
     1
  1
DWGPROPS COOKIE
  2

  3

  4

  6

  7

  8
12016016
  9

300
=
301
=
302
=
303
=
304
=
305
=
306
=
307
=
308
=
309
=
 40
0.0
 41
2458236.372468426
 42
2458241.312662384
  1

 90
        0
  0
LAYOUT
  5
1E
102
{ACAD_REACTORS
330
1A
102
}
330
1A
100
AcDbPlotSettings
  1

  2
none_device
  4

  6

 40
0.0
 41
0.0
 42
0.0
 43
0.0
 44
0.0
 45
0.0
 46
0.0
 47
0.0
 48
0.0
 49
0.0
140
0.0
141
0.0
142
1.0
143
1.0
 70
   688
 72
     1
 73
     0
 74
     5
  7

 75
    16
147
1.0
148
0.0
149
0.0
100
AcDbLayout
  1
Layout1
 70
     1
 71
     1
 10
0.0
 20
0.0
 11
420.0
 21
297.0
 12
0.0
 22
0.0
 32
0.0
 14
1.000000000000000E+20
 24
1.000000000000000E+20
 34
1.000000000000000E+20
 15
-1.000000000000000E+20
 25
-1.000000000000000E+20
 35
-1.000000000000000E+20
146
0.0
 13
0.0
 23
0.0
 33
0.0
 16
1.0
 26
0.0
 36
0.0
 17
0.0
 27
1.0
 37
0.0
 76
     0
330
1B
  0
LAYOUT
  5
26
102
{ACAD_REACTORS
330
1A
102
}
330
1A
100
AcDbPlotSettings
  1

  2
none_device
  4

  6

 40
0.0
 41
0.0
 42
0.0
 43
0.0
 44
0.0
 45
0.0
 46
0.0
 47
0.0
 48
0.0
 49
0.0
140
0.0
141
0.0
142
1.0
143
1.0
 70
   688
 72
     1
 73
     0
 74
     5
  7

 75
    16
147
1.0
148
0.0
149
0.0
100
AcDbLayout
  1
Layout2
 70
     1
 71
     2
 10
0.0
 20
0.0
 11
0.0
 21
0.0
 12
0.0
 22
0.0
 32
0.0
 14
0.0
 24
0.0
 34
0.0
 15
0.0
 25
0.0
 35
0.0
146
0.0
 13
0.0
 23
0.0
 33
0.0
 16
1.0
 26
0.0
 36
0.0
 17
0.0
 27
1.0
 37
0.0
 76
     0
330
23
  0
LAYOUT
  5
22
102
{ACAD_REACTORS
330
1A
102
}
330
1A
100
AcDbPlotSettings
  1

  2
none_device
  4
ANSI_A_(11.00_x_8.50_Inches)
  6

 40
6.35
 41
19.05
 42
6.35000508
 43
19.05000254
 44
279.4
 45
215.9
 46
89.33740652420362
 47
88.60367662800151
 48
0.0
 49
0.0
140
0.0
141
0.0
142
0.057470619123188
143
1.0
 70
  1696
 72
     0
 73
     0
 74
     0
  7

 75
     0
147
0.0235690232323232
148
0.0
149
0.0
100
AcDbLayout
  1
Model
 70
     1
 71
     0
 10
0.0
 20
0.0
 11
420.0
 21
297.0
 12
0.0
 22
0.0
 32
0.0
 14
-54.41546603812088
 24
-49.97370379473832
 34
0.0
 15
84.58860968272464
 25
44.70577698690109
 35
0.0
146
0.0
 13
0.0
 23
0.0
 33
0.0
 16
1.0
 26
0.0
 36
0.0
 17
0.0
 27
1.0
 37
0.0
 76
     0
330
1F
331
29
  0
MLINESTYLE
  5
18
102
{ACAD_REACTORS
330
17
102
}
330
17
100
AcDbMlineStyle
  2
Standard
 70
     0
  3

 62
   256
 51
90.0
 52
90.0
 71
     2
 49
0.5
 62
   256
  6
BYLAYER
 49
-0.5
 62
   256
  6
BYLAYER
  0
ACDBPLACEHOLDER
  5
F
102
{ACAD_REACTORS
330
E
102
}
330
E
  0
SCALE
  5
48
102
{ACAD_REACTORS
330
47
102
}
330
47
100
AcDbScale
 70
     0
300
1:1
140
1.0
141
1.0
290
     1
  0
SCALE
  5
49
102
{ACAD_REACTORS
330
47
102
}
330
47
100
AcDbScale
 70
     0
300
1:2
140
1.0
141
2.0
290
     0
  0
SCALE
  5
4A
102
{ACAD_REACTORS
330
47
102
}
330
47
100
AcDbScale
 70
     0
300
1:4
140
1.0
141
4.0
290
     0
  0
SCALE
  5
4B
102
{ACAD_REACTORS
330
47
102
}
330
47
100
AcDbScale
 70
     0
300
1:5
140
1.0
141
5.0
290
     0
  0
SCALE
  5
4C
102
{ACAD_REACTORS
330
47
102
}
330
47
100
AcDbScale
 70
     0
300
1:8
140
1.0
141
8.0
290
     0
  0
SCALE
  5
4D
102
{ACAD_REACTORS
330
47
102
}
330
47
100
AcDbScale
 70
     0
300
1:10
140
1.0
141
10.0
290
     0
  0
SCALE
  5
4E
102
{ACAD_REACTORS
330
47
102
}
330
47
100
AcDbScale
 70
     0
300
1:16
140
1.0
141
16.0
290
     0
  0
SCALE
  5
4F
102
{ACAD_REACTORS
330
47
102
}
330
47
100
AcDbScale
 70
     0
300
1:20
140
1.0
141
20.0
290
     0
  0
SCALE
  5
50
102
{ACAD_REACTORS
330
47
102
}
330
47
100
AcDbScale
 70
     0
300
1:30
140
1.0
141
30.0
290
     0
  0
SCALE
  5
51
102
{ACAD_REACTORS
330
47
102
}
330
47
100
AcDbScale
 70
     0
300
1:40
140
1.0
141
40.0
290
     0
  0
SCALE
  5
52
102
{ACAD_REACTORS
330
47
102
}
330
47
100
AcDbScale
 70
     0
300
1:50
140
1.0
141
50.0
290
     0
  0
SCALE
  5
53
102
{ACAD_REACTORS
330
47
102
}
330
47
100
AcDbScale
 70
     0
300
1:100
140
1.0
141
100.0
290
     0
  0
SCALE
  5
54
102
{ACAD_REACTORS
330
47
102
}
330
47
100
AcDbScale
 70
     0
300
2:1
140
2.0
141
1.0
290
     0
  0
SCALE
  5
55
102
{ACAD_REACTORS
330
47
102
}
330
47
100
AcDbScale
 70
     0
300
4:1
140
4.0
141
1.0
290
     0
  0
SCALE
  5
56
102
{ACAD_REACTORS
330
47
102
}
330
47
100
AcDbScale
 70
     0
300
8:1
140
8.0
141
1.0
290
     0
  0
SCALE
  5
57
102
{ACAD_REACTORS
330
47
102
}
330
47
100
AcDbScale
 70
     0
300
10:1
140
10.0
141
1.0
290
     0
  0
SCALE
  5
58
102
{ACAD_REACTORS
330
47
102
}
330
47
100
AcDbScale
 70
     0
300
100:1
140
100.0
141
1.0
290
     0
  0
SCALE
  5
59
102
{ACAD_REACTORS
330
47
102
}
330
47
100
AcDbScale
 70
     0
300
1/128" = 1'-0"
140
0.0078125
141
12.0
290
     0
  0
SCALE
  5
5A
102
{ACAD_REACTORS
330
47
102
}
330
47
100
AcDbScale
 70
     0
300
1/64" = 1'-0"
140
0.015625
141
12.0
290
     0
  0
SCALE
  5
5B
102
{ACAD_REACTORS
330
47
102
}
330
47
100
AcDbScale
 70
     0
300
1/32" = 1'-0"
140
0.03125
141
12.0
290
     0
  0
SCALE
  5
5C
102
{ACAD_REACTORS
330
47
102
}
330
47
100
AcDbScale
 70
     0
300
1/16" = 1'-0"
140
0.0625
141
12.0
290
     0
  0
SCALE
  5
5D
102
{ACAD_REACTORS
330
47
102
}
330
47
100
AcDbScale
 70
     0
300
3/32" = 1'-0"
140
0.09375
141
12.0
290
     0
  0
SCALE
  5
5E
102
{ACAD_REACTORS
330
47
102
}
330
47
100
AcDbScale
 70
     0
300
1/8" = 1'-0"
140
0.125
141
12.0
290
     0
  0
SCALE
  5
5F
102
{ACAD_REACTORS
330
47
102
}
330
47
100
AcDbScale
 70
     0
300
3/16" = 1'-0"
140
0.1875
141
12.0
290
     0
  0
SCALE
  5
60
102
{ACAD_REACTORS
330
47
102
}
330
47
100
AcDbScale
 70
     0
300
1/4" = 1'-0"
140
0.25
141
12.0
290
     0
  0
SCALE
  5
61
102
{ACAD_REACTORS
330
47
102
}
330
47
100
AcDbScale
 70
     0
300
3/8" = 1'-0"
140
0.375
141
12.0
290
     0
  0
SCALE
  5
62
102
{ACAD_REACTORS
330
47
102
}
330
47
100
AcDbScale
 70
     0
300
1/2" = 1'-0"
140
0.5
141
12.0
290
     0
  0
SCALE
  5
63
102
{ACAD_REACTORS
330
47
102
}
330
47
100
AcDbScale
 70
     0
300
3/4" = 1'-0"
140
0.75
141
12.0
290
     0
  0
SCALE
  5
64
102
{ACAD_REACTORS
330
47
102
}
330
47
100
AcDbScale
 70
     0
300
1" = 1'-0"
140
1.0
141
12.0
290
     0
  0
SCALE
  5
65
102
{ACAD_REACTORS
330
47
102
}
330
47
100
AcDbScale
 70
     0
300
1-1/2" = 1'-0"
140
1.5
141
12.0
290
     0
  0
SCALE
  5
66
102
{ACAD_REACTORS
330
47
102
}
330
47
100
AcDbScale
 70
     0
300
3" = 1'-0"
140
3.0
141
12.0
290
     0
  0
SCALE
  5
67
102
{ACAD_REACTORS
330
47
102
}
330
47
100
AcDbScale
 70
     0
300
6" = 1'-0"
140
6.0
141
12.0
290
     0
  0
SCALE
  5
68
102
{ACAD_REACTORS
330
47
102
}
330
47
100
AcDbScale
 70
     0
300
1'-0" = 1'-0"
140
12.0
141
12.0
290
     0
  0
ENDSEC
  0
EOF
