  0
SECTION
  2
HEADER
  9
$ACADVER
  1
AC1015
  9
$ACADMAINTVER
 70
     6
  9
$DWGCODEPAGE
  3
ANSI_949
  9
$INSBASE
 10
0.0
 20
0.0
 30
0.0
  9
$EXTMIN
 10
-54.85168959345992
 20
-49.71142936356763
 30
0.0
  9
$EXTMAX
 10
84.74978617738539
 20
44.96805141807178
 30
0.0
  9
$LIMMIN
 10
0.0
 20
0.0
  9
$LIMMAX
 10
420.0
 20
297.0
  9
$ORTHOMODE
 70
     0
  9
$REGENMODE
 70
     1
  9
$FILLMODE
 70
     1
  9
$QTEXTMODE
 70
     0
  9
$MIRRTEXT
 70
     1
  9
$LTSCALE
 40
1.0
  9
$ATTMODE
 70
     1
  9
$TEXTSIZE
 40
3.5
  9
$TRACEWID
 40
1.0
  9
$TEXTSTYLE
  7
Standard
  9
$CLAYER
  8
0
  9
$CELTYPE
  6
ByLayer
  9
$CECOLOR
 62
   256
  9
$CELTSCALE
 40
1.0
  9
$DISPSILH
 70
     0
  9
$DIMSCALE
 40
1.0
  9
$DIMASZ
 40
3.302
  9
$DIMEXO
 40
1.0
  9
$DIMDLI
 40
3.75
  9
$DIMRND
 40
0.0
  9
$DIMDLE
 40
0.0
  9
$DIMEXE
 40
1.0
  9
$DIMTP
 40
0.0
  9
$DIMTM
 40
0.0
  9
$DIMTXT
 40
3.5
  9
$DIMCEN
 40
2.5
  9
$DIMTSZ
 40
0.0
  9
$DIMTOL
 70
     0
  9
$DIMLIM
 70
     0
  9
$DIMTIH
 70
     1
  9
$DIMTOH
 70
     1
  9
$DIMSE1
 70
     0
  9
$DIMSE2
 70
     0
  9
$DIMTAD
 70
     1
  9
$DIMZIN
 70
     0
  9
$DIMBLK
  1

  9
$DIMASO
 70
     1
  9
$DIMSHO
 70
     1
  9
$DIMPOST
  1

  9
$DIMAPOST
  1

  9
$DIMALT
 70
     0
  9
$DIMALTD
 70
     3
  9
$DIMALTF
 40
0.0393700787401575
  9
$DIMLFAC
 40
1.0
  9
$DIMTOFL
 70
     1
  9
$DIMTVP
 40
0.0
  9
$DIMTIX
 70
     0
  9
$DIMSOXD
 70
     0
  9
$DIMSAH
 70
     0
  9
$DIMBLK1
  1

  9
$DIMBLK2
  1

  9
$DIMSTYLE
  2
ISO-25
  9
$DIMCLRD
 70
     0
  9
$DIMCLRE
 70
     0
  9
$DIMCLRT
 70
     0
  9
$DIMTFAC
 40
1.0
  9
$DIMGAP
 40
1.524
  9
$DIMJUST
 70
     0
  9
$DIMSD1
 70
     0
  9
$DIMSD2
 70
     0
  9
$DIMTOLJ
 70
     0
  9
$DIMTZIN
 70
     0
  9
$DIMALTZ
 70
     0
  9
$DIMALTTZ
 70
     0
  9
$DIMUPT
 70
     0
  9
$DIMDEC
 70
     2
  9
$DIMTDEC
 70
     2
  9
$DIMALTU
 70
     2
  9
$DIMALTTD
 70
     3
  9
$DIMTXSTY
  7
Standard
  9
$DIMAUNIT
 70
     0
  9
$DIMADEC
 70
     2
  9
$DIMALTRND
 40
0.0
  9
$DIMAZIN
 70
     0
  9
$DIMDSEP
 70
    44
  9
$DIMATFIT
 70
     3
  9
$DIMFRAC
 70
     0
  9
$DIMLDRBLK
  1

  9
$DIMLUNIT
 70
     2
  9
$DIMLWD
 70
    -2
  9
$DIMLWE
 70
    -2
  9
$DIMTMOVE
 70
     0
  9
$LUNITS
 70
     2
  9
$LUPREC
 70
     2
  9
$SKETCHINC
 40
1.0
  9
$FILLETRAD
 40
10.0
  9
$AUNITS
 70
     0
  9
$AUPREC
 70
     2
  9
$MENU
  1
.
  9
$ELEVATION
 40
0.0
  9
$PELEVATION
 40
0.0
  9
$THICKNESS
 40
0.0
  9
$LIMCHECK
 70
     0
  9
$CHAMFERA
 40
0.0
  9
$CHAMFERB
 40
0.0
  9
$CHAMFERC
 40
0.0
  9
$CHAMFERD
 40
0.0
  9
$SKPOLY
 70
     0
  9
$TDCREATE
 40
2458236.747278843
  9
$TDUCREATE
 40
2458236.372278843
  9
$TDUPDATE
 40
2458241.707826296
  9
$TDUUPDATE
 40
2458241.332826296
  9
$TDINDWG
 40
0.0005473843
  9
$TDUSRTIMER
 40
2458241.312679271
  9
$USRTIMER
 70
     1
  9
$ANGBASE
 50
0.0
  9
$ANGDIR
 70
     0
  9
$PDMODE
 70
     0
  9
$PDSIZE
 40
-1.0
  9
$PLINEWID
 40
0.0
  9
$SPLFRAME
 70
     0
  9
$SPLINETYPE
 70
     6
  9
$SPLINESEGS
 70
     8
  9
$HANDSEED
  5
185
  9
$SURFTAB1
 70
     6
  9
$SURFTAB2
 70
     6
  9
$SURFTYPE
 70
     6
  9
$SURFU
 70
     6
  9
$SURFV
 70
     6
  9
$UCSBASE
  2

  9
$UCSNAME
  2

  9
$UCSORG
 10
0.0
 20
0.0
 30
0.0
  9
$UCSXDIR
 10
1.0
 20
0.0
 30
0.0
  9
$UCSYDIR
 10
0.0
 20
1.0
 30
0.0
  9
$UCSORTHOREF
  2

  9
$UCSORTHOVIEW
 70
     0
  9
$UCSORGTOP
 10
0.0
 20
0.0
 30
0.0
  9
$UCSORGBOTTOM
 10
0.0
 20
0.0
 30
0.0
  9
$UCSORGLEFT
 10
0.0
 20
0.0
 30
0.0
  9
$UCSORGRIGHT
 10
0.0
 20
0.0
 30
0.0
  9
$UCSORGFRONT
 10
0.0
 20
0.0
 30
0.0
  9
$UCSORGBACK
 10
0.0
 20
0.0
 30
0.0
  9
$PUCSBASE
  2

  9
$PUCSNAME
  2

  9
$PUCSORG
 10
0.0
 20
0.0
 30
0.0
  9
$PUCSXDIR
 10
1.0
 20
0.0
 30
0.0
  9
$PUCSYDIR
 10
0.0
 20
1.0
 30
0.0
  9
$PUCSORTHOREF
  2

  9
$PUCSORTHOVIEW
 70
     0
  9
$PUCSORGTOP
 10
0.0
 20
0.0
 30
0.0
  9
$PUCSORGBOTTOM
 10
0.0
 20
0.0
 30
0.0
  9
$PUCSORGLEFT
 10
0.0
 20
0.0
 30
0.0
  9
$PUCSORGRIGHT
 10
0.0
 20
0.0
 30
0.0
  9
$PUCSORGFRONT
 10
0.0
 20
0.0
 30
0.0
  9
$PUCSORGBACK
 10
0.0
 20
0.0
 30
0.0
  9
$USERI1
 70
     0
  9
$USERI2
 70
     0
  9
$USERI3
 70
     0
  9
$USERI4
 70
     0
  9
$USERI5
 70
     0
  9
$USERR1
 40
0.0
  9
$USERR2
 40
0.0
  9
$USERR3
 40
0.0
  9
$USERR4
 40
0.0
  9
$USERR5
 40
0.0
  9
$WORLDVIEW
 70
     1
  9
$SHADEDGE
 70
     3
  9
$SHADEDIF
 70
    70
  9
$TILEMODE
 70
     1
  9
$MAXACTVP
 70
    64
  9
$PINSBASE
 10
0.0
 20
0.0
 30
0.0
  9
$PLIMCHECK
 70
     0
  9
$PEXTMIN
 10
1.000000000000000E+20
 20
1.000000000000000E+20
 30
1.000000000000000E+20
  9
$PEXTMAX
 10
-1.000000000000000E+20
 20
-1.000000000000000E+20
 30
-1.000000000000000E+20
  9
$PLIMMIN
 10
0.0
 20
0.0
  9
$PLIMMAX
 10
0.0
 20
0.0
  9
$UNITMODE
 70
     0
  9
$VISRETAIN
 70
     1
  9
$PLINEGEN
 70
     0
  9
$PSLTSCALE
 70
     1
  9
$TREEDEPTH
 70
  3020
  9
$CMLSTYLE
  2
Standard
  9
$CMLJUST
 70
     0
  9
$CMLSCALE
 40
20.0
  9
$PROXYGRAPHICS
 70
     1
  9
$MEASUREMENT
 70
     1
  9
$CELWEIGHT
370
    -1
  9
$ENDCAPS
280
     0
  9
$JOINSTYLE
280
     0
  9
$LWDISPLAY
290
     1
  9
$INSUNITS
 70
     4
  9
$HYPERLINKBASE
  1

  9
$STYLESHEET
  1

  9
$XEDIT
290
     1
  9
$CEPSNTYPE
380
     0
  9
$PSTYLEMODE
290
     1
  9
$FINGERPRINTGUID
  2
{BB845AE6-0F80-457D-A0BC-FB9B570BFD15}
  9
$VERSIONGUID
  2
{FAEB1C32-E019-11D5-929B-00C0DF256EC4}
  9
$EXTNAMES
290
     1
  9
$PSVPSCALE
 40
0.0
  9
$OLESTARTUP
290
     0
  0
ENDSEC
  0
SECTION
  2
CLASSES
  0
CLASS
  1
ACDBDICTIONARYWDFLT
  2
AcDbDictionaryWithDefault
  3
ObjectDBX Classes
 90
        0
280
     0
281
     0
  0
CLASS
  1
VISUALSTYLE
  2
AcDbVisualStyle
  3
ObjectDBX Classes
 90
     4095
280
     0
281
     0
  0
CLASS
  1
MATERIAL
  2
AcDbMaterial
  3
ObjectDBX Classes
 90
     1153
280
     0
281
     0
  0
CLASS
  1
SCALE
  2
AcDbScale
  3
ObjectDBX Classes
 90
     1153
280
     0
281
     0
  0
CLASS
  1
SUN
  2
AcDbSun
  3
SCENEOE
 90
     1153
280
     0
281
     0
  0
CLASS
  1
ACDBPLACEHOLDER
  2
AcDbPlaceHolder
  3
ObjectDBX Classes
 90
        0
280
     0
281
     0
  0
CLASS
  1
LAYOUT
  2
AcDbLayout
  3
ObjectDBX Classes
 90
        0
280
     0
281
     0
  0
CLASS
  1
TABLESTYLE
  2
AcDbTableStyle
  3
ObjectDBX Classes
 90
     4095
280
     0
281
     0
  0
CLASS
  1
MLEADERSTYLE
  2
AcDbMLeaderStyle
  3
ACDB_MLEADERSTYLE_CLASS
 90
     4095
280
     0
281
     0
  0
CLASS
  1
RASTERVARIABLES
  2
AcDbRasterVariables
  3
ISM
 90
        0
280
     0
281
     0
  0
CLASS
  1
DIMASSOC
  2
AcDbDimAssoc
  3
"AcDbDimAssoc|Product Desc:     AcDim ARX App For Dimension|Company:          Autodesk, Inc.|WEB Address:      www.autodesk.com"
 90
        0
280
     0
281
     0
  0
ENDSEC
  0
SECTION
  2
TABLES
  0
TABLE
  2
VPORT
  5
8
330
0
100
AcDbSymbolTable
 70
     1
  0
VPORT
  5
29
330
8
100
AcDbSymbolTableRecord
100
AcDbViewportTableRecord
  2
*Active
 70
     0
 10
0.0
 20
0.0
 11
1.0
 21
1.0
 12
-13.39855717940545
 22
9.341095874830616
 13
0.0
 23
0.0
 14
10.0
 24
10.0
 15
10.0
 25
10.0
 16
0.0
 26
0.0
 36
1.0
 17
0.0
 27
0.0
 37
0.0
 40
146.2347809097381
 41
1.321695760598504
 42
50.0
 43
0.0
 44
0.0
 50
0.0
 51
0.0
 71
    16
 72
  2000
 73
     1
 74
     3
 75
     0
 76
     0
 77
     0
 78
     0
281
     0
 65
     1
110
0.0
120
0.0
130
0.0
111
1.0
121
0.0
131
0.0
112
0.0
122
1.0
132
0.0
 79
     0
146
0.0
  0
ENDTAB
  0
TABLE
  2
LTYPE
  5
5
330
0
100
AcDbSymbolTable
 70
     6
  0
LTYPE
  5
14
330
5
100
AcDbSymbolTableRecord
100
AcDbLinetypeTableRecord
  2
ByBlock
 70
     0
  3

 72
    65
 73
     0
 40
0.0
  0
LTYPE
  5
15
330
5
100
AcDbSymbolTableRecord
100
AcDbLinetypeTableRecord
  2
ByLayer
 70
     0
  3

 72
    65
 73
     0
 40
0.0
  0
LTYPE
  5
16
330
5
100
AcDbSymbolTableRecord
100
AcDbLinetypeTableRecord
  2
Continuous
 70
     0
  3
Solid line
 72
    65
 73
     0
 40
0.0
  0
LTYPE
  5
6A
330
5
100
AcDbSymbolTableRecord
100
AcDbLinetypeTableRecord
  2
HIDDEN
 70
     0
  3
Hidden __ __ __ __ __ __ __ __ __ __ __ __ __ __
 72
    65
 73
     2
 40
1.905
 49
1.27
 74
     0
 49
-0.635
 74
     0
  0
LTYPE
  5
6B
330
5
100
AcDbSymbolTableRecord
100
AcDbLinetypeTableRecord
  2
PHANTOM
 70
     0
  3
Phantom ______  __  __  ______  __  __  ______
 72
    65
 73
     6
 40
12.7
 49
6.35
 74
     0
 49
-1.27
 74
     0
 49
1.27
 74
     0
 49
-1.27
 74
     0
 49
1.27
 74
     0
 49
-1.27
 74
     0
  0
LTYPE
  5
6C
330
5
100
AcDbSymbolTableRecord
100
AcDbLinetypeTableRecord
  2
CENTER
 70
     0
  3
Center ____ _ ____ _ ____ _ ____ _ ____ _ ____
 72
    65
 73
     4
 40
10.16
 49
6.35
 74
     0
 49
-1.27
 74
     0
 49
1.27
 74
     0
 49
-1.27
 74
     0
  0
LTYPE
  5
6D
330
5
100
AcDbSymbolTableRecord
100
AcDbLinetypeTableRecord
  2
CENTERX2
 70
     0
  3
Center (2x) ________  __  ________  __  _____
 72
    65
 73
     4
 40
20.32
 49
12.7
 74
     0
 49
-2.54
 74
     0
 49
2.54
 74
     0
 49
-2.54
 74
     0
  0
LTYPE
  5
6E
330
5
100
AcDbSymbolTableRecord
100
AcDbLinetypeTableRecord
  2
DOT2
 70
     0
  3
Dot (.5x) ........................................
 72
    65
 73
     2
 40
0.635
 49
0.0
 74
     0
 49
-0.635
 74
     0
  0
ENDTAB
  0
TABLE
  2
LAYER
  5
2
330
0
100
AcDbSymbolTable
 70
    17
  0
LAYER
  5
10
330
2
100
AcDbSymbolTableRecord
100
AcDbLayerTableRecord
  2
0
 70
     0
 62
     7
  6
Continuous
370
    -3
390
F
  0
LAYER
  5
6F
330
2
100
AcDbSymbolTableRecord
100
AcDbLayerTableRecord
  2
FORMAT
 70
     0
 62
     2
  6
Continuous
370
    -3
390
F
  0
LAYER
  5
70
330
2
100
AcDbSymbolTableRecord
100
AcDbLayerTableRecord
  2
외형선
 70
     0
 62
   100
  6
Continuous
370
    30
390
F
  0
LAYER
  5
71
330
2
100
AcDbSymbolTableRecord
100
AcDbLayerTableRecord
  2
숨은선
 70
     0
 62
     2
  6
HIDDEN
370
    15
390
F
  0
LAYER
  5
72
330
2
100
AcDbSymbolTableRecord
100
AcDbLayerTableRecord
  2
중심선
 70
     0
 62
     1
  6
CENTERX2
370
    -3
390
F
  0
LAYER
  5
73
330
2
100
AcDbSymbolTableRecord
100
AcDbLayerTableRecord
  2
파단선
 70
     0
 62
     4
  6
Continuous
370
    -3
390
F
  0
LAYER
  5
74
330
2
100
AcDbSymbolTableRecord
100
AcDbLayerTableRecord
  2
해칭선
 70
     0
 62
     4
  6
Continuous
370
    -3
390
F
  0
LAYER
  5
75
330
2
100
AcDbSymbolTableRecord
100
AcDbLayerTableRecord
  2
가는실선
 70
     0
 62
     4
  6
Continuous
370
    -3
390
F
  0
LAYER
  5
76
330
2
100
AcDbSymbolTableRecord
100
AcDbLayerTableRecord
  2
치수_보조선
 70
     0
 62
     4
  6
Continuous
370
    -3
390
F
  0
LAYER
  5
77
330
2
100
AcDbSymbolTableRecord
100
AcDbLayerTableRecord
  2
치수문자_일반주서
 70
     0
 62
     7
  6
Continuous
370
    15
390
F
  0
LAYER
  5
78
330
2
100
AcDbSymbolTableRecord
100
AcDbLayerTableRecord
  2
개별주서
 70
     0
 62
   100
  6
Continuous
370
    30
390
F
  0
LAYER
  5
79
330
2
100
AcDbSymbolTableRecord
100
AcDbLayerTableRecord
  2
중간선
 70
     0
 62
     2
  6
Continuous
370
    15
390
F
  0
LAYER
  5
7A
330
2
100
AcDbSymbolTableRecord
100
AcDbLayerTableRecord
  2
윤곽선
 70
     0
 62
     3
  6
Continuous
370
    40
390
F
  0
LAYER
  5
7B
330
2
100
AcDbSymbolTableRecord
100
AcDbLayerTableRecord
  2
중심마크
 70
     0
 62
   100
  6
Continuous
370
    30
390
F
  0
LAYER
  5
7C
330
2
100
AcDbSymbolTableRecord
100
AcDbLayerTableRecord
  2
가상선
 70
     0
 62
     4
  6
PHANTOM
370
    -3
390
F
  0
LAYER
  5
7D
330
2
100
AcDbSymbolTableRecord
100
AcDbLayerTableRecord
  2
특수지정선
 70
     0
 62
     5
  6
CENTERX2
370
    60
390
F
  0
LAYER
  5
160
330
2
100
AcDbSymbolTableRecord
100
AcDbLayerTableRecord
  2
Defpoints
 70
     0
 62
     7
  6
Continuous
290
     0
370
    -3
390
F
  0
ENDTAB
  0
TABLE
  2
STYLE
  5
3
330
0
100
AcDbSymbolTable
 70
     2
  0
STYLE
  5
11
330
3
100
AcDbSymbolTableRecord
100
AcDbTextStyleTableRecord
  2
Standard
 70
     0
 40
0.0
 41
1.0
 50
0.0
 71
     0
 42
3.5
  3
txt
  4

  0
STYLE
  5
93
330
3
100
AcDbSymbolTableRecord
100
AcDbTextStyleTableRecord
  2
SLDTEXTSTYLE0
 70
     0
 40
0.0
 41
0.75
 50
0.0
 71
     0
 42
3.5
  3
TXT
  4

  0
ENDTAB
  0
TABLE
  2
VIEW
  5
6
330
0
100
AcDbSymbolTable
 70
     0
  0
ENDTAB
  0
TABLE
  2
UCS
  5
7
330
0
100
AcDbSymbolTable
 70
     0
  0
ENDTAB
  0
TABLE
  2
APPID
  5
9
330
0
100
AcDbSymbolTable
 70
     3
  0
APPID
  5
12
330
9
100
AcDbSymbolTableRecord
100
AcDbRegAppTableRecord
  2
ACAD
 70
     0
  0
APPID
  5
172
330
9
100
AcDbSymbolTableRecord
100
AcDbRegAppTableRecord
  2
PE_DIMMEASUREMENT
 70
     0
  0
APPID
  5
173
330
9
100
AcDbSymbolTableRecord
100
AcDbRegAppTableRecord
  2
ACAD_DSTYLE_DIMRADIAL_EXTENSION
 70
     0
  0
ENDTAB
  0
TABLE
  2
DIMSTYLE
  5
A
330
0
100
AcDbSymbolTable
 70
     4
100
AcDbDimStyleTable
  0
DIMSTYLE
105
27
330
A
100
AcDbSymbolTableRecord
100
AcDbDimStyleTableRecord
  2
ISO-25
 70
     0
 41
2.5
 42
0.625
 43
3.75
 44
1.25
 73
     0
 74
     0
 77
     1
 78
     8
140
2.5
141
2.5
143
0.03937007874016
147
0.625
171
     3
172
     1
178
     0
271
     2
272
     2
274
     3
278
    44
283
     0
284
     8
340
11
  0
DIMSTYLE
105
E9
102
{ACAD_REACTORS
330
E8
330
161
330
176
102
}
330
A
100
AcDbSymbolTableRecord
100
AcDbDimStyleTableRecord
  2
SLDDIMSTYLE0
 70
     0
 41
3.302
 44
0.0
 45
0.000000001
 73
     0
 74
     0
 77
     1
 78
    12
 79
     3
140
3.5
143
0.0393700787401575
147
0.875
148
0.000000001
170
     1
172
     1
173
     1
178
     0
271
     2
272
     2
276
     2
284
    12
289
     0
340
93
  0
DIMSTYLE
105
FE
102
{ACAD_REACTORS
330
FD
330
111
102
}
330
A
100
AcDbSymbolTableRecord
100
AcDbDimStyleTableRecord
  2
SLDDIMSTYLE1
 70
     0
 41
3.302
 44
0.0
 45
0.000000001
 73
     0
 74
     0
 77
     1
 78
     4
 79
     1
140
3.5
143
0.0393700787401575
147
0.875
148
0.000000001
170
     1
173
     1
178
     0
271
     2
272
     2
276
     2
284
    12
340
93
  0
DIMSTYLE
105
125
330
A
100
AcDbSymbolTableRecord
100
AcDbDimStyleTableRecord
  2
SLDDIMSTYLE2
 70
     0
 41
3.302
 44
0.0
 45
0.000000001
 73
     0
 74
     0
 77
     1
 78
     8
 79
     2
140
3.5
143
0.0393700787401575
147
0.875
148
0.000000001
170
     1
172
     1
173
     1
178
     0
271
     2
272
     2
276
     2
284
    12
289
     0
340
93
341
126
343
126
344
126
  0
ENDTAB
  0
TABLE
  2
BLOCK_RECORD
  5
1
330
0
100
AcDbSymbolTable
 70
    10
  0
BLOCK_RECORD
  5
1F
330
1
100
AcDbSymbolTableRecord
100
AcDbBlockTableRecord
  2
*Model_Space
340
22
  0
BLOCK_RECORD
  5
1B
330
1
100
AcDbSymbolTableRecord
100
AcDbBlockTableRecord
  2
*Paper_Space
340
1E
  0
BLOCK_RECORD
  5
23
330
1
100
AcDbSymbolTableRecord
100
AcDbBlockTableRecord
  2
*Paper_Space0
340
26
  0
BLOCK_RECORD
  5
7E
330
1
100
AcDbSymbolTableRecord
100
AcDbBlockTableRecord
  2
블럭10
340
0
102
{BLKREFS
331
E0
102
}
  0
BLOCK_RECORD
  5
EA
330
1
100
AcDbSymbolTableRecord
100
AcDbBlockTableRecord
  2
_D
340
0
  0
BLOCK_RECORD
  5
FF
330
1
100
AcDbSymbolTableRecord
100
AcDbBlockTableRecord
  2
_D_1
340
0
  0
BLOCK_RECORD
  5
112
330
1
100
AcDbSymbolTableRecord
100
AcDbBlockTableRecord
  2
_D_2
340
0
  0
BLOCK_RECORD
  5
126
330
1
100
AcDbSymbolTableRecord
100
AcDbBlockTableRecord
  2
_NONE
340
0
  0
BLOCK_RECORD
  5
129
330
1
100
AcDbSymbolTableRecord
100
AcDbBlockTableRecord
  2
_D_3
340
0
  0
BLOCK_RECORD
  5
135
330
1
100
AcDbSymbolTableRecord
100
AcDbBlockTableRecord
  2
SW_DOWELSYMBOL_0
340
0
102
{BLKREFS
331
13B
102
}
  0
BLOCK_RECORD
  5
164
330
1
100
AcDbSymbolTableRecord
100
AcDbBlockTableRecord
  2
*D8
340
0
  0
BLOCK_RECORD
  5
179
330
1
100
AcDbSymbolTableRecord
100
AcDbBlockTableRecord
  2
*D9
340
0
  0
ENDTAB
  0
ENDSEC
  0
SECTION
  2
BLOCKS
  0
BLOCK
  5
20
330
1F
100
AcDbEntity
  8
0
100
AcDbBlockBegin
  2
*Model_Space
 70
     0
 10
0.0
 20
0.0
 30
0.0
  3
*Model_Space
  1
*Model_Space
  0
ENDBLK
  5
21
330
1F
100
AcDbEntity
  8
0
100
AcDbBlockEnd
  0
BLOCK
  5
1C
330
1B
100
AcDbEntity
 67
     1
  8
0
100
AcDbBlockBegin
  2
*Paper_Space
 70
     0
 10
0.0
 20
0.0
 30
0.0
  3
*Paper_Space
  1
*Paper_Space
  0
ENDBLK
  5
1D
330
1B
100
AcDbEntity
 67
     1
  8
0
100
AcDbBlockEnd
  0
BLOCK
  5
24
330
23
100
AcDbEntity
  8
0
100
AcDbBlockBegin
  2
*Paper_Space0
 70
     0
 10
0.0
 20
0.0
 30
0.0
  3
*Paper_Space0
  1
*Paper_Space0
  0
ENDBLK
  5
25
330
23
100
AcDbEntity
  8
0
100
AcDbBlockEnd
  0
BLOCK
  5
7F
330
7E
100
AcDbEntity
  8
0
100
AcDbBlockBegin
  2
블럭10
 70
     2
 10
0.0
 20
0.0
 30
0.0
  3
블럭10
  1
블럭10
  0
ELLIPSE
  5
81
330
7E
100
AcDbEntity
  8
중심선
100
AcDbEllipse
 10
20.54032771741204
 20
12.0471743016438
 30
0.0
 11
6.600054785286829
 21
-1.261213355974178E-13
 31
0.0
210
0.0
220
0.0
230
1.0
 40
0.636358354079598
 41
0.9219305317359503
 42
6.513795318482858
  0
ELLIPSE
  5
82
330
7E
100
AcDbEntity
  8
중심선
100
AcDbEllipse
 10
20.54032771746488
 20
12.04717430159265
 30
0.0
 11
3.960054785062283
 21
1.540847449632565E-10
 31
0.0
210
0.0
220
0.0
230
1.0
 40
0.3939339440162632
 41
1.131841032648279
 42
5.62031148352944
  0
LINE
  5
83
330
7E
100
AcDbEntity
  8
중심선
100
AcDbLine
 10
2.268634060543552
 20
16.24717430164393
 30
0.0
 11
5.714909304380834
 21
16.24717430164393
 31
0.0
  0
LINE
  5
84
330
7E
100
AcDbEntity
  8
중심선
100
AcDbLine
 10
5.245725140726316
 20
7.84717430164391
 30
0.0
 11
8.692000384563599
 21
7.84717430164391
 31
0.0
  0
LINE
  5
85
330
7E
100
AcDbEntity
  8
중심선
100
AcDbLine
 10
15.74043728645272
 20
16.24717430164393
 30
0.0
 11
8.692000384563599
 21
7.84717430164391
 31
0.0
  0
LINE
  5
86
330
7E
100
AcDbEntity
  8
중심선
100
AcDbLine
 10
0.1404042013395286
 20
13.71084872107135
 30
0.0
 11
3.58671253028996
 21
13.71088815037384
 31
0.0
  0
LINE
  5
87
330
7E
100
AcDbEntity
  8
중심선
100
AcDbLine
 10
2.750260043222114
 20
10.84717430164391
 30
0.0
 11
6.196535287059397
 21
10.84717430164391
 31
0.0
  0
LINE
  5
88
330
7E
100
AcDbEntity
  8
중심선
100
AcDbLine
 10
12.29416204261559
 20
16.24717430164393
 30
0.0
 11
5.245725140726316
 21
7.84717430164391
 31
0.0
  0
LINE
  5
89
330
7E
100
AcDbEntity
  8
중심선
100
AcDbLine
 10
10.72767329541681
 20
16.24717430164393
 30
0.0
 11
6.196535287059397
 21
10.84717430164391
 31
0.0
  0
LINE
  5
8A
330
7E
100
AcDbEntity
  8
중심선
100
AcDbLine
 10
7.28139805157953
 20
16.24717430164393
 30
0.0
 11
2.750260043222114
 21
10.84717430164391
 31
0.0
  0
LINE
  5
8B
330
7E
100
AcDbEntity
  8
중심선
100
AcDbLine
 10
5.714909304380834
 20
16.24717430164393
 30
0.0
 11
3.58671253028996
 21
13.71088815037384
 31
0.0
  0
LINE
  5
8C
330
7E
100
AcDbEntity
  8
중심선
100
AcDbLine
 10
2.268634060543552
 20
16.24717430164393
 30
0.0
 11
0.1404042013395286
 21
13.71084872107135
 31
0.0
  0
LINE
  5
8D
330
7E
100
AcDbEntity
  8
중심선
100
AcDbLine
 10
7.28139805157953
 20
16.24717430164393
 30
0.0
 11
10.72767329541681
 21
16.24717430164393
 31
0.0
  0
LINE
  5
8E
330
7E
100
AcDbEntity
  8
중심선
100
AcDbLine
 10
12.29416204261559
 20
16.24717430164393
 30
0.0
 11
15.74043728645272
 21
16.24717430164393
 31
0.0
  0
LINE
  5
8F
330
7E
100
AcDbEntity
  8
중심선
100
AcDbLine
 10
19.22036997980202
 20
11.08717430171403
 30
0.0
 11
23.66174974927406
 21
11.08717430171406
 31
0.0
  0
LINE
  5
90
330
7E
100
AcDbEntity
  8
중심선
100
AcDbLine
 10
19.22039502424796
 20
13.00717430171391
 30
0.0
 11
19.22036997980202
 21
11.08717430171403
 31
0.0
  0
LINE
  5
91
330
7E
100
AcDbEntity
  8
중심선
100
AcDbLine
 10
19.22039502424796
 20
13.00717430171391
 30
0.0
 11
26.96566020931264
 21
13.00717430171391
 31
0.0
  0
LINE
  5
92
330
7E
100
AcDbEntity
  8
중심선
100
AcDbLine
 10
22.22332737316547
 20
13.45928029700563
 30
0.0
 11
24.52862924686651
 21
15.39360700705356
 31
0.0
  0
ATTDEF
  5
94
330
7E
100
AcDbEntity
  8
FORMAT
 62
     2
100
AcDbText
 10
-11.05102035218446
 20
2.075366912832191
 30
0.0
 40
4.233333333333333
  1
GMG22935[ 6 FLUTE ]
 41
0.75
  7
SLDTEXTSTYLE0
 11
-11.05102035218446
 21
-0.0412997538344756
 31
0.0
100
AcDbAttributeDefinition
  3

  2
AUTOATTR0
 70
     0
 74
     1
  0
ENDBLK
  5
80
330
7E
100
AcDbEntity
  8
0
100
AcDbBlockEnd
  0
BLOCK
  5
EB
330
EA
100
AcDbEntity
  8
0
100
AcDbBlockBegin
  2
_D
 70
     0
 10
0.0
 20
0.0
 30
0.0
  3
_D
  1
_D
  0
LINE
  5
ED
330
EA
100
AcDbEntity
  8
치수문자_일반주서
 62
     0
370
    -2
100
AcDbLine
 10
57.81449999999999
 20
-7.937499999999997
 30
0.0
 11
75.39724571577301
 21
-7.937499999999932
 31
0.0
  0
LINE
  5
EE
330
EA
100
AcDbEntity
  8
치수문자_일반주서
 62
     0
370
    -2
100
AcDbLine
 10
56.81449999999999
 20
7.928050094711751
 30
0.0
 11
75.39724571577295
 21
7.92805009471182
 31
0.0
  0
LINE
  5
EF
330
EA
100
AcDbEntity
  8
치수문자_일반주서
 62
     0
370
    -2
100
AcDbLine
 10
75.397245715773
 20
-4.635499999999932
 30
0.0
 11
75.39724571577297
 21
4.626050094711821
 31
0.0
  0
SOLID
  5
F0
330
EA
100
AcDbEntity
  8
치수문자_일반주서
 62
     0
100
AcDbTrace
 10
74.84691238243967
 20
-4.635499999999934
 30
0.0
 11
75.94757904910632
 21
-4.63549999999993
 31
0.0
 12
75.39724571577301
 22
-7.937499999999932
 32
0.0
 13
75.39724571577301
 23
-7.937499999999932
 33
0.0
  0
SOLID
  5
F1
330
EA
100
AcDbEntity
  8
치수문자_일반주서
 62
     0
100
AcDbTrace
 10
75.9475790491063
 20
4.626050094711823
 30
0.0
 11
74.84691238243964
 21
4.626050094711819
 31
0.0
 12
75.39724571577295
 22
7.92805009471182
 32
0.0
 13
75.39724571577295
 23
7.92805009471182
 33
0.0
  0
MTEXT
  5
F2
330
EA
100
AcDbEntity
  8
치수문자_일반주서
 62
     0
100
AcDbMText
 10
71.02224571577298
 20
-0.0047249526440711
 30
0.0
 40
3.5
 41
0.0
 71
     2
 72
     1
  1
\A1;%%c15.87 [5/8]
  7
SLDTEXTSTYLE0
 11
-3.582820546496831E-15
 21
1.0
 31
0.0
 73
     1
 44
1.0
  0
POINT
  5
F3
330
EA
100
AcDbEntity
  8
Defpoints
 62
     0
100
AcDbPoint
 10
57.75199999999999
 20
-7.937499999999997
 30
0.0
  0
POINT
  5
F4
330
EA
100
AcDbEntity
  8
Defpoints
 62
     0
100
AcDbPoint
 10
56.75199999999999
 20
7.928050094711751
 30
0.0
  0
POINT
  5
F5
330
EA
100
AcDbEntity
  8
Defpoints
 62
     0
100
AcDbPoint
 10
75.39724571577295
 20
7.92805009471182
 30
0.0
  0
ENDBLK
  5
EC
330
EA
100
AcDbEntity
  8
0
100
AcDbBlockEnd
  0
BLOCK
  5
100
330
FF
100
AcDbEntity
  8
0
100
AcDbBlockBegin
  2
_D_1
 70
     0
 10
0.0
 20
0.0
 30
0.0
  3
_D_1
  1
_D_1
  0
LINE
  5
102
330
FF
100
AcDbEntity
  8
치수문자_일반주서
 62
     0
370
    -2
100
AcDbLine
 10
-40.8
 20
7.499999999999997
 30
0.0
 11
-40.8
 21
40.59305141807178
 31
0.0
  0
LINE
  5
103
330
FF
100
AcDbEntity
  8
치수문자_일반주서
 62
     0
370
    -2
100
AcDbLine
 10
60.8
 20
4.952000000000005
 30
0.0
 11
60.8
 21
40.59305141807178
 31
0.0
  0
LINE
  5
104
330
FF
100
AcDbEntity
  8
치수문자_일반주서
 62
     0
370
    -2
100
AcDbLine
 10
-37.498
 20
40.59305141807178
 30
0.0
 11
57.498
 21
40.59305141807178
 31
0.0
  0
SOLID
  5
105
330
FF
100
AcDbEntity
  8
치수문자_일반주서
 62
     0
100
AcDbTrace
 10
-37.498
 20
41.14338475140512
 30
0.0
 11
-37.498
 21
40.04271808473845
 31
0.0
 12
-40.8
 22
40.59305141807178
 32
0.0
 13
-40.8
 23
40.59305141807178
 33
0.0
  0
SOLID
  5
106
330
FF
100
AcDbEntity
  8
치수문자_일반주서
 62
     0
100
AcDbTrace
 10
57.498
 20
40.04271808473845
 30
0.0
 11
57.498
 21
41.14338475140512
 31
0.0
 12
60.8
 22
40.59305141807178
 32
0.0
 13
60.8
 23
40.59305141807178
 33
0.0
  0
MTEXT
  5
107
330
FF
100
AcDbEntity
  8
치수문자_일반주서
 62
     0
100
AcDbMText
 10
10.00000000000001
 20
44.96805141807178
 30
0.0
 40
3.5
 41
0.0
 71
     2
 72
     1
  1
\A1;101.60 [4]
  7
SLDTEXTSTYLE0
 73
     1
 44
1.0
  0
POINT
  5
108
330
FF
100
AcDbEntity
  8
Defpoints
 62
     0
100
AcDbPoint
 10
-40.8
 20
7.437499999999997
 30
0.0
  0
POINT
  5
109
330
FF
100
AcDbEntity
  8
Defpoints
 62
     0
100
AcDbPoint
 10
60.8
 20
4.889500000000005
 30
0.0
  0
POINT
  5
10A
330
FF
100
AcDbEntity
  8
Defpoints
 62
     0
100
AcDbPoint
 10
60.8
 20
40.59305141807178
 30
0.0
  0
ENDBLK
  5
101
330
FF
100
AcDbEntity
  8
0
100
AcDbBlockEnd
  0
BLOCK
  5
113
330
112
100
AcDbEntity
  8
0
100
AcDbBlockBegin
  2
_D_2
 70
     0
 10
0.0
 20
0.0
 30
0.0
  3
_D_2
  1
_D_2
  0
LINE
  5
115
330
112
100
AcDbEntity
  8
치수문자_일반주서
 62
     0
370
    -2
100
AcDbLine
 10
60.8
 20
4.952000000000005
 30
0.0
 11
60.8
 21
22.51649453033793
 31
0.0
  0
LINE
  5
116
330
112
100
AcDbEntity
  8
치수문자_일반주서
 62
     0
370
    -2
100
AcDbLine
 10
9.999999999999995
 20
8.000000000000004
 30
0.0
 11
9.999999999999993
 21
22.51649453033793
 31
0.0
  0
LINE
  5
117
330
112
100
AcDbEntity
  8
치수문자_일반주서
 62
     0
370
    -2
100
AcDbLine
 10
57.498
 20
22.51649453033793
 30
0.0
 11
13.30199999999999
 21
22.51649453033793
 31
0.0
  0
SOLID
  5
118
330
112
100
AcDbEntity
  8
치수문자_일반주서
 62
     0
100
AcDbTrace
 10
57.498
 20
21.96616119700459
 30
0.0
 11
57.498
 21
23.06682786367126
 31
0.0
 12
60.8
 22
22.51649453033793
 32
0.0
 13
60.8
 23
22.51649453033793
 33
0.0
  0
SOLID
  5
119
330
112
100
AcDbEntity
  8
치수문자_일반주서
 62
     0
100
AcDbTrace
 10
13.30199999999999
 20
23.06682786367126
 30
0.0
 11
13.30199999999999
 21
21.96616119700459
 31
0.0
 12
9.999999999999993
 22
22.51649453033793
 32
0.0
 13
9.999999999999993
 23
22.51649453033793
 33
0.0
  0
MTEXT
  5
11A
330
112
100
AcDbEntity
  8
치수문자_일반주서
 62
     0
100
AcDbMText
 10
34.84120226380296
 20
26.89149453033793
 30
0.0
 40
3.5
 41
0.0
 71
     2
 72
     1
  1
\A1;50.80 [2]
  7
SLDTEXTSTYLE0
 73
     1
 44
1.0
  0
POINT
  5
11B
330
112
100
AcDbEntity
  8
Defpoints
 62
     0
100
AcDbPoint
 10
60.8
 20
4.889500000000005
 30
0.0
  0
POINT
  5
11C
330
112
100
AcDbEntity
  8
Defpoints
 62
     0
100
AcDbPoint
 10
9.999999999999995
 20
7.937500000000004
 30
0.0
  0
POINT
  5
11D
330
112
100
AcDbEntity
  8
Defpoints
 62
     0
100
AcDbPoint
 10
9.999999999999995
 20
22.51649453033793
 30
0.0
  0
ENDBLK
  5
114
330
112
100
AcDbEntity
  8
0
100
AcDbBlockEnd
  0
BLOCK
  5
127
330
126
100
AcDbEntity
  8
0
100
AcDbBlockBegin
  2
_NONE
 70
     0
 10
0.0
 20
0.0
 30
0.0
  3
_NONE
  1
_NONE
  0
ENDBLK
  5
128
330
126
100
AcDbEntity
  8
0
100
AcDbBlockEnd
  0
BLOCK
  5
12A
330
129
100
AcDbEntity
  8
0
100
AcDbBlockBegin
  2
_D_3
 70
     0
 10
0.0
 20
0.0
 30
0.0
  3
_D_3
  1
_D_3
  0
LINE
  5
12C
330
129
100
AcDbEntity
  8
치수문자_일반주서
100
AcDbLine
 10
-64.5933676361172
 20
-13.61414086223942
 30
0.0
 11
-64.5933676361172
 21
-14.32507834780392
 31
0.0
  0
LINE
  5
12D
330
129
100
AcDbEntity
  8
치수문자_일반주서
100
AcDbLine
 10
-64.5933676361172
 20
-14.32507834780392
 30
0.0
 11
-59.0371176450579
 21
-14.32507834780388
 31
0.0
  0
LINE
  5
12E
330
129
100
AcDbEntity
  8
치수문자_일반주서
100
AcDbLine
 10
-59.0371176450579
 20
-14.32507834780388
 30
0.0
 11
-59.0371176450579
 21
-13.61414086223938
 31
0.0
  0
LINE
  5
12F
330
129
100
AcDbEntity
  8
치수문자_일반주서
100
AcDbLine
 10
-64.59336763611728
 20
-2.785408000102166
 30
0.0
 11
-64.59336763611728
 21
-2.074470514537666
 31
0.0
  0
LINE
  5
130
330
129
100
AcDbEntity
  8
치수문자_일반주서
100
AcDbLine
 10
-64.59336763611728
 20
-2.074470514537666
 30
0.0
 11
-59.03711764505798
 21
-2.074470514537627
 31
0.0
  0
LINE
  5
131
330
129
100
AcDbEntity
  8
치수문자_일반주서
100
AcDbLine
 10
-59.03711764505798
 20
-2.074470514537627
 30
0.0
 11
-59.03711764505798
 21
-2.785408000102127
 31
0.0
  0
MTEXT
  5
132
330
129
100
AcDbEntity
  8
치수문자_일반주서
100
AcDbMText
 10
-63.54885455963681
 20
-12.72546896162804
 30
0.0
 40
3.5
 41
0.0
 71
     1
 72
     1
  1
0.00
  7
SLDTEXTSTYLE0
 11
-7.044195017643634E-15
 21
1.0
 31
0.0
 73
     1
 44
1.0
  0
MTEXT
  5
133
330
129
100
AcDbEntity
  8
치수문자_일반주서
100
AcDbMText
 10
-58.31222300927633
 20
-12.13204884353452
 30
0.0
 40
3.5
 41
0.0
 71
     1
 72
     1
  1
%%c
  7
SLDTEXTSTYLE0
 11
-7.044195017643634E-15
 21
1.0
 31
0.0
 73
     1
 44
1.0
  0
MTEXT
  5
134
330
129
100
AcDbEntity
  8
치수문자_일반주서
100
AcDbMText
 10
-58.31222300927637
 20
-6.85361144516044
 30
0.0
 40
3.5
 41
0.0
 71
     1
 72
     1
  1
0
  7
SLDTEXTSTYLE0
 11
-7.044195017643634E-15
 21
1.0
 31
0.0
 73
     1
 44
1.0
  0
ENDBLK
  5
12B
330
129
100
AcDbEntity
  8
0
100
AcDbBlockEnd
  0
BLOCK
  5
136
330
135
100
AcDbEntity
  8
0
100
AcDbBlockBegin
  2
SW_DOWELSYMBOL_0
 70
     0
 10
0.0
 20
0.0
 30
0.0
  3
SW_DOWELSYMBOL_0
  1
SW_DOWELSYMBOL_0
  0
CIRCLE
  5
138
330
135
100
AcDbEntity
  8
외형선
 62
     0
100
AcDbCircle
 10
0.0
 20
0.0
 30
0.0
 40
3.000000000000004
  0
HATCH
  5
139
330
135
100
AcDbEntity
  8
0
  6
Continuous
 62
     0
370
    30
100
AcDbHatch
 10
0.0
 20
0.0
 30
0.0
210
0.0
220
0.0
230
1.0
  2
SOLID
 70
     1
 71
     0
 91
        1
 92
        0
 93
        3
 72
     2
 10
0.0
 20
0.0
 40
3.000000000000004
 50
0.0
 51
90.0
 73
     1
 72
     1
 10
0.0
 20
3.000000000000004
 11
0.0
 21
0.0
 72
     1
 10
0.0
 20
0.0
 11
3.000000000000004
 21
0.0
 97
        0
 75
     0
 76
     1
 98
        1
 10
0.0
 20
0.0
  0
HATCH
  5
13A
330
135
100
AcDbEntity
  8
0
  6
Continuous
 62
     0
370
    30
100
AcDbHatch
 10
0.0
 20
0.0
 30
0.0
210
0.0
220
0.0
230
1.0
  2
SOLID
 70
     1
 71
     0
 91
        1
 92
        0
 93
        3
 72
     2
 10
0.0
 20
0.0
 40
3.000000000000004
 50
180.0
 51
270.0000000000008
 73
     1
 72
     1
 10
0.0
 20
-3.000000000000004
 11
0.0
 21
0.0
 72
     1
 10
0.0
 20
0.0
 11
-3.000000000000004
 21
0.0
 97
        0
 75
     0
 76
     1
 98
        1
 10
0.0
 20
0.0
  0
ENDBLK
  5
137
330
135
100
AcDbEntity
  8
0
100
AcDbBlockEnd
  0
BLOCK
  5
165
330
164
100
AcDbEntity
  8
0
100
AcDbBlockBegin
  2
*D8
 70
     1
 10
0.0
 20
0.0
 30
0.0
  3
*D8
  1
*D8
  0
LINE
  5
167
330
164
100
AcDbEntity
  8
치수문자_일반주서
 62
     0
370
    -2
100
AcDbLine
 10
-40.3625
 20
7.9375
 30
0.0
 11
-50.47668959345992
 21
7.9375
 31
0.0
  0
LINE
  5
168
330
164
100
AcDbEntity
  8
치수문자_일반주서
 62
     0
370
    -2
100
AcDbLine
 10
-40.3625
 20
-7.937500000000001
 30
0.0
 11
-50.47668959345992
 21
-7.937500000000001
 31
0.0
  0
LINE
  5
169
330
164
100
AcDbEntity
  8
치수문자_일반주서
 62
     0
370
    -2
100
AcDbLine
 10
-50.47668959345992
 20
4.6355
 30
0.0
 11
-50.47668959345992
 21
-4.635500000000001
 31
0.0
  0
SOLID
  5
16A
330
164
100
AcDbEntity
  8
치수문자_일반주서
 62
     0
100
AcDbTrace
 10
-49.92635626012658
 20
4.6355
 30
0.0
 11
-51.02702292679325
 21
4.6355
 31
0.0
 12
-50.47668959345992
 22
7.9375
 32
0.0
 13
-50.47668959345992
 23
7.9375
 33
0.0
  0
SOLID
  5
16B
330
164
100
AcDbEntity
  8
치수문자_일반주서
 62
     0
100
AcDbTrace
 10
-51.02702292679325
 20
-4.635500000000001
 30
0.0
 11
-49.92635626012658
 21
-4.635500000000001
 31
0.0
 12
-50.47668959345992
 22
-7.937500000000001
 32
0.0
 13
-50.47668959345992
 23
-7.937500000000001
 33
0.0
  0
MTEXT
  5
16C
330
164
100
AcDbEntity
  8
치수문자_일반주서
 62
     0
100
AcDbMText
 10
-53.10168959345992
 20
-0.0000000000000009
 30
0.0
 40
3.5
 41
0.0
 71
     5
 72
     1
  1
\A1;{%%c15.88 [5/8]}
  7
SLDTEXTSTYLE0
 11
0.0
 21
1.0
 31
0.0
 73
     1
 44
1.0
  0
POINT
  5
16D
330
164
100
AcDbEntity
  8
Defpoints
 62
     0
100
AcDbPoint
 10
-40.3
 20
7.9375
 30
0.0
  0
POINT
  5
16E
330
164
100
AcDbEntity
  8
Defpoints
 62
     0
100
AcDbPoint
 10
-40.3
 20
-7.937500000000001
 30
0.0
  0
POINT
  5
16F
330
164
100
AcDbEntity
  8
Defpoints
 62
     0
100
AcDbPoint
 10
-50.47668959345992
 20
-7.9375
 30
0.0
  0
ENDBLK
  5
166
330
164
100
AcDbEntity
  8
0
100
AcDbBlockEnd
  0
BLOCK
  5
17A
330
179
100
AcDbEntity
  8
0
100
AcDbBlockBegin
  2
*D9
 70
     1
 10
0.0
 20
0.0
 30
0.0
  3
*D9
  1
*D9
  0
LINE
  5
17C
330
179
100
AcDbEntity
  8
치수문자_일반주서
 62
     0
370
    -2
100
AcDbLine
 10
62.33408198630597
 20
10.14691808066428
 30
0.0
 11
84.74978617738539
 21
37.51282772355395
 31
0.0
  0
MTEXT
  5
17D
330
179
100
AcDbEntity
  8
치수문자_일반주서
 62
     0
100
AcDbMText
 10
73.15464580387741
 20
27.49960477681272
 30
0.0
 40
3.5
 41
0.0
 71
     5
 72
     1
  1
\A1;R1.52 [R0.060]
  7
SLDTEXTSTYLE0
 11
0.6336680452353862
 21
0.773605072661474
 31
0.0
 73
     1
 44
1.0
  0
LINE
  5
17E
330
179
100
AcDbEntity
  8
치수문자_일반주서
 62
     0
370
    -2
100
AcDbLine
 10
59.276
 20
6.413500000000004
 30
0.0
 11
60.24171010093873
 21
7.592474130736091
 31
0.0
  0
SOLID
  5
17F
330
179
100
AcDbEntity
  8
치수문자_일반주서
 62
     0
100
AcDbTrace
 10
61.9083413279846
 20
10.49564672822549
 30
0.0
 11
62.75982264462733
 21
9.79818943310307
 31
0.0
 12
60.24171010093873
 22
7.592474130736091
 32
0.0
 13
60.24171010093873
 23
7.592474130736091
 33
0.0
  0
POINT
  5
180
330
179
100
AcDbEntity
  8
Defpoints
 62
     0
100
AcDbPoint
 10
60.24171010093873
 20
7.592474130736091
 30
0.0
  0
POINT
  5
181
330
179
100
AcDbEntity
  8
Defpoints
 62
     0
100
AcDbPoint
 10
59.276
 20
6.413500000000004
 30
0.0
  0
ENDBLK
  5
17B
330
179
100
AcDbEntity
  8
0
100
AcDbBlockEnd
  0
ENDSEC
  0
SECTION
  2
ENTITIES
  0
LINE
  5
95
102
{ACAD_REACTORS
102
}
330
1F
100
AcDbEntity
  8
0
  6
Continuous
 62
     4
370
    15
100
AcDbLine
 10
9.999999999999995
 20
7.937500000000004
 30
0.0
 11
-40.3
 21
7.9375
 31
0.0
  0
LINE
  5
96
102
{ACAD_REACTORS
102
}
330
1F
100
AcDbEntity
  8
0
  6
Continuous
 62
     4
370
    15
100
AcDbLine
 10
-40.3
 20
-7.937500000000001
 30
0.0
 11
9.999999999999995
 21
-7.937499999999997
 31
0.0
  0
LINE
  5
97
330
1F
100
AcDbEntity
  8
0
  6
Continuous
 62
     4
370
    15
100
AcDbLine
 10
-40.3
 20
7.937499999999998
 30
0.0
 11
-40.8
 21
7.437499999999996
 31
0.0
  0
LINE
  5
98
330
1F
100
AcDbEntity
  8
0
  6
Continuous
 62
     4
370
    15
100
AcDbLine
 10
-40.8
 20
-7.437499999999998
 30
0.0
 11
-40.3
 21
-7.937499999999999
 31
0.0
  0
LINE
  5
99
330
1F
100
AcDbEntity
  8
0
  6
Continuous
 62
     1
370
    15
100
AcDbLine
 10
32.42806122493518
 20
-7.937499999999997
 30
0.0
 11
35.14332287907699
 21
-7.937499999999997
 31
0.0
  0
LINE
  5
9A
330
1F
100
AcDbEntity
  8
0
  6
Continuous
 62
     1
370
    15
100
AcDbLine
 10
10.20580389057128
 20
7.937500000000004
 30
0.0
 11
9.999999999999996
 21
7.937500000000004
 31
0.0
  0
LINE
  5
9B
330
1F
100
AcDbEntity
  8
0
  6
Continuous
 62
     1
370
    15
100
AcDbLine
 10
59.44545208941941
 20
7.928050094711761
 30
0.0
 11
57.365244991267
 21
7.937500000000004
 31
0.0
  0
LINE
  5
9E
330
1F
100
AcDbEntity
  8
0
  6
Continuous
 62
     1
370
    15
100
AcDbLine
 10
40.74034566589233
 20
-7.937499999999997
 30
0.0
 11
43.455092542075
 21
-7.937499999999997
 31
0.0
  0
LINE
  5
9F
330
1F
100
AcDbEntity
  8
0
  6
Continuous
 62
     1
370
    15
100
AcDbLine
 10
18.51793699246608
 20
7.937500000000004
 30
0.0
 11
15.80466711416322
 21
7.937500000000004
 31
0.0
  0
LINE
  5
A0
330
1F
100
AcDbEntity
  8
0
  6
Continuous
 62
     1
370
    15
100
AcDbLine
 10
15.80466711416329
 20
-7.937499999999997
 30
0.0
 11
18.51793699246613
 21
-7.937499999999997
 31
0.0
  0
LINE
  5
A1
330
1F
100
AcDbEntity
  8
0
  6
Continuous
 62
     1
370
    15
100
AcDbLine
 10
43.45509254207504
 20
7.937500000000004
 30
0.0
 11
40.7403456658924
 21
7.937500000000004
 31
0.0
  0
LINE
  5
A2
330
1F
100
AcDbEntity
  8
0
  6
Continuous
 62
     1
370
    15
100
AcDbLine
 10
49.05302239185878
 20
-7.937499999999997
 30
0.0
 11
51.76630720913113
 21
-7.937499999999997
 31
0.0
  0
LINE
  5
A3
330
1F
100
AcDbEntity
  8
0
  6
Continuous
 62
     1
370
    15
100
AcDbLine
 10
26.83071748318666
 20
7.937500000000004
 30
0.0
 11
24.11636345439879
 21
7.937500000000004
 31
0.0
  0
LINE
  5
A4
330
1F
100
AcDbEntity
  8
0
  6
Continuous
 62
     1
370
    15
100
AcDbLine
 10
57.36524499126703
 20
-7.937499999999997
 30
0.0
 11
59.44545208941941
 21
-7.928050094711755
 31
0.0
  0
LINE
  5
A5
330
1F
100
AcDbEntity
  8
0
  6
Continuous
 62
     1
370
    15
100
AcDbLine
 10
9.999999999999996
 20
-7.937499999999997
 30
0.0
 11
10.20580389057134
 21
-7.937499999999997
 31
0.0
  0
LINE
  5
A6
330
1F
100
AcDbEntity
  8
0
  6
Continuous
 62
     1
370
    15
100
AcDbLine
 10
35.14332287907705
 20
7.937500000000004
 30
0.0
 11
32.42806122493517
 21
7.937500000000004
 31
0.0
  0
LINE
  5
A7
330
1F
100
AcDbEntity
  8
0
  6
Continuous
 62
     1
370
    15
100
AcDbLine
 10
24.11636345439886
 20
-7.937499999999997
 30
0.0
 11
26.83071748318665
 21
-7.937499999999997
 31
0.0
  0
LINE
  5
A8
330
1F
100
AcDbEntity
  8
0
  6
Continuous
 62
     1
370
    15
100
AcDbLine
 10
51.76630720913113
 20
7.937500000000004
 30
0.0
 11
49.05302239185883
 21
7.937500000000004
 31
0.0
  0
SPLINE
  5
A9
330
1F
100
AcDbEntity
  8
0
  6
Continuous
 62
     4
370
    15
100
AcDbSpline
210
0.0
220
0.0
230
1.0
 70
     8
 71
     3
 72
    14
 73
    10
 74
     0
 42
0.000000001
 43
0.00000001
 40
0.0
 40
0.0
 40
0.0
 40
0.0
 40
0.25
 40
0.25
 40
0.5
 40
0.5
 40
0.7500000000000001
 40
0.7500000000000001
 40
1.0
 40
1.0
 40
1.0
 40
1.0
 10
7.477003894352046
 20
-1.420170562733768
 30
0.0
 10
7.365662130466664
 20
-1.310607398754337
 30
0.0
 10
7.274089193076967
 20
-1.187156837042251
 30
0.0
 10
7.125606185282615
 20
-0.9152845740147384
 30
0.0
 10
7.07027087726414
 20
-0.7682646233287549
 30
0.0
 10
6.993829273236646
 20
-0.4673157562438666
 30
0.0
 10
6.972140047561335
 20
-0.3111493493598841
 30
0.0
 10
6.950389455685897
 20
-0.0001314680784439
 30
0.0
 10
6.950274816200426
 20
0.1560195565388676
 30
0.0
 10
6.950274816200429
 20
0.3122100195854502
 30
0.0
  0
SPLINE
  5
AA
330
1F
100
AcDbEntity
  8
0
  6
Continuous
 62
     4
370
    15
100
AcDbSpline
210
0.0
220
0.0
230
1.0
 70
     8
 71
     3
 72
    22
 73
    18
 74
     0
 42
0.000000001
 43
0.00000001
 40
0.0
 40
0.0
 40
0.0
 40
0.0
 40
0.1249999999999999
 40
0.1249999999999999
 40
0.2499999999999999
 40
0.2499999999999999
 40
0.3749999999999999
 40
0.3749999999999999
 40
0.4999999999999998
 40
0.4999999999999998
 40
0.6249999999999998
 40
0.6249999999999998
 40
0.7499999999999998
 40
0.7499999999999998
 40
0.8749999999999999
 40
0.8749999999999999
 40
1.0
 40
1.0
 40
1.0
 40
1.0
 10
6.950274816200422
 20
0.3122100195854086
 30
0.0
 10
6.950274816200426
 20
0.4879074499410584
 30
0.0
 10
6.950703496011264
 20
0.6629840314143086
 30
0.0
 10
6.98142467045041
 20
1.00926429615691
 30
0.0
 10
7.01165284161355
 20
1.18250388566914
 30
0.0
 10
7.11795941024427
 20
1.514057454228476
 30
0.0
 10
7.193449504620872
 20
1.671134380565198
 30
0.0
 10
7.394435697493061
 20
1.954578469799977
 30
0.0
 10
7.515940911653987
 20
2.07651116421258
 30
0.0
 10
7.803878647120861
 20
2.277544093575102
 30
0.0
 10
7.961827235201169
 20
2.350898995099909
 30
0.0
 10
8.304231674977036
 20
2.443037532537443
 30
0.0
 10
8.480106624162683
 20
2.459292308598581
 30
0.0
 10
8.833866389581821
 20
2.43227306471262
 30
0.0
 10
9.005547755917748
 20
2.389156692526917
 30
0.0
 10
9.326606309785497
 20
2.246459464277689
 30
0.0
 10
9.47168970426262
 20
2.148815630281386
 30
0.0
 10
9.597656539071892
 20
2.027190465195751
 30
0.0
  0
SPLINE
  5
AB
330
1F
100
AcDbEntity
  8
0
  6
Continuous
 62
     4
370
    15
100
AcDbSpline
210
0.0
220
0.0
230
1.0
 70
     8
 71
     3
 72
     8
 73
     4
 74
     0
 42
0.000000001
 43
0.00000001
 40
0.0
 40
0.0
 40
0.0
 40
0.0
 40
1.0
 40
1.0
 40
1.0
 40
1.0
 10
9.999999999999996
 20
7.544665736268191
 30
0.0
 10
9.865820087679742
 20
7.586253971170215
 30
0.0
 10
9.73161986776807
 20
7.624623892733793
 30
0.0
 10
9.597656539071892
 20
7.65970716370953
 30
0.0
  0
SPLINE
  5
AC
330
1F
100
AcDbEntity
  8
0
  6
Continuous
 62
     4
370
    15
100
AcDbSpline
210
0.0
220
0.0
230
1.0
 70
     8
 71
     3
 72
    22
 73
    18
 74
     0
 42
0.000000001
 43
0.00000001
 40
0.0
 40
0.0
 40
0.0
 40
0.0
 40
0.125
 40
0.125
 40
0.25
 40
0.25
 40
0.375
 40
0.375
 40
0.5
 40
0.5
 40
0.625
 40
0.625
 40
0.75
 40
0.75
 40
0.875
 40
0.875
 40
1.0
 40
1.0
 40
1.0
 40
1.0
 10
6.950274816200422
 20
7.024862056395969
 30
0.0
 10
6.950274816200426
 20
7.10672120557951
 30
0.0
 10
6.950703496011266
 20
7.183207437675193
 30
0.0
 10
6.981424670450414
 20
7.324581141908583
 30
0.0
 10
7.011652841613547
 20
7.390179574357227
 30
0.0
 10
7.117959410244268
 20
7.506463965515346
 30
0.0
 10
7.193449504620874
 20
7.556750491308899
 30
0.0
 10
7.394435697493061
 20
7.640887347666905
 30
0.0
 10
7.515940911653984
 20
7.673555107522419
 30
0.0
 10
7.803878647120857
 20
7.724416922551655
 30
0.0
 10
7.961827235201166
 20
7.741242414654005
 30
0.0
 10
8.304231674977034
 20
7.762035328828982
 30
0.0
 10
8.48010662416268
 20
7.765469892368203
 30
0.0
 10
8.833866389581818
 20
7.759539067235185
 30
0.0
 10
9.005547755917746
 20
7.750190543335445
 30
0.0
 10
9.326606309785495
 20
7.716572470158876
 30
0.0
 10
9.471689704262623
 20
7.692696255893051
 30
0.0
 10
9.597656539071892
 20
7.65970716370953
 30
0.0
  0
SPLINE
  5
AD
330
1F
100
AcDbEntity
  8
0
  6
Continuous
 62
     4
370
    15
100
AcDbSpline
210
0.0
220
0.0
230
1.0
 70
     8
 71
     3
 72
    14
 73
    10
 74
     0
 42
0.000000001
 43
0.00000001
 40
0.0
 40
0.0
 40
0.0
 40
0.0
 40
0.2499999999999999
 40
0.2499999999999999
 40
0.4999999999999999
 40
0.4999999999999999
 40
0.7499999999999999
 40
0.7499999999999999
 40
1.0
 40
1.0
 40
1.0
 40
1.0
 10
7.477003894352033
 20
6.053069778740674
 30
0.0
 10
7.36566213046665
 20
6.125106441257973
 30
0.0
 10
7.27408919307697
 20
6.204217552636092
 30
0.0
 10
7.125606185282617
 20
6.37161292082543
 30
0.0
 10
7.07027087726414
 20
6.458918338828441
 30
0.0
 10
6.993829273236646
 20
6.629739756561539
 30
0.0
 10
6.972140047561331
 20
6.714539116111031
 30
0.0
 10
6.950389455685895
 20
6.875330539897194
 30
0.0
 10
6.950274816200421
 20
6.952091393843834
 30
0.0
 10
6.950274816200426
 20
7.024862056395331
 30
0.0
  0
SPLINE
  5
AE
330
1F
100
AcDbEntity
  8
0
  6
Continuous
 62
     4
370
    15
100
AcDbSpline
210
0.0
220
0.0
230
1.0
 70
     8
 71
     3
 72
    12
 73
     8
 74
     0
 42
0.000000001
 43
0.00000001
 40
0.0
 40
0.0
 40
0.0
 40
0.0
 40
0.2500000000000001
 40
0.2500000000000001
 40
0.5000000000000002
 40
0.5000000000000002
 40
1.0
 40
1.0
 40
1.0
 40
1.0
 10
9.99999999999999
 20
4.14595311002081
 30
0.0
 10
9.789105934140958
 20
4.325356462348074
 30
0.0
 10
9.578162403092259
 20
4.500397526363759
 30
0.0
 10
9.158168597470864
 20
4.840139347664024
 30
0.0
 10
8.950039660076532
 20
5.004614651239696
 30
0.0
 10
8.32092452923934
 20
5.483023796631029
 30
0.0
 10
7.897156209918903
 20
5.781236735090419
 30
0.0
 10
7.477003894352035
 20
6.053069778740673
 30
0.0
  0
LINE
  5
AF
330
1F
100
AcDbEntity
  8
0
  6
Continuous
 62
     4
370
    15
100
AcDbLine
 10
10.0
 20
4.145953110020812
 30
0.0
 11
9.999999999999998
 21
1.636579164289563
 31
0.0
  0
SPLINE
  5
B0
330
1F
100
AcDbEntity
  8
0
  6
Continuous
 62
     4
370
    15
100
AcDbSpline
210
0.0
220
0.0
230
1.0
 70
     8
 71
     3
 72
     8
 73
     4
 74
     0
 42
0.000000001
 43
0.00000001
 40
0.0
 40
0.0
 40
0.0
 40
0.0
 40
1.0
 40
1.0
 40
1.0
 40
1.0
 10
9.999999999999998
 20
1.636579164289559
 30
0.0
 10
9.865820087679744
 20
1.767557802431919
 30
0.0
 10
9.73161986776807
 20
1.897844419526162
 30
0.0
 10
9.597656539071892
 20
2.02719046519575
 30
0.0
  0
SPLINE
  5
B1
330
1F
100
AcDbEntity
  8
0
  6
Continuous
 62
     4
370
    15
100
AcDbSpline
210
0.0
220
0.0
230
1.0
 70
     8
 71
     3
 72
    12
 73
     8
 74
     0
 42
0.000000001
 43
0.00000001
 40
0.0
 40
0.0
 40
0.0
 40
0.0
 40
0.2499999999999999
 40
0.2499999999999999
 40
0.4999999999999999
 40
0.4999999999999999
 40
1.0
 40
1.0
 40
1.0
 40
1.0
 10
9.99999999999999
 20
-3.78886908391867
 30
0.0
 10
9.789105934140958
 20
-3.604001405567552
 30
0.0
 10
9.57816240309226
 20
-3.415120984095469
 30
0.0
 10
9.158168597470864
 20
-3.03115216918285
 30
0.0
 10
8.950039660076532
 20
-2.836360557037267
 30
0.0
 10
8.32092452923934
 20
-2.242216719812705
 30
0.0
 10
7.897156209918903
 20
-1.833611264950232
 30
0.0
 10
7.477003894352035
 20
-1.420170562733781
 30
0.0
  0
LINE
  5
B2
330
1F
100
AcDbEntity
  8
0
  6
Continuous
 62
     1
370
    15
100
AcDbLine
 10
10.0
 20
-3.78886908391878
 30
0.0
 11
9.999999999999998
 21
-5.908086571978637
 31
0.0
  0
SPLINE
  5
B3
330
1F
100
AcDbEntity
  8
0
  6
Continuous
 62
     4
370
    15
100
AcDbSpline
210
0.0
220
0.0
230
1.0
 70
     8
 71
     3
 72
     8
 73
     4
 74
     0
 42
0.000000001
 43
0.00000001
 40
0.0
 40
0.0
 40
0.0
 40
0.0
 40
1.0
 40
1.0
 40
1.0
 40
1.0
 10
9.999999999999998
 20
-5.908086571978636
 30
0.0
 10
9.865820087679744
 20
-5.818696168738301
 30
0.0
 10
9.731619867768071
 20
-5.726779473207636
 30
0.0
 10
9.597656539071892
 20
-5.632516698513784
 30
0.0
  0
SPLINE
  5
B4
330
1F
100
AcDbEntity
  8
0
  6
Continuous
 62
     4
370
    15
100
AcDbSpline
210
0.0
220
0.0
230
1.0
 70
     8
 71
     3
 72
    22
 73
    18
 74
     0
 42
0.000000001
 43
0.00000001
 40
0.0
 40
0.0
 40
0.0
 40
0.0
 40
0.1249999999999999
 40
0.1249999999999999
 40
0.2499999999999998
 40
0.2499999999999998
 40
0.3749999999999998
 40
0.3749999999999998
 40
0.4999999999999998
 40
0.4999999999999998
 40
0.6249999999999998
 40
0.6249999999999998
 40
0.7499999999999998
 40
0.7499999999999998
 40
0.875
 40
0.875
 40
1.0
 40
1.0
 40
1.0
 40
1.0
 10
6.950274816200424
 20
-6.712652036810562
 30
0.0
 10
6.950274816200428
 20
-6.618813755638453
 30
0.0
 10
6.950703496011266
 20
-6.520223406260889
 30
0.0
 10
6.981424670450412
 20
-6.31531684575168
 30
0.0
 10
7.01165284161355
 20
-6.207675688688093
 30
0.0
 10
7.11795941024427
 20
-5.992406511286874
 30
0.0
 10
7.193449504620876
 20
-5.885616110743704
 30
0.0
 10
7.394435697493063
 20
-5.686308877866937
 30
0.0
 10
7.515940911653986
 20
-5.597043943309846
 30
0.0
 10
7.803878647120859
 20
-5.446872828976558
 30
0.0
 10
7.961827235201171
 20
-5.390343419554104
 30
0.0
 10
8.304231674977036
 20
-5.318997796291547
 30
0.0
 10
8.480106624162683
 20
-5.306177583769631
 30
0.0
 10
8.83386638958182
 20
-5.327266002522574
 30
0.0
 10
9.005547755917748
 20
-5.361033850808538
 30
0.0
 10
9.326606309785497
 20
-5.470113005881196
 30
0.0
 10
9.471689704262621
 20
-5.54388062561167
 30
0.0
 10
9.597656539071894
 20
-5.632516698513784
 30
0.0
  0
SPLINE
  5
B5
330
1F
100
AcDbEntity
  8
0
  6
Continuous
 62
     4
370
    15
100
AcDbSpline
210
0.0
220
0.0
230
1.0
 70
     8
 71
     3
 72
    14
 73
    10
 74
     0
 42
0.000000001
 43
0.00000001
 40
0.0
 40
0.0
 40
0.0
 40
0.0
 40
0.2500000000000001
 40
0.2500000000000001
 40
0.5000000000000001
 40
0.5000000000000001
 40
0.75
 40
0.75
 40
1.0
 40
1.0
 40
1.0
 40
1.0
 10
7.477003894352048
 20
-7.473240341474408
 30
0.0
 10
7.365662130466665
 20
-7.435713840012276
 30
0.0
 10
7.274089193076969
 20
-7.391374389678333
 30
0.0
 10
7.125606185282617
 20
-7.286897494840157
 30
0.0
 10
7.07027087726414
 20
-7.227182962157188
 30
0.0
 10
6.993829273236646
 20
-7.097055512805398
 30
0.0
 10
6.972140047561335
 20
-7.02568846547091
 30
0.0
 10
6.950389455685898
 20
-6.875462007975634
 30
0.0
 10
6.950274816200418
 20
-6.796071837304969
 30
0.0
 10
6.950274816200421
 20
-6.712652036809883
 30
0.0
  0
SPLINE
  5
B6
330
1F
100
AcDbEntity
  8
0
  6
Continuous
 62
     4
370
    15
100
AcDbSpline
210
0.0
220
0.0
230
1.0
 70
     8
 71
     3
 72
    12
 73
     8
 74
     0
 42
0.000000001
 43
0.00000001
 40
0.0
 40
0.0
 40
0.0
 40
0.0
 40
0.25
 40
0.25
 40
0.5
 40
0.5
 40
1.0
 40
1.0
 40
1.0
 40
1.0
 10
9.999999999999991
 20
-7.934822193939463
 30
0.0
 10
9.789105934140958
 20
-7.92935786791561
 30
0.0
 10
9.57816240309226
 20
-7.915518510459212
 30
0.0
 10
9.158168597470866
 20
-7.871291516846861
 30
0.0
 10
8.950039660076534
 20
-7.840975208276951
 30
0.0
 10
8.320924529239342
 20
-7.725240516443725
 30
0.0
 10
7.897156209918904
 20
-7.614848000040645
 30
0.0
 10
7.477003894352035
 20
-7.473240341474446
 30
0.0
  0
LINE
  5
B7
330
1F
100
AcDbEntity
  8
0
  6
Continuous
 62
     1
370
    15
100
AcDbLine
 10
10.0
 20
-7.934822193939573
 30
0.0
 11
9.999999999999995
 21
-7.937499999999997
 31
0.0
  0
LINE
  5
B8
330
1F
100
AcDbEntity
  8
0
  6
Continuous
 62
     4
370
    15
100
AcDbLine
 10
9.999999999999995
 20
7.937500000000004
 30
0.0
 11
9.999999999999996
 21
7.544665736268191
 31
0.0
  0
LINE
  5
B9
330
1F
100
AcDbEntity
  8
0
  6
Continuous
 62
     4
370
    15
100
AcDbLine
 10
-40.3
 20
7.937499999999998
 30
0.0
 11
-40.3
 21
-7.937499999999999
 31
0.0
  0
LINE
  5
BA
330
1F
100
AcDbEntity
  8
0
  6
Continuous
 62
     4
370
    15
100
AcDbLine
 10
-40.8
 20
7.437499999999997
 30
0.0
 11
-40.8
 21
-7.437499999999988
 31
0.0
  0
SPLINE
  5
BB
330
1F
100
AcDbEntity
  8
0
  6
Continuous
 62
     4
370
    15
100
AcDbSpline
210
0.0
220
0.0
230
1.0
 70
    24
 71
     3
 72
    18
 73
    14
 74
     0
 42
0.000000001
 43
0.00000001
 40
0.0
 40
0.0
 40
0.0
 40
0.0
 40
0.25
 40
0.25
 40
0.5
 40
0.5
 40
0.625
 40
0.625
 40
0.75
 40
0.75
 40
0.875
 40
0.875
 40
1.0
 40
1.0
 40
1.0
 40
1.0
 10
9.999999999999998
 20
1.636579164289531
 30
0.0
 10
9.999999999999998
 20
1.435382571755549
 30
0.0
 10
9.999999999999998
 20
1.177689998723502
 30
0.0
 10
9.999999999999998
 20
0.5070893648975879
 30
0.0
 10
10.0
 20
0.091866381014336
 30
0.0
 10
10.0
 20
-0.6487518922836492
 30
0.0
 10
10.0
 20
-0.9146549976972389
 30
0.0
 10
10.0
 20
-1.473760569631559
 30
0.0
 10
10.0
 20
-1.7669482504114
 30
0.0
 10
10.0
 20
-2.361190901204874
 30
0.0
 10
10.0
 20
-2.662097763553526
 30
0.0
 10
10.0
 20
-3.245844761673949
 30
0.0
 10
10.0
 20
-3.528436468047019
 30
0.0
 10
10.0
 20
-3.78886908391878
 30
0.0
  0
SPLINE
  5
BC
330
1F
100
AcDbEntity
  8
0
  6
Continuous
 62
     1
370
    15
100
AcDbSpline
210
0.0
220
0.0
230
1.0
 70
    24
 71
     3
 72
    12
 73
     8
 74
     0
 42
0.000000001
 43
0.00000001
 40
0.0
 40
0.0
 40
0.0
 40
0.0
 40
0.1160014812932634
 40
0.3502743255817761
 40
0.5845471698702887
 40
0.7922735849351444
 40
0.9999999999999999
 40
0.9999999999999999
 40
0.9999999999999999
 40
0.9999999999999999
 10
10.00000000000001
 20
-5.9791367255416
 30
0.0
 10
10.00000000000001
 20
-6.02171004456837
 30
0.0
 10
10.00000000000001
 20
-6.150263063405957
 30
0.0
 10
10.00000000000001
 20
-6.474710355039144
 30
0.0
 10
10.00000000000001
 20
-6.914727566811352
 30
0.0
 10
10.00000000000001
 20
-7.40643701970341
 30
0.0
 10
10.0
 20
-7.75869380252752
 30
0.0
 10
10.0
 20
-7.934822193939573
 30
0.0
  0
SPLINE
  5
BD
330
1F
100
AcDbEntity
  8
0
  6
Continuous
 62
     4
370
    15
100
AcDbSpline
210
0.0
220
0.0
230
1.0
 70
    24
 71
     3
 72
    15
 73
    11
 74
     0
 42
0.000000001
 43
0.00000001
 40
0.0
 40
0.0
 40
0.0
 40
0.0
 40
0.156533264197808
 40
0.2800407678132555
 40
0.4035482714287031
 40
0.52705577504415
 40
0.6505632786595968
 40
0.7740707822750436
 40
0.8975782858904903
 40
1.0
 40
1.0
 40
1.0
 40
1.0
 10
9.999999999999996
 20
7.544665736268191
 30
0.0
 10
9.999999999999998
 20
7.266715288928427
 30
0.0
 10
10.0
 20
6.769457041066787
 30
0.0
 10
10.0
 20
6.108527186602796
 30
0.0
 10
10.0
 20
5.555587861555948
 30
0.0
 10
10.0
 20
5.076810213475529
 30
0.0
 10
10.00000000000001
 20
4.681285191819264
 30
0.0
 10
10.00000000000001
 20
4.387080200998974
 30
0.0
 10
10.00000000000001
 20
4.1986895259788
 30
0.0
 10
10.00000000000001
 20
4.158157335403057
 30
0.0
 10
10.0
 20
4.139782658248928
 30
0.0
  0
SPLINE
  5
BE
330
1F
100
AcDbEntity
  8
0
  6
Continuous
 62
     1
370
    15
100
AcDbSpline
210
0.0
220
0.0
230
1.0
 70
     8
 71
     3
 72
    29
 73
    25
 74
     0
 42
0.000000001
 43
0.00000001
 40
0.0
 40
0.0
 40
0.0
 40
0.0
 40
0.0095111995614369
 40
0.0580071040650077
 40
0.1065310610164164
 40
0.1551287780605085
 40
0.2036404904692918
 40
0.2521422452691972
 40
0.3007316921517725
 40
0.3492726259145723
 40
0.397765619087636
 40
0.4463179844898499
 40
0.4948987451944379
 40
0.543396441102806
 40
0.5919155546927787
 40
0.6405141030697326
 40
0.6890299532793801
 40
0.7375292083919642
 40
0.786113974119362
 40
0.834661380832801
 40
0.8831542247921785
 40
0.9316998220481798
 40
0.9802859626710444
 40
0.9999999999999999
 40
0.9999999999999999
 40
0.9999999999999999
 40
0.9999999999999999
 10
46.25375542550626
 20
-7.432176012785741
 30
0.0
 10
46.16578245746506
 20
-7.467731883374173
 30
0.0
 10
45.62925106843155
 20
-7.684580775253969
 30
0.0
 10
44.64526164742035
 20
-7.87462938400883
 30
0.0
 10
43.29934618157417
 20
-7.977183396576227
 30
0.0
 10
41.9514257152296
 20
-7.832508460493865
 30
0.0
 10
40.60591132181108
 20
-7.467810912888897
 30
0.0
 10
39.26068187882754
 20
-6.887109341913926
 30
0.0
 10
37.91297833601876
 20
-6.110164860124782
 30
0.0
 10
36.56666615008175
 20
-5.157164328233634
 30
0.0
 10
35.22169142911597
 20
-4.055573808981237
 30
0.0
 10
33.87505653999278
 20
-2.838324210006079
 30
0.0
 10
32.52760355040653
 20
-1.540377574896067
 30
0.0
 10
31.18248873164576
 20
-0.1965560245688148
 30
0.0
 10
29.83677546246814
 20
1.152645568353538
 30
0.0
 10
28.48881274811708
 20
2.466916428070338
 30
0.0
 10
27.14318906124907
 20
3.712323096544059
 30
0.0
 10
25.79802966561265
 20
4.851154675316835
 30
0.0
 10
24.45046021891728
 20
5.84964022027565
 30
0.0
 10
23.10396956471707
 20
6.680054203143301
 30
0.0
 10
21.7589860504696
 20
7.322828319603579
 30
0.0
 10
20.4125928030458
 20
7.7410107772085
 30
0.0
 10
19.33120624648433
 20
7.940218014205046
 30
0.0
 10
18.70009870783286
 20
7.916765835058833
 30
0.0
 10
18.51793699246607
 20
7.90999664134663
 30
0.0
  0
SPLINE
  5
BF
330
1F
100
AcDbEntity
  8
0
  6
Continuous
 62
     1
370
    15
100
AcDbSpline
210
0.0
220
0.0
230
1.0
 70
     8
 71
     3
 72
    29
 73
    25
 74
     0
 42
0.000000001
 43
0.00000001
 40
0.0
 40
0.0
 40
0.0
 40
0.0
 40
0.015929453011567
 40
0.0644227540892315
 40
0.1129706184352934
 40
0.1615558421474795
 40
0.2100555544387852
 40
0.2585718619835884
 40
0.3071708684752529
 40
0.355690439431143
 40
0.404188592503535
 40
0.4527698111551576
 40
0.5013226342367381
 40
0.549816084529495
 40
0.5983574758639004
 40
0.6469473807753908
 40
0.6954495927775812
 40
0.7439617624825152
 40
0.7925599376334809
 40
0.8410843519964636
 40
0.8895807136471713
 40
0.9381555912444222
 40
0.9867155882714722
 40
1.0
 40
1.0
 40
1.0
 40
1.0
 10
21.31745283031098
 20
7.425433469756975
 30
0.0
 10
21.46474786285925
 20
7.482800734487851
 30
0.0
 10
22.06044638769448
 20
7.714808524450605
 30
0.0
 10
23.1039181568375
 20
7.901680914130819
 30
0.0
 10
24.450474012764
 20
7.971036336976447
 30
0.0
 10
25.79802597565988
 20
7.797009797117928
 30
0.0
 10
27.14319004955887
 20
7.402899522975601
 30
0.0
 10
28.48881248273747
 20
6.795047343072273
 30
0.0
 10
29.83677553352589
 20
5.993652511016588
 30
0.0
 10
31.18248871252888
 20
5.019067963626108
 30
0.0
 10
32.52760355591327
 20
3.90006067802168
 30
0.0
 10
33.8750565371132
 20
2.67063449088404
 30
0.0
 10
35.22169143511887
 20
1.36396368141008
 30
0.0
 10
36.56666612896517
 20
0.017222237761173
 30
0.0
 10
37.91297841460999
 20
-1.329363109984823
 30
0.0
 10
39.26068158551871
 20
-2.63663163377252
 30
0.0
 10
40.60591241428722
 20
-3.870096220057554
 30
0.0
 10
41.95142163383682
 20
-4.992131702100611
 30
0.0
 10
43.29936143376982
 20
-5.969783017013723
 30
0.0
 10
44.64520483886482
 20
-6.776188123930488
 30
0.0
 10
45.99027613354064
 20
-7.392764401267098
 30
0.0
 10
47.33751337400361
 20
-7.779080813108373
 30
0.0
 10
48.35881170079887
 20
-7.952554955446122
 30
0.0
 10
48.9302708221288
 20
-7.921504897794645
 30
0.0
 10
49.05302239185878
 20
-7.914835228566067
 30
0.0
  0
SPLINE
  5
C0
330
1F
100
AcDbEntity
  8
0
  6
Continuous
 62
     1
370
    15
100
AcDbSpline
210
0.0
220
0.0
230
1.0
 70
     8
 71
     3
 72
    34
 73
    30
 74
     0
 42
0.000000001
 43
0.00000001
 40
0.0
 40
0.0
 40
0.0
 40
0.0
 40
0.1249999999999998
 40
0.1249999999999998
 40
0.1874999999999991
 40
0.1874999999999991
 40
0.2499999999999984
 40
0.2499999999999984
 40
0.3124999999999977
 40
0.3124999999999977
 40
0.374999999999997
 40
0.374999999999997
 40
0.4999999999999955
 40
0.4999999999999955
 40
0.5624999999999948
 40
0.5624999999999948
 40
0.624999999999994
 40
0.624999999999994
 40
0.6874999999999932
 40
0.6874999999999932
 40
0.7187499999999933
 40
0.7187499999999933
 40
0.7499999999999934
 40
0.7499999999999934
 40
0.8124999999999951
 40
0.8124999999999951
 40
0.8749999999999968
 40
0.8749999999999968
 40
1.0
 40
1.0
 40
1.0
 40
1.0
 10
57.75199999999999
 20
3.62869541951828
 30
0.0
 10
58.06649432329257
 20
3.34960467975127
 30
0.0
 10
58.36232718138282
 20
3.038263228703425
 30
0.0
 10
58.78769764079389
 20
2.532809854467643
 30
0.0
 10
58.92547326883726
 20
2.358142012064574
 30
0.0
 10
59.18693307458116
 20
2.006326738904017
 30
0.0
 10
59.3115785058383
 20
1.827876892409322
 30
0.0
 10
59.54725574536729
 20
1.464596531397848
 30
0.0
 10
59.65878915630684
 20
1.278701880220246
 30
0.0
 10
59.86084367463481
 20
0.9064762962978204
 30
0.0
 10
59.95188132761204
 20
0.7194881453149125
 30
0.0
 10
60.19234333648207
 20
0.1504927437901199
 30
0.0
 10
60.30909646393805
 20
-0.2423810782030928
 30
0.0
 10
60.40416960119425
 20
-0.8563421430016331
 30
0.0
 10
60.42321356647464
 20
-1.067185378839719
 30
0.0
 10
60.4302375710606
 20
-1.498013020898127
 30
0.0
 10
60.41880182961258
 20
-1.718727936775688
 30
0.0
 10
60.3461467870446
 20
-2.155182860480769
 30
0.0
 10
60.28422631608689
 20
-2.373399502810797
 30
0.0
 10
60.12228669478104
 20
-2.641342930690183
 30
0.0
 10
60.0588694310543
 20
-2.716511651566765
 30
0.0
 10
59.91238978047438
 20
-2.833193189446169
 30
0.0
 10
59.83204537789126
 20
-2.872346889144251
 30
0.0
 10
59.57918767104096
 20
-2.93859859348988
 30
0.0
 10
59.40308924200374
 20
-2.915250858805483
 30
0.0
 10
59.05930822259739
 20
-2.804252712257227
 30
0.0
 10
58.88792809561916
 20
-2.714312713761235
 30
0.0
 10
58.3887842557093
 20
-2.396897702121655
 30
0.0
 10
58.0656923450578
 20
-2.118141596567024
 30
0.0
 10
57.75199999999999
 20
-1.813417971384179
 30
0.0
  0
SPLINE
  5
C1
330
1F
100
AcDbEntity
  8
0
  6
Continuous
 62
     1
370
    15
100
AcDbSpline
210
0.0
220
0.0
230
1.0
 70
     8
 71
     3
 72
    18
 73
    14
 74
     0
 42
0.000000001
 43
0.00000001
 40
0.0
 40
0.0
 40
0.0
 40
0.0
 40
0.0858032349963972
 40
0.1718145898907055
 40
0.2576566296655449
 40
0.351749262250071
 40
0.4460135763268611
 40
0.5401647988874498
 40
0.6342358768776084
 40
0.7284349594478338
 40
0.8226629080836868
 40
0.9167385476053653
 40
1.0
 40
1.0
 40
1.0
 40
1.0
 10
57.75199999999999
 20
-1.81341797138418
 30
0.0
 10
57.34348345563092
 20
-1.410790615803962
 30
0.0
 10
56.52545949024908
 20
-0.6045593125122016
 30
0.0
 10
55.29585353906656
 20
0.6277132435839727
 30
0.0
 10
54.0293673312331
 20
1.883501437467953
 30
0.0
 10
52.72330842799686
 20
3.130094717710606
 30
0.0
 10
51.37551881031741
 20
4.322303381142617
 30
0.0
 10
50.02937022314686
 20
5.391989536425045
 30
0.0
 10
48.6843775287829
 20
6.306747708019296
 30
0.0
 10
47.33754609942532
 20
7.041315695209563
 30
0.0
 10
45.99024277421675
 20
7.568099451868778
 30
0.0
 10
44.69706128953074
 20
7.886804218349041
 30
0.0
 10
43.8519025933949
 20
7.91338343317219
 30
0.0
 10
43.45509254207506
 20
7.925862627489463
 30
0.0
  0
SPLINE
  5
C2
330
1F
100
AcDbEntity
  8
0
  6
Continuous
 62
     1
370
    15
100
AcDbSpline
210
0.0
220
0.0
230
1.0
 70
     8
 71
     3
 72
    16
 73
    12
 74
     0
 42
0.000000001
 43
0.00000001
 40
0.0
 40
0.0
 40
0.0
 40
0.0
 40
0.079932495815646
 40
0.1990021679908207
 40
0.3178604850063199
 40
0.4367550260427961
 40
0.5558547833218039
 40
0.6747633375444737
 40
0.7830809708151483
 40
0.8916584152771101
 40
1.0
 40
1.0
 40
1.0
 40
1.0
 10
21.31745283031103
 20
-7.425433469756969
 30
0.0
 10
21.0159261490472
 20
-7.52963473113987
 30
0.0
 10
20.2652369247676
 20
-7.789057093859545
 30
0.0
 10
19.06491796986467
 20
-7.951443463645158
 30
0.0
 10
17.71977704392168
 20
-7.936710063102526
 30
0.0
 10
16.37416439830085
 20
-7.685660214265722
 30
0.0
 10
15.02625356129636
 20
-7.216802599615916
 30
0.0
 10
13.72006362485008
 20
-6.560187392042026
 30
0.0
 10
12.4547086389221
 20
-5.752402510649116
 30
0.0
 10
11.22600273318314
 20
-4.841538932362229
 30
0.0
 10
10.40837123619689
 20
-4.13950458878412
 30
0.0
 10
10.00000000000004
 20
-3.788869083918705
 30
0.0
  0
SPLINE
  5
C3
330
1F
100
AcDbEntity
  8
0
  6
Continuous
 62
     1
370
    15
100
AcDbSpline
210
0.0
220
0.0
230
1.0
 70
    24
 71
     3
 72
    18
 73
    14
 74
     0
 42
0.000000001
 43
0.00000001
 40
0.0
 40
0.0
 40
0.0
 40
0.0
 40
0.2500000000000001
 40
0.2500000000000001
 40
0.5000000000000001
 40
0.5000000000000001
 40
0.6250000000000001
 40
0.6250000000000001
 40
0.75
 40
0.75
 40
0.875
 40
0.875
 40
1.0
 40
1.0
 40
1.0
 40
1.0
 10
9.999999999999998
 20
1.636579164290402
 30
0.0
 10
9.999999999999998
 20
1.43538257175651
 30
0.0
 10
9.999999999999998
 20
1.177689998724545
 30
0.0
 10
9.999999999999998
 20
0.5070893648987211
 30
0.0
 10
9.999999999999998
 20
0.0918663810154746
 30
0.0
 10
10.0
 20
-0.6487518922826165
 30
0.0
 10
10.0
 20
-0.9146549976962599
 30
0.0
 10
10.0
 20
-1.473760569630723
 30
0.0
 10
10.0
 20
-1.766948250410656
 30
0.0
 10
10.0
 20
-2.361190901204333
 30
0.0
 10
10.0
 20
-2.6620977635531
 30
0.0
 10
10.0
 20
-3.245844761673744
 30
0.0
 10
10.0
 20
-3.528436468046927
 30
0.0
 10
10.0
 20
-3.78886908391878
 30
0.0
  0
SPLINE
  5
C4
330
1F
100
AcDbEntity
  8
0
  6
Continuous
 62
     1
370
    15
100
AcDbSpline
210
0.0
220
0.0
230
1.0
 70
     8
 71
     3
 72
    18
 73
    14
 74
     0
 42
0.000000001
 43
0.00000001
 40
0.0
 40
0.0
 40
0.0
 40
0.0
 40
0.0868572920169372
 40
0.1739036724460836
 40
0.2607417626183674
 40
0.3560705788235168
 40
0.4515526822428168
 40
0.5468702640968309
 40
0.6421588052055385
 40
0.7376167894405409
 40
0.8329951174603087
 40
0.9282698002163682
 40
1.0
 40
1.0
 40
1.0
 40
1.0
 10
9.999999999997454
 20
1.636579164292045
 30
0.0
 10
10.40837123900378
 20
1.232608896229422
 30
0.0
 10
11.22600274161508
 20
0.4237889164236984
 30
0.0
 10
12.45470860513466
 20
-0.806746744966242
 30
0.0
 10
13.72006375641693
 20
-2.057635912623247
 30
0.0
 10
15.02625301592263
 20
-3.293982781951936
 30
0.0
 10
16.37416642956687
 20
-4.471595075407185
 30
0.0
 10
17.71976948072059
 20
-5.522795127374359
 30
0.0
 10
19.06494620881377
 20
-6.414856337804637
 30
0.0
 10
20.41254771046773
 20
-7.123810262487191
 30
0.0
 10
21.75901848838045
 20
-7.621451345484649
 30
0.0
 10
22.99268043633706
 20
-7.903143132881907
 30
0.0
 10
23.77874232810839
 20
-7.91229685265863
 30
0.0
 10
24.11636345439886
 20
-7.91622846315027
 30
0.0
  0
SPLINE
  5
C5
330
1F
100
AcDbEntity
  8
0
  6
Continuous
 62
     1
370
    15
100
AcDbSpline
210
0.0
220
0.0
230
1.0
 70
     8
 71
     3
 72
    16
 73
    12
 74
     0
 42
0.000000001
 43
0.00000001
 40
0.0
 40
0.0
 40
0.0
 40
0.0
 40
0.0942256995510414
 40
0.211357788025565
 40
0.3283307088798899
 40
0.4454032857038737
 40
0.5626164864609138
 40
0.6796162094303506
 40
0.7863567118152248
 40
0.8933077495154382
 40
1.0
 40
1.0
 40
1.0
 40
1.0
 10
46.25375542550631
 20
7.43217601278575
 30
0.0
 10
46.61503597954141
 20
7.550327314696469
 30
0.0
 10
47.42542485562658
 20
7.815352652191185
 30
0.0
 10
48.6844023977339
 20
7.962990785215901
 30
0.0
 10
50.02936355717805
 20
7.916365754938436
 30
0.0
 10
51.37552059998768
 20
7.636021016155653
 30
0.0
 10
52.72330794773453
 20
7.138751757797071
 30
0.0
 10
54.02936744727948
 20
6.456412289566392
 30
0.0
 10
55.2958535092596
 20
5.626600317744333
 30
0.0
 10
56.52545949768587
 20
4.696372012321222
 30
0.0
 10
57.34348345810783
 20
3.984300104995963
 30
0.0
 10
57.75199999999999
 20
3.628695419518275
 30
0.0
  0
SPLINE
  5
C6
330
1F
100
AcDbEntity
  8
0
  6
Continuous
 62
     1
370
    15
100
AcDbSpline
210
0.0
220
0.0
230
1.0
 70
     8
 71
     3
 72
    34
 73
    30
 74
     0
 42
0.000000001
 43
0.00000001
 40
0.0
 40
0.0
 40
0.0
 40
0.0
 40
0.1250000000000013
 40
0.1250000000000013
 40
0.1875000000000013
 40
0.1875000000000013
 40
0.2500000000000013
 40
0.2500000000000013
 40
0.3125000000000013
 40
0.3125000000000013
 40
0.3750000000000013
 40
0.3750000000000013
 40
0.5000000000000016
 40
0.5000000000000016
 40
0.5625000000000018
 40
0.5625000000000018
 40
0.6250000000000019
 40
0.6250000000000019
 40
0.687500000000002
 40
0.687500000000002
 40
0.7187500000000024
 40
0.7187500000000024
 40
0.7500000000000029
 40
0.7500000000000029
 40
0.8125000000000021
 40
0.8125000000000021
 40
0.8750000000000013
 40
0.8750000000000013
 40
1.0
 40
1.0
 40
1.0
 40
1.0
 10
57.75199999999999
 20
7.928050094711751
 30
0.0
 10
58.06649432329256
 20
7.912742284810939
 30
0.0
 10
58.3623271813828
 20
7.831938366968702
 30
0.0
 10
58.78769764079391
 20
7.620272374820728
 30
0.0
 10
58.92547326883727
 20
7.534364246303218
 30
0.0
 10
59.18693307458116
 20
7.337359814181063
 30
0.0
 10
59.31157850583827
 20
7.22575359431247
 30
0.0
 10
59.54725574536728
 20
6.977598551500217
 30
0.0
 10
59.65878915630684
 20
6.840103200612696
 30
0.0
 10
59.86084367463482
 20
6.548593718641426
 30
0.0
 10
59.95188132761209
 20
6.394211925043704
 30
0.0
 10
60.19234333648209
 20
5.912175322381088
 30
0.0
 10
60.30909646393804
 20
5.56169811681646
 30
0.0
 10
60.40416960119425
 20
5.061375659250101
 30
0.0
 10
60.4232135664746
 20
4.897406760516287
 30
0.0
 10
60.43023757106062
 20
4.593692120793923
 30
0.0
 10
60.41880182961264
 20
4.453205636650943
 30
0.0
 10
60.34614678704466
 20
4.228283566436491
 30
0.0
 10
60.28422631608688
 20
4.143656179799814
 30
0.0
 10
60.12228669478104
 20
4.113551013710794
 30
0.0
 10
60.0588694310543
 20
4.120237531446779
 30
0.0
 10
59.91238978047436
 20
4.166954473429858
 30
0.0
 10
59.83204537789124
 20
4.206122955863352
 30
0.0
 10
59.57918767104094
 20
4.355000228706118
 30
0.0
 10
59.40308924200374
 20
4.488969407333607
 30
0.0
 10
59.05930822259741
 20
4.762319062615244
 30
0.0
 10
58.88792809561915
 20
4.905847418350155
 30
0.0
 10
58.38878425570932
 20
5.316343496881196
 30
0.0
 10
58.06569234505777
 20
5.571277182049351
 30
0.0
 10
57.75199999999999
 20
5.785567617474862
 30
0.0
  0
SPLINE
  5
C7
330
1F
100
AcDbEntity
  8
0
  6
Continuous
 62
     1
370
    15
100
AcDbSpline
210
0.0
220
0.0
230
1.0
 70
     8
 71
     3
 72
    12
 73
     8
 74
     0
 42
0.000000001
 43
0.00000001
 40
0.0
 40
0.0
 40
0.0
 40
0.0
 40
0.2049389038821526
 40
0.4103748969912521
 40
0.615406485126622
 40
0.8401444100553094
 40
1.0
 40
1.0
 40
1.0
 40
1.0
 10
57.752
 20
5.785567617474864
 30
0.0
 10
57.34348353482336
 20
6.052291873111029
 30
0.0
 10
56.52545972801848
 20
6.586387336970352
 30
0.0
 10
55.29585258607946
 20
7.193244884988887
 30
0.0
 10
54.02937104146212
 20
7.646545527032525
 30
0.0
 10
52.85350329852254
 20
7.908006701487346
 30
0.0
 10
52.08551862984474
 20
7.912231805381569
 30
0.0
 10
51.76630720913113
 20
7.913987962075503
 30
0.0
  0
SPLINE
  5
C8
330
1F
100
AcDbEntity
  8
0
  6
Continuous
 62
     1
370
    15
100
AcDbSpline
210
0.0
220
0.0
230
1.0
 70
     8
 71
     3
 72
    22
 73
    18
 74
     0
 42
0.000000001
 43
0.00000001
 40
0.0
 40
0.0
 40
0.0
 40
0.0
 40
0.0580947007437211
 40
0.1266457695929014
 40
0.1951733901950359
 40
0.2638218340748847
 40
0.3324174910752505
 40
0.4009360529593998
 40
0.469529153264565
 40
0.5381795398199188
 40
0.6067080681963837
 40
0.6752574817655027
 40
0.743925214081284
 40
0.8124827070431776
 40
0.874933936302069
 40
0.9375349613770355
 40
1.0
 40
1.0
 40
1.0
 40
1.0
 10
29.62948693755952
 20
-7.435084457870781
 30
0.0
 10
29.24905767388645
 20
-7.557164863908599
 30
0.0
 10
28.41972631910286
 20
-7.823298724259787
 30
0.0
 10
27.14317064255992
 20
-7.965799398565813
 30
0.0
 10
25.79803442265198
 20
-7.909059747762432
 30
0.0
 10
24.45045964488013
 20
-7.619761214387627
 30
0.0
 10
23.10396710787813
 20
-7.113305349073512
 30
0.0
 10
21.75899644261137
 20
-6.401799282738017
 30
0.0
 10
20.41255362616727
 20
-5.507015389254261
 30
0.0
 10
19.064944626301
 20
-4.455052059806425
 30
0.0
 10
17.71976990456293
 20
-3.2737685000677
 30
0.0
 10
16.37416631573457
 20
-1.998529949701889
 30
0.0
 10
15.02625304648542
 20
-0.6680242739773687
 30
0.0
 10
13.72006374904418
 20
0.6440946912122675
 30
0.0
 10
12.45470860702892
 20
1.897389612490376
 30
0.0
 10
11.22600274114417
 20
3.070197775821439
 30
0.0
 10
10.40837123884864
 20
3.787628023312561
 30
0.0
 10
10.00000000000004
 20
4.145953110020772
 30
0.0
  0
SPLINE
  5
C9
330
1F
100
AcDbEntity
  8
0
  6
Continuous
 62
     1
370
    15
100
AcDbSpline
210
0.0
220
0.0
230
1.0
 70
    24
 71
     3
 72
    15
 73
    11
 74
     0
 42
0.000000001
 43
0.00000001
 40
0.0
 40
0.0
 40
0.0
 40
0.0
 40
0.1560522229605631
 40
0.2774263375811896
 40
0.4023203097482811
 40
0.5236944243689078
 40
0.6485883965359983
 40
0.7699625111566336
 40
0.8948564833237149
 40
1.0
 40
1.0
 40
1.0
 40
1.0
 10
9.999999999999996
 20
7.54466573627003
 30
0.0
 10
9.999999999999998
 20
7.266750203022815
 30
0.0
 10
10.0
 20
6.772677852863584
 30
0.0
 10
10.0
 20
6.11098841188628
 30
0.0
 10
10.0
 20
5.560737357311567
 30
0.0
 10
10.0
 20
5.078343358715868
 30
0.0
 10
10.0
 20
4.684929065001108
 30
0.0
 10
10.00000000000001
 20
4.387421228847441
 30
0.0
 10
10.0
 20
4.198087869639316
 30
0.0
 10
10.0
 20
4.156118523544531
 30
0.0
 10
10.00000000000001
 20
4.136935543139045
 30
0.0
  0
SPLINE
  5
CA
330
1F
100
AcDbEntity
  8
0
  6
Continuous
 62
     1
370
    15
100
AcDbSpline
210
0.0
220
0.0
230
1.0
 70
     8
 71
     3
 72
    24
 73
    20
 74
     0
 42
0.000000001
 43
0.00000001
 40
0.0
 40
0.0
 40
0.0
 40
0.0
 40
0.0546690641286415
 40
0.1094571428649573
 40
0.1641141211128121
 40
0.2241152683441804
 40
0.2842128964621375
 40
0.344206972652625
 40
0.4041827702354026
 40
0.4642652174376016
 40
0.5242975280233142
 40
0.5842646029858944
 40
0.6442991511774255
 40
0.7043798981605244
 40
0.7643549012641154
 40
0.8243504261467646
 40
0.8844482169885367
 40
0.9444477774227555
 40
1.0
 40
1.0
 40
1.0
 40
1.0
 10
9.99999999999704
 20
7.54466573626911
 30
0.0
 10
10.40837123884673
 20
7.400185372356857
 30
0.0
 10
11.22600274114442
 20
7.110910110634588
 30
0.0
 10
12.45470860701896
 20
6.460777033963581
 30
0.0
 10
13.72006374907876
 20
5.642105206215594
 30
0.0
 10
15.02625304634073
 20
4.643354568724805
 30
0.0
 10
16.37416631627347
 20
3.48362356629357
 30
0.0
 10
17.71976990255642
 20
2.221950859936264
 30
0.0
 10
19.06494463379277
 20
0.8963149992549112
 30
0.0
 10
20.41255359816174
 20
-0.4532250562934664
 30
0.0
 10
21.7589965469783
 20
-1.790784097513938
 30
0.0
 10
23.10396671865239
 20
-3.077662201965547
 30
0.0
 10
24.45046109983834
 20
-4.275397634987513
 30
0.0
 10
25.79802899225385
 20
-5.349862268539185
 30
0.0
 10
27.14319087173299
 20
-6.271806774680306
 30
0.0
 10
28.48880617096336
 20
-7.014776505993441
 30
0.0
 10
29.8367999877929
 20
-7.550436959325399
 30
0.0
 10
31.14936206525182
 20
-7.881367927466944
 30
0.0
 10
32.01290682756348
 20
-7.914025570863015
 30
0.0
 10
32.42806122493518
 20
-7.929725931580138
 30
0.0
  0
SPLINE
  5
CB
330
1F
100
AcDbEntity
  8
0
  6
Continuous
 62
     1
370
    15
100
AcDbSpline
210
0.0
220
0.0
230
1.0
 70
     8
 71
     3
 72
    10
 73
     6
 74
     0
 42
0.000000001
 43
0.00000001
 40
0.0
 40
0.0
 40
0.0
 40
0.0
 40
0.2290836491795041
 40
0.6150087320634767
 40
1.0
 40
1.0
 40
1.0
 40
1.0
 10
54.56578256237978
 20
7.42757843072201
 30
0.0
 10
54.80895142104045
 20
7.513654798877339
 30
0.0
 10
55.46177396851542
 20
7.74473946262109
 30
0.0
 10
56.52548582739613
 20
7.928504996781264
 30
0.0
 10
57.34349222758767
 20
7.928201606235419
 30
0.0
 10
57.752
 20
7.92805009471176
 30
0.0
  0
SPLINE
  5
CC
330
1F
100
AcDbEntity
  8
0
  6
Continuous
 62
     1
370
    15
100
AcDbSpline
210
0.0
220
0.0
230
1.0
 70
     8
 71
     3
 72
    29
 73
    25
 74
     0
 42
0.000000001
 43
0.00000001
 40
0.0
 40
0.0
 40
0.0
 40
0.0
 40
0.0179325574019883
 40
0.066438281275707
 40
0.1150325087317918
 40
0.1635684363432803
 40
0.2120630486009895
 40
0.2606236485417376
 40
0.3091991292374418
 40
0.3576960930117605
 40
0.4062211098466521
 40
0.4548198883853301
 40
0.5033326604101452
 40
0.5518354746085834
 40
0.600425982805104
 40
0.6489679768222022
 40
0.6974620292024231
 40
0.7460154551086308
 40
0.7945972769374363
 40
0.843096032155681
 40
0.8916162055233454
 40
0.9402158154130437
 40
0.9887327253291027
 40
1.0
 40
1.0
 40
1.0
 40
1.0
 10
54.56578256237978
 20
-7.427578430721999
 30
0.0
 10
54.40005544489522
 20
-7.490041445981892
 30
0.0
 10
53.78605351535278
 20
-7.72146049481792
 30
0.0
 10
52.72335409936328
 20
-7.910298959362531
 30
0.0
 10
51.37550670627711
 20
-7.968056622491241
 30
0.0
 10
50.02937298869988
 20
-7.784993103006957
 30
0.0
 10
48.68437855083729
 20
-7.381479708903713
 30
0.0
 10
47.33753923006516
 20
-6.765601706354558
 30
0.0
 10
45.9902692171574
 20
-5.95619716678672
 30
0.0
 10
44.64520669193961
 20
-4.974778892043901
 30
0.0
 10
43.29936093626396
 20
-3.850708266202409
 30
0.0
 10
41.9514217669091
 20
-2.617783359618281
 30
0.0
 10
40.60591237888041
 20
-1.307899199052795
 30
0.0
 10
39.26068159422942
 20
0.0396985726092354
 30
0.0
 10
37.91297841524965
 20
1.384244955842051
 30
0.0
 10
36.56666611771815
 20
2.690293445735064
 30
0.0
 10
35.2216914794436
 20
3.919714607739527
 30
0.0
 10
33.87505637078072
 20
5.035691482773531
 30
0.0
 10
32.52760417677689
 20
6.007099764610882
 30
0.0
 10
31.18248639941844
 20
6.805921413557585
 30
0.0
 10
29.83678417688382
 20
7.414057457704823
 30
0.0
 10
28.48878019007807
 20
7.790081089683937
 30
0.0
 10
27.4873360154161
 20
7.956225334816675
 30
0.0
 10
26.93484344251116
 20
7.923369976806354
 30
0.0
 10
26.83071748318665
 20
7.917177865202416
 30
0.0
  0
SPLINE
  5
CD
330
1F
100
AcDbEntity
  8
0
  6
Continuous
 62
     1
370
    15
100
AcDbSpline
210
0.0
220
0.0
230
1.0
 70
     8
 71
     3
 72
    29
 73
    25
 74
     0
 42
0.000000001
 43
0.00000001
 40
0.0
 40
0.0
 40
0.0
 40
0.0
 40
0.0074828920284467
 40
0.0560012120630585
 40
0.1044981147663633
 40
0.1530780809073196
 40
0.2016296522103223
 40
0.2501218522552383
 40
0.298661992105797
 40
0.3472506442826738
 40
0.3957516058111306
 40
0.4442625247856036
 40
0.4928594469887341
 40
0.5413826103055668
 40
0.5898777216333734
 40
0.6384513468834419
 40
0.6870100919469571
 40
0.7355028518479753
 40
0.7840369255246442
 40
0.8326292968190202
 40
0.8811331679116157
 40
0.9253839356624699
 40
0.9697219837720845
 40
1.0
 40
1.0
 40
1.0
 40
1.0
 10
29.62948693755952
 20
7.435084457870791
 30
0.0
 10
29.69871595218969
 20
7.46335548055022
 30
0.0
 10
30.21681894157967
 20
7.674932973622616
 30
0.0
 10
31.18245882712591
 20
7.865103303414293
 30
0.0
 10
32.52761157762187
 20
7.978335918072108
 30
0.0
 10
33.87505438751098
 20
7.842785375259793
 30
0.0
 10
35.22169200998763
 20
7.487588465584396
 30
0.0
 10
36.5666659754745
 20
6.915658266848225
 30
0.0
 10
37.91297845344703
 20
6.145812146686266
 30
0.0
 10
39.26068158392607
 20
5.200435216265892
 30
0.0
 10
40.60591238195519
 20
4.104453719265049
 30
0.0
 10
41.95142176490432
 20
2.890608085606442
 30
0.0
 10
43.29936094120832
 20
1.595732364497496
 30
0.0
 10
44.64520667420334
 20
0.2533561460365303
 30
0.0
 10
45.99026928317362
 20
-1.096653386347124
 30
0.0
 10
47.33753898332058
 20
-2.413665605622445
 30
0.0
 10
48.68437947079673
 20
-3.661854485681982
 30
0.0
 10
50.02936955930508
 20
-4.805866199337903
 30
0.0
 10
51.37551952418239
 20
-5.81156129695797
 30
0.0
 10
52.72330623639642
 20
-6.649054512073674
 30
0.0
 10
54.02937506826716
 20
-7.280124940858204
 30
0.0
 10
55.29582747233973
 20
-7.695926221010485
 30
0.0
 10
56.39637359903073
 20
-7.915361393132426
 30
0.0
 10
57.08557712460804
 20
-7.916544265712903
 30
0.0
 10
57.36524499126703
 20
-7.917024256657283
 30
0.0
  0
SPLINE
  5
CE
330
1F
100
AcDbEntity
  8
0
  6
Continuous
 62
     1
370
    15
100
AcDbSpline
210
0.0
220
0.0
230
1.0
 70
     8
 71
     3
 72
    34
 73
    30
 74
     0
 42
0.000000001
 43
0.00000001
 40
0.0
 40
0.0
 40
0.0
 40
0.0
 40
0.1249999999999989
 40
0.1249999999999989
 40
0.1874999999999991
 40
0.1874999999999991
 40
0.2499999999999992
 40
0.2499999999999992
 40
0.3124999999999993
 40
0.3124999999999993
 40
0.3749999999999995
 40
0.3749999999999995
 40
0.4999999999999999
 40
0.4999999999999999
 40
0.5625000000000001
 40
0.5625000000000001
 40
0.6250000000000002
 40
0.6250000000000002
 40
0.6875000000000004
 40
0.6875000000000004
 40
0.7187500000000009
 40
0.7187500000000009
 40
0.7500000000000014
 40
0.7500000000000014
 40
0.8125000000000011
 40
0.8125000000000011
 40
0.8750000000000008
 40
0.8750000000000008
 40
1.0
 40
1.0
 40
1.0
 40
1.0
 10
57.75199999999999
 20
-4.299354675193482
 30
0.0
 10
58.06649432329257
 20
-4.563137605059683
 30
0.0
 10
58.36232718138281
 20
-4.793675138265293
 30
0.0
 10
58.78769764079391
 20
-5.087462520353097
 30
0.0
 10
58.92547326883724
 20
-5.176222234238653
 30
0.0
 10
59.18693307458115
 20
-5.331033075277055
 30
0.0
 10
59.31157850583827
 20
-5.397876701903151
 30
0.0
 10
59.54725574536729
 20
-5.513002020102372
 30
0.0
 10
59.65878915630682
 20
-5.56140132039244
 30
0.0
 10
59.86084367463479
 20
-5.642117422343592
 30
0.0
 10
59.95188132761208
 20
-5.674723779728786
 30
0.0
 10
60.19234333648207
 20
-5.761682578590958
 30
0.0
 10
60.30909646393803
 20
-5.804079195019536
 30
0.0
 10
60.40416960119422
 20
-5.917717802251717
 30
0.0
 10
60.4232135664746
 20
-5.964592139355998
 30
0.0
 10
60.4302375710606
 20
-6.091705141692041
 30
0.0
 10
60.41880182961261
 20
-6.171933573426621
 30
0.0
 10
60.34614678704463
 20
-6.383466426917248
 30
0.0
 10
60.28422631608689
 20
-6.517055682610598
 30
0.0
 10
60.12228669478102
 20
-6.754893944400962
 30
0.0
 10
60.05886943105428
 20
-6.836749183013523
 30
0.0
 10
59.91238978047437
 20
-7.000147662876008
 30
0.0
 10
59.83204537789126
 20
-7.078469845007579
 30
0.0
 10
59.57918767104094
 20
-7.293598822195971
 30
0.0
 10
59.40308924200374
 20
-7.404220266139076
 30
0.0
 10
59.05930822259741
 20
-7.566571774872461
 30
0.0
 10
58.88792809561916
 20
-7.620160132111373
 30
0.0
 10
58.3887842557093
 20
-7.713241199002838
 30
0.0
 10
58.0656923450578
 20
-7.689418778616361
 30
0.0
 10
57.75199999999999
 20
-7.598985588859028
 30
0.0
  0
SPLINE
  5
CF
330
1F
100
AcDbEntity
  8
0
  6
Continuous
 62
     1
370
    15
100
AcDbSpline
210
0.0
220
0.0
230
1.0
 70
     8
 71
     3
 72
    25
 73
    21
 74
     0
 42
0.000000001
 43
0.00000001
 40
0.0
 40
0.0
 40
0.0
 40
0.0
 40
0.0542602109411444
 40
0.1086520326492041
 40
0.1629367829385894
 40
0.2224390393775028
 40
0.2820498636808483
 40
0.3415891712223259
 40
0.4010777969766016
 40
0.4606473702093277
 40
0.5202351977515804
 40
0.5797267081250956
 40
0.6392526313528227
 40
0.6988690384959224
 40
0.7583799409431923
 40
0.8178786280663451
 40
0.8774848899321332
 40
0.9370316391690113
 40
0.996519578118283
 40
1.0
 40
1.0
 40
1.0
 40
1.0
 10
57.75199999999999
 20
-7.598985588859032
 30
0.0
 10
57.34348345582026
 20
-7.463181005655292
 30
0.0
 10
56.5254594908176
 20
-7.191242438660603
 30
0.0
 10
55.29585353678793
 20
-6.564346109243088
 30
0.0
 10
54.02936734010446
 20
-5.767659677477157
 30
0.0
 10
52.72330839128245
 20
-4.787763223231011
 30
0.0
 10
51.37551894713155
 20
-3.643711743878108
 30
0.0
 10
50.02936971355648
 20
-2.393613719585811
 30
0.0
 10
48.68437942992865
 20
-1.074329739057268
 30
0.0
 10
47.33753899237144
 20
0.2747140473547741
 30
0.0
 10
45.99026928787949
 20
1.615497818138125
 30
0.0
 10
44.64520664639186
 20
2.911418922661616
 30
0.0
 10
43.29936104790283
 20
4.123389542295756
 30
0.0
 10
41.95142136560435
 20
5.215474742895623
 30
0.0
 10
40.60591386921924
 20
6.159994177471521
 30
0.0
 10
39.2606760300488
 20
6.925728550083191
 30
0.0
 10
37.91299921399634
 20
7.498651877513672
 30
0.0
 10
36.56658861905498
 20
7.831595957855606
 30
0.0
 10
35.64419784338764
 20
7.970764323496155
 30
0.0
 10
35.169557463288
 20
7.933299965231122
 30
0.0
 10
35.14332287907706
 20
7.931229214610183
 30
0.0
  0
SPLINE
  5
D0
330
1F
100
AcDbEntity
  8
0
  6
Continuous
 62
     1
370
    15
100
AcDbSpline
210
0.0
220
0.0
230
1.0
 70
     8
 71
     3
 72
    10
 73
     6
 74
     0
 42
0.000000001
 43
0.00000001
 40
0.0
 40
0.0
 40
0.0
 40
0.0
 40
0.1832721583087786
 40
0.5920801001707983
 40
1.0
 40
1.0
 40
1.0
 40
1.0
 10
13.0057331853792
 20
-7.427050366340628
 30
0.0
 10
12.82225471510599
 20
-7.495210920780186
 30
0.0
 10
12.2295081023034
 20
-7.715410804235906
 30
0.0
 10
11.22596460604518
 20
-7.906042772356458
 30
0.0
 10
10.40835853636675
 20
-7.92523600978931
 30
0.0
 10
10.00000000000004
 20
-7.934822193939458
 30
0.0
  0
SPLINE
  5
D1
330
1F
100
AcDbEntity
  8
0
  6
Continuous
 62
     1
370
    15
100
AcDbSpline
210
0.0
220
0.0
230
1.0
 70
    24
 71
     3
 72
    12
 73
     8
 74
     0
 42
0.000000001
 43
0.00000001
 40
0.0
 40
0.0
 40
0.0
 40
0.0
 40
0.1161458487925252
 40
0.3470346047647171
 40
0.5846191503015826
 40
0.7899792384621626
 40
1.0
 40
1.0
 40
1.0
 40
1.0
 10
10.0
 20
-5.979126725539631
 30
0.0
 10
10.0
 20
-6.021695119523524
 30
0.0
 10
10.0
 20
-6.148886112014853
 30
0.0
 10
10.0
 20
-6.472167164084238
 30
0.0
 10
10.00000000000001
 20
-6.910866013059239
 30
0.0
 10
10.00000000000001
 20
-7.404303401680594
 30
0.0
 10
10.0
 20
-7.756664736781578
 30
0.0
 10
10.0
 20
-7.934822193939573
 30
0.0
  0
SPLINE
  5
D2
330
1F
100
AcDbEntity
  8
0
  6
Continuous
 62
     1
370
    15
100
AcDbSpline
210
0.0
220
0.0
230
1.0
 70
     8
 71
     3
 72
    12
 73
     8
 74
     0
 42
0.000000001
 43
0.00000001
 40
0.0
 40
0.0
 40
0.0
 40
0.0
 40
0.2112255789786468
 40
0.4229109962554907
 40
0.6340898788582756
 40
0.8659170971458916
 40
1.0
 40
1.0
 40
1.0
 40
1.0
 10
9.999999999997454
 20
-5.908086571976944
 30
0.0
 10
10.40837106810705
 20
-6.167450977255986
 30
0.0
 10
11.22600222855285
 20
-6.686744424385614
 30
0.0
 10
12.45471066054525
 20
-7.269033180011614
 30
0.0
 10
13.72005575251498
 20
-7.693863413278721
 30
0.0
 10
14.83647225277515
 20
-7.922780960904448
 30
0.0
 10
15.54502673657187
 20
-7.913153947551792
 30
0.0
 10
15.80466711416329
 20
-7.909626256401538
 30
0.0
  0
SPLINE
  5
D3
330
1F
100
AcDbEntity
  8
0
  6
Continuous
 62
     1
370
    15
100
AcDbSpline
210
0.0
220
0.0
230
1.0
 70
     8
 71
     3
 72
    22
 73
    18
 74
     0
 42
0.000000001
 43
0.00000001
 40
0.0
 40
0.0
 40
0.0
 40
0.0
 40
0.0665866749940589
 40
0.1344902311884695
 40
0.2024077282610359
 40
0.270445633772652
 40
0.3383802734824627
 40
0.4062756391293855
 40
0.4742809278451371
 40
0.5422653836216651
 40
0.6101574571639363
 40
0.6781073718746727
 40
0.74613890590666
 40
0.8140465356234455
 40
0.8759996268596458
 40
0.9380749145752357
 40
1.0
 40
1.0
 40
1.0
 40
1.0
 10
37.94128401863223
 20
7.446821642507248
 30
0.0
 10
38.3813309912804
 20
7.579698607421278
 30
0.0
 10
39.2701277226162
 20
7.848080438057882
 30
0.0
 10
40.60592708724928
 20
7.971822270365058
 30
0.0
 10
41.95141781636188
 20
7.883524588447401
 30
0.0
 10
43.29936199803821
 20
7.565109494557293
 30
0.0
 10
44.64520639214452
 20
7.03038197886973
 30
0.0
 10
45.99026935611188
 20
6.29316510938757
 30
0.0
 10
47.33753897408157
 20
5.376379523944653
 30
0.0
 10
48.68437943482122
 20
4.305149672975602
 30
0.0
 10
50.02936971224505
 20
3.109411865692696
 30
0.0
 10
51.37551894748363
 20
1.824796334270068
 30
0.0
 10
52.72330839118797
 20
0.4894404050551072
 30
0.0
 10
54.02936734012726
 20
-0.8230505450080532
 30
0.0
 10
55.29585353678205
 20
-2.071500658883869
 30
0.0
 10
56.52545949081907
 20
-3.236613000607079
 30
0.0
 10
57.34348345582073
 20
-3.94539363354211
 30
0.0
 10
57.75199999999999
 20
-4.299354675193496
 30
0.0
  0
SPLINE
  5
D4
330
1F
100
AcDbEntity
  8
0
  6
Continuous
 62
     1
370
    15
100
AcDbSpline
210
0.0
220
0.0
230
1.0
 70
     8
 71
     3
 72
    29
 73
    25
 74
     0
 42
0.000000001
 43
0.00000001
 40
0.0
 40
0.0
 40
0.0
 40
0.0
 40
0.0010283016951037
 40
0.049569018977442
 40
0.0980617958838474
 40
0.1466139447546176
 40
0.1951944888011259
 40
0.2436919684218626
 40
0.2922108656286863
 40
0.3408091972682319
 40
0.3893248311092845
 40
0.4378238699272836
 40
0.4864084189787403
 40
0.53495560918285
 40
0.5834482368762347
 40
0.6319936176309766
 40
0.6805795415717686
 40
0.7290792228487075
 40
0.7775936851987431
 40
0.8261918852509905
 40
0.8747120656280108
 40
0.9189106612518663
 40
0.9632152718377878
 40
1.0
 40
1.0
 40
1.0
 40
1.0
 10
37.94128401863217
 20
-7.44682164250724
 30
0.0
 10
37.93177200587053
 20
-7.450825859194912
 30
0.0
 10
37.47324787492647
 20
-7.643848095690327
 30
0.0
 10
36.56667521052039
 20
-7.83188066749469
 30
0.0
 10
35.2216889991409
 20
-7.979451119869839
 30
0.0
 10
33.87505719183034
 20
-7.872955199700601
 30
0.0
 10
32.52760337629881
 20
-7.547551041102725
 30
0.0
 10
31.18248877731964
 20
-7.003239808253835
 30
0.0
 10
29.83677545381049
 20
-6.258284544858904
 30
0.0
 10
28.48881273695864
 20
-5.334923623694002
 30
0.0
 10
27.14318911440885
 20
-4.257164579101218
 30
0.0
 10
25.79802946402184
 20
-3.056873144943598
 30
0.0
 10
24.45046097334462
 20
-1.77055389223312
 30
0.0
 10
23.10396675284056
 20
-0.4325524662503389
 30
0.0
 10
21.7589965365099
 20
0.9186683478703855
 30
0.0
 10
20.41255360583535
 20
2.242753920369811
 30
0.0
 10
19.06494461358037
 20
3.501567793890286
 30
0.0
 10
17.71976997559853
 20
4.66154939413246
 30
0.0
 10
16.37416604397404
 20
5.687525769927445
 30
0.0
 10
15.0262540636694
 20
6.548591394356157
 30
0.0
 10
13.7200601020441
 20
7.204618058192886
 30
0.0
 10
12.4547208885718
 20
7.648735709852057
 30
0.0
 10
11.29469148560313
 20
7.900744671853633
 30
0.0
 10
10.54561090013952
 20
7.916931901348312
 30
0.0
 10
10.20580389057128
 20
7.924274948484394
 30
0.0
  0
SPLINE
  5
D5
330
1F
100
AcDbEntity
  8
0
  6
Continuous
 62
     1
370
    15
100
AcDbSpline
210
0.0
220
0.0
230
1.0
 70
     8
 71
     3
 72
    29
 73
    25
 74
     0
 42
0.000000001
 43
0.00000001
 40
0.0
 40
0.0
 40
0.0
 40
0.0
 40
0.0243373945579298
 40
0.0728594519375423
 40
0.1214595320105719
 40
0.1699758711419977
 40
0.2184774286285211
 40
0.2670652321151937
 40
0.3156124908474038
 40
0.3641069944775053
 40
0.4126560627290817
 40
0.4612424912732318
 40
0.5097434062759618
 40
0.5582609169437239
 40
0.6068611286091421
 40
0.6553819027689182
 40
0.7038812585140685
 40
0.7524636818983362
 40
0.8010177090083995
 40
0.8495123618572938
 40
0.898054956936694
 40
0.9466460667962343
 40
0.9951494815718377
 40
1.0
 40
1.0
 40
1.0
 40
1.0
 10
13.00573318537914
 20
7.427050366340634
 30
0.0
 10
13.2305940987475
 20
7.508039129942289
 30
0.0
 10
13.90376570186211
 20
7.750497167719099
 30
0.0
 10
15.02621337227471
 20
7.931426672771344
 30
0.0
 10
16.37417693374408
 20
7.956822995138996
 30
0.0
 10
17.71976706097574
 20
7.744232638240603
 30
0.0
 10
19.06494539602035
 20
7.311622578668175
 30
0.0
 10
20.41255339621103
 20
6.669292363358208
 30
0.0
 10
21.7589965925909
 20
5.835380015276402
 30
0.0
 10
23.10396673779362
 20
4.833325507261939
 30
0.0
 10
24.45046097741375
 20
3.69312584803078
 30
0.0
 10
25.79802946281492
 20
2.447878113347838
 30
0.0
 10
27.14318911517306
 20
1.13067965356409
 30
0.0
 10
28.48881273510577
 20
-0.2188058613508321
 30
0.0
 10
29.8367754604645
 20
-1.560067813277335
 30
0.0
 10
31.18248875260964
 20
-2.858445049734234
 30
0.0
 10
32.52760346852459
 20
-4.07496317401584
 30
0.0
 10
33.87505684706678
 20
-5.172967781448972
 30
0.0
 10
35.22169028424135
 20
-6.123669641308392
 30
0.0
 10
36.56667041891409
 20
-6.897442096438117
 30
0.0
 10
37.91296237955977
 20
-7.479112679985197
 30
0.0
 10
39.26074144814591
 20
-7.822307928163711
 30
0.0
 10
40.2023852982819
 20
-7.967397488278777
 30
0.0
 10
40.69551427235535
 20
-7.930595725862436
 30
0.0
 10
40.74034566589233
 20
-7.92725000013857
 30
0.0
  0
LINE
  5
D6
330
1F
100
AcDbEntity
  8
0
  6
Continuous
 62
     1
370
    15
100
AcDbLine
 10
9.999999999999996
 20
7.544665736270029
 30
0.0
 11
9.999999999999996
 21
7.937500000000004
 31
0.0
  0
LINE
  5
D9
330
1F
100
AcDbEntity
  8
0
  6
Continuous
 62
     1
370
    15
100
AcDbLine
 10
60.8
 20
0.0000000000000033
 30
0.0
 11
60.8
 21
6.413500000000004
 31
0.0
  0
LINE
  5
DA
330
1F
100
AcDbEntity
  8
0
  6
Continuous
 62
     1
370
    15
100
AcDbLine
 10
60.8
 20
-6.413499999999997
 30
0.0
 11
60.8
 21
0.0000000000000033
 31
0.0
  0
LINE
  5
DB
330
1F
100
AcDbEntity
  8
0
  6
Continuous
 62
     1
370
    15
100
AcDbLine
 10
9.999999999997863
 20
1.636579164292448
 30
0.0
 11
10.0
 21
4.145953110020812
 31
0.0
  0
LINE
  5
DC
330
1F
100
AcDbEntity
  8
0
  6
Continuous
 62
     8
370
    15
100
AcDbLine
 10
57.75199999999999
 20
7.928050094711758
 30
0.0
 11
57.75199999999999
 21
7.937500000000004
 31
0.0
  0
LINE
  5
DE
330
1F
100
AcDbEntity
  8
중심선
100
AcDbLine
 10
-43.8
 20
0.0
 30
0.0
 11
63.79999999999999
 21
0.0
 31
0.0
  0
CIRCLE
  5
DF
330
1F
100
AcDbEntity
  8
외형선
100
AcDbCircle
 10
0.0
 20
0.0
 30
0.0
 40
3.000000000000005
  0
INSERT
  5
E0
330
1F
100
AcDbEntity
  8
0
  6
Continuous
 62
     7
100
AcDbBlockReference
 66
     1
  2
블럭10
 10
-16.62936049909349
 20
-51.78679627639982
 30
0.0
  0
ATTRIB
  5
E1
330
E0
100
AcDbEntity
  8
FORMAT
 62
     2
100
AcDbText
 10
-27.68038085127795
 20
-49.71142936356762
 30
0.0
 40
4.233333333333333
  1
GMG22935[ 6 FLUTE ]
 41
0.75
  7
SLDTEXTSTYLE0
 11
-27.68038085127795
 21
-51.82809603023429
 31
0.0
100
AcDbAttribute
  2
AUTOATTR0
 70
     0
 74
     1
  0
SEQEND
  5
E2
330
E0
100
AcDbEntity
  8
0
  6
Continuous
 62
     7
  0
HATCH
  5
E3
330
1F
100
AcDbEntity
  8
중심선
100
AcDbHatch
 10
0.0
 20
0.0
 30
0.0
210
0.0
220
0.0
230
1.0
  2
SOLID
 70
     1
 71
     0
 91
        1
 92
        0
 93
        4
 72
     1
 10
-10.91445119471263
 20
-35.53962197475588
 11
-14.36072643854992
 21
-35.53962197475588
 72
     1
 10
-14.36072643854992
 20
-35.53962197475588
 11
-16.48895629775394
 21
-38.07594755532848
 72
     1
 10
-16.48895629775394
 20
-38.07594755532848
 11
-13.04264796880351
 21
-38.07590812602599
 72
     1
 10
-13.04264796880351
 20
-38.07590812602599
 11
-10.91445119471263
 21
-35.53962197475588
 97
        0
 75
     0
 76
     1
 98
        1
 10
0.0004859200744764
 20
0.2622744311706908
  0
HATCH
  5
E4
330
1F
100
AcDbEntity
  8
중심선
100
AcDbHatch
 10
0.0
 20
0.0
 30
0.0
210
0.0
220
0.0
230
1.0
  2
SOLID
 70
     1
 71
     0
 91
        1
 92
        0
 93
        4
 72
     1
 10
-5.901687203676683
 20
-35.53962197475588
 11
-9.347962447513964
 21
-35.53962197475588
 72
     1
 10
-9.347962447513964
 20
-35.53962197475588
 11
-13.87910045587135
 21
-40.93962197475589
 72
     1
 10
-13.87910045587135
 20
-40.93962197475589
 11
-10.43282521203407
 21
-40.93962197475589
 72
     1
 10
-10.43282521203407
 20
-40.93962197475589
 11
-5.901687203676683
 21
-35.53962197475588
 97
        0
 75
     0
 76
     1
 98
        1
 10
0.0004859200744764
 20
0.2622744311706908
  0
HATCH
  5
E5
330
1F
100
AcDbEntity
  8
중심선
100
AcDbHatch
 10
0.0
 20
0.0
 30
0.0
210
0.0
220
0.0
230
1.0
  2
SOLID
 70
     1
 71
     0
 91
        1
 92
        0
 93
        4
 72
     1
 10
-0.8889232126407867
 20
-35.53962197475591
 11
-4.335198456477903
 21
-35.53962197475588
 72
     1
 10
-4.335198456477903
 20
-35.53962197475588
 11
-11.38363535836715
 21
-43.9396219747559
 72
     1
 10
-11.38363535836715
 20
-43.9396219747559
 11
-7.937360114529869
 21
-43.9396219747559
 72
     1
 10
-7.937360114529869
 20
-43.9396219747559
 11
-0.8889232126407869
 21
-35.53962197475591
 97
        0
 75
     0
 76
     1
 98
        1
 10
0.0004859200744764
 20
0.2622744311706908
  0
HATCH
  5
E6
330
1F
100
AcDbEntity
  8
중심선
100
AcDbHatch
 10
0.0
 20
0.0
 30
0.0
210
0.0
220
0.0
230
1.0
  2
SOLID
 70
     1
 71
     0
 91
        1
 92
        0
 93
        6
 72
     3
 10
3.910967218371413
 20
-39.73962197480716
 11
3.960054785062283
 21
1.540882976769353E-10
 40
0.3939339440162628
 50
17.09539180608437
 51
320.0019657685081
 73
     0
 72
     1
 10
5.593966874072008
 20
-38.32751597939419
 11
7.899268747773046
 21
-36.39318926934626
 72
     3
 10
3.910967218318566
 20
-39.73962197475603
 11
6.600054785286829
 21
-1.278976924368180E-13
 40
0.636358354079598
 50
39.9987384933741
 51
368.4976242363725
 73
     1
 72
     1
 10
10.33629971021917
 20
-38.7796219746859
 11
2.591034525154488
 21
-38.77962197468587
 72
     1
 10
2.591034525154488
 20
-38.77962197468587
 11
2.591009480708554
 21
-40.6996219746858
 72
     1
 10
2.591009480708554
 20
-40.6996219746858
 11
7.032389250180591
 21
-40.69962197468577
 97
        0
 75
     0
 76
     1
 98
        1
 10
0.0004859200744764
 20
0.2622744311706908
  0
POINT
  5
E7
330
1F
100
AcDbEntity
  8
치수문자_일반주서
100
AcDbPoint
 10
0.0
 20
0.0
 30
0.0
  0
DIMENSION
  5
E8
330
1F
100
AcDbEntity
  8
치수문자_일반주서
100
AcDbDimension
  2
_D
 10
75.39724571577295
 20
7.92805009471182
 30
0.0
 11
75.39724571577298
 21
-0.0047249526440556
 31
0.0
 70
   160
  1
%%c<>
 71
     2
 42
15.86555009471175
 52
-270.0
  3
SLDDIMSTYLE0
100
AcDbAlignedDimension
 13
57.75199999999999
 23
-7.937499999999997
 33
0.0
 14
56.75199999999999
 24
7.928050094711751
 34
0.0
 50
90.0000000000002
100
AcDbRotatedDimension
1001
ACAD
1000
DSTYLE
1002
{
1070
   171
1070
     3
1070
   273
1070
     7
1002
}
  0
DIMENSION
  5
FD
330
1F
100
AcDbEntity
  8
치수문자_일반주서
100
AcDbDimension
  2
_D_1
 10
60.8
 20
40.59305141807178
 30
0.0
 11
10.00000000000001
 21
40.59305141807178
 31
0.0
 70
   160
  1
<>
 71
     2
 42
101.6
  3
SLDDIMSTYLE1
100
AcDbAlignedDimension
 13
-40.8
 23
7.437499999999997
 33
0.0
 14
60.8
 24
4.889500000000005
 34
0.0
100
AcDbRotatedDimension
1001
ACAD
1000
DSTYLE
1002
{
1070
   171
1070
     3
1070
   273
1070
     7
1002
}
  0
DIMENSION
  5
111
330
1F
100
AcDbEntity
  8
치수문자_일반주서
100
AcDbDimension
  2
_D_2
 10
9.999999999999993
 20
22.51649453033793
 30
0.0
 11
34.84120226380296
 21
22.51649453033793
 31
0.0
 70
   160
  1
<>
 71
     2
 42
50.8
  3
SLDDIMSTYLE1
100
AcDbAlignedDimension
 13
60.8
 23
4.889500000000005
 33
0.0
 14
9.999999999999995
 24
7.937500000000004
 34
0.0
 50
0.0000000000000321
100
AcDbRotatedDimension
1001
ACAD
1000
DSTYLE
1002
{
1070
   171
1070
     3
1070
   273
1070
     7
1002
}
  0
INSERT
  5
13B
330
1F
100
AcDbEntity
  8
외형선
100
AcDbBlockReference
  2
SW_DOWELSYMBOL_0
 10
0.0
 20
0.0
 30
0.0
  0
DIMENSION
  5
161
102
{ACAD_REACTORS
102
}
102
{ACAD_XDICTIONARY
360
162
102
}
330
1F
100
AcDbEntity
  8
치수문자_일반주서
100
AcDbDimension
  2
*D8
 10
-50.47668959345992
 20
-7.937500000000001
 30
0.0
 11
-50.47668959345992
 21
-0.0000000000000009
 31
0.0
 70
   160
  1
{%%c<>[]}
 71
     5
 42
15.875
  3
SLDDIMSTYLE0
100
AcDbAlignedDimension
 13
-40.3
 23
7.9375
 33
0.0
 14
-40.3
 24
-7.937500000000001
 34
0.0
 50
90.0
100
AcDbRotatedDimension
1001
ACAD
1000
DSTYLE
1002
{
1070
   283
1070
     1
1070
   170
1070
     1
1070
   171
1070
     3
1070
   273
1070
     7
1002
}
  0
ARC
  5
174
102
{ACAD_REACTORS
102
}
330
1F
100
AcDbEntity
  8
0
  6
Continuous
 62
     1
370
    15
100
AcDbCircle
 10
59.276
 20
6.413500000000004
 30
0.0
 40
1.524
100
AcDbArc
 50
0.0
 51
83.61613724112316
  0
ARC
  5
175
330
1F
100
AcDbEntity
  8
0
  6
Continuous
 62
     1
370
    15
100
AcDbCircle
 10
59.276
 20
-6.413499999999997
 30
0.0
 40
1.524
100
AcDbArc
 50
276.3838627588768
 51
0.0
  0
DIMENSION
  5
176
102
{ACAD_REACTORS
102
}
102
{ACAD_XDICTIONARY
360
177
102
}
330
1F
100
AcDbEntity
  8
치수문자_일반주서
100
AcDbDimension
  2
*D9
 10
59.276
 20
6.413500000000004
 30
0.0
 11
75.18535911961378
 21
25.83622615806983
 31
0.0
 70
   164
  1
<>
 71
     5
 42
1.524000000000001
  3
SLDDIMSTYLE0
100
AcDbRadialDimension
 15
60.24171010093873
 25
7.592474130736091
 35
0.0
 40
0.0
1001
ACAD
1000
DSTYLE
1002
{
1070
   171
1070
     3
1070
   273
1070
     2
1002
}
1001
ACAD_DSTYLE_DIMRADIAL_EXTENSION
1070
   387
1070
     1
1070
   388
1040
0.0
1070
   390
1040
1.459376902657047
  0
ENDSEC
  0
SECTION
  2
OBJECTS
  0
DICTIONARY
  5
C
330
0
100
AcDbDictionary
281
     1
  3
ACAD_GROUP
350
D
  3
ACAD_IMAGE_VARS
350
15F
  3
ACAD_LAYOUT
350
1A
  3
ACAD_MLINESTYLE
350
17
  3
ACAD_PLOTSETTINGS
350
19
  3
ACAD_PLOTSTYLENAME
350
E
  3
ACAD_SCALELIST
350
47
  3
APPDATA
350
15D
  3
DWGPROPS
350
184
  0
DICTIONARY
  5
162
330
161
100
AcDbDictionary
280
     1
281
     1
  0
DICTIONARY
  5
177
330
176
100
AcDbDictionary
280
     1
281
     1
  0
DICTIONARY
  5
D
102
{ACAD_REACTORS
330
C
102
}
330
C
100
AcDbDictionary
281
     1
  0
RASTERVARIABLES
  5
15F
102
{ACAD_REACTORS
330
C
102
}
330
C
100
AcDbRasterVariables
 90
        0
 70
     1
 71
     1
 72
     1
  0
DICTIONARY
  5
1A
102
{ACAD_REACTORS
330
C
102
}
330
C
100
AcDbDictionary
281
     1
  3
Layout1
350
1E
  3
Layout2
350
26
  3
Model
350
22
  0
DICTIONARY
  5
17
102
{ACAD_REACTORS
330
C
102
}
330
C
100
AcDbDictionary
281
     1
  3
Standard
350
18
  0
DICTIONARY
  5
19
102
{ACAD_REACTORS
330
C
102
}
330
C
100
AcDbDictionary
281
     1
  0
ACDBDICTIONARYWDFLT
  5
E
102
{ACAD_REACTORS
330
C
102
}
330
C
100
AcDbDictionary
281
     1
  3
Normal
350
F
100
AcDbDictionaryWithDefault
340
F
  0
DICTIONARY
  5
47
102
{ACAD_REACTORS
330
C
102
}
330
C
100
AcDbDictionary
281
     1
  3
A0
350
48
  3
A1
350
49
  3
A2
350
4A
  3
A3
350
4B
  3
A4
350
4C
  3
A5
350
4D
  3
A6
350
4E
  3
A7
350
4F
  3
A8
350
50
  3
A9
350
51
  3
B0
350
52
  3
B1
350
53
  3
B2
350
54
  3
B3
350
55
  3
B4
350
56
  3
B5
350
57
  3
B6
350
58
  3
B7
350
59
  3
B8
350
5A
  3
B9
350
5B
  3
C0
350
5C
  3
C1
350
5D
  3
C2
350
5E
  3
C3
350
5F
  3
C4
350
60
  3
C5
350
61
  3
C6
350
62
  3
C7
350
63
  3
C8
350
64
  3
C9
350
65
  3
D0
350
66
  3
D1
350
67
  3
D2
350
68
  0
DICTIONARY
  5
15D
102
{ACAD_REACTORS
330
C
102
}
330
C
100
AcDbDictionary
281
     1
  0
XRECORD
  5
184
102
{ACAD_REACTORS
330
C
102
}
330
C
100
AcDbXrecord
280
     1
  1
DWGPROPS COOKIE
  2

  3

  4

  6

  7

  8
12016016
  9

300
=
301
=
302
=
303
=
304
=
305
=
306
=
307
=
308
=
309
=
 40
0.0
 41
2458236.372278843
 42
2458241.332826296
  1

 90
        0
  0
LAYOUT
  5
1E
102
{ACAD_REACTORS
330
1A
102
}
330
1A
100
AcDbPlotSettings
  1

  2
none_device
  4

  6

 40
0.0
 41
0.0
 42
0.0
 43
0.0
 44
0.0
 45
0.0
 46
0.0
 47
0.0
 48
0.0
 49
0.0
140
0.0
141
0.0
142
1.0
143
1.0
 70
   688
 72
     1
 73
     0
 74
     5
  7

 75
    16
147
1.0
148
0.0
149
0.0
100
AcDbLayout
  1
Layout1
 70
     1
 71
     1
 10
0.0
 20
0.0
 11
420.0
 21
297.0
 12
0.0
 22
0.0
 32
0.0
 14
1.000000000000000E+20
 24
1.000000000000000E+20
 34
1.000000000000000E+20
 15
-1.000000000000000E+20
 25
-1.000000000000000E+20
 35
-1.000000000000000E+20
146
0.0
 13
0.0
 23
0.0
 33
0.0
 16
1.0
 26
0.0
 36
0.0
 17
0.0
 27
1.0
 37
0.0
 76
     0
330
1B
  0
LAYOUT
  5
26
102
{ACAD_REACTORS
330
1A
102
}
330
1A
100
AcDbPlotSettings
  1

  2
none_device
  4

  6

 40
0.0
 41
0.0
 42
0.0
 43
0.0
 44
0.0
 45
0.0
 46
0.0
 47
0.0
 48
0.0
 49
0.0
140
0.0
141
0.0
142
1.0
143
1.0
 70
   688
 72
     1
 73
     0
 74
     5
  7

 75
    16
147
1.0
148
0.0
149
0.0
100
AcDbLayout
  1
Layout2
 70
     1
 71
     2
 10
0.0
 20
0.0
 11
0.0
 21
0.0
 12
0.0
 22
0.0
 32
0.0
 14
0.0
 24
0.0
 34
0.0
 15
0.0
 25
0.0
 35
0.0
146
0.0
 13
0.0
 23
0.0
 33
0.0
 16
1.0
 26
0.0
 36
0.0
 17
0.0
 27
1.0
 37
0.0
 76
     0
330
23
  0
LAYOUT
  5
22
102
{ACAD_REACTORS
330
1A
102
}
330
1A
100
AcDbPlotSettings
  1

  2
none_device
  4
ANSI_A_(11.00_x_8.50_Inches)
  6

 40
6.35
 41
19.05
 42
6.35000508
 43
19.05000254
 44
279.4
 45
215.9
 46
89.33740652420362
 47
88.60367662800151
 48
0.0
 49
0.0
140
0.0
141
0.0
142
0.057470619123188
143
1.0
 70
  1696
 72
     0
 73
     0
 74
     0
  7

 75
     0
147
0.0235690232323232
148
0.0
149
0.0
100
AcDbLayout
  1
Model
 70
     1
 71
     0
 10
0.0
 20
0.0
 11
420.0
 21
297.0
 12
0.0
 22
0.0
 32
0.0
 14
-54.85168959345992
 24
-49.71142936356763
 34
0.0
 15
84.74978617738539
 25
44.96805141807178
 35
0.0
146
0.0
 13
0.0
 23
0.0
 33
0.0
 16
1.0
 26
0.0
 36
0.0
 17
0.0
 27
1.0
 37
0.0
 76
     0
330
1F
331
29
  0
MLINESTYLE
  5
18
102
{ACAD_REACTORS
330
17
102
}
330
17
100
AcDbMlineStyle
  2
Standard
 70
     0
  3

 62
   256
 51
90.0
 52
90.0
 71
     2
 49
0.5
 62
   256
  6
BYLAYER
 49
-0.5
 62
   256
  6
BYLAYER
  0
ACDBPLACEHOLDER
  5
F
102
{ACAD_REACTORS
330
E
102
}
330
E
  0
SCALE
  5
48
102
{ACAD_REACTORS
330
47
102
}
330
47
100
AcDbScale
 70
     0
300
1:1
140
1.0
141
1.0
290
     1
  0
SCALE
  5
49
102
{ACAD_REACTORS
330
47
102
}
330
47
100
AcDbScale
 70
     0
300
1:2
140
1.0
141
2.0
290
     0
  0
SCALE
  5
4A
102
{ACAD_REACTORS
330
47
102
}
330
47
100
AcDbScale
 70
     0
300
1:4
140
1.0
141
4.0
290
     0
  0
SCALE
  5
4B
102
{ACAD_REACTORS
330
47
102
}
330
47
100
AcDbScale
 70
     0
300
1:5
140
1.0
141
5.0
290
     0
  0
SCALE
  5
4C
102
{ACAD_REACTORS
330
47
102
}
330
47
100
AcDbScale
 70
     0
300
1:8
140
1.0
141
8.0
290
     0
  0
SCALE
  5
4D
102
{ACAD_REACTORS
330
47
102
}
330
47
100
AcDbScale
 70
     0
300
1:10
140
1.0
141
10.0
290
     0
  0
SCALE
  5
4E
102
{ACAD_REACTORS
330
47
102
}
330
47
100
AcDbScale
 70
     0
300
1:16
140
1.0
141
16.0
290
     0
  0
SCALE
  5
4F
102
{ACAD_REACTORS
330
47
102
}
330
47
100
AcDbScale
 70
     0
300
1:20
140
1.0
141
20.0
290
     0
  0
SCALE
  5
50
102
{ACAD_REACTORS
330
47
102
}
330
47
100
AcDbScale
 70
     0
300
1:30
140
1.0
141
30.0
290
     0
  0
SCALE
  5
51
102
{ACAD_REACTORS
330
47
102
}
330
47
100
AcDbScale
 70
     0
300
1:40
140
1.0
141
40.0
290
     0
  0
SCALE
  5
52
102
{ACAD_REACTORS
330
47
102
}
330
47
100
AcDbScale
 70
     0
300
1:50
140
1.0
141
50.0
290
     0
  0
SCALE
  5
53
102
{ACAD_REACTORS
330
47
102
}
330
47
100
AcDbScale
 70
     0
300
1:100
140
1.0
141
100.0
290
     0
  0
SCALE
  5
54
102
{ACAD_REACTORS
330
47
102
}
330
47
100
AcDbScale
 70
     0
300
2:1
140
2.0
141
1.0
290
     0
  0
SCALE
  5
55
102
{ACAD_REACTORS
330
47
102
}
330
47
100
AcDbScale
 70
     0
300
4:1
140
4.0
141
1.0
290
     0
  0
SCALE
  5
56
102
{ACAD_REACTORS
330
47
102
}
330
47
100
AcDbScale
 70
     0
300
8:1
140
8.0
141
1.0
290
     0
  0
SCALE
  5
57
102
{ACAD_REACTORS
330
47
102
}
330
47
100
AcDbScale
 70
     0
300
10:1
140
10.0
141
1.0
290
     0
  0
SCALE
  5
58
102
{ACAD_REACTORS
330
47
102
}
330
47
100
AcDbScale
 70
     0
300
100:1
140
100.0
141
1.0
290
     0
  0
SCALE
  5
59
102
{ACAD_REACTORS
330
47
102
}
330
47
100
AcDbScale
 70
     0
300
1/128" = 1'-0"
140
0.0078125
141
12.0
290
     0
  0
SCALE
  5
5A
102
{ACAD_REACTORS
330
47
102
}
330
47
100
AcDbScale
 70
     0
300
1/64" = 1'-0"
140
0.015625
141
12.0
290
     0
  0
SCALE
  5
5B
102
{ACAD_REACTORS
330
47
102
}
330
47
100
AcDbScale
 70
     0
300
1/32" = 1'-0"
140
0.03125
141
12.0
290
     0
  0
SCALE
  5
5C
102
{ACAD_REACTORS
330
47
102
}
330
47
100
AcDbScale
 70
     0
300
1/16" = 1'-0"
140
0.0625
141
12.0
290
     0
  0
SCALE
  5
5D
102
{ACAD_REACTORS
330
47
102
}
330
47
100
AcDbScale
 70
     0
300
3/32" = 1'-0"
140
0.09375
141
12.0
290
     0
  0
SCALE
  5
5E
102
{ACAD_REACTORS
330
47
102
}
330
47
100
AcDbScale
 70
     0
300
1/8" = 1'-0"
140
0.125
141
12.0
290
     0
  0
SCALE
  5
5F
102
{ACAD_REACTORS
330
47
102
}
330
47
100
AcDbScale
 70
     0
300
3/16" = 1'-0"
140
0.1875
141
12.0
290
     0
  0
SCALE
  5
60
102
{ACAD_REACTORS
330
47
102
}
330
47
100
AcDbScale
 70
     0
300
1/4" = 1'-0"
140
0.25
141
12.0
290
     0
  0
SCALE
  5
61
102
{ACAD_REACTORS
330
47
102
}
330
47
100
AcDbScale
 70
     0
300
3/8" = 1'-0"
140
0.375
141
12.0
290
     0
  0
SCALE
  5
62
102
{ACAD_REACTORS
330
47
102
}
330
47
100
AcDbScale
 70
     0
300
1/2" = 1'-0"
140
0.5
141
12.0
290
     0
  0
SCALE
  5
63
102
{ACAD_REACTORS
330
47
102
}
330
47
100
AcDbScale
 70
     0
300
3/4" = 1'-0"
140
0.75
141
12.0
290
     0
  0
SCALE
  5
64
102
{ACAD_REACTORS
330
47
102
}
330
47
100
AcDbScale
 70
     0
300
1" = 1'-0"
140
1.0
141
12.0
290
     0
  0
SCALE
  5
65
102
{ACAD_REACTORS
330
47
102
}
330
47
100
AcDbScale
 70
     0
300
1-1/2" = 1'-0"
140
1.5
141
12.0
290
     0
  0
SCALE
  5
66
102
{ACAD_REACTORS
330
47
102
}
330
47
100
AcDbScale
 70
     0
300
3" = 1'-0"
140
3.0
141
12.0
290
     0
  0
SCALE
  5
67
102
{ACAD_REACTORS
330
47
102
}
330
47
100
AcDbScale
 70
     0
300
6" = 1'-0"
140
6.0
141
12.0
290
     0
  0
SCALE
  5
68
102
{ACAD_REACTORS
330
47
102
}
330
47
100
AcDbScale
 70
     0
300
1'-0" = 1'-0"
140
12.0
141
12.0
290
     0
  0
ENDSEC
  0
EOF
