  0
SECTION
  2
HEADER
  9
$ACADVER
  1
AC1015
  9
$ACADMAINTVER
 70
     6
  9
$DWGCODEPAGE
  3
ANSI_949
  9
$INSBASE
 10
0.0
 20
0.0
 30
0.0
  9
$EXTMIN
 10
-60.07227297144355
 20
-49.71142936356764
 30
0.0
  9
$EXTMAX
 10
63.86596495910877
 20
44.96805141807177
 30
0.0
  9
$LIMMIN
 10
0.0
 20
0.0
  9
$LIMMAX
 10
420.0
 20
297.0
  9
$ORTHOMODE
 70
     0
  9
$REGENMODE
 70
     1
  9
$FILLMODE
 70
     1
  9
$QTEXTMODE
 70
     0
  9
$MIRRTEXT
 70
     1
  9
$LTSCALE
 40
1.0
  9
$ATTMODE
 70
     1
  9
$TEXTSIZE
 40
3.5
  9
$TRACEWID
 40
1.0
  9
$TEXTSTYLE
  7
Standard
  9
$CLAYER
  8
0
  9
$CELTYPE
  6
ByLayer
  9
$CECOLOR
 62
   256
  9
$CELTSCALE
 40
1.0
  9
$DISPSILH
 70
     0
  9
$DIMSCALE
 40
1.0
  9
$DIMASZ
 40
3.302
  9
$DIMEXO
 40
1.0
  9
$DIMDLI
 40
3.75
  9
$DIMRND
 40
0.0
  9
$DIMDLE
 40
0.0
  9
$DIMEXE
 40
1.0
  9
$DIMTP
 40
0.0
  9
$DIMTM
 40
0.0
  9
$DIMTXT
 40
3.5
  9
$DIMCEN
 40
2.5
  9
$DIMTSZ
 40
0.0
  9
$DIMTOL
 70
     0
  9
$DIMLIM
 70
     0
  9
$DIMTIH
 70
     1
  9
$DIMTOH
 70
     1
  9
$DIMSE1
 70
     0
  9
$DIMSE2
 70
     0
  9
$DIMTAD
 70
     1
  9
$DIMZIN
 70
     0
  9
$DIMBLK
  1

  9
$DIMASO
 70
     1
  9
$DIMSHO
 70
     1
  9
$DIMPOST
  1

  9
$DIMAPOST
  1

  9
$DIMALT
 70
     0
  9
$DIMALTD
 70
     3
  9
$DIMALTF
 40
0.0393700787401575
  9
$DIMLFAC
 40
1.0
  9
$DIMTOFL
 70
     1
  9
$DIMTVP
 40
0.0
  9
$DIMTIX
 70
     0
  9
$DIMSOXD
 70
     0
  9
$DIMSAH
 70
     0
  9
$DIMBLK1
  1

  9
$DIMBLK2
  1

  9
$DIMSTYLE
  2
ISO-25
  9
$DIMCLRD
 70
     0
  9
$DIMCLRE
 70
     0
  9
$DIMCLRT
 70
     0
  9
$DIMTFAC
 40
1.0
  9
$DIMGAP
 40
1.524
  9
$DIMJUST
 70
     0
  9
$DIMSD1
 70
     0
  9
$DIMSD2
 70
     0
  9
$DIMTOLJ
 70
     0
  9
$DIMTZIN
 70
     0
  9
$DIMALTZ
 70
     0
  9
$DIMALTTZ
 70
     0
  9
$DIMUPT
 70
     0
  9
$DIMDEC
 70
     2
  9
$DIMTDEC
 70
     2
  9
$DIMALTU
 70
     2
  9
$DIMALTTD
 70
     3
  9
$DIMTXSTY
  7
Standard
  9
$DIMAUNIT
 70
     0
  9
$DIMADEC
 70
     2
  9
$DIMALTRND
 40
0.0
  9
$DIMAZIN
 70
     0
  9
$DIMDSEP
 70
    44
  9
$DIMATFIT
 70
     3
  9
$DIMFRAC
 70
     0
  9
$DIMLDRBLK
  1

  9
$DIMLUNIT
 70
     2
  9
$DIMLWD
 70
    -2
  9
$DIMLWE
 70
    -2
  9
$DIMTMOVE
 70
     0
  9
$LUNITS
 70
     2
  9
$LUPREC
 70
     2
  9
$SKETCHINC
 40
1.0
  9
$FILLETRAD
 40
10.0
  9
$AUNITS
 70
     0
  9
$AUPREC
 70
     2
  9
$MENU
  1
.
  9
$ELEVATION
 40
0.0
  9
$PELEVATION
 40
0.0
  9
$THICKNESS
 40
0.0
  9
$LIMCHECK
 70
     0
  9
$CHAMFERA
 40
0.0
  9
$CHAMFERB
 40
0.0
  9
$CHAMFERC
 40
0.0
  9
$CHAMFERD
 40
0.0
  9
$SKPOLY
 70
     0
  9
$TDCREATE
 40
2458236.746956551
  9
$TDUCREATE
 40
2458236.371956551
  9
$TDUPDATE
 40
2458241.719497107
  9
$TDUUPDATE
 40
2458241.344497107
  9
$TDINDWG
 40
0.0023813542
  9
$TDUSRTIMER
 40
2458241.342115949
  9
$USRTIMER
 70
     1
  9
$ANGBASE
 50
0.0
  9
$ANGDIR
 70
     0
  9
$PDMODE
 70
     0
  9
$PDSIZE
 40
-1.0
  9
$PLINEWID
 40
0.0
  9
$SPLFRAME
 70
     0
  9
$SPLINETYPE
 70
     6
  9
$SPLINESEGS
 70
     8
  9
$HANDSEED
  5
197
  9
$SURFTAB1
 70
     6
  9
$SURFTAB2
 70
     6
  9
$SURFTYPE
 70
     6
  9
$SURFU
 70
     6
  9
$SURFV
 70
     6
  9
$UCSBASE
  2

  9
$UCSNAME
  2

  9
$UCSORG
 10
0.0
 20
0.0
 30
0.0
  9
$UCSXDIR
 10
1.0
 20
0.0
 30
0.0
  9
$UCSYDIR
 10
0.0
 20
1.0
 30
0.0
  9
$UCSORTHOREF
  2

  9
$UCSORTHOVIEW
 70
     0
  9
$UCSORGTOP
 10
0.0
 20
0.0
 30
0.0
  9
$UCSORGBOTTOM
 10
0.0
 20
0.0
 30
0.0
  9
$UCSORGLEFT
 10
0.0
 20
0.0
 30
0.0
  9
$UCSORGRIGHT
 10
0.0
 20
0.0
 30
0.0
  9
$UCSORGFRONT
 10
0.0
 20
0.0
 30
0.0
  9
$UCSORGBACK
 10
0.0
 20
0.0
 30
0.0
  9
$PUCSBASE
  2

  9
$PUCSNAME
  2

  9
$PUCSORG
 10
0.0
 20
0.0
 30
0.0
  9
$PUCSXDIR
 10
1.0
 20
0.0
 30
0.0
  9
$PUCSYDIR
 10
0.0
 20
1.0
 30
0.0
  9
$PUCSORTHOREF
  2

  9
$PUCSORTHOVIEW
 70
     0
  9
$PUCSORGTOP
 10
0.0
 20
0.0
 30
0.0
  9
$PUCSORGBOTTOM
 10
0.0
 20
0.0
 30
0.0
  9
$PUCSORGLEFT
 10
0.0
 20
0.0
 30
0.0
  9
$PUCSORGRIGHT
 10
0.0
 20
0.0
 30
0.0
  9
$PUCSORGFRONT
 10
0.0
 20
0.0
 30
0.0
  9
$PUCSORGBACK
 10
0.0
 20
0.0
 30
0.0
  9
$USERI1
 70
     0
  9
$USERI2
 70
     0
  9
$USERI3
 70
     0
  9
$USERI4
 70
     0
  9
$USERI5
 70
     0
  9
$USERR1
 40
0.0
  9
$USERR2
 40
0.0
  9
$USERR3
 40
0.0
  9
$USERR4
 40
0.0
  9
$USERR5
 40
0.0
  9
$WORLDVIEW
 70
     1
  9
$SHADEDGE
 70
     3
  9
$SHADEDIF
 70
    70
  9
$TILEMODE
 70
     1
  9
$MAXACTVP
 70
    64
  9
$PINSBASE
 10
0.0
 20
0.0
 30
0.0
  9
$PLIMCHECK
 70
     0
  9
$PEXTMIN
 10
1.000000000000000E+20
 20
1.000000000000000E+20
 30
1.000000000000000E+20
  9
$PEXTMAX
 10
-1.000000000000000E+20
 20
-1.000000000000000E+20
 30
-1.000000000000000E+20
  9
$PLIMMIN
 10
0.0
 20
0.0
  9
$PLIMMAX
 10
0.0
 20
0.0
  9
$UNITMODE
 70
     0
  9
$VISRETAIN
 70
     1
  9
$PLINEGEN
 70
     0
  9
$PSLTSCALE
 70
     1
  9
$TREEDEPTH
 70
  3020
  9
$CMLSTYLE
  2
Standard
  9
$CMLJUST
 70
     0
  9
$CMLSCALE
 40
20.0
  9
$PROXYGRAPHICS
 70
     1
  9
$MEASUREMENT
 70
     1
  9
$CELWEIGHT
370
    -1
  9
$ENDCAPS
280
     0
  9
$JOINSTYLE
280
     0
  9
$LWDISPLAY
290
     1
  9
$INSUNITS
 70
     4
  9
$HYPERLINKBASE
  1

  9
$STYLESHEET
  1

  9
$XEDIT
290
     1
  9
$CEPSNTYPE
380
     0
  9
$PSTYLEMODE
290
     1
  9
$FINGERPRINTGUID
  2
{1B2083DB-C47E-4CF6-B7C4-DF76A16D1ED2}
  9
$VERSIONGUID
  2
{FAEB1C32-E019-11D5-929B-00C0DF256EC4}
  9
$EXTNAMES
290
     1
  9
$PSVPSCALE
 40
0.0
  9
$OLESTARTUP
290
     0
  0
ENDSEC
  0
SECTION
  2
CLASSES
  0
CLASS
  1
ACDBDICTIONARYWDFLT
  2
AcDbDictionaryWithDefault
  3
ObjectDBX Classes
 90
        0
280
     0
281
     0
  0
CLASS
  1
VISUALSTYLE
  2
AcDbVisualStyle
  3
ObjectDBX Classes
 90
     4095
280
     0
281
     0
  0
CLASS
  1
MATERIAL
  2
AcDbMaterial
  3
ObjectDBX Classes
 90
     1153
280
     0
281
     0
  0
CLASS
  1
SCALE
  2
AcDbScale
  3
ObjectDBX Classes
 90
     1153
280
     0
281
     0
  0
CLASS
  1
SUN
  2
AcDbSun
  3
SCENEOE
 90
     1153
280
     0
281
     0
  0
CLASS
  1
ACDBPLACEHOLDER
  2
AcDbPlaceHolder
  3
ObjectDBX Classes
 90
        0
280
     0
281
     0
  0
CLASS
  1
LAYOUT
  2
AcDbLayout
  3
ObjectDBX Classes
 90
        0
280
     0
281
     0
  0
CLASS
  1
TABLESTYLE
  2
AcDbTableStyle
  3
ObjectDBX Classes
 90
     4095
280
     0
281
     0
  0
CLASS
  1
MLEADERSTYLE
  2
AcDbMLeaderStyle
  3
ACDB_MLEADERSTYLE_CLASS
 90
     4095
280
     0
281
     0
  0
CLASS
  1
RASTERVARIABLES
  2
AcDbRasterVariables
  3
ISM
 90
        0
280
     0
281
     0
  0
CLASS
  1
DIMASSOC
  2
AcDbDimAssoc
  3
"AcDbDimAssoc|Product Desc:     AcDim ARX App For Dimension|Company:          Autodesk, Inc.|WEB Address:      www.autodesk.com"
 90
        0
280
     0
281
     0
  0
ENDSEC
  0
SECTION
  2
TABLES
  0
TABLE
  2
VPORT
  5
8
330
0
100
AcDbSymbolTable
 70
     1
  0
VPORT
  5
29
330
8
100
AcDbSymbolTableRecord
100
AcDbViewportTableRecord
  2
*Active
 70
     0
 10
0.0
 20
0.0
 11
1.0
 21
1.0
 12
32.52077789546829
 22
10.88229737061437
 13
0.0
 23
0.0
 14
10.0
 24
10.0
 15
10.0
 25
10.0
 16
0.0
 26
0.0
 36
1.0
 17
0.0
 27
0.0
 37
0.0
 40
109.1469885013754
 41
1.321695760598504
 42
50.0
 43
0.0
 44
0.0
 50
0.0
 51
0.0
 71
    16
 72
  2000
 73
     1
 74
     3
 75
     0
 76
     0
 77
     0
 78
     0
281
     0
 65
     1
110
0.0
120
0.0
130
0.0
111
1.0
121
0.0
131
0.0
112
0.0
122
1.0
132
0.0
 79
     0
146
0.0
  0
ENDTAB
  0
TABLE
  2
LTYPE
  5
5
330
0
100
AcDbSymbolTable
 70
     6
  0
LTYPE
  5
14
330
5
100
AcDbSymbolTableRecord
100
AcDbLinetypeTableRecord
  2
ByBlock
 70
     0
  3

 72
    65
 73
     0
 40
0.0
  0
LTYPE
  5
15
330
5
100
AcDbSymbolTableRecord
100
AcDbLinetypeTableRecord
  2
ByLayer
 70
     0
  3

 72
    65
 73
     0
 40
0.0
  0
LTYPE
  5
16
330
5
100
AcDbSymbolTableRecord
100
AcDbLinetypeTableRecord
  2
Continuous
 70
     0
  3
Solid line
 72
    65
 73
     0
 40
0.0
  0
LTYPE
  5
6A
330
5
100
AcDbSymbolTableRecord
100
AcDbLinetypeTableRecord
  2
HIDDEN
 70
     0
  3
Hidden __ __ __ __ __ __ __ __ __ __ __ __ __ __
 72
    65
 73
     2
 40
1.905
 49
1.27
 74
     0
 49
-0.635
 74
     0
  0
LTYPE
  5
6B
330
5
100
AcDbSymbolTableRecord
100
AcDbLinetypeTableRecord
  2
PHANTOM
 70
     0
  3
Phantom ______  __  __  ______  __  __  ______
 72
    65
 73
     6
 40
12.7
 49
6.35
 74
     0
 49
-1.27
 74
     0
 49
1.27
 74
     0
 49
-1.27
 74
     0
 49
1.27
 74
     0
 49
-1.27
 74
     0
  0
LTYPE
  5
6C
330
5
100
AcDbSymbolTableRecord
100
AcDbLinetypeTableRecord
  2
CENTER
 70
     0
  3
Center ____ _ ____ _ ____ _ ____ _ ____ _ ____
 72
    65
 73
     4
 40
10.16
 49
6.35
 74
     0
 49
-1.27
 74
     0
 49
1.27
 74
     0
 49
-1.27
 74
     0
  0
LTYPE
  5
6D
330
5
100
AcDbSymbolTableRecord
100
AcDbLinetypeTableRecord
  2
CENTERX2
 70
     0
  3
Center (2x) ________  __  ________  __  _____
 72
    65
 73
     4
 40
20.32
 49
12.7
 74
     0
 49
-2.54
 74
     0
 49
2.54
 74
     0
 49
-2.54
 74
     0
  0
LTYPE
  5
6E
330
5
100
AcDbSymbolTableRecord
100
AcDbLinetypeTableRecord
  2
DOT2
 70
     0
  3
Dot (.5x) ........................................
 72
    65
 73
     2
 40
0.635
 49
0.0
 74
     0
 49
-0.635
 74
     0
  0
ENDTAB
  0
TABLE
  2
LAYER
  5
2
330
0
100
AcDbSymbolTable
 70
    17
  0
LAYER
  5
10
330
2
100
AcDbSymbolTableRecord
100
AcDbLayerTableRecord
  2
0
 70
     0
 62
     7
  6
Continuous
370
    -3
390
F
  0
LAYER
  5
6F
330
2
100
AcDbSymbolTableRecord
100
AcDbLayerTableRecord
  2
FORMAT
 70
     0
 62
     2
  6
Continuous
370
    -3
390
F
  0
LAYER
  5
70
330
2
100
AcDbSymbolTableRecord
100
AcDbLayerTableRecord
  2
외형선
 70
     0
 62
   100
  6
Continuous
370
    30
390
F
  0
LAYER
  5
71
330
2
100
AcDbSymbolTableRecord
100
AcDbLayerTableRecord
  2
숨은선
 70
     0
 62
     2
  6
HIDDEN
370
    15
390
F
  0
LAYER
  5
72
330
2
100
AcDbSymbolTableRecord
100
AcDbLayerTableRecord
  2
중심선
 70
     0
 62
     1
  6
CENTERX2
370
    -3
390
F
  0
LAYER
  5
73
330
2
100
AcDbSymbolTableRecord
100
AcDbLayerTableRecord
  2
파단선
 70
     0
 62
     4
  6
Continuous
370
    -3
390
F
  0
LAYER
  5
74
330
2
100
AcDbSymbolTableRecord
100
AcDbLayerTableRecord
  2
해칭선
 70
     0
 62
     4
  6
Continuous
370
    -3
390
F
  0
LAYER
  5
75
330
2
100
AcDbSymbolTableRecord
100
AcDbLayerTableRecord
  2
가는실선
 70
     0
 62
     4
  6
Continuous
370
    -3
390
F
  0
LAYER
  5
76
330
2
100
AcDbSymbolTableRecord
100
AcDbLayerTableRecord
  2
치수_보조선
 70
     0
 62
     4
  6
Continuous
370
    -3
390
F
  0
LAYER
  5
77
330
2
100
AcDbSymbolTableRecord
100
AcDbLayerTableRecord
  2
치수문자_일반주서
 70
     0
 62
     7
  6
Continuous
370
    15
390
F
  0
LAYER
  5
78
330
2
100
AcDbSymbolTableRecord
100
AcDbLayerTableRecord
  2
개별주서
 70
     0
 62
   100
  6
Continuous
370
    30
390
F
  0
LAYER
  5
79
330
2
100
AcDbSymbolTableRecord
100
AcDbLayerTableRecord
  2
중간선
 70
     0
 62
     2
  6
Continuous
370
    15
390
F
  0
LAYER
  5
7A
330
2
100
AcDbSymbolTableRecord
100
AcDbLayerTableRecord
  2
윤곽선
 70
     0
 62
     3
  6
Continuous
370
    40
390
F
  0
LAYER
  5
7B
330
2
100
AcDbSymbolTableRecord
100
AcDbLayerTableRecord
  2
중심마크
 70
     0
 62
   100
  6
Continuous
370
    30
390
F
  0
LAYER
  5
7C
330
2
100
AcDbSymbolTableRecord
100
AcDbLayerTableRecord
  2
가상선
 70
     0
 62
     4
  6
PHANTOM
370
    -3
390
F
  0
LAYER
  5
7D
330
2
100
AcDbSymbolTableRecord
100
AcDbLayerTableRecord
  2
특수지정선
 70
     0
 62
     5
  6
CENTERX2
370
    60
390
F
  0
LAYER
  5
170
330
2
100
AcDbSymbolTableRecord
100
AcDbLayerTableRecord
  2
Defpoints
 70
     0
 62
     7
  6
Continuous
290
     0
370
    -3
390
F
  0
ENDTAB
  0
TABLE
  2
STYLE
  5
3
330
0
100
AcDbSymbolTable
 70
     2
  0
STYLE
  5
11
330
3
100
AcDbSymbolTableRecord
100
AcDbTextStyleTableRecord
  2
Standard
 70
     0
 40
0.0
 41
1.0
 50
0.0
 71
     0
 42
3.5
  3
txt
  4

  0
STYLE
  5
93
330
3
100
AcDbSymbolTableRecord
100
AcDbTextStyleTableRecord
  2
SLDTEXTSTYLE0
 70
     0
 40
0.0
 41
0.75
 50
0.0
 71
     0
 42
3.5
  3
TXT
  4

  0
ENDTAB
  0
TABLE
  2
VIEW
  5
6
330
0
100
AcDbSymbolTable
 70
     0
  0
ENDTAB
  0
TABLE
  2
UCS
  5
7
330
0
100
AcDbSymbolTable
 70
     0
  0
ENDTAB
  0
TABLE
  2
APPID
  5
9
330
0
100
AcDbSymbolTable
 70
     3
  0
APPID
  5
12
330
9
100
AcDbSymbolTableRecord
100
AcDbRegAppTableRecord
  2
ACAD
 70
     0
  0
APPID
  5
183
330
9
100
AcDbSymbolTableRecord
100
AcDbRegAppTableRecord
  2
PE_DIMMEASUREMENT
 70
     0
  0
APPID
  5
188
330
9
100
AcDbSymbolTableRecord
100
AcDbRegAppTableRecord
  2
ACAD_DSTYLE_DIMRADIAL_EXTENSION
 70
     0
  0
ENDTAB
  0
TABLE
  2
DIMSTYLE
  5
A
330
0
100
AcDbSymbolTable
 70
     5
100
AcDbDimStyleTable
  0
DIMSTYLE
105
27
330
A
100
AcDbSymbolTableRecord
100
AcDbDimStyleTableRecord
  2
ISO-25
 70
     0
 41
2.5
 42
0.625
 43
3.75
 44
1.25
 73
     0
 74
     0
 77
     1
 78
     8
140
2.5
141
2.5
143
0.03937007874016
147
0.625
171
     3
172
     1
178
     0
271
     2
272
     2
274
     3
278
    44
283
     0
284
     8
340
11
  0
DIMSTYLE
105
F8
102
{ACAD_REACTORS
330
F7
330
172
102
}
330
A
100
AcDbSymbolTableRecord
100
AcDbDimStyleTableRecord
  2
SLDDIMSTYLE0
 70
     0
 41
3.302
 44
0.0
 45
0.000000001
 73
     0
 74
     0
 77
     1
 78
    12
 79
     3
140
3.5
143
0.0393700787401575
147
0.875
148
0.000000001
170
     1
172
     1
173
     1
178
     0
271
     2
272
     2
276
     2
284
    12
289
     0
340
93
  0
DIMSTYLE
105
10D
102
{ACAD_REACTORS
330
10C
102
}
330
A
100
AcDbSymbolTableRecord
100
AcDbDimStyleTableRecord
  2
SLDDIMSTYLE1
 70
     0
 41
3.302
 44
0.0
 45
0.000000001
 73
     0
 74
     0
 77
     1
 78
     4
 79
     1
140
3.5
143
0.0393700787401575
147
0.875
148
0.000000001
170
     1
173
     1
178
     0
271
     2
272
     2
276
     2
284
    12
340
93
  0
DIMSTYLE
105
121
102
{ACAD_REACTORS
330
120
330
189
102
}
330
A
100
AcDbSymbolTableRecord
100
AcDbDimStyleTableRecord
  2
SLDDIMSTYLE2
 70
     0
 41
3.302
 44
0.0
 45
0.000000001
 73
     0
 74
     0
 77
     1
 78
    12
 79
     3
140
3.5
143
0.0393700787401575
147
0.875
148
0.000000001
170
     1
173
     1
178
     0
271
     2
272
     2
276
     2
284
    12
340
93
  0
DIMSTYLE
105
135
330
A
100
AcDbSymbolTableRecord
100
AcDbDimStyleTableRecord
  2
SLDDIMSTYLE3
 70
     0
 41
3.302
 44
0.0
 45
0.000000001
 73
     0
 74
     0
 77
     1
 78
     8
 79
     2
140
3.5
143
0.0393700787401575
147
0.875
148
0.000000001
170
     1
172
     1
173
     1
178
     0
271
     2
272
     2
276
     2
284
    12
289
     0
340
93
341
136
343
136
344
136
  0
ENDTAB
  0
TABLE
  2
BLOCK_RECORD
  5
1
330
0
100
AcDbSymbolTable
 70
    10
  0
BLOCK_RECORD
  5
1F
330
1
100
AcDbSymbolTableRecord
100
AcDbBlockTableRecord
  2
*Model_Space
340
22
  0
BLOCK_RECORD
  5
1B
330
1
100
AcDbSymbolTableRecord
100
AcDbBlockTableRecord
  2
*Paper_Space
340
1E
  0
BLOCK_RECORD
  5
23
330
1
100
AcDbSymbolTableRecord
100
AcDbBlockTableRecord
  2
*Paper_Space0
340
26
  0
BLOCK_RECORD
  5
7E
330
1
100
AcDbSymbolTableRecord
100
AcDbBlockTableRecord
  2
블럭10
340
0
102
{BLKREFS
331
EF
102
}
  0
BLOCK_RECORD
  5
F9
330
1
100
AcDbSymbolTableRecord
100
AcDbBlockTableRecord
  2
_D
340
0
  0
BLOCK_RECORD
  5
10E
330
1
100
AcDbSymbolTableRecord
100
AcDbBlockTableRecord
  2
_D_1
340
0
  0
BLOCK_RECORD
  5
122
330
1
100
AcDbSymbolTableRecord
100
AcDbBlockTableRecord
  2
_D_2
340
0
  0
BLOCK_RECORD
  5
136
330
1
100
AcDbSymbolTableRecord
100
AcDbBlockTableRecord
  2
_NONE
340
0
  0
BLOCK_RECORD
  5
139
330
1
100
AcDbSymbolTableRecord
100
AcDbBlockTableRecord
  2
_D_3
340
0
  0
BLOCK_RECORD
  5
145
330
1
100
AcDbSymbolTableRecord
100
AcDbBlockTableRecord
  2
SW_DOWELSYMBOL_0
340
0
102
{BLKREFS
331
14B
102
}
  0
BLOCK_RECORD
  5
175
330
1
100
AcDbSymbolTableRecord
100
AcDbBlockTableRecord
  2
*D8
340
0
  0
BLOCK_RECORD
  5
18C
330
1
100
AcDbSymbolTableRecord
100
AcDbBlockTableRecord
  2
*D9
340
0
  0
ENDTAB
  0
ENDSEC
  0
SECTION
  2
BLOCKS
  0
BLOCK
  5
20
330
1F
100
AcDbEntity
  8
0
100
AcDbBlockBegin
  2
*Model_Space
 70
     0
 10
0.0
 20
0.0
 30
0.0
  3
*Model_Space
  1
*Model_Space
  0
ENDBLK
  5
21
330
1F
100
AcDbEntity
  8
0
100
AcDbBlockEnd
  0
BLOCK
  5
1C
330
1B
100
AcDbEntity
 67
     1
  8
0
100
AcDbBlockBegin
  2
*Paper_Space
 70
     0
 10
0.0
 20
0.0
 30
0.0
  3
*Paper_Space
  1
*Paper_Space
  0
ENDBLK
  5
1D
330
1B
100
AcDbEntity
 67
     1
  8
0
100
AcDbBlockEnd
  0
BLOCK
  5
24
330
23
100
AcDbEntity
  8
0
100
AcDbBlockBegin
  2
*Paper_Space0
 70
     0
 10
0.0
 20
0.0
 30
0.0
  3
*Paper_Space0
  1
*Paper_Space0
  0
ENDBLK
  5
25
330
23
100
AcDbEntity
  8
0
100
AcDbBlockEnd
  0
BLOCK
  5
7F
330
7E
100
AcDbEntity
  8
0
100
AcDbBlockBegin
  2
블럭10
 70
     2
 10
0.0
 20
0.0
 30
0.0
  3
블럭10
  1
블럭10
  0
ELLIPSE
  5
81
330
7E
100
AcDbEntity
  8
중심선
100
AcDbEllipse
 10
20.54032771741204
 20
12.0471743016438
 30
0.0
 11
6.600054785286829
 21
-1.261213355974178E-13
 31
0.0
210
0.0
220
0.0
230
1.0
 40
0.636358354079598
 41
0.9219305317359503
 42
6.513795318482858
  0
ELLIPSE
  5
82
330
7E
100
AcDbEntity
  8
중심선
100
AcDbEllipse
 10
20.54032771746488
 20
12.04717430159265
 30
0.0
 11
3.960054785062283
 21
1.540847449632565E-10
 31
0.0
210
0.0
220
0.0
230
1.0
 40
0.3939339440162632
 41
1.131841032648279
 42
5.62031148352944
  0
LINE
  5
83
330
7E
100
AcDbEntity
  8
중심선
100
AcDbLine
 10
2.268634060543552
 20
16.24717430164393
 30
0.0
 11
5.714909304380834
 21
16.24717430164393
 31
0.0
  0
LINE
  5
84
330
7E
100
AcDbEntity
  8
중심선
100
AcDbLine
 10
5.245725140726316
 20
7.84717430164391
 30
0.0
 11
8.692000384563599
 21
7.84717430164391
 31
0.0
  0
LINE
  5
85
330
7E
100
AcDbEntity
  8
중심선
100
AcDbLine
 10
15.74043728645272
 20
16.24717430164393
 30
0.0
 11
8.692000384563599
 21
7.84717430164391
 31
0.0
  0
LINE
  5
86
330
7E
100
AcDbEntity
  8
중심선
100
AcDbLine
 10
0.1404042013395286
 20
13.71084872107135
 30
0.0
 11
3.58671253028996
 21
13.71088815037384
 31
0.0
  0
LINE
  5
87
330
7E
100
AcDbEntity
  8
중심선
100
AcDbLine
 10
2.750260043222114
 20
10.84717430164391
 30
0.0
 11
6.196535287059397
 21
10.84717430164391
 31
0.0
  0
LINE
  5
88
330
7E
100
AcDbEntity
  8
중심선
100
AcDbLine
 10
12.29416204261559
 20
16.24717430164393
 30
0.0
 11
5.245725140726316
 21
7.84717430164391
 31
0.0
  0
LINE
  5
89
330
7E
100
AcDbEntity
  8
중심선
100
AcDbLine
 10
10.72767329541681
 20
16.24717430164393
 30
0.0
 11
6.196535287059397
 21
10.84717430164391
 31
0.0
  0
LINE
  5
8A
330
7E
100
AcDbEntity
  8
중심선
100
AcDbLine
 10
7.28139805157953
 20
16.24717430164393
 30
0.0
 11
2.750260043222114
 21
10.84717430164391
 31
0.0
  0
LINE
  5
8B
330
7E
100
AcDbEntity
  8
중심선
100
AcDbLine
 10
5.714909304380834
 20
16.24717430164393
 30
0.0
 11
3.58671253028996
 21
13.71088815037384
 31
0.0
  0
LINE
  5
8C
330
7E
100
AcDbEntity
  8
중심선
100
AcDbLine
 10
2.268634060543552
 20
16.24717430164393
 30
0.0
 11
0.1404042013395286
 21
13.71084872107135
 31
0.0
  0
LINE
  5
8D
330
7E
100
AcDbEntity
  8
중심선
100
AcDbLine
 10
7.28139805157953
 20
16.24717430164393
 30
0.0
 11
10.72767329541681
 21
16.24717430164393
 31
0.0
  0
LINE
  5
8E
330
7E
100
AcDbEntity
  8
중심선
100
AcDbLine
 10
12.29416204261559
 20
16.24717430164393
 30
0.0
 11
15.74043728645272
 21
16.24717430164393
 31
0.0
  0
LINE
  5
8F
330
7E
100
AcDbEntity
  8
중심선
100
AcDbLine
 10
19.22036997980202
 20
11.08717430171403
 30
0.0
 11
23.66174974927406
 21
11.08717430171406
 31
0.0
  0
LINE
  5
90
330
7E
100
AcDbEntity
  8
중심선
100
AcDbLine
 10
19.22039502424796
 20
13.00717430171391
 30
0.0
 11
19.22036997980202
 21
11.08717430171403
 31
0.0
  0
LINE
  5
91
330
7E
100
AcDbEntity
  8
중심선
100
AcDbLine
 10
19.22039502424796
 20
13.00717430171391
 30
0.0
 11
26.96566020931264
 21
13.00717430171391
 31
0.0
  0
LINE
  5
92
330
7E
100
AcDbEntity
  8
중심선
100
AcDbLine
 10
22.22332737316547
 20
13.45928029700563
 30
0.0
 11
24.52862924686651
 21
15.39360700705356
 31
0.0
  0
ATTDEF
  5
94
330
7E
100
AcDbEntity
  8
FORMAT
 62
     2
100
AcDbText
 10
-11.05102035218446
 20
2.075366912832191
 30
0.0
 40
4.233333333333333
  1
GMG22933[ 6 FLUTE ]
 41
0.75
  7
SLDTEXTSTYLE0
 11
-11.05102035218446
 21
-0.0412997538344756
 31
0.0
100
AcDbAttributeDefinition
  3

  2
AUTOATTR0
 70
     0
 74
     1
  0
ENDBLK
  5
80
330
7E
100
AcDbEntity
  8
0
100
AcDbBlockEnd
  0
BLOCK
  5
FA
330
F9
100
AcDbEntity
  8
0
100
AcDbBlockBegin
  2
_D
 70
     0
 10
0.0
 20
0.0
 30
0.0
  3
_D
  1
_D
  0
LINE
  5
FC
330
F9
100
AcDbEntity
  8
치수문자_일반주서
 62
     0
370
    -2
100
AcDbLine
 10
38.76450000000001
 20
-7.937500000000004
 30
0.0
 11
56.91588986860527
 21
-7.937499999999937
 31
0.0
  0
LINE
  5
FD
330
F9
100
AcDbEntity
  8
치수문자_일반주서
 62
     0
370
    -2
100
AcDbLine
 10
38.33314415283225
 20
7.937499999999997
 30
0.0
 11
56.91588986860521
 21
7.937500000000067
 31
0.0
  0
LINE
  5
FE
330
F9
100
AcDbEntity
  8
치수문자_일반주서
 62
     0
370
    -2
100
AcDbLine
 10
56.91588986860526
 20
-4.635499999999937
 30
0.0
 11
56.91588986860523
 21
4.635500000000067
 31
0.0
  0
SOLID
  5
FF
330
F9
100
AcDbEntity
  8
치수문자_일반주서
 62
     0
100
AcDbTrace
 10
56.36555653527192
 20
-4.635499999999939
 30
0.0
 11
57.46622320193859
 21
-4.635499999999936
 31
0.0
 12
56.91588986860527
 22
-7.937499999999937
 32
0.0
 13
56.91588986860527
 23
-7.937499999999937
 33
0.0
  0
SOLID
  5
100
330
F9
100
AcDbEntity
  8
치수문자_일반주서
 62
     0
100
AcDbTrace
 10
57.46622320193856
 20
4.635500000000069
 30
0.0
 11
56.36555653527189
 21
4.635500000000065
 31
0.0
 12
56.91588986860521
 22
7.937500000000067
 32
0.0
 13
56.91588986860521
 23
7.937500000000067
 33
0.0
  0
MTEXT
  5
101
330
F9
100
AcDbEntity
  8
치수문자_일반주서
 62
     0
100
AcDbMText
 10
52.54088986860524
 20
0.0000000000000467
 30
0.0
 40
3.5
 41
0.0
 71
     2
 72
     1
  1
\A1;%%c15.88 [5/8]
  7
SLDTEXTSTYLE0
 11
-3.580687802255622E-15
 21
1.0
 31
0.0
 73
     1
 44
1.0
  0
POINT
  5
102
330
F9
100
AcDbEntity
  8
Defpoints
 62
     0
100
AcDbPoint
 10
38.70200000000001
 20
-7.937500000000004
 30
0.0
  0
POINT
  5
103
330
F9
100
AcDbEntity
  8
Defpoints
 62
     0
100
AcDbPoint
 10
38.27064415283225
 20
7.937499999999997
 30
0.0
  0
POINT
  5
104
330
F9
100
AcDbEntity
  8
Defpoints
 62
     0
100
AcDbPoint
 10
56.91588986860521
 20
7.937500000000067
 30
0.0
  0
ENDBLK
  5
FB
330
F9
100
AcDbEntity
  8
0
100
AcDbBlockEnd
  0
BLOCK
  5
10F
330
10E
100
AcDbEntity
  8
0
100
AcDbBlockBegin
  2
_D_1
 70
     0
 10
0.0
 20
0.0
 30
0.0
  3
_D_1
  1
_D_1
  0
LINE
  5
111
330
10E
100
AcDbEntity
  8
치수문자_일반주서
 62
     0
370
    -2
100
AcDbLine
 10
-47.15000000000001
 20
7.499999999999989
 30
0.0
 11
-47.15000000000001
 21
40.59305141807177
 31
0.0
  0
LINE
  5
112
330
10E
100
AcDbEntity
  8
치수문자_일반주서
 62
     0
370
    -2
100
AcDbLine
 10
41.75000000000001
 20
6.475999999999997
 30
0.0
 11
41.75000000000001
 21
40.59305141807177
 31
0.0
  0
LINE
  5
113
330
10E
100
AcDbEntity
  8
치수문자_일반주서
 62
     0
370
    -2
100
AcDbLine
 10
-43.84800000000001
 20
40.59305141807177
 30
0.0
 11
38.44800000000001
 21
40.59305141807177
 31
0.0
  0
SOLID
  5
114
330
10E
100
AcDbEntity
  8
치수문자_일반주서
 62
     0
100
AcDbTrace
 10
-43.84800000000001
 20
41.14338475140511
 30
0.0
 11
-43.84800000000001
 21
40.04271808473844
 31
0.0
 12
-47.15000000000001
 22
40.59305141807177
 32
0.0
 13
-47.15000000000001
 23
40.59305141807177
 33
0.0
  0
SOLID
  5
115
330
10E
100
AcDbEntity
  8
치수문자_일반주서
 62
     0
100
AcDbTrace
 10
38.44800000000001
 20
40.04271808473844
 30
0.0
 11
38.44800000000001
 21
41.14338475140511
 31
0.0
 12
41.75000000000001
 22
40.59305141807177
 32
0.0
 13
41.75000000000001
 23
40.59305141807177
 33
0.0
  0
MTEXT
  5
116
330
10E
100
AcDbEntity
  8
치수문자_일반주서
 62
     0
100
AcDbMText
 10
-2.700000000000004
 20
44.96805141807177
 30
0.0
 40
3.5
 41
0.0
 71
     2
 72
     1
  1
\A1;88.90 [3 1/2]
  7
SLDTEXTSTYLE0
 73
     1
 44
1.0
  0
POINT
  5
117
330
10E
100
AcDbEntity
  8
Defpoints
 62
     0
100
AcDbPoint
 10
-47.15000000000001
 20
7.437499999999989
 30
0.0
  0
POINT
  5
118
330
10E
100
AcDbEntity
  8
Defpoints
 62
     0
100
AcDbPoint
 10
41.75000000000001
 20
6.413499999999997
 30
0.0
  0
POINT
  5
119
330
10E
100
AcDbEntity
  8
Defpoints
 62
     0
100
AcDbPoint
 10
41.75000000000001
 20
40.59305141807177
 30
0.0
  0
ENDBLK
  5
110
330
10E
100
AcDbEntity
  8
0
100
AcDbBlockEnd
  0
BLOCK
  5
123
330
122
100
AcDbEntity
  8
0
100
AcDbBlockBegin
  2
_D_2
 70
     0
 10
0.0
 20
0.0
 30
0.0
  3
_D_2
  1
_D_2
  0
LINE
  5
125
330
122
100
AcDbEntity
  8
치수문자_일반주서
 62
     0
370
    -2
100
AcDbLine
 10
41.75000000000001
 20
6.475999999999997
 30
0.0
 11
41.75000000000001
 21
24.04049453033792
 31
0.0
  0
LINE
  5
126
330
122
100
AcDbEntity
  8
치수문자_일반주서
 62
     0
370
    -2
100
AcDbLine
 10
9.999999999999998
 20
-7.566603663021279
 30
0.0
 11
9.999999999999998
 21
24.04049453033792
 31
0.0
  0
LINE
  5
127
330
122
100
AcDbEntity
  8
치수문자_일반주서
 62
     0
370
    -2
100
AcDbLine
 10
38.44800000000001
 20
24.04049453033792
 30
0.0
 11
13.302
 21
24.04049453033792
 31
0.0
  0
SOLID
  5
128
330
122
100
AcDbEntity
  8
치수문자_일반주서
 62
     0
100
AcDbTrace
 10
38.44800000000001
 20
23.49016119700459
 30
0.0
 11
38.44800000000001
 21
24.59082786367126
 31
0.0
 12
41.75000000000001
 22
24.04049453033792
 32
0.0
 13
41.75000000000001
 23
24.04049453033792
 33
0.0
  0
SOLID
  5
129
330
122
100
AcDbEntity
  8
치수문자_일반주서
 62
     0
100
AcDbTrace
 10
13.302
 20
24.59082786367126
 30
0.0
 11
13.302
 21
23.49016119700459
 31
0.0
 12
9.999999999999998
 22
24.04049453033792
 32
0.0
 13
9.999999999999998
 23
24.04049453033792
 33
0.0
  0
MTEXT
  5
12A
330
122
100
AcDbEntity
  8
치수문자_일반주서
 62
     0
100
AcDbMText
 10
25.52575141487685
 20
28.41549453033792
 30
0.0
 40
3.5
 41
0.0
 71
     2
 72
     1
  1
\A1;31.75 [1 1/4]
  7
SLDTEXTSTYLE0
 73
     1
 44
1.0
  0
POINT
  5
12B
330
122
100
AcDbEntity
  8
Defpoints
 62
     0
100
AcDbPoint
 10
41.75000000000001
 20
6.413499999999997
 30
0.0
  0
POINT
  5
12C
330
122
100
AcDbEntity
  8
Defpoints
 62
     0
100
AcDbPoint
 10
9.999999999999998
 20
-7.629103663021279
 30
0.0
  0
POINT
  5
12D
330
122
100
AcDbEntity
  8
Defpoints
 62
     0
100
AcDbPoint
 10
9.999999999999998
 20
24.04049453033792
 30
0.0
  0
ENDBLK
  5
124
330
122
100
AcDbEntity
  8
0
100
AcDbBlockEnd
  0
BLOCK
  5
137
330
136
100
AcDbEntity
  8
0
100
AcDbBlockBegin
  2
_NONE
 70
     0
 10
0.0
 20
0.0
 30
0.0
  3
_NONE
  1
_NONE
  0
ENDBLK
  5
138
330
136
100
AcDbEntity
  8
0
100
AcDbBlockEnd
  0
BLOCK
  5
13A
330
139
100
AcDbEntity
  8
0
100
AcDbBlockBegin
  2
_D_3
 70
     0
 10
0.0
 20
0.0
 30
0.0
  3
_D_3
  1
_D_3
  0
LINE
  5
13C
330
139
100
AcDbEntity
  8
치수문자_일반주서
100
AcDbLine
 10
-70.94336763611722
 20
-13.61414086223942
 30
0.0
 11
-70.94336763611722
 21
-14.32507834780392
 31
0.0
  0
LINE
  5
13D
330
139
100
AcDbEntity
  8
치수문자_일반주서
100
AcDbLine
 10
-70.94336763611722
 20
-14.32507834780392
 30
0.0
 11
-65.38711764505791
 21
-14.32507834780388
 31
0.0
  0
LINE
  5
13E
330
139
100
AcDbEntity
  8
치수문자_일반주서
100
AcDbLine
 10
-65.38711764505791
 20
-14.32507834780388
 30
0.0
 11
-65.38711764505791
 21
-13.61414086223938
 31
0.0
  0
LINE
  5
13F
330
139
100
AcDbEntity
  8
치수문자_일반주서
100
AcDbLine
 10
-70.9433676361173
 20
-2.785408000102166
 30
0.0
 11
-70.9433676361173
 21
-2.074470514537666
 31
0.0
  0
LINE
  5
140
330
139
100
AcDbEntity
  8
치수문자_일반주서
100
AcDbLine
 10
-70.9433676361173
 20
-2.074470514537666
 30
0.0
 11
-65.387117645058
 21
-2.074470514537627
 31
0.0
  0
LINE
  5
141
330
139
100
AcDbEntity
  8
치수문자_일반주서
100
AcDbLine
 10
-65.387117645058
 20
-2.074470514537627
 30
0.0
 11
-65.387117645058
 21
-2.785408000102127
 31
0.0
  0
MTEXT
  5
142
330
139
100
AcDbEntity
  8
치수문자_일반주서
100
AcDbMText
 10
-69.89885455963683
 20
-12.72546896162804
 30
0.0
 40
3.5
 41
0.0
 71
     1
 72
     1
  1
0.00
  7
SLDTEXTSTYLE0
 11
-7.044195017643634E-15
 21
1.0
 31
0.0
 73
     1
 44
1.0
  0
MTEXT
  5
143
330
139
100
AcDbEntity
  8
치수문자_일반주서
100
AcDbMText
 10
-64.66222300927636
 20
-12.13204884353452
 30
0.0
 40
3.5
 41
0.0
 71
     1
 72
     1
  1
%%c
  7
SLDTEXTSTYLE0
 11
-7.044195017643634E-15
 21
1.0
 31
0.0
 73
     1
 44
1.0
  0
MTEXT
  5
144
330
139
100
AcDbEntity
  8
치수문자_일반주서
100
AcDbMText
 10
-64.66222300927639
 20
-6.85361144516044
 30
0.0
 40
3.5
 41
0.0
 71
     1
 72
     1
  1
0
  7
SLDTEXTSTYLE0
 11
-7.044195017643634E-15
 21
1.0
 31
0.0
 73
     1
 44
1.0
  0
ENDBLK
  5
13B
330
139
100
AcDbEntity
  8
0
100
AcDbBlockEnd
  0
BLOCK
  5
146
330
145
100
AcDbEntity
  8
0
100
AcDbBlockBegin
  2
SW_DOWELSYMBOL_0
 70
     0
 10
0.0
 20
0.0
 30
0.0
  3
SW_DOWELSYMBOL_0
  1
SW_DOWELSYMBOL_0
  0
CIRCLE
  5
148
330
145
100
AcDbEntity
  8
외형선
 62
     0
100
AcDbCircle
 10
0.0
 20
0.0
 30
0.0
 40
3.000000000000005
  0
HATCH
  5
149
330
145
100
AcDbEntity
  8
0
  6
Continuous
 62
     0
370
    30
100
AcDbHatch
 10
0.0
 20
0.0
 30
0.0
210
0.0
220
0.0
230
1.0
  2
SOLID
 70
     1
 71
     0
 91
        1
 92
        0
 93
        3
 72
     2
 10
0.0
 20
0.0
 40
3.000000000000005
 50
0.0
 51
90.0
 73
     1
 72
     1
 10
0.0
 20
3.000000000000005
 11
0.0
 21
0.0
 72
     1
 10
0.0
 20
0.0
 11
3.000000000000006
 21
0.0
 97
        0
 75
     0
 76
     1
 98
        1
 10
0.0
 20
0.0
  0
HATCH
  5
14A
330
145
100
AcDbEntity
  8
0
  6
Continuous
 62
     0
370
    30
100
AcDbHatch
 10
0.0
 20
0.0
 30
0.0
210
0.0
220
0.0
230
1.0
  2
SOLID
 70
     1
 71
     0
 91
        1
 92
        0
 93
        3
 72
     2
 10
0.0
 20
0.0
 40
3.000000000000005
 50
180.0
 51
270.0000000000008
 73
     1
 72
     1
 10
0.0
 20
-3.000000000000005
 11
0.0
 21
0.0
 72
     1
 10
0.0
 20
0.0
 11
-3.000000000000006
 21
0.0
 97
        0
 75
     0
 76
     1
 98
        1
 10
0.0
 20
0.0
  0
ENDBLK
  5
147
330
145
100
AcDbEntity
  8
0
100
AcDbBlockEnd
  0
BLOCK
  5
176
330
175
100
AcDbEntity
  8
0
100
AcDbBlockBegin
  2
*D8
 70
     1
 10
0.0
 20
0.0
 30
0.0
  3
*D8
  1
*D8
  0
LINE
  5
178
330
175
100
AcDbEntity
  8
치수문자_일반주서
 62
     0
370
    -2
100
AcDbLine
 10
-46.71250000000001
 20
7.937499999999993
 30
0.0
 11
-55.69727297144355
 21
7.937499999999993
 31
0.0
  0
LINE
  5
179
330
175
100
AcDbEntity
  8
치수문자_일반주서
 62
     0
370
    -2
100
AcDbLine
 10
-46.71250000000001
 20
-7.937500000000008
 30
0.0
 11
-55.69727297144355
 21
-7.937500000000008
 31
0.0
  0
LINE
  5
17A
330
175
100
AcDbEntity
  8
치수문자_일반주서
 62
     0
370
    -2
100
AcDbLine
 10
-55.69727297144355
 20
4.635499999999993
 30
0.0
 11
-55.69727297144355
 21
-4.635500000000008
 31
0.0
  0
SOLID
  5
17B
330
175
100
AcDbEntity
  8
치수문자_일반주서
 62
     0
100
AcDbTrace
 10
-55.14693963811021
 20
4.635499999999993
 30
0.0
 11
-56.24760630477688
 21
4.635499999999993
 31
0.0
 12
-55.69727297144355
 22
7.937499999999993
 32
0.0
 13
-55.69727297144355
 23
7.937499999999993
 33
0.0
  0
SOLID
  5
17C
330
175
100
AcDbEntity
  8
치수문자_일반주서
 62
     0
100
AcDbTrace
 10
-56.24760630477688
 20
-4.635500000000008
 30
0.0
 11
-55.14693963811021
 21
-4.635500000000008
 31
0.0
 12
-55.69727297144355
 22
-7.937500000000008
 32
0.0
 13
-55.69727297144355
 23
-7.937500000000008
 33
0.0
  0
MTEXT
  5
17D
330
175
100
AcDbEntity
  8
치수문자_일반주서
 62
     0
100
AcDbMText
 10
-58.32227297144355
 20
-0.0000000000000071
 30
0.0
 40
3.5
 41
0.0
 71
     5
 72
     1
  1
\A1;{%%c15.88 [5/8]}
  7
SLDTEXTSTYLE0
 11
0.0
 21
1.0
 31
0.0
 73
     1
 44
1.0
  0
POINT
  5
17E
330
175
100
AcDbEntity
  8
Defpoints
 62
     0
100
AcDbPoint
 10
-46.65000000000001
 20
7.937499999999993
 30
0.0
  0
POINT
  5
17F
330
175
100
AcDbEntity
  8
Defpoints
 62
     0
100
AcDbPoint
 10
-46.65000000000001
 20
-7.937500000000008
 30
0.0
  0
POINT
  5
180
330
175
100
AcDbEntity
  8
Defpoints
 62
     0
100
AcDbPoint
 10
-55.69727297144355
 20
-7.937500000000007
 30
0.0
  0
ENDBLK
  5
177
330
175
100
AcDbEntity
  8
0
100
AcDbBlockEnd
  0
BLOCK
  5
18D
330
18C
100
AcDbEntity
  8
0
100
AcDbBlockBegin
  2
*D9
 70
     1
 10
0.0
 20
0.0
 30
0.0
  3
*D9
  1
*D9
  0
LINE
  5
18F
330
18C
100
AcDbEntity
  8
치수문자_일반주서
 62
     0
370
    -2
100
AcDbLine
 10
42.51979889098422
 20
9.963641467085802
 30
0.0
 11
63.86596495910877
 21
38.33429940440001
 31
0.0
  0
MTEXT
  5
190
330
18C
100
AcDbEntity
  8
치수문자_일반주서
 62
     0
100
AcDbMText
 10
52.69359907534605
 20
27.85144890361374
 30
0.0
 40
3.5
 41
0.0
 71
     5
 72
     1
  1
\A1;R3.05 [R0.120]
  7
SLDTEXTSTYLE0
 11
0.6012281718085379
 21
0.7990773963914655
 31
0.0
 73
     1
 44
1.0
  0
SOLID
  5
191
330
18C
100
AcDbEntity
  8
치수문자_일반주서
 62
     0
100
AcDbTrace
 10
42.08003996383678
 20
10.2945173709711
 30
0.0
 11
42.95955781813166
 21
9.632765563200504
 31
0.0
 12
40.53454346767243
 22
7.325087904201183
 32
0.0
 13
40.53454346767243
 23
7.325087904201183
 33
0.0
  0
LINE
  5
192
330
18C
100
AcDbEntity
  8
치수문자_일반주서
 62
     0
100
AcDbLine
 10
38.612
 20
4.889499999999997
 30
0.0
 11
38.79200000000001
 21
4.889499999999997
 31
0.0
  0
LINE
  5
193
330
18C
100
AcDbEntity
  8
치수문자_일반주서
 62
     0
100
AcDbLine
 10
38.70200000000001
 20
4.799499999999997
 30
0.0
 11
38.70200000000001
 21
4.979499999999997
 31
0.0
  0
POINT
  5
194
330
18C
100
AcDbEntity
  8
Defpoints
 62
     0
100
AcDbPoint
 10
40.53454346767243
 20
7.325087904201183
 30
0.0
  0
POINT
  5
195
330
18C
100
AcDbEntity
  8
Defpoints
 62
     0
100
AcDbPoint
 10
38.70200000000001
 20
4.889499999999997
 30
0.0
  0
ENDBLK
  5
18E
330
18C
100
AcDbEntity
  8
0
100
AcDbBlockEnd
  0
ENDSEC
  0
SECTION
  2
ENTITIES
  0
LINE
  5
95
102
{ACAD_REACTORS
102
}
330
1F
100
AcDbEntity
  8
0
  6
Continuous
 62
     4
370
    15
100
AcDbLine
 10
7.779732457534865
 20
7.937499999999996
 30
0.0
 11
-46.65000000000001
 21
7.937499999999993
 31
0.0
  0
LINE
  5
96
102
{ACAD_REACTORS
102
}
330
1F
100
AcDbEntity
  8
0
  6
Continuous
 62
     4
370
    15
100
AcDbLine
 10
-46.65000000000001
 20
-7.937500000000008
 30
0.0
 11
7.779732457534878
 21
-7.937500000000004
 31
0.0
  0
LINE
  5
97
330
1F
100
AcDbEntity
  8
0
  6
Continuous
 62
     4
370
    15
100
AcDbLine
 10
-46.65000000000001
 20
7.937499999999989
 30
0.0
 11
-47.15000000000001
 21
7.437499999999988
 31
0.0
  0
LINE
  5
98
330
1F
100
AcDbEntity
  8
0
  6
Continuous
 62
     4
370
    15
100
AcDbLine
 10
-47.15000000000001
 20
-7.437500000000004
 30
0.0
 11
-46.65000000000001
 21
-7.937500000000004
 31
0.0
  0
LINE
  5
99
330
1F
100
AcDbEntity
  8
0
  6
Continuous
 62
     1
370
    15
100
AcDbLine
 10
30.0025406386698
 20
-7.937500000000004
 30
0.0
 11
32.71710800960505
 21
-7.937500000000004
 31
0.0
  0
LINE
  5
9A
330
1F
100
AcDbEntity
  8
0
  6
Continuous
 62
     1
370
    15
100
AcDbLine
 10
21.69151787545872
 20
-7.937500000000004
 30
0.0
 11
24.40505488808813
 21
-7.937500000000004
 31
0.0
  0
LINE
  5
9B
330
1F
100
AcDbEntity
  8
0
  6
Continuous
 62
     1
370
    15
100
AcDbLine
 10
38.3152883056645
 20
-7.937500000000004
 30
0.0
 11
38.70200000000001
 21
-7.937500000000004
 31
0.0
  0
LINE
  5
9C
330
1F
100
AcDbEntity
  8
0
  6
Continuous
 62
     1
370
    15
100
AcDbLine
 10
16.09190545555585
 20
7.937499999999996
 30
0.0
 11
13.37778314668019
 21
7.937499999999996
 31
0.0
  0
LINE
  5
9D
330
1F
100
AcDbEntity
  8
0
  6
Continuous
 62
     1
370
    15
100
AcDbLine
 10
24.40505488808819
 20
7.937499999999996
 30
0.0
 11
21.69151787545878
 21
7.937499999999996
 31
0.0
  0
LINE
  5
9E
330
1F
100
AcDbEntity
  8
0
  6
Continuous
 62
     1
370
    15
100
AcDbLine
 10
32.71710800960505
 20
7.937499999999996
 30
0.0
 11
30.00254063866986
 21
7.937499999999996
 31
0.0
  0
LINE
  5
9F
330
1F
100
AcDbEntity
  8
0
  6
Continuous
 62
     1
370
    15
100
AcDbLine
 10
13.3777831466802
 20
-7.937500000000004
 30
0.0
 11
16.09190545555578
 21
-7.937500000000004
 31
0.0
  0
LINE
  5
A0
330
1F
100
AcDbEntity
  8
0
  6
Continuous
 62
     1
370
    15
100
AcDbLine
 10
40.22600000000001
 20
7.937499999999996
 30
0.0
 11
38.3152883056645
 21
7.937499999999996
 31
0.0
  0
SPLINE
  5
A5
330
1F
100
AcDbEntity
  8
0
  6
Continuous
 62
     4
370
    15
100
AcDbSpline
210
0.0
220
0.0
230
1.0
 70
     8
 71
     3
 72
    14
 73
    10
 74
     0
 42
0.000000001
 43
0.00000001
 40
0.0
 40
0.0
 40
0.0
 40
0.0
 40
0.25
 40
0.25
 40
0.5
 40
0.5
 40
0.75
 40
0.75
 40
1.0
 40
1.0
 40
1.0
 40
1.0
 10
7.476351367189886
 20
-3.703315151773994
 30
0.0
 10
7.365165552855801
 20
-3.604823714234287
 30
0.0
 10
7.273726914054099
 20
-3.493164412394985
 30
0.0
 10
7.125470285467886
 20
-3.244942334509155
 30
0.0
 10
7.070215016526752
 20
-3.109600463801415
 30
0.0
 10
6.993890706334668
 20
-2.829853717346151
 30
0.0
 10
6.972234207864962
 20
-2.683360052436394
 30
0.0
 10
6.950521067356077
 20
-2.388788889409725
 30
0.0
 10
6.9504126405108
 20
-2.239521748692865
 30
0.0
 10
6.9504126405108
 20
-2.088826580713123
 30
0.0
  0
SPLINE
  5
A6
330
1F
100
AcDbEntity
  8
0
  6
Continuous
 62
     4
370
    15
100
AcDbSpline
210
0.0
220
0.0
230
1.0
 70
     8
 71
     3
 72
    22
 73
    18
 74
     0
 42
0.000000001
 43
0.00000001
 40
0.0
 40
0.0
 40
0.0
 40
0.0
 40
0.1250000000000001
 40
0.1250000000000001
 40
0.2500000000000001
 40
0.2500000000000001
 40
0.3750000000000001
 40
0.3750000000000001
 40
0.5000000000000001
 40
0.5000000000000001
 40
0.6250000000000001
 40
0.6250000000000001
 40
0.7500000000000001
 40
0.7500000000000001
 40
0.8750000000000001
 40
0.8750000000000001
 40
1.0
 40
1.0
 40
1.0
 40
1.0
 10
6.950412640510798
 20
-2.08882658071321
 30
0.0
 10
6.950412640510798
 20
-1.919161766913926
 30
0.0
 10
6.950823511445596
 20
-1.748328015487143
 30
0.0
 10
6.981549483441008
 20
-1.406998409067678
 30
0.0
 10
7.011792713671817
 20
-1.234449848220919
 30
0.0
 10
7.118150414629959
 20
-0.9010203459927916
 30
0.0
 10
7.193682397042779
 20
-0.7413811595331669
 30
0.0
 10
7.394753623006026
 20
-0.451059940740744
 30
0.0
 10
7.516322719735109
 20
-0.3249387272134605
 30
0.0
 10
7.804352253156075
 20
-0.1160187169818504
 30
0.0
 10
7.96236964259516
 20
-0.0391898830978178
 30
0.0
 10
8.304845943487702
 20
0.0573635825066028
 30
0.0
 10
8.480777844096542
 20
0.0744402197298958
 30
0.0
 10
8.834569173328118
 20
0.0459068007477903
 30
0.0
 10
9.006282102456872
 20
0.0004662274419733
 30
0.0
 10
9.32731747599884
 20
-0.1488780202930846
 30
0.0
 10
9.472394517174852
 20
-0.2507523073651609
 30
0.0
 10
9.598326626586546
 20
-0.3764869371484065
 30
0.0
  0
SPLINE
  5
A8
330
1F
100
AcDbEntity
  8
0
  6
Continuous
 62
     1
370
    15
100
AcDbSpline
210
0.0
220
0.0
230
1.0
 70
    24
 71
     3
 72
    18
 73
    14
 74
     0
 42
0.000000001
 43
0.00000001
 40
0.0
 40
0.0
 40
0.0
 40
0.0
 40
0.2500000000000001
 40
0.2500000000000001
 40
0.5000000000000002
 40
0.5000000000000002
 40
0.6250000000000002
 40
0.6250000000000002
 40
0.7500000000000001
 40
0.7500000000000001
 40
0.875
 40
0.875
 40
1.0
 40
1.0
 40
1.0
 40
1.0
 10
10.0
 20
-0.7764109331539787
 30
0.0
 10
10.0
 20
-0.8908002061840484
 30
0.0
 10
10.0
 20
-1.056560191484848
 30
0.0
 10
10.0
 20
-1.549439173894076
 30
0.0
 10
10.0
 20
-1.878798482226584
 30
0.0
 10
10.0
 20
-2.521509397013937
 30
0.0
 10
10.0
 20
-2.760098558766214
 30
0.0
 10
10.0
 20
-3.280686386149949
 30
0.0
 10
10.0
 20
-3.562724941969441
 30
0.0
 10
10.0
 20
-4.155532225390869
 30
0.0
 10
10.0
 20
-4.466208740521392
 30
0.0
 10
10.0
 20
-5.092571350791886
 30
0.0
 10
10.0
 20
-5.408031118238718
 30
0.0
 10
10.0
 20
-5.712053521011027
 30
0.0
  0
SPLINE
  5
A9
330
1F
100
AcDbEntity
  8
0
  6
Continuous
 62
     4
370
    15
100
AcDbSpline
210
0.0
220
0.0
230
1.0
 70
     8
 71
     3
 72
    12
 73
     8
 74
     0
 42
0.000000001
 43
0.00000001
 40
0.0
 40
0.0
 40
0.0
 40
0.0
 40
0.25
 40
0.25
 40
0.5
 40
0.5
 40
1.0
 40
1.0
 40
1.0
 40
1.0
 10
10.0
 20
-5.712053521011018
 30
0.0
 10
9.789020413239033
 20
-5.56590262673533
 30
0.0
 10
9.578200450479414
 20
-5.413754770986142
 30
0.0
 10
9.158867737853047
 20
-5.098975757754381
 30
0.0
 10
8.950521958507553
 20
-4.936410325992166
 30
0.0
 10
8.319848413350638
 20
-4.432202187250248
 30
0.0
 10
7.895871106263312
 20
-4.074937219077216
 30
0.0
 10
7.476351367189884
 20
-3.703315151773991
 30
0.0
  0
SPLINE
  5
AA
330
1F
100
AcDbEntity
  8
0
  6
Continuous
 62
     4
370
    15
100
AcDbSpline
210
0.0
220
0.0
230
1.0
 70
     8
 71
     3
 72
     8
 73
     4
 74
     0
 42
0.000000001
 43
0.00000001
 40
0.0
 40
0.0
 40
0.0
 40
0.0
 40
1.0
 40
1.0
 40
1.0
 40
1.0
 10
10.0
 20
-0.7764109331539603
 30
0.0
 10
9.86595957624902
 20
-0.6433271531036118
 30
0.0
 10
9.731983167529357
 20
-0.5099338854450901
 30
0.0
 10
9.598326626586678
 20
-0.3764869371485403
 30
0.0
  0
SPLINE
  5
AB
330
1F
100
AcDbEntity
  8
0
  6
Continuous
 62
     4
370
    15
100
AcDbSpline
210
0.0
220
0.0
230
1.0
 70
     8
 71
     3
 72
     8
 73
     4
 74
     0
 42
0.000000001
 43
0.00000001
 40
0.0
 40
0.0
 40
0.0
 40
0.0
 40
1.0
 40
1.0
 40
1.0
 40
1.0
 10
10.0
 20
-7.229317893270373
 30
0.0
 10
9.86595957624902
 20
-7.174103952788904
 30
0.0
 10
9.731983167529357
 20
-7.11581903581506
 30
0.0
 10
9.59832662658668
 20
-7.054583314308448
 30
0.0
  0
SPLINE
  5
AC
330
1F
100
AcDbEntity
  8
0
  6
Continuous
 62
     4
370
    15
100
AcDbSpline
210
0.0
220
0.0
230
1.0
 70
     8
 71
     3
 72
    22
 73
    18
 74
     0
 42
0.000000001
 43
0.00000001
 40
0.0
 40
0.0
 40
0.0
 40
0.0
 40
0.125
 40
0.125
 40
0.25
 40
0.25
 40
0.375
 40
0.375
 40
0.5
 40
0.5
 40
0.625
 40
0.625
 40
0.75
 40
0.75
 40
0.875
 40
0.875
 40
1.0
 40
1.0
 40
1.0
 40
1.0
 10
6.950412640510798
 20
-7.676195277445909
 30
0.0
 10
6.950412640510798
 20
-7.631442637971402
 30
0.0
 10
6.950823511445598
 20
-7.581114499681506
 30
0.0
 10
6.98154948344101
 20
-7.470399502770106
 30
0.0
 10
7.011792713671814
 20
-7.409224583386216
 30
0.0
 10
7.118150414629962
 20
-7.281709258406781
 30
0.0
 10
7.193682397042784
 20
-7.215877833945979
 30
0.0
 10
7.394753623006033
 20
-7.089656408596671
 30
0.0
 10
7.516322719735117
 20
-7.0313798335338
 30
0.0
 10
7.804352253156087
 20
-6.931947434236768
 30
0.0
 10
7.962369642595172
 20
-6.893714942449741
 30
0.0
 10
8.304845943487715
 20
-6.845342483983095
 30
0.0
 10
8.48077784409655
 20
-6.836565334909111
 30
0.0
 10
8.834569173328125
 20
-6.851019379231553
 30
0.0
 10
9.006282102456879
 20
-6.874147719093563
 30
0.0
 10
9.327317475998841
 20
-6.947610657857611
 30
0.0
 10
9.472394517174857
 20
-6.996886597587415
 30
0.0
 10
9.598326626586546
 20
-7.054583314308386
 30
0.0
  0
SPLINE
  5
AD
330
1F
100
AcDbEntity
  8
0
  6
Continuous
 62
     4
370
    15
100
AcDbSpline
210
0.0
220
0.0
230
1.0
 70
     8
 71
     3
 72
    14
 73
    10
 74
     0
 42
0.000000001
 43
0.00000001
 40
0.0
 40
0.0
 40
0.0
 40
0.0
 40
0.2500000000000002
 40
0.2500000000000002
 40
0.5000000000000003
 40
0.5000000000000003
 40
0.7500000000000001
 40
0.7500000000000001
 40
1.0
 40
1.0
 40
1.0
 40
1.0
 10
7.476351367189886
 20
-7.931708755974285
 30
0.0
 10
7.365165552855801
 20
-7.927455853320278
 30
0.0
 10
7.273726914054101
 20
-7.92034708421419
 30
0.0
 10
7.125470285467886
 20
-7.897005644993327
 30
0.0
 10
7.070215016526752
 20
-7.880761038106443
 30
0.0
 10
6.99389070633467
 20
-7.838628078283398
 30
0.0
 10
6.97223420786496
 20
-7.812439896272704
 30
0.0
 10
6.950521067356078
 20
-7.75117070332013
 30
0.0
 10
6.950412640510797
 20
-7.715944276499321
 30
0.0
 10
6.950412640510797
 20
-7.676195277445663
 30
0.0
  0
SPLINE
  5
AE
330
1F
100
AcDbEntity
  8
0
  6
Continuous
 62
     4
370
    15
100
AcDbSpline
210
0.0
220
0.0
230
1.0
 70
     8
 71
     3
 72
    12
 73
     8
 74
     0
 42
0.000000001
 43
0.00000001
 40
0.0
 40
0.0
 40
0.0
 40
0.0
 40
0.2500000000000001
 40
0.2500000000000001
 40
0.5000000000000001
 40
0.5000000000000001
 40
1.0
 40
1.0
 40
1.0
 40
1.0
 10
10.0
 20
-7.629103663021273
 30
0.0
 10
9.789020413239035
 20
-7.687204878332499
 30
0.0
 10
9.578200450479414
 20
-7.737231607755922
 30
0.0
 10
9.158867737853047
 20
-7.82076417670999
 30
0.0
 10
8.950521958507554
 20
-7.854295358637754
 30
0.0
 10
8.319848413350638
 20
-7.930312313735528
 30
0.0
 10
7.895871106263312
 20
-7.947755556750093
 30
0.0
 10
7.476351367189884
 20
-7.931708755974287
 30
0.0
  0
SPLINE
  5
AF
330
1F
100
AcDbEntity
  8
0
  6
Continuous
 62
     4
370
    15
100
AcDbSpline
210
0.0
220
0.0
230
1.0
 70
     8
 71
     3
 72
     9
 73
     5
 74
     0
 42
0.000000001
 43
0.00000001
 40
0.0
 40
0.0
 40
0.0
 40
0.0
 40
0.5676403212942738
 40
1.0
 40
1.0
 40
1.0
 40
1.0
 10
9.999999999999998
 20
7.629103663021267
 30
0.0
 10
9.580232805318674
 20
7.731400220212377
 30
0.0
 10
8.840737778389975
 20
7.911613910737151
 30
0.0
 10
8.099998328216516
 20
7.916916757697642
 30
0.0
 10
7.779732457534865
 20
7.919209494905703
 30
0.0
  0
LINE
  5
B0
330
1F
100
AcDbEntity
  8
0
  6
Continuous
 62
     1
370
    15
100
AcDbLine
 10
9.999999999999998
 20
7.629103663021272
 30
0.0
 11
9.999999999999998
 21
6.452906960116461
 31
0.0
  0
SPLINE
  5
B1
330
1F
100
AcDbEntity
  8
0
  6
Continuous
 62
     4
370
    15
100
AcDbSpline
210
0.0
220
0.0
230
1.0
 70
     8
 71
     3
 72
     8
 73
     4
 74
     0
 42
0.000000001
 43
0.00000001
 40
0.0
 40
0.0
 40
0.0
 40
0.0
 40
1.0
 40
1.0
 40
1.0
 40
1.0
 10
9.999999999999998
 20
6.45290696011646
 30
0.0
 10
9.865959576249017
 20
6.530776799685343
 30
0.0
 10
9.731983167529348
 20
6.605885150370021
 30
0.0
 10
9.598326626586667
 20
6.678096377159961
 30
0.0
  0
SPLINE
  5
B2
330
1F
100
AcDbEntity
  8
0
  6
Continuous
 62
     4
370
    15
100
AcDbSpline
210
0.0
220
0.0
230
1.0
 70
     8
 71
     3
 72
    22
 73
    18
 74
     0
 42
0.000000001
 43
0.00000001
 40
0.0
 40
0.0
 40
0.0
 40
0.0
 40
0.1249999999999999
 40
0.1249999999999999
 40
0.2499999999999999
 40
0.2499999999999999
 40
0.3749999999999999
 40
0.3749999999999999
 40
0.4999999999999999
 40
0.4999999999999999
 40
0.6249999999999999
 40
0.6249999999999999
 40
0.7499999999999999
 40
0.7499999999999999
 40
0.8749999999999999
 40
0.8749999999999999
 40
1.0
 40
1.0
 40
1.0
 40
1.0
 10
6.950412640510798
 20
5.587368696732734
 30
0.0
 10
6.950412640510798
 20
5.712280871057517
 30
0.0
 10
6.950823511445599
 20
5.832786484194405
 30
0.0
 10
6.981549483441011
 20
6.063401093702475
 30
0.0
 10
7.011792713671817
 20
6.174774735165342
 30
0.0
 10
7.118150414629959
 20
6.38068891241404
 30
0.0
 10
7.193682397042775
 20
6.474496674412863
 30
0.0
 10
7.394753623006021
 20
6.638596467855979
 30
0.0
 10
7.516322719735108
 20
6.706441106320391
 30
0.0
 10
7.804352253156074
 20
6.815928717254969
 30
0.0
 10
7.962369642595155
 20
6.854525059351976
 30
0.0
 10
8.304845943487695
 20
6.90270606648975
 30
0.0
 10
8.480777844096535
 20
6.911005554639061
 30
0.0
 10
8.834569173328108
 20
6.896926179979394
 30
0.0
 10
9.006282102456861
 20
6.874613946535588
 30
0.0
 10
9.327317475998827
 20
6.79873263756458
 30
0.0
 10
9.472394517174843
 20
6.746134290222307
 30
0.0
 10
9.59832662658654
 20
6.678096377160031
 30
0.0
  0
SPLINE
  5
B3
330
1F
100
AcDbEntity
  8
0
  6
Continuous
 62
     4
370
    15
100
AcDbSpline
210
0.0
220
0.0
230
1.0
 70
     8
 71
     3
 72
    14
 73
    10
 74
     0
 42
0.000000001
 43
0.00000001
 40
0.0
 40
0.0
 40
0.0
 40
0.0
 40
0.25
 40
0.25
 40
0.5
 40
0.5
 40
0.75
 40
0.75
 40
1.0
 40
1.0
 40
1.0
 40
1.0
 10
7.476351367189886
 20
4.228393604200308
 30
0.0
 10
7.365165552855801
 20
4.322632139086007
 30
0.0
 10
7.273726914054098
 20
4.427182671819226
 30
0.0
 10
7.125470285467884
 20
4.652063310484196
 30
0.0
 10
7.07021501652675
 20
4.771160574305053
 30
0.0
 10
6.993890706334668
 20
5.008774360937276
 30
0.0
 10
6.972234207864958
 20
5.129079843836339
 30
0.0
 10
6.950521067356076
 20
5.362381813910439
 30
0.0
 10
6.950412640510802
 20
5.476422527806496
 30
0.0
 10
6.950412640510802
 20
5.587368696732579
 30
0.0
  0
SPLINE
  5
B4
330
1F
100
AcDbEntity
  8
0
  6
Continuous
 62
     4
370
    15
100
AcDbSpline
210
0.0
220
0.0
230
1.0
 70
     8
 71
     3
 72
    12
 73
     8
 74
     0
 42
0.000000001
 43
0.00000001
 40
0.0
 40
0.0
 40
0.0
 40
0.0
 40
0.2500000000000001
 40
0.2500000000000001
 40
0.5000000000000002
 40
0.5000000000000002
 40
1.0
 40
1.0
 40
1.0
 40
1.0
 10
9.999999999999998
 20
1.917050142010246
 30
0.0
 10
9.789020413239035
 20
2.121302251597159
 30
0.0
 10
9.578200450479414
 20
2.323476836769772
 30
0.0
 10
9.158867737853047
 20
2.721788418955607
 30
0.0
 10
8.950521958507558
 20
2.917885032645582
 30
0.0
 10
8.319848413350643
 20
3.498110126485279
 30
0.0
 10
7.895871106263315
 20
3.872818337672881
 30
0.0
 10
7.476351367189889
 20
4.228393604200305
 30
0.0
  0
LINE
  5
B5
330
1F
100
AcDbEntity
  8
0
  6
Continuous
 62
     1
370
    15
100
AcDbLine
 10
9.999999999999998
 20
1.917050142010244
 30
0.0
 11
10.0
 21
-0.7764109331539585
 31
0.0
  0
LINE
  5
B6
330
1F
100
AcDbEntity
  8
0
  6
Continuous
 62
     4
370
    15
100
AcDbLine
 10
9.999999999999998
 20
-5.712053521011025
 30
0.0
 11
10.0
 21
-7.229317893270373
 31
0.0
  0
LINE
  5
B7
330
1F
100
AcDbEntity
  8
0
  6
Continuous
 62
     4
370
    15
100
AcDbLine
 10
-46.65000000000001
 20
7.937499999999989
 30
0.0
 11
-46.65000000000001
 21
-7.93749999999999
 31
0.0
  0
LINE
  5
B8
330
1F
100
AcDbEntity
  8
0
  6
Continuous
 62
     4
370
    15
100
AcDbLine
 10
-47.15000000000001
 20
7.437499999999989
 30
0.0
 11
-47.15000000000001
 21
-7.437500000000004
 31
0.0
  0
SPLINE
  5
B9
330
1F
100
AcDbEntity
  8
0
  6
Continuous
 62
     1
370
    15
100
AcDbSpline
210
0.0
220
0.0
230
1.0
 70
    24
 71
     3
 72
    18
 73
    14
 74
     0
 42
0.000000001
 43
0.00000001
 40
0.0
 40
0.0
 40
0.0
 40
0.0
 40
0.2499999999999999
 40
0.2499999999999999
 40
0.4999999999999998
 40
0.4999999999999998
 40
0.6249999999999998
 40
0.6249999999999998
 40
0.7499999999999999
 40
0.7499999999999999
 40
0.875
 40
0.875
 40
1.0
 40
1.0
 40
1.0
 40
1.0
 10
9.999999999999998
 20
6.452906960116411
 30
0.0
 10
9.999999999999998
 20
6.130619408946655
 30
0.0
 10
10.0
 20
5.761043540790395
 30
0.0
 10
9.999999999999998
 20
4.937370207893169
 30
0.0
 10
10.0
 20
4.481639020748191
 30
0.0
 10
10.0
 20
3.792772457135152
 30
0.0
 10
10.0
 20
3.563042343291064
 30
0.0
 10
10.0
 20
3.122452647283082
 30
0.0
 10
9.999999999999998
 20
2.911725158530332
 30
0.0
 10
10.0
 20
2.532116992353594
 30
0.0
 10
9.999999999999998
 20
2.363455589693043
 30
0.0
 10
9.999999999999998
 20
2.089374255912283
 30
0.0
 10
10.0
 20
1.984161287618899
 30
0.0
 10
10.0
 20
1.917050142010245
 30
0.0
  0
SPLINE
  5
BA
330
1F
100
AcDbEntity
  8
0
  6
Continuous
 62
     4
370
    15
100
AcDbSpline
210
0.0
220
0.0
230
1.0
 70
    24
 71
     3
 72
     9
 73
     5
 74
     0
 42
0.000000001
 43
0.00000001
 40
0.0
 40
0.0
 40
0.0
 40
0.0
 40
0.0666167825328738
 40
1.0
 40
1.0
 40
1.0
 40
1.0
 10
9.999999999999998
 20
-7.292113728645739
 30
0.0
 10
9.999999999999998
 20
-7.298474613792251
 30
0.0
 10
9.999999999999998
 20
-7.393959338581733
 30
0.0
 10
9.999999999999998
 20
-7.515582575152288
 30
0.0
 10
9.999999999999998
 20
-7.62910366302128
 30
0.0
  0
SPLINE
  5
BB
330
1F
100
AcDbEntity
  8
0
  6
Continuous
 62
     1
370
    15
100
AcDbSpline
210
0.0
220
0.0
230
1.0
 70
     8
 71
     3
 72
    22
 73
    18
 74
     0
 42
0.000000001
 43
0.00000001
 40
0.0
 40
0.0
 40
0.0
 40
0.0
 40
0.0214790375115567
 40
0.0936489838632702
 40
0.1658809395507832
 40
0.2382022655449166
 40
0.3103630024754661
 40
0.3826311201955961
 40
0.4549209741991681
 40
0.5270797550187005
 40
0.5993857601746052
 40
0.6716363230002754
 40
0.7372320306288269
 40
0.8030118350813434
 40
0.8686029720433961
 40
0.9343284760654177
 40
1.0
 40
1.0
 40
1.0
 40
1.0
 10
27.20380301326526
 20
-7.429963638946002
 30
0.0
 10
27.08052326409102
 20
-7.477920010380561
 30
0.0
 10
26.54302137487112
 20
-7.687010638962018
 30
0.0
 10
25.59288220510545
 20
-7.872661489531851
 30
0.0
 10
24.35013384539367
 20
-7.972010739034778
 30
0.0
 10
23.1058923208979
 20
-7.863257245053952
 30
0.0
 10
21.8644108963156
 20
-7.565135991082899
 30
0.0
 10
20.62107823604428
 20
-7.081370118251836
 30
0.0
 10
19.37736712957542
 20
-6.425110330352186
 30
0.0
 10
18.13590830368545
 20
-5.609828123994394
 30
0.0
 10
16.89195749070841
 20
-4.659295760549261
 30
0.0
 10
15.68645067839845
 20
-3.626494509788884
 30
0.0
 10
14.52052582864337
 20
-2.545225713750824
 30
0.0
 10
13.38881133258692
 20
-1.451300882768487
 30
0.0
 10
12.26055689034417
 20
-0.3239961979448905
 30
0.0
 10
11.12976609091893
 20
0.8089460576515205
 30
0.0
 10
10.37648554357486
 20
1.547783289437267
 30
0.0
 10
10.00000000000001
 20
1.91705014201024
 30
0.0
  0
SPLINE
  5
BC
330
1F
100
AcDbEntity
  8
0
  6
Continuous
 62
     1
370
    15
100
AcDbSpline
210
0.0
220
0.0
230
1.0
 70
    24
 71
     3
 72
    18
 73
    14
 74
     0
 42
0.000000001
 43
0.00000001
 40
0.0
 40
0.0
 40
0.0
 40
0.0
 40
0.2500000000000001
 40
0.2500000000000001
 40
0.5000000000000002
 40
0.5000000000000002
 40
0.6250000000000002
 40
0.6250000000000002
 40
0.7500000000000001
 40
0.7500000000000001
 40
0.875
 40
0.875
 40
1.0
 40
1.0
 40
1.0
 40
1.0
 10
10.0
 20
6.45290696011493
 30
0.0
 10
10.0
 20
6.130619408945162
 30
0.0
 10
10.00000000000001
 20
5.761043540788915
 30
0.0
 10
10.00000000000001
 20
4.937370207891822
 30
0.0
 10
10.0
 20
4.481639020746959
 30
0.0
 10
10.0
 20
3.792772457134185
 30
0.0
 10
10.00000000000001
 20
3.563042343290198
 30
0.0
 10
10.0
 20
3.122452647282429
 30
0.0
 10
10.00000000000001
 20
2.911725158529787
 30
0.0
 10
10.0
 20
2.532116992353259
 30
0.0
 10
10.0
 20
2.363455589692807
 30
0.0
 10
10.0
 20
2.0893742559122
 30
0.0
 10
10.00000000000001
 20
1.984161287618869
 30
0.0
 10
10.00000000000001
 20
1.91705014201024
 30
0.0
  0
SPLINE
  5
BD
330
1F
100
AcDbEntity
  8
0
  6
Continuous
 62
     1
370
    15
100
AcDbSpline
210
0.0
220
0.0
230
1.0
 70
     8
 71
     3
 72
    24
 73
    20
 74
     0
 42
0.000000001
 43
0.00000001
 40
0.0
 40
0.0
 40
0.0
 40
0.0
 40
0.0564830443972121
 40
0.1130125162182566
 40
0.1694264210452822
 40
0.2260025958121801
 40
0.2824204317975427
 40
0.3445620040240574
 40
0.406751261326424
 40
0.4688138932936463
 40
0.5309892592440295
 40
0.5931459301590438
 40
0.6552102445465725
 40
0.7174126790608273
 40
0.779538247580596
 40
0.841610482846358
 40
0.9038285507304328
 40
0.9659292091861005
 40
0.9999999999999999
 40
0.9999999999999999
 40
0.9999999999999999
 40
0.9999999999999999
 10
10.00000000000033
 20
6.452906960116264
 30
0.0
 10
10.37648554357393
 20
6.220946045733601
 30
0.0
 10
11.12976609091549
 20
5.756833551826205
 30
0.0
 10
12.26055689035914
 20
4.910804478677206
 30
0.0
 10
13.38881133253168
 20
3.971773657209683
 30
0.0
 10
14.52052582885055
 20
2.954127489458245
 30
0.0
 10
15.6864506775949
 20
1.837471766661294
 30
0.0
 10
16.89195749404941
 20
0.6440526442828247
 30
0.0
 10
18.13590829125667
 20
-0.6014091139163187
 30
0.0
 10
19.37736717587875
 20
-1.835096828679406
 30
0.0
 10
20.62107806290177
 20
-3.021232615330193
 30
0.0
 10
21.86441154183353
 20
-4.133969208646229
 30
0.0
 10
23.10588991350066
 20
-5.147235216178609
 30
0.0
 10
24.35014284792976
 20
-6.032295633012949
 30
0.0
 10
25.59284866793432
 20
-6.77041896660861
 30
0.0
 10
26.83446705706244
 20
-7.345725922795904
 30
0.0
 10
28.07908015611566
 20
-7.730782080133815
 30
0.0
 10
29.1344218278886
 20
-7.927603610109313
 30
0.0
 10
29.77544461832508
 20
-7.917141945420718
 30
0.0
 10
30.0025406386698
 20
-7.913435677168786
 30
0.0
  0
SPLINE
  5
BE
330
1F
100
AcDbEntity
  8
0
  6
Continuous
 62
     1
370
    15
100
AcDbSpline
210
0.0
220
0.0
230
1.0
 70
     8
 71
     3
 72
    22
 73
    18
 74
     0
 42
0.000000001
 43
0.00000001
 40
0.0
 40
0.0
 40
0.0
 40
0.0
 40
0.1249999999999971
 40
0.1249999999999971
 40
0.2499999999999941
 40
0.2499999999999941
 40
0.3749999999999912
 40
0.3749999999999912
 40
0.4374999999999907
 40
0.4374999999999907
 40
0.4999999999999902
 40
0.4999999999999902
 40
0.6249999999999926
 40
0.6249999999999926
 40
0.749999999999995
 40
0.749999999999995
 40
1.0
 40
1.0
 40
1.0
 40
1.0
 10
41.75000000000001
 20
-2.191627622948163
 30
0.0
 10
41.75000000000001
 20
-2.327748593417826
 30
0.0
 10
41.74919136918945
 20
-2.463632035452262
 30
0.0
 10
41.74039327504993
 20
-2.734534343824541
 30
0.0
 10
41.73260552933669
 20
-2.869570240310296
 30
0.0
 10
41.69892622269114
 20
-3.137917062516984
 30
0.0
 10
41.6728856705497
 20
-3.271934601246572
 30
0.0
 10
41.60533113577444
 20
-3.451911254727408
 30
0.0
 10
41.57853298674506
 20
-3.506837196467726
 30
0.0
 10
41.51418744957094
 20
-3.603771488520466
 30
0.0
 10
41.47601116448528
 20
-3.645892923284129
 30
0.0
 10
41.350949450245
 20
-3.741961699724676
 30
0.0
 10
41.2499139857044
 20
-3.767975173250865
 30
0.0
 10
41.04349236322635
 20
-3.759645299012064
 30
0.0
 10
40.93819962713531
 20
-3.72800075404019
 30
0.0
 10
40.62497439614982
 20
-3.586587886220537
 30
0.0
 10
40.4217139741549
 20
-3.433660190761976
 30
0.0
 10
40.22600000000001
 20
-3.255144396515079
 30
0.0
  0
SPLINE
  5
BF
330
1F
100
AcDbEntity
  8
0
  6
Continuous
 62
     1
370
    15
100
AcDbSpline
210
0.0
220
0.0
230
1.0
 70
     8
 71
     3
 72
    20
 73
    16
 74
     0
 42
0.000000001
 43
0.00000001
 40
0.0
 40
0.0
 40
0.0
 40
0.0
 40
0.0755299393792162
 40
0.1511428410715522
 40
0.2268180512921729
 40
0.3023338126011501
 40
0.3780346560444343
 40
0.4536166067022037
 40
0.532104778342713
 40
0.6107703159272858
 40
0.6892640872107628
 40
0.7677758993607146
 40
0.8464361483745733
 40
0.9249120260239564
 40
1.0
 40
1.0
 40
1.0
 40
1.0
 10
40.22600000000001
 20
-3.255144396515082
 30
0.0
 10
39.82792040435992
 20
-2.884503632897625
 30
0.0
 10
39.03132396125176
 20
-2.142814992730554
 30
0.0
 10
37.83523436521892
 20
-0.9620206471999665
 30
0.0
 10
36.63786489370985
 20
0.2338604692619426
 30
0.0
 10
35.44314234408466
 20
1.429375507639697
 30
0.0
 10
34.2453968055046
 20
2.58820327720727
 30
0.0
 10
33.03414187478796
 20
3.705008489209401
 30
0.0
 10
31.80779764977996
 20
4.749068493327578
 30
0.0
 10
30.5631535445896
 20
5.687799322543626
 30
0.0
 10
29.32123812161326
 20
6.48929102131114
 30
0.0
 10
28.07904514906222
 20
7.13256395156775
 30
0.0
 10
26.83445697509238
 20
7.596282760248236
 30
0.0
 10
25.61112604452868
 20
7.88637205466444
 30
0.0
 10
24.80112187495715
 20
7.917966609891818
 30
0.0
 10
24.40505488808819
 20
7.933415370232139
 30
0.0
  0
SPLINE
  5
C0
330
1F
100
AcDbEntity
  8
0
  6
Continuous
 62
     1
370
    15
100
AcDbSpline
210
0.0
220
0.0
230
1.0
 70
     8
 71
     3
 72
    18
 73
    14
 74
     0
 42
0.000000001
 43
0.00000001
 40
0.0
 40
0.0
 40
0.0
 40
0.0
 40
0.0671920496662253
 40
0.162579834864441
 40
0.2579457013443272
 40
0.3535202549833112
 40
0.4488793181870283
 40
0.5407074734260853
 40
0.6326800772414233
 40
0.7244278158500127
 40
0.8163692766275019
 40
0.9082350357704309
 40
0.9999999999999999
 40
0.9999999999999999
 40
0.9999999999999999
 40
0.9999999999999999
 10
27.20380301326531
 20
7.429963638945995
 30
0.0
 10
27.49572630759599
 20
7.529530424924296
 30
0.0
 10
28.20207238903161
 20
7.770445112044972
 30
0.0
 10
29.32126291101096
 20
7.936498948272868
 30
0.0
 10
30.56314688565561
 20
7.951121898525106
 30
0.0
 10
31.80779943343947
 20
7.764951039633684
 30
0.0
 10
33.03414141697901
 20
7.394712843361177
 30
0.0
 10
34.24539692643317
 20
6.855640830908907
 30
0.0
 10
35.44314231175166
 20
6.169560167938296
 30
0.0
 10
36.6378649023821
 20
5.341260657975677
 30
0.0
 10
37.83523436290631
 20
4.393407737755471
 30
0.0
 10
39.03132396182895
 20
3.348562143592144
 30
0.0
 10
39.82792040455224
 20
2.592334657856844
 30
0.0
 10
40.226
 20
2.214428461641805
 30
0.0
  0
SPLINE
  5
C1
330
1F
100
AcDbEntity
  8
0
  6
Continuous
 62
     1
370
    15
100
AcDbSpline
210
0.0
220
0.0
230
1.0
 70
     8
 71
     3
 72
     8
 73
     4
 74
     0
 42
0.000000001
 43
0.00000001
 40
0.0
 40
0.0
 40
0.0
 40
0.0
 40
1.0
 40
1.0
 40
1.0
 40
1.0
 10
40.22600000000001
 20
2.214428461641802
 30
0.0
 10
40.26095114307083
 20
2.180861927080636
 30
0.0
 10
40.29545935163951
 20
2.146774005528937
 30
0.0
 10
40.3295714833348
 20
2.1122127918397
 30
0.0
  0
SPLINE
  5
C2
330
1F
100
AcDbEntity
  8
0
  6
Continuous
 62
     1
370
    15
100
AcDbSpline
210
0.0
220
0.0
230
1.0
 70
     8
 71
     3
 72
    18
 73
    14
 74
     0
 42
0.000000001
 43
0.00000001
 40
0.0
 40
0.0
 40
0.0
 40
0.0
 40
0.2500000000000012
 40
0.2500000000000012
 40
0.5000000000000024
 40
0.5000000000000024
 40
0.6250000000000018
 40
0.6250000000000018
 40
0.7500000000000012
 40
0.7500000000000012
 40
0.8750000000000006
 40
0.8750000000000006
 40
1.0
 40
1.0
 40
1.0
 40
1.0
 10
40.32957148333449
 20
2.11221279183965
 30
0.0
 10
40.30265624395542
 20
1.990108597529261
 30
0.0
 10
40.26333975461149
 20
1.863022285124103
 30
0.0
 10
40.15271829145149
 20
1.595998503554223
 30
0.0
 10
40.08084107203999
 20
1.45482008303571
 30
0.0
 10
39.94028294579748
 20
1.233233611744574
 30
0.0
 10
39.8886417325939
 20
1.158820416207288
 30
0.0
 10
39.77440097097519
 20
1.008732991756191
 30
0.0
 10
39.71105057947929
 20
0.9322786177888982
 30
0.0
 10
39.57489696942952
 20
0.7819262178013827
 30
0.0
 10
39.50260591737602
 20
0.7084562411210573
 30
0.0
 10
39.34923164623308
 20
0.5650759747625547
 30
0.0
 10
39.26711916861971
 20
0.4943729124195454
 30
0.0
 10
39.18293193635123
 20
0.4277506606739461
 30
0.0
  0
SPLINE
  5
C3
330
1F
100
AcDbEntity
  8
0
  6
Continuous
 62
     1
370
    15
100
AcDbSpline
210
0.0
220
0.0
230
1.0
 70
     8
 71
     3
 72
     8
 73
     4
 74
     0
 42
0.000000001
 43
0.00000001
 40
0.0
 40
0.0
 40
0.0
 40
0.0
 40
1.0
 40
1.0
 40
1.0
 40
1.0
 10
41.75000000000001
 20
-1.366360276448579
 30
0.0
 10
40.89411688316856
 20
-0.7752105167242217
 30
0.0
 10
40.0374102203844
 20
-0.1765160978088582
 30
0.0
 10
39.18293193635122
 20
0.4277506606739704
 30
0.0
  0
LINE
  5
C4
330
1F
100
AcDbEntity
  8
0
  6
Continuous
 62
     1
370
    15
100
AcDbLine
 10
41.75000000000001
 20
-2.191627622977776
 30
0.0
 11
41.75000000000001
 21
-1.36636027644858
 31
0.0
  0
SPLINE
  5
C5
330
1F
100
AcDbEntity
  8
0
  6
Continuous
 62
     1
370
    15
100
AcDbSpline
210
0.0
220
0.0
230
1.0
 70
     8
 71
     3
 72
    29
 73
    25
 74
     0
 42
0.000000001
 43
0.00000001
 40
0.0
 40
0.0
 40
0.0
 40
0.0
 40
0.0028752329802583
 40
0.0498139315696302
 40
0.0966789100738632
 40
0.1453459058943913
 40
0.1941228783837348
 40
0.2427933462917788
 40
0.2914750005321703
 40
0.3402486938159539
 40
0.3889080666838478
 40
0.4376092483037843
 40
0.4863706863502945
 40
0.5350238499208149
 40
0.5837494131832179
 40
0.6324896317692597
 40
0.6811414764648168
 40
0.7298925846937545
 40
0.7786063118637347
 40
0.8228331148112646
 40
0.8671840419469636
 40
0.9114077631994574
 40
0.9557220791828982
 40
1.0
 40
1.0
 40
1.0
 40
1.0
 10
35.51685101186895
 20
-7.44417648660707
 30
0.0
 10
35.49241266821949
 20
-7.454206472790266
 30
0.0
 10
35.06901394311141
 20
-7.627977798037504
 30
0.0
 10
34.24531311658253
 20
-7.808499993676281
 30
0.0
 10
33.03416521829897
 20
-7.965672357386251
 30
0.0
 10
31.80779137943135
 20
-7.916689730026264
 30
0.0
 10
30.5631548480723
 20
-7.679140724227608
 30
0.0
 10
29.32123916506224
 20
-7.251708580772815
 30
0.0
 10
28.07903966604409
 20
-6.64696441024467
 30
0.0
 10
26.83447788633928
 20
-5.881106417119803
 30
0.0
 10
25.59284576644842
 20
-4.969266120945332
 30
0.0
 10
24.35014362678888
 20
-3.936579687931558
 30
0.0
 10
23.10588970522343
 20
-2.809171555820144
 30
0.0
 10
21.86441159768086
 20
-1.610054793130427
 30
0.0
 10
20.62107804792226
 20
-0.3736336750953159
 30
0.0
 10
19.37736717988471
 20
0.8715128258687951
 30
0.0
 10
18.1359082901814
 20
2.09796990005107
 30
0.0
 10
16.89195749433845
 20
3.270196398924634
 30
0.0
 10
15.68645067752536
 20
4.330350532584104
 30
0.0
 10
14.52052582886841
 20
5.26288646120603
 30
0.0
 10
13.38881133252677
 20
6.056607433007899
 30
0.0
 10
12.26055689036023
 20
6.728040040794698
 30
0.0
 10
11.12976609091492
 20
7.2723134947758
 30
0.0
 10
10.37648554357352
 20
7.51020618369898
 30
0.0
 10
10.0
 20
7.629103663021269
 30
0.0
  0
SPLINE
  5
C6
330
1F
100
AcDbEntity
  8
0
  6
Continuous
 62
     1
370
    15
100
AcDbSpline
210
0.0
220
0.0
230
1.0
 70
     8
 71
     3
 72
    31
 73
    27
 74
     0
 42
0.000000001
 43
0.00000001
 40
0.0
 40
0.0
 40
0.0
 40
0.0
 40
0.0198496677792033
 40
0.0606179854679689
 40
0.1013029577481411
 40
0.142104956992248
 40
0.1827927643725335
 40
0.2276084556676856
 40
0.2724585368175226
 40
0.3172172974273951
 40
0.3620573603153849
 40
0.4068839405877308
 40
0.4516439145371822
 40
0.4965034989203451
 40
0.5413076485509495
 40
0.5860733349344603
 40
0.6309441939000109
 40
0.6757303787173204
 40
0.7205062723241986
 40
0.7653801480957422
 40
0.8101528474489404
 40
0.8532677255585742
 40
0.8964504247274818
 40
0.9395275458636517
 40
0.9826956228474863
 40
1.0
 40
1.0
 40
1.0
 40
1.0
 10
10.57921089143372
 20
7.430195031422233
 30
0.0
 10
10.76268163513987
 20
7.497364433545138
 30
0.0
 10
11.32297448232945
 20
7.702489974540053
 30
0.0
 10
12.26058198778591
 20
7.88022996450852
 30
0.0
 10
13.38880459291524
 20
7.965687996868049
 30
0.0
 10
14.52052762548585
 20
7.882001009322789
 30
0.0
 10
15.68645014210488
 20
7.632609999550474
 30
0.0
 10
16.89195764375265
 20
7.201608569891831
 30
0.0
 10
18.13590825022322
 20
6.581863429484359
 30
0.0
 10
19.3773671906149
 20
5.799242960072252
 30
0.0
 10
20.62107804500505
 20
4.876421986549071
 30
0.0
 10
21.8644115986128
 20
3.83419490784389
 30
0.0
 10
23.10588970440753
 20
2.696094156887014
 30
0.0
 10
24.35014362912371
 20
1.494982023993633
 30
0.0
 10
25.5928457579415
 20
0.2557418035241569
 30
0.0
 10
26.83447791803865
 20
-0.9910329055182553
 30
0.0
 10
28.07903954753571
 20
-2.210366011529515
 30
0.0
 10
29.32123960633251
 20
-3.378115709458729
 30
0.0
 10
30.56315320003411
 20
-4.463351566918463
 30
0.0
 10
31.80779753917469
 20
-5.436981733401068
 30
0.0
 10
33.0341426479252
 20
-6.269685897319252
 30
0.0
 10
34.24539394486019
 20
-6.943224833680889
 30
0.0
 10
35.44315306673231
 20
-7.452932784991867
 30
0.0
 10
36.63782494125144
 20
-7.783821438159898
 30
0.0
 10
37.59631066813042
 20
-7.940041724747172
 30
0.0
 10
38.15532472784908
 20
-7.921236148821325
 30
0.0
 10
38.3152883056645
 20
-7.915854875925445
 30
0.0
  0
SPLINE
  5
C8
330
1F
100
AcDbEntity
  8
0
  6
Continuous
 62
     1
370
    15
100
AcDbSpline
210
0.0
220
0.0
230
1.0
 70
     8
 71
     3
 72
    27
 73
    23
 74
     0
 42
0.000000001
 43
0.00000001
 40
0.0258737068983009
 40
0.0258737068983009
 40
0.0258737068983009
 40
0.0258737068983009
 40
0.0495151799379529
 40
0.0990847474988269
 40
0.14869516267609
 40
0.1982010478932366
 40
0.2478282674482474
 40
0.2973775444321868
 40
0.3488320533821857
 40
0.4004028381654151
 40
0.4518610180746577
 40
0.5033310250389338
 40
0.5548983427926294
 40
0.6063447921680043
 40
0.6578354449870046
 40
0.7093898055567742
 40
0.7608296899831135
 40
0.8123461209587343
 40
0.8638780466750642
 40
0.9153165366848701
 40
0.9668599757732175
 40
1.0
 40
1.0
 40
1.0
 40
1.0
 10
39.60194600117079
 20
-7.80161284035779
 30
0.0
 10
39.41186522132537
 20
-7.769328724767139
 30
0.0
 10
38.82319834993913
 20
-7.655661891571818
 30
0.0
 10
37.83523436507897
 20
-7.328843294270381
 30
0.0
 10
36.63786489423464
 20
-6.78071503029192
 30
0.0
 10
35.44314234212811
 20
-6.073416656805692
 30
0.0
 10
34.24539681282228
 20
-5.231827811755339
 30
0.0
 10
33.03414184708486
 20
-4.257447122809443
 30
0.0
 10
31.80779775771337
 20
-3.168486683153953
 30
0.0
 10
30.56315314164186
 20
-1.991156229672688
 30
0.0
 10
29.32123962167797
 20
-0.7622945354994027
 30
0.0
 10
28.07903954449562
 20
0.4849215829981023
 30
0.0
 10
26.83447791481132
 20
1.717767972010979
 30
0.0
 10
25.59284577384435
 20
2.911756881939156
 30
0.0
 10
24.35014356863585
 20
4.033192856926448
 30
0.0
 10
23.10588993052521
 20
5.054660591867676
 30
0.0
 10
21.86441075624788
 20
5.955014994861141
 30
0.0
 10
20.62108119460646
 20
6.707425266616821
 30
0.0
 10
19.3773554417347
 20
7.297933446572916
 30
0.0
 10
18.13595204629591
 20
7.702873736558134
 30
0.0
 10
17.0396882396082
 20
7.918788877959757
 30
0.0
 10
16.35848680601918
 20
7.916200076331346
 30
0.0
 10
16.09190545555585
 20
7.915186974772603
 30
0.0
  0
SPLINE
  5
C9
330
1F
100
AcDbEntity
  8
0
  6
Continuous
 62
     1
370
    15
100
AcDbSpline
210
0.0
220
0.0
230
1.0
 70
     8
 71
     3
 72
    25
 73
    21
 74
     0
 42
0.000000001
 43
0.00000001
 40
0.0
 40
0.0
 40
0.0
 40
0.0
 40
0.0227813374863756
 40
0.0810742408875946
 40
0.1393496166414217
 40
0.1975384029549954
 40
0.2558566846576503
 40
0.3141029001661956
 40
0.3722991127487209
 40
0.4306320516150745
 40
0.4888549125371504
 40
0.5470643946970898
 40
0.605401255466514
 40
0.6636065850381384
 40
0.7196567166153042
 40
0.775795016812275
 40
0.831796063632081
 40
0.887915354720521
 40
0.9439884389939959
 40
1.0
 40
1.0
 40
1.0
 40
1.0
 10
18.89126003390623
 20
7.427320987261192
 30
0.0
 10
19.05316044312322
 20
7.488786445702498
 30
0.0
 10
19.62933174055069
 20
7.70752976518131
 30
0.0
 10
20.6210831620696
 20
7.890498591837964
 30
0.0
 10
21.86441023004398
 20
7.970070531278022
 30
0.0
 10
23.10589007178769
 20
7.842845479019915
 30
0.0
 10
24.35014353080035
 20
7.527302911165531
 30
0.0
 10
25.59284578396661
 20
7.026542673209654
 30
0.0
 10
26.83447791209279
 20
6.353140070825677
 30
0.0
 10
28.07903954522325
 20
5.526256783862596
 30
0.0
 10
29.32123962148322
 20
4.562543824473413
 30
0.0
 10
30.56315314169418
 20
3.486662934599891
 30
0.0
 10
31.80779775769937
 20
2.328227722092242
 30
0.0
 10
33.03414184708846
 20
1.125100874915525
 30
0.0
 10
34.2453968128213
 20
-0.0881038063462233
 30
0.0
 10
35.44314234212838
 20
-1.281358317580097
 30
0.0
 10
36.63786489423455
 20
-2.450083539375641
 30
0.0
 10
37.835234365079
 20
-3.557460729628115
 30
0.0
 10
39.03132396128667
 20
-4.594519517218806
 30
0.0
 10
39.82792040437155
 20
-5.194238985085531
 30
0.0
 10
40.22600000000001
 20
-5.493934125995749
 30
0.0
  0
SPLINE
  5
CA
330
1F
100
AcDbEntity
  8
0
  6
Continuous
 62
     1
370
    15
100
AcDbSpline
210
0.0
220
0.0
230
1.0
 70
     8
 71
     3
 72
     8
 73
     4
 74
     0
 42
0.000000001
 43
0.00000001
 40
0.0
 40
0.0
 40
0.0
 40
0.0
 40
1.0
 40
1.0
 40
1.0
 40
1.0
 10
40.22600000000001
 20
-5.493934125995749
 30
0.0
 10
40.26095114307082
 20
-5.519162593127146
 30
0.0
 10
40.29545935163951
 20
-5.543492670437204
 30
0.0
 10
40.32957148333478
 20
-5.566952247763297
 30
0.0
  0
SPLINE
  5
CB
330
1F
100
AcDbEntity
  8
0
  6
Continuous
 62
     1
370
    15
100
AcDbSpline
210
0.0
220
0.0
230
1.0
 70
     8
 71
     3
 72
    11
 73
     7
 74
     0
 42
0.000000001
 43
0.00000001
 40
0.0
 40
0.0
 40
0.0
 40
0.0
 40
0.160476224874536
 40
0.5231313897591353
 40
0.8992330735203726
 40
1.0
 40
1.0
 40
1.0
 40
1.0
 10
39.77211585918722
 20
-5.143589169443636
 30
0.0
 10
39.74688710496646
 20
-5.141706842061304
 30
0.0
 10
39.66464468389933
 20
-5.135570702329264
 30
0.0
 10
39.49000351935963
 20
-5.166342227519348
 30
0.0
 10
39.31235272205605
 20
-5.219986362213384
 30
0.0
 10
39.20550903552367
 20
-5.263858300035731
 30
0.0
 10
39.18293193635124
 20
-5.273128862698328
 30
0.0
  0
SPLINE
  5
CC
330
1F
100
AcDbEntity
  8
0
  6
Continuous
 62
     1
370
    15
100
AcDbSpline
210
0.0
220
0.0
230
1.0
 70
     8
 71
     3
 72
     8
 73
     4
 74
     0
 42
0.000000001
 43
0.00000001
 40
0.0844462832510982
 40
0.0844462832510982
 40
0.0844462832510982
 40
0.0844462832510982
 40
1.0
 40
1.0
 40
1.0
 40
1.0
 10
41.53315577498108
 20
-6.018597417316741
 30
0.0
 10
40.74944138710972
 20
-5.831305314001516
 30
0.0
 10
39.96525270517903
 20
-5.583001154911706
 30
0.0
 10
39.18293193635123
 20
-5.273128862698321
 30
0.0
  0
SPLINE
  5
CE
330
1F
100
AcDbEntity
  8
0
  6
Continuous
 62
     1
370
    15
100
AcDbSpline
210
0.0
220
0.0
230
1.0
 70
     8
 71
     3
 72
    17
 73
    13
 74
     0
 42
0.000000001
 43
0.00000001
 40
0.0
 40
0.0
 40
0.0
 40
0.0
 40
0.0966364059985879
 40
0.1933522443193322
 40
0.2898703599593458
 40
0.3866661019907521
 40
0.4831909434193127
 40
0.5895084811363208
 40
0.6959076028826474
 40
0.8020900823175107
 40
0.9084654374566288
 40
1.0
 40
1.0
 40
1.0
 40
1.0
 10
10.00000000000033
 20
-0.7764109331542911
 30
0.0
 10
10.37648554431063
 20
-1.149753714522644
 30
0.0
 10
11.12976609312622
 20
-1.896746154194373
 30
0.0
 10
12.26055688151528
 20
-2.972704619341554
 30
0.0
 10
13.38881136565969
 20
-3.99303733989975
 30
0.0
 10
14.52052570491499
 20
-4.928093936957134
 30
0.0
 10
15.68645115842205
 20
-5.795124104900727
 30
0.0
 10
16.89195549490527
 20
-6.557343245344207
 30
0.0
 10
18.13591572822034
 20
-7.184131152867647
 30
0.0
 10
19.37733946948618
 20
-7.631122987286179
 30
0.0
 10
20.56342139613223
 20
-7.896752357612029
 30
0.0
 10
21.3347661500111
 20
-7.916646374984667
 30
0.0
 10
21.69151787545873
 20
-7.925847481219047
 30
0.0
  0
LINE
  5
CF
330
1F
100
AcDbEntity
  8
0
  6
Continuous
 62
     1
370
    15
100
AcDbLine
 10
40.226
 20
-5.49393412599575
 30
0.0
 11
40.22600000000001
 21
-3.255144396515081
 31
0.0
  0
SPLINE
  5
D0
330
1F
100
AcDbEntity
  8
0
  6
Continuous
 62
     1
370
    15
100
AcDbSpline
210
0.0
220
0.0
230
1.0
 70
     8
 71
     3
 72
    15
 73
    11
 74
     0
 42
0.000000001
 43
0.00000001
 40
0.0
 40
0.0
 40
0.0
 40
0.0
 40
0.0849554566931854
 40
0.2248589946963876
 40
0.3646552583710163
 40
0.491575167101565
 40
0.6188512813361008
 40
0.7457623463694649
 40
0.8729333957158916
 40
1.0
 40
1.0
 40
1.0
 40
1.0
 10
18.89126003390617
 20
-7.427320987261194
 30
0.0
 10
18.63965996392915
 20
-7.516375563061449
 30
0.0
 10
17.97372818034882
 20
-7.752084052745375
 30
0.0
 10
16.89196268773586
 20
-7.92453668833626
 30
0.0
 10
15.68644942842761
 20
-7.958036914933104
 30
0.0
 10
14.52052615082949
 20
-7.807804963954132
 30
0.0
 10
13.38881124646646
 20
-7.507990433381983
 30
0.0
 10
12.26055691333488
 20
-7.05201431663145
 30
0.0
 10
11.12976608517187
 20
-6.463372917068586
 30
0.0
 10
10.37648554165969
 20
-5.962424720409464
 30
0.0
 10
10.00000000000001
 20
-5.712053521011025
 30
0.0
  0
SPLINE
  5
D1
330
1F
100
AcDbEntity
  8
0
  6
Continuous
 62
     1
370
    15
100
AcDbSpline
210
0.0
220
0.0
230
1.0
 70
    24
 71
     3
 72
    18
 73
    14
 74
     0
 42
0.000000001
 43
0.00000001
 40
0.0
 40
0.0
 40
0.0
 40
0.0
 40
0.25
 40
0.25
 40
0.5
 40
0.5
 40
0.625
 40
0.625
 40
0.75
 40
0.75
 40
0.875
 40
0.875
 40
1.0
 40
1.0
 40
1.0
 40
1.0
 10
10.00000000000001
 20
-0.7764109331545056
 30
0.0
 10
10.00000000000001
 20
-0.8908002061846884
 30
0.0
 10
10.00000000000001
 20
-1.056560191485604
 30
0.0
 10
10.00000000000001
 20
-1.54943917389501
 30
0.0
 10
10.00000000000001
 20
-1.87879848222758
 30
0.0
 10
10.00000000000001
 20
-2.521509397014906
 30
0.0
 10
10.00000000000001
 20
-2.760098558767153
 30
0.0
 10
10.00000000000001
 20
-3.280686386150785
 30
0.0
 10
10.00000000000001
 20
-3.562724941970211
 30
0.0
 10
10.00000000000001
 20
-4.155532225391456
 30
0.0
 10
10.00000000000001
 20
-4.466208740521862
 30
0.0
 10
10.00000000000001
 20
-5.092571350792123
 30
0.0
 10
10.00000000000001
 20
-5.40803111823883
 30
0.0
 10
10.00000000000001
 20
-5.712053521011025
 30
0.0
  0
LINE
  5
D2
330
1F
100
AcDbEntity
  8
0
  6
Continuous
 62
     1
370
    15
100
AcDbLine
 10
41.75000000000001
 20
-0.8660254037844425
 30
0.0
 11
41.75000000000001
 21
2.301504479657847
 31
0.0
  0
LINE
  5
D3
330
1F
100
AcDbEntity
  8
0
  6
Continuous
 62
     1
370
    15
100
AcDbLine
 10
39.18293193635122
 20
0.4277506606739697
 30
0.0
 11
41.75000000000001
 21
-0.8660254037844425
 31
0.0
  0
SPLINE
  5
D4
330
1F
100
AcDbEntity
  8
0
  6
Continuous
 62
     1
370
    15
100
AcDbSpline
210
0.0
220
0.0
230
1.0
 70
     8
 71
     3
 72
    16
 73
    12
 74
     0
 42
0.000000001
 43
0.00000001
 40
0.0
 40
0.0
 40
0.0
 40
0.0
 40
0.2499999999999979
 40
0.2499999999999979
 40
0.374999999999998
 40
0.374999999999998
 40
0.4999999999999981
 40
0.4999999999999981
 40
0.749999999999999
 40
0.749999999999999
 40
1.0
 40
1.0
 40
1.0
 40
1.0
 10
41.74999999999999
 20
2.301504479657845
 30
0.0
 10
41.75000000000001
 20
2.403986197921057
 30
0.0
 10
41.70766148609054
 20
2.481388414192403
 30
0.0
 10
41.58781797076607
 20
2.544311604323525
 30
0.0
 10
41.53801320139082
 20
2.556937566388597
 30
0.0
 10
41.42534501604452
 20
2.565110802708568
 30
0.0
 10
41.36170797014893
 20
2.560924315125328
 30
0.0
 10
41.15448194037824
 20
2.525432191372687
 30
0.0
 10
40.99675405091171
 20
2.471590892628416
 30
0.0
 10
40.66939704419345
 20
2.321147702915697
 30
0.0
 10
40.49803584896085
 20
2.223760598222409
 30
0.0
 10
40.32957148333428
 20
2.112212791839495
 30
0.0
  0
LINE
  5
D5
330
1F
100
AcDbEntity
  8
0
  6
Continuous
 62
     1
370
    15
100
AcDbLine
 10
40.226
 20
2.214428461641806
 30
0.0
 11
40.22600000000001
 21
4.641874021774776
 31
0.0
  0
SPLINE
  5
D6
330
1F
100
AcDbEntity
  8
0
  6
Continuous
 62
     1
370
    15
100
AcDbSpline
210
0.0
220
0.0
230
1.0
 70
     8
 71
     3
 72
    22
 73
    18
 74
     0
 42
0.000000001
 43
0.00000001
 40
0.0
 40
0.0
 40
0.0
 40
0.0
 40
0.1249999999999991
 40
0.1249999999999991
 40
0.2499999999999982
 40
0.2499999999999982
 40
0.3749999999999972
 40
0.3749999999999972
 40
0.4374999999999978
 40
0.4374999999999978
 40
0.4999999999999983
 40
0.4999999999999983
 40
0.6249999999999988
 40
0.6249999999999988
 40
0.7499999999999991
 40
0.7499999999999991
 40
1.0
 40
1.0
 40
1.0
 40
1.0
 10
41.75000000000001
 20
4.124082064810048
 30
0.0
 10
41.75000000000001
 20
4.041687152901044
 30
0.0
 10
41.74919136918987
 20
3.965649134036209
 30
0.0
 10
41.74039327505118
 20
3.828765109099986
 30
0.0
 10
41.73260552933848
 20
3.767732880036815
 30
0.0
 10
41.69892622269464
 20
3.668896467156452
 30
0.0
 10
41.67288567055424
 20
3.631118186445439
 30
0.0
 10
41.60533113578106
 20
3.611723860437879
 30
0.0
 10
41.57853298675205
 20
3.611698117200733
 30
0.0
 10
41.5141874495791
 20
3.626640215056189
 30
0.0
 10
41.47601116449384
 20
3.642095965765878
 30
0.0
 10
41.35094945025416
 20
3.708721554034015
 30
0.0
 10
41.24991398571343
 20
3.781881043722752
 30
0.0
 10
41.04349236323361
 20
3.945954669514687
 30
0.0
 10
40.93819962714179
 20
4.036002184259119
 30
0.0
 10
40.6249743961533
 20
4.305892314613705
 30
0.0
 10
40.42171397415661
 20
4.483101051036799
 30
0.0
 10
40.22600000000001
 20
4.641874021774778
 30
0.0
  0
LINE
  5
D7
330
1F
100
AcDbEntity
  8
0
  6
Continuous
 62
     1
370
    15
100
AcDbLine
 10
41.75000000000001
 20
2.301504479657847
 30
0.0
 11
41.75000000000001
 21
4.124082064810048
 31
0.0
  0
SPLINE
  5
D8
330
1F
100
AcDbEntity
  8
0
  6
Continuous
 62
     1
370
    15
100
AcDbSpline
210
0.0
220
0.0
230
1.0
 70
     8
 71
     3
 72
    14
 73
    10
 74
     0
 42
0.000000001
 43
0.00000001
 40
0.0
 40
0.0
 40
0.0
 40
0.0
 40
0.1591320517783852
 40
0.3184388946821905
 40
0.4778770137928975
 40
0.6369791941663016
 40
0.7964713192427175
 40
0.9557129522221445
 40
1.0
 40
1.0
 40
1.0
 40
1.0
 10
40.22600000000001
 20
4.641874021774775
 30
0.0
 10
39.82792034037079
 20
4.955018659092946
 30
0.0
 10
39.03132376921408
 20
5.581651892742974
 30
0.0
 10
37.83523513461818
 20
6.366994853480661
 30
0.0
 10
36.63786200848261
 20
7.013929729978755
 30
0.0
 10
35.44315310113698
 20
7.505199800501415
 30
0.0
 10
34.24535657307402
 20
7.811026294008566
 30
0.0
 10
33.3371924173903
 20
7.950145591562367
 30
0.0
 10
32.8279230412264
 20
7.924115139012358
 30
0.0
 10
32.71710800960505
 20
7.918451013978617
 30
0.0
  0
LINE
  5
D9
330
1F
100
AcDbEntity
  8
0
  6
Continuous
 62
     1
370
    15
100
AcDbLine
 10
10.57921089143372
 20
-7.430195031422239
 30
0.0
 11
10.00000000000001
 21
-7.629103663021277
 31
0.0
  0
LINE
  5
DA
330
1F
100
AcDbEntity
  8
0
  6
Continuous
 62
     1
370
    15
100
AcDbLine
 10
41.75000000000001
 20
-4.033555287226766
 30
0.0
 11
41.74999999999999
 21
-2.191627622976941
 31
0.0
  0
SPLINE
  5
DB
330
1F
100
AcDbEntity
  8
0
  6
Continuous
 62
     1
370
    15
100
AcDbSpline
210
0.0
220
0.0
230
1.0
 70
     8
 71
     3
 72
    16
 73
    12
 74
     0
 42
0.000000001
 43
0.00000001
 40
0.0
 40
0.0
 40
0.0
 40
0.0
 40
0.2499999999999975
 40
0.2499999999999975
 40
0.3749999999999979
 40
0.3749999999999979
 40
0.4999999999999983
 40
0.4999999999999983
 40
0.7499999999999991
 40
0.7499999999999991
 40
1.0
 40
1.0
 40
1.0
 40
1.0
 10
41.74999999999999
 20
-4.033555287226768
 30
0.0
 10
41.75000000000001
 20
-4.136037005489982
 30
0.0
 10
41.70766148609054
 20
-4.264787161093931
 30
0.0
 10
41.58781797076607
 20
-4.473055971230596
 30
0.0
 10
41.53801320139082
 20
-4.546084910164982
 30
0.0
 10
41.42534501604452
 20
-4.690901561939882
 30
0.0
 10
41.36170797014891
 20
-4.763893767471356
 30
0.0
 10
41.15448194037824
 20
-4.97972434313025
 30
0.0
 10
40.99675405091171
 20
-5.117174645142284
 30
0.0
 10
40.66939704419344
 20
-5.363748406875052
 30
0.0
 10
40.49803584896085
 20
-5.474187308441192
 30
0.0
 10
40.32957148333428
 20
-5.566952247762908
 30
0.0
  0
SPLINE
  5
DC
330
1F
100
AcDbEntity
  8
0
  6
Continuous
 62
     1
370
    15
100
AcDbSpline
210
0.0
220
0.0
230
1.0
 70
     8
 71
     3
 72
    10
 73
     6
 74
     0
 42
0.000000001
 43
0.00000001
 40
0.0
 40
0.0
 40
0.0
 40
0.0
 40
0.334429423809567
 40
0.6691337389031808
 40
1.0
 40
1.0
 40
1.0
 40
1.0
 10
10.00000000000033
 20
-7.22931789327051
 30
0.0
 10
10.37650095973766
 20
-7.370079732577826
 30
0.0
 10
11.12981235207833
 20
-7.651719113340644
 30
0.0
 10
12.25681748232624
 20
-7.890200139732548
 30
0.0
 10
13.00556716238115
 20
-7.921293256944534
 30
0.0
 10
13.3777831466802
 20
-7.936750165356348
 30
0.0
  0
SPLINE
  5
DD
330
1F
100
AcDbEntity
  8
0
  6
Continuous
 62
     1
370
    15
100
AcDbSpline
210
0.0
220
0.0
230
1.0
 70
     8
 71
     3
 72
    10
 73
     6
 74
     0
 42
0.000000001
 43
0.00000001
 40
0.0
 40
0.0
 40
0.0
 40
0.0
 40
0.2380902737074995
 40
0.49229261068133
 40
0.6497853993994847
 40
0.6497853993994847
 40
0.6497853993994847
 40
0.6497853993994847
 10
35.51685101186895
 20
7.444176486607065
 30
0.0
 10
35.89030527923565
 20
7.561181174387506
 30
0.0
 10
36.66248623979813
 20
7.803108500155343
 30
0.0
 10
37.68355580037314
 20
7.929735294118096
 30
0.0
 10
38.32999972582417
 20
7.942834474255478
 30
0.0
 10
38.57723959319661
 20
7.93494558987584
 30
0.0
  0
SPLINE
  5
DF
330
1F
100
AcDbEntity
  8
0
  6
Continuous
 62
     1
370
    15
100
AcDbSpline
210
0.0
220
0.0
230
1.0
 70
     8
 71
     3
 72
    18
 73
    14
 74
     0
 42
0.000000001
 43
0.00000001
 40
0.0772930179358422
 40
0.0772930179358422
 40
0.0772930179358422
 40
0.0772930179358422
 40
0.2500000000000008
 40
0.2500000000000008
 40
0.5000000000000006
 40
0.5000000000000006
 40
0.6250000000000004
 40
0.6250000000000004
 40
0.7500000000000002
 40
0.7500000000000002
 40
0.8750000000000001
 40
0.8750000000000001
 40
1.0
 40
1.0
 40
1.0
 40
1.0
 10
40.30094477026535
 20
7.484433452256742
 30
0.0
 10
40.27681627547751
 20
7.340543342722328
 30
0.0
 10
40.24623922113928
 20
7.199292684016132
 30
0.0
 10
40.15271829145149
 20
6.861223135544495
 30
0.0
 10
40.08084107203997
 20
6.666038629125293
 30
0.0
 10
39.94028294579748
 20
6.393333883760254
 30
0.0
 10
39.8886417325939
 20
6.307137699506538
 30
0.0
 10
39.77440097097517
 20
6.145513478749936
 30
0.0
 10
39.71105057947931
 20
6.06943577089826
 30
0.0
 10
39.57489696942953
 20
5.933857392783465
 30
0.0
 10
39.50260591737602
 20
5.874591668212917
 30
0.0
 10
39.34923164623309
 20
5.773842689578069
 30
0.0
 10
39.26711916861973
 20
5.732022169808569
 30
0.0
 10
39.18293193635123
 20
5.70087952337228
 30
0.0
  0
SPLINE
  5
E0
330
1F
100
AcDbEntity
  8
0
  6
Continuous
 62
     1
370
    15
100
AcDbSpline
210
0.0
220
0.0
230
1.0
 70
     8
 71
     3
 72
     8
 73
     4
 74
     0
 42
0.000000001
 43
0.00000001
 40
0.0
 40
0.0
 40
0.0
 40
0.0
 40
1.0
 40
1.0
 40
1.0
 40
1.0
 10
41.75000000000001
 20
4.702505203340666
 30
0.0
 10
40.89411688316857
 20
5.101375785900134
 30
0.0
 10
40.0374102203844
 20
5.435066190990695
 30
0.0
 10
39.18293193635122
 20
5.700879523372286
 30
0.0
  0
LINE
  5
E1
330
1F
100
AcDbEntity
  8
0
  6
Continuous
 62
     1
370
    15
100
AcDbLine
 10
41.75000000000001
 20
4.124082064810048
 30
0.0
 11
41.75000000000001
 21
4.70250520334067
 31
0.0
  0
SPLINE
  5
E2
330
1F
100
AcDbEntity
  8
0
  6
Continuous
 62
     1
370
    15
100
AcDbSpline
210
0.0
220
0.0
230
1.0
 70
    24
 71
     3
 72
     9
 73
     5
 74
     0
 42
0.000000001
 43
0.00000001
 40
0.0
 40
0.0
 40
0.0
 40
0.0
 40
0.0665843942476468
 40
1.0
 40
1.0
 40
1.0
 40
1.0
 10
10.00000000000001
 20
-7.292123728645739
 30
0.0
 10
10.00000000000001
 20
-7.298481319387824
 30
0.0
 10
10.00000000000001
 20
-7.393963013167892
 30
0.0
 10
10.00000000000001
 20
-7.515582311757284
 30
0.0
 10
10.00000000000001
 20
-7.629103663021275
 30
0.0
  0
LINE
  5
E3
330
1F
100
AcDbEntity
  8
0
  6
Continuous
 62
     1
370
    15
100
AcDbLine
 10
41.75000000000001
 20
-0.8660254037844425
 30
0.0
 11
41.75000000000001
 21
-1.366360276448581
 31
0.0
  0
LINE
  5
E4
330
1F
100
AcDbEntity
  8
0
  6
Continuous
 62
     1
370
    15
100
AcDbLine
 10
10.00000000000001
 20
-7.229317893269426
 30
0.0
 11
10.00000000000001
 21
-5.712053521011025
 31
0.0
  0
LINE
  5
E5
330
1F
100
AcDbEntity
  8
0
  6
Continuous
 62
     1
370
    15
100
AcDbLine
 10
41.75000000000001
 20
-4.033555287226767
 30
0.0
 11
41.75000000000001
 21
-4.889499999999996
 31
0.0
  0
LINE
  5
E7
330
1F
100
AcDbEntity
  8
0
  6
Continuous
 62
     1
370
    15
100
AcDbLine
 10
41.75000000000001
 20
4.70250520334067
 30
0.0
 11
41.75000000000001
 21
4.889499999999997
 31
0.0
  0
LINE
  5
EB
330
1F
100
AcDbEntity
  8
0
  6
Continuous
 62
     8
370
    15
100
AcDbLine
 10
40.22600000000001
 20
-7.937500000000004
 30
0.0
 11
40.22600000000001
 21
-7.897018418289847
 31
0.0
  0
LINE
  5
ED
330
1F
100
AcDbEntity
  8
중심선
100
AcDbLine
 10
-50.15
 20
0.0000000000000003
 30
0.0
 11
44.75000000000001
 21
0.0000000000000003
 31
0.0
  0
CIRCLE
  5
EE
330
1F
100
AcDbEntity
  8
외형선
100
AcDbCircle
 10
0.0
 20
0.0
 30
0.0
 40
3.000000000000004
  0
INSERT
  5
EF
330
1F
100
AcDbEntity
  8
0
  6
Continuous
 62
     7
100
AcDbBlockReference
 66
     1
  2
블럭10
 10
-16.62936049909348
 20
-51.78679627639983
 30
0.0
  0
ATTRIB
  5
F0
330
EF
100
AcDbEntity
  8
FORMAT
 62
     2
100
AcDbText
 10
-27.68038085127794
 20
-49.71142936356763
 30
0.0
 40
4.233333333333333
  1
GMG22933[ 6 FLUTE ]
 41
0.75
  7
SLDTEXTSTYLE0
 11
-27.68038085127794
 21
-51.8280960302343
 31
0.0
100
AcDbAttribute
  2
AUTOATTR0
 70
     0
 74
     1
  0
SEQEND
  5
F1
330
EF
100
AcDbEntity
  8
0
  6
Continuous
 62
     7
  0
HATCH
  5
F2
330
1F
100
AcDbEntity
  8
중심선
100
AcDbHatch
 10
0.0
 20
0.0
 30
0.0
210
0.0
220
0.0
230
1.0
  2
SOLID
 70
     1
 71
     0
 91
        1
 92
        0
 93
        4
 72
     1
 10
-10.91445119471263
 20
-35.53962197475589
 11
-14.36072643854991
 21
-35.53962197475589
 72
     1
 10
-14.36072643854991
 20
-35.53962197475589
 11
-16.48895629775393
 21
-38.07594755532848
 72
     1
 10
-16.48895629775393
 20
-38.07594755532848
 11
-13.0426479688035
 21
-38.07590812602599
 72
     1
 10
-13.0426479688035
 20
-38.07590812602599
 11
-10.91445119471263
 21
-35.53962197475589
 97
        0
 75
     0
 76
     1
 98
        1
 10
0.0004859200744818
 20
0.2622744311706841
  0
HATCH
  5
F3
330
1F
100
AcDbEntity
  8
중심선
100
AcDbHatch
 10
0.0
 20
0.0
 30
0.0
210
0.0
220
0.0
230
1.0
  2
SOLID
 70
     1
 71
     0
 91
        1
 92
        0
 93
        4
 72
     1
 10
-5.901687203676677
 20
-35.53962197475589
 11
-9.347962447513959
 21
-35.53962197475589
 72
     1
 10
-9.347962447513959
 20
-35.53962197475589
 11
-13.87910045587135
 21
-40.9396219747559
 72
     1
 10
-13.87910045587135
 20
-40.9396219747559
 11
-10.43282521203406
 21
-40.9396219747559
 72
     1
 10
-10.43282521203406
 20
-40.9396219747559
 11
-5.901687203676677
 21
-35.53962197475589
 97
        0
 75
     0
 76
     1
 98
        1
 10
0.0004859200744818
 20
0.2622744311706841
  0
HATCH
  5
F4
330
1F
100
AcDbEntity
  8
중심선
100
AcDbHatch
 10
0.0
 20
0.0
 30
0.0
210
0.0
220
0.0
230
1.0
  2
SOLID
 70
     1
 71
     0
 91
        1
 92
        0
 93
        4
 72
     1
 10
-0.8889232126407813
 20
-35.53962197475592
 11
-4.335198456477897
 21
-35.53962197475589
 72
     1
 10
-4.335198456477897
 20
-35.53962197475589
 11
-11.38363535836715
 21
-43.93962197475591
 72
     1
 10
-11.38363535836715
 20
-43.93962197475591
 11
-7.937360114529864
 21
-43.93962197475591
 72
     1
 10
-7.937360114529864
 20
-43.93962197475591
 11
-0.8889232126407816
 21
-35.53962197475592
 97
        0
 75
     0
 76
     1
 98
        1
 10
0.0004859200744818
 20
0.2622744311706841
  0
HATCH
  5
F5
330
1F
100
AcDbEntity
  8
중심선
100
AcDbHatch
 10
0.0
 20
0.0
 30
0.0
210
0.0
220
0.0
230
1.0
  2
SOLID
 70
     1
 71
     0
 91
        1
 92
        0
 93
        6
 72
     3
 10
3.910967218371418
 20
-39.73962197480716
 11
3.960054785062283
 21
1.540882976769353E-10
 40
0.3939339440162628
 50
17.09539180608437
 51
320.0019657685081
 73
     0
 72
     1
 10
5.593966874072013
 20
-38.32751597939419
 11
7.899268747773052
 21
-36.39318926934627
 72
     3
 10
3.910967218318572
 20
-39.73962197475603
 11
6.600054785286829
 21
-1.278976924368180E-13
 40
0.636358354079598
 50
39.9987384933741
 51
368.4976242363725
 73
     1
 72
     1
 10
10.33629971021918
 20
-38.77962197468591
 11
2.591034525154494
 21
-38.77962197468588
 72
     1
 10
2.591034525154494
 20
-38.77962197468588
 11
2.59100948070856
 21
-40.6996219746858
 72
     1
 10
2.59100948070856
 20
-40.6996219746858
 11
7.032389250180596
 21
-40.69962197468578
 97
        0
 75
     0
 76
     1
 98
        1
 10
0.0004859200744818
 20
0.2622744311706841
  0
POINT
  5
F6
330
1F
100
AcDbEntity
  8
치수문자_일반주서
100
AcDbPoint
 10
0.0
 20
0.0
 30
0.0
  0
DIMENSION
  5
F7
330
1F
100
AcDbEntity
  8
치수문자_일반주서
100
AcDbDimension
  2
_D
 10
56.91588986860521
 20
7.937500000000067
 30
0.0
 11
56.91588986860524
 21
0.0000000000000622
 31
0.0
 70
   160
  1
%%c<>
 71
     2
 42
15.875
 52
-270.0
  3
SLDDIMSTYLE0
100
AcDbAlignedDimension
 13
38.70200000000001
 23
-7.937500000000004
 33
0.0
 14
38.27064415283225
 24
7.937499999999997
 34
0.0
 50
90.0000000000002
100
AcDbRotatedDimension
1001
ACAD
1000
DSTYLE
1002
{
1070
   171
1070
     3
1070
   273
1070
     7
1002
}
  0
DIMENSION
  5
10C
330
1F
100
AcDbEntity
  8
치수문자_일반주서
100
AcDbDimension
  2
_D_1
 10
41.75000000000001
 20
40.59305141807177
 30
0.0
 11
-2.700000000000004
 21
40.59305141807177
 31
0.0
 70
   160
  1
<>
 71
     2
 42
88.90000000000002
  3
SLDDIMSTYLE1
100
AcDbAlignedDimension
 13
-47.15000000000001
 23
7.437499999999989
 33
0.0
 14
41.75000000000001
 24
6.413499999999997
 34
0.0
100
AcDbRotatedDimension
1001
ACAD
1000
DSTYLE
1002
{
1070
   171
1070
     3
1070
   273
1070
     7
1002
}
  0
DIMENSION
  5
120
330
1F
100
AcDbEntity
  8
치수문자_일반주서
100
AcDbDimension
  2
_D_2
 10
9.999999999999998
 20
24.04049453033792
 30
0.0
 11
25.52575141487685
 21
24.04049453033792
 31
0.0
 70
   160
  1
<>
 71
     2
 42
31.75000000000002
  3
SLDDIMSTYLE2
100
AcDbAlignedDimension
 13
41.75000000000001
 23
6.413499999999997
 33
0.0
 14
9.999999999999998
 24
-7.629103663021279
 34
0.0
 50
0.0000000000000385
100
AcDbRotatedDimension
1001
ACAD
1000
DSTYLE
1002
{
1070
   171
1070
     3
1070
   273
1070
     7
1002
}
  0
INSERT
  5
14B
330
1F
100
AcDbEntity
  8
외형선
100
AcDbBlockReference
  2
SW_DOWELSYMBOL_0
 10
0.0
 20
0.0
 30
0.0
  0
DIMENSION
  5
172
102
{ACAD_REACTORS
102
}
102
{ACAD_XDICTIONARY
360
173
102
}
330
1F
100
AcDbEntity
  8
치수문자_일반주서
100
AcDbDimension
  2
*D8
 10
-55.69727297144355
 20
-7.937500000000008
 30
0.0
 11
-55.69727297144355
 21
-0.0000000000000071
 31
0.0
 70
   160
  1
{%%c<>}
 71
     5
 42
15.875
  3
SLDDIMSTYLE0
100
AcDbAlignedDimension
 13
-46.65000000000001
 23
7.937499999999993
 33
0.0
 14
-46.65000000000001
 24
-7.937500000000008
 34
0.0
 50
90.0
100
AcDbRotatedDimension
1001
ACAD
1000
DSTYLE
1002
{
1070
   171
1070
     3
1070
   273
1070
     7
1002
}
  0
ARC
  5
185
102
{ACAD_REACTORS
102
}
330
1F
100
AcDbEntity
  8
0
  6
Continuous
 62
     1
370
    15
100
AcDbCircle
 10
38.70200000000001
 20
4.889499999999997
 30
0.0
 40
3.047999999999999
100
AcDbArc
 50
0.0
 51
92.34588002570764
  0
ARC
  5
187
330
1F
100
AcDbEntity
  8
0
  6
Continuous
 62
     1
370
    15
100
AcDbCircle
 10
38.70200000000001
 20
-4.889499999999996
 30
0.0
 40
3.047999999999999
100
AcDbArc
 50
267.6541199742924
 51
0.0
  0
DIMENSION
  5
189
102
{ACAD_REACTORS
102
}
102
{ACAD_XDICTIONARY
360
18A
102
}
330
1F
100
AcDbEntity
  8
치수문자_일반주서
100
AcDbDimension
  2
*D9
 10
38.70200000000001
 20
4.889499999999997
 30
0.0
 11
54.79117724087364
 21
26.27322495261632
 31
0.0
 70
   164
  1
<>
 71
     5
 42
3.047999999999999
  3
SLDDIMSTYLE2
100
AcDbRadialDimension
 15
40.53454346767243
 25
7.325087904201183
 35
0.0
 40
0.0
1001
ACAD
1000
DSTYLE
1002
{
1070
   171
1070
     3
1070
   273
1070
     2
1002
}
1001
ACAD_DSTYLE_DIMRADIAL_EXTENSION
1070
   387
1070
     1
1070
   388
1040
0.0
1070
   390
1040
1.611739657100264
  0
ENDSEC
  0
SECTION
  2
OBJECTS
  0
DICTIONARY
  5
C
330
0
100
AcDbDictionary
281
     1
  3
ACAD_GROUP
350
D
  3
ACAD_IMAGE_VARS
350
16F
  3
ACAD_LAYOUT
350
1A
  3
ACAD_MLINESTYLE
350
17
  3
ACAD_PLOTSETTINGS
350
19
  3
ACAD_PLOTSTYLENAME
350
E
  3
ACAD_SCALELIST
350
47
  3
APPDATA
350
16D
  3
DWGPROPS
350
196
  0
DICTIONARY
  5
173
330
172
100
AcDbDictionary
280
     1
281
     1
  0
DICTIONARY
  5
18A
330
189
100
AcDbDictionary
280
     1
281
     1
  0
DICTIONARY
  5
D
102
{ACAD_REACTORS
330
C
102
}
330
C
100
AcDbDictionary
281
     1
  0
RASTERVARIABLES
  5
16F
102
{ACAD_REACTORS
330
C
102
}
330
C
100
AcDbRasterVariables
 90
        0
 70
     1
 71
     1
 72
     1
  0
DICTIONARY
  5
1A
102
{ACAD_REACTORS
330
C
102
}
330
C
100
AcDbDictionary
281
     1
  3
Layout1
350
1E
  3
Layout2
350
26
  3
Model
350
22
  0
DICTIONARY
  5
17
102
{ACAD_REACTORS
330
C
102
}
330
C
100
AcDbDictionary
281
     1
  3
Standard
350
18
  0
DICTIONARY
  5
19
102
{ACAD_REACTORS
330
C
102
}
330
C
100
AcDbDictionary
281
     1
  0
ACDBDICTIONARYWDFLT
  5
E
102
{ACAD_REACTORS
330
C
102
}
330
C
100
AcDbDictionary
281
     1
  3
Normal
350
F
100
AcDbDictionaryWithDefault
340
F
  0
DICTIONARY
  5
47
102
{ACAD_REACTORS
330
C
102
}
330
C
100
AcDbDictionary
281
     1
  3
A0
350
48
  3
A1
350
49
  3
A2
350
4A
  3
A3
350
4B
  3
A4
350
4C
  3
A5
350
4D
  3
A6
350
4E
  3
A7
350
4F
  3
A8
350
50
  3
A9
350
51
  3
B0
350
52
  3
B1
350
53
  3
B2
350
54
  3
B3
350
55
  3
B4
350
56
  3
B5
350
57
  3
B6
350
58
  3
B7
350
59
  3
B8
350
5A
  3
B9
350
5B
  3
C0
350
5C
  3
C1
350
5D
  3
C2
350
5E
  3
C3
350
5F
  3
C4
350
60
  3
C5
350
61
  3
C6
350
62
  3
C7
350
63
  3
C8
350
64
  3
C9
350
65
  3
D0
350
66
  3
D1
350
67
  3
D2
350
68
  0
DICTIONARY
  5
16D
102
{ACAD_REACTORS
330
C
102
}
330
C
100
AcDbDictionary
281
     1
  0
XRECORD
  5
196
102
{ACAD_REACTORS
330
C
102
}
330
C
100
AcDbXrecord
280
     1
  1
DWGPROPS COOKIE
  2

  3

  4

  6

  7

  8
12016016
  9

300
=
301
=
302
=
303
=
304
=
305
=
306
=
307
=
308
=
309
=
 40
0.0
 41
2458236.371956551
 42
2458241.344497107
  1

 90
        0
  0
LAYOUT
  5
1E
102
{ACAD_REACTORS
330
1A
102
}
330
1A
100
AcDbPlotSettings
  1

  2
none_device
  4

  6

 40
0.0
 41
0.0
 42
0.0
 43
0.0
 44
0.0
 45
0.0
 46
0.0
 47
0.0
 48
0.0
 49
0.0
140
0.0
141
0.0
142
1.0
143
1.0
 70
   688
 72
     1
 73
     0
 74
     5
  7

 75
    16
147
1.0
148
0.0
149
0.0
100
AcDbLayout
  1
Layout1
 70
     1
 71
     1
 10
0.0
 20
0.0
 11
420.0
 21
297.0
 12
0.0
 22
0.0
 32
0.0
 14
1.000000000000000E+20
 24
1.000000000000000E+20
 34
1.000000000000000E+20
 15
-1.000000000000000E+20
 25
-1.000000000000000E+20
 35
-1.000000000000000E+20
146
0.0
 13
0.0
 23
0.0
 33
0.0
 16
1.0
 26
0.0
 36
0.0
 17
0.0
 27
1.0
 37
0.0
 76
     0
330
1B
  0
LAYOUT
  5
26
102
{ACAD_REACTORS
330
1A
102
}
330
1A
100
AcDbPlotSettings
  1

  2
none_device
  4

  6

 40
0.0
 41
0.0
 42
0.0
 43
0.0
 44
0.0
 45
0.0
 46
0.0
 47
0.0
 48
0.0
 49
0.0
140
0.0
141
0.0
142
1.0
143
1.0
 70
   688
 72
     1
 73
     0
 74
     5
  7

 75
    16
147
1.0
148
0.0
149
0.0
100
AcDbLayout
  1
Layout2
 70
     1
 71
     2
 10
0.0
 20
0.0
 11
0.0
 21
0.0
 12
0.0
 22
0.0
 32
0.0
 14
0.0
 24
0.0
 34
0.0
 15
0.0
 25
0.0
 35
0.0
146
0.0
 13
0.0
 23
0.0
 33
0.0
 16
1.0
 26
0.0
 36
0.0
 17
0.0
 27
1.0
 37
0.0
 76
     0
330
23
  0
LAYOUT
  5
22
102
{ACAD_REACTORS
330
1A
102
}
330
1A
100
AcDbPlotSettings
  1

  2
none_device
  4
ANSI_A_(11.00_x_8.50_Inches)
  6

 40
6.35
 41
19.05
 42
6.35000508
 43
19.05000254
 44
279.4
 45
215.9
 46
106.0463130442677
 47
88.58238961766857
 48
0.0
 49
0.0
140
0.0
141
0.0
142
0.0615991591641248
143
1.0
 70
  1696
 72
     0
 73
     0
 74
     0
  7

 75
     0
147
0.0235690232323232
148
0.0
149
0.0
100
AcDbLayout
  1
Model
 70
     1
 71
     0
 10
0.0
 20
0.0
 11
420.0
 21
297.0
 12
0.0
 22
0.0
 32
0.0
 14
-60.07227297144355
 24
-49.71142936356764
 34
0.0
 15
63.86596495910877
 25
44.96805141807177
 35
0.0
146
0.0
 13
0.0
 23
0.0
 33
0.0
 16
1.0
 26
0.0
 36
0.0
 17
0.0
 27
1.0
 37
0.0
 76
     0
330
1F
331
29
  0
MLINESTYLE
  5
18
102
{ACAD_REACTORS
330
17
102
}
330
17
100
AcDbMlineStyle
  2
Standard
 70
     0
  3

 62
   256
 51
90.0
 52
90.0
 71
     2
 49
0.5
 62
   256
  6
BYLAYER
 49
-0.5
 62
   256
  6
BYLAYER
  0
ACDBPLACEHOLDER
  5
F
102
{ACAD_REACTORS
330
E
102
}
330
E
  0
SCALE
  5
48
102
{ACAD_REACTORS
330
47
102
}
330
47
100
AcDbScale
 70
     0
300
1:1
140
1.0
141
1.0
290
     1
  0
SCALE
  5
49
102
{ACAD_REACTORS
330
47
102
}
330
47
100
AcDbScale
 70
     0
300
1:2
140
1.0
141
2.0
290
     0
  0
SCALE
  5
4A
102
{ACAD_REACTORS
330
47
102
}
330
47
100
AcDbScale
 70
     0
300
1:4
140
1.0
141
4.0
290
     0
  0
SCALE
  5
4B
102
{ACAD_REACTORS
330
47
102
}
330
47
100
AcDbScale
 70
     0
300
1:5
140
1.0
141
5.0
290
     0
  0
SCALE
  5
4C
102
{ACAD_REACTORS
330
47
102
}
330
47
100
AcDbScale
 70
     0
300
1:8
140
1.0
141
8.0
290
     0
  0
SCALE
  5
4D
102
{ACAD_REACTORS
330
47
102
}
330
47
100
AcDbScale
 70
     0
300
1:10
140
1.0
141
10.0
290
     0
  0
SCALE
  5
4E
102
{ACAD_REACTORS
330
47
102
}
330
47
100
AcDbScale
 70
     0
300
1:16
140
1.0
141
16.0
290
     0
  0
SCALE
  5
4F
102
{ACAD_REACTORS
330
47
102
}
330
47
100
AcDbScale
 70
     0
300
1:20
140
1.0
141
20.0
290
     0
  0
SCALE
  5
50
102
{ACAD_REACTORS
330
47
102
}
330
47
100
AcDbScale
 70
     0
300
1:30
140
1.0
141
30.0
290
     0
  0
SCALE
  5
51
102
{ACAD_REACTORS
330
47
102
}
330
47
100
AcDbScale
 70
     0
300
1:40
140
1.0
141
40.0
290
     0
  0
SCALE
  5
52
102
{ACAD_REACTORS
330
47
102
}
330
47
100
AcDbScale
 70
     0
300
1:50
140
1.0
141
50.0
290
     0
  0
SCALE
  5
53
102
{ACAD_REACTORS
330
47
102
}
330
47
100
AcDbScale
 70
     0
300
1:100
140
1.0
141
100.0
290
     0
  0
SCALE
  5
54
102
{ACAD_REACTORS
330
47
102
}
330
47
100
AcDbScale
 70
     0
300
2:1
140
2.0
141
1.0
290
     0
  0
SCALE
  5
55
102
{ACAD_REACTORS
330
47
102
}
330
47
100
AcDbScale
 70
     0
300
4:1
140
4.0
141
1.0
290
     0
  0
SCALE
  5
56
102
{ACAD_REACTORS
330
47
102
}
330
47
100
AcDbScale
 70
     0
300
8:1
140
8.0
141
1.0
290
     0
  0
SCALE
  5
57
102
{ACAD_REACTORS
330
47
102
}
330
47
100
AcDbScale
 70
     0
300
10:1
140
10.0
141
1.0
290
     0
  0
SCALE
  5
58
102
{ACAD_REACTORS
330
47
102
}
330
47
100
AcDbScale
 70
     0
300
100:1
140
100.0
141
1.0
290
     0
  0
SCALE
  5
59
102
{ACAD_REACTORS
330
47
102
}
330
47
100
AcDbScale
 70
     0
300
1/128" = 1'-0"
140
0.0078125
141
12.0
290
     0
  0
SCALE
  5
5A
102
{ACAD_REACTORS
330
47
102
}
330
47
100
AcDbScale
 70
     0
300
1/64" = 1'-0"
140
0.015625
141
12.0
290
     0
  0
SCALE
  5
5B
102
{ACAD_REACTORS
330
47
102
}
330
47
100
AcDbScale
 70
     0
300
1/32" = 1'-0"
140
0.03125
141
12.0
290
     0
  0
SCALE
  5
5C
102
{ACAD_REACTORS
330
47
102
}
330
47
100
AcDbScale
 70
     0
300
1/16" = 1'-0"
140
0.0625
141
12.0
290
     0
  0
SCALE
  5
5D
102
{ACAD_REACTORS
330
47
102
}
330
47
100
AcDbScale
 70
     0
300
3/32" = 1'-0"
140
0.09375
141
12.0
290
     0
  0
SCALE
  5
5E
102
{ACAD_REACTORS
330
47
102
}
330
47
100
AcDbScale
 70
     0
300
1/8" = 1'-0"
140
0.125
141
12.0
290
     0
  0
SCALE
  5
5F
102
{ACAD_REACTORS
330
47
102
}
330
47
100
AcDbScale
 70
     0
300
3/16" = 1'-0"
140
0.1875
141
12.0
290
     0
  0
SCALE
  5
60
102
{ACAD_REACTORS
330
47
102
}
330
47
100
AcDbScale
 70
     0
300
1/4" = 1'-0"
140
0.25
141
12.0
290
     0
  0
SCALE
  5
61
102
{ACAD_REACTORS
330
47
102
}
330
47
100
AcDbScale
 70
     0
300
3/8" = 1'-0"
140
0.375
141
12.0
290
     0
  0
SCALE
  5
62
102
{ACAD_REACTORS
330
47
102
}
330
47
100
AcDbScale
 70
     0
300
1/2" = 1'-0"
140
0.5
141
12.0
290
     0
  0
SCALE
  5
63
102
{ACAD_REACTORS
330
47
102
}
330
47
100
AcDbScale
 70
     0
300
3/4" = 1'-0"
140
0.75
141
12.0
290
     0
  0
SCALE
  5
64
102
{ACAD_REACTORS
330
47
102
}
330
47
100
AcDbScale
 70
     0
300
1" = 1'-0"
140
1.0
141
12.0
290
     0
  0
SCALE
  5
65
102
{ACAD_REACTORS
330
47
102
}
330
47
100
AcDbScale
 70
     0
300
1-1/2" = 1'-0"
140
1.5
141
12.0
290
     0
  0
SCALE
  5
66
102
{ACAD_REACTORS
330
47
102
}
330
47
100
AcDbScale
 70
     0
300
3" = 1'-0"
140
3.0
141
12.0
290
     0
  0
SCALE
  5
67
102
{ACAD_REACTORS
330
47
102
}
330
47
100
AcDbScale
 70
     0
300
6" = 1'-0"
140
6.0
141
12.0
290
     0
  0
SCALE
  5
68
102
{ACAD_REACTORS
330
47
102
}
330
47
100
AcDbScale
 70
     0
300
1'-0" = 1'-0"
140
12.0
141
12.0
290
     0
  0
ENDSEC
  0
EOF
