  0
SECTION
  2
HEADER
  9
$ACADVER
  1
AC1015
  9
$ACADMAINTVER
 70
     6
  9
$DWGCODEPAGE
  3
ANSI_949
  9
$INSBASE
 10
0.0
 20
0.0
 30
0.0
  9
$EXTMIN
 10
-58.3918685983045
 20
-49.71142936356764
 30
0.0
  9
$EXTMAX
 10
68.24978664481978
 20
44.96805141807177
 30
0.0
  9
$LIMMIN
 10
0.0
 20
0.0
  9
$LIMMAX
 10
420.0
 20
297.0
  9
$ORTHOMODE
 70
     0
  9
$REGENMODE
 70
     1
  9
$FILLMODE
 70
     1
  9
$QTEXTMODE
 70
     0
  9
$MIRRTEXT
 70
     1
  9
$LTSCALE
 40
1.0
  9
$ATTMODE
 70
     1
  9
$TEXTSIZE
 40
3.5
  9
$TRACEWID
 40
1.0
  9
$TEXTSTYLE
  7
Standard
  9
$CLAYER
  8
0
  9
$CELTYPE
  6
ByLayer
  9
$CECOLOR
 62
   256
  9
$CELTSCALE
 40
1.0
  9
$DISPSILH
 70
     0
  9
$DIMSCALE
 40
1.0
  9
$DIMASZ
 40
3.302
  9
$DIMEXO
 40
1.0
  9
$DIMDLI
 40
3.75
  9
$DIMRND
 40
0.0
  9
$DIMDLE
 40
0.0
  9
$DIMEXE
 40
1.0
  9
$DIMTP
 40
0.0
  9
$DIMTM
 40
0.0
  9
$DIMTXT
 40
3.5
  9
$DIMCEN
 40
2.5
  9
$DIMTSZ
 40
0.0
  9
$DIMTOL
 70
     0
  9
$DIMLIM
 70
     0
  9
$DIMTIH
 70
     1
  9
$DIMTOH
 70
     1
  9
$DIMSE1
 70
     0
  9
$DIMSE2
 70
     0
  9
$DIMTAD
 70
     1
  9
$DIMZIN
 70
     0
  9
$DIMBLK
  1

  9
$DIMASO
 70
     1
  9
$DIMSHO
 70
     1
  9
$DIMPOST
  1

  9
$DIMAPOST
  1

  9
$DIMALT
 70
     0
  9
$DIMALTD
 70
     3
  9
$DIMALTF
 40
0.0393700787401575
  9
$DIMLFAC
 40
1.0
  9
$DIMTOFL
 70
     1
  9
$DIMTVP
 40
0.0
  9
$DIMTIX
 70
     0
  9
$DIMSOXD
 70
     0
  9
$DIMSAH
 70
     0
  9
$DIMBLK1
  1

  9
$DIMBLK2
  1

  9
$DIMSTYLE
  2
ISO-25
  9
$DIMCLRD
 70
     0
  9
$DIMCLRE
 70
     0
  9
$DIMCLRT
 70
     0
  9
$DIMTFAC
 40
1.0
  9
$DIMGAP
 40
1.524
  9
$DIMJUST
 70
     0
  9
$DIMSD1
 70
     0
  9
$DIMSD2
 70
     0
  9
$DIMTOLJ
 70
     0
  9
$DIMTZIN
 70
     0
  9
$DIMALTZ
 70
     0
  9
$DIMALTTZ
 70
     0
  9
$DIMUPT
 70
     0
  9
$DIMDEC
 70
     2
  9
$DIMTDEC
 70
     2
  9
$DIMALTU
 70
     2
  9
$DIMALTTD
 70
     3
  9
$DIMTXSTY
  7
Standard
  9
$DIMAUNIT
 70
     0
  9
$DIMADEC
 70
     2
  9
$DIMALTRND
 40
0.0
  9
$DIMAZIN
 70
     0
  9
$DIMDSEP
 70
    44
  9
$DIMATFIT
 70
     3
  9
$DIMFRAC
 70
     0
  9
$DIMLDRBLK
  1

  9
$DIMLUNIT
 70
     2
  9
$DIMLWD
 70
    -2
  9
$DIMLWE
 70
    -2
  9
$DIMTMOVE
 70
     0
  9
$LUNITS
 70
     2
  9
$LUPREC
 70
     2
  9
$SKETCHINC
 40
1.0
  9
$FILLETRAD
 40
10.0
  9
$AUNITS
 70
     0
  9
$AUPREC
 70
     2
  9
$MENU
  1
.
  9
$ELEVATION
 40
0.0
  9
$PELEVATION
 40
0.0
  9
$THICKNESS
 40
0.0
  9
$LIMCHECK
 70
     0
  9
$CHAMFERA
 40
0.0
  9
$CHAMFERB
 40
0.0
  9
$CHAMFERC
 40
0.0
  9
$CHAMFERD
 40
0.0
  9
$SKPOLY
 70
     0
  9
$TDCREATE
 40
2458236.746790081
  9
$TDUCREATE
 40
2458236.371790081
  9
$TDUPDATE
 40
2458241.72170331
  9
$TDUUPDATE
 40
2458241.34670331
  9
$TDINDWG
 40
0.0005354398
  9
$TDUSRTIMER
 40
2458241.344517778
  9
$USRTIMER
 70
     1
  9
$ANGBASE
 50
0.0
  9
$ANGDIR
 70
     0
  9
$PDMODE
 70
     0
  9
$PDSIZE
 40
-1.0
  9
$PLINEWID
 40
0.0
  9
$SPLFRAME
 70
     0
  9
$SPLINETYPE
 70
     6
  9
$SPLINESEGS
 70
     8
  9
$HANDSEED
  5
191
  9
$SURFTAB1
 70
     6
  9
$SURFTAB2
 70
     6
  9
$SURFTYPE
 70
     6
  9
$SURFU
 70
     6
  9
$SURFV
 70
     6
  9
$UCSBASE
  2

  9
$UCSNAME
  2

  9
$UCSORG
 10
0.0
 20
0.0
 30
0.0
  9
$UCSXDIR
 10
1.0
 20
0.0
 30
0.0
  9
$UCSYDIR
 10
0.0
 20
1.0
 30
0.0
  9
$UCSORTHOREF
  2

  9
$UCSORTHOVIEW
 70
     0
  9
$UCSORGTOP
 10
0.0
 20
0.0
 30
0.0
  9
$UCSORGBOTTOM
 10
0.0
 20
0.0
 30
0.0
  9
$UCSORGLEFT
 10
0.0
 20
0.0
 30
0.0
  9
$UCSORGRIGHT
 10
0.0
 20
0.0
 30
0.0
  9
$UCSORGFRONT
 10
0.0
 20
0.0
 30
0.0
  9
$UCSORGBACK
 10
0.0
 20
0.0
 30
0.0
  9
$PUCSBASE
  2

  9
$PUCSNAME
  2

  9
$PUCSORG
 10
0.0
 20
0.0
 30
0.0
  9
$PUCSXDIR
 10
1.0
 20
0.0
 30
0.0
  9
$PUCSYDIR
 10
0.0
 20
1.0
 30
0.0
  9
$PUCSORTHOREF
  2

  9
$PUCSORTHOVIEW
 70
     0
  9
$PUCSORGTOP
 10
0.0
 20
0.0
 30
0.0
  9
$PUCSORGBOTTOM
 10
0.0
 20
0.0
 30
0.0
  9
$PUCSORGLEFT
 10
0.0
 20
0.0
 30
0.0
  9
$PUCSORGRIGHT
 10
0.0
 20
0.0
 30
0.0
  9
$PUCSORGFRONT
 10
0.0
 20
0.0
 30
0.0
  9
$PUCSORGBACK
 10
0.0
 20
0.0
 30
0.0
  9
$USERI1
 70
     0
  9
$USERI2
 70
     0
  9
$USERI3
 70
     0
  9
$USERI4
 70
     0
  9
$USERI5
 70
     0
  9
$USERR1
 40
0.0
  9
$USERR2
 40
0.0
  9
$USERR3
 40
0.0
  9
$USERR4
 40
0.0
  9
$USERR5
 40
0.0
  9
$WORLDVIEW
 70
     1
  9
$SHADEDGE
 70
     3
  9
$SHADEDIF
 70
    70
  9
$TILEMODE
 70
     1
  9
$MAXACTVP
 70
    64
  9
$PINSBASE
 10
0.0
 20
0.0
 30
0.0
  9
$PLIMCHECK
 70
     0
  9
$PEXTMIN
 10
1.000000000000000E+20
 20
1.000000000000000E+20
 30
1.000000000000000E+20
  9
$PEXTMAX
 10
-1.000000000000000E+20
 20
-1.000000000000000E+20
 30
-1.000000000000000E+20
  9
$PLIMMIN
 10
0.0
 20
0.0
  9
$PLIMMAX
 10
0.0
 20
0.0
  9
$UNITMODE
 70
     0
  9
$VISRETAIN
 70
     1
  9
$PLINEGEN
 70
     0
  9
$PSLTSCALE
 70
     1
  9
$TREEDEPTH
 70
  3020
  9
$CMLSTYLE
  2
Standard
  9
$CMLJUST
 70
     0
  9
$CMLSCALE
 40
20.0
  9
$PROXYGRAPHICS
 70
     1
  9
$MEASUREMENT
 70
     1
  9
$CELWEIGHT
370
    -1
  9
$ENDCAPS
280
     0
  9
$JOINSTYLE
280
     0
  9
$LWDISPLAY
290
     1
  9
$INSUNITS
 70
     4
  9
$HYPERLINKBASE
  1

  9
$STYLESHEET
  1

  9
$XEDIT
290
     1
  9
$CEPSNTYPE
380
     0
  9
$PSTYLEMODE
290
     1
  9
$FINGERPRINTGUID
  2
{17793181-9BED-4D67-9C09-0580A2DA37C5}
  9
$VERSIONGUID
  2
{FAEB1C32-E019-11D5-929B-00C0DF256EC4}
  9
$EXTNAMES
290
     1
  9
$PSVPSCALE
 40
0.0
  9
$OLESTARTUP
290
     0
  0
ENDSEC
  0
SECTION
  2
CLASSES
  0
CLASS
  1
ACDBDICTIONARYWDFLT
  2
AcDbDictionaryWithDefault
  3
ObjectDBX Classes
 90
        0
280
     0
281
     0
  0
CLASS
  1
VISUALSTYLE
  2
AcDbVisualStyle
  3
ObjectDBX Classes
 90
     4095
280
     0
281
     0
  0
CLASS
  1
MATERIAL
  2
AcDbMaterial
  3
ObjectDBX Classes
 90
     1153
280
     0
281
     0
  0
CLASS
  1
SCALE
  2
AcDbScale
  3
ObjectDBX Classes
 90
     1153
280
     0
281
     0
  0
CLASS
  1
SUN
  2
AcDbSun
  3
SCENEOE
 90
     1153
280
     0
281
     0
  0
CLASS
  1
ACDBPLACEHOLDER
  2
AcDbPlaceHolder
  3
ObjectDBX Classes
 90
        0
280
     0
281
     0
  0
CLASS
  1
LAYOUT
  2
AcDbLayout
  3
ObjectDBX Classes
 90
        0
280
     0
281
     0
  0
CLASS
  1
TABLESTYLE
  2
AcDbTableStyle
  3
ObjectDBX Classes
 90
     4095
280
     0
281
     0
  0
CLASS
  1
MLEADERSTYLE
  2
AcDbMLeaderStyle
  3
ACDB_MLEADERSTYLE_CLASS
 90
     4095
280
     0
281
     0
  0
CLASS
  1
RASTERVARIABLES
  2
AcDbRasterVariables
  3
ISM
 90
        0
280
     0
281
     0
  0
CLASS
  1
DIMASSOC
  2
AcDbDimAssoc
  3
"AcDbDimAssoc|Product Desc:     AcDim ARX App For Dimension|Company:          Autodesk, Inc.|WEB Address:      www.autodesk.com"
 90
        0
280
     0
281
     0
  0
ENDSEC
  0
SECTION
  2
TABLES
  0
TABLE
  2
VPORT
  5
8
330
0
100
AcDbSymbolTable
 70
     1
  0
VPORT
  5
29
330
8
100
AcDbSymbolTableRecord
100
AcDbViewportTableRecord
  2
*Active
 70
     0
 10
0.0
 20
0.0
 11
1.0
 21
1.0
 12
56.02011404237334
 22
27.17345517178377
 13
0.0
 23
0.0
 14
10.0
 24
10.0
 15
10.0
 25
10.0
 16
0.0
 26
0.0
 36
1.0
 17
0.0
 27
0.0
 37
0.0
 40
44.7066064901634
 41
1.321695760598504
 42
50.0
 43
0.0
 44
0.0
 50
0.0
 51
0.0
 71
    16
 72
  2000
 73
     1
 74
     3
 75
     0
 76
     0
 77
     0
 78
     0
281
     0
 65
     1
110
0.0
120
0.0
130
0.0
111
1.0
121
0.0
131
0.0
112
0.0
122
1.0
132
0.0
 79
     0
146
0.0
  0
ENDTAB
  0
TABLE
  2
LTYPE
  5
5
330
0
100
AcDbSymbolTable
 70
     6
  0
LTYPE
  5
14
330
5
100
AcDbSymbolTableRecord
100
AcDbLinetypeTableRecord
  2
ByBlock
 70
     0
  3

 72
    65
 73
     0
 40
0.0
  0
LTYPE
  5
15
330
5
100
AcDbSymbolTableRecord
100
AcDbLinetypeTableRecord
  2
ByLayer
 70
     0
  3

 72
    65
 73
     0
 40
0.0
  0
LTYPE
  5
16
330
5
100
AcDbSymbolTableRecord
100
AcDbLinetypeTableRecord
  2
Continuous
 70
     0
  3
Solid line
 72
    65
 73
     0
 40
0.0
  0
LTYPE
  5
6A
330
5
100
AcDbSymbolTableRecord
100
AcDbLinetypeTableRecord
  2
HIDDEN
 70
     0
  3
Hidden __ __ __ __ __ __ __ __ __ __ __ __ __ __
 72
    65
 73
     2
 40
1.905
 49
1.27
 74
     0
 49
-0.635
 74
     0
  0
LTYPE
  5
6B
330
5
100
AcDbSymbolTableRecord
100
AcDbLinetypeTableRecord
  2
PHANTOM
 70
     0
  3
Phantom ______  __  __  ______  __  __  ______
 72
    65
 73
     6
 40
12.7
 49
6.35
 74
     0
 49
-1.27
 74
     0
 49
1.27
 74
     0
 49
-1.27
 74
     0
 49
1.27
 74
     0
 49
-1.27
 74
     0
  0
LTYPE
  5
6C
330
5
100
AcDbSymbolTableRecord
100
AcDbLinetypeTableRecord
  2
CENTER
 70
     0
  3
Center ____ _ ____ _ ____ _ ____ _ ____ _ ____
 72
    65
 73
     4
 40
10.16
 49
6.35
 74
     0
 49
-1.27
 74
     0
 49
1.27
 74
     0
 49
-1.27
 74
     0
  0
LTYPE
  5
6D
330
5
100
AcDbSymbolTableRecord
100
AcDbLinetypeTableRecord
  2
CENTERX2
 70
     0
  3
Center (2x) ________  __  ________  __  _____
 72
    65
 73
     4
 40
20.32
 49
12.7
 74
     0
 49
-2.54
 74
     0
 49
2.54
 74
     0
 49
-2.54
 74
     0
  0
LTYPE
  5
6E
330
5
100
AcDbSymbolTableRecord
100
AcDbLinetypeTableRecord
  2
DOT2
 70
     0
  3
Dot (.5x) ........................................
 72
    65
 73
     2
 40
0.635
 49
0.0
 74
     0
 49
-0.635
 74
     0
  0
ENDTAB
  0
TABLE
  2
LAYER
  5
2
330
0
100
AcDbSymbolTable
 70
    17
  0
LAYER
  5
10
330
2
100
AcDbSymbolTableRecord
100
AcDbLayerTableRecord
  2
0
 70
     0
 62
     7
  6
Continuous
370
    -3
390
F
  0
LAYER
  5
6F
330
2
100
AcDbSymbolTableRecord
100
AcDbLayerTableRecord
  2
FORMAT
 70
     0
 62
     2
  6
Continuous
370
    -3
390
F
  0
LAYER
  5
70
330
2
100
AcDbSymbolTableRecord
100
AcDbLayerTableRecord
  2
외형선
 70
     0
 62
   100
  6
Continuous
370
    30
390
F
  0
LAYER
  5
71
330
2
100
AcDbSymbolTableRecord
100
AcDbLayerTableRecord
  2
숨은선
 70
     0
 62
     2
  6
HIDDEN
370
    15
390
F
  0
LAYER
  5
72
330
2
100
AcDbSymbolTableRecord
100
AcDbLayerTableRecord
  2
중심선
 70
     0
 62
     1
  6
CENTERX2
370
    -3
390
F
  0
LAYER
  5
73
330
2
100
AcDbSymbolTableRecord
100
AcDbLayerTableRecord
  2
파단선
 70
     0
 62
     4
  6
Continuous
370
    -3
390
F
  0
LAYER
  5
74
330
2
100
AcDbSymbolTableRecord
100
AcDbLayerTableRecord
  2
해칭선
 70
     0
 62
     4
  6
Continuous
370
    -3
390
F
  0
LAYER
  5
75
330
2
100
AcDbSymbolTableRecord
100
AcDbLayerTableRecord
  2
가는실선
 70
     0
 62
     4
  6
Continuous
370
    -3
390
F
  0
LAYER
  5
76
330
2
100
AcDbSymbolTableRecord
100
AcDbLayerTableRecord
  2
치수_보조선
 70
     0
 62
     4
  6
Continuous
370
    -3
390
F
  0
LAYER
  5
77
330
2
100
AcDbSymbolTableRecord
100
AcDbLayerTableRecord
  2
치수문자_일반주서
 70
     0
 62
     7
  6
Continuous
370
    15
390
F
  0
LAYER
  5
78
330
2
100
AcDbSymbolTableRecord
100
AcDbLayerTableRecord
  2
개별주서
 70
     0
 62
   100
  6
Continuous
370
    30
390
F
  0
LAYER
  5
79
330
2
100
AcDbSymbolTableRecord
100
AcDbLayerTableRecord
  2
중간선
 70
     0
 62
     2
  6
Continuous
370
    15
390
F
  0
LAYER
  5
7A
330
2
100
AcDbSymbolTableRecord
100
AcDbLayerTableRecord
  2
윤곽선
 70
     0
 62
     3
  6
Continuous
370
    40
390
F
  0
LAYER
  5
7B
330
2
100
AcDbSymbolTableRecord
100
AcDbLayerTableRecord
  2
중심마크
 70
     0
 62
   100
  6
Continuous
370
    30
390
F
  0
LAYER
  5
7C
330
2
100
AcDbSymbolTableRecord
100
AcDbLayerTableRecord
  2
가상선
 70
     0
 62
     4
  6
PHANTOM
370
    -3
390
F
  0
LAYER
  5
7D
330
2
100
AcDbSymbolTableRecord
100
AcDbLayerTableRecord
  2
특수지정선
 70
     0
 62
     5
  6
CENTERX2
370
    60
390
F
  0
LAYER
  5
16C
330
2
100
AcDbSymbolTableRecord
100
AcDbLayerTableRecord
  2
Defpoints
 70
     0
 62
     7
  6
Continuous
290
     0
370
    -3
390
F
  0
ENDTAB
  0
TABLE
  2
STYLE
  5
3
330
0
100
AcDbSymbolTable
 70
     2
  0
STYLE
  5
11
330
3
100
AcDbSymbolTableRecord
100
AcDbTextStyleTableRecord
  2
Standard
 70
     0
 40
0.0
 41
1.0
 50
0.0
 71
     0
 42
3.5
  3
txt
  4

  0
STYLE
  5
93
330
3
100
AcDbSymbolTableRecord
100
AcDbTextStyleTableRecord
  2
SLDTEXTSTYLE0
 70
     0
 40
0.0
 41
0.75
 50
0.0
 71
     0
 42
3.5
  3
TXT
  4

  0
ENDTAB
  0
TABLE
  2
VIEW
  5
6
330
0
100
AcDbSymbolTable
 70
     0
  0
ENDTAB
  0
TABLE
  2
UCS
  5
7
330
0
100
AcDbSymbolTable
 70
     0
  0
ENDTAB
  0
TABLE
  2
APPID
  5
9
330
0
100
AcDbSymbolTable
 70
     3
  0
APPID
  5
12
330
9
100
AcDbSymbolTableRecord
100
AcDbRegAppTableRecord
  2
ACAD
 70
     0
  0
APPID
  5
17F
330
9
100
AcDbSymbolTableRecord
100
AcDbRegAppTableRecord
  2
PE_DIMMEASUREMENT
 70
     0
  0
APPID
  5
182
330
9
100
AcDbSymbolTableRecord
100
AcDbRegAppTableRecord
  2
ACAD_DSTYLE_DIMRADIAL_EXTENSION
 70
     0
  0
ENDTAB
  0
TABLE
  2
DIMSTYLE
  5
A
330
0
100
AcDbSymbolTable
 70
     5
100
AcDbDimStyleTable
  0
DIMSTYLE
105
27
330
A
100
AcDbSymbolTableRecord
100
AcDbDimStyleTableRecord
  2
ISO-25
 70
     0
 41
2.5
 42
0.625
 43
3.75
 44
1.25
 73
     0
 74
     0
 77
     1
 78
     8
140
2.5
141
2.5
143
0.03937007874016
147
0.625
171
     3
172
     1
178
     0
271
     2
272
     2
274
     3
278
    44
283
     0
284
     8
340
11
  0
DIMSTYLE
105
F4
102
{ACAD_REACTORS
330
F3
330
108
330
11C
330
16E
330
183
102
}
330
A
100
AcDbSymbolTableRecord
100
AcDbDimStyleTableRecord
  2
SLDDIMSTYLE0
 70
     0
 41
3.302
 44
0.0
 45
0.000000001
 73
     0
 74
     0
 77
     1
 78
    12
 79
     3
140
3.5
143
0.0393700787401575
147
0.875
148
0.000000001
170
     1
172
     1
173
     1
178
     0
271
     2
272
     2
276
     2
284
    12
289
     0
340
93
  0
DIMSTYLE
105
109
330
A
100
AcDbSymbolTableRecord
100
AcDbDimStyleTableRecord
  2
SLDDIMSTYLE1
 70
     0
 41
3.302
 44
0.0
 45
0.000000001
 73
     0
 74
     0
 77
     1
 78
     4
 79
     1
140
3.5
143
0.0393700787401575
147
0.875
148
0.000000001
170
     1
173
     1
178
     0
271
     2
272
     2
276
     2
284
    12
340
93
  0
DIMSTYLE
105
11D
330
A
100
AcDbSymbolTableRecord
100
AcDbDimStyleTableRecord
  2
SLDDIMSTYLE2
 70
     0
 41
3.302
 44
0.0
 45
0.000000001
 73
     0
 74
     0
 77
     1
 78
    12
 79
     3
140
3.5
143
0.0393700787401575
147
0.875
148
0.000000001
170
     1
173
     1
178
     0
271
     2
272
     2
276
     2
284
    12
340
93
  0
DIMSTYLE
105
131
330
A
100
AcDbSymbolTableRecord
100
AcDbDimStyleTableRecord
  2
SLDDIMSTYLE3
 70
     0
 41
3.302
 44
0.0
 45
0.000000001
 73
     0
 74
     0
 77
     1
 78
     8
 79
     2
140
3.5
143
0.0393700787401575
147
0.875
148
0.000000001
170
     1
172
     1
173
     1
178
     0
271
     2
272
     2
276
     2
284
    12
289
     0
340
93
341
132
343
132
344
132
  0
ENDTAB
  0
TABLE
  2
BLOCK_RECORD
  5
1
330
0
100
AcDbSymbolTable
 70
    10
  0
BLOCK_RECORD
  5
1F
330
1
100
AcDbSymbolTableRecord
100
AcDbBlockTableRecord
  2
*Model_Space
340
22
  0
BLOCK_RECORD
  5
1B
330
1
100
AcDbSymbolTableRecord
100
AcDbBlockTableRecord
  2
*Paper_Space
340
1E
  0
BLOCK_RECORD
  5
23
330
1
100
AcDbSymbolTableRecord
100
AcDbBlockTableRecord
  2
*Paper_Space0
340
26
  0
BLOCK_RECORD
  5
7E
330
1
100
AcDbSymbolTableRecord
100
AcDbBlockTableRecord
  2
블럭10
340
0
102
{BLKREFS
331
EB
102
}
  0
BLOCK_RECORD
  5
F5
330
1
100
AcDbSymbolTableRecord
100
AcDbBlockTableRecord
  2
_D
340
0
  0
BLOCK_RECORD
  5
10A
330
1
100
AcDbSymbolTableRecord
100
AcDbBlockTableRecord
  2
_D_1
340
0
  0
BLOCK_RECORD
  5
11E
330
1
100
AcDbSymbolTableRecord
100
AcDbBlockTableRecord
  2
_D_2
340
0
  0
BLOCK_RECORD
  5
132
330
1
100
AcDbSymbolTableRecord
100
AcDbBlockTableRecord
  2
_NONE
340
0
  0
BLOCK_RECORD
  5
135
330
1
100
AcDbSymbolTableRecord
100
AcDbBlockTableRecord
  2
_D_3
340
0
  0
BLOCK_RECORD
  5
141
330
1
100
AcDbSymbolTableRecord
100
AcDbBlockTableRecord
  2
SW_DOWELSYMBOL_0
340
0
102
{BLKREFS
331
147
102
}
  0
BLOCK_RECORD
  5
171
330
1
100
AcDbSymbolTableRecord
100
AcDbBlockTableRecord
  2
*D8
340
0
  0
BLOCK_RECORD
  5
186
330
1
100
AcDbSymbolTableRecord
100
AcDbBlockTableRecord
  2
*D9
340
0
  0
ENDTAB
  0
ENDSEC
  0
SECTION
  2
BLOCKS
  0
BLOCK
  5
20
330
1F
100
AcDbEntity
  8
0
100
AcDbBlockBegin
  2
*Model_Space
 70
     0
 10
0.0
 20
0.0
 30
0.0
  3
*Model_Space
  1
*Model_Space
  0
ENDBLK
  5
21
330
1F
100
AcDbEntity
  8
0
100
AcDbBlockEnd
  0
BLOCK
  5
1C
330
1B
100
AcDbEntity
 67
     1
  8
0
100
AcDbBlockBegin
  2
*Paper_Space
 70
     0
 10
0.0
 20
0.0
 30
0.0
  3
*Paper_Space
  1
*Paper_Space
  0
ENDBLK
  5
1D
330
1B
100
AcDbEntity
 67
     1
  8
0
100
AcDbBlockEnd
  0
BLOCK
  5
24
330
23
100
AcDbEntity
  8
0
100
AcDbBlockBegin
  2
*Paper_Space0
 70
     0
 10
0.0
 20
0.0
 30
0.0
  3
*Paper_Space0
  1
*Paper_Space0
  0
ENDBLK
  5
25
330
23
100
AcDbEntity
  8
0
100
AcDbBlockEnd
  0
BLOCK
  5
7F
330
7E
100
AcDbEntity
  8
0
100
AcDbBlockBegin
  2
블럭10
 70
     2
 10
0.0
 20
0.0
 30
0.0
  3
블럭10
  1
블럭10
  0
ELLIPSE
  5
81
330
7E
100
AcDbEntity
  8
중심선
100
AcDbEllipse
 10
20.54032771741204
 20
12.0471743016438
 30
0.0
 11
6.600054785286829
 21
-1.261213355974178E-13
 31
0.0
210
0.0
220
0.0
230
1.0
 40
0.636358354079598
 41
0.9219305317359503
 42
6.513795318482858
  0
ELLIPSE
  5
82
330
7E
100
AcDbEntity
  8
중심선
100
AcDbEllipse
 10
20.54032771746488
 20
12.04717430159265
 30
0.0
 11
3.960054785062283
 21
1.540847449632565E-10
 31
0.0
210
0.0
220
0.0
230
1.0
 40
0.3939339440162632
 41
1.131841032648279
 42
5.62031148352944
  0
LINE
  5
83
330
7E
100
AcDbEntity
  8
중심선
100
AcDbLine
 10
2.268634060543552
 20
16.24717430164393
 30
0.0
 11
5.714909304380834
 21
16.24717430164393
 31
0.0
  0
LINE
  5
84
330
7E
100
AcDbEntity
  8
중심선
100
AcDbLine
 10
5.245725140726316
 20
7.84717430164391
 30
0.0
 11
8.692000384563599
 21
7.84717430164391
 31
0.0
  0
LINE
  5
85
330
7E
100
AcDbEntity
  8
중심선
100
AcDbLine
 10
15.74043728645272
 20
16.24717430164393
 30
0.0
 11
8.692000384563599
 21
7.84717430164391
 31
0.0
  0
LINE
  5
86
330
7E
100
AcDbEntity
  8
중심선
100
AcDbLine
 10
0.1404042013395286
 20
13.71084872107135
 30
0.0
 11
3.58671253028996
 21
13.71088815037384
 31
0.0
  0
LINE
  5
87
330
7E
100
AcDbEntity
  8
중심선
100
AcDbLine
 10
2.750260043222114
 20
10.84717430164391
 30
0.0
 11
6.196535287059397
 21
10.84717430164391
 31
0.0
  0
LINE
  5
88
330
7E
100
AcDbEntity
  8
중심선
100
AcDbLine
 10
12.29416204261559
 20
16.24717430164393
 30
0.0
 11
5.245725140726316
 21
7.84717430164391
 31
0.0
  0
LINE
  5
89
330
7E
100
AcDbEntity
  8
중심선
100
AcDbLine
 10
10.72767329541681
 20
16.24717430164393
 30
0.0
 11
6.196535287059397
 21
10.84717430164391
 31
0.0
  0
LINE
  5
8A
330
7E
100
AcDbEntity
  8
중심선
100
AcDbLine
 10
7.28139805157953
 20
16.24717430164393
 30
0.0
 11
2.750260043222114
 21
10.84717430164391
 31
0.0
  0
LINE
  5
8B
330
7E
100
AcDbEntity
  8
중심선
100
AcDbLine
 10
5.714909304380834
 20
16.24717430164393
 30
0.0
 11
3.58671253028996
 21
13.71088815037384
 31
0.0
  0
LINE
  5
8C
330
7E
100
AcDbEntity
  8
중심선
100
AcDbLine
 10
2.268634060543552
 20
16.24717430164393
 30
0.0
 11
0.1404042013395286
 21
13.71084872107135
 31
0.0
  0
LINE
  5
8D
330
7E
100
AcDbEntity
  8
중심선
100
AcDbLine
 10
7.28139805157953
 20
16.24717430164393
 30
0.0
 11
10.72767329541681
 21
16.24717430164393
 31
0.0
  0
LINE
  5
8E
330
7E
100
AcDbEntity
  8
중심선
100
AcDbLine
 10
12.29416204261559
 20
16.24717430164393
 30
0.0
 11
15.74043728645272
 21
16.24717430164393
 31
0.0
  0
LINE
  5
8F
330
7E
100
AcDbEntity
  8
중심선
100
AcDbLine
 10
19.22036997980202
 20
11.08717430171403
 30
0.0
 11
23.66174974927406
 21
11.08717430171406
 31
0.0
  0
LINE
  5
90
330
7E
100
AcDbEntity
  8
중심선
100
AcDbLine
 10
19.22039502424796
 20
13.00717430171391
 30
0.0
 11
19.22036997980202
 21
11.08717430171403
 31
0.0
  0
LINE
  5
91
330
7E
100
AcDbEntity
  8
중심선
100
AcDbLine
 10
19.22039502424796
 20
13.00717430171391
 30
0.0
 11
26.96566020931264
 21
13.00717430171391
 31
0.0
  0
LINE
  5
92
330
7E
100
AcDbEntity
  8
중심선
100
AcDbLine
 10
22.22332737316547
 20
13.45928029700563
 30
0.0
 11
24.52862924686651
 21
15.39360700705356
 31
0.0
  0
ATTDEF
  5
94
330
7E
100
AcDbEntity
  8
FORMAT
 62
     2
100
AcDbText
 10
-11.05102035218446
 20
2.075366912832191
 30
0.0
 40
4.233333333333333
  1
GMG22932[ 6 FLUTE ]
 41
0.75
  7
SLDTEXTSTYLE0
 11
-11.05102035218446
 21
-0.0412997538344756
 31
0.0
100
AcDbAttributeDefinition
  3

  2
AUTOATTR0
 70
     0
 74
     1
  0
ENDBLK
  5
80
330
7E
100
AcDbEntity
  8
0
100
AcDbBlockEnd
  0
BLOCK
  5
F6
330
F5
100
AcDbEntity
  8
0
100
AcDbBlockBegin
  2
_D
 70
     0
 10
0.0
 20
0.0
 30
0.0
  3
_D
  1
_D
  0
LINE
  5
F8
330
F5
100
AcDbEntity
  8
치수문자_일반주서
 62
     0
370
    -2
100
AcDbLine
 10
41.05049999999999
 20
-7.9373922905702
 30
0.0
 11
58.63324571577302
 21
-7.937392290570134
 31
0.0
  0
LINE
  5
F9
330
F5
100
AcDbEntity
  8
치수문자_일반주서
 62
     0
370
    -2
100
AcDbLine
 10
40.05050000000001
 20
7.937499999999998
 30
0.0
 11
58.63324571577296
 21
7.937500000000068
 31
0.0
  0
LINE
  5
FA
330
F5
100
AcDbEntity
  8
치수문자_일반주서
 62
     0
370
    -2
100
AcDbLine
 10
58.63324571577301
 20
-4.635392290570135
 30
0.0
 11
58.63324571577298
 21
4.635500000000068
 31
0.0
  0
SOLID
  5
FB
330
F5
100
AcDbEntity
  8
치수문자_일반주서
 62
     0
100
AcDbTrace
 10
58.08291238243967
 20
-4.635392290570136
 30
0.0
 11
59.18357904910634
 21
-4.635392290570133
 31
0.0
 12
58.63324571577302
 22
-7.937392290570134
 32
0.0
 13
58.63324571577302
 23
-7.937392290570134
 33
0.0
  0
SOLID
  5
FC
330
F5
100
AcDbEntity
  8
치수문자_일반주서
 62
     0
100
AcDbTrace
 10
59.18357904910631
 20
4.63550000000007
 30
0.0
 11
58.08291238243964
 21
4.635500000000066
 31
0.0
 12
58.63324571577296
 22
7.937500000000068
 32
0.0
 13
58.63324571577296
 23
7.937500000000068
 33
0.0
  0
MTEXT
  5
FD
330
F5
100
AcDbEntity
  8
치수문자_일반주서
 62
     0
100
AcDbMText
 10
54.25824571577299
 20
0.0000538547149509
 30
0.0
 40
3.5
 41
0.0
 71
     2
 72
     1
  1
\A1;%%c15.87 [5/8]
  7
SLDTEXTSTYLE0
 11
-3.580712096835668E-15
 21
1.0
 31
0.0
 73
     1
 44
1.0
  0
POINT
  5
FE
330
F5
100
AcDbEntity
  8
Defpoints
 62
     0
100
AcDbPoint
 10
40.98799999999999
 20
-7.9373922905702
 30
0.0
  0
POINT
  5
FF
330
F5
100
AcDbEntity
  8
Defpoints
 62
     0
100
AcDbPoint
 10
39.98800000000001
 20
7.937499999999998
 30
0.0
  0
POINT
  5
100
330
F5
100
AcDbEntity
  8
Defpoints
 62
     0
100
AcDbPoint
 10
58.63324571577296
 20
7.937500000000068
 30
0.0
  0
ENDBLK
  5
F7
330
F5
100
AcDbEntity
  8
0
100
AcDbBlockEnd
  0
BLOCK
  5
10B
330
10A
100
AcDbEntity
  8
0
100
AcDbBlockBegin
  2
_D_1
 70
     0
 10
0.0
 20
0.0
 30
0.0
  3
_D_1
  1
_D_1
  0
LINE
  5
10D
330
10A
100
AcDbEntity
  8
치수문자_일반주서
 62
     0
370
    -2
100
AcDbLine
 10
-47.15
 20
7.49999999999999
 30
0.0
 11
-47.15
 21
40.59305141807177
 31
0.0
  0
LINE
  5
10E
330
10A
100
AcDbEntity
  8
치수문자_일반주서
 62
     0
370
    -2
100
AcDbLine
 10
41.75000000000001
 20
7.237999999999997
 30
0.0
 11
41.75000000000001
 21
40.59305141807177
 31
0.0
  0
LINE
  5
10F
330
10A
100
AcDbEntity
  8
치수문자_일반주서
 62
     0
370
    -2
100
AcDbLine
 10
-43.848
 20
40.59305141807177
 30
0.0
 11
38.44800000000001
 21
40.59305141807177
 31
0.0
  0
SOLID
  5
110
330
10A
100
AcDbEntity
  8
치수문자_일반주서
 62
     0
100
AcDbTrace
 10
-43.848
 20
41.14338475140511
 30
0.0
 11
-43.848
 21
40.04271808473844
 31
0.0
 12
-47.15
 22
40.59305141807177
 32
0.0
 13
-47.15
 23
40.59305141807177
 33
0.0
  0
SOLID
  5
111
330
10A
100
AcDbEntity
  8
치수문자_일반주서
 62
     0
100
AcDbTrace
 10
38.44800000000001
 20
40.04271808473844
 30
0.0
 11
38.44800000000001
 21
41.14338475140511
 31
0.0
 12
41.75000000000001
 22
40.59305141807177
 32
0.0
 13
41.75000000000001
 23
40.59305141807177
 33
0.0
  0
MTEXT
  5
112
330
10A
100
AcDbEntity
  8
치수문자_일반주서
 62
     0
100
AcDbMText
 10
-2.69999999999999
 20
44.96805141807177
 30
0.0
 40
3.5
 41
0.0
 71
     2
 72
     1
  1
\A1;88.9 [3 1/2]
  7
SLDTEXTSTYLE0
 73
     1
 44
1.0
  0
POINT
  5
113
330
10A
100
AcDbEntity
  8
Defpoints
 62
     0
100
AcDbPoint
 10
-47.15
 20
7.43749999999999
 30
0.0
  0
POINT
  5
114
330
10A
100
AcDbEntity
  8
Defpoints
 62
     0
100
AcDbPoint
 10
41.75000000000001
 20
7.175499999999997
 30
0.0
  0
POINT
  5
115
330
10A
100
AcDbEntity
  8
Defpoints
 62
     0
100
AcDbPoint
 10
41.75000000000001
 20
40.59305141807177
 30
0.0
  0
ENDBLK
  5
10C
330
10A
100
AcDbEntity
  8
0
100
AcDbBlockEnd
  0
BLOCK
  5
11F
330
11E
100
AcDbEntity
  8
0
100
AcDbBlockBegin
  2
_D_2
 70
     0
 10
0.0
 20
0.0
 30
0.0
  3
_D_2
  1
_D_2
  0
LINE
  5
121
330
11E
100
AcDbEntity
  8
치수문자_일반주서
 62
     0
370
    -2
100
AcDbLine
 10
41.75000000000001
 20
7.237999999999997
 30
0.0
 11
41.75000000000001
 21
24.80249453033792
 31
0.0
  0
LINE
  5
122
330
11E
100
AcDbEntity
  8
치수문자_일반주서
 62
     0
370
    -2
100
AcDbLine
 10
10.0
 20
-7.566603663021271
 30
0.0
 11
10.0
 21
24.80249453033792
 31
0.0
  0
LINE
  5
123
330
11E
100
AcDbEntity
  8
치수문자_일반주서
 62
     0
370
    -2
100
AcDbLine
 10
38.44800000000001
 20
24.80249453033792
 30
0.0
 11
13.302
 21
24.80249453033792
 31
0.0
  0
SOLID
  5
124
330
11E
100
AcDbEntity
  8
치수문자_일반주서
 62
     0
100
AcDbTrace
 10
38.44800000000001
 20
24.25216119700459
 30
0.0
 11
38.44800000000001
 21
25.35282786367126
 31
0.0
 12
41.75000000000001
 22
24.80249453033792
 32
0.0
 13
41.75000000000001
 23
24.80249453033792
 33
0.0
  0
SOLID
  5
125
330
11E
100
AcDbEntity
  8
치수문자_일반주서
 62
     0
100
AcDbTrace
 10
13.302
 20
25.35282786367126
 30
0.0
 11
13.302
 21
24.25216119700459
 31
0.0
 12
10.0
 22
24.80249453033792
 32
0.0
 13
10.0
 23
24.80249453033792
 33
0.0
  0
MTEXT
  5
126
330
11E
100
AcDbEntity
  8
치수문자_일반주서
 62
     0
100
AcDbMText
 10
25.52575141487685
 20
29.17749453033792
 30
0.0
 40
3.5
 41
0.0
 71
     2
 72
     1
  1
\A1;31.75 [1 1/4]
  7
SLDTEXTSTYLE0
 73
     1
 44
1.0
  0
POINT
  5
127
330
11E
100
AcDbEntity
  8
Defpoints
 62
     0
100
AcDbPoint
 10
41.75000000000001
 20
7.175499999999997
 30
0.0
  0
POINT
  5
128
330
11E
100
AcDbEntity
  8
Defpoints
 62
     0
100
AcDbPoint
 10
10.0
 20
-7.629103663021271
 30
0.0
  0
POINT
  5
129
330
11E
100
AcDbEntity
  8
Defpoints
 62
     0
100
AcDbPoint
 10
10.0
 20
24.80249453033792
 30
0.0
  0
ENDBLK
  5
120
330
11E
100
AcDbEntity
  8
0
100
AcDbBlockEnd
  0
BLOCK
  5
133
330
132
100
AcDbEntity
  8
0
100
AcDbBlockBegin
  2
_NONE
 70
     0
 10
0.0
 20
0.0
 30
0.0
  3
_NONE
  1
_NONE
  0
ENDBLK
  5
134
330
132
100
AcDbEntity
  8
0
100
AcDbBlockEnd
  0
BLOCK
  5
136
330
135
100
AcDbEntity
  8
0
100
AcDbBlockBegin
  2
_D_3
 70
     0
 10
0.0
 20
0.0
 30
0.0
  3
_D_3
  1
_D_3
  0
LINE
  5
138
330
135
100
AcDbEntity
  8
치수문자_일반주서
100
AcDbLine
 10
-70.94336763611722
 20
-13.61414086223942
 30
0.0
 11
-70.94336763611722
 21
-14.32507834780392
 31
0.0
  0
LINE
  5
139
330
135
100
AcDbEntity
  8
치수문자_일반주서
100
AcDbLine
 10
-70.94336763611722
 20
-14.32507834780392
 30
0.0
 11
-65.38711764505791
 21
-14.32507834780388
 31
0.0
  0
LINE
  5
13A
330
135
100
AcDbEntity
  8
치수문자_일반주서
100
AcDbLine
 10
-65.38711764505791
 20
-14.32507834780388
 30
0.0
 11
-65.38711764505791
 21
-13.61414086223938
 31
0.0
  0
LINE
  5
13B
330
135
100
AcDbEntity
  8
치수문자_일반주서
100
AcDbLine
 10
-70.9433676361173
 20
-2.785408000102166
 30
0.0
 11
-70.9433676361173
 21
-2.074470514537666
 31
0.0
  0
LINE
  5
13C
330
135
100
AcDbEntity
  8
치수문자_일반주서
100
AcDbLine
 10
-70.9433676361173
 20
-2.074470514537666
 30
0.0
 11
-65.387117645058
 21
-2.074470514537627
 31
0.0
  0
LINE
  5
13D
330
135
100
AcDbEntity
  8
치수문자_일반주서
100
AcDbLine
 10
-65.387117645058
 20
-2.074470514537627
 30
0.0
 11
-65.387117645058
 21
-2.785408000102127
 31
0.0
  0
MTEXT
  5
13E
330
135
100
AcDbEntity
  8
치수문자_일반주서
100
AcDbMText
 10
-69.89885455963683
 20
-12.72546896162804
 30
0.0
 40
3.5
 41
0.0
 71
     1
 72
     1
  1
0.00
  7
SLDTEXTSTYLE0
 11
-7.044195017643634E-15
 21
1.0
 31
0.0
 73
     1
 44
1.0
  0
MTEXT
  5
13F
330
135
100
AcDbEntity
  8
치수문자_일반주서
100
AcDbMText
 10
-64.66222300927636
 20
-12.13204884353452
 30
0.0
 40
3.5
 41
0.0
 71
     1
 72
     1
  1
%%c
  7
SLDTEXTSTYLE0
 11
-7.044195017643634E-15
 21
1.0
 31
0.0
 73
     1
 44
1.0
  0
MTEXT
  5
140
330
135
100
AcDbEntity
  8
치수문자_일반주서
100
AcDbMText
 10
-64.66222300927639
 20
-6.85361144516044
 30
0.0
 40
3.5
 41
0.0
 71
     1
 72
     1
  1
0
  7
SLDTEXTSTYLE0
 11
-7.044195017643634E-15
 21
1.0
 31
0.0
 73
     1
 44
1.0
  0
ENDBLK
  5
137
330
135
100
AcDbEntity
  8
0
100
AcDbBlockEnd
  0
BLOCK
  5
142
330
141
100
AcDbEntity
  8
0
100
AcDbBlockBegin
  2
SW_DOWELSYMBOL_0
 70
     0
 10
0.0
 20
0.0
 30
0.0
  3
SW_DOWELSYMBOL_0
  1
SW_DOWELSYMBOL_0
  0
CIRCLE
  5
144
330
141
100
AcDbEntity
  8
외형선
 62
     0
100
AcDbCircle
 10
0.0
 20
0.0
 30
0.0
 40
3.000000000000005
  0
HATCH
  5
145
330
141
100
AcDbEntity
  8
0
  6
Continuous
 62
     0
370
    30
100
AcDbHatch
 10
0.0
 20
0.0
 30
0.0
210
0.0
220
0.0
230
1.0
  2
SOLID
 70
     1
 71
     0
 91
        1
 92
        0
 93
        3
 72
     2
 10
0.0
 20
0.0
 40
3.000000000000005
 50
0.0
 51
90.0
 73
     1
 72
     1
 10
0.0
 20
3.000000000000005
 11
0.0
 21
0.0
 72
     1
 10
0.0
 20
0.0
 11
3.000000000000006
 21
0.0
 97
        0
 75
     0
 76
     1
 98
        1
 10
0.0
 20
0.0
  0
HATCH
  5
146
330
141
100
AcDbEntity
  8
0
  6
Continuous
 62
     0
370
    30
100
AcDbHatch
 10
0.0
 20
0.0
 30
0.0
210
0.0
220
0.0
230
1.0
  2
SOLID
 70
     1
 71
     0
 91
        1
 92
        0
 93
        3
 72
     2
 10
0.0
 20
0.0
 40
3.000000000000005
 50
180.0
 51
270.0000000000008
 73
     1
 72
     1
 10
0.0
 20
-3.000000000000005
 11
0.0
 21
0.0
 72
     1
 10
0.0
 20
0.0
 11
-3.000000000000006
 21
0.0
 97
        0
 75
     0
 76
     1
 98
        1
 10
0.0
 20
0.0
  0
ENDBLK
  5
143
330
141
100
AcDbEntity
  8
0
100
AcDbBlockEnd
  0
BLOCK
  5
172
330
171
100
AcDbEntity
  8
0
100
AcDbBlockBegin
  2
*D8
 70
     1
 10
0.0
 20
0.0
 30
0.0
  3
*D8
  1
*D8
  0
LINE
  5
174
330
171
100
AcDbEntity
  8
치수문자_일반주서
 62
     0
370
    -2
100
AcDbLine
 10
-46.7125
 20
7.937499999999994
 30
0.0
 11
-54.0168685983045
 21
7.937499999999994
 31
0.0
  0
LINE
  5
175
330
171
100
AcDbEntity
  8
치수문자_일반주서
 62
     0
370
    -2
100
AcDbLine
 10
-46.7125
 20
-7.937500000000007
 30
0.0
 11
-54.0168685983045
 21
-7.937500000000007
 31
0.0
  0
LINE
  5
176
330
171
100
AcDbEntity
  8
치수문자_일반주서
 62
     0
370
    -2
100
AcDbLine
 10
-54.0168685983045
 20
4.635499999999994
 30
0.0
 11
-54.0168685983045
 21
-4.635500000000008
 31
0.0
  0
SOLID
  5
177
330
171
100
AcDbEntity
  8
치수문자_일반주서
 62
     0
100
AcDbTrace
 10
-53.46653526497116
 20
4.635499999999994
 30
0.0
 11
-54.56720193163783
 21
4.635499999999994
 31
0.0
 12
-54.0168685983045
 22
7.937499999999994
 32
0.0
 13
-54.0168685983045
 23
7.937499999999994
 33
0.0
  0
SOLID
  5
178
330
171
100
AcDbEntity
  8
치수문자_일반주서
 62
     0
100
AcDbTrace
 10
-54.56720193163783
 20
-4.635500000000008
 30
0.0
 11
-53.46653526497116
 21
-4.635500000000008
 31
0.0
 12
-54.0168685983045
 22
-7.937500000000007
 32
0.0
 13
-54.0168685983045
 23
-7.937500000000007
 33
0.0
  0
MTEXT
  5
179
330
171
100
AcDbEntity
  8
치수문자_일반주서
 62
     0
100
AcDbMText
 10
-56.6418685983045
 20
-0.0000000000000073
 30
0.0
 40
3.5
 41
0.0
 71
     5
 72
     1
  1
\A1;{%%c15.88 [5/8]}
  7
SLDTEXTSTYLE0
 11
0.0
 21
1.0
 31
0.0
 73
     1
 44
1.0
  0
POINT
  5
17A
330
171
100
AcDbEntity
  8
Defpoints
 62
     0
100
AcDbPoint
 10
-46.65
 20
7.937499999999994
 30
0.0
  0
POINT
  5
17B
330
171
100
AcDbEntity
  8
Defpoints
 62
     0
100
AcDbPoint
 10
-46.65
 20
-7.937500000000007
 30
0.0
  0
POINT
  5
17C
330
171
100
AcDbEntity
  8
Defpoints
 62
     0
100
AcDbPoint
 10
-54.0168685983045
 20
-7.937500000000006
 30
0.0
  0
ENDBLK
  5
173
330
171
100
AcDbEntity
  8
0
100
AcDbBlockEnd
  0
BLOCK
  5
187
330
186
100
AcDbEntity
  8
0
100
AcDbBlockBegin
  2
*D9
 70
     1
 10
0.0
 20
0.0
 30
0.0
  3
*D9
  1
*D9
  0
LINE
  5
189
330
186
100
AcDbEntity
  8
치수문자_일반주서
 62
     0
370
    -2
100
AcDbLine
 10
43.16215815596907
 20
9.840696850643265
 30
0.0
 11
68.24978664481978
 21
38.25944202679759
 31
0.0
  0
MTEXT
  5
18A
330
186
100
AcDbEntity
  8
치수문자_일반주서
 62
     0
100
AcDbMText
 10
56.00324752656044
 20
28.35325046861319
 30
0.0
 40
3.5
 41
0.0
 71
     5
 72
     1
  1
\A1;R2.29 [R0.090]
  7
SLDTEXTSTYLE0
 11
0.6618035354275352
 21
0.7496773175811144
 31
0.0
 73
     1
 44
1.0
  0
LINE
  5
18B
330
186
100
AcDbEntity
  8
치수문자_일반주서
 62
     0
370
    -2
100
AcDbLine
 10
39.46400000000001
 20
5.651499999999999
 30
0.0
 11
40.97688288198735
 21
7.365262347990425
 31
0.0
  0
SOLID
  5
18C
330
186
100
AcDbEntity
  8
치수문자_일반주서
 62
     0
100
AcDbTrace
 10
42.74958573886027
 20
10.20490939630688
 30
0.0
 11
43.57473057307788
 21
9.476484304979646
 31
0.0
 12
40.97688288198735
 22
7.365262347990425
 32
0.0
 13
40.97688288198735
 23
7.365262347990425
 33
0.0
  0
POINT
  5
18D
330
186
100
AcDbEntity
  8
Defpoints
 62
     0
100
AcDbPoint
 10
40.97688288198735
 20
7.365262347990425
 30
0.0
  0
POINT
  5
18E
330
186
100
AcDbEntity
  8
Defpoints
 62
     0
100
AcDbPoint
 10
39.46400000000001
 20
5.651499999999999
 30
0.0
  0
ENDBLK
  5
188
330
186
100
AcDbEntity
  8
0
100
AcDbBlockEnd
  0
ENDSEC
  0
SECTION
  2
ENTITIES
  0
LINE
  5
95
102
{ACAD_REACTORS
102
}
330
1F
100
AcDbEntity
  8
0
  6
Continuous
 62
     4
370
    15
100
AcDbLine
 10
7.779732457534865
 20
7.937499999999997
 30
0.0
 11
-46.65
 21
7.937499999999994
 31
0.0
  0
LINE
  5
96
102
{ACAD_REACTORS
102
}
330
1F
100
AcDbEntity
  8
0
  6
Continuous
 62
     4
370
    15
100
AcDbLine
 10
-46.65
 20
-7.937500000000007
 30
0.0
 11
7.779732457534871
 21
-7.937500000000004
 31
0.0
  0
LINE
  5
97
330
1F
100
AcDbEntity
  8
0
  6
Continuous
 62
     4
370
    15
100
AcDbLine
 10
-46.65
 20
7.93749999999999
 30
0.0
 11
-47.15
 21
7.437499999999989
 31
0.0
  0
LINE
  5
98
330
1F
100
AcDbEntity
  8
0
  6
Continuous
 62
     4
370
    15
100
AcDbLine
 10
-47.15
 20
-7.437500000000003
 30
0.0
 11
-46.65
 21
-7.937500000000004
 31
0.0
  0
LINE
  5
99
330
1F
100
AcDbEntity
  8
0
  6
Continuous
 62
     1
370
    15
100
AcDbLine
 10
21.69151787545872
 20
-7.937500000000004
 30
0.0
 11
24.40505488808814
 21
-7.937500000000004
 31
0.0
  0
LINE
  5
9A
330
1F
100
AcDbEntity
  8
0
  6
Continuous
 62
     1
370
    15
100
AcDbLine
 10
24.40505488808819
 20
7.937499999999997
 30
0.0
 11
21.69151787545879
 21
7.937499999999997
 31
0.0
  0
LINE
  5
9B
330
1F
100
AcDbEntity
  8
0
  6
Continuous
 62
     1
370
    15
100
AcDbLine
 10
30.0025406386698
 20
-7.937500000000004
 30
0.0
 11
32.71710800960505
 21
-7.937500000000004
 31
0.0
  0
LINE
  5
9C
330
1F
100
AcDbEntity
  8
0
  6
Continuous
 62
     1
370
    15
100
AcDbLine
 10
38.31509087053804
 20
-7.937500000000004
 30
0.0
 11
39.46400000000001
 21
-7.937500000000004
 31
0.0
  0
LINE
  5
9D
330
1F
100
AcDbEntity
  8
0
  6
Continuous
 62
     1
370
    15
100
AcDbLine
 10
16.09190545555585
 20
7.937499999999997
 30
0.0
 11
13.37778314668019
 21
7.937499999999997
 31
0.0
  0
LINE
  5
9E
330
1F
100
AcDbEntity
  8
0
  6
Continuous
 62
     1
370
    15
100
AcDbLine
 10
32.71710800960505
 20
7.937499999999997
 30
0.0
 11
30.00254063866986
 21
7.937499999999997
 31
0.0
  0
LINE
  5
9F
330
1F
100
AcDbEntity
  8
0
  6
Continuous
 62
     1
370
    15
100
AcDbLine
 10
13.3777831466802
 20
-7.937500000000004
 30
0.0
 11
16.09190545555578
 21
-7.937500000000004
 31
0.0
  0
LINE
  5
A0
330
1F
100
AcDbEntity
  8
0
  6
Continuous
 62
     1
370
    15
100
AcDbLine
 10
39.46400000000001
 20
7.937499999999997
 30
0.0
 11
38.31509087053803
 21
7.937499999999997
 31
0.0
  0
SPLINE
  5
A1
330
1F
100
AcDbEntity
  8
0
  6
Continuous
 62
     4
370
    15
100
AcDbSpline
210
0.0
220
0.0
230
1.0
 70
     8
 71
     3
 72
    14
 73
    10
 74
     0
 42
0.000000001
 43
0.00000001
 40
0.0
 40
0.0
 40
0.0
 40
0.0
 40
0.25
 40
0.25
 40
0.5
 40
0.5
 40
0.75
 40
0.75
 40
1.0
 40
1.0
 40
1.0
 40
1.0
 10
7.476351367189886
 20
-3.703315151773993
 30
0.0
 10
7.365165552855801
 20
-3.604823714234287
 30
0.0
 10
7.273726914054099
 20
-3.493164412394984
 30
0.0
 10
7.125470285467886
 20
-3.244942334509155
 30
0.0
 10
7.070215016526752
 20
-3.109600463801415
 30
0.0
 10
6.993890706334668
 20
-2.829853717346151
 30
0.0
 10
6.972234207864962
 20
-2.683360052436394
 30
0.0
 10
6.950521067356077
 20
-2.388788889409725
 30
0.0
 10
6.9504126405108
 20
-2.239521748692865
 30
0.0
 10
6.9504126405108
 20
-2.088826580713123
 30
0.0
  0
SPLINE
  5
A2
330
1F
100
AcDbEntity
  8
0
  6
Continuous
 62
     4
370
    15
100
AcDbSpline
210
0.0
220
0.0
230
1.0
 70
     8
 71
     3
 72
    22
 73
    18
 74
     0
 42
0.000000001
 43
0.00000001
 40
0.0
 40
0.0
 40
0.0
 40
0.0
 40
0.1250000000000001
 40
0.1250000000000001
 40
0.2500000000000001
 40
0.2500000000000001
 40
0.3750000000000001
 40
0.3750000000000001
 40
0.5000000000000001
 40
0.5000000000000001
 40
0.6250000000000001
 40
0.6250000000000001
 40
0.7500000000000001
 40
0.7500000000000001
 40
0.8750000000000001
 40
0.8750000000000001
 40
1.0
 40
1.0
 40
1.0
 40
1.0
 10
6.950412640510798
 20
-2.08882658071321
 30
0.0
 10
6.950412640510798
 20
-1.919161766913926
 30
0.0
 10
6.950823511445596
 20
-1.748328015487143
 30
0.0
 10
6.981549483441008
 20
-1.406998409067677
 30
0.0
 10
7.011792713671817
 20
-1.234449848220918
 30
0.0
 10
7.118150414629959
 20
-0.9010203459927912
 30
0.0
 10
7.193682397042779
 20
-0.7413811595331665
 30
0.0
 10
7.394753623006026
 20
-0.4510599407407436
 30
0.0
 10
7.516322719735109
 20
-0.3249387272134602
 30
0.0
 10
7.804352253156075
 20
-0.1160187169818501
 30
0.0
 10
7.96236964259516
 20
-0.0391898830978175
 30
0.0
 10
8.304845943487702
 20
0.0573635825066031
 30
0.0
 10
8.480777844096542
 20
0.0744402197298961
 30
0.0
 10
8.834569173328118
 20
0.0459068007477906
 30
0.0
 10
9.006282102456872
 20
0.0004662274419737
 30
0.0
 10
9.32731747599884
 20
-0.1488780202930842
 30
0.0
 10
9.472394517174852
 20
-0.2507523073651605
 30
0.0
 10
9.598326626586546
 20
-0.3764869371484062
 30
0.0
  0
SPLINE
  5
A4
330
1F
100
AcDbEntity
  8
0
  6
Continuous
 62
     1
370
    15
100
AcDbSpline
210
0.0
220
0.0
230
1.0
 70
    24
 71
     3
 72
    18
 73
    14
 74
     0
 42
0.000000001
 43
0.00000001
 40
0.0
 40
0.0
 40
0.0
 40
0.0
 40
0.2500000000000001
 40
0.2500000000000001
 40
0.5000000000000002
 40
0.5000000000000002
 40
0.6250000000000002
 40
0.6250000000000002
 40
0.7500000000000001
 40
0.7500000000000001
 40
0.875
 40
0.875
 40
1.0
 40
1.0
 40
1.0
 40
1.0
 10
10.0
 20
-0.7764109331539784
 30
0.0
 10
10.0
 20
-0.8908002061840481
 30
0.0
 10
10.0
 20
-1.056560191484847
 30
0.0
 10
10.0
 20
-1.549439173894075
 30
0.0
 10
10.0
 20
-1.878798482226584
 30
0.0
 10
10.0
 20
-2.521509397013936
 30
0.0
 10
10.0
 20
-2.760098558766214
 30
0.0
 10
10.0
 20
-3.280686386149949
 30
0.0
 10
10.0
 20
-3.562724941969441
 30
0.0
 10
10.0
 20
-4.155532225390868
 30
0.0
 10
10.0
 20
-4.466208740521391
 30
0.0
 10
10.0
 20
-5.092571350791885
 30
0.0
 10
10.0
 20
-5.408031118238717
 30
0.0
 10
10.0
 20
-5.712053521011026
 30
0.0
  0
SPLINE
  5
A5
330
1F
100
AcDbEntity
  8
0
  6
Continuous
 62
     4
370
    15
100
AcDbSpline
210
0.0
220
0.0
230
1.0
 70
     8
 71
     3
 72
    12
 73
     8
 74
     0
 42
0.000000001
 43
0.00000001
 40
0.0
 40
0.0
 40
0.0
 40
0.0
 40
0.25
 40
0.25
 40
0.5
 40
0.5
 40
1.0
 40
1.0
 40
1.0
 40
1.0
 10
10.0
 20
-5.712053521011017
 30
0.0
 10
9.789020413239033
 20
-5.565902626735329
 30
0.0
 10
9.578200450479414
 20
-5.413754770986141
 30
0.0
 10
9.158867737853047
 20
-5.09897575775438
 30
0.0
 10
8.950521958507553
 20
-4.936410325992165
 30
0.0
 10
8.319848413350638
 20
-4.432202187250247
 30
0.0
 10
7.895871106263312
 20
-4.074937219077215
 30
0.0
 10
7.476351367189884
 20
-3.703315151773991
 30
0.0
  0
SPLINE
  5
A6
330
1F
100
AcDbEntity
  8
0
  6
Continuous
 62
     4
370
    15
100
AcDbSpline
210
0.0
220
0.0
230
1.0
 70
     8
 71
     3
 72
     8
 73
     4
 74
     0
 42
0.000000001
 43
0.00000001
 40
0.0
 40
0.0
 40
0.0
 40
0.0
 40
1.0
 40
1.0
 40
1.0
 40
1.0
 10
10.0
 20
-0.7764109331539599
 30
0.0
 10
9.86595957624902
 20
-0.6433271531036114
 30
0.0
 10
9.731983167529357
 20
-0.5099338854450898
 30
0.0
 10
9.598326626586678
 20
-0.37648693714854
 30
0.0
  0
SPLINE
  5
A7
330
1F
100
AcDbEntity
  8
0
  6
Continuous
 62
     4
370
    15
100
AcDbSpline
210
0.0
220
0.0
230
1.0
 70
     8
 71
     3
 72
     8
 73
     4
 74
     0
 42
0.000000001
 43
0.00000001
 40
0.0
 40
0.0
 40
0.0
 40
0.0
 40
1.0
 40
1.0
 40
1.0
 40
1.0
 10
10.0
 20
-7.229317893270372
 30
0.0
 10
9.86595957624902
 20
-7.174103952788903
 30
0.0
 10
9.731983167529357
 20
-7.115819035815059
 30
0.0
 10
9.59832662658668
 20
-7.054583314308447
 30
0.0
  0
SPLINE
  5
A8
330
1F
100
AcDbEntity
  8
0
  6
Continuous
 62
     4
370
    15
100
AcDbSpline
210
0.0
220
0.0
230
1.0
 70
     8
 71
     3
 72
    22
 73
    18
 74
     0
 42
0.000000001
 43
0.00000001
 40
0.0
 40
0.0
 40
0.0
 40
0.0
 40
0.125
 40
0.125
 40
0.25
 40
0.25
 40
0.375
 40
0.375
 40
0.5
 40
0.5
 40
0.625
 40
0.625
 40
0.75
 40
0.75
 40
0.875
 40
0.875
 40
1.0
 40
1.0
 40
1.0
 40
1.0
 10
6.950412640510798
 20
-7.676195277445908
 30
0.0
 10
6.950412640510798
 20
-7.631442637971401
 30
0.0
 10
6.950823511445598
 20
-7.581114499681505
 30
0.0
 10
6.98154948344101
 20
-7.470399502770105
 30
0.0
 10
7.011792713671814
 20
-7.409224583386215
 30
0.0
 10
7.118150414629962
 20
-7.28170925840678
 30
0.0
 10
7.193682397042784
 20
-7.215877833945978
 30
0.0
 10
7.394753623006033
 20
-7.08965640859667
 30
0.0
 10
7.516322719735117
 20
-7.0313798335338
 30
0.0
 10
7.804352253156087
 20
-6.931947434236768
 30
0.0
 10
7.962369642595172
 20
-6.89371494244974
 30
0.0
 10
8.304845943487715
 20
-6.845342483983094
 30
0.0
 10
8.48077784409655
 20
-6.83656533490911
 30
0.0
 10
8.834569173328125
 20
-6.851019379231552
 30
0.0
 10
9.006282102456879
 20
-6.874147719093562
 30
0.0
 10
9.327317475998841
 20
-6.94761065785761
 30
0.0
 10
9.472394517174857
 20
-6.996886597587414
 30
0.0
 10
9.598326626586546
 20
-7.054583314308385
 30
0.0
  0
SPLINE
  5
A9
330
1F
100
AcDbEntity
  8
0
  6
Continuous
 62
     4
370
    15
100
AcDbSpline
210
0.0
220
0.0
230
1.0
 70
     8
 71
     3
 72
    14
 73
    10
 74
     0
 42
0.000000001
 43
0.00000001
 40
0.0
 40
0.0
 40
0.0
 40
0.0
 40
0.2500000000000002
 40
0.2500000000000002
 40
0.5000000000000003
 40
0.5000000000000003
 40
0.7500000000000001
 40
0.7500000000000001
 40
1.0
 40
1.0
 40
1.0
 40
1.0
 10
7.476351367189886
 20
-7.931708755974284
 30
0.0
 10
7.365165552855801
 20
-7.927455853320277
 30
0.0
 10
7.273726914054101
 20
-7.920347084214189
 30
0.0
 10
7.125470285467886
 20
-7.897005644993326
 30
0.0
 10
7.070215016526752
 20
-7.880761038106442
 30
0.0
 10
6.99389070633467
 20
-7.838628078283397
 30
0.0
 10
6.97223420786496
 20
-7.812439896272704
 30
0.0
 10
6.950521067356078
 20
-7.751170703320129
 30
0.0
 10
6.950412640510797
 20
-7.71594427649932
 30
0.0
 10
6.950412640510797
 20
-7.676195277445662
 30
0.0
  0
SPLINE
  5
AA
330
1F
100
AcDbEntity
  8
0
  6
Continuous
 62
     4
370
    15
100
AcDbSpline
210
0.0
220
0.0
230
1.0
 70
     8
 71
     3
 72
    12
 73
     8
 74
     0
 42
0.000000001
 43
0.00000001
 40
0.0
 40
0.0
 40
0.0
 40
0.0
 40
0.2500000000000001
 40
0.2500000000000001
 40
0.5000000000000001
 40
0.5000000000000001
 40
1.0
 40
1.0
 40
1.0
 40
1.0
 10
10.0
 20
-7.629103663021272
 30
0.0
 10
9.789020413239035
 20
-7.687204878332498
 30
0.0
 10
9.578200450479414
 20
-7.737231607755921
 30
0.0
 10
9.158867737853047
 20
-7.820764176709989
 30
0.0
 10
8.950521958507554
 20
-7.854295358637753
 30
0.0
 10
8.319848413350638
 20
-7.930312313735527
 30
0.0
 10
7.895871106263312
 20
-7.947755556750092
 30
0.0
 10
7.476351367189884
 20
-7.931708755974286
 30
0.0
  0
SPLINE
  5
AB
330
1F
100
AcDbEntity
  8
0
  6
Continuous
 62
     4
370
    15
100
AcDbSpline
210
0.0
220
0.0
230
1.0
 70
     8
 71
     3
 72
     9
 73
     5
 74
     0
 42
0.000000001
 43
0.00000001
 40
0.0
 40
0.0
 40
0.0
 40
0.0
 40
0.5676403212942738
 40
1.0
 40
1.0
 40
1.0
 40
1.0
 10
9.999999999999998
 20
7.629103663021268
 30
0.0
 10
9.580232805318674
 20
7.731400220212378
 30
0.0
 10
8.840737778389975
 20
7.911613910737152
 30
0.0
 10
8.099998328216516
 20
7.916916757697643
 30
0.0
 10
7.779732457534865
 20
7.919209494905703
 30
0.0
  0
LINE
  5
AC
330
1F
100
AcDbEntity
  8
0
  6
Continuous
 62
     1
370
    15
100
AcDbLine
 10
9.999999999999998
 20
7.629103663021273
 30
0.0
 11
9.999999999999998
 21
6.452906960116462
 31
0.0
  0
SPLINE
  5
AD
330
1F
100
AcDbEntity
  8
0
  6
Continuous
 62
     4
370
    15
100
AcDbSpline
210
0.0
220
0.0
230
1.0
 70
     8
 71
     3
 72
     8
 73
     4
 74
     0
 42
0.000000001
 43
0.00000001
 40
0.0
 40
0.0
 40
0.0
 40
0.0
 40
1.0
 40
1.0
 40
1.0
 40
1.0
 10
9.999999999999998
 20
6.452906960116461
 30
0.0
 10
9.865959576249017
 20
6.530776799685344
 30
0.0
 10
9.731983167529348
 20
6.605885150370022
 30
0.0
 10
9.598326626586667
 20
6.678096377159962
 30
0.0
  0
SPLINE
  5
AE
330
1F
100
AcDbEntity
  8
0
  6
Continuous
 62
     4
370
    15
100
AcDbSpline
210
0.0
220
0.0
230
1.0
 70
     8
 71
     3
 72
    22
 73
    18
 74
     0
 42
0.000000001
 43
0.00000001
 40
0.0
 40
0.0
 40
0.0
 40
0.0
 40
0.1249999999999999
 40
0.1249999999999999
 40
0.2499999999999999
 40
0.2499999999999999
 40
0.3749999999999999
 40
0.3749999999999999
 40
0.4999999999999999
 40
0.4999999999999999
 40
0.6249999999999999
 40
0.6249999999999999
 40
0.7499999999999999
 40
0.7499999999999999
 40
0.8749999999999999
 40
0.8749999999999999
 40
1.0
 40
1.0
 40
1.0
 40
1.0
 10
6.950412640510798
 20
5.587368696732735
 30
0.0
 10
6.950412640510798
 20
5.712280871057517
 30
0.0
 10
6.950823511445599
 20
5.832786484194406
 30
0.0
 10
6.981549483441011
 20
6.063401093702476
 30
0.0
 10
7.011792713671817
 20
6.174774735165343
 30
0.0
 10
7.118150414629959
 20
6.38068891241404
 30
0.0
 10
7.193682397042775
 20
6.474496674412864
 30
0.0
 10
7.394753623006021
 20
6.638596467855979
 30
0.0
 10
7.516322719735108
 20
6.706441106320391
 30
0.0
 10
7.804352253156074
 20
6.81592871725497
 30
0.0
 10
7.962369642595155
 20
6.854525059351976
 30
0.0
 10
8.304845943487695
 20
6.902706066489751
 30
0.0
 10
8.480777844096535
 20
6.911005554639062
 30
0.0
 10
8.834569173328108
 20
6.896926179979395
 30
0.0
 10
9.006282102456861
 20
6.874613946535589
 30
0.0
 10
9.327317475998827
 20
6.798732637564581
 30
0.0
 10
9.472394517174843
 20
6.746134290222308
 30
0.0
 10
9.59832662658654
 20
6.678096377160032
 30
0.0
  0
SPLINE
  5
AF
330
1F
100
AcDbEntity
  8
0
  6
Continuous
 62
     4
370
    15
100
AcDbSpline
210
0.0
220
0.0
230
1.0
 70
     8
 71
     3
 72
    14
 73
    10
 74
     0
 42
0.000000001
 43
0.00000001
 40
0.0
 40
0.0
 40
0.0
 40
0.0
 40
0.25
 40
0.25
 40
0.5
 40
0.5
 40
0.75
 40
0.75
 40
1.0
 40
1.0
 40
1.0
 40
1.0
 10
7.476351367189886
 20
4.228393604200309
 30
0.0
 10
7.365165552855801
 20
4.322632139086008
 30
0.0
 10
7.273726914054098
 20
4.427182671819227
 30
0.0
 10
7.125470285467884
 20
4.652063310484197
 30
0.0
 10
7.07021501652675
 20
4.771160574305054
 30
0.0
 10
6.993890706334668
 20
5.008774360937277
 30
0.0
 10
6.972234207864958
 20
5.12907984383634
 30
0.0
 10
6.950521067356076
 20
5.36238181391044
 30
0.0
 10
6.950412640510802
 20
5.476422527806497
 30
0.0
 10
6.950412640510802
 20
5.58736869673258
 30
0.0
  0
SPLINE
  5
B0
330
1F
100
AcDbEntity
  8
0
  6
Continuous
 62
     4
370
    15
100
AcDbSpline
210
0.0
220
0.0
230
1.0
 70
     8
 71
     3
 72
    12
 73
     8
 74
     0
 42
0.000000001
 43
0.00000001
 40
0.0
 40
0.0
 40
0.0
 40
0.0
 40
0.2500000000000001
 40
0.2500000000000001
 40
0.5000000000000002
 40
0.5000000000000002
 40
1.0
 40
1.0
 40
1.0
 40
1.0
 10
9.999999999999998
 20
1.917050142010246
 30
0.0
 10
9.789020413239035
 20
2.12130225159716
 30
0.0
 10
9.578200450479414
 20
2.323476836769773
 30
0.0
 10
9.158867737853047
 20
2.721788418955607
 30
0.0
 10
8.950521958507558
 20
2.917885032645582
 30
0.0
 10
8.319848413350643
 20
3.49811012648528
 30
0.0
 10
7.895871106263315
 20
3.872818337672881
 30
0.0
 10
7.476351367189889
 20
4.228393604200305
 30
0.0
  0
LINE
  5
B1
330
1F
100
AcDbEntity
  8
0
  6
Continuous
 62
     1
370
    15
100
AcDbLine
 10
9.999999999999998
 20
1.917050142010244
 30
0.0
 11
10.0
 21
-0.7764109331539581
 31
0.0
  0
LINE
  5
B2
330
1F
100
AcDbEntity
  8
0
  6
Continuous
 62
     4
370
    15
100
AcDbLine
 10
9.999999999999998
 20
-5.712053521011025
 30
0.0
 11
10.0
 21
-7.229317893270372
 31
0.0
  0
LINE
  5
B3
330
1F
100
AcDbEntity
  8
0
  6
Continuous
 62
     4
370
    15
100
AcDbLine
 10
-46.65
 20
7.93749999999999
 30
0.0
 11
-46.65
 21
-7.937499999999989
 31
0.0
  0
LINE
  5
B4
330
1F
100
AcDbEntity
  8
0
  6
Continuous
 62
     4
370
    15
100
AcDbLine
 10
-47.15
 20
7.43749999999999
 30
0.0
 11
-47.15
 21
-7.437500000000003
 31
0.0
  0
SPLINE
  5
B5
330
1F
100
AcDbEntity
  8
0
  6
Continuous
 62
     1
370
    15
100
AcDbSpline
210
0.0
220
0.0
230
1.0
 70
    24
 71
     3
 72
    18
 73
    14
 74
     0
 42
0.000000001
 43
0.00000001
 40
0.0
 40
0.0
 40
0.0
 40
0.0
 40
0.2499999999999999
 40
0.2499999999999999
 40
0.4999999999999998
 40
0.4999999999999998
 40
0.6249999999999998
 40
0.6249999999999998
 40
0.7499999999999999
 40
0.7499999999999999
 40
0.875
 40
0.875
 40
1.0
 40
1.0
 40
1.0
 40
1.0
 10
9.999999999999998
 20
6.452906960116412
 30
0.0
 10
9.999999999999998
 20
6.130619408946655
 30
0.0
 10
10.0
 20
5.761043540790396
 30
0.0
 10
9.999999999999998
 20
4.93737020789317
 30
0.0
 10
10.0
 20
4.481639020748192
 30
0.0
 10
10.0
 20
3.792772457135152
 30
0.0
 10
10.0
 20
3.563042343291064
 30
0.0
 10
10.0
 20
3.122452647283082
 30
0.0
 10
9.999999999999998
 20
2.911725158530332
 30
0.0
 10
10.0
 20
2.532116992353594
 30
0.0
 10
9.999999999999998
 20
2.363455589693044
 30
0.0
 10
9.999999999999998
 20
2.089374255912283
 30
0.0
 10
10.0
 20
1.984161287618899
 30
0.0
 10
10.0
 20
1.917050142010245
 30
0.0
  0
SPLINE
  5
B6
330
1F
100
AcDbEntity
  8
0
  6
Continuous
 62
     4
370
    15
100
AcDbSpline
210
0.0
220
0.0
230
1.0
 70
    24
 71
     3
 72
     9
 73
     5
 74
     0
 42
0.000000001
 43
0.00000001
 40
0.0
 40
0.0
 40
0.0
 40
0.0
 40
0.0669793020179241
 40
1.0
 40
1.0
 40
1.0
 40
1.0
 10
9.999999999999998
 20
-7.292001752071182
 30
0.0
 10
9.999999999999998
 20
-7.298399525582211
 30
0.0
 10
9.999999999999996
 20
-7.393918190576919
 30
0.0
 10
9.999999999999998
 20
-7.515585523311575
 30
0.0
 10
9.999999999999998
 20
-7.629103663021279
 30
0.0
  0
SPLINE
  5
B7
330
1F
100
AcDbEntity
  8
0
  6
Continuous
 62
     1
370
    15
100
AcDbSpline
210
0.0
220
0.0
230
1.0
 70
     8
 71
     3
 72
    17
 73
    13
 74
     0
 42
0.000000001
 43
0.00000001
 40
0.0
 40
0.0
 40
0.0
 40
0.0
 40
0.0966364059985879
 40
0.1933522443193322
 40
0.2898703599593458
 40
0.3866661019907521
 40
0.4831909434193127
 40
0.5895084811363208
 40
0.6959076028826474
 40
0.8020900823175107
 40
0.9084654374566288
 40
1.0
 40
1.0
 40
1.0
 40
1.0
 10
10.00000000000033
 20
-0.7764109331542908
 30
0.0
 10
10.37648554431063
 20
-1.149753714522644
 30
0.0
 10
11.12976609312622
 20
-1.896746154194373
 30
0.0
 10
12.26055688151528
 20
-2.972704619341554
 30
0.0
 10
13.38881136565969
 20
-3.993037339899749
 30
0.0
 10
14.52052570491499
 20
-4.928093936957133
 30
0.0
 10
15.68645115842205
 20
-5.795124104900726
 30
0.0
 10
16.89195549490527
 20
-6.557343245344206
 30
0.0
 10
18.13591572822034
 20
-7.184131152867646
 30
0.0
 10
19.37733946948618
 20
-7.631122987286179
 30
0.0
 10
20.56342139613223
 20
-7.896752357612028
 30
0.0
 10
21.3347661500111
 20
-7.916646374984666
 30
0.0
 10
21.69151787545873
 20
-7.925847481219046
 30
0.0
  0
SPLINE
  5
B8
330
1F
100
AcDbEntity
  8
0
  6
Continuous
 62
     1
370
    15
100
AcDbSpline
210
0.0
220
0.0
230
1.0
 70
     8
 71
     3
 72
    22
 73
    18
 74
     0
 42
0.000000001
 43
0.00000001
 40
0.0
 40
0.0
 40
0.0
 40
0.0
 40
0.0214790375115567
 40
0.0936489838632702
 40
0.1658809395507832
 40
0.2382022655449166
 40
0.3103630024754661
 40
0.3826311201955961
 40
0.4549209741991681
 40
0.5270797550187005
 40
0.5993857601746052
 40
0.6716363230002754
 40
0.7372320306288269
 40
0.8030118350813434
 40
0.8686029720433961
 40
0.9343284760654177
 40
1.0
 40
1.0
 40
1.0
 40
1.0
 10
27.20380301326526
 20
-7.429963638946001
 30
0.0
 10
27.08052326409102
 20
-7.477920010380561
 30
0.0
 10
26.54302137487112
 20
-7.687010638962017
 30
0.0
 10
25.59288220510545
 20
-7.872661489531851
 30
0.0
 10
24.35013384539367
 20
-7.972010739034777
 30
0.0
 10
23.1058923208979
 20
-7.863257245053951
 30
0.0
 10
21.8644108963156
 20
-7.565135991082898
 30
0.0
 10
20.62107823604428
 20
-7.081370118251836
 30
0.0
 10
19.37736712957542
 20
-6.425110330352185
 30
0.0
 10
18.13590830368545
 20
-5.609828123994393
 30
0.0
 10
16.89195749070841
 20
-4.65929576054926
 30
0.0
 10
15.68645067839845
 20
-3.626494509788884
 30
0.0
 10
14.52052582864337
 20
-2.545225713750824
 30
0.0
 10
13.38881133258692
 20
-1.451300882768487
 30
0.0
 10
12.26055689034417
 20
-0.3239961979448902
 30
0.0
 10
11.12976609091893
 20
0.8089460576515208
 30
0.0
 10
10.37648554357486
 20
1.547783289437267
 30
0.0
 10
10.00000000000001
 20
1.91705014201024
 30
0.0
  0
SPLINE
  5
B9
330
1F
100
AcDbEntity
  8
0
  6
Continuous
 62
     1
370
    15
100
AcDbSpline
210
0.0
220
0.0
230
1.0
 70
    24
 71
     3
 72
    18
 73
    14
 74
     0
 42
0.000000001
 43
0.00000001
 40
0.0
 40
0.0
 40
0.0
 40
0.0
 40
0.2500000000000001
 40
0.2500000000000001
 40
0.5000000000000002
 40
0.5000000000000002
 40
0.6250000000000002
 40
0.6250000000000002
 40
0.7500000000000001
 40
0.7500000000000001
 40
0.875
 40
0.875
 40
1.0
 40
1.0
 40
1.0
 40
1.0
 10
10.0
 20
6.452906960114931
 30
0.0
 10
10.0
 20
6.130619408945162
 30
0.0
 10
10.00000000000001
 20
5.761043540788916
 30
0.0
 10
10.00000000000001
 20
4.937370207891823
 30
0.0
 10
10.0
 20
4.48163902074696
 30
0.0
 10
10.0
 20
3.792772457134185
 30
0.0
 10
10.00000000000001
 20
3.563042343290198
 30
0.0
 10
10.0
 20
3.122452647282429
 30
0.0
 10
10.00000000000001
 20
2.911725158529787
 30
0.0
 10
10.0
 20
2.532116992353259
 30
0.0
 10
10.0
 20
2.363455589692808
 30
0.0
 10
10.0
 20
2.0893742559122
 30
0.0
 10
10.00000000000001
 20
1.984161287618869
 30
0.0
 10
10.00000000000001
 20
1.91705014201024
 30
0.0
  0
SPLINE
  5
BA
330
1F
100
AcDbEntity
  8
0
  6
Continuous
 62
     1
370
    15
100
AcDbSpline
210
0.0
220
0.0
230
1.0
 70
     8
 71
     3
 72
    24
 73
    20
 74
     0
 42
0.000000001
 43
0.00000001
 40
0.0
 40
0.0
 40
0.0
 40
0.0
 40
0.0564830443972121
 40
0.1130125162182566
 40
0.1694264210452822
 40
0.2260025958121801
 40
0.2824204317975427
 40
0.3445620040240574
 40
0.406751261326424
 40
0.4688138932936463
 40
0.5309892592440295
 40
0.5931459301590438
 40
0.6552102445465725
 40
0.7174126790608273
 40
0.779538247580596
 40
0.841610482846358
 40
0.9038285507304328
 40
0.9659292091861005
 40
0.9999999999999999
 40
0.9999999999999999
 40
0.9999999999999999
 40
0.9999999999999999
 10
10.00000000000033
 20
6.452906960116265
 30
0.0
 10
10.37648554357393
 20
6.220946045733601
 30
0.0
 10
11.12976609091549
 20
5.756833551826205
 30
0.0
 10
12.26055689035914
 20
4.910804478677207
 30
0.0
 10
13.38881133253168
 20
3.971773657209683
 30
0.0
 10
14.52052582885055
 20
2.954127489458245
 30
0.0
 10
15.6864506775949
 20
1.837471766661294
 30
0.0
 10
16.89195749404941
 20
0.6440526442828249
 30
0.0
 10
18.13590829125667
 20
-0.6014091139163183
 30
0.0
 10
19.37736717587875
 20
-1.835096828679405
 30
0.0
 10
20.62107806290177
 20
-3.021232615330193
 30
0.0
 10
21.86441154183353
 20
-4.133969208646228
 30
0.0
 10
23.10588991350066
 20
-5.147235216178608
 30
0.0
 10
24.35014284792976
 20
-6.032295633012948
 30
0.0
 10
25.59284866793432
 20
-6.770418966608609
 30
0.0
 10
26.83446705706244
 20
-7.345725922795903
 30
0.0
 10
28.07908015611566
 20
-7.730782080133814
 30
0.0
 10
29.1344218278886
 20
-7.927603610109312
 30
0.0
 10
29.77544461832508
 20
-7.917141945420717
 30
0.0
 10
30.0025406386698
 20
-7.913435677168785
 30
0.0
  0
SPLINE
  5
BB
330
1F
100
AcDbEntity
  8
0
  6
Continuous
 62
     1
370
    15
100
AcDbSpline
210
0.0
220
0.0
230
1.0
 70
     8
 71
     3
 72
    25
 73
    21
 74
     0
 42
0.000000001
 43
0.00000001
 40
0.0
 40
0.0
 40
0.0
 40
0.0
 40
0.0226709023603374
 40
0.0806812242784413
 40
0.1386741035164186
 40
0.1965808130663083
 40
0.2546163902616438
 40
0.3125802506119468
 40
0.3704943504311043
 40
0.4285445137378693
 40
0.4864851327157187
 40
0.5444124377865037
 40
0.602466503984468
 40
0.6603896765970823
 40
0.7169737990682598
 40
0.7736512059111763
 40
0.8301910878885911
 40
0.8868280841936703
 40
0.9434591479005041
 40
1.0
 40
1.0
 40
1.0
 40
1.0
 10
18.89126003390623
 20
7.427320987261194
 30
0.0
 10
19.05316044312314
 20
7.488786445702044
 30
0.0
 10
19.62933174055032
 20
7.707529765179226
 30
0.0
 10
20.62108316207392
 20
7.890498591862987
 30
0.0
 10
21.86441023002823
 20
7.97007053118703
 30
0.0
 10
23.10589007184631
 20
7.842845479358648
 30
0.0
 10
24.35014353058119
 20
7.527302909898987
 30
0.0
 10
25.59284578478306
 20
7.026542677927879
 30
0.0
 10
26.83447790904552
 20
6.353140053215754
 30
0.0
 10
28.07903955661682
 20
5.526256849705139
 30
0.0
 10
29.32123957905847
 20
4.562543579304263
 30
0.0
 10
30.56315330014048
 20
3.48666385024819
 30
0.0
 10
31.807797165487
 20
2.328224299745119
 30
0.0
 10
33.03989677072357
 20
1.11946966050007
 30
0.0
 10
34.26269555886022
 20
-0.1055440014182623
 30
0.0
 10
35.47783124924723
 20
-1.315856522176988
 30
0.0
 10
36.68995142768044
 20
-2.499800470428235
 30
0.0
 10
37.9042475227044
 20
-3.620188262483839
 30
0.0
 10
39.11816764173894
 20
-4.665923347420716
 30
0.0
 10
39.92630004780721
 20
-5.267820197492267
 30
0.0
 10
40.33004416155458
 20
-5.568528730493392
 30
0.0
  0
SPLINE
  5
BC
330
1F
100
AcDbEntity
  8
0
  6
Continuous
 62
     1
370
    15
100
AcDbSpline
210
0.0
220
0.0
230
1.0
 70
     8
 71
     3
 72
    20
 73
    16
 74
     0
 42
0.000000001
 43
0.00000001
 40
0.0
 40
0.0
 40
0.0
 40
0.0
 40
0.0797635549838771
 40
0.1596275829163373
 40
0.2393370213867123
 40
0.319068238062677
 40
0.3989430014155803
 40
0.4786751244566139
 40
0.5535636309779219
 40
0.6286213689946393
 40
0.7035152183451933
 40
0.7784262811626735
 40
0.853478973155842
 40
0.9283557495194028
 40
1.0
 40
1.0
 40
1.0
 40
1.0
 10
40.98799999999999
 20
-3.932885438819133
 30
0.0
 10
40.547208035421
 20
-3.539234347647738
 30
0.0
 10
39.66506886937065
 20
-2.751436308696614
 30
0.0
 10
38.34057020215138
 20
-1.466546588529307
 30
0.0
 10
37.01872216034026
 20
-0.1466516561259569
 30
0.0
 10
35.69648486102066
 20
1.179154282086941
 30
0.0
 10
34.37188382975121
 20
2.469649624527495
 30
0.0
 10
33.07618677459812
 20
3.6692545306854
 30
0.0
 10
31.80780229694886
 20
4.749053718010577
 30
0.0
 10
30.56315230124201
 20
5.687803275671962
 30
0.0
 10
29.32123845451981
 20
6.48928996286032
 30
0.0
 10
28.07904505967803
 20
7.132564235757925
 30
0.0
 10
26.83445699891985
 20
7.596282684490602
 30
0.0
 10
25.61112603887645
 20
7.886372072635274
 30
0.0
 10
24.80112187310098
 20
7.917966615793339
 30
0.0
 10
24.40505488808819
 20
7.93341537023214
 30
0.0
  0
ELLIPSE
  5
BE
330
1F
100
AcDbEntity
  8
0
  6
Continuous
 62
     1
370
    15
100
AcDbEllipse
 10
43.17814800674212
 20
0.0
 30
0.0
 11
11.18322645805123
 21
7.430697861030161
 31
0.0
210
0.0
220
0.0
230
1.0
 40
0.2495534463455961
 41
4.294101075668088
 42
4.35364142431853
  0
SPLINE
  5
BF
330
1F
100
AcDbEntity
  8
0
  6
Continuous
 62
     1
370
    15
100
AcDbSpline
210
0.0
220
0.0
230
1.0
 70
     8
 71
     3
 72
    16
 73
    12
 74
     0
 42
0.000000001
 43
0.00000001
 40
0.0
 40
0.0
 40
0.0
 40
0.0
 40
0.2500000000000003
 40
0.2500000000000003
 40
0.3750000000000002
 40
0.3750000000000002
 40
0.5000000000000002
 40
0.5000000000000002
 40
0.7500000000000001
 40
0.7500000000000001
 40
1.0
 40
1.0
 40
1.0
 40
1.0
 10
41.75000000000001
 20
-3.715775729240923
 30
0.0
 10
41.74999999999983
 20
-3.82860752723805
 30
0.0
 10
41.73619627883067
 20
-3.939010207522062
 30
0.0
 10
41.67416239104461
 20
-4.068178739360234
 30
0.0
 10
41.64679048303539
 20
-4.103695632460061
 30
0.0
 10
41.58028645829651
 20
-4.15377200521614
 30
0.0
 10
41.54169207109097
 20
-4.168022047360626
 30
0.0
 10
41.41804145456529
 20
-4.181807984287182
 30
0.0
 10
41.32926198055178
 20
-4.154264433386422
 30
0.0
 10
41.1565178509241
 20
-4.066288417097216
 30
0.0
 10
41.07060796665793
 20
-4.004487733495935
 30
0.0
 10
40.98800000000001
 20
-3.932885438819143
 30
0.0
  0
SPLINE
  5
C0
330
1F
100
AcDbEntity
  8
0
  6
Continuous
 62
     1
370
    15
100
AcDbSpline
210
0.0
220
0.0
230
1.0
 70
     8
 71
     3
 72
    18
 73
    14
 74
     0
 42
0.000000001
 43
0.00000001
 40
0.0
 40
0.0
 40
0.0
 40
0.0
 40
0.0666600598154196
 40
0.1612926167705863
 40
0.2559034285478312
 40
0.3507212752135379
 40
0.4453253375792284
 40
0.5377423722429231
 40
0.6303117652827854
 40
0.7226565433651803
 40
0.8151599351680707
 40
0.9076536374482865
 40
1.0
 40
1.0
 40
1.0
 40
1.0
 10
27.20380301326531
 20
7.429963638945996
 30
0.0
 10
27.49572630967302
 20
7.529530429990785
 30
0.0
 10
28.20207239613428
 20
7.770445129370483
 30
0.0
 10
29.32126286820789
 20
7.93649884386362
 30
0.0
 10
30.56314704441783
 20
7.951122285792713
 30
0.0
 10
31.80779884034132
 20
7.764949592893389
 30
0.0
 10
33.03989633392271
 20
7.392981400454504
 30
0.0
 10
34.2626956749632
 20
6.847502713735754
 30
0.0
 10
35.47783121820248
 20
6.14813931023123
 30
0.0
 10
36.68995143600341
 20
5.303154528262326
 30
0.0
 10
37.90424752048349
 20
4.335427117362682
 30
0.0
 10
39.11816764229311
 20
3.269954535018582
 30
0.0
 10
39.92630004799186
 20
2.499355115794208
 30
0.0
 10
40.33004416155458
 20
2.114362536319947
 30
0.0
  0
SPLINE
  5
C1
330
1F
100
AcDbEntity
  8
0
  6
Continuous
 62
     1
370
    15
100
AcDbSpline
210
0.0
220
0.0
230
1.0
 70
     8
 71
     3
 72
    18
 73
    14
 74
     0
 42
0.000000001
 43
0.00000001
 40
0.0
 40
0.0
 40
0.0
 40
0.0
 40
0.2499999999999996
 40
0.2499999999999996
 40
0.5000000000000003
 40
0.5000000000000003
 40
0.6250000000000002
 40
0.6250000000000002
 40
0.7500000000000001
 40
0.7500000000000001
 40
0.8750000000000001
 40
0.8750000000000001
 40
1.0
 40
1.0
 40
1.0
 40
1.0
 10
40.33004416153819
 20
2.11436253633574
 30
0.0
 10
40.30323747711821
 20
1.992138632474802
 30
0.0
 10
40.26400748351806
 20
1.864923748378923
 30
0.0
 10
40.1535097175539
 20
1.597623019780086
 30
0.0
 10
40.08168999582067
 20
1.456324509309086
 30
0.0
 10
39.94109535915181
 20
1.234432393112099
 30
0.0
 10
39.88943097463725
 20
1.15991604997705
 30
0.0
 10
39.77511992951919
 20
1.00961957532753
 30
0.0
 10
39.71172491779741
 20
0.9330609854575168
 30
0.0
 10
39.57542125201093
 20
0.7824677993752457
 30
0.0
 10
39.50304306955364
 20
0.7088823296042701
 30
0.0
 10
39.34946967122632
 20
0.5652811447210685
 30
0.0
 10
39.26724271411204
 20
0.4944706811508546
 30
0.0
 10
39.18293193635122
 20
0.427750660673953
 30
0.0
  0
SPLINE
  5
C2
330
1F
100
AcDbEntity
  8
0
  6
Continuous
 62
     1
370
    15
100
AcDbSpline
210
0.0
220
0.0
230
1.0
 70
     8
 71
     3
 72
     8
 73
     4
 74
     0
 42
0.000000001
 43
0.00000001
 40
0.0
 40
0.0
 40
0.0
 40
0.0
 40
1.0
 40
1.0
 40
1.0
 40
1.0
 10
41.75000000000001
 20
-1.366360276448581
 30
0.0
 10
40.89343154747684
 20
-0.774737162335605
 30
0.0
 10
40.03773586070884
 20
-0.1767463829161025
 30
0.0
 10
39.18293193635122
 20
0.4277506606739725
 30
0.0
  0
LINE
  5
C3
330
1F
100
AcDbEntity
  8
0
  6
Continuous
 62
     1
370
    15
100
AcDbLine
 10
41.75000000000001
 20
-3.715775729237217
 30
0.0
 11
41.75000000000001
 21
-1.36636027644858
 31
0.0
  0
SPLINE
  5
C4
330
1F
100
AcDbEntity
  8
0
  6
Continuous
 62
     1
370
    15
100
AcDbSpline
210
0.0
220
0.0
230
1.0
 70
     8
 71
     3
 72
    28
 73
    24
 74
     0
 42
0.000000001
 43
0.00000001
 40
0.0
 40
0.0
 40
0.0
 40
0.0
 40
0.0442091508125895
 40
0.0960593539479539
 40
0.144759728747149
 40
0.1935701556442841
 40
0.2422740049123778
 40
0.2909890481851304
 40
0.339796193627614
 40
0.3884889402458602
 40
0.4372235242912998
 40
0.4860184060910742
 40
0.5347049391532086
 40
0.5834639215636247
 40
0.63223756934925
 40
0.6809227826318511
 40
0.729707327529195
 40
0.7784544657292294
 40
0.8227116022834923
 40
0.8670929481583342
 40
0.9113470009039348
 40
0.9556917105162184
 40
1.0
 40
1.0
 40
1.0
 40
1.0
 10
35.4995581902666
 20
-7.441566010607326
 30
0.0
 10
35.12345535951712
 20
-7.561414825934998
 30
0.0
 10
34.30624457225397
 20
-7.821826970484155
 30
0.0
 10
33.07616731564122
 20
-7.960721231140978
 30
0.0
 10
31.80780748487964
 20
-7.918423759675218
 30
0.0
 10
30.56315053906278
 20
-7.678676784936657
 30
0.0
 10
29.32124031881987
 20
-7.251832802706288
 30
0.0
 10
28.07903935619133
 20
-6.646931049244584
 30
0.0
 10
26.83447796921099
 20
-5.88111533969
 30
0.0
 10
25.59284574424462
 20
-4.969263730322951
 30
0.0
 10
24.35014363274914
 20
-3.936580329657247
 30
0.0
 10
23.10588970362958
 20
-2.809171384214203
 30
0.0
 10
21.86441159810824
 20
-1.610054839144734
 30
0.0
 10
20.62107804780763
 20
-0.3736336627532354
 30
0.0
 10
19.37736717991537
 20
0.8715128225681615
 30
0.0
 10
18.13590829017317
 20
2.097969900937028
 30
0.0
 10
16.89195749434067
 20
3.270196398686479
 30
0.0
 10
15.68645067752484
 20
4.330350532641381
 30
0.0
 10
14.52052582886854
 20
5.262886461191272
 30
0.0
 10
13.38881133252673
 20
6.056607433011845
 30
0.0
 10
12.26055689036023
 20
6.728040040793644
 30
0.0
 10
11.12976609091492
 20
7.272313494776064
 30
0.0
 10
10.37648554357352
 20
7.510206183699069
 30
0.0
 10
10.0
 20
7.62910366302127
 30
0.0
  0
SPLINE
  5
C5
330
1F
100
AcDbEntity
  8
0
  6
Continuous
 62
     1
370
    15
100
AcDbSpline
210
0.0
220
0.0
230
1.0
 70
     8
 71
     3
 72
    31
 73
    27
 74
     0
 42
0.000000001
 43
0.00000001
 40
0.0
 40
0.0
 40
0.0
 40
0.0
 40
0.0198498132919483
 40
0.0606184298426336
 40
0.101303700373742
 40
0.1421059987266793
 40
0.1827941043786844
 40
0.227610124205998
 40
0.2724605341400996
 40
0.3172196228647896
 40
0.3620600144636028
 40
0.4068869233479344
 40
0.4516472254210979
 40
0.4965071386581912
 40
0.5413116167363482
 40
0.5860776312854475
 40
0.6309488191875795
 40
0.6757353323207462
 40
0.7205115541680395
 40
0.7653857588982798
 40
0.8101587864684769
 40
0.853896764917636
 40
0.8977068496337579
 40
0.9414106313917202
 40
0.985189479867783
 40
1.0
 40
1.0
 40
1.0
 40
1.0
 10
10.57921089143372
 20
7.430195031422234
 30
0.0
 10
10.76268163513987
 20
7.497364433545139
 30
0.0
 10
11.32297448232945
 20
7.702489974540052
 30
0.0
 10
12.26058198778591
 20
7.880229964508526
 30
0.0
 10
13.38880459291524
 20
7.965687996868048
 30
0.0
 10
14.52052762548584
 20
7.882001009322815
 30
0.0
 10
15.6864501421049
 20
7.632609999550383
 30
0.0
 10
16.89195764375257
 20
7.201608569892217
 30
0.0
 10
18.13590825022351
 20
6.581863429482936
 30
0.0
 10
19.37736719061384
 20
5.799242960077573
 30
0.0
 10
20.62107804500902
 20
4.876421986529171
 30
0.0
 10
21.86441159859798
 20
3.834194907918083
 30
0.0
 10
23.1058897044628
 20
2.696094156610325
 30
0.0
 10
24.35014362891701
 20
1.494982025028312
 30
0.0
 10
25.59284575871154
 20
0.2557417996696701
 30
0.0
 10
26.8344779151646
 20
-0.9910328911320694
 30
0.0
 10
28.07903955828166
 20
-2.210366065318683
 30
0.0
 10
29.32123956631925
 20
-3.378115509171126
 30
0.0
 10
30.56315334947411
 20
-4.463352314944893
 30
0.0
 10
31.80779698062444
 20
-5.436978937561102
 30
0.0
 10
33.0398974522617
 20
-6.273602391405728
 30
0.0
 10
34.26269307876963
 20
-6.952453438832358
 30
0.0
 10
35.47784051983958
 20
-7.466285537692164
 30
0.0
 10
36.68991689770944
 20
-7.794407400313508
 30
0.0
 10
37.63638843433988
 20
-7.944955838571493
 30
0.0
 10
38.17814330470949
 20
-7.922429684390398
 30
0.0
 10
38.31509087053804
 20
-7.916735407972586
 30
0.0
  0
SPLINE
  5
C6
330
1F
100
AcDbEntity
  8
0
  6
Continuous
 62
     1
370
    15
100
AcDbSpline
210
0.0
220
0.0
230
1.0
 70
     8
 71
     3
 72
    27
 73
    23
 74
     0
 42
0.000000001
 43
0.00000001
 40
0.03873954365563
 40
0.03873954365563
 40
0.03873954365563
 40
0.03873954365563
 40
0.0531298739014433
 40
0.1063266720402756
 40
0.1594204993595558
 40
0.2125288329695475
 40
0.2657327818871349
 40
0.3188417192197394
 40
0.3687243618495565
 40
0.4187197282416616
 40
0.468605929687835
 40
0.5185035968883543
 40
0.5684956021640334
 40
0.6183704314284347
 40
0.6682881137804735
 40
0.718267557696838
 40
0.7681360225626025
 40
0.8180786955831092
 40
0.868036390000753
 40
0.9179035030475411
 40
0.9678723591191106
 40
1.0
 40
1.0
 40
1.0
 40
1.0
 10
40.02367170258989
 20
-7.867930370059056
 30
0.0
 10
39.90423757542379
 20
-7.854908301977741
 30
0.0
 10
39.34321268307031
 20
-7.782177269703218
 30
0.0
 10
38.34057020198864
 20
-7.519237273778457
 30
0.0
 10
37.0187221609493
 20
-6.978705802528641
 30
0.0
 10
35.69648485874431
 20
-6.240332111593912
 30
0.0
 10
34.37188383825745
 20
-5.331623985095158
 30
0.0
 10
33.07618674373055
 20
-4.294749312836312
 30
0.0
 10
31.80780240449366
 20
-3.168499319221448
 30
0.0
 10
30.56315189839672
 20
-1.991152848895321
 30
0.0
 10
29.32123995456272
 20
-0.7622954407184874
 30
0.0
 10
28.07903945509621
 20
0.4849218261034299
 30
0.0
 10
26.83447793872165
 20
1.717767906991216
 30
0.0
 10
25.59284576743806
 20
2.911756899359887
 30
0.0
 10
24.35014357035552
 20
4.03319285225012
 30
0.0
 10
23.10588993006535
 20
5.054660593118189
 30
0.0
 10
21.86441075637119
 20
5.955014994525831
 30
0.0
 10
20.62108119457338
 20
6.707425266706761
 30
0.0
 10
19.37735544174355
 20
7.297933446548851
 30
0.0
 10
18.1359520462935
 20
7.702873736564656
 30
0.0
 10
17.03968823960856
 20
7.918788877958786
 30
0.0
 10
16.35848680601928
 20
7.91620007633107
 30
0.0
 10
16.09190545555585
 20
7.915186974772604
 30
0.0
  0
LINE
  5
C7
330
1F
100
AcDbEntity
  8
0
  6
Continuous
 62
     1
370
    15
100
AcDbLine
 10
40.98800000000001
 20
-7.937500000000004
 30
0.0
 11
40.98799999999999
 21
-7.937392290570198
 31
0.0
  0
SPLINE
  5
C9
330
1F
100
AcDbEntity
  8
0
  6
Continuous
 62
     1
370
    15
100
AcDbSpline
210
0.0
220
0.0
230
1.0
 70
     8
 71
     3
 72
    11
 73
     7
 74
     0
 42
0.000000001
 43
0.00000001
 40
0.0
 40
0.0
 40
0.0
 40
0.0
 40
0.1639693671004387
 40
0.5251155740407468
 40
0.899652350753823
 40
1.0
 40
1.0
 40
1.0
 40
1.0
 10
39.77413389110558
 20
-5.143677303007313
 30
0.0
 10
39.7482588976231
 20
-5.141732764530413
 30
0.0
 10
39.66539365092407
 20
-5.135505336465049
 30
0.0
 10
39.49002699058819
 20
-5.166313078749086
 30
0.0
 10
39.31235143104549
 20
-5.219987965511252
 30
0.0
 10
39.20550881031041
 20
-5.263858579726615
 30
0.0
 10
39.18293193635121
 20
-5.273128862698321
 30
0.0
  0
SPLINE
  5
CA
330
1F
100
AcDbEntity
  8
0
  6
Continuous
 62
     1
370
    15
100
AcDbSpline
210
0.0
220
0.0
230
1.0
 70
     8
 71
     3
 72
     8
 73
     4
 74
     0
 42
0.000000001
 43
0.00000001
 40
0.0143565955260495
 40
0.0143565955260495
 40
0.0143565955260495
 40
0.0143565955260495
 40
1.0
 40
1.0
 40
1.0
 40
1.0
 10
41.71310831927853
 20
-6.060532722593406
 30
0.0
 10
40.868861977543
 20
-5.868816127715458
 30
0.0
 10
40.02546378651274
 20
-5.606850382150663
 30
0.0
 10
39.18293193635121
 20
-5.273128862698317
 30
0.0
  0
SPLINE
  5
CD
330
1F
100
AcDbEntity
  8
0
  6
Continuous
 62
     1
370
    15
100
AcDbSpline
210
0.0
220
0.0
230
1.0
 70
     8
 71
     3
 72
    15
 73
    11
 74
     0
 42
0.000000001
 43
0.00000001
 40
0.0
 40
0.0
 40
0.0
 40
0.0
 40
0.0849554566931854
 40
0.2248589946963876
 40
0.3646552583710163
 40
0.491575167101565
 40
0.6188512813361008
 40
0.7457623463694649
 40
0.8729333957158916
 40
1.0
 40
1.0
 40
1.0
 40
1.0
 10
18.89126003390617
 20
-7.427320987261194
 30
0.0
 10
18.63965996392915
 20
-7.516375563061448
 30
0.0
 10
17.97372818034882
 20
-7.752084052745374
 30
0.0
 10
16.89196268773586
 20
-7.924536688336259
 30
0.0
 10
15.68644942842761
 20
-7.958036914933103
 30
0.0
 10
14.52052615082949
 20
-7.807804963954132
 30
0.0
 10
13.38881124646646
 20
-7.507990433381982
 30
0.0
 10
12.26055691333488
 20
-7.052014316631449
 30
0.0
 10
11.12976608517187
 20
-6.463372917068585
 30
0.0
 10
10.37648554165969
 20
-5.962424720409463
 30
0.0
 10
10.00000000000001
 20
-5.712053521011025
 30
0.0
  0
SPLINE
  5
CE
330
1F
100
AcDbEntity
  8
0
  6
Continuous
 62
     1
370
    15
100
AcDbSpline
210
0.0
220
0.0
230
1.0
 70
    24
 71
     3
 72
    18
 73
    14
 74
     0
 42
0.000000001
 43
0.00000001
 40
0.0
 40
0.0
 40
0.0
 40
0.0
 40
0.25
 40
0.25
 40
0.5
 40
0.5
 40
0.625
 40
0.625
 40
0.75
 40
0.75
 40
0.875
 40
0.875
 40
1.0
 40
1.0
 40
1.0
 40
1.0
 10
10.00000000000001
 20
-0.7764109331545053
 30
0.0
 10
10.00000000000001
 20
-0.890800206184688
 30
0.0
 10
10.00000000000001
 20
-1.056560191485603
 30
0.0
 10
10.00000000000001
 20
-1.549439173895009
 30
0.0
 10
10.00000000000001
 20
-1.87879848222758
 30
0.0
 10
10.00000000000001
 20
-2.521509397014906
 30
0.0
 10
10.00000000000001
 20
-2.760098558767153
 30
0.0
 10
10.00000000000001
 20
-3.280686386150784
 30
0.0
 10
10.00000000000001
 20
-3.562724941970211
 30
0.0
 10
10.00000000000001
 20
-4.155532225391455
 30
0.0
 10
10.00000000000001
 20
-4.466208740521861
 30
0.0
 10
10.00000000000001
 20
-5.092571350792122
 30
0.0
 10
10.00000000000001
 20
-5.408031118238829
 30
0.0
 10
10.00000000000001
 20
-5.712053521011024
 30
0.0
  0
LINE
  5
CF
330
1F
100
AcDbEntity
  8
0
  6
Continuous
 62
     1
370
    15
100
AcDbLine
 10
41.75000000000001
 20
-0.8660254037844421
 30
0.0
 11
41.75000000000001
 21
2.686712985472484
 31
0.0
  0
LINE
  5
D0
330
1F
100
AcDbEntity
  8
0
  6
Continuous
 62
     1
370
    15
100
AcDbLine
 10
39.18293193635123
 20
0.4277506606739692
 30
0.0
 11
41.75000000000001
 21
-0.8660254037844421
 31
0.0
  0
ELLIPSE
  5
D1
330
1F
100
AcDbEntity
  8
0
  6
Continuous
 62
     1
370
    15
100
AcDbEllipse
 10
43.17814800674212
 20
-0.0000000000000021
 30
0.0
 11
11.18322645805124
 21
7.430697861030171
 31
0.0
210
0.0
220
0.0
230
1.0
 40
0.2495534463455929
 41
1.600902389073169
 42
1.660442737725112
  0
SPLINE
  5
D2
330
1F
100
AcDbEntity
  8
0
  6
Continuous
 62
     1
370
    15
100
AcDbSpline
210
0.0
220
0.0
230
1.0
 70
     8
 71
     3
 72
    14
 73
    10
 74
     0
 42
0.000000001
 43
0.00000001
 40
0.0
 40
0.0
 40
0.0
 40
0.0
 40
0.25
 40
0.25
 40
0.5
 40
0.5
 40
0.75
 40
0.75
 40
1.0
 40
1.0
 40
1.0
 40
1.0
 10
41.75000000000001
 20
2.686712985472484
 30
0.0
 10
41.75000000000001
 20
2.740611233680561
 30
0.0
 10
41.72641365806339
 20
2.780727472505705
 30
0.0
 10
41.63730444409865
 20
2.821411550334373
 30
0.0
 10
41.57327775192631
 20
2.822292273303598
 30
0.0
 10
41.4250767424851
 20
2.792266786294925
 30
0.0
 10
41.34093108451314
 20
2.761636073884288
 30
0.0
 10
41.16593975474161
 20
2.677900351790344
 30
0.0
 10
41.07697009230503
 20
2.625957658781901
 30
0.0
 10
40.98800000000001
 20
2.565872777925017
 30
0.0
  0
SPLINE
  5
D3
330
1F
100
AcDbEntity
  8
0
  6
Continuous
 62
     1
370
    15
100
AcDbSpline
210
0.0
220
0.0
230
1.0
 70
     8
 71
     3
 72
    14
 73
    10
 74
     0
 42
0.000000001
 43
0.00000001
 40
0.0
 40
0.0
 40
0.0
 40
0.0
 40
0.1599329083742793
 40
0.3200672738035139
 40
0.4798916738321302
 40
0.6397597410689078
 40
0.7999156319556574
 40
0.9597855165337197
 40
1.0
 40
1.0
 40
1.0
 40
1.0
 10
40.98799999999999
 20
4.00450685175108
 30
0.0
 10
40.54720796709109
 20
4.374548544175098
 30
0.0
 10
39.66506866429484
 20
5.115098046411509
 30
0.0
 10
38.34057102299764
 20
6.052885766808204
 30
0.0
 10
37.01871908859387
 20
6.831324118014055
 30
0.0
 10
35.6964963417983
 20
7.422214904621295
 30
0.0
 10
34.37184092857136
 20
7.791077755111767
 30
0.0
 10
33.37927010716393
 20
7.951915675167292
 30
0.0
 10
32.82792213358808
 20
7.924051390574745
 30
0.0
 10
32.71710800960505
 20
7.918451013978618
 30
0.0
  0
LINE
  5
D4
330
1F
100
AcDbEntity
  8
0
  6
Continuous
 62
     1
370
    15
100
AcDbLine
 10
10.57921089143372
 20
-7.430195031422238
 30
0.0
 11
10.00000000000001
 21
-7.629103663021276
 31
0.0
  0
SPLINE
  5
D6
330
1F
100
AcDbEntity
  8
0
  6
Continuous
 62
     1
370
    15
100
AcDbSpline
210
0.0
220
0.0
230
1.0
 70
     8
 71
     3
 72
    16
 73
    12
 74
     0
 42
0.000000001
 43
0.00000001
 40
0.0
 40
0.0
 40
0.0
 40
0.0
 40
0.25
 40
0.25
 40
0.375
 40
0.375
 40
0.5
 40
0.5
 40
0.75
 40
0.75
 40
1.0
 40
1.0
 40
1.0
 40
1.0
 10
41.75000000000001
 20
3.458182886884313
 30
0.0
 10
41.74999999999984
 20
3.428439608895629
 30
0.0
 10
41.73619627883068
 20
3.41223517892082
 30
0.0
 10
41.67416239104464
 20
3.434416381395092
 30
0.0
 10
41.64679048303539
 20
3.449709962257955
 30
0.0
 10
41.58028645829651
 20
3.495224623501751
 30
0.0
 10
41.54169207109097
 20
3.525018344152191
 30
0.0
 10
41.41804145456529
 20
3.626028222069077
 30
0.0
 10
41.32926198055178
 20
3.704712048304292
 30
0.0
 10
41.15651785092408
 20
3.857367501958242
 30
0.0
 10
41.07060796665793
 20
3.933333991074073
 30
0.0
 10
40.98800000000001
 20
4.004506851751063
 30
0.0
  0
LINE
  5
D7
330
1F
100
AcDbEntity
  8
0
  6
Continuous
 62
     1
370
    15
100
AcDbLine
 10
41.75000000000001
 20
2.686712985472484
 30
0.0
 11
41.75000000000001
 21
3.458182886886574
 31
0.0
  0
SPLINE
  5
D8
330
1F
100
AcDbEntity
  8
0
  6
Continuous
 62
     1
370
    15
100
AcDbSpline
210
0.0
220
0.0
230
1.0
 70
     8
 71
     3
 72
    10
 73
     6
 74
     0
 42
0.000000001
 43
0.00000001
 40
0.0
 40
0.0
 40
0.0
 40
0.0
 40
0.334429423809567
 40
0.6691337389031808
 40
1.0
 40
1.0
 40
1.0
 40
1.0
 10
10.00000000000033
 20
-7.229317893270509
 30
0.0
 10
10.37650095973766
 20
-7.370079732577826
 30
0.0
 10
11.12981235207833
 20
-7.651719113340643
 30
0.0
 10
12.25681748232624
 20
-7.890200139732547
 30
0.0
 10
13.00556716238115
 20
-7.921293256944534
 30
0.0
 10
13.3777831466802
 20
-7.936750165356347
 30
0.0
  0
SPLINE
  5
D9
330
1F
100
AcDbEntity
  8
0
  6
Continuous
 62
     1
370
    15
100
AcDbSpline
210
0.0
220
0.0
230
1.0
 70
     8
 71
     3
 72
    10
 73
     6
 74
     0
 42
0.000000001
 43
0.00000001
 40
0.0
 40
0.0
 40
0.0
 40
0.0
 40
0.246480013177065
 40
0.4978043293089193
 40
0.6145304477869663
 40
0.6145304477869663
 40
0.6145304477869663
 40
0.6145304477869663
 10
35.4995581902666
 20
7.441566010607324
 30
0.0
 10
35.8961775374226
 20
7.564186562672875
 30
0.0
 10
36.69721136388581
 20
7.811837643560438
 30
0.0
 10
37.68737791202829
 20
7.928024740713645
 30
0.0
 10
38.28035004422412
 20
7.940556019348126
 30
0.0
 10
38.46838294206906
 20
7.937499999999998
 30
0.0
  0
SPLINE
  5
DA
330
1F
100
AcDbEntity
  8
0
  6
Continuous
 62
     1
370
    15
100
AcDbSpline
210
0.0
220
0.0
230
1.0
 70
     8
 71
     3
 72
    18
 73
    14
 74
     0
 42
0.000000001
 43
0.00000001
 40
0.0
 40
0.0
 40
0.0
 40
0.0
 40
0.2500000000000004
 40
0.2500000000000004
 40
0.4999999999999997
 40
0.4999999999999997
 40
0.6249999999999998
 40
0.6249999999999998
 40
0.7499999999999998
 40
0.7499999999999998
 40
0.8749999999999999
 40
0.8749999999999999
 40
1.0
 40
1.0
 40
1.0
 40
1.0
 10
40.36051684791126
 20
7.754367932470142
 30
0.0
 10
40.30323747711821
 20
7.470954472785223
 30
0.0
 10
40.26400748351785
 20
7.264102645936805
 30
0.0
 10
40.15350971755365
 20
6.86351233035023
 30
0.0
 10
40.08168999582038
 20
6.668017911127618
 30
0.0
 10
39.94109535915154
 20
6.394746155614749
 30
0.0
 10
39.88943097463697
 20
6.308371778216452
 30
0.0
 10
39.77511992951894
 20
6.146414696541948
 30
0.0
 10
39.71172491779718
 20
6.070182672073182
 30
0.0
 10
39.57542125201074
 20
5.934304708620968
 30
0.0
 10
39.50304306955348
 20
5.874913669189977
 30
0.0
 10
39.34946967122621
 20
5.773964353965767
 30
0.0
 10
39.26724271411199
 20
5.732067871911855
 30
0.0
 10
39.18293193635122
 20
5.70087952337228
 30
0.0
  0
SPLINE
  5
DB
330
1F
100
AcDbEntity
  8
0
  6
Continuous
 62
     1
370
    15
100
AcDbSpline
210
0.0
220
0.0
230
1.0
 70
     8
 71
     3
 72
     8
 73
     4
 74
     0
 42
0.000000001
 43
0.00000001
 40
0.0
 40
0.0
 40
0.0
 40
0.0
 40
1.0
 40
1.0
 40
1.0
 40
1.0
 10
41.75000000000001
 20
4.702505203340667
 30
0.0
 10
40.89343154747684
 20
5.101695175593932
 30
0.0
 10
40.03773586070886
 20
5.434964889949566
 30
0.0
 10
39.18293193635124
 20
5.700879523372286
 30
0.0
  0
LINE
  5
DC
330
1F
100
AcDbEntity
  8
0
  6
Continuous
 62
     1
370
    15
100
AcDbLine
 10
41.75000000000001
 20
3.458182886886574
 30
0.0
 11
41.75000000000001
 21
4.702505203340669
 31
0.0
  0
SPLINE
  5
DD
330
1F
100
AcDbEntity
  8
0
  6
Continuous
 62
     1
370
    15
100
AcDbSpline
210
0.0
220
0.0
230
1.0
 70
    24
 71
     3
 72
     9
 73
     5
 74
     0
 42
0.000000001
 43
0.00000001
 40
0.0
 40
0.0
 40
0.0
 40
0.0
 40
0.0669469388870115
 40
1.0
 40
1.0
 40
1.0
 40
1.0
 10
10.00000000000001
 20
-7.292011752071183
 30
0.0
 10
10.00000000000001
 20
-7.298406231382349
 30
0.0
 10
10.00000000000001
 20
-7.393921865367644
 30
0.0
 10
10.00000000000001
 20
-7.515585260121134
 30
0.0
 10
10.00000000000001
 20
-7.629103663021274
 30
0.0
  0
LINE
  5
DE
330
1F
100
AcDbEntity
  8
0
  6
Continuous
 62
     1
370
    15
100
AcDbLine
 10
41.75000000000001
 20
-4.418763793041405
 30
0.0
 11
41.75000000000001
 21
-3.715775729237217
 31
0.0
  0
SPLINE
  5
DF
330
1F
100
AcDbEntity
  8
0
  6
Continuous
 62
     1
370
    15
100
AcDbSpline
210
0.0
220
0.0
230
1.0
 70
     8
 71
     3
 72
    14
 73
    10
 74
     0
 42
0.000000001
 43
0.00000001
 40
0.0
 40
0.0
 40
0.0
 40
0.0
 40
0.25
 40
0.25
 40
0.5
 40
0.5
 40
0.75
 40
0.75
 40
1.0
 40
1.0
 40
1.0
 40
1.0
 10
41.75000000000001
 20
-4.418763793041405
 30
0.0
 10
41.75000000000001
 20
-4.472662041249483
 30
0.0
 10
41.72641365806339
 20
-4.541383678398931
 30
0.0
 10
41.63730444409863
 20
-4.690138968231416
 30
0.0
 10
41.57327775192631
 20
-4.768670945384063
 30
0.0
 10
41.42507674248509
 20
-4.918382906366321
 30
0.0
 10
41.34093108451314
 20
-4.989803629910281
 30
0.0
 10
41.16593975474161
 20
-5.118296523210166
 30
0.0
 10
41.07697009230503
 20
-5.174255794805486
 30
0.0
 10
40.98800000000001
 20
-5.222073399894667
 30
0.0
  0
LINE
  5
E0
330
1F
100
AcDbEntity
  8
0
  6
Continuous
 62
     1
370
    15
100
AcDbLine
 10
41.75000000000001
 20
-0.8660254037844421
 30
0.0
 11
41.75000000000001
 21
-1.36636027644858
 31
0.0
  0
LINE
  5
E2
330
1F
100
AcDbEntity
  8
0
  6
Continuous
 62
     1
370
    15
100
AcDbLine
 10
10.00000000000001
 20
-7.229317893269426
 30
0.0
 11
10.00000000000001
 21
-5.712053521011024
 31
0.0
  0
LINE
  5
E3
330
1F
100
AcDbEntity
  8
0
  6
Continuous
 62
     1
370
    15
100
AcDbLine
 10
41.75000000000001
 20
-4.418763793041406
 30
0.0
 11
41.75000000000001
 21
-5.651499999999998
 31
0.0
  0
LINE
  5
E5
330
1F
100
AcDbEntity
  8
0
  6
Continuous
 62
     1
370
    15
100
AcDbLine
 10
41.75000000000001
 20
4.702505203340667
 30
0.0
 11
41.75000000000001
 21
5.651499999999999
 31
0.0
  0
LINE
  5
E9
330
1F
100
AcDbEntity
  8
중심선
100
AcDbLine
 10
-50.15
 20
0.0000000000000003
 30
0.0
 11
44.75000000000001
 21
0.0000000000000003
 31
0.0
  0
CIRCLE
  5
EA
330
1F
100
AcDbEntity
  8
외형선
100
AcDbCircle
 10
0.0
 20
0.0
 30
0.0
 40
3.000000000000004
  0
INSERT
  5
EB
330
1F
100
AcDbEntity
  8
0
  6
Continuous
 62
     7
100
AcDbBlockReference
 66
     1
  2
블럭10
 10
-16.62936049909348
 20
-51.78679627639983
 30
0.0
  0
ATTRIB
  5
EC
330
EB
100
AcDbEntity
  8
FORMAT
 62
     2
100
AcDbText
 10
-27.68038085127794
 20
-49.71142936356763
 30
0.0
 40
4.233333333333333
  1
GMG22932[ 6 FLUTE ]
 41
0.75
  7
SLDTEXTSTYLE0
 11
-27.68038085127794
 21
-51.8280960302343
 31
0.0
100
AcDbAttribute
  2
AUTOATTR0
 70
     0
 74
     1
  0
SEQEND
  5
ED
330
EB
100
AcDbEntity
  8
0
  6
Continuous
 62
     7
  0
HATCH
  5
EE
330
1F
100
AcDbEntity
  8
중심선
100
AcDbHatch
 10
0.0
 20
0.0
 30
0.0
210
0.0
220
0.0
230
1.0
  2
SOLID
 70
     1
 71
     0
 91
        1
 92
        0
 93
        4
 72
     1
 10
-10.91445119471263
 20
-35.53962197475589
 11
-14.36072643854991
 21
-35.53962197475589
 72
     1
 10
-14.36072643854991
 20
-35.53962197475589
 11
-16.48895629775393
 21
-38.07594755532848
 72
     1
 10
-16.48895629775393
 20
-38.07594755532848
 11
-13.0426479688035
 21
-38.07590812602599
 72
     1
 10
-13.0426479688035
 20
-38.07590812602599
 11
-10.91445119471263
 21
-35.53962197475589
 97
        0
 75
     0
 76
     1
 98
        1
 10
0.0004859200744818
 20
0.2622744311706844
  0
HATCH
  5
EF
330
1F
100
AcDbEntity
  8
중심선
100
AcDbHatch
 10
0.0
 20
0.0
 30
0.0
210
0.0
220
0.0
230
1.0
  2
SOLID
 70
     1
 71
     0
 91
        1
 92
        0
 93
        4
 72
     1
 10
-5.901687203676677
 20
-35.53962197475589
 11
-9.347962447513959
 21
-35.53962197475589
 72
     1
 10
-9.347962447513959
 20
-35.53962197475589
 11
-13.87910045587135
 21
-40.9396219747559
 72
     1
 10
-13.87910045587135
 20
-40.9396219747559
 11
-10.43282521203406
 21
-40.9396219747559
 72
     1
 10
-10.43282521203406
 20
-40.9396219747559
 11
-5.901687203676677
 21
-35.53962197475589
 97
        0
 75
     0
 76
     1
 98
        1
 10
0.0004859200744818
 20
0.2622744311706844
  0
HATCH
  5
F0
330
1F
100
AcDbEntity
  8
중심선
100
AcDbHatch
 10
0.0
 20
0.0
 30
0.0
210
0.0
220
0.0
230
1.0
  2
SOLID
 70
     1
 71
     0
 91
        1
 92
        0
 93
        4
 72
     1
 10
-0.8889232126407813
 20
-35.53962197475592
 11
-4.335198456477897
 21
-35.53962197475589
 72
     1
 10
-4.335198456477897
 20
-35.53962197475589
 11
-11.38363535836715
 21
-43.93962197475591
 72
     1
 10
-11.38363535836715
 20
-43.93962197475591
 11
-7.937360114529864
 21
-43.93962197475591
 72
     1
 10
-7.937360114529864
 20
-43.93962197475591
 11
-0.8889232126407816
 21
-35.53962197475592
 97
        0
 75
     0
 76
     1
 98
        1
 10
0.0004859200744818
 20
0.2622744311706844
  0
HATCH
  5
F1
330
1F
100
AcDbEntity
  8
중심선
100
AcDbHatch
 10
0.0
 20
0.0
 30
0.0
210
0.0
220
0.0
230
1.0
  2
SOLID
 70
     1
 71
     0
 91
        1
 92
        0
 93
        6
 72
     3
 10
3.910967218371418
 20
-39.73962197480716
 11
3.960054785062283
 21
1.540882976769353E-10
 40
0.3939339440162628
 50
17.09539180608437
 51
320.0019657685081
 73
     0
 72
     1
 10
5.593966874072013
 20
-38.32751597939419
 11
7.899268747773052
 21
-36.39318926934627
 72
     3
 10
3.910967218318572
 20
-39.73962197475603
 11
6.600054785286829
 21
-1.278976924368180E-13
 40
0.636358354079598
 50
39.9987384933741
 51
368.4976242363725
 73
     1
 72
     1
 10
10.33629971021918
 20
-38.77962197468591
 11
2.591034525154494
 21
-38.77962197468588
 72
     1
 10
2.591034525154494
 20
-38.77962197468588
 11
2.59100948070856
 21
-40.6996219746858
 72
     1
 10
2.59100948070856
 20
-40.6996219746858
 11
7.032389250180596
 21
-40.69962197468578
 97
        0
 75
     0
 76
     1
 98
        1
 10
0.0004859200744818
 20
0.2622744311706844
  0
POINT
  5
F2
330
1F
100
AcDbEntity
  8
치수문자_일반주서
100
AcDbPoint
 10
0.0
 20
0.0
 30
0.0
  0
DIMENSION
  5
F3
330
1F
100
AcDbEntity
  8
치수문자_일반주서
100
AcDbDimension
  2
_D
 10
58.63324571577296
 20
7.937500000000068
 30
0.0
 11
58.63324571577299
 21
0.0000538547149664
 31
0.0
 70
   160
  1
%%c<>
 71
     2
 42
15.8748922905702
 52
-270.0
  3
SLDDIMSTYLE0
100
AcDbAlignedDimension
 13
40.98799999999999
 23
-7.9373922905702
 33
0.0
 14
39.98800000000001
 24
7.937499999999998
 34
0.0
 50
90.0000000000002
100
AcDbRotatedDimension
1001
ACAD
1000
DSTYLE
1002
{
1070
   171
1070
     3
1070
   273
1070
     7
1002
}
  0
DIMENSION
  5
108
330
1F
100
AcDbEntity
  8
치수문자_일반주서
100
AcDbDimension
  2
_D_1
 10
41.75000000000001
 20
40.59305141807177
 30
0.0
 11
-2.69999999999999
 21
40.59305141807177
 31
0.0
 70
   160
  1
<>
 71
     2
 42
88.9
  3
SLDDIMSTYLE0
100
AcDbAlignedDimension
 13
-47.15
 23
7.43749999999999
 33
0.0
 14
41.75000000000001
 24
7.175499999999997
 34
0.0
100
AcDbRotatedDimension
1001
ACAD
1000
DSTYLE
1002
{
1070
   171
1070
     3
1070
   273
1070
     7
1002
}
  0
DIMENSION
  5
11C
330
1F
100
AcDbEntity
  8
치수문자_일반주서
100
AcDbDimension
  2
_D_2
 10
10.0
 20
24.80249453033792
 30
0.0
 11
25.52575141487685
 21
24.80249453033792
 31
0.0
 70
   160
  1
<>
 71
     2
 42
31.75000000000002
  3
SLDDIMSTYLE0
100
AcDbAlignedDimension
 13
41.75000000000001
 23
7.175499999999997
 33
0.0
 14
10.0
 24
-7.629103663021271
 34
0.0
 50
0.0000000000000385
100
AcDbRotatedDimension
1001
ACAD
1000
DSTYLE
1002
{
1070
   171
1070
     3
1070
   273
1070
     7
1002
}
  0
INSERT
  5
147
330
1F
100
AcDbEntity
  8
외형선
100
AcDbBlockReference
  2
SW_DOWELSYMBOL_0
 10
0.0
 20
0.0
 30
0.0
  0
DIMENSION
  5
16E
102
{ACAD_REACTORS
102
}
102
{ACAD_XDICTIONARY
360
16F
102
}
330
1F
100
AcDbEntity
  8
치수문자_일반주서
100
AcDbDimension
  2
*D8
 10
-54.0168685983045
 20
-7.937500000000007
 30
0.0
 11
-54.0168685983045
 21
-0.0000000000000073
 31
0.0
 70
   160
  1
{%%c<>}
 71
     5
 42
15.875
  3
SLDDIMSTYLE0
100
AcDbAlignedDimension
 13
-46.65
 23
7.937499999999994
 33
0.0
 14
-46.65
 24
-7.937500000000007
 34
0.0
 50
90.0
100
AcDbRotatedDimension
1001
ACAD
1000
DSTYLE
1002
{
1070
   171
1070
     3
1070
   273
1070
     7
1002
}
  0
ARC
  5
180
102
{ACAD_REACTORS
102
}
330
1F
100
AcDbEntity
  8
0
  6
Continuous
 62
     1
370
    15
100
AcDbCircle
 10
39.46400000000001
 20
5.651499999999999
 30
0.0
 40
2.285999999999999
100
AcDbArc
 50
0.0
 51
90.0
  0
ARC
  5
181
330
1F
100
AcDbEntity
  8
0
  6
Continuous
 62
     1
370
    15
100
AcDbCircle
 10
39.46400000000001
 20
-5.651499999999998
 30
0.0
 40
2.285999999999999
100
AcDbArc
 50
270.0
 51
0.0
  0
DIMENSION
  5
183
102
{ACAD_REACTORS
102
}
102
{ACAD_XDICTIONARY
360
184
102
}
330
1F
100
AcDbEntity
  8
치수문자_일반주서
100
AcDbDimension
  2
*D9
 10
39.46400000000001
 20
5.651499999999999
 30
0.0
 11
57.97115048521087
 21
26.61601618811591
 31
0.0
 70
   164
  1
<>
 71
     5
 42
2.285999999999999
  3
SLDDIMSTYLE0
100
AcDbRadialDimension
 15
40.97688288198735
 25
7.365262347990425
 35
0.0
 40
0.0
1001
ACAD
1000
DSTYLE
1002
{
1070
   171
1070
     3
1070
   273
1070
     2
1002
}
1001
ACAD_DSTYLE_DIMRADIAL_EXTENSION
1070
   387
1070
     1
1070
   388
1040
0.0
1070
   390
1040
1.570796326794897
  0
ENDSEC
  0
SECTION
  2
OBJECTS
  0
DICTIONARY
  5
C
330
0
100
AcDbDictionary
281
     1
  3
ACAD_GROUP
350
D
  3
ACAD_IMAGE_VARS
350
16B
  3
ACAD_LAYOUT
350
1A
  3
ACAD_MLINESTYLE
350
17
  3
ACAD_PLOTSETTINGS
350
19
  3
ACAD_PLOTSTYLENAME
350
E
  3
ACAD_SCALELIST
350
47
  3
APPDATA
350
169
  3
DWGPROPS
350
190
  0
DICTIONARY
  5
16F
330
16E
100
AcDbDictionary
280
     1
281
     1
  0
DICTIONARY
  5
184
330
183
100
AcDbDictionary
280
     1
281
     1
  0
DICTIONARY
  5
D
102
{ACAD_REACTORS
330
C
102
}
330
C
100
AcDbDictionary
281
     1
  0
RASTERVARIABLES
  5
16B
102
{ACAD_REACTORS
330
C
102
}
330
C
100
AcDbRasterVariables
 90
        0
 70
     1
 71
     1
 72
     1
  0
DICTIONARY
  5
1A
102
{ACAD_REACTORS
330
C
102
}
330
C
100
AcDbDictionary
281
     1
  3
Layout1
350
1E
  3
Layout2
350
26
  3
Model
350
22
  0
DICTIONARY
  5
17
102
{ACAD_REACTORS
330
C
102
}
330
C
100
AcDbDictionary
281
     1
  3
Standard
350
18
  0
DICTIONARY
  5
19
102
{ACAD_REACTORS
330
C
102
}
330
C
100
AcDbDictionary
281
     1
  0
ACDBDICTIONARYWDFLT
  5
E
102
{ACAD_REACTORS
330
C
102
}
330
C
100
AcDbDictionary
281
     1
  3
Normal
350
F
100
AcDbDictionaryWithDefault
340
F
  0
DICTIONARY
  5
47
102
{ACAD_REACTORS
330
C
102
}
330
C
100
AcDbDictionary
281
     1
  3
A0
350
48
  3
A1
350
49
  3
A2
350
4A
  3
A3
350
4B
  3
A4
350
4C
  3
A5
350
4D
  3
A6
350
4E
  3
A7
350
4F
  3
A8
350
50
  3
A9
350
51
  3
B0
350
52
  3
B1
350
53
  3
B2
350
54
  3
B3
350
55
  3
B4
350
56
  3
B5
350
57
  3
B6
350
58
  3
B7
350
59
  3
B8
350
5A
  3
B9
350
5B
  3
C0
350
5C
  3
C1
350
5D
  3
C2
350
5E
  3
C3
350
5F
  3
C4
350
60
  3
C5
350
61
  3
C6
350
62
  3
C7
350
63
  3
C8
350
64
  3
C9
350
65
  3
D0
350
66
  3
D1
350
67
  3
D2
350
68
  0
DICTIONARY
  5
169
102
{ACAD_REACTORS
330
C
102
}
330
C
100
AcDbDictionary
281
     1
  0
XRECORD
  5
190
102
{ACAD_REACTORS
330
C
102
}
330
C
100
AcDbXrecord
280
     1
  1
DWGPROPS COOKIE
  2

  3

  4

  6

  7

  8
12016016
  9

300
=
301
=
302
=
303
=
304
=
305
=
306
=
307
=
308
=
309
=
 40
0.0
 41
2458236.371790081
 42
2458241.34670331
  1

 90
        0
  0
LAYOUT
  5
1E
102
{ACAD_REACTORS
330
1A
102
}
330
1A
100
AcDbPlotSettings
  1

  2
none_device
  4

  6

 40
0.0
 41
0.0
 42
0.0
 43
0.0
 44
0.0
 45
0.0
 46
0.0
 47
0.0
 48
0.0
 49
0.0
140
0.0
141
0.0
142
1.0
143
1.0
 70
   688
 72
     1
 73
     0
 74
     5
  7

 75
    16
147
1.0
148
0.0
149
0.0
100
AcDbLayout
  1
Layout1
 70
     1
 71
     1
 10
0.0
 20
0.0
 11
420.0
 21
297.0
 12
0.0
 22
0.0
 32
0.0
 14
1.000000000000000E+20
 24
1.000000000000000E+20
 34
1.000000000000000E+20
 15
-1.000000000000000E+20
 25
-1.000000000000000E+20
 35
-1.000000000000000E+20
146
0.0
 13
0.0
 23
0.0
 33
0.0
 16
1.0
 26
0.0
 36
0.0
 17
0.0
 27
1.0
 37
0.0
 76
     0
330
1B
  0
LAYOUT
  5
26
102
{ACAD_REACTORS
330
1A
102
}
330
1A
100
AcDbPlotSettings
  1

  2
none_device
  4

  6

 40
0.0
 41
0.0
 42
0.0
 43
0.0
 44
0.0
 45
0.0
 46
0.0
 47
0.0
 48
0.0
 49
0.0
140
0.0
141
0.0
142
1.0
143
1.0
 70
   688
 72
     1
 73
     0
 74
     5
  7

 75
    16
147
1.0
148
0.0
149
0.0
100
AcDbLayout
  1
Layout2
 70
     1
 71
     2
 10
0.0
 20
0.0
 11
0.0
 21
0.0
 12
0.0
 22
0.0
 32
0.0
 14
0.0
 24
0.0
 34
0.0
 15
0.0
 25
0.0
 35
0.0
146
0.0
 13
0.0
 23
0.0
 33
0.0
 16
1.0
 26
0.0
 36
0.0
 17
0.0
 27
1.0
 37
0.0
 76
     0
330
23
  0
LAYOUT
  5
22
102
{ACAD_REACTORS
330
1A
102
}
330
1A
100
AcDbPlotSettings
  1

  2
none_device
  4
ANSI_A_(11.00_x_8.50_Inches)
  6

 40
6.35
 41
19.05
 42
6.35000508
 43
19.05000254
 44
279.4
 45
215.9
 46
106.0463130442677
 47
88.58238961766857
 48
0.0
 49
0.0
140
0.0
141
0.0
142
0.0615991591641248
143
1.0
 70
  1696
 72
     0
 73
     0
 74
     0
  7

 75
     0
147
0.0235690232323232
148
0.0
149
0.0
100
AcDbLayout
  1
Model
 70
     1
 71
     0
 10
0.0
 20
0.0
 11
420.0
 21
297.0
 12
0.0
 22
0.0
 32
0.0
 14
-58.3918685983045
 24
-49.71142936356764
 34
0.0
 15
68.24978664481978
 25
44.96805141807177
 35
0.0
146
0.0
 13
0.0
 23
0.0
 33
0.0
 16
1.0
 26
0.0
 36
0.0
 17
0.0
 27
1.0
 37
0.0
 76
     0
330
1F
331
29
  0
MLINESTYLE
  5
18
102
{ACAD_REACTORS
330
17
102
}
330
17
100
AcDbMlineStyle
  2
Standard
 70
     0
  3

 62
   256
 51
90.0
 52
90.0
 71
     2
 49
0.5
 62
   256
  6
BYLAYER
 49
-0.5
 62
   256
  6
BYLAYER
  0
ACDBPLACEHOLDER
  5
F
102
{ACAD_REACTORS
330
E
102
}
330
E
  0
SCALE
  5
48
102
{ACAD_REACTORS
330
47
102
}
330
47
100
AcDbScale
 70
     0
300
1:1
140
1.0
141
1.0
290
     1
  0
SCALE
  5
49
102
{ACAD_REACTORS
330
47
102
}
330
47
100
AcDbScale
 70
     0
300
1:2
140
1.0
141
2.0
290
     0
  0
SCALE
  5
4A
102
{ACAD_REACTORS
330
47
102
}
330
47
100
AcDbScale
 70
     0
300
1:4
140
1.0
141
4.0
290
     0
  0
SCALE
  5
4B
102
{ACAD_REACTORS
330
47
102
}
330
47
100
AcDbScale
 70
     0
300
1:5
140
1.0
141
5.0
290
     0
  0
SCALE
  5
4C
102
{ACAD_REACTORS
330
47
102
}
330
47
100
AcDbScale
 70
     0
300
1:8
140
1.0
141
8.0
290
     0
  0
SCALE
  5
4D
102
{ACAD_REACTORS
330
47
102
}
330
47
100
AcDbScale
 70
     0
300
1:10
140
1.0
141
10.0
290
     0
  0
SCALE
  5
4E
102
{ACAD_REACTORS
330
47
102
}
330
47
100
AcDbScale
 70
     0
300
1:16
140
1.0
141
16.0
290
     0
  0
SCALE
  5
4F
102
{ACAD_REACTORS
330
47
102
}
330
47
100
AcDbScale
 70
     0
300
1:20
140
1.0
141
20.0
290
     0
  0
SCALE
  5
50
102
{ACAD_REACTORS
330
47
102
}
330
47
100
AcDbScale
 70
     0
300
1:30
140
1.0
141
30.0
290
     0
  0
SCALE
  5
51
102
{ACAD_REACTORS
330
47
102
}
330
47
100
AcDbScale
 70
     0
300
1:40
140
1.0
141
40.0
290
     0
  0
SCALE
  5
52
102
{ACAD_REACTORS
330
47
102
}
330
47
100
AcDbScale
 70
     0
300
1:50
140
1.0
141
50.0
290
     0
  0
SCALE
  5
53
102
{ACAD_REACTORS
330
47
102
}
330
47
100
AcDbScale
 70
     0
300
1:100
140
1.0
141
100.0
290
     0
  0
SCALE
  5
54
102
{ACAD_REACTORS
330
47
102
}
330
47
100
AcDbScale
 70
     0
300
2:1
140
2.0
141
1.0
290
     0
  0
SCALE
  5
55
102
{ACAD_REACTORS
330
47
102
}
330
47
100
AcDbScale
 70
     0
300
4:1
140
4.0
141
1.0
290
     0
  0
SCALE
  5
56
102
{ACAD_REACTORS
330
47
102
}
330
47
100
AcDbScale
 70
     0
300
8:1
140
8.0
141
1.0
290
     0
  0
SCALE
  5
57
102
{ACAD_REACTORS
330
47
102
}
330
47
100
AcDbScale
 70
     0
300
10:1
140
10.0
141
1.0
290
     0
  0
SCALE
  5
58
102
{ACAD_REACTORS
330
47
102
}
330
47
100
AcDbScale
 70
     0
300
100:1
140
100.0
141
1.0
290
     0
  0
SCALE
  5
59
102
{ACAD_REACTORS
330
47
102
}
330
47
100
AcDbScale
 70
     0
300
1/128" = 1'-0"
140
0.0078125
141
12.0
290
     0
  0
SCALE
  5
5A
102
{ACAD_REACTORS
330
47
102
}
330
47
100
AcDbScale
 70
     0
300
1/64" = 1'-0"
140
0.015625
141
12.0
290
     0
  0
SCALE
  5
5B
102
{ACAD_REACTORS
330
47
102
}
330
47
100
AcDbScale
 70
     0
300
1/32" = 1'-0"
140
0.03125
141
12.0
290
     0
  0
SCALE
  5
5C
102
{ACAD_REACTORS
330
47
102
}
330
47
100
AcDbScale
 70
     0
300
1/16" = 1'-0"
140
0.0625
141
12.0
290
     0
  0
SCALE
  5
5D
102
{ACAD_REACTORS
330
47
102
}
330
47
100
AcDbScale
 70
     0
300
3/32" = 1'-0"
140
0.09375
141
12.0
290
     0
  0
SCALE
  5
5E
102
{ACAD_REACTORS
330
47
102
}
330
47
100
AcDbScale
 70
     0
300
1/8" = 1'-0"
140
0.125
141
12.0
290
     0
  0
SCALE
  5
5F
102
{ACAD_REACTORS
330
47
102
}
330
47
100
AcDbScale
 70
     0
300
3/16" = 1'-0"
140
0.1875
141
12.0
290
     0
  0
SCALE
  5
60
102
{ACAD_REACTORS
330
47
102
}
330
47
100
AcDbScale
 70
     0
300
1/4" = 1'-0"
140
0.25
141
12.0
290
     0
  0
SCALE
  5
61
102
{ACAD_REACTORS
330
47
102
}
330
47
100
AcDbScale
 70
     0
300
3/8" = 1'-0"
140
0.375
141
12.0
290
     0
  0
SCALE
  5
62
102
{ACAD_REACTORS
330
47
102
}
330
47
100
AcDbScale
 70
     0
300
1/2" = 1'-0"
140
0.5
141
12.0
290
     0
  0
SCALE
  5
63
102
{ACAD_REACTORS
330
47
102
}
330
47
100
AcDbScale
 70
     0
300
3/4" = 1'-0"
140
0.75
141
12.0
290
     0
  0
SCALE
  5
64
102
{ACAD_REACTORS
330
47
102
}
330
47
100
AcDbScale
 70
     0
300
1" = 1'-0"
140
1.0
141
12.0
290
     0
  0
SCALE
  5
65
102
{ACAD_REACTORS
330
47
102
}
330
47
100
AcDbScale
 70
     0
300
1-1/2" = 1'-0"
140
1.5
141
12.0
290
     0
  0
SCALE
  5
66
102
{ACAD_REACTORS
330
47
102
}
330
47
100
AcDbScale
 70
     0
300
3" = 1'-0"
140
3.0
141
12.0
290
     0
  0
SCALE
  5
67
102
{ACAD_REACTORS
330
47
102
}
330
47
100
AcDbScale
 70
     0
300
6" = 1'-0"
140
6.0
141
12.0
290
     0
  0
SCALE
  5
68
102
{ACAD_REACTORS
330
47
102
}
330
47
100
AcDbScale
 70
     0
300
1'-0" = 1'-0"
140
12.0
141
12.0
290
     0
  0
ENDSEC
  0
EOF
