  0
SECTION
  2
HEADER
  9
$ACADVER
  1
AC1015
  9
$ACADMAINTVER
 70
     6
  9
$DWGCODEPAGE
  3
ANSI_949
  9
$INSBASE
 10
0.0
 20
0.0
 30
0.0
  9
$EXTMIN
 10
-52.87004773547347
 20
-49.71142936356763
 30
0.0
  9
$EXTMAX
 10
110.4220818735878
 20
43.38055141807178
 30
0.0
  9
$LIMMIN
 10
0.0
 20
0.0
  9
$LIMMAX
 10
420.0
 20
297.0
  9
$ORTHOMODE
 70
     0
  9
$REGENMODE
 70
     1
  9
$FILLMODE
 70
     1
  9
$QTEXTMODE
 70
     0
  9
$MIRRTEXT
 70
     1
  9
$LTSCALE
 40
1.0
  9
$ATTMODE
 70
     1
  9
$TEXTSIZE
 40
3.5
  9
$TRACEWID
 40
1.0
  9
$TEXTSTYLE
  7
Standard
  9
$CLAYER
  8
0
  9
$CELTYPE
  6
ByLayer
  9
$CECOLOR
 62
   256
  9
$CELTSCALE
 40
1.0
  9
$DISPSILH
 70
     0
  9
$DIMSCALE
 40
1.0
  9
$DIMASZ
 40
3.302
  9
$DIMEXO
 40
1.0
  9
$DIMDLI
 40
3.75
  9
$DIMRND
 40
0.0
  9
$DIMDLE
 40
0.0
  9
$DIMEXE
 40
1.0
  9
$DIMTP
 40
0.0
  9
$DIMTM
 40
0.0
  9
$DIMTXT
 40
3.5
  9
$DIMCEN
 40
2.5
  9
$DIMTSZ
 40
0.0
  9
$DIMTOL
 70
     0
  9
$DIMLIM
 70
     0
  9
$DIMTIH
 70
     1
  9
$DIMTOH
 70
     1
  9
$DIMSE1
 70
     0
  9
$DIMSE2
 70
     0
  9
$DIMTAD
 70
     1
  9
$DIMZIN
 70
     0
  9
$DIMBLK
  1

  9
$DIMASO
 70
     1
  9
$DIMSHO
 70
     1
  9
$DIMPOST
  1

  9
$DIMAPOST
  1

  9
$DIMALT
 70
     0
  9
$DIMALTD
 70
     3
  9
$DIMALTF
 40
0.0393700787401575
  9
$DIMLFAC
 40
1.0
  9
$DIMTOFL
 70
     1
  9
$DIMTVP
 40
0.0
  9
$DIMTIX
 70
     0
  9
$DIMSOXD
 70
     0
  9
$DIMSAH
 70
     0
  9
$DIMBLK1
  1

  9
$DIMBLK2
  1

  9
$DIMSTYLE
  2
ISO-25
  9
$DIMCLRD
 70
     0
  9
$DIMCLRE
 70
     0
  9
$DIMCLRT
 70
     0
  9
$DIMTFAC
 40
1.0
  9
$DIMGAP
 40
1.524
  9
$DIMJUST
 70
     0
  9
$DIMSD1
 70
     0
  9
$DIMSD2
 70
     0
  9
$DIMTOLJ
 70
     0
  9
$DIMTZIN
 70
     0
  9
$DIMALTZ
 70
     0
  9
$DIMALTTZ
 70
     0
  9
$DIMUPT
 70
     0
  9
$DIMDEC
 70
     2
  9
$DIMTDEC
 70
     2
  9
$DIMALTU
 70
     2
  9
$DIMALTTD
 70
     3
  9
$DIMTXSTY
  7
Standard
  9
$DIMAUNIT
 70
     0
  9
$DIMADEC
 70
     2
  9
$DIMALTRND
 40
0.0
  9
$DIMAZIN
 70
     0
  9
$DIMDSEP
 70
    44
  9
$DIMATFIT
 70
     3
  9
$DIMFRAC
 70
     0
  9
$DIMLDRBLK
  1

  9
$DIMLUNIT
 70
     2
  9
$DIMLWD
 70
    -2
  9
$DIMLWE
 70
    -2
  9
$DIMTMOVE
 70
     0
  9
$LUNITS
 70
     2
  9
$LUPREC
 70
     2
  9
$SKETCHINC
 40
1.0
  9
$FILLETRAD
 40
10.0
  9
$AUNITS
 70
     0
  9
$AUPREC
 70
     2
  9
$MENU
  1
.
  9
$ELEVATION
 40
0.0
  9
$PELEVATION
 40
0.0
  9
$THICKNESS
 40
0.0
  9
$LIMCHECK
 70
     0
  9
$CHAMFERA
 40
0.0
  9
$CHAMFERB
 40
0.0
  9
$CHAMFERC
 40
0.0
  9
$CHAMFERD
 40
0.0
  9
$SKPOLY
 70
     0
  9
$TDCREATE
 40
2458236.745988599
  9
$TDUCREATE
 40
2458236.370988599
  9
$TDUPDATE
 40
2458241.729148704
  9
$TDUUPDATE
 40
2458241.354148704
  9
$TDINDWG
 40
0.0009777199
  9
$TDUSRTIMER
 40
2458241.351758785
  9
$USRTIMER
 70
     1
  9
$ANGBASE
 50
0.0
  9
$ANGDIR
 70
     0
  9
$PDMODE
 70
     0
  9
$PDSIZE
 40
-1.0
  9
$PLINEWID
 40
0.0
  9
$SPLFRAME
 70
     0
  9
$SPLINETYPE
 70
     6
  9
$SPLINESEGS
 70
     8
  9
$HANDSEED
  5
19C
  9
$SURFTAB1
 70
     6
  9
$SURFTAB2
 70
     6
  9
$SURFTYPE
 70
     6
  9
$SURFU
 70
     6
  9
$SURFV
 70
     6
  9
$UCSBASE
  2

  9
$UCSNAME
  2

  9
$UCSORG
 10
0.0
 20
0.0
 30
0.0
  9
$UCSXDIR
 10
1.0
 20
0.0
 30
0.0
  9
$UCSYDIR
 10
0.0
 20
1.0
 30
0.0
  9
$UCSORTHOREF
  2

  9
$UCSORTHOVIEW
 70
     0
  9
$UCSORGTOP
 10
0.0
 20
0.0
 30
0.0
  9
$UCSORGBOTTOM
 10
0.0
 20
0.0
 30
0.0
  9
$UCSORGLEFT
 10
0.0
 20
0.0
 30
0.0
  9
$UCSORGRIGHT
 10
0.0
 20
0.0
 30
0.0
  9
$UCSORGFRONT
 10
0.0
 20
0.0
 30
0.0
  9
$UCSORGBACK
 10
0.0
 20
0.0
 30
0.0
  9
$PUCSBASE
  2

  9
$PUCSNAME
  2

  9
$PUCSORG
 10
0.0
 20
0.0
 30
0.0
  9
$PUCSXDIR
 10
1.0
 20
0.0
 30
0.0
  9
$PUCSYDIR
 10
0.0
 20
1.0
 30
0.0
  9
$PUCSORTHOREF
  2

  9
$PUCSORTHOVIEW
 70
     0
  9
$PUCSORGTOP
 10
0.0
 20
0.0
 30
0.0
  9
$PUCSORGBOTTOM
 10
0.0
 20
0.0
 30
0.0
  9
$PUCSORGLEFT
 10
0.0
 20
0.0
 30
0.0
  9
$PUCSORGRIGHT
 10
0.0
 20
0.0
 30
0.0
  9
$PUCSORGFRONT
 10
0.0
 20
0.0
 30
0.0
  9
$PUCSORGBACK
 10
0.0
 20
0.0
 30
0.0
  9
$USERI1
 70
     0
  9
$USERI2
 70
     0
  9
$USERI3
 70
     0
  9
$USERI4
 70
     0
  9
$USERI5
 70
     0
  9
$USERR1
 40
0.0
  9
$USERR2
 40
0.0
  9
$USERR3
 40
0.0
  9
$USERR4
 40
0.0
  9
$USERR5
 40
0.0
  9
$WORLDVIEW
 70
     1
  9
$SHADEDGE
 70
     3
  9
$SHADEDIF
 70
    70
  9
$TILEMODE
 70
     1
  9
$MAXACTVP
 70
    64
  9
$PINSBASE
 10
0.0
 20
0.0
 30
0.0
  9
$PLIMCHECK
 70
     0
  9
$PEXTMIN
 10
1.000000000000000E+20
 20
1.000000000000000E+20
 30
1.000000000000000E+20
  9
$PEXTMAX
 10
-1.000000000000000E+20
 20
-1.000000000000000E+20
 30
-1.000000000000000E+20
  9
$PLIMMIN
 10
0.0
 20
0.0
  9
$PLIMMAX
 10
0.0
 20
0.0
  9
$UNITMODE
 70
     0
  9
$VISRETAIN
 70
     1
  9
$PLINEGEN
 70
     0
  9
$PSLTSCALE
 70
     1
  9
$TREEDEPTH
 70
  3020
  9
$CMLSTYLE
  2
Standard
  9
$CMLJUST
 70
     0
  9
$CMLSCALE
 40
20.0
  9
$PROXYGRAPHICS
 70
     1
  9
$MEASUREMENT
 70
     1
  9
$CELWEIGHT
370
    -1
  9
$ENDCAPS
280
     0
  9
$JOINSTYLE
280
     0
  9
$LWDISPLAY
290
     1
  9
$INSUNITS
 70
     4
  9
$HYPERLINKBASE
  1

  9
$STYLESHEET
  1

  9
$XEDIT
290
     1
  9
$CEPSNTYPE
380
     0
  9
$PSTYLEMODE
290
     1
  9
$FINGERPRINTGUID
  2
{88707384-169F-4E61-B1E5-53D8D17983FE}
  9
$VERSIONGUID
  2
{FAEB1C32-E019-11D5-929B-00C0DF256EC4}
  9
$EXTNAMES
290
     1
  9
$PSVPSCALE
 40
0.0
  9
$OLESTARTUP
290
     0
  0
ENDSEC
  0
SECTION
  2
CLASSES
  0
CLASS
  1
ACDBDICTIONARYWDFLT
  2
AcDbDictionaryWithDefault
  3
ObjectDBX Classes
 90
        0
280
     0
281
     0
  0
CLASS
  1
VISUALSTYLE
  2
AcDbVisualStyle
  3
ObjectDBX Classes
 90
     4095
280
     0
281
     0
  0
CLASS
  1
MATERIAL
  2
AcDbMaterial
  3
ObjectDBX Classes
 90
     1153
280
     0
281
     0
  0
CLASS
  1
SCALE
  2
AcDbScale
  3
ObjectDBX Classes
 90
     1153
280
     0
281
     0
  0
CLASS
  1
SUN
  2
AcDbSun
  3
SCENEOE
 90
     1153
280
     0
281
     0
  0
CLASS
  1
ACDBPLACEHOLDER
  2
AcDbPlaceHolder
  3
ObjectDBX Classes
 90
        0
280
     0
281
     0
  0
CLASS
  1
LAYOUT
  2
AcDbLayout
  3
ObjectDBX Classes
 90
        0
280
     0
281
     0
  0
CLASS
  1
TABLESTYLE
  2
AcDbTableStyle
  3
ObjectDBX Classes
 90
     4095
280
     0
281
     0
  0
CLASS
  1
MLEADERSTYLE
  2
AcDbMLeaderStyle
  3
ACDB_MLEADERSTYLE_CLASS
 90
     4095
280
     0
281
     0
  0
CLASS
  1
RASTERVARIABLES
  2
AcDbRasterVariables
  3
ISM
 90
        0
280
     0
281
     0
  0
CLASS
  1
DIMASSOC
  2
AcDbDimAssoc
  3
"AcDbDimAssoc|Product Desc:     AcDim ARX App For Dimension|Company:          Autodesk, Inc.|WEB Address:      www.autodesk.com"
 90
        0
280
     0
281
     0
  0
ENDSEC
  0
SECTION
  2
TABLES
  0
TABLE
  2
VPORT
  5
8
330
0
100
AcDbSymbolTable
 70
     1
  0
VPORT
  5
29
330
8
100
AcDbSymbolTableRecord
100
AcDbViewportTableRecord
  2
*Active
 70
     0
 10
0.0
 20
0.0
 11
1.0
 21
1.0
 12
85.21238711395472
 22
23.27745892338561
 13
0.0
 23
0.0
 14
10.0
 24
10.0
 15
10.0
 25
10.0
 16
0.0
 26
0.0
 36
1.0
 17
0.0
 27
0.0
 37
0.0
 40
84.18125631053418
 41
1.321695760598504
 42
50.0
 43
0.0
 44
0.0
 50
0.0
 51
0.0
 71
    16
 72
  2000
 73
     1
 74
     3
 75
     0
 76
     0
 77
     0
 78
     0
281
     0
 65
     1
110
0.0
120
0.0
130
0.0
111
1.0
121
0.0
131
0.0
112
0.0
122
1.0
132
0.0
 79
     0
146
0.0
  0
ENDTAB
  0
TABLE
  2
LTYPE
  5
5
330
0
100
AcDbSymbolTable
 70
     6
  0
LTYPE
  5
14
330
5
100
AcDbSymbolTableRecord
100
AcDbLinetypeTableRecord
  2
ByBlock
 70
     0
  3

 72
    65
 73
     0
 40
0.0
  0
LTYPE
  5
15
330
5
100
AcDbSymbolTableRecord
100
AcDbLinetypeTableRecord
  2
ByLayer
 70
     0
  3

 72
    65
 73
     0
 40
0.0
  0
LTYPE
  5
16
330
5
100
AcDbSymbolTableRecord
100
AcDbLinetypeTableRecord
  2
Continuous
 70
     0
  3
Solid line
 72
    65
 73
     0
 40
0.0
  0
LTYPE
  5
6A
330
5
100
AcDbSymbolTableRecord
100
AcDbLinetypeTableRecord
  2
HIDDEN
 70
     0
  3
Hidden __ __ __ __ __ __ __ __ __ __ __ __ __ __
 72
    65
 73
     2
 40
1.905
 49
1.27
 74
     0
 49
-0.635
 74
     0
  0
LTYPE
  5
6B
330
5
100
AcDbSymbolTableRecord
100
AcDbLinetypeTableRecord
  2
PHANTOM
 70
     0
  3
Phantom ______  __  __  ______  __  __  ______
 72
    65
 73
     6
 40
12.7
 49
6.35
 74
     0
 49
-1.27
 74
     0
 49
1.27
 74
     0
 49
-1.27
 74
     0
 49
1.27
 74
     0
 49
-1.27
 74
     0
  0
LTYPE
  5
6C
330
5
100
AcDbSymbolTableRecord
100
AcDbLinetypeTableRecord
  2
CENTER
 70
     0
  3
Center ____ _ ____ _ ____ _ ____ _ ____ _ ____
 72
    65
 73
     4
 40
10.16
 49
6.35
 74
     0
 49
-1.27
 74
     0
 49
1.27
 74
     0
 49
-1.27
 74
     0
  0
LTYPE
  5
6D
330
5
100
AcDbSymbolTableRecord
100
AcDbLinetypeTableRecord
  2
CENTERX2
 70
     0
  3
Center (2x) ________  __  ________  __  _____
 72
    65
 73
     4
 40
20.32
 49
12.7
 74
     0
 49
-2.54
 74
     0
 49
2.54
 74
     0
 49
-2.54
 74
     0
  0
LTYPE
  5
6E
330
5
100
AcDbSymbolTableRecord
100
AcDbLinetypeTableRecord
  2
DOT2
 70
     0
  3
Dot (.5x) ........................................
 72
    65
 73
     2
 40
0.635
 49
0.0
 74
     0
 49
-0.635
 74
     0
  0
ENDTAB
  0
TABLE
  2
LAYER
  5
2
330
0
100
AcDbSymbolTable
 70
    17
  0
LAYER
  5
10
330
2
100
AcDbSymbolTableRecord
100
AcDbLayerTableRecord
  2
0
 70
     0
 62
     7
  6
Continuous
370
    -3
390
F
  0
LAYER
  5
6F
330
2
100
AcDbSymbolTableRecord
100
AcDbLayerTableRecord
  2
FORMAT
 70
     0
 62
     2
  6
Continuous
370
    -3
390
F
  0
LAYER
  5
70
330
2
100
AcDbSymbolTableRecord
100
AcDbLayerTableRecord
  2
외형선
 70
     0
 62
   100
  6
Continuous
370
    30
390
F
  0
LAYER
  5
71
330
2
100
AcDbSymbolTableRecord
100
AcDbLayerTableRecord
  2
숨은선
 70
     0
 62
     2
  6
HIDDEN
370
    15
390
F
  0
LAYER
  5
72
330
2
100
AcDbSymbolTableRecord
100
AcDbLayerTableRecord
  2
중심선
 70
     0
 62
     1
  6
CENTERX2
370
    -3
390
F
  0
LAYER
  5
73
330
2
100
AcDbSymbolTableRecord
100
AcDbLayerTableRecord
  2
파단선
 70
     0
 62
     4
  6
Continuous
370
    -3
390
F
  0
LAYER
  5
74
330
2
100
AcDbSymbolTableRecord
100
AcDbLayerTableRecord
  2
해칭선
 70
     0
 62
     4
  6
Continuous
370
    -3
390
F
  0
LAYER
  5
75
330
2
100
AcDbSymbolTableRecord
100
AcDbLayerTableRecord
  2
가는실선
 70
     0
 62
     4
  6
Continuous
370
    -3
390
F
  0
LAYER
  5
76
330
2
100
AcDbSymbolTableRecord
100
AcDbLayerTableRecord
  2
치수_보조선
 70
     0
 62
     4
  6
Continuous
370
    -3
390
F
  0
LAYER
  5
77
330
2
100
AcDbSymbolTableRecord
100
AcDbLayerTableRecord
  2
치수문자_일반주서
 70
     0
 62
     7
  6
Continuous
370
    15
390
F
  0
LAYER
  5
78
330
2
100
AcDbSymbolTableRecord
100
AcDbLayerTableRecord
  2
개별주서
 70
     0
 62
   100
  6
Continuous
370
    30
390
F
  0
LAYER
  5
79
330
2
100
AcDbSymbolTableRecord
100
AcDbLayerTableRecord
  2
중간선
 70
     0
 62
     2
  6
Continuous
370
    15
390
F
  0
LAYER
  5
7A
330
2
100
AcDbSymbolTableRecord
100
AcDbLayerTableRecord
  2
윤곽선
 70
     0
 62
     3
  6
Continuous
370
    40
390
F
  0
LAYER
  5
7B
330
2
100
AcDbSymbolTableRecord
100
AcDbLayerTableRecord
  2
중심마크
 70
     0
 62
   100
  6
Continuous
370
    30
390
F
  0
LAYER
  5
7C
330
2
100
AcDbSymbolTableRecord
100
AcDbLayerTableRecord
  2
가상선
 70
     0
 62
     4
  6
PHANTOM
370
    -3
390
F
  0
LAYER
  5
7D
330
2
100
AcDbSymbolTableRecord
100
AcDbLayerTableRecord
  2
특수지정선
 70
     0
 62
     5
  6
CENTERX2
370
    60
390
F
  0
LAYER
  5
177
330
2
100
AcDbSymbolTableRecord
100
AcDbLayerTableRecord
  2
Defpoints
 70
     0
 62
     7
  6
Continuous
290
     0
370
    -3
390
F
  0
ENDTAB
  0
TABLE
  2
STYLE
  5
3
330
0
100
AcDbSymbolTable
 70
     2
  0
STYLE
  5
11
330
3
100
AcDbSymbolTableRecord
100
AcDbTextStyleTableRecord
  2
Standard
 70
     0
 40
0.0
 41
1.0
 50
0.0
 71
     0
 42
3.5
  3
txt
  4

  0
STYLE
  5
93
330
3
100
AcDbSymbolTableRecord
100
AcDbTextStyleTableRecord
  2
SLDTEXTSTYLE0
 70
     0
 40
0.0
 41
0.75
 50
0.0
 71
     0
 42
3.5
  3
TXT
  4

  0
ENDTAB
  0
TABLE
  2
VIEW
  5
6
330
0
100
AcDbSymbolTable
 70
     0
  0
ENDTAB
  0
TABLE
  2
UCS
  5
7
330
0
100
AcDbSymbolTable
 70
     0
  0
ENDTAB
  0
TABLE
  2
APPID
  5
9
330
0
100
AcDbSymbolTable
 70
     3
  0
APPID
  5
12
330
9
100
AcDbSymbolTableRecord
100
AcDbRegAppTableRecord
  2
ACAD
 70
     0
  0
APPID
  5
178
330
9
100
AcDbSymbolTableRecord
100
AcDbRegAppTableRecord
  2
ACAD_DSTYLE_DIMRADIAL_EXTENSION
 70
     0
  0
APPID
  5
18A
330
9
100
AcDbSymbolTableRecord
100
AcDbRegAppTableRecord
  2
PE_DIMMEASUREMENT
 70
     0
  0
ENDTAB
  0
TABLE
  2
DIMSTYLE
  5
A
330
0
100
AcDbSymbolTable
 70
     5
100
AcDbDimStyleTable
  0
DIMSTYLE
105
27
330
A
100
AcDbSymbolTableRecord
100
AcDbDimStyleTableRecord
  2
ISO-25
 70
     0
 41
2.5
 42
0.625
 43
3.75
 44
1.25
 73
     0
 74
     0
 77
     1
 78
     8
140
2.5
141
2.5
143
0.03937007874016
147
0.625
171
     3
172
     1
178
     0
271
     2
272
     2
274
     3
278
    44
283
     0
284
     8
340
11
  0
DIMSTYLE
105
FF
102
{ACAD_REACTORS
330
FE
330
18E
102
}
330
A
100
AcDbSymbolTableRecord
100
AcDbDimStyleTableRecord
  2
SLDDIMSTYLE0
 70
     0
 41
3.302
 44
0.0
 45
0.000000001
 73
     0
 74
     0
 77
     1
 78
    12
 79
     3
140
3.5
143
0.0393700787401575
147
0.875
148
0.000000001
170
     1
172
     1
173
     1
178
     0
271
     2
272
     2
276
     2
284
    12
289
     0
340
93
  0
DIMSTYLE
105
114
102
{ACAD_REACTORS
330
113
102
}
330
A
100
AcDbSymbolTableRecord
100
AcDbDimStyleTableRecord
  2
SLDDIMSTYLE1
 70
     0
 41
3.302
 44
0.0
 45
0.000000001
 73
     0
 74
     0
 77
     1
 78
    12
 79
     3
140
3.5
143
0.0393700787401575
147
0.875
148
0.000000001
170
     1
173
     1
178
     0
271
     2
272
     2
276
     2
284
    12
340
93
  0
DIMSTYLE
105
128
102
{ACAD_REACTORS
330
127
330
179
102
}
330
A
100
AcDbSymbolTableRecord
100
AcDbDimStyleTableRecord
  2
SLDDIMSTYLE2
 70
     0
 41
3.302
 44
0.0
 45
0.000000001
 73
     0
 74
     0
 77
     1
 78
     4
 79
     1
140
3.5
143
0.0393700787401575
147
0.875
148
0.000000001
170
     1
173
     1
178
     0
271
     2
272
     2
276
     2
284
    12
340
93
  0
DIMSTYLE
105
13C
330
A
100
AcDbSymbolTableRecord
100
AcDbDimStyleTableRecord
  2
SLDDIMSTYLE3
 70
     0
 41
3.302
 44
0.0
 45
0.000000001
 73
     0
 74
     0
 77
     1
 78
     8
 79
     2
140
3.5
143
0.0393700787401575
147
0.875
148
0.000000001
170
     1
172
     1
173
     1
178
     0
271
     2
272
     2
276
     2
284
    12
289
     0
340
93
341
13D
343
13D
344
13D
  0
ENDTAB
  0
TABLE
  2
BLOCK_RECORD
  5
1
330
0
100
AcDbSymbolTable
 70
    10
  0
BLOCK_RECORD
  5
1F
330
1
100
AcDbSymbolTableRecord
100
AcDbBlockTableRecord
  2
*Model_Space
340
22
  0
BLOCK_RECORD
  5
1B
330
1
100
AcDbSymbolTableRecord
100
AcDbBlockTableRecord
  2
*Paper_Space
340
1E
  0
BLOCK_RECORD
  5
23
330
1
100
AcDbSymbolTableRecord
100
AcDbBlockTableRecord
  2
*Paper_Space0
340
26
  0
BLOCK_RECORD
  5
7E
330
1
100
AcDbSymbolTableRecord
100
AcDbBlockTableRecord
  2
블럭10
340
0
102
{BLKREFS
331
F6
102
}
  0
BLOCK_RECORD
  5
100
330
1
100
AcDbSymbolTableRecord
100
AcDbBlockTableRecord
  2
_D
340
0
  0
BLOCK_RECORD
  5
115
330
1
100
AcDbSymbolTableRecord
100
AcDbBlockTableRecord
  2
_D_1
340
0
  0
BLOCK_RECORD
  5
129
330
1
100
AcDbSymbolTableRecord
100
AcDbBlockTableRecord
  2
_D_2
340
0
  0
BLOCK_RECORD
  5
13D
330
1
100
AcDbSymbolTableRecord
100
AcDbBlockTableRecord
  2
_NONE
340
0
  0
BLOCK_RECORD
  5
140
330
1
100
AcDbSymbolTableRecord
100
AcDbBlockTableRecord
  2
_D_3
340
0
  0
BLOCK_RECORD
  5
14C
330
1
100
AcDbSymbolTableRecord
100
AcDbBlockTableRecord
  2
SW_DOWELSYMBOL_0
340
0
102
{BLKREFS
331
152
102
}
  0
BLOCK_RECORD
  5
17C
330
1
100
AcDbSymbolTableRecord
100
AcDbBlockTableRecord
  2
*D8
340
0
  0
BLOCK_RECORD
  5
191
330
1
100
AcDbSymbolTableRecord
100
AcDbBlockTableRecord
  2
*D9
340
0
  0
ENDTAB
  0
ENDSEC
  0
SECTION
  2
BLOCKS
  0
BLOCK
  5
20
330
1F
100
AcDbEntity
  8
0
100
AcDbBlockBegin
  2
*Model_Space
 70
     0
 10
0.0
 20
0.0
 30
0.0
  3
*Model_Space
  1
*Model_Space
  0
ENDBLK
  5
21
330
1F
100
AcDbEntity
  8
0
100
AcDbBlockEnd
  0
BLOCK
  5
1C
330
1B
100
AcDbEntity
 67
     1
  8
0
100
AcDbBlockBegin
  2
*Paper_Space
 70
     0
 10
0.0
 20
0.0
 30
0.0
  3
*Paper_Space
  1
*Paper_Space
  0
ENDBLK
  5
1D
330
1B
100
AcDbEntity
 67
     1
  8
0
100
AcDbBlockEnd
  0
BLOCK
  5
24
330
23
100
AcDbEntity
  8
0
100
AcDbBlockBegin
  2
*Paper_Space0
 70
     0
 10
0.0
 20
0.0
 30
0.0
  3
*Paper_Space0
  1
*Paper_Space0
  0
ENDBLK
  5
25
330
23
100
AcDbEntity
  8
0
100
AcDbBlockEnd
  0
BLOCK
  5
7F
330
7E
100
AcDbEntity
  8
0
100
AcDbBlockBegin
  2
블럭10
 70
     2
 10
0.0
 20
0.0
 30
0.0
  3
블럭10
  1
블럭10
  0
ELLIPSE
  5
81
330
7E
100
AcDbEntity
  8
중심선
100
AcDbEllipse
 10
20.54032771741204
 20
12.0471743016438
 30
0.0
 11
6.600054785286829
 21
-1.261213355974178E-13
 31
0.0
210
0.0
220
0.0
230
1.0
 40
0.636358354079598
 41
0.9219305317359503
 42
6.513795318482858
  0
ELLIPSE
  5
82
330
7E
100
AcDbEntity
  8
중심선
100
AcDbEllipse
 10
20.54032771746488
 20
12.04717430159265
 30
0.0
 11
3.960054785062283
 21
1.540847449632565E-10
 31
0.0
210
0.0
220
0.0
230
1.0
 40
0.3939339440162632
 41
1.131841032648279
 42
5.62031148352944
  0
LINE
  5
83
330
7E
100
AcDbEntity
  8
중심선
100
AcDbLine
 10
2.268634060543552
 20
16.24717430164393
 30
0.0
 11
5.714909304380834
 21
16.24717430164393
 31
0.0
  0
LINE
  5
84
330
7E
100
AcDbEntity
  8
중심선
100
AcDbLine
 10
5.245725140726316
 20
7.84717430164391
 30
0.0
 11
8.692000384563599
 21
7.84717430164391
 31
0.0
  0
LINE
  5
85
330
7E
100
AcDbEntity
  8
중심선
100
AcDbLine
 10
15.74043728645272
 20
16.24717430164393
 30
0.0
 11
8.692000384563599
 21
7.84717430164391
 31
0.0
  0
LINE
  5
86
330
7E
100
AcDbEntity
  8
중심선
100
AcDbLine
 10
0.1404042013395286
 20
13.71084872107135
 30
0.0
 11
3.58671253028996
 21
13.71088815037384
 31
0.0
  0
LINE
  5
87
330
7E
100
AcDbEntity
  8
중심선
100
AcDbLine
 10
2.750260043222114
 20
10.84717430164391
 30
0.0
 11
6.196535287059397
 21
10.84717430164391
 31
0.0
  0
LINE
  5
88
330
7E
100
AcDbEntity
  8
중심선
100
AcDbLine
 10
12.29416204261559
 20
16.24717430164393
 30
0.0
 11
5.245725140726316
 21
7.84717430164391
 31
0.0
  0
LINE
  5
89
330
7E
100
AcDbEntity
  8
중심선
100
AcDbLine
 10
10.72767329541681
 20
16.24717430164393
 30
0.0
 11
6.196535287059397
 21
10.84717430164391
 31
0.0
  0
LINE
  5
8A
330
7E
100
AcDbEntity
  8
중심선
100
AcDbLine
 10
7.28139805157953
 20
16.24717430164393
 30
0.0
 11
2.750260043222114
 21
10.84717430164391
 31
0.0
  0
LINE
  5
8B
330
7E
100
AcDbEntity
  8
중심선
100
AcDbLine
 10
5.714909304380834
 20
16.24717430164393
 30
0.0
 11
3.58671253028996
 21
13.71088815037384
 31
0.0
  0
LINE
  5
8C
330
7E
100
AcDbEntity
  8
중심선
100
AcDbLine
 10
2.268634060543552
 20
16.24717430164393
 30
0.0
 11
0.1404042013395286
 21
13.71084872107135
 31
0.0
  0
LINE
  5
8D
330
7E
100
AcDbEntity
  8
중심선
100
AcDbLine
 10
7.28139805157953
 20
16.24717430164393
 30
0.0
 11
10.72767329541681
 21
16.24717430164393
 31
0.0
  0
LINE
  5
8E
330
7E
100
AcDbEntity
  8
중심선
100
AcDbLine
 10
12.29416204261559
 20
16.24717430164393
 30
0.0
 11
15.74043728645272
 21
16.24717430164393
 31
0.0
  0
LINE
  5
8F
330
7E
100
AcDbEntity
  8
중심선
100
AcDbLine
 10
19.22036997980202
 20
11.08717430171403
 30
0.0
 11
23.66174974927406
 21
11.08717430171406
 31
0.0
  0
LINE
  5
90
330
7E
100
AcDbEntity
  8
중심선
100
AcDbLine
 10
19.22039502424796
 20
13.00717430171391
 30
0.0
 11
19.22036997980202
 21
11.08717430171403
 31
0.0
  0
LINE
  5
91
330
7E
100
AcDbEntity
  8
중심선
100
AcDbLine
 10
19.22039502424796
 20
13.00717430171391
 30
0.0
 11
26.96566020931264
 21
13.00717430171391
 31
0.0
  0
LINE
  5
92
330
7E
100
AcDbEntity
  8
중심선
100
AcDbLine
 10
22.22332737316547
 20
13.45928029700563
 30
0.0
 11
24.52862924686651
 21
15.39360700705356
 31
0.0
  0
ATTDEF
  5
94
330
7E
100
AcDbEntity
  8
FORMAT
 62
     2
100
AcDbText
 10
-11.05102035218446
 20
2.075366912832191
 30
0.0
 40
4.233333333333333
  1
GMG22929[ 6 FLUTE ]
 41
0.75
  7
SLDTEXTSTYLE0
 11
-11.05102035218446
 21
-0.0412997538344756
 31
0.0
100
AcDbAttributeDefinition
  3

  2
AUTOATTR0
 70
     0
 74
     1
  0
ENDBLK
  5
80
330
7E
100
AcDbEntity
  8
0
100
AcDbBlockEnd
  0
BLOCK
  5
101
330
100
100
AcDbEntity
  8
0
100
AcDbBlockBegin
  2
_D
 70
     0
 10
0.0
 20
0.0
 30
0.0
  3
_D
  1
_D
  0
LINE
  5
103
330
100
100
AcDbEntity
  8
치수문자_일반주서
 62
     0
370
    -2
100
AcDbLine
 10
84.73850000000003
 20
-6.349999999999998
 30
0.0
 11
102.321245715773
 21
-6.349999999999934
 31
0.0
  0
LINE
  5
104
330
100
100
AcDbEntity
  8
치수문자_일반주서
 62
     0
370
    -2
100
AcDbLine
 10
83.7385
 20
6.350000000000006
 30
0.0
 11
102.321245715773
 21
6.350000000000074
 31
0.0
  0
LINE
  5
105
330
100
100
AcDbEntity
  8
치수문자_일반주서
 62
     0
370
    -2
100
AcDbLine
 10
102.321245715773
 20
-3.047999999999934
 30
0.0
 11
102.321245715773
 21
3.048000000000075
 31
0.0
  0
SOLID
  5
106
330
100
100
AcDbEntity
  8
치수문자_일반주서
 62
     0
100
AcDbTrace
 10
101.7709123824397
 20
-3.047999999999936
 30
0.0
 11
102.8715790491063
 21
-3.047999999999933
 31
0.0
 12
102.321245715773
 22
-6.349999999999934
 32
0.0
 13
102.321245715773
 23
-6.349999999999934
 33
0.0
  0
SOLID
  5
107
330
100
100
AcDbEntity
  8
치수문자_일반주서
 62
     0
100
AcDbTrace
 10
102.8715790491063
 20
3.048000000000076
 30
0.0
 11
101.7709123824396
 21
3.048000000000073
 31
0.0
 12
102.321245715773
 22
6.350000000000074
 32
0.0
 13
102.321245715773
 23
6.350000000000074
 33
0.0
  0
MTEXT
  5
108
330
100
100
AcDbEntity
  8
치수문자_일반주서
 62
     0
100
AcDbMText
 10
97.94624571577297
 20
0.0000000000000561
 30
0.0
 40
3.5
 41
0.0
 71
     2
 72
     1
  1
\A1;%%c12.7 [1/2]
  7
SLDTEXTSTYLE0
 11
-3.356894814614645E-15
 21
1.0
 31
0.0
 73
     1
 44
1.0
  0
POINT
  5
109
330
100
100
AcDbEntity
  8
Defpoints
 62
     0
100
AcDbPoint
 10
84.67600000000003
 20
-6.349999999999998
 30
0.0
  0
POINT
  5
10A
330
100
100
AcDbEntity
  8
Defpoints
 62
     0
100
AcDbPoint
 10
83.676
 20
6.350000000000006
 30
0.0
  0
POINT
  5
10B
330
100
100
AcDbEntity
  8
Defpoints
 62
     0
100
AcDbPoint
 10
102.3212457157729
 20
6.350000000000075
 30
0.0
  0
ENDBLK
  5
102
330
100
100
AcDbEntity
  8
0
100
AcDbBlockEnd
  0
BLOCK
  5
116
330
115
100
AcDbEntity
  8
0
100
AcDbBlockBegin
  2
_D_1
 70
     0
 10
0.0
 20
0.0
 30
0.0
  3
_D_1
  1
_D_1
  0
LINE
  5
118
330
115
100
AcDbEntity
  8
치수문자_일반주서
 62
     0
370
    -2
100
AcDbLine
 10
-40.8
 20
5.912499999999999
 30
0.0
 11
-40.8
 21
39.00555141807178
 31
0.0
  0
LINE
  5
119
330
115
100
AcDbEntity
  8
치수문자_일반주서
 62
     0
370
    -2
100
AcDbLine
 10
86.2
 20
4.888500000000004
 30
0.0
 11
86.2
 21
39.00555141807178
 31
0.0
  0
LINE
  5
11A
330
115
100
AcDbEntity
  8
치수문자_일반주서
 62
     0
370
    -2
100
AcDbLine
 10
-37.498
 20
39.00555141807178
 30
0.0
 11
82.898
 21
39.00555141807178
 31
0.0
  0
SOLID
  5
11B
330
115
100
AcDbEntity
  8
치수문자_일반주서
 62
     0
100
AcDbTrace
 10
-37.498
 20
39.55588475140512
 30
0.0
 11
-37.498
 21
38.45521808473845
 31
0.0
 12
-40.8
 22
39.00555141807178
 32
0.0
 13
-40.8
 23
39.00555141807178
 33
0.0
  0
SOLID
  5
11C
330
115
100
AcDbEntity
  8
치수문자_일반주서
 62
     0
100
AcDbTrace
 10
82.898
 20
38.45521808473845
 30
0.0
 11
82.898
 21
39.55588475140512
 31
0.0
 12
86.2
 22
39.00555141807178
 32
0.0
 13
86.2
 23
39.00555141807178
 33
0.0
  0
MTEXT
  5
11D
330
115
100
AcDbEntity
  8
치수문자_일반주서
 62
     0
100
AcDbMText
 10
22.70000000000001
 20
43.38055141807178
 30
0.0
 40
3.5
 41
0.0
 71
     2
 72
     1
  1
\A1;127 [5]
  7
SLDTEXTSTYLE0
 73
     1
 44
1.0
  0
POINT
  5
11E
330
115
100
AcDbEntity
  8
Defpoints
 62
     0
100
AcDbPoint
 10
-40.8
 20
5.849999999999999
 30
0.0
  0
POINT
  5
11F
330
115
100
AcDbEntity
  8
Defpoints
 62
     0
100
AcDbPoint
 10
86.2
 20
4.826000000000004
 30
0.0
  0
POINT
  5
120
330
115
100
AcDbEntity
  8
Defpoints
 62
     0
100
AcDbPoint
 10
86.2
 20
39.00555141807178
 30
0.0
  0
ENDBLK
  5
117
330
115
100
AcDbEntity
  8
0
100
AcDbBlockEnd
  0
BLOCK
  5
12A
330
129
100
AcDbEntity
  8
0
100
AcDbBlockBegin
  2
_D_2
 70
     0
 10
0.0
 20
0.0
 30
0.0
  3
_D_2
  1
_D_2
  0
LINE
  5
12C
330
129
100
AcDbEntity
  8
치수문자_일반주서
 62
     0
370
    -2
100
AcDbLine
 10
86.2
 20
4.888500000000004
 30
0.0
 11
86.2
 21
22.45299453033794
 31
0.0
  0
LINE
  5
12D
330
129
100
AcDbEntity
  8
치수문자_일반주서
 62
     0
370
    -2
100
AcDbLine
 10
9.999999999999876
 20
-6.280596718650093
 30
0.0
 11
9.99999999999988
 21
22.45299453033794
 31
0.0
  0
LINE
  5
12E
330
129
100
AcDbEntity
  8
치수문자_일반주서
 62
     0
370
    -2
100
AcDbLine
 10
82.898
 20
22.45299453033794
 30
0.0
 11
13.30199999999988
 21
22.45299453033794
 31
0.0
  0
SOLID
  5
12F
330
129
100
AcDbEntity
  8
치수문자_일반주서
 62
     0
100
AcDbTrace
 10
82.898
 20
21.9026611970046
 30
0.0
 11
82.898
 21
23.00332786367127
 31
0.0
 12
86.2
 22
22.45299453033794
 32
0.0
 13
86.2
 23
22.45299453033794
 33
0.0
  0
SOLID
  5
130
330
129
100
AcDbEntity
  8
치수문자_일반주서
 62
     0
100
AcDbTrace
 10
13.30199999999988
 20
23.00332786367127
 30
0.0
 11
13.30199999999988
 21
21.9026611970046
 31
0.0
 12
9.99999999999988
 22
22.45299453033794
 32
0.0
 13
9.99999999999988
 23
22.45299453033794
 33
0.0
  0
MTEXT
  5
131
330
129
100
AcDbEntity
  8
치수문자_일반주서
 62
     0
100
AcDbMText
 10
47.26180339570445
 20
26.82799453033794
 30
0.0
 40
3.5
 41
0.0
 71
     2
 72
     1
  1
\A1;76.20 [3]
  7
SLDTEXTSTYLE0
 73
     1
 44
1.0
  0
POINT
  5
132
330
129
100
AcDbEntity
  8
Defpoints
 62
     0
100
AcDbPoint
 10
86.2
 20
4.826000000000004
 30
0.0
  0
POINT
  5
133
330
129
100
AcDbEntity
  8
Defpoints
 62
     0
100
AcDbPoint
 10
9.999999999999876
 20
-6.343096718650093
 30
0.0
  0
POINT
  5
134
330
129
100
AcDbEntity
  8
Defpoints
 62
     0
100
AcDbPoint
 10
9.999999999999876
 20
22.45299453033794
 30
0.0
  0
ENDBLK
  5
12B
330
129
100
AcDbEntity
  8
0
100
AcDbBlockEnd
  0
BLOCK
  5
13E
330
13D
100
AcDbEntity
  8
0
100
AcDbBlockBegin
  2
_NONE
 70
     0
 10
0.0
 20
0.0
 30
0.0
  3
_NONE
  1
_NONE
  0
ENDBLK
  5
13F
330
13D
100
AcDbEntity
  8
0
100
AcDbBlockEnd
  0
BLOCK
  5
141
330
140
100
AcDbEntity
  8
0
100
AcDbBlockBegin
  2
_D_3
 70
     0
 10
0.0
 20
0.0
 30
0.0
  3
_D_3
  1
_D_3
  0
LINE
  5
143
330
140
100
AcDbEntity
  8
치수문자_일반주서
100
AcDbLine
 10
-64.5933676361172
 20
-12.02664086223941
 30
0.0
 11
-64.5933676361172
 21
-12.73757834780391
 31
0.0
  0
LINE
  5
144
330
140
100
AcDbEntity
  8
치수문자_일반주서
100
AcDbLine
 10
-64.5933676361172
 20
-12.73757834780391
 30
0.0
 11
-59.0371176450579
 21
-12.73757834780386
 31
0.0
  0
LINE
  5
145
330
140
100
AcDbEntity
  8
치수문자_일반주서
100
AcDbLine
 10
-59.0371176450579
 20
-12.73757834780386
 30
0.0
 11
-59.0371176450579
 21
-12.02664086223936
 31
0.0
  0
LINE
  5
146
330
140
100
AcDbEntity
  8
치수문자_일반주서
100
AcDbLine
 10
-64.59336763611728
 20
-1.197908000102147
 30
0.0
 11
-64.59336763611728
 21
-0.4869705145376466
 31
0.0
  0
LINE
  5
147
330
140
100
AcDbEntity
  8
치수문자_일반주서
100
AcDbLine
 10
-64.59336763611728
 20
-0.4869705145376466
 30
0.0
 11
-59.03711764505798
 21
-0.4869705145376075
 31
0.0
  0
LINE
  5
148
330
140
100
AcDbEntity
  8
치수문자_일반주서
100
AcDbLine
 10
-59.03711764505798
 20
-0.4869705145376075
 30
0.0
 11
-59.03711764505798
 21
-1.197908000102108
 31
0.0
  0
MTEXT
  5
149
330
140
100
AcDbEntity
  8
치수문자_일반주서
100
AcDbMText
 10
-63.54885455963681
 20
-11.13796896162803
 30
0.0
 40
3.5
 41
0.0
 71
     1
 72
     1
  1
0.00
  7
SLDTEXTSTYLE0
 11
-7.044195017643634E-15
 21
1.0
 31
0.0
 73
     1
 44
1.0
  0
MTEXT
  5
14A
330
140
100
AcDbEntity
  8
치수문자_일반주서
100
AcDbMText
 10
-58.31222300927633
 20
-10.5445488435345
 30
0.0
 40
3.5
 41
0.0
 71
     1
 72
     1
  1
%%c
  7
SLDTEXTSTYLE0
 11
-7.044195017643634E-15
 21
1.0
 31
0.0
 73
     1
 44
1.0
  0
MTEXT
  5
14B
330
140
100
AcDbEntity
  8
치수문자_일반주서
100
AcDbMText
 10
-58.31222300927637
 20
-5.26611144516042
 30
0.0
 40
3.5
 41
0.0
 71
     1
 72
     1
  1
0
  7
SLDTEXTSTYLE0
 11
-7.044195017643634E-15
 21
1.0
 31
0.0
 73
     1
 44
1.0
  0
ENDBLK
  5
142
330
140
100
AcDbEntity
  8
0
100
AcDbBlockEnd
  0
BLOCK
  5
14D
330
14C
100
AcDbEntity
  8
0
100
AcDbBlockBegin
  2
SW_DOWELSYMBOL_0
 70
     0
 10
0.0
 20
0.0
 30
0.0
  3
SW_DOWELSYMBOL_0
  1
SW_DOWELSYMBOL_0
  0
CIRCLE
  5
14F
330
14C
100
AcDbEntity
  8
외형선
 62
     0
100
AcDbCircle
 10
0.0
 20
0.0
 30
0.0
 40
3.000000000000006
  0
HATCH
  5
150
330
14C
100
AcDbEntity
  8
0
  6
Continuous
 62
     0
370
    30
100
AcDbHatch
 10
0.0
 20
0.0
 30
0.0
210
0.0
220
0.0
230
1.0
  2
SOLID
 70
     1
 71
     0
 91
        1
 92
        0
 93
        3
 72
     2
 10
0.0
 20
0.0
 40
3.000000000000006
 50
0.0
 51
90.0
 73
     1
 72
     1
 10
0.0
 20
3.000000000000006
 11
0.0
 21
0.0
 72
     1
 10
0.0
 20
0.0
 11
3.000000000000006
 21
0.0
 97
        0
 75
     0
 76
     1
 98
        1
 10
0.0
 20
0.0
  0
HATCH
  5
151
330
14C
100
AcDbEntity
  8
0
  6
Continuous
 62
     0
370
    30
100
AcDbHatch
 10
0.0
 20
0.0
 30
0.0
210
0.0
220
0.0
230
1.0
  2
SOLID
 70
     1
 71
     0
 91
        1
 92
        0
 93
        3
 72
     2
 10
0.0
 20
0.0
 40
3.000000000000006
 50
180.0
 51
270.0000000000008
 73
     1
 72
     1
 10
0.0
 20
-3.000000000000006
 11
0.0
 21
0.0
 72
     1
 10
0.0
 20
0.0
 11
-3.000000000000006
 21
0.0
 97
        0
 75
     0
 76
     1
 98
        1
 10
0.0
 20
0.0
  0
ENDBLK
  5
14E
330
14C
100
AcDbEntity
  8
0
100
AcDbBlockEnd
  0
BLOCK
  5
17D
330
17C
100
AcDbEntity
  8
0
100
AcDbBlockBegin
  2
*D8
 70
     1
 10
0.0
 20
0.0
 30
0.0
  3
*D8
  1
*D8
  0
LINE
  5
17F
330
17C
100
AcDbEntity
  8
치수문자_일반주서
 62
     0
370
    -2
100
AcDbLine
 10
-40.3625
 20
6.350000000000001
 30
0.0
 11
-48.49504773547347
 21
6.350000000000001
 31
0.0
  0
LINE
  5
180
330
17C
100
AcDbEntity
  8
치수문자_일반주서
 62
     0
370
    -2
100
AcDbLine
 10
-40.3625
 20
-6.349999999999999
 30
0.0
 11
-48.49504773547347
 21
-6.349999999999998
 31
0.0
  0
LINE
  5
181
330
17C
100
AcDbEntity
  8
치수문자_일반주서
 62
     0
370
    -2
100
AcDbLine
 10
-48.49504773547347
 20
3.048000000000002
 30
0.0
 11
-48.49504773547347
 21
-3.047999999999998
 31
0.0
  0
SOLID
  5
182
330
17C
100
AcDbEntity
  8
치수문자_일반주서
 62
     0
100
AcDbTrace
 10
-47.94471440214014
 20
3.048000000000002
 30
0.0
 11
-49.0453810688068
 21
3.048000000000002
 31
0.0
 12
-48.49504773547347
 22
6.350000000000001
 32
0.0
 13
-48.49504773547347
 23
6.350000000000001
 33
0.0
  0
SOLID
  5
183
330
17C
100
AcDbEntity
  8
치수문자_일반주서
 62
     0
100
AcDbTrace
 10
-49.0453810688068
 20
-3.047999999999998
 30
0.0
 11
-47.94471440214014
 21
-3.047999999999998
 31
0.0
 12
-48.49504773547347
 22
-6.349999999999998
 32
0.0
 13
-48.49504773547347
 23
-6.349999999999998
 33
0.0
  0
MTEXT
  5
184
330
17C
100
AcDbEntity
  8
치수문자_일반주서
 62
     0
100
AcDbMText
 10
-51.12004773547347
 20
0.0000000000000027
 30
0.0
 40
3.5
 41
0.0
 71
     5
 72
     1
  1
\A1;{%%C12.70 [1/2]}
  7
SLDTEXTSTYLE0
 11
0.0
 21
1.0
 31
0.0
 73
     1
 44
1.0
  0
POINT
  5
185
330
17C
100
AcDbEntity
  8
Defpoints
 62
     0
100
AcDbPoint
 10
-40.3
 20
6.350000000000001
 30
0.0
  0
POINT
  5
186
330
17C
100
AcDbEntity
  8
Defpoints
 62
     0
100
AcDbPoint
 10
-40.3
 20
-6.349999999999999
 30
0.0
  0
POINT
  5
187
330
17C
100
AcDbEntity
  8
Defpoints
 62
     0
100
AcDbPoint
 10
-48.49504773547347
 20
-6.349999999999998
 30
0.0
  0
ENDBLK
  5
17E
330
17C
100
AcDbEntity
  8
0
100
AcDbBlockEnd
  0
BLOCK
  5
192
330
191
100
AcDbEntity
  8
0
100
AcDbBlockBegin
  2
*D9
 70
     1
 10
0.0
 20
0.0
 30
0.0
  3
*D9
  1
*D9
  0
LINE
  5
194
330
191
100
AcDbEntity
  8
치수문자_일반주서
 62
     0
370
    -2
100
AcDbLine
 10
87.83633977253035
 20
8.044074711462915
 30
0.0
 11
110.4220818735878
 21
30.9622679811018
 31
0.0
  0
MTEXT
  5
195
330
191
100
AcDbEntity
  8
치수문자_일반주서
 62
     0
100
AcDbMText
 10
98.41841748856685
 20
22.52164759029049
 30
0.0
 40
3.5
 41
0.0
 71
     5
 72
     1
  1
\A1;R2.29 [R0.09]
  7
SLDTEXTSTYLE0
 11
0.7019219349553236
 21
0.7122538853727473
 31
0.0
 73
     1
 44
1.0
  0
LINE
  5
196
330
191
100
AcDbEntity
  8
치수문자_일반주서
 62
     0
370
    -2
100
AcDbLine
 10
83.914
 20
4.064000000000004
 30
0.0
 11
85.51859354330787
 21
5.692212381962105
 31
0.0
  0
SOLID
  5
197
330
191
100
AcDbEntity
  8
치수문자_일반주서
 62
     0
100
AcDbTrace
 10
87.44436271761354
 20
8.430365749666661
 30
0.0
 11
88.22831682744716
 21
7.657783673259169
 31
0.0
 12
85.51859354330787
 22
5.692212381962105
 32
0.0
 13
85.51859354330787
 23
5.692212381962105
 33
0.0
  0
POINT
  5
198
330
191
100
AcDbEntity
  8
Defpoints
 62
     0
100
AcDbPoint
 10
85.51859354330787
 20
5.692212381962105
 30
0.0
  0
POINT
  5
199
330
191
100
AcDbEntity
  8
Defpoints
 62
     0
100
AcDbPoint
 10
83.914
 20
4.064000000000004
 30
0.0
  0
ENDBLK
  5
193
330
191
100
AcDbEntity
  8
0
100
AcDbBlockEnd
  0
ENDSEC
  0
SECTION
  2
ENTITIES
  0
LINE
  5
95
102
{ACAD_REACTORS
102
}
330
1F
100
AcDbEntity
  8
0
  6
Continuous
 62
     4
370
    15
100
AcDbLine
 10
8.219635760953704
 20
6.350000000000003
 30
0.0
 11
-40.3
 21
6.350000000000001
 31
0.0
  0
LINE
  5
96
330
1F
100
AcDbEntity
  8
0
  6
Continuous
 62
     4
370
    15
100
AcDbLine
 10
-40.3
 20
-6.349999999999999
 30
0.0
 11
8.219635760953693
 21
-6.349999999999996
 31
0.0
  0
LINE
  5
97
330
1F
100
AcDbEntity
  8
0
  6
Continuous
 62
     4
370
    15
100
AcDbLine
 10
-40.3
 20
6.349999999999998
 30
0.0
 11
-40.8
 21
5.849999999999999
 31
0.0
  0
LINE
  5
98
330
1F
100
AcDbEntity
  8
0
  6
Continuous
 62
     4
370
    15
100
AcDbLine
 10
-40.8
 20
-5.85
 30
0.0
 11
-40.3
 21
-6.349999999999996
 31
0.0
  0
LINE
  5
99
330
1F
100
AcDbEntity
  8
0
  6
Continuous
 62
     1
370
    15
100
AcDbLine
 10
83.45193032637363
 20
-6.349999999999996
 30
0.0
 11
83.914
 21
-6.349999999999996
 31
0.0
  0
LINE
  5
9A
330
1F
100
AcDbEntity
  8
0
  6
Continuous
 62
     1
370
    15
100
AcDbLine
 10
43.5527420079116
 20
-6.349999999999996
 30
0.0
 11
45.72595344422326
 21
-6.349999999999996
 31
0.0
  0
LINE
  5
9B
330
1F
100
AcDbEntity
  8
0
  6
Continuous
 62
     1
370
    15
100
AcDbLine
 10
25.7756482743162
 20
6.350000000000003
 30
0.0
 11
23.60524919517212
 21
6.350000000000003
 31
0.0
  0
LINE
  5
9C
330
1F
100
AcDbEntity
  8
0
  6
Continuous
 62
     1
370
    15
100
AcDbLine
 10
65.673449715141
 20
6.350000000000003
 30
0.0
 11
63.50303900632755
 21
6.350000000000003
 31
0.0
  0
LINE
  5
9D
330
1F
100
AcDbEntity
  8
0
  6
Continuous
 62
     1
370
    15
100
AcDbLine
 10
63.50303900632754
 20
-6.349999999999996
 30
0.0
 11
65.67344971514096
 21
-6.349999999999996
 31
0.0
  0
LINE
  5
9E
330
1F
100
AcDbEntity
  8
0
  6
Continuous
 62
     1
370
    15
100
AcDbLine
 10
23.60524919517215
 20
-6.349999999999996
 30
0.0
 11
25.77564827431618
 21
-6.349999999999996
 31
0.0
  0
LINE
  5
9F
330
1F
100
AcDbEntity
  8
0
  6
Continuous
 62
     1
370
    15
100
AcDbLine
 10
45.72595344422323
 20
6.350000000000003
 30
0.0
 11
43.55274200791163
 21
6.350000000000003
 31
0.0
  0
LINE
  5
A0
330
1F
100
AcDbEntity
  8
0
  6
Continuous
 62
     1
370
    15
100
AcDbLine
 10
84.676
 20
6.350000000000003
 30
0.0
 11
83.45193032637366
 21
6.350000000000003
 31
0.0
  0
LINE
  5
A1
330
1F
100
AcDbEntity
  8
0
  6
Continuous
 62
     1
370
    15
100
AcDbLine
 10
50.20422084932591
 20
-6.349999999999996
 30
0.0
 11
52.373755880107
 21
-6.349999999999996
 31
0.0
  0
LINE
  5
A2
330
1F
100
AcDbEntity
  8
0
  6
Continuous
 62
     1
370
    15
100
AcDbLine
 10
10.30397010696872
 20
-6.349999999999996
 30
0.0
 11
12.47740897489688
 21
-6.349999999999996
 31
0.0
  0
LINE
  5
A3
330
1F
100
AcDbEntity
  8
0
  6
Continuous
 62
     1
370
    15
100
AcDbLine
 10
32.42608524308988
 20
6.350000000000003
 30
0.0
 11
30.25349386768065
 21
6.350000000000003
 31
0.0
  0
LINE
  5
A4
330
1F
100
AcDbEntity
  8
0
  6
Continuous
 62
     1
370
    15
100
AcDbLine
 10
72.32405225333366
 20
6.350000000000003
 30
0.0
 11
70.15280298367716
 21
6.350000000000003
 31
0.0
  0
LINE
  5
A5
330
1F
100
AcDbEntity
  8
0
  6
Continuous
 62
     1
370
    15
100
AcDbLine
 10
56.85261784486464
 20
-6.349999999999996
 30
0.0
 11
59.02519658829156
 21
-6.349999999999996
 31
0.0
  0
LINE
  5
A6
330
1F
100
AcDbEntity
  8
0
  6
Continuous
 62
     1
370
    15
100
AcDbLine
 10
16.95463552275995
 20
-6.349999999999996
 30
0.0
 11
19.12589789132731
 21
-6.349999999999996
 31
0.0
  0
LINE
  5
A7
330
1F
100
AcDbEntity
  8
0
  6
Continuous
 62
     1
370
    15
100
AcDbLine
 10
39.07446999662086
 20
6.350000000000003
 30
0.0
 11
36.90493941116448
 21
6.350000000000003
 31
0.0
  0
LINE
  5
A8
330
1F
100
AcDbEntity
  8
0
  6
Continuous
 62
     1
370
    15
100
AcDbLine
 10
78.97346716069995
 20
6.350000000000003
 30
0.0
 11
76.80176720127517
 21
6.350000000000003
 31
0.0
  0
LINE
  5
A9
330
1F
100
AcDbEntity
  8
0
  6
Continuous
 62
     1
370
    15
100
AcDbLine
 10
70.15280298367712
 20
-6.349999999999996
 30
0.0
 11
72.32405225333363
 21
-6.349999999999996
 31
0.0
  0
LINE
  5
AA
330
1F
100
AcDbEntity
  8
0
  6
Continuous
 62
     1
370
    15
100
AcDbLine
 10
30.25349386768058
 20
-6.349999999999996
 30
0.0
 11
32.42608524308982
 21
-6.349999999999996
 31
0.0
  0
LINE
  5
AB
330
1F
100
AcDbEntity
  8
0
  6
Continuous
 62
     1
370
    15
100
AcDbLine
 10
12.47740897489683
 20
6.350000000000003
 30
0.0
 11
10.30397010696867
 21
6.350000000000003
 31
0.0
  0
LINE
  5
AC
330
1F
100
AcDbEntity
  8
0
  6
Continuous
 62
     1
370
    15
100
AcDbLine
 10
52.37375588010695
 20
6.350000000000003
 30
0.0
 11
50.2042208493259
 21
6.350000000000003
 31
0.0
  0
LINE
  5
AD
330
1F
100
AcDbEntity
  8
0
  6
Continuous
 62
     1
370
    15
100
AcDbLine
 10
76.80176720127511
 20
-6.349999999999996
 30
0.0
 11
78.97346716069997
 21
-6.349999999999996
 31
0.0
  0
LINE
  5
AE
330
1F
100
AcDbEntity
  8
0
  6
Continuous
 62
     1
370
    15
100
AcDbLine
 10
36.90493941116441
 20
-6.349999999999996
 30
0.0
 11
39.07446999662087
 21
-6.349999999999996
 31
0.0
  0
LINE
  5
AF
330
1F
100
AcDbEntity
  8
0
  6
Continuous
 62
     1
370
    15
100
AcDbLine
 10
19.12589789132731
 20
6.350000000000003
 30
0.0
 11
16.95463552275989
 21
6.350000000000003
 31
0.0
  0
LINE
  5
B0
330
1F
100
AcDbEntity
  8
0
  6
Continuous
 62
     1
370
    15
100
AcDbLine
 10
59.02519658829158
 20
6.350000000000003
 30
0.0
 11
56.8526178448646
 21
6.350000000000003
 31
0.0
  0
SPLINE
  5
B3
330
1F
100
AcDbEntity
  8
0
  6
Continuous
 62
     4
370
    15
100
AcDbSpline
210
0.0
220
0.0
230
1.0
 70
     8
 71
     3
 72
    14
 73
    10
 74
     0
 42
0.000000001
 43
0.00000001
 40
0.0
 40
0.0
 40
0.0
 40
0.0
 40
0.2500000000000002
 40
0.2500000000000002
 40
0.5000000000000001
 40
0.5000000000000001
 40
0.75
 40
0.75
 40
1.0
 40
1.0
 40
1.0
 40
1.0
 10
8.39154940096255
 20
0.7572449540728468
 30
0.0
 10
8.302469766255719
 20
0.84571588733063
 30
0.0
 10
8.229210159587101
 20
0.9448397120481471
 30
0.0
 10
8.110429326546122
 20
1.161275163562844
 30
0.0
 10
8.066168964255544
 20
1.277437261139545
 30
0.0
 10
8.00503513881578
 20
1.513067899957101
 30
0.0
 10
7.987696125204858
 20
1.634290250986464
 30
0.0
 10
7.97031638934508
 20
1.87350620254894
 30
0.0
 10
7.970231973229032
 20
1.992526105972844
 30
0.0
 10
7.970231973229032
 20
2.110482767110165
 30
0.0
  0
SPLINE
  5
B4
330
1F
100
AcDbEntity
  8
0
  6
Continuous
 62
     4
370
    15
100
AcDbSpline
210
0.0
220
0.0
230
1.0
 70
     8
 71
     3
 72
    20
 73
    16
 74
     0
 42
0.000000001
 43
0.00000001
 40
0.0
 40
0.0
 40
0.0
 40
0.0
 40
0.1249999999999999
 40
0.1249999999999999
 40
0.2499999999999998
 40
0.2499999999999998
 40
0.3749999999999998
 40
0.3749999999999998
 40
0.4999999999999997
 40
0.4999999999999997
 40
0.7499999999999997
 40
0.7499999999999997
 40
0.8749999999999999
 40
0.8749999999999999
 40
1.0
 40
1.0
 40
1.0
 40
1.0
 10
7.970231973229033
 20
2.110482767110272
 30
0.0
 10
7.970231973229035
 20
2.238467133900352
 30
0.0
 10
7.970505373288127
 20
2.364730329787093
 30
0.0
 10
7.992718951738865
 20
2.612093384996527
 30
0.0
 10
8.014468849452971
 20
2.734201886426396
 30
0.0
 10
8.091913479242676
 20
2.96801764206629
 30
0.0
 10
8.146301868050891
 20
3.076946721584126
 30
0.0
 10
8.294478344012312
 20
3.277035325088669
 30
0.0
 10
8.384200743678997
 20
3.362887008996292
 30
0.0
 10
8.703048619144898
 20
3.578492288340838
 30
0.0
 10
8.973152892616525
 20
3.65549878547562
 30
0.0
 10
9.382237304537314
 20
3.653914458271616
 30
0.0
 10
9.517651645792515
 20
3.634288912367616
 30
0.0
 10
9.77427056421092
 20
3.557743293891829
 30
0.0
 10
9.893833204518204
 20
3.50132585063748
 30
0.0
 10
9.999999999999876
 20
3.427903607735909
 30
0.0
  0
SPLINE
  5
B5
330
1F
100
AcDbEntity
  8
0
  6
Continuous
 62
     1
370
    15
100
AcDbSpline
210
0.0
220
0.0
230
1.0
 70
    24
 71
     3
 72
     8
 73
     4
 74
     0
 42
0.000000001
 43
0.00000001
 40
0.0
 40
0.0
 40
0.0
 40
0.0
 40
1.0
 40
1.0
 40
1.0
 40
1.0
 10
9.999999999999995
 20
3.427903607736209
 30
0.0
 10
9.999999999999995
 20
3.293673670712044
 30
0.0
 10
9.999999999999995
 20
3.153276252020235
 30
0.0
 10
9.999999999999995
 20
3.005894935738382
 30
0.0
  0
SPLINE
  5
B6
330
1F
100
AcDbEntity
  8
0
  6
Continuous
 62
     4
370
    15
100
AcDbSpline
210
0.0
220
0.0
230
1.0
 70
     8
 71
     3
 72
    10
 73
     6
 74
     0
 42
0.000000001
 43
0.00000001
 40
0.0
 40
0.0
 40
0.0
 40
0.0
 40
0.5
 40
0.5
 40
1.0
 40
1.0
 40
1.0
 40
1.0
 10
9.999999999999993
 20
-0.8468334550154377
 30
0.0
 10
9.732342369587519
 20
-0.581296254984579
 30
0.0
 10
9.467001686422716
 20
-0.3142680851282595
 30
0.0
 10
8.929468610932183
 20
0.2223171012475385
 30
0.0
 10
8.659493642745032
 20
0.4911316363705256
 30
0.0
 10
8.391549400962548
 20
0.7572449540728468
 30
0.0
  0
SPLINE
  5
B7
330
1F
100
AcDbEntity
  8
0
  6
Continuous
 62
     4
370
    15
100
AcDbSpline
210
0.0
220
0.0
230
1.0
 70
    24
 71
     3
 72
    14
 73
    10
 74
     0
 42
0.000000001
 43
0.00000001
 40
0.0
 40
0.0
 40
0.0
 40
0.0
 40
0.25
 40
0.25
 40
0.5
 40
0.5
 40
0.75
 40
0.75
 40
1.0
 40
1.0
 40
1.0
 40
1.0
 10
9.999999999999993
 20
3.005894935738376
 30
0.0
 10
9.999999999999993
 20
2.768380246296021
 30
0.0
 10
9.999999999999993
 20
2.493739427923701
 30
0.0
 10
9.999999999999993
 20
1.872612287339149
 30
0.0
 10
9.999999999999993
 20
1.525345576007691
 30
0.0
 10
9.999999999999993
 20
0.7982459743389124
 30
0.0
 10
9.999999999999993
 20
0.4188056765690448
 30
0.0
 10
9.999999999999993
 20
-0.2832679163686537
 30
0.0
 10
9.999999999999993
 20
-0.6033862990065009
 30
0.0
 10
9.999999999999993
 20
-0.8468334550141836
 30
0.0
  0
LINE
  5
B8
102
{ACAD_REACTORS
102
}
330
1F
100
AcDbEntity
  8
0
  6
Continuous
 62
     4
370
    15
100
AcDbLine
 10
-40.3
 20
6.349999999999998
 30
0.0
 11
-40.3
 21
-6.349999999999999
 31
0.0
  0
SPLINE
  5
B9
330
1F
100
AcDbEntity
  8
0
  6
Continuous
 62
     4
370
    15
100
AcDbSpline
210
0.0
220
0.0
230
1.0
 70
     8
 71
     3
 72
    10
 73
     6
 74
     0
 42
0.000000001
 43
0.00000001
 40
0.0
 40
0.0
 40
0.0
 40
0.0
 40
0.5
 40
0.5
 40
1.0
 40
1.0
 40
1.0
 40
1.0
 10
9.999999999999993
 20
5.026723621565827
 30
0.0
 10
9.732342369587515
 20
5.190436257441108
 30
0.0
 10
9.467001686422718
 20
5.340300831520667
 30
0.0
 10
8.92946861093218
 20
5.611958024034077
 30
0.0
 10
8.659493642745016
 20
5.733265309477838
 30
0.0
 10
8.391549400962528
 20
5.838641713234058
 30
0.0
  0
SPLINE
  5
BA
330
1F
100
AcDbEntity
  8
0
  6
Continuous
 62
     4
370
    15
100
AcDbSpline
210
0.0
220
0.0
230
1.0
 70
     8
 71
     3
 72
    20
 73
    16
 74
     0
 42
0.000000001
 43
0.00000001
 40
0.0
 40
0.0
 40
0.0
 40
0.0
 40
0.1249999999999997
 40
0.1249999999999997
 40
0.2499999999999997
 40
0.2499999999999997
 40
0.3749999999999997
 40
0.3749999999999997
 40
0.4999999999999998
 40
0.4999999999999998
 40
0.7499999999999999
 40
0.7499999999999999
 40
0.875
 40
0.875
 40
1.0
 40
1.0
 40
1.0
 40
1.0
 10
7.970231973229033
 20
-4.131402219711066
 30
0.0
 10
7.970231973229033
 20
-4.028351713453836
 30
0.0
 10
7.970505373288127
 20
-3.92267814396365
 30
0.0
 10
7.992718951738865
 20
-3.707749817713525
 30
0.0
 10
8.014468849452973
 20
-3.597556031015668
 30
0.0
 10
8.091913479242677
 20
-3.378898467395249
 30
0.0
 10
8.146301868050891
 20
-3.273094700049157
 30
0.0
 10
8.29447834401231
 20
-3.07292242073154
 30
0.0
 10
8.384200743678994
 20
-2.983917594107967
 30
0.0
 10
8.70304861914489
 20
-2.756034213969083
 30
0.0
 10
8.97315289261652
 20
-2.668901886057381
 30
0.0
 10
9.38223730453731
 20
-2.67065960219708
 30
0.0
 10
9.517651645792512
 20
-2.692561779519631
 30
0.0
 10
9.774270564210918
 20
-2.776382379706925
 30
0.0
 10
9.893833204518206
 20
-2.837704852006557
 30
0.0
 10
9.999999999999874
 20
-2.915193110914202
 30
0.0
  0
SPLINE
  5
BB
330
1F
100
AcDbEntity
  8
0
  6
Continuous
 62
     4
370
    15
100
AcDbSpline
210
0.0
220
0.0
230
1.0
 70
     8
 71
     3
 72
    14
 73
    10
 74
     0
 42
0.000000001
 43
0.00000001
 40
0.0
 40
0.0
 40
0.0
 40
0.0
 40
0.25
 40
0.25
 40
0.5
 40
0.5
 40
0.75
 40
0.75
 40
1.0
 40
1.0
 40
1.0
 40
1.0
 10
8.391549400962537
 20
-5.081396759161236
 30
0.0
 10
8.302469766255708
 20
-5.027958829377895
 30
0.0
 10
8.229210159587094
 20
-4.966455499348778
 30
0.0
 10
8.110429326546118
 20
-4.826717288046216
 30
0.0
 10
8.06616896425554
 20
-4.7491314941634
 30
0.0
 10
8.005035138815778
 20
-4.585355470562425
 30
0.0
 10
7.987696125204854
 20
-4.497957153057985
 30
0.0
 10
7.97031638934508
 20
-4.318812670511704
 30
0.0
 10
7.970231973229033
 20
-4.226378613714799
 30
0.0
 10
7.970231973229035
 20
-4.13140221971075
 30
0.0
  0
SPLINE
  5
BC
330
1F
100
AcDbEntity
  8
0
  6
Continuous
 62
     4
370
    15
100
AcDbSpline
210
0.0
220
0.0
230
1.0
 70
     8
 71
     3
 72
    10
 73
     6
 74
     0
 42
0.000000001
 43
0.00000001
 40
0.0
 40
0.0
 40
0.0
 40
0.0
 40
0.5
 40
0.5
 40
1.0
 40
1.0
 40
1.0
 40
1.0
 10
9.999999999999993
 20
-5.873557076581313
 30
0.0
 10
9.732342369587517
 20
-5.771732512425733
 30
0.0
 10
9.467001686422718
 20
-5.654568916648972
 30
0.0
 10
8.929468610932181
 20
-5.389640922786575
 30
0.0
 10
8.659493642745025
 20
-5.242133673107341
 30
0.0
 10
8.391549400962539
 20
-5.081396759161236
 30
0.0
  0
SPLINE
  5
BD
330
1F
100
AcDbEntity
  8
0
  6
Continuous
 62
     4
370
    15
100
AcDbSpline
210
0.0
220
0.0
230
1.0
 70
     8
 71
     3
 72
    13
 73
     9
 74
     0
 42
0.000000001
 43
0.00000001
 40
0.0
 40
0.0
 40
0.0
 40
0.0
 40
0.0018472843973714
 40
0.2270046966191441
 40
0.4330128925504578
 40
0.6308809038366375
 40
0.8276994160126748
 40
1.0
 40
1.0
 40
1.0
 40
1.0
 10
8.219635760953688
 20
-6.349887450314815
 30
0.0
 10
8.22013186110081
 20
-6.349924923199889
 30
0.0
 10
8.281095437445968
 20
-6.354529802080186
 30
0.0
 10
8.516714512064715
 20
-6.340106190700871
 30
0.0
 10
8.896069727204601
 20
-6.327465423778758
 30
0.0
 10
9.310171221073144
 20
-6.322355021084701
 30
0.0
 10
9.69551898819784
 20
-6.330970363029089
 30
0.0
 10
9.903102421153202
 20
-6.339237645491623
 30
0.0
 10
9.999999999999876
 20
-6.343096718650094
 30
0.0
  0
SPLINE
  5
BE
330
1F
100
AcDbEntity
  8
0
  6
Continuous
 62
     4
370
    15
100
AcDbSpline
210
0.0
220
0.0
230
1.0
 70
     8
 71
     3
 72
    20
 73
    16
 74
     0
 42
0.000000001
 43
0.00000001
 40
0.0
 40
0.0
 40
0.0
 40
0.0
 40
0.125
 40
0.125
 40
0.2500000000000001
 40
0.2500000000000001
 40
0.3750000000000001
 40
0.3750000000000001
 40
0.5000000000000001
 40
0.5000000000000001
 40
0.75
 40
0.75
 40
0.875
 40
0.875
 40
1.0
 40
1.0
 40
1.0
 40
1.0
 10
7.970231973229033
 20
6.241884986821315
 30
0.0
 10
7.970231973229033
 20
6.266818847354167
 30
0.0
 10
7.970505373288127
 20
6.287408473750724
 30
0.0
 10
7.992718951738865
 20
6.319843202710034
 30
0.0
 10
8.014468849452973
 20
6.331757917442046
 30
0.0
 10
8.091913479242676
 20
6.346916109461525
 30
0.0
 10
8.146301868050891
 20
6.35004142163327
 30
0.0
 10
8.29447834401231
 20
6.349957745820196
 30
0.0
 10
8.384200743678994
 20
6.346804603104247
 30
0.0
 10
8.703048619144893
 20
6.334526502309911
 30
0.0
 10
8.97315289261652
 20
6.324400671532996
 30
0.0
 10
9.382237304537309
 20
6.324574060468688
 30
0.0
 10
9.51765164579251
 20
6.326850691887245
 30
0.0
 10
9.774270564210916
 20
6.334125673598751
 30
0.0
 10
9.893833204518204
 20
6.339030702644036
 30
0.0
 10
9.999999999999874
 20
6.343096718650102
 30
0.0
  0
SPLINE
  5
BF
330
1F
100
AcDbEntity
  8
0
  6
Continuous
 62
     4
370
    15
100
AcDbSpline
210
0.0
220
0.0
230
1.0
 70
     8
 71
     3
 72
    14
 73
    10
 74
     0
 42
0.000000001
 43
0.00000001
 40
0.0
 40
0.0
 40
0.0
 40
0.0
 40
0.25
 40
0.25
 40
0.5
 40
0.5
 40
0.75
 40
0.75
 40
1.0
 40
1.0
 40
1.0
 40
1.0
 10
8.391549400962544
 20
5.838641713234014
 30
0.0
 10
8.302469766255717
 20
5.873674716708458
 30
0.0
 10
8.22921015958709
 20
5.911295211396906
 30
0.0
 10
8.110429326546116
 20
5.987992451609038
 30
0.0
 10
8.066168964255544
 20
6.026568755302924
 30
0.0
 10
8.005035138815783
 20
6.098423370519506
 30
0.0
 10
7.987696125204851
 20
6.132247404044428
 30
0.0
 10
7.970316389345077
 20
6.192318873060621
 30
0.0
 10
7.970231973229033
 20
6.218904719687623
 30
0.0
 10
7.970231973229033
 20
6.241884986820892
 30
0.0
  0
LINE
  5
C0
330
1F
100
AcDbEntity
  8
0
  6
Continuous
 62
     1
370
    15
100
AcDbLine
 10
9.999999999999991
 20
-5.873557076579066
 30
0.0
 11
9.999999999999996
 21
-6.343096718650079
 31
0.0
  0
LINE
  5
C1
330
1F
100
AcDbEntity
  8
0
  6
Continuous
 62
     4
370
    15
100
AcDbLine
 10
9.999999999999991
 20
-0.8468334550141869
 30
0.0
 11
9.999999999999996
 21
-2.915193110913942
 31
0.0
  0
LINE
  5
C2
330
1F
100
AcDbEntity
  8
0
  6
Continuous
 62
     4
370
    15
100
AcDbLine
 10
9.999999999999991
 20
5.026723621564832
 30
0.0
 11
9.999999999999995
 21
3.427903607736153
 31
0.0
  0
LINE
  5
C3
330
1F
100
AcDbEntity
  8
0
  6
Continuous
 62
     4
370
    15
100
AcDbLine
 10
-40.8
 20
5.849999999999999
 30
0.0
 11
-40.8
 21
-5.85
 31
0.0
  0
SPLINE
  5
C4
330
1F
100
AcDbEntity
  8
0
  6
Continuous
 62
     4
370
    15
100
AcDbSpline
210
0.0
220
0.0
230
1.0
 70
    24
 71
     3
 72
    14
 73
    10
 74
     0
 42
0.000000001
 43
0.00000001
 40
0.0
 40
0.0
 40
0.0
 40
0.0
 40
0.0642747462475976
 40
0.1994159617244858
 40
0.3345571772013745
 40
0.469698392678263
 40
0.6048396081551514
 40
0.7399808236320395
 40
1.0
 40
1.0
 40
1.0
 40
1.0
 10
9.999999999999991
 20
-3.021552985653894
 30
0.0
 10
9.999999999999991
 20
-3.040830590383858
 30
0.0
 10
9.999999999999991
 20
-3.100640427238934
 30
0.0
 10
9.999999999999991
 20
-3.292549067143674
 30
0.0
 10
9.999999999999991
 20
-3.58816566556989
 30
0.0
 10
9.999999999999991
 20
-3.957816494220495
 30
0.0
 10
9.999999999999991
 20
-4.388001629209458
 30
0.0
 10
9.99999999999999
 20
-5.011458993051699
 30
0.0
 10
9.999999999999991
 20
-5.531418761370841
 30
0.0
 10
9.999999999999991
 20
-5.873557076579066
 30
0.0
  0
SPLINE
  5
C5
330
1F
100
AcDbEntity
  8
0
  6
Continuous
 62
     1
370
    15
100
AcDbSpline
210
0.0
220
0.0
230
1.0
 70
    24
 71
     3
 72
    14
 73
    10
 74
     0
 42
0.000000001
 43
0.00000001
 40
0.0
 40
0.0
 40
0.0
 40
0.0
 40
0.0390110674834968
 40
0.2222468214779821
 40
0.4054825754724676
 40
0.5887183294669536
 40
0.7719540834614397
 40
0.9551898374559251
 40
1.0
 40
1.0
 40
1.0
 40
1.0
 10
9.999999999999991
 20
5.940481310849309
 30
0.0
 10
9.999999999999991
 20
5.910639625538153
 30
0.0
 10
9.99999999999999
 20
5.740630955286918
 30
0.0
 10
9.999999999999991
 20
5.458496366587115
 30
0.0
 10
9.99999999999999
 20
5.142661972272694
 30
0.0
 10
9.999999999999991
 20
4.90431656091351
 30
0.0
 10
9.999999999999991
 20
4.755735745181071
 30
0.0
 10
9.99999999999999
 20
4.691937419877257
 30
0.0
 10
9.999999999999991
 20
4.705646700625535
 30
0.0
 10
9.999999999999991
 20
4.708340522589186
 30
0.0
  0
SPLINE
  5
C6
330
1F
100
AcDbEntity
  8
0
  6
Continuous
 62
     1
370
    15
100
AcDbSpline
210
0.0
220
0.0
230
1.0
 70
    24
 71
     3
 72
     8
 73
     4
 74
     0
 42
0.000000001
 43
0.00000001
 40
0.0
 40
0.0
 40
0.0
 40
0.0
 40
1.0
 40
1.0
 40
1.0
 40
1.0
 10
9.999999999999995
 20
6.343096718650194
 30
0.0
 10
9.999999999999995
 20
6.201474315943424
 30
0.0
 10
9.999999999999995
 20
6.066955725985779
 30
0.0
 10
9.999999999999995
 20
5.94048131084931
 30
0.0
  0
SPLINE
  5
C7
330
1F
100
AcDbEntity
  8
0
  6
Continuous
 62
     1
370
    15
100
AcDbSpline
210
0.0
220
0.0
230
1.0
 70
     8
 71
     3
 72
    26
 73
    22
 74
     0
 42
0.000000001
 43
0.00000001
 40
0.0
 40
0.0
 40
0.0
 40
0.0
 40
0.0172370487674003
 40
0.072321588159894
 40
0.127363355976038
 40
0.1824579603705712
 40
0.2376211536834255
 40
0.2926879273142786
 40
0.3477331863867909
 40
0.4028524682391363
 40
0.4579994789420979
 40
0.5130531984410981
 40
0.5681066820359961
 40
0.6232531859049064
 40
0.6783730677188572
 40
0.7334184578399017
 40
0.7884848909483603
 40
0.8436478672406771
 40
0.8987429680271641
 40
0.9537847619043829
 40
1.0
 40
1.0
 40
1.0
 40
1.0
 10
12.47740897489684
 20
6.318531899998864
 30
0.0
 10
12.60497410905734
 20
6.328014861411116
 30
0.0
 10
13.1401999021041
 20
6.367802579079477
 30
0.0
 10
14.08184936389084
 20
6.173577411029342
 30
0.0
 10
15.30298214691626
 20
5.769782120904755
 30
0.0
 10
16.52531424118943
 20
5.132291211406415
 30
0.0
 10
17.74929939609739
 20
4.311579032199122
 30
0.0
 10
18.97098840291445
 20
3.32906746283304
 30
0.0
 10
20.19219584543077
 20
2.22399241594947
 30
0.0
 10
21.41511773452716
 20
1.037141369093911
 30
0.0
 10
22.63870848631767
 20
-0.1874414743531426
 30
0.0
 10
23.86010884121467
 20
-1.406309202084643
 30
0.0
 10
25.08150394926962
 20
-2.573166360858292
 30
0.0
 10
26.30508237489761
 20
-3.643912239408124
 30
0.0
 10
27.52801883449897
 20
-4.580538228945919
 30
0.0
 10
28.74922867060318
 20
-5.348428578203157
 30
0.0
 10
29.97091235748354
 20
-5.918209659619167
 30
0.0
 10
31.19488348613308
 20
-6.270538568689775
 30
0.0
 10
32.41725984735795
 20
-6.385507450338201
 30
0.0
 10
33.57272949388624
 20
-6.292576906185355
 30
0.0
 10
34.32158874954372
 20
-6.053475900537202
 30
0.0
 10
34.66337941954482
 20
-5.944346591790573
 30
0.0
  0
SPLINE
  5
C8
330
1F
100
AcDbEntity
  8
0
  6
Continuous
 62
     1
370
    15
100
AcDbSpline
210
0.0
220
0.0
230
1.0
 70
     8
 71
     3
 72
    26
 73
    22
 74
     0
 42
0.000000001
 43
0.00000001
 40
0.0
 40
0.0
 40
0.0
 40
0.0
 40
0.0370296279200898
 40
0.0921894006993126
 40
0.1472672535580532
 40
0.2023024968492601
 40
0.2573907272089029
 40
0.3125473015400654
 40
0.3676074254993993
 40
0.4226461946244546
 40
0.4777591340333943
 40
0.5328994310812477
 40
0.5879465373260456
 40
0.642993564945474
 40
0.6981336930686923
 40
0.7532468324411011
 40
0.8082856452438169
 40
0.8633456557091562
 40
0.9185021577087237
 40
0.9735905535127152
 40
1.0
 40
1.0
 40
1.0
 40
1.0
 10
52.37375588010695
 20
6.324122137484239
 30
0.0
 10
52.64753212656662
 20
6.324091909486835
 30
0.0
 10
53.32912871568957
 20
6.324016653506107
 30
0.0
 10
54.41970967837161
 20
6.055593218032026
 30
0.0
 10
55.64177569503784
 20
5.563965156899922
 30
0.0
 10
56.86291039470348
 20
4.857686639000506
 30
0.0
 10
58.08524592853232
 20
3.974325890167797
 30
0.0
 10
59.30922945929296
 20
2.944582778862724
 30
0.0
 10
60.53091587428388
 20
1.804930933891683
 30
0.0
 10
61.75212432606016
 20
0.5986440846976455
 30
0.0
 10
62.97505100717419
 20
-0.6292141040545595
 30
0.0
 10
64.19863768277409
 20
-1.833329640181642
 30
0.0
 10
65.42003627973894
 20
-2.970876606471056
 30
0.0
 10
66.64143313176848
 20
-3.998578866989252
 30
0.0
 10
67.86501568659261
 20
-4.877613473003466
 30
0.0
 10
69.08794726871776
 20
-5.577165021583998
 30
0.0
 10
70.3091563539131
 20
-6.070069450251707
 30
0.0
 10
71.53084160966567
 20
-6.341779922490254
 30
0.0
 10
72.75481817011868
 20
-6.367211383457925
 30
0.0
 10
73.76546976115645
 20
-6.230629086086955
 30
0.0
 10
74.3679410983959
 20
-6.004876303477715
 30
0.0
 10
74.56317245782358
 20
-5.931720918450883
 30
0.0
  0
SPLINE
  5
C9
330
1F
100
AcDbEntity
  8
0
  6
Continuous
 62
     1
370
    15
100
AcDbSpline
210
0.0
220
0.0
230
1.0
 70
     8
 71
     3
 72
    26
 73
    22
 74
     0
 42
0.000000001
 43
0.00000001
 40
0.0
 40
0.0
 40
0.0
 40
0.0
 40
0.0264744789762299
 40
0.0815625615983991
 40
0.13671922501974
 40
0.1917794801726697
 40
0.2468182233140244
 40
0.3019309804728346
 40
0.3570714631998843
 40
0.4121186657662317
 40
0.467165632456402
 40
0.5223056084093963
 40
0.5774189654587919
 40
0.6324578396331662
 40
0.6875177543040103
 40
0.7426742007305037
 40
0.7977627796858663
 40
0.8527980580421167
 40
0.9078756321078447
 40
0.9630354703487902
 40
1.0
 40
1.0
 40
1.0
 40
1.0
 10
14.7155309991611
 20
5.931715824129754
 30
0.0
 10
14.91124313973421
 20
6.005017902277665
 30
0.0
 10
15.51419300459771
 20
6.230846908000403
 30
0.0
 10
16.52531802631964
 20
6.367324840691459
 30
0.0
 10
17.74929838330263
 20
6.341594828129655
 30
0.0
 10
18.97098867397331
 20
6.069616588226996
 30
0.0
 10
20.1921957726589
 20
5.576455749480394
 30
0.0
 10
21.41511775422167
 20
4.876670285666478
 30
0.0
 10
22.63870848040662
 20
3.997445064758359
 30
0.0
 10
23.86010884519107
 20
2.969588516867164
 30
0.0
 10
25.0815039392616
 20
1.831937301588672
 30
0.0
 10
26.30508241100912
 20
0.6277610265781072
 30
0.0
 10
27.52801870023374
 20
-0.6000904783387506
 30
0.0
 10
28.74922917092785
 20
-1.806326284367193
 30
0.0
 10
29.97091048800664
 20
-2.945874397713128
 30
0.0
 10
31.19489047302581
 20
-3.975468004598665
 30
0.0
 10
32.41723381981946
 20
-4.858629732334314
 30
0.0
 10
33.63836896336692
 20
-5.564683812329524
 30
0.0
 10
34.86042792447604
 20
-6.056041749634874
 30
0.0
 10
35.95052631120175
 20
-6.324155318708592
 30
0.0
 10
36.63164378307818
 20
-6.32409732035831
 30
0.0
 10
36.90493941116441
 20
-6.324074048755064
 30
0.0
  0
SPLINE
  5
CA
330
1F
100
AcDbEntity
  8
0
  6
Continuous
 62
     1
370
    15
100
AcDbSpline
210
0.0
220
0.0
230
1.0
 70
     8
 71
     3
 72
    26
 73
    22
 74
     0
 42
0.000000001
 43
0.00000001
 40
0.0
 40
0.0
 40
0.0
 40
0.0
 40
0.0462797220650044
 40
0.1013203227405582
 40
0.1564139156425533
 40
0.2115758591689847
 40
0.2666413429346645
 40
0.3216854697872871
 40
0.3768037741438721
 40
0.4319494388024891
 40
0.4870019035864281
 40
0.5420542897373443
 40
0.5971997854548822
 40
0.6523182897944009
 40
0.7073624603289359
 40
0.762427830589573
 40
0.8175897017773691
 40
0.8726834601398176
 40
0.9277240695022109
 40
0.9828071356301105
 40
1.0
 40
1.0
 40
1.0
 40
1.0
 10
54.61531142908274
 20
5.944435232636748
 30
0.0
 10
54.95758740983354
 20
6.053653774446999
 30
0.0
 10
55.70693315541299
 20
6.292766228275577
 30
0.0
 10
56.86288446604359
 20
6.385514837275953
 30
0.0
 10
58.08525288893196
 20
6.270254733752013
 30
0.0
 10
59.30922759689427
 20
5.917661764807348
 30
0.0
 10
60.5309163727125
 20
5.34763239063674
 30
0.0
 10
61.75212419230109
 20
4.579525373178207
 30
0.0
 10
62.97505104316448
 20
3.64271271068798
 30
0.0
 10
64.19863767274583
 20
2.571835938873995
 30
0.0
 10
65.4200362839168
 20
1.404889929585191
 30
0.0
 10
66.64143312507105
 20
0.1859888771613949
 30
0.0
 10
67.86501570923608
 20
-1.038582950834001
 30
0.0
 10
69.08794718494974
 20
-2.225351209467441
 30
0.0
 10
70.30915666595371
 20
-3.330320462403062
 30
0.0
 10
71.53084044374444
 20
-4.312610199676674
 30
0.0
 10
72.75482252755624
 20
-5.133320087205286
 30
0.0
 10
73.97716078207885
 20
-5.769809706117086
 30
0.0
 10
75.19830010948506
 20
-6.17617223042455
 30
0.0
 10
76.13960182173572
 20
-6.361974857050471
 30
0.0
 10
76.67452149982473
 20
-6.331908024037396
 30
0.0
 10
76.80176720127511
 20
-6.324755781534733
 30
0.0
  0
SPLINE
  5
CB
330
1F
100
AcDbEntity
  8
0
  6
Continuous
 62
     1
370
    15
100
AcDbSpline
210
0.0
220
0.0
230
1.0
 70
     8
 71
     3
 72
    30
 73
    26
 74
     0
 42
0.000000001
 43
0.00000001
 40
0.2438562734769376
 40
0.2438562734769376
 40
0.2438562734769376
 40
0.2438562734769376
 40
0.2500000000000075
 40
0.2500000000000075
 40
0.3750000000000094
 40
0.3750000000000094
 40
0.5000000000000113
 40
0.5000000000000113
 40
0.6250000000000132
 40
0.6250000000000132
 40
0.6875000000000141
 40
0.6875000000000141
 40
0.7187500000000139
 40
0.7187500000000139
 40
0.7500000000000135
 40
0.7500000000000135
 40
0.7812500000000133
 40
0.7812500000000133
 40
0.8125000000000131
 40
0.8125000000000131
 40
0.8750000000000088
 40
0.8750000000000088
 40
0.9375000000000044
 40
0.9375000000000044
 40
1.0
 40
1.0
 40
1.0
 40
1.0
 10
85.74374547849094
 20
5.434338455981638
 30
0.0
 10
85.75052547972636
 20
5.423689788884621
 30
0.0
 10
85.75722822976329
 20
5.412967024835521
 30
0.0
 10
85.89860133830534
 20
5.182564453599499
 30
0.0
 10
85.99910231300194
 20
4.934295458437302
 30
0.0
 10
86.12910091477127
 20
4.421483217595756
 30
0.0
 10
86.15778025641985
 20
4.163633123169687
 30
0.0
 10
86.18284803861245
 20
3.686518555195022
 30
0.0
 10
86.18361323309928
 20
3.469383049625816
 30
0.0
 10
86.15882762834983
 20
3.206563732015648
 30
0.0
 10
86.14582876699596
 20
3.130279918444246
 30
0.0
 10
86.10470714959982
 20
3.044005133758886
 30
0.0
 10
86.08753588563417
 20
3.020790865233248
 30
0.0
 10
86.04177683871647
 20
2.989471420455022
 30
0.0
 10
86.01312099446307
 20
2.981755851286473
 30
0.0
 10
85.94189939681345
 20
2.987543771491378
 30
0.0
 10
85.89901409387606
 20
3.001347096644519
 30
0.0
 10
85.80287917931688
 20
3.048635787592151
 30
0.0
 10
85.74908708964698
 20
3.082259065833123
 30
0.0
 10
85.58196348512243
 20
3.199573434845285
 30
0.0
 10
85.46358083365386
 20
3.297733275890406
 30
0.0
 10
85.23204175801514
 20
3.49338646568428
 30
0.0
 10
85.11784051427433
 20
3.592159841871897
 30
0.0
 10
84.89277153016202
 20
3.782098935098944
 30
0.0
 10
84.78359382833793
 20
3.872043776693429
 30
0.0
 10
84.676
 20
3.956461368793491
 30
0.0
  0
SPLINE
  5
CC
330
1F
100
AcDbEntity
  8
0
  6
Continuous
 62
     1
370
    15
100
AcDbSpline
210
0.0
220
0.0
230
1.0
 70
     8
 71
     3
 72
    16
 73
    12
 74
     0
 42
0.000000001
 43
0.00000001
 40
0.0
 40
0.0
 40
0.0
 40
0.0
 40
0.1257581250121268
 40
0.2515419981859305
 40
0.3590887555120239
 40
0.4665520058433621
 40
0.5741184140250996
 40
0.6818187348406777
 40
0.7893308063896552
 40
0.896800873031079
 40
1.0
 40
1.0
 40
1.0
 40
1.0
 10
9.999999999999497
 20
-0.8468334550149461
 30
0.0
 10
10.47657131127358
 20
-1.314827158838116
 30
0.0
 10
11.42981150871142
 20
-2.250910385164552
 30
0.0
 10
12.79120348007328
 20
-3.467959335336231
 30
0.0
 10
14.08187771855909
 20
-4.476794595909325
 30
0.0
 10
15.30297439167847
 20
-5.266435660102941
 30
0.0
 10
16.52531689235269
 20
-5.861125779502723
 30
0.0
 10
17.74929656036034
 20
-6.24019423699785
 30
0.0
 10
18.97099707860693
 20
-6.384513192397699
 30
0.0
 10
20.17544955290066
 20
-6.311237376354595
 30
0.0
 10
20.97376213380965
 20
-6.072060430944955
 30
0.0
 10
21.36482624710613
 20
-5.954896399819352
 30
0.0
  0
SPLINE
  5
CD
330
1F
100
AcDbEntity
  8
0
  6
Continuous
 62
     1
370
    15
100
AcDbSpline
210
0.0
220
0.0
230
1.0
 70
     8
 71
     3
 72
    26
 73
    22
 74
     0
 42
0.000000001
 43
0.00000001
 40
0.0
 40
0.0
 40
0.0
 40
0.0
 40
0.0304405297269892
 40
0.0855927004679734
 40
0.1406478113069433
 40
0.1956921250535849
 40
0.2508210992282029
 40
0.3059505072360831
 40
0.3609949433056658
 40
0.4160498619940117
 40
0.471201791432423
 40
0.52630410574866
 40
0.5813425962317059
 40
0.6364128385013612
 40
0.6915746526607631
 40
0.7466545438679499
 40
0.801691823930687
 40
0.8567820930228316
 40
0.9119407086158037
 40
0.9670028702674638
 40
1.0
 40
1.0
 40
1.0
 40
1.0
 10
39.07446999662088
 20
6.320928154373942
 30
0.0
 10
39.29960627598267
 20
6.325294900121191
 30
0.0
 10
39.9326446066791
 20
6.33757331853625
 30
0.0
 10
40.97401173200539
 20
6.099250372581364
 30
0.0
 10
42.19550532365925
 20
5.635305022684875
 30
0.0
 10
43.41680436597982
 20
4.951835786326193
 30
0.0
 10
44.64006533042417
 20
4.088996888734954
 30
0.0
 10
45.86334009267965
 20
3.074424896725788
 30
0.0
 10
47.08463198730047
 20
1.945731286124712
 30
0.0
 10
48.30615794822394
 20
0.7449440044615472
 30
0.0
 10
49.52997773140793
 20
-0.4819337715301872
 30
0.0
 10
50.75260128418103
 20
-1.691954385450319
 30
0.0
 10
51.97375639114131
 20
-2.839709137882939
 30
0.0
 10
53.19562668075043
 20
-3.882626115902269
 30
0.0
 10
54.41968784721136
 20
-4.780922825197995
 30
0.0
 10
55.6417812637547
 20
-5.503869143497922
 30
0.0
 10
56.86290991621546
 20
-6.022633703928016
 30
0.0
 10
58.08524226364502
 20
-6.32138195611082
 30
0.0
 10
59.30924460793555
 20
-6.376894190733473
 30
0.0
 10
60.3679121032506
 20
-6.252235725703335
 30
0.0
 10
61.01892590510218
 20
-6.019847475153068
 30
0.0
 10
61.26287048539236
 20
-5.932768132006088
 30
0.0
  0
SPLINE
  5
CE
330
1F
100
AcDbEntity
  8
0
  6
Continuous
 62
     1
370
    15
100
AcDbSpline
210
0.0
220
0.0
230
1.0
 70
     8
 71
     3
 72
    12
 73
     8
 74
     0
 42
0.000000001
 43
0.00000001
 40
0.0
 40
0.0
 40
0.0
 40
0.0
 40
0.1953567585083009
 40
0.4097239680717705
 40
0.6067247276618831
 40
0.8032658538054445
 40
1.0
 40
1.0
 40
1.0
 40
1.0
 10
78.97346716069995
 20
6.340624860583604
 30
0.0
 10
79.34465597714735
 20
6.325539782913263
 30
0.0
 10
80.12315453506767
 20
6.293901676666224
 30
0.0
 10
81.27667959180127
 20
5.967501034682884
 30
0.0
 10
82.43356307715325
 20
5.458947666425346
 30
0.0
 10
83.55429732709268
 20
4.797701683953025
 30
0.0
 10
84.3019767883242
 20
4.236966543709078
 30
0.0
 10
84.676
 20
3.956461368793494
 30
0.0
  0
SPLINE
  5
CF
330
1F
100
AcDbEntity
  8
0
  6
Continuous
 62
     1
370
    15
100
AcDbSpline
210
0.0
220
0.0
230
1.0
 70
     8
 71
     3
 72
    18
 73
    14
 74
     0
 42
0.000000001
 43
0.00000001
 40
0.0
 40
0.0
 40
0.0
 40
0.0
 40
0.1050492547485862
 40
0.2101200176517742
 40
0.2999568111523169
 40
0.3897238489407379
 40
0.4795770573468018
 40
0.5695421266953296
 40
0.6593499462028519
 40
0.7491226778444099
 40
0.8390161324557799
 40
0.9289548097567519
 40
1.0
 40
1.0
 40
1.0
 40
1.0
 10
9.999999999998675
 20
3.434877776312038
 30
0.0
 10
10.47657130994185
 20
3.01739834134673
 30
0.0
 10
11.42981150471758
 20
2.182353995205435
 30
0.0
 10
12.79120349508542
 20
0.8413150071402183
 30
0.0
 10
14.08187767130739
 20
-0.4529351517595825
 30
0.0
 10
15.30297456892672
 20
-1.664773525949623
 30
0.0
 10
16.52531622951636
 20
-2.814172646424195
 30
0.0
 10
17.7492990356939
 20
-3.85892137870117
 30
0.0
 10
18.97098786041529
 20
-4.761836698497686
 30
0.0
 10
20.19219837599624
 20
-5.490523323246426
 30
0.0
 10
21.41510813814996
 20
-6.008898690768124
 30
0.0
 10
22.55368871431194
 20
-6.309631614128918
 30
0.0
 10
23.28327092603904
 20
-6.324188856266861
 30
0.0
 10
23.60524919517215
 20
-6.330613239361169
 30
0.0
  0
SPLINE
  5
D0
330
1F
100
AcDbEntity
  8
0
  6
Continuous
 62
     1
370
    15
100
AcDbSpline
210
0.0
220
0.0
230
1.0
 70
     8
 71
     3
 72
    26
 73
    22
 74
     0
 42
0.000000001
 43
0.00000001
 40
0.0
 40
0.0
 40
0.0
 40
0.0
 40
0.0396619150158083
 40
0.0947084135640099
 40
0.1498395759005034
 40
0.2049711720874779
 40
0.2600177929634758
 40
0.31507489687431
 40
0.3702290153857302
 40
0.4253335168056672
 40
0.4803741918591386
 40
0.5354466199595004
 40
0.5906106235842516
 40
0.645692701005128
 40
0.7007321655902468
 40
0.7558246213079967
 40
0.810985426239361
 40
0.866049773400995
 40
0.921092764090399
 40
0.9762099307526709
 40
1.0
 40
1.0
 40
1.0
 40
1.0
 10
41.31586480028147
 20
5.937031764756431
 30
0.0
 10
41.60912293972549
 20
6.036228433820319
 30
0.0
 10
42.30939203012134
 20
6.273099476333784
 30
0.0
 10
43.4167754456528
 20
6.383018250479299
 30
0.0
 10
44.64007308509398
 20
6.297371756649361
 30
0.0
 10
45.86333801840969
 20
5.971510202297781
 30
0.0
 10
47.0846325427943
 20
5.42683498250725
 30
0.0
 10
48.30615779917999
 20
4.680882972570343
 30
0.0
 10
49.52997777092764
 20
3.763190300981084
 30
0.0
 10
50.75260127512868
 20
2.705793389632654
 30
0.0
 10
51.97375638790447
 20
1.548174618147312
 30
0.0
 10
53.19562670278295
 20
0.333172974285085
 30
0.0
 10
54.41968776221761
 20
-0.8925819217005069
 30
0.0
 10
55.64178158102164
 20
-2.086836199112602
 30
0.0
 10
56.86290873245296
 20
-3.203810500554276
 30
0.0
 10
58.08524668874133
 20
-4.202586099052881
 30
0.0
 10
59.30922808314693
 20
-5.044292880618617
 30
0.0
 10
60.53092060885983
 20
-5.704389702919258
 30
0.0
 10
61.75210675765035
 20
-6.1397072965376
 30
0.0
 10
62.74314010065154
 20
-6.350289290306154
 30
0.0
 10
63.32700666001254
 20
-6.3278904407141
 30
0.0
 10
63.50303900632755
 20
-6.321137318814532
 30
0.0
  0
SPLINE
  5
D1
330
1F
100
AcDbEntity
  8
0
  6
Continuous
 62
     1
370
    15
100
AcDbSpline
210
0.0
220
0.0
230
1.0
 70
     8
 71
     3
 72
    11
 73
     7
 74
     0
 42
0.000000001
 43
0.00000001
 40
0.0
 40
0.0
 40
0.0
 40
0.0
 40
0.0283203574983817
 40
0.3526120740801262
 40
0.6761471675925539
 40
0.7254305734165761
 40
0.7254305734165761
 40
0.7254305734165761
 40
0.7254305734165761
 10
81.21176815147699
 20
5.951098813223675
 30
0.0
 10
81.24447791769168
 20
5.965023630412927
 30
0.0
 10
81.65174179168393
 20
6.138399219706575
 30
0.0
 10
82.43362791429175
 20
6.285338466252228
 30
0.0
 10
83.23761593726314
 20
6.36352092458441
 30
0.0
 10
83.66794076342607
 20
6.345437453532853
 30
0.0
 10
83.72483115996286
 20
6.34215959712176
 30
0.0
  0
SPLINE
  5
D2
330
1F
100
AcDbEntity
  8
0
  6
Continuous
 62
     1
370
    15
100
AcDbSpline
210
0.0
220
0.0
230
1.0
 70
    24
 71
     3
 72
    16
 73
    12
 74
     0
 42
0.000000001
 43
0.00000001
 40
0.0
 40
0.0
 40
0.0
 40
0.0
 40
0.2500000000000001
 40
0.2500000000000001
 40
0.5000000000000002
 40
0.5000000000000002
 40
0.7500000000000002
 40
0.7500000000000002
 40
0.8750000000000001
 40
0.8750000000000001
 40
1.0
 40
1.0
 40
1.0
 40
1.0
 10
9.999999999999993
 20
3.4348777763067
 30
0.0
 10
9.999999999999993
 20
3.211146944812505
 30
0.0
 10
9.999999999999993
 20
2.942806519405911
 30
0.0
 10
9.999999999999993
 20
2.302702386928018
 30
0.0
 10
9.999999999999993
 20
1.929238909319106
 30
0.0
 10
9.999999999999993
 20
1.110755550140318
 30
0.0
 10
9.999999999999993
 20
0.6653699067937864
 30
0.0
 10
9.999999999999993
 20
0.0360169383500601
 30
0.0
 10
9.999999999999993
 20
-0.166508720131043
 30
0.0
 10
9.999999999999993
 20
-0.5370110717390567
 30
0.0
 10
9.999999999999993
 20
-0.704792015550088
 30
0.0
 10
9.999999999999993
 20
-0.8468334550141854
 30
0.0
  0
SPLINE
  5
D3
330
1F
100
AcDbEntity
  8
0
  6
Continuous
 62
     1
370
    15
100
AcDbSpline
210
0.0
220
0.0
230
1.0
 70
     8
 71
     3
 72
    26
 73
    22
 74
     0
 42
0.000000001
 43
0.00000001
 40
0.0
 40
0.0
 40
0.0
 40
0.0
 40
0.0480589944317675
 40
0.1031702797505532
 40
0.1583092898971399
 40
0.2133550223741623
 40
0.2684005189813065
 40
0.3235390223673718
 40
0.3786509075607222
 40
0.4336883118681891
 40
0.488746756110219
 40
0.543901729529923
 40
0.598988837290964
 40
0.6540226458763369
 40
0.7090987490416388
 40
0.7642571141852137
 40
0.8193241270261993
 40
0.8743590759561088
 40
0.9294575315979817
 40
0.9846062059478918
 40
1.0
 40
1.0
 40
1.0
 40
1.0
 10
19.12589789132731
 20
6.337012780905932
 30
0.0
 10
19.48116140329913
 20
6.324978219507066
 30
0.0
 10
20.24382063803063
 20
6.299143116611626
 30
0.0
 10
21.41511936979026
 20
5.974711923146272
 30
0.0
 10
22.6387080482798
 20
5.438235873627677
 30
0.0
 10
23.86010896074587
 20
4.694224546792857
 30
0.0
 10
25.08150390877587
 20
3.778247456934861
 30
0.0
 10
26.3050824171759
 20
2.723254152381015
 30
0.0
 10
27.52801870605268
 20
1.567393390433977
 30
0.0
 10
28.74922914153703
 20
0.3530638001946921
 30
0.0
 10
29.97091059989661
 20
-0.8744634018590012
 30
0.0
 10
31.19489005429742
 20
-2.06819041590432
 30
0.0
 10
32.41723537981282
 20
-3.186736723539901
 30
0.0
 10
33.63836314552065
 20
-4.187585215776287
 30
0.0
 10
34.86044967004005
 20
-5.0336121203478
 30
0.0
 10
36.08451322165639
 20
-5.693241537362223
 30
0.0
 10
37.30638465517196
 20
-6.142187187851008
 30
0.0
 10
38.52755680839226
 20
-6.368467779358137
 30
0.0
 10
39.75010341648174
 20
-6.34276866108031
 30
0.0
 10
40.68050728932985
 20
-6.192533727219829
 30
0.0
 10
41.20205297749863
 20
-5.982799924526818
 30
0.0
 10
41.31586480028147
 20
-5.937031764756419
 30
0.0
  0
SPLINE
  5
D4
330
1F
100
AcDbEntity
  8
0
  6
Continuous
 62
     1
370
    15
100
AcDbSpline
210
0.0
220
0.0
230
1.0
 70
     8
 71
     3
 72
    26
 73
    22
 74
     0
 42
0.000000001
 43
0.00000001
 40
0.0
 40
0.0
 40
0.0
 40
0.0
 40
0.0128113974439106
 40
0.0678765306134876
 40
0.1229203070059853
 40
0.1780382604301644
 40
0.2331835739821758
 40
0.288235688252903
 40
0.3432877238911077
 40
0.3984328685031158
 40
0.4535510219089561
 40
0.5085948419830878
 40
0.5636598616483449
 40
0.6188213816263498
 40
0.6739147892126749
 40
0.7289550481373378
 40
0.7840377635571909
 40
0.8392025789658083
 40
0.8942759239606569
 40
0.9493173583673574
 40
1.0
 40
1.0
 40
1.0
 40
1.0
 10
59.02519658829158
 20
6.329025861194203
 30
0.0
 10
59.12001261476491
 20
6.335417264251784
 30
0.0
 10
59.62236085208578
 20
6.369279789179313
 30
0.0
 10
60.53088535604484
 20
6.198334147226658
 30
0.0
 10
61.75213251419728
 20
5.811557198838606
 30
0.0
 10
62.97504881067487
 20
5.190945218764385
 30
0.0
 10
64.19863827000104
 20
4.384214874534432
 30
0.0
 10
65.42003612376834
 20
3.41330556876345
 30
0.0
 10
66.6414331689528
 20
2.316547500185831
 30
0.0
 10
67.86501569415334
 20
1.135245117691902
 30
0.0
 10
69.08794720136719
 20
-0.0884439709110407
 30
0.0
 10
70.30915661540898
 20
-1.309413471428003
 30
0.0
 10
71.53084062975036
 20
-2.482114470902493
 30
0.0
 10
72.7548218331561
 20
-3.561764955773437
 30
0.0
 10
73.97716336864083
 20
-4.510939418641925
 30
0.0
 10
75.19829046322636
 20
-5.293537393599251
 30
0.0
 10
76.42038217914191
 20
-5.880134327843638
 30
0.0
 10
77.64443865822159
 20
-6.250465899401752
 30
0.0
 10
78.86633128798839
 20
-6.385224570668961
 30
0.0
 10
80.05472886914224
 20
-6.305253246990785
 30
0.0
 10
80.83683663846843
 20
-6.065860394544444
 30
0.0
 10
81.211768151477
 20
-5.95109881322366
 30
0.0
  0
SPLINE
  5
D5
330
1F
100
AcDbEntity
  8
0
  6
Continuous
 62
     1
370
    15
100
AcDbSpline
210
0.0
220
0.0
230
1.0
 70
     8
 71
     3
 72
    27
 73
    23
 74
     0
 42
0.000000001
 43
0.00000001
 40
0.0
 40
0.0
 40
0.0
 40
0.0
 40
0.0022613894357002
 40
0.0574041933861866
 40
0.112453713249199
 40
0.1675029972261046
 40
0.2226452943812022
 40
0.2777609715121374
 40
0.3328021626325801
 40
0.3878643951352247
 40
0.4430231634571714
 40
0.4981140614510016
 40
0.553151656601949
 40
0.6082315492428769
 40
0.6633937095220593
 40
0.7184645112132167
 40
0.7735032467871614
 40
0.8286054934426076
 40
0.8837579622613564
 40
0.9388133706535172
 40
0.993857981894995
 40
1.0
 40
1.0
 40
1.0
 40
1.0
 10
21.36482624710613
 20
5.95489639981936
 30
0.0
 10
21.38155520657636
 20
5.962077034106377
 30
0.0
 10
21.80621113245033
 20
6.144353696736922
 30
0.0
 10
22.63876467208625
 20
6.299836856550879
 30
0.0
 10
23.86009380020345
 20
6.388334485814355
 30
0.0
 10
25.0815079787509
 20
6.215862701956913
 30
0.0
 10
26.30508132636239
 20
5.820727039512536
 30
0.0
 10
27.52801899793377
 20
5.208743663794834
 30
0.0
 10
28.74922906296096
 20
4.404477824546387
 30
0.0
 10
29.97091062242579
 20
3.437122596796701
 30
0.0
 10
31.19489004292109
 20
2.344183309985364
 30
0.0
 10
32.41723540275751
 20
1.163547733639748
 30
0.0
 10
33.63836306515557
 20
-0.060157461077167
 30
0.0
 10
34.86044996902496
 20
-1.281707341189637
 30
0.0
 10
36.0845121051576
 20
-2.454553131310266
 30
0.0
 10
37.30638881298341
 20
-3.538079686281139
 30
0.0
 10
38.52754129295181
 20
-4.491140575629887
 30
0.0
 10
39.75016141895487
 20
-5.276342017495173
 30
0.0
 10
40.97396733894682
 20
-5.872629323520496
 30
0.0
 10
42.19557109467507
 20
-6.228819443325899
 30
0.0
 10
43.05457860826579
 20
-6.379817039044631
 30
0.0
 10
43.50729733115525
 20
-6.342150902960325
 30
0.0
 10
43.55274200791161
 20
-6.338369912043743
 30
0.0
  0
SPLINE
  5
D6
330
1F
100
AcDbEntity
  8
0
  6
Continuous
 62
     1
370
    15
100
AcDbSpline
210
0.0
220
0.0
230
1.0
 70
     8
 71
     3
 72
    26
 73
    22
 74
     0
 42
0.000000001
 43
0.00000001
 40
0.0
 40
0.0
 40
0.0
 40
0.0
 40
0.0220426816547636
 40
0.0771551738500452
 40
0.1322950234622467
 40
0.1873416830275889
 40
0.2423882639682002
 40
0.2975279446571373
 40
0.3526406368142646
 40
0.4076790030048218
 40
0.4627385666859946
 40
0.5178946211184156
 40
0.5729825699079073
 40
0.6280173753018443
 40
0.6830946329842709
 40
0.7382539825207847
 40
0.793321870706654
 40
0.8483578514661579
 40
0.9034574966403761
 40
0.9540933750220119
 40
1.0
 40
1.0
 40
1.0
 40
1.0
 10
61.26287048539234
 20
5.9327681320061
 30
0.0
 10
61.42582057192266
 20
5.995662121527253
 30
0.0
 10
61.99618866288539
 20
6.21580759981477
 30
0.0
 10
62.97507207233315
 20
6.358768375706768
 30
0.0
 10
64.19863204750165
 20
6.353466595963211
 30
0.0
 10
65.42003778980323
 20
6.099761226762532
 30
0.0
 10
66.6414327216632
 20
5.624138028315799
 30
0.0
 10
67.86501581413403
 20
4.940391154388597
 30
0.0
 10
69.08794716888512
 20
4.074215146675851
 30
0.0
 10
70.30915662555958
 20
3.057025507738916
 30
0.0
 10
71.53084062161092
 20
1.926690052788822
 30
0.0
 10
72.7548218555732
 20
0.7266706298070899
 30
0.0
 10
73.97716328726877
 20
-0.5014054237466355
 30
0.0
 10
75.19829076612304
 20
-1.711022016317818
 30
0.0
 10
76.42038104714678
 20
-2.857435571688008
 30
0.0
 10
77.64444288678995
 20
-3.897170226629722
 30
0.0
 10
78.86631554055909
 20
-4.793862408376649
 30
0.0
 10
80.0874725163685
 20
-5.514661904890794
 30
0.0
 10
81.27669484559307
 20
-6.01222359708055
 30
0.0
 10
82.39937738634852
 20
-6.303080356058859
 30
0.0
 10
83.11272745689244
 20
-6.329323265846357
 30
0.0
 10
83.45193032637364
 20
-6.341801950115172
 30
0.0
  0
SPLINE
  5
D7
330
1F
100
AcDbEntity
  8
0
  6
Continuous
 62
     1
370
    15
100
AcDbSpline
210
0.0
220
0.0
230
1.0
 70
     8
 71
     3
 72
    22
 73
    18
 74
     0
 42
0.000000001
 43
0.00000001
 40
0.0
 40
0.0
 40
0.0
 40
0.0
 40
0.0793299069019831
 40
0.1586760560886579
 40
0.2265179887309143
 40
0.2943072440442192
 40
0.3621615727089881
 40
0.4301003752538705
 40
0.4979204276441022
 40
0.5657139827769571
 40
0.6335987041154081
 40
0.7015175762126108
 40
0.7693215511781492
 40
0.837125235604992
 40
0.9050434834870893
 40
0.9729289437362266
 40
1.0
 40
1.0
 40
1.0
 40
1.0
 10
9.999999999999497
 20
5.026723621566131
 30
0.0
 10
10.4765713100408
 20
4.711048956408568
 30
0.0
 10
11.42981150501281
 20
4.079634993750084
 30
0.0
 10
12.79120349397725
 20
2.917562954625134
 30
0.0
 10
14.08187767479582
 20
1.710318644505124
 30
0.0
 10
15.30297455584108
 20
0.4997691869844049
 30
0.0
 10
16.52531627845135
 20
-0.7280693713336982
 30
0.0
 10
17.74929885294832
 20
-1.928091231327723
 30
0.0
 10
18.97098854096343
 20
-3.058299089806666
 30
0.0
 10
20.19219583567734
 20
-4.075335228553549
 30
0.0
 10
21.41511763512387
 20
-4.941316591354283
 30
0.0
 10
22.63870889360299
 20
-5.624827990831469
 30
0.0
 10
23.86010731438703
 20
-6.100192437428198
 30
0.0
 10
25.0815096544311
 20
-6.35362955796572
 30
0.0
 10
26.30506104645636
 20
-6.358630343575999
 30
0.0
 10
27.2834718073001
 20
-6.215584120994554
 30
0.0
 10
27.85336238892317
 20
-5.995529399865777
 30
0.0
 10
28.01583191250995
 20
-5.932794224276476
 30
0.0
  0
SPLINE
  5
D8
330
1F
100
AcDbEntity
  8
0
  6
Continuous
 62
     1
370
    15
100
AcDbSpline
210
0.0
220
0.0
230
1.0
 70
     8
 71
     3
 72
    27
 73
    23
 74
     0
 42
0.000000001
 43
0.00000001
 40
0.0
 40
0.0
 40
0.0
 40
0.0
 40
0.0062072124182023
 40
0.0612519754542004
 40
0.116307221171229
 40
0.1714594782145711
 40
0.2265621198410229
 40
0.2816009372551672
 40
0.336671506644528
 40
0.3918336484675765
 40
0.4469138668517839
 40
0.5019514738384294
 40
0.5570420701692396
 40
0.6122010134068584
 40
0.6672635021302248
 40
0.7223046351021489
 40
0.7774199415434793
 40
0.8325626067986998
 40
0.8876120772484355
 40
0.9426614690694248
 40
0.9978039653927554
 40
1.0
 40
1.0
 40
1.0
 40
1.0
 10
45.72595344422323
 20
6.338262000807288
 30
0.0
 10
45.77188067188701
 20
6.34207644837412
 30
0.0
 10
46.225084659766
 20
6.379716927383628
 30
0.0
 10
47.08457416714884
 20
6.228541020223306
 30
0.0
 10
48.30617347333709
 20
5.872045868865446
 30
0.0
 10
49.5299735720093
 20
5.275521434160964
 30
0.0
 10
50.7526023982073
 20
4.490106073097205
 30
0.0
 10
51.97375608737202
 20
3.536868811234737
 30
0.0
 10
53.19562678189186
 20
2.453208242278245
 30
0.0
 10
54.41968774698775
 20
1.28027942546092
 30
0.0
 10
55.64178156294919
 20
0.0587035041516721
 30
0.0
 10
56.86290881991512
 20
-1.164977066540777
 30
0.0
 10
58.08524635641202
 20
-2.345539998063811
 30
0.0
 10
59.30922932561903
 20
-3.438349468618895
 30
0.0
 10
60.53091598149071
 20
-4.40553146644883
 30
0.0
 10
61.75212403065866
 20
-5.209584809984657
 30
0.0
 10
62.97505208337312
 20
-5.821329798458447
 30
0.0
 10
64.19863367471147
 20
-6.216195502508731
 30
0.0
 10
65.4200512075761
 20
-6.388401303075718
 30
0.0
 10
66.64137737806371
 20
-6.299584617093211
 30
0.0
 10
67.47343690279502
 20
-6.144108598003733
 30
0.0
 10
67.89760857741011
 20
-5.961991489581113
 30
0.0
 10
67.91385412227758
 20
-5.955016503194531
 30
0.0
  0
SPLINE
  5
D9
330
1F
100
AcDbEntity
  8
0
  6
Continuous
 62
     1
370
    15
100
AcDbSpline
210
0.0
220
0.0
230
1.0
 70
     8
 71
     3
 72
    24
 73
    20
 74
     0
 42
0.000000001
 43
0.00000001
 40
0.0
 40
0.0
 40
0.0
 40
0.0
 40
0.070563088904215
 40
0.1411406251439106
 40
0.2014852859586864
 40
0.2617830908626058
 40
0.3221387778045104
 40
0.3825696033435129
 40
0.4428948019122184
 40
0.503196431458836
 40
0.5635791523532409
 40
0.6239922499759197
 40
0.6843031478503185
 40
0.7446137872937092
 40
0.8050263296838446
 40
0.8654097078312641
 40
0.9257114809404732
 40
0.9860363064696903
 40
1.0
 40
1.0
 40
1.0
 40
1.0
 10
9.999999999998675
 20
6.342704934170415
 30
0.0
 10
10.47657131004137
 20
6.334510124545567
 30
0.0
 10
11.42981150501618
 20
6.318118827461666
 30
0.0
 10
12.79120349396293
 20
5.909373412212537
 30
0.0
 10
14.08187767484046
 20
5.293488212865026
 30
0.0
 10
15.30297455567363
 20
4.509704681056334
 30
0.0
 10
16.52531627907754
 20
3.56060914613998
 30
0.0
 10
17.74929885060984
 20
2.480758426204563
 30
0.0
 10
18.970988549672
 20
1.307993640539207
 30
0.0
 10
20.1921958031704
 20
0.0869902279456029
 30
0.0
 10
21.41511775665092
 20
-1.136681707870359
 30
0.0
 10
22.63870844014811
 20
-2.317902075177549
 30
0.0
 10
23.8601090034803
 20
-3.414535181466863
 30
0.0
 10
25.08150334583077
 20
-4.385272599388578
 30
0.0
 10
26.30508463004658
 20
-5.191794397312339
 30
0.0
 10
27.52801042815356
 20
-5.812168837018541
 30
0.0
 10
28.74926000170307
 20
-6.198651586406365
 30
0.0
 10
29.6572979211173
 20
-6.369386089409207
 30
0.0
 10
30.15916085055257
 20
-6.33547482185334
 30
0.0
 10
30.25349386768059
 20
-6.329100666689537
 30
0.0
  0
SPLINE
  5
DA
330
1F
100
AcDbEntity
  8
0
  6
Continuous
 62
     1
370
    15
100
AcDbSpline
210
0.0
220
0.0
230
1.0
 70
     8
 71
     3
 72
    26
 73
    22
 74
     0
 42
0.000000001
 43
0.00000001
 40
0.0
 40
0.0
 40
0.0
 40
0.0
 40
0.0154588465272799
 40
0.0706072767443307
 40
0.125706094987134
 40
0.1807410934461743
 40
0.2358078416772692
 40
0.2909661559881545
 40
0.3460425525445858
 40
0.4010763406601147
 40
0.4561631144430589
 40
0.511318230390453
 40
0.5663768985162441
 40
0.6214142123723948
 40
0.6765256945513092
 40
0.731664533645779
 40
0.7867101844012325
 40
0.8417557565333958
 40
0.896894426707697
 40
0.9520061088447924
 40
1.0
 40
1.0
 40
1.0
 40
1.0
 10
47.96283339349506
 20
5.936974444126336
 30
0.0
 10
48.07712596426042
 20
5.982918610156206
 30
0.0
 10
48.59914985262816
 20
6.192765602293295
 30
0.0
 10
49.53003128180027
 20
6.342943656210448
 30
0.0
 10
50.75258696108119
 20
6.368337183359493
 30
0.0
 10
51.97376022416004
 20
6.141788563294647
 30
0.0
 10
53.19562567103666
 20
5.692579801100954
 30
0.0
 10
54.41968804446375
 20
5.032714397768262
 30
0.0
 10
55.64178148299081
 20
4.186486829224476
 30
0.0
 10
56.86290884274045
 20
3.185476751535679
 30
0.0
 10
58.08524634510554
 20
2.066810431776253
 30
0.0
 10
59.30922934798837
 20
0.8730215339941877
 30
0.0
 10
60.53091590348302
 20
-0.3545161643594256
 30
0.0
 10
61.75212432042272
 20
-1.568801808262618
 30
0.0
 10
62.97505100047273
 20
-2.724574916830945
 30
0.0
 10
64.19863771521689
 20
-3.779419597828269
 30
0.0
 10
65.42003615690521
 20
-4.695210634262188
 30
0.0
 10
66.64143359107547
 20
-5.439001707743138
 30
0.0
 10
67.86501396941308
 20
-5.975217223427777
 30
0.0
 10
69.03584008760708
 20
-6.299298195917761
 30
0.0
 10
69.79802081516047
 20
-6.324962727708151
 30
0.0
 10
70.15280298367712
 20
-6.336909130855589
 30
0.0
  0
SPLINE
  5
DB
330
1F
100
AcDbEntity
  8
0
  6
Continuous
 62
     1
370
    15
100
AcDbSpline
210
0.0
220
0.0
230
1.0
 70
    24
 71
     3
 72
    14
 73
    10
 74
     0
 42
0.000000001
 43
0.00000001
 40
0.0
 40
0.0
 40
0.0
 40
0.0
 40
0.1732678602991027
 40
0.3292678399551743
 40
0.4852678196112459
 40
0.641267799267318
 40
0.7972677789233901
 40
0.9532677585794619
 40
1.0
 40
1.0
 40
1.0
 40
1.0
 10
9.999999999999996
 20
6.342704934163502
 30
0.0
 10
9.999999999999993
 20
6.174100655165232
 30
0.0
 10
9.99999999999999
 20
5.853695205146247
 30
0.0
 10
9.99999999999999
 20
5.458861792419136
 30
0.0
 10
9.99999999999999
 20
5.142537331440953
 30
0.0
 10
9.99999999999999
 20
4.904449698408452
 30
0.0
 10
9.99999999999999
 20
4.755327836033025
 30
0.0
 10
9.99999999999999
 20
4.691427044743362
 30
0.0
 10
9.99999999999999
 20
4.706303138912475
 30
0.0
 10
9.99999999999999
 20
4.709732259455889
 30
0.0
  0
SPLINE
  5
DC
330
1F
100
AcDbEntity
  8
0
  6
Continuous
 62
     1
370
    15
100
AcDbSpline
210
0.0
220
0.0
230
1.0
 70
     8
 71
     3
 72
    16
 73
    12
 74
     0
 42
0.000000001
 43
0.00000001
 40
0.0
 40
0.0
 40
0.0
 40
0.0
 40
0.1249999999999978
 40
0.1249999999999978
 40
0.1874999999999983
 40
0.1874999999999983
 40
0.249999999999999
 40
0.249999999999999
 40
0.3750000000000005
 40
0.3750000000000005
 40
0.3917493247308006
 40
0.3917493247308006
 40
0.3917493247308006
 40
0.3917493247308006
 10
84.676
 20
-4.170093950152309
 30
0.0
 10
84.89151193410186
 20
-4.333125107346742
 30
0.0
 10
85.09213825115143
 20
-4.462933279110248
 30
0.0
 10
85.37121553394624
 20
-4.606622155929855
 30
0.0
 10
85.45843292798801
 20
-4.644978823721017
 30
0.0
 10
85.62084205107335
 20
-4.704893527891884
 30
0.0
 10
85.696476093321
 20
-4.726477394247492
 30
0.0
 10
85.89860133830531
 20
-4.769673744585428
 30
0.0
 10
85.99910231300191
 20
-4.768772182216772
 30
0.0
 10
86.07281116906896
 20
-4.769338894758609
 30
0.0
 10
86.08086861564539
 20
-4.76947932041995
 30
0.0
 10
86.08832248971136
 20
-4.769774546675665
 30
0.0
  0
SPLINE
  5
DD
330
1F
100
AcDbEntity
  8
0
  6
Continuous
 62
     1
370
    15
100
AcDbSpline
210
0.0
220
0.0
230
1.0
 70
     8
 71
     3
 72
    26
 73
    22
 74
     0
 42
0.000000001
 43
0.00000001
 40
0.0
 40
0.0
 40
0.0
 40
0.0
 40
0.023855155569283
 40
0.0789727039333716
 40
0.1340157637580919
 40
0.1890798656793906
 40
0.2442405066974799
 40
0.2993332750831869
 40
0.3543727388163251
 40
0.4094545014754863
 40
0.4646185345659724
 40
0.5196912059667163
 40
0.5747318101615704
 40
0.6298359275941916
 40
0.6849902688952091
 40
0.7400475464743381
 40
0.7950940265362103
 40
0.8502251703579411
 40
0.9053567480300081
 40
0.9604033504196354
 40
1.0
 40
1.0
 40
1.0
 40
1.0
 10
25.77564827431622
 20
6.321118522269496
 30
0.0
 10
25.95216152997971
 20
6.327858098357973
 30
0.0
 10
26.53651022723901
 20
6.350169524729764
 30
0.0
 10
27.52803647742753
 20
6.139329212940023
 30
0.0
 10
28.7492243803163
 20
5.70372865389619
 30
0.0
 10
29.97091187973923
 20
5.043400848994556
 30
0.0
 10
31.1948897066153
 20
4.201487061589254
 30
0.0
 10
32.41723549127823
 20
3.202552767944094
 30
0.0
 10
33.63836304681799
 20
2.085461872893442
 30
0.0
 10
34.86044995379756
 20
0.8911386802081575
 30
0.0
 10
36.08451218452339
 20
-0.334627541836171
 30
0.0
 10
37.30638851142295
 20
-1.549585548562692
 30
0.0
 10
38.52754241987564
 20
-2.707109866275679
 30
0.0
 10
39.75015720566285
 20
-3.764369566419987
 30
0.0
 10
40.97398306695061
 20
-4.681872763263142
 30
0.0
 10
42.19551251870649
 20
-5.427602916361199
 30
0.0
 10
43.41680421950063
 20
-5.972025721673091
 30
0.0
 10
44.64005869696185
 20
-6.297623224789711
 30
0.0
 10
45.86336675281787
 20
-6.382975940471765
 30
0.0
 10
46.97027233572439
 20
-6.272900243978037
 30
0.0
 10
47.67005835464482
 20
-6.036062241629978
 30
0.0
 10
47.9628333934951
 20
-5.936974444126327
 30
0.0
  0
SPLINE
  5
DE
330
1F
100
AcDbEntity
  8
0
  6
Continuous
 62
     1
370
    15
100
AcDbSpline
210
0.0
220
0.0
230
1.0
 70
     8
 71
     3
 72
    23
 73
    19
 74
     0
 42
0.000000001
 43
0.00000001
 40
0.0
 40
0.0
 40
0.0
 40
0.0
 40
0.0509355622102273
 40
0.1153200862834696
 40
0.1796730968667119
 40
0.2439393198239808
 40
0.3082302942910112
 40
0.3726339373665455
 40
0.4369580560532573
 40
0.5012201212027027
 40
0.5655317562871961
 40
0.6299392469314163
 40
0.6942399416083994
 40
0.7585033791878579
 40
0.8228411553015721
 40
0.8819667594018934
 40
0.9409544142615691
 40
0.9939340046072525
 40
0.9939340046072525
 40
0.9939340046072525
 40
0.9939340046072525
 10
65.673449715141
 20
6.330694623474026
 30
0.0
 10
65.99590909125486
 20
6.324196114192437
 30
0.0
 10
66.72596961209263
 20
6.309483237401687
 30
0.0
 10
67.86502518820876
 20
6.008415893380811
 30
0.0
 10
69.087944661416
 20
5.4897760732231
 30
0.0
 10
70.30915729739603
 20
4.760870254606127
 30
0.0
 10
71.53084044085128
 20
3.857751128125291
 30
0.0
 10
72.75482190529877
 20
2.812900093129896
 30
0.0
 10
73.97716326904816
 20
1.663232852835644
 30
0.0
 10
75.1982907893484
 20
0.451996232858474
 30
0.0
 10
76.42038097235304
 20
-0.7760195404669741
 30
0.0
 10
77.64444316295955
 20
-1.973929600381111
 30
0.0
 10
78.8663145129474
 20
-3.100517154536429
 30
0.0
 10
80.08747635083468
 20
-4.112026690223061
 30
0.0
 10
81.27668100715456
 20
-4.949091100177958
 30
0.0
 10
82.4335627142324
 20
-5.591510062189857
 30
0.0
 10
83.51592297731793
 20
-6.040500217300922
 30
0.0
 10
84.22512954026774
 20
-6.189459752753336
 30
0.0
 10
84.56072545646376
 20
-6.256610814522669
 30
0.0
  0
LINE
  5
DF
330
1F
100
AcDbEntity
  8
0
  6
Continuous
 62
     1
370
    15
100
AcDbLine
 10
9.999999999998675
 20
-6.342704934170409
 30
0.0
 11
10.30397010696872
 21
-6.323134755288096
 31
0.0
  0
SPLINE
  5
E0
330
1F
100
AcDbEntity
  8
0
  6
Continuous
 62
     1
370
    15
100
AcDbSpline
210
0.0
220
0.0
230
1.0
 70
     8
 71
     3
 72
    26
 73
    22
 74
     0
 42
0.000000001
 43
0.00000001
 40
0.0
 40
0.0
 40
0.0
 40
0.0
 40
0.0330622455697218
 40
0.0881242023787715
 40
0.1432826945237735
 40
0.1983733166804822
 40
0.2534106362611925
 40
0.3084902531201021
 40
0.3636521372053567
 40
0.4187226631600136
 40
0.4737611231580112
 40
0.5288630939195137
 40
0.5840152865928592
 40
0.6390704193255929
 40
0.6941147549617044
 40
0.7492437510594596
 40
0.8043731809906488
 40
0.85941763894975
 40
0.9144725795317834
 40
0.9696245309024608
 40
1.0
 40
1.0
 40
1.0
 40
1.0
 10
28.01583191251
 20
5.932794224276485
 30
0.0
 10
28.26025812617515
 20
6.020001640734952
 30
0.0
 10
28.91175244389418
 20
6.252444533965223
 30
0.0
 10
29.970895181026
 20
6.376971768384594
 30
0.0
 10
31.19489417833283
 20
6.321163741970452
 30
0.0
 10
32.41723429504687
 20
6.022149267383792
 30
0.0
 10
33.63836336742452
 20
5.503130284149021
 30
0.0
 10
34.86044986790649
 20
4.779955868380993
 30
0.0
 10
36.08451220679728
 20
3.881469206268175
 30
0.0
 10
37.30638850811761
 20
2.83840623502385
 30
0.0
 10
38.52754241085638
 20
1.690552988225352
 30
0.0
 10
39.75015724511854
 20
0.4804785902742326
 30
0.0
 10
40.97398291812764
 20
-0.7463885471699916
 30
0.0
 10
42.19551307337954
 20
-1.947116966882817
 30
0.0
 10
43.41680214831253
 20
-3.075697937079652
 30
0.0
 10
44.64006644011472
 20
-4.090119662770646
 30
0.0
 10
45.86333787499926
 20
-4.952752180972897
 30
0.0
 10
47.08463973699286
 20
-5.635995288139312
 30
0.0
 10
48.30612913464019
 20
-6.099663802187635
 30
0.0
 10
49.34700666576602
 20
-6.337702388627545
 30
0.0
 10
49.97956482012552
 20
-6.325313468868459
 30
0.0
 10
50.20422084932591
 20
-6.320913485246435
 30
0.0
  0
SPLINE
  5
E1
330
1F
100
AcDbEntity
  8
0
  6
Continuous
 62
     1
370
    15
100
AcDbSpline
210
0.0
220
0.0
230
1.0
 70
     8
 71
     3
 72
    21
 73
    17
 74
     0
 42
0.000000001
 43
0.00000001
 40
0.0
 40
0.0
 40
0.0
 40
0.0
 40
0.0700462609687186
 40
0.1429008925847921
 40
0.2157835834525633
 40
0.2887939997348611
 40
0.3617142641491072
 40
0.4345641823162907
 40
0.5074702948448486
 40
0.5804850728771661
 40
0.6533787829441803
 40
0.7262302569501599
 40
0.7991660039424595
 40
0.8661930347463529
 40
0.9330636810507922
 40
0.9999999999999999
 40
0.9999999999999999
 40
0.9999999999999999
 40
0.9999999999999999
 10
67.91385412227763
 20
5.955016503194543
 30
0.0
 10
68.30540642560373
 20
6.07224978724755
 30
0.0
 10
69.10420957176908
 20
6.311416599296272
 30
0.0
 10
70.30914831231641
 20
6.384485650187812
 30
0.0
 10
71.53084285359044
 20
6.23987914329068
 30
0.0
 10
72.75482125919868
 20
5.86054290238796
 30
0.0
 10
73.97716344188888
 20
5.265622554469596
 30
0.0
 10
75.19829074301714
 20
4.475718461782865
 30
0.0
 10
76.42038098479281
 20
3.520401631868508
 30
0.0
 10
77.64444315963026
 20
2.436324878679369
 30
0.0
 10
78.86631451383842
 20
1.260814698883336
 30
0.0
 10
80.087476350595
 20
0.0390805992597936
 30
0.0
 10
81.27668100721307
 20
-1.151327081339188
 30
0.0
 10
82.43356271421743
 20
-2.264578972004679
 30
0.0
 10
83.55429741784224
 20
-3.286782709974572
 30
0.0
 10
84.30197681858392
 20
-3.87556054576731
 30
0.0
 10
84.67600000000002
 20
-4.170093950154291
 30
0.0
  0
SPLINE
  5
E2
330
1F
100
AcDbEntity
  8
0
  6
Continuous
 62
     1
370
    15
100
AcDbSpline
210
0.0
220
0.0
230
1.0
 70
     8
 71
     3
 72
    34
 73
    30
 74
     0
 42
0.000000001
 43
0.00000001
 40
0.0
 40
0.0
 40
0.0
 40
0.0
 40
0.1250000000000023
 40
0.1250000000000023
 40
0.1875000000000016
 40
0.1875000000000016
 40
0.2500000000000011
 40
0.2500000000000011
 40
0.3749999999999998
 40
0.3749999999999998
 40
0.4999999999999986
 40
0.4999999999999986
 40
0.6249999999999973
 40
0.6249999999999973
 40
0.6874999999999969
 40
0.6874999999999969
 40
0.718749999999996
 40
0.718749999999996
 40
0.7499999999999951
 40
0.7499999999999951
 40
0.7812499999999942
 40
0.7812499999999942
 40
0.8124999999999933
 40
0.8124999999999933
 40
0.8749999999999954
 40
0.8749999999999954
 40
0.9374999999999978
 40
0.9374999999999978
 40
1.0
 40
1.0
 40
1.0
 40
1.0
 10
84.676
 20
2.062194558181506
 30
0.0
 10
84.89151193410181
 20
1.857731852526896
 30
0.0
 10
85.09213825115144
 20
1.631759389836762
 30
0.0
 10
85.37121553394631
 20
1.273494263693339
 30
0.0
 10
85.45843292798803
 20
1.153103373242169
 30
0.0
 10
85.62084205107337
 20
0.909544045603278
 30
0.0
 10
85.69647609332098
 20
0.7855003164867489
 30
0.0
 10
85.89860133830533
 20
0.4128907090140626
 30
0.0
 10
85.99910231300194
 20
0.1655232762205297
 30
0.0
 10
86.12910091477126
 20
-0.3482884624015447
 30
0.0
 10
86.15778025641983
 20
-0.6107298591432094
 30
0.0
 10
86.18284803861246
 20
-1.172828514856145
 30
0.0
 10
86.18361323309921
 20
-1.468590804992016
 30
0.0
 10
86.15882762834977
 20
-1.922308901717716
 30
0.0
 10
86.14582876699599
 20
-2.073170451497058
 30
0.0
 10
86.10470714959983
 20
-2.297137396711646
 30
0.0
 10
86.08753588563421
 20
-2.369624569546581
 30
0.0
 10
86.04177683871652
 20
-2.508223531104426
 30
0.0
 10
86.01312099446297
 20
-2.573769284147002
 30
0.0
 10
85.94189939681334
 20
-2.687233681999745
 30
0.0
 10
85.89901409387602
 20
-2.735016970283488
 30
0.0
 10
85.80287917931683
 20
-2.804465344963132
 30
0.0
 10
85.74908708964696
 20
-2.826656825901914
 30
0.0
 10
85.58196348512242
 20
-2.857875729029188
 30
0.0
 10
85.46358083365388
 20
-2.834021139136793
 30
0.0
 10
85.23204175801513
 20
-2.742877067227733
 30
0.0
 10
85.11784051427432
 20
-2.675402821537352
 30
0.0
 10
84.892771530162
 20
-2.515242596253951
 30
0.0
 10
84.78359382833796
 20
-2.423573159897786
 30
0.0
 10
84.676
 20
-2.323127830995061
 30
0.0
  0
SPLINE
  5
E3
330
1F
100
AcDbEntity
  8
0
  6
Continuous
 62
     1
370
    15
100
AcDbSpline
210
0.0
220
0.0
230
1.0
 70
     8
 71
     3
 72
    11
 73
     7
 74
     0
 42
0.000000001
 43
0.00000001
 40
0.0
 40
0.0
 40
0.0
 40
0.0
 40
0.3031358930841703
 40
0.6063338512793183
 40
0.8655718315466621
 40
1.0
 40
1.0
 40
1.0
 40
1.0
 10
9.999999999999497
 20
-5.873557076581124
 30
0.0
 10
10.47657113816287
 20
-6.026609740968301
 30
0.0
 10
11.42981098934384
 20
-6.33274640628451
 30
0.0
 10
12.79120543250412
 20
-6.37724808523294
 30
0.0
 10
13.88609146644953
 20
-6.238047519333208
 30
0.0
 10
14.50439440177853
 20
-6.009693578076751
 30
0.0
 10
14.71553099916114
 20
-5.931715824129748
 30
0.0
  0
SPLINE
  5
E4
330
1F
100
AcDbEntity
  8
0
  6
Continuous
 62
     1
370
    15
100
AcDbSpline
210
0.0
220
0.0
230
1.0
 70
     8
 71
     3
 72
    26
 73
    22
 74
     0
 42
0.000000001
 43
0.00000001
 40
0.0
 40
0.0
 40
0.0
 40
0.0
 40
0.0546490336051349
 40
0.1097263874900273
 40
0.1648860052212745
 40
0.2199542685754188
 40
0.2749904672903501
 40
0.3300901741594143
 40
0.3852401008769289
 40
0.4402929716415883
 40
0.49533504575323
 40
0.5504617768481969
 40
0.6055889417587743
 40
0.6606311381883799
 40
0.7156838168102335
 40
0.7708335022349933
 40
0.8259335745563117
 40
0.8809698256412937
 40
0.9360378272209732
 40
0.9911973969645356
 40
1.0
 40
1.0
 40
1.0
 40
1.0
 10
32.42608524308988
 20
6.349183831044924
 30
0.0
 10
32.83008321829003
 20
6.327147372576545
 30
0.0
 10
33.64124556550182
 20
6.282901741477549
 30
0.0
 10
34.86044238712986
 20
5.921927766698264
 30
0.0
 10
36.08451420891562
 20
5.359183385466801
 30
0.0
 10
37.30638797220884
 20
4.59314230334868
 30
0.0
 10
38.52754255529864
 20
3.658626867376152
 30
0.0
 10
39.75015720373554
 20
2.588800491763452
 30
0.0
 10
40.97398293897798
 20
1.424361196618961
 30
0.0
 10
42.19551303138559
 20
0.2059194865003699
 30
0.0
 10
43.41680229554288
 20
-1.020035340464853
 30
0.0
 10
44.64006589226698
 20
-2.207456925951742
 30
0.0
 10
45.86333991748977
 20
-3.313379721827557
 30
0.0
 10
47.08463212699382
 20
-4.297690229332805
 30
0.0
 10
48.30615756412462
 20
-5.123045708485845
 30
0.0
 10
49.52997913012742
 20
-5.758768622661536
 30
0.0
 10
50.75259608206098
 20
-6.180864064545037
 30
0.0
 10
51.9737757832661
 20
-6.380048837292983
 30
0.0
 10
53.19555420875286
 20
-6.323128697247405
 30
0.0
 10
54.07720254353718
 20
-6.168659001903661
 30
0.0
 10
54.55021456241491
 20
-5.971560346538056
 30
0.0
 10
54.61531142908279
 20
-5.944435232636732
 30
0.0
  0
SPLINE
  5
E5
330
1F
100
AcDbEntity
  8
0
  6
Continuous
 62
     1
370
    15
100
AcDbSpline
210
0.0
220
0.0
230
1.0
 70
     8
 71
     3
 72
    18
 73
    14
 74
     0
 42
0.000000001
 43
0.00000001
 40
0.0
 40
0.0
 40
0.0
 40
0.0
 40
0.0348719399910309
 40
0.1338269450152097
 40
0.232686488053786
 40
0.3316222885409195
 40
0.4307055514043439
 40
0.5296245213759218
 40
0.6284861757348181
 40
0.7274621910858423
 40
0.8184198998000632
 40
0.909165390017088
 40
1.0
 40
1.0
 40
1.0
 40
1.0
 10
72.32405225333368
 20
6.323158667450292
 30
0.0
 10
72.46773907650665
 20
6.330388853545985
 30
0.0
 10
73.01916146909872
 20
6.35813591084555
 30
0.0
 10
73.97716407303514
 20
6.164301583600256
 30
0.0
 10
75.19829057383353
 20
5.748121779210488
 30
0.0
 10
76.42038103021807
 20
5.103635783357734
 30
0.0
 10
77.64444314747307
 20
4.275857804345878
 30
0.0
 10
78.86631451709206
 20
3.287892453707268
 30
0.0
 10
80.08747634971986
 20
2.178965107700373
 30
0.0
 10
81.27668100742653
 20
1.021582128363963
 30
0.0
 10
82.43356271416266
 20
-0.1333758006262534
 30
0.0
 10
83.5542974178559
 20
-1.258513826667557
 30
0.0
 10
84.30197681858849
 20
-1.968140400982473
 30
0.0
 10
84.676
 20
-2.323127830995069
 30
0.0
  0
SPLINE
  5
E6
330
1F
100
AcDbEntity
  8
0
  6
Continuous
 62
     1
370
    15
100
AcDbSpline
210
0.0
220
0.0
230
1.0
 70
     8
 71
     3
 72
    13
 73
     9
 74
     0
 42
0.000000001
 43
0.00000001
 40
0.0
 40
0.0
 40
0.0
 40
0.0
 40
0.2055213937397367
 40
0.4110848666538675
 40
0.5868441621722295
 40
0.7624669856022279
 40
0.9382583957154902
 40
1.0
 40
1.0
 40
1.0
 40
1.0
 10
9.999999999998675
 20
-2.907827157858385
 30
0.0
 10
10.47657131529368
 20
-3.317186168135408
 30
0.0
 10
11.42981152077418
 20
-4.135988002295765
 30
0.0
 10
12.79120343472471
 20
-5.067219453852788
 30
0.0
 10
14.08187786129504
 20
-5.74906399572128
 30
0.0
 10
15.30297385625445
 20
-6.164572802332227
 30
0.0
 10
16.26049288779856
 20
-6.358256005921857
 30
0.0
 10
16.81143099685162
 20
-6.330432245431387
 30
0.0
 10
16.95463552275995
 20
-6.323200056616436
 30
0.0
  0
SPLINE
  5
E7
330
1F
100
AcDbEntity
  8
0
  6
Continuous
 62
     1
370
    15
100
AcDbSpline
210
0.0
220
0.0
230
1.0
 70
     8
 71
     3
 72
    26
 73
    22
 74
     0
 42
0.000000001
 43
0.00000001
 40
0.0
 40
0.0
 40
0.0
 40
0.0
 40
0.0088677675627475
 40
0.0640273626358801
 40
0.1190956033694363
 40
0.1741317794769504
 40
0.22923146371251
 40
0.2843813677758911
 40
0.3394342159262852
 40
0.3944762674280962
 40
0.4496029758784581
 40
0.5047301181442516
 40
0.5597722919639765
 40
0.6148249479716438
 40
0.6699746107423697
 40
0.725074660430033
 40
0.7801108889075771
 40
0.8351788678667752
 40
0.8903384149522428
 40
0.945416042452415
 40
1.0
 40
1.0
 40
1.0
 40
1.0
 10
34.66337941954485
 20
5.944346591790587
 30
0.0
 10
34.72895799764311
 20
5.971663554465384
 30
0.0
 10
35.20245071960869
 20
6.168898434937182
 30
0.0
 10
36.08458462189154
 20
6.32334150847431
 30
0.0
 10
37.306369131307
 20
6.379950295995402
 30
0.0
 10
38.52754760882151
 20
6.18049838157209
 30
0.0
 10
39.7501558475003
 20
5.758135733493518
 30
0.0
 10
40.97398330193386
 20
5.122176529904698
 30
0.0
 10
42.19551293376523
 20
4.296613490446634
 30
0.0
 10
43.41680232347998
 20
3.312137903695403
 30
0.0
 10
44.64006587828075
 20
2.20608589785984
 30
0.0
 10
45.86333994545453
 20
1.018601585739708
 30
0.0
 10
47.08463202926401
 20
-0.2073735562054467
 30
0.0
 10
48.30615792748876
 20
-1.425779067147044
 30
0.0
 10
49.5299777723604
 20
-2.590134551594524
 30
0.0
 10
50.7526011413419
 20
-3.659818306767365
 30
0.0
 10
51.97375692106829
 20
-4.594152552118807
 30
0.0
 10
53.1956247009966
 20
-5.359978861815655
 30
0.0
 10
54.4196952444753
 20
-5.92246473400391
 30
0.0
 10
55.63841847335762
 20
-6.283067468414366
 30
0.0
 10
56.44910122029523
 20
-6.327120228146847
 30
0.0
 10
56.85261784486464
 20
-6.349047450574322
 30
0.0
  0
SPLINE
  5
E8
330
1F
100
AcDbEntity
  8
0
  6
Continuous
 62
     1
370
    15
100
AcDbSpline
210
0.0
220
0.0
230
1.0
 70
     8
 71
     3
 72
    16
 73
    12
 74
     0
 42
0.000000001
 43
0.00000001
 40
0.0
 40
0.0
 40
0.0
 40
0.0
 40
0.0628047631544266
 40
0.1836447581844417
 40
0.3046648634751583
 40
0.425484301746085
 40
0.5462337348387285
 40
0.6671228482255874
 40
0.7782184174214684
 40
0.8890547833560397
 40
1.0
 40
1.0
 40
1.0
 40
1.0
 10
74.56317245782364
 20
5.931720918450898
 30
0.0
 10
74.7747927253386
 20
6.009773522681989
 30
0.0
 10
75.39358262124435
 20
6.238003849646833
 30
0.0
 10
76.42037752162169
 20
6.370877611587337
 30
0.0
 10
77.64444408648319
 20
6.335285029933826
 30
0.0
 10
78.86631426578303
 20
6.054468666311716
 30
0.0
 10
80.08747641731628
 20
5.552789016080272
 30
0.0
 10
81.27668099093674
 20
4.864790184406566
 30
0.0
 10
82.43356271839097
 20
4.034028898713536
 30
0.0
 10
83.55429741679862
 20
3.104213865803683
 30
0.0
 10
84.30197681823596
 20
2.409647958697125
 30
0.0
 10
84.676
 20
2.06219455818692
 30
0.0
  0
SPLINE
  5
E9
330
1F
100
AcDbEntity
  8
0
  6
Continuous
 62
     1
370
    15
100
AcDbSpline
210
0.0
220
0.0
230
1.0
 70
    24
 71
     3
 72
    15
 73
    11
 74
     0
 42
0.000000001
 43
0.00000001
 40
0.0
 40
0.0
 40
0.0
 40
0.0
 40
0.03366195785094
 40
0.1556118940288541
 40
0.2775618302067683
 40
0.399511766384683
 40
0.5214617025625975
 40
0.6434116387405118
 40
0.7653615749184262
 40
1.0
 40
1.0
 40
1.0
 40
1.0
 10
9.999999999999991
 20
-2.940674569929894
 30
0.0
 10
9.999999999999991
 20
-2.943448916950199
 30
0.0
 10
9.999999999999988
 20
-2.956274118515562
 30
0.0
 10
9.999999999999991
 20
-3.075966217023976
 30
0.0
 10
9.99999999999999
 20
-3.288268296307405
 30
0.0
 10
9.99999999999999
 20
-3.58931254523534
 30
0.0
 10
9.99999999999999
 20
-3.957509746394976
 30
0.0
 10
9.99999999999999
 20
-4.388081740846101
 30
0.0
 10
9.99999999999999
 20
-5.011416399010222
 30
0.0
 10
9.999999999999991
 20
-5.53140185719965
 30
0.0
 10
9.999999999999993
 20
-5.873557076579069
 30
0.0
  0
LINE
  5
EA
330
1F
100
AcDbEntity
  8
0
  6
Continuous
 62
     1
370
    15
100
AcDbLine
 10
9.999999999999996
 20
3.434877776309434
 30
0.0
 11
9.999999999999991
 21
5.026723621564835
 31
0.0
  0
LINE
  5
EC
330
1F
100
AcDbEntity
  8
0
  6
Continuous
 62
     1
370
    15
100
AcDbLine
 10
9.999999999999996
 20
-6.342704934163494
 30
0.0
 11
9.999999999999993
 21
-5.873557076579069
 31
0.0
  0
LINE
  5
EE
330
1F
100
AcDbEntity
  8
0
  6
Continuous
 62
     1
370
    15
100
AcDbLine
 10
9.999999999999996
 20
-2.907827157854074
 30
0.0
 11
9.999999999999991
 21
-0.8468334550141883
 31
0.0
  0
LINE
  5
EF
330
1F
100
AcDbEntity
  8
0
  6
Continuous
 62
     1
370
    15
100
AcDbLine
 10
86.2
 20
0.0000000000000033
 30
0.0
 11
86.2
 21
4.064000000000004
 31
0.0
  0
LINE
  5
F0
330
1F
100
AcDbEntity
  8
0
  6
Continuous
 62
     1
370
    15
100
AcDbLine
 10
86.2
 20
-4.064000000000001
 30
0.0
 11
86.2
 21
0.0000000000000036
 31
0.0
  0
LINE
  5
F4
330
1F
100
AcDbEntity
  8
중심선
100
AcDbLine
 10
-43.8
 20
0.0
 30
0.0
 11
89.19999999999999
 21
0.0
 31
0.0
  0
CIRCLE
  5
F5
330
1F
100
AcDbEntity
  8
외형선
100
AcDbCircle
 10
0.0
 20
0.0
 30
0.0
 40
3.000000000000006
  0
INSERT
  5
F6
330
1F
100
AcDbEntity
  8
0
  6
Continuous
 62
     7
100
AcDbBlockReference
 66
     1
  2
블럭10
 10
-16.62936049909349
 20
-51.78679627639982
 30
0.0
  0
ATTRIB
  5
F7
330
F6
100
AcDbEntity
  8
FORMAT
 62
     2
100
AcDbText
 10
-27.68038085127795
 20
-49.71142936356762
 30
0.0
 40
4.233333333333333
  1
GMG22929[ 6 FLUTE ]
 41
0.75
  7
SLDTEXTSTYLE0
 11
-27.68038085127795
 21
-51.82809603023429
 31
0.0
100
AcDbAttribute
  2
AUTOATTR0
 70
     0
 74
     1
  0
SEQEND
  5
F8
330
F6
100
AcDbEntity
  8
0
  6
Continuous
 62
     7
  0
HATCH
  5
F9
330
1F
100
AcDbEntity
  8
중심선
100
AcDbHatch
 10
0.0
 20
0.0
 30
0.0
210
0.0
220
0.0
230
1.0
  2
SOLID
 70
     1
 71
     0
 91
        1
 92
        0
 93
        4
 72
     1
 10
-10.91445119471264
 20
-35.53962197475588
 11
-14.36072643854992
 21
-35.53962197475588
 72
     1
 10
-14.36072643854992
 20
-35.53962197475588
 11
-16.48895629775394
 21
-38.07594755532848
 72
     1
 10
-16.48895629775394
 20
-38.07594755532848
 11
-13.04264796880351
 21
-38.07590812602599
 72
     1
 10
-13.04264796880351
 20
-38.07590812602599
 11
-10.91445119471264
 21
-35.53962197475588
 97
        0
 75
     0
 76
     1
 98
        1
 10
0.0004859200744747
 20
0.2622744311706908
  0
HATCH
  5
FA
330
1F
100
AcDbEntity
  8
중심선
100
AcDbHatch
 10
0.0
 20
0.0
 30
0.0
210
0.0
220
0.0
230
1.0
  2
SOLID
 70
     1
 71
     0
 91
        1
 92
        0
 93
        4
 72
     1
 10
-5.901687203676684
 20
-35.53962197475588
 11
-9.347962447513966
 21
-35.53962197475588
 72
     1
 10
-9.347962447513966
 20
-35.53962197475588
 11
-13.87910045587135
 21
-40.93962197475589
 72
     1
 10
-13.87910045587135
 20
-40.93962197475589
 11
-10.43282521203407
 21
-40.93962197475589
 72
     1
 10
-10.43282521203407
 20
-40.93962197475589
 11
-5.901687203676684
 21
-35.53962197475588
 97
        0
 75
     0
 76
     1
 98
        1
 10
0.0004859200744747
 20
0.2622744311706908
  0
HATCH
  5
FB
330
1F
100
AcDbEntity
  8
중심선
100
AcDbHatch
 10
0.0
 20
0.0
 30
0.0
210
0.0
220
0.0
230
1.0
  2
SOLID
 70
     1
 71
     0
 91
        1
 92
        0
 93
        4
 72
     1
 10
-0.8889232126407884
 20
-35.53962197475591
 11
-4.335198456477904
 21
-35.53962197475588
 72
     1
 10
-4.335198456477904
 20
-35.53962197475588
 11
-11.38363535836715
 21
-43.9396219747559
 72
     1
 10
-11.38363535836715
 20
-43.9396219747559
 11
-7.937360114529871
 21
-43.9396219747559
 72
     1
 10
-7.937360114529871
 20
-43.9396219747559
 11
-0.8889232126407887
 21
-35.53962197475591
 97
        0
 75
     0
 76
     1
 98
        1
 10
0.0004859200744747
 20
0.2622744311706908
  0
HATCH
  5
FC
330
1F
100
AcDbEntity
  8
중심선
100
AcDbHatch
 10
0.0
 20
0.0
 30
0.0
210
0.0
220
0.0
230
1.0
  2
SOLID
 70
     1
 71
     0
 91
        1
 92
        0
 93
        6
 72
     3
 10
3.910967218371411
 20
-39.73962197480716
 11
3.960054785062283
 21
1.540882976769353E-10
 40
0.3939339440162628
 50
17.09539180608437
 51
320.0019657685081
 73
     0
 72
     1
 10
5.593966874072006
 20
-38.32751597939419
 11
7.899268747773045
 21
-36.39318926934626
 72
     3
 10
3.910967218318564
 20
-39.73962197475603
 11
6.600054785286829
 21
-1.278976924368180E-13
 40
0.636358354079598
 50
39.9987384933741
 51
368.4976242363725
 73
     1
 72
     1
 10
10.33629971021917
 20
-38.7796219746859
 11
2.591034525154487
 21
-38.77962197468587
 72
     1
 10
2.591034525154487
 20
-38.77962197468587
 11
2.591009480708553
 21
-40.6996219746858
 72
     1
 10
2.591009480708553
 20
-40.6996219746858
 11
7.032389250180589
 21
-40.69962197468577
 97
        0
 75
     0
 76
     1
 98
        1
 10
0.0004859200744747
 20
0.2622744311706908
  0
POINT
  5
FD
330
1F
100
AcDbEntity
  8
치수문자_일반주서
100
AcDbPoint
 10
0.0
 20
0.0
 30
0.0
  0
DIMENSION
  5
FE
330
1F
100
AcDbEntity
  8
치수문자_일반주서
100
AcDbDimension
  2
_D
 10
102.321245715773
 20
6.350000000000074
 30
0.0
 11
102.321245715773
 21
0.0000000000000706
 31
0.0
 70
   160
  1
%%c<>
 71
     2
 42
12.70000000000001
 52
-270.0
  3
SLDDIMSTYLE0
100
AcDbAlignedDimension
 13
84.67600000000003
 23
-6.349999999999998
 33
0.0
 14
83.676
 24
6.350000000000006
 34
0.0
 50
90.0000000000002
100
AcDbRotatedDimension
1001
ACAD
1000
DSTYLE
1002
{
1070
   273
1070
     7
1002
}
  0
DIMENSION
  5
113
330
1F
100
AcDbEntity
  8
치수문자_일반주서
100
AcDbDimension
  2
_D_1
 10
86.2
 20
39.00555141807178
 30
0.0
 11
22.70000000000001
 21
39.00555141807178
 31
0.0
 70
   160
  1
<>
 71
     2
 42
127.0
  3
SLDDIMSTYLE1
100
AcDbAlignedDimension
 13
-40.8
 23
5.849999999999999
 33
0.0
 14
86.2
 24
4.826000000000004
 34
0.0
 50
-0.0000000000000064
100
AcDbRotatedDimension
1001
ACAD
1000
DSTYLE
1002
{
1070
   273
1070
     7
1002
}
  0
DIMENSION
  5
127
330
1F
100
AcDbEntity
  8
치수문자_일반주서
100
AcDbDimension
  2
_D_2
 10
9.99999999999988
 20
22.45299453033794
 30
0.0
 11
47.26180339570445
 21
22.45299453033794
 31
0.0
 70
   160
  1
<>
 71
     2
 42
76.20000000000013
  3
SLDDIMSTYLE2
100
AcDbAlignedDimension
 13
86.2
 23
4.826000000000004
 33
0.0
 14
9.999999999999876
 24
-6.343096718650093
 34
0.0
 50
0.0000000000000053
100
AcDbRotatedDimension
1001
ACAD
1000
DSTYLE
1002
{
1070
   273
1070
     7
1002
}
  0
INSERT
  5
152
330
1F
100
AcDbEntity
  8
외형선
100
AcDbBlockReference
  2
SW_DOWELSYMBOL_0
 10
0.0
 20
0.0
 30
0.0
  0
DIMENSION
  5
179
102
{ACAD_REACTORS
102
}
102
{ACAD_XDICTIONARY
360
17A
102
}
330
1F
100
AcDbEntity
  8
치수문자_일반주서
100
AcDbDimension
  2
*D8
 10
-48.49504773547347
 20
-6.349999999999998
 30
0.0
 11
-48.49504773547347
 21
0.0000000000000027
 31
0.0
 70
   160
  1
{%%C<>}
 71
     5
 42
12.7
  3
SLDDIMSTYLE2
100
AcDbAlignedDimension
 13
-40.3
 23
6.350000000000001
 33
0.0
 14
-40.3
 24
-6.349999999999999
 34
0.0
 50
90.0
100
AcDbRotatedDimension
1001
ACAD
1000
DSTYLE
1002
{
1070
   273
1070
     7
1002
}
  0
ARC
  5
18B
102
{ACAD_REACTORS
102
}
330
1F
100
AcDbEntity
  8
0
  6
Continuous
 62
     1
370
    15
100
AcDbCircle
 10
83.914
 20
4.064000000000004
 30
0.0
 40
2.285999999999999
100
AcDbArc
 50
0.0
 51
94.74671232169656
  0
ARC
  5
18D
330
1F
100
AcDbEntity
  8
0
  6
Continuous
 62
     1
370
    15
100
AcDbCircle
 10
83.914
 20
-4.064000000000001
 30
0.0
 40
2.285999999999999
100
AcDbArc
 50
265.2532876783038
 51
0.000000000000089
  0
DIMENSION
  5
18E
102
{ACAD_REACTORS
102
}
102
{ACAD_XDICTIONARY
360
18F
102
}
330
1F
100
AcDbEntity
  8
치수문자_일반주서
100
AcDbDimension
  2
*D9
 10
83.914
 20
4.064000000000004
 30
0.0
 11
100.2880839376703
 21
20.67910251103277
 31
0.0
 70
   164
  1
<>
 71
     5
 42
2.286000000000002
  3
SLDDIMSTYLE0
100
AcDbRadialDimension
 15
85.51859354330787
 25
5.692212381962105
 35
0.0
 40
0.0
1001
ACAD
1000
DSTYLE
1002
{
1070
   273
1070
     2
1002
}
1001
ACAD_DSTYLE_DIMRADIAL_EXTENSION
1070
   387
1070
     1
1070
   388
1040
0.0
1070
   390
1040
1.653642085453486
  0
ENDSEC
  0
SECTION
  2
OBJECTS
  0
DICTIONARY
  5
C
330
0
100
AcDbDictionary
281
     1
  3
ACAD_GROUP
350
D
  3
ACAD_IMAGE_VARS
350
176
  3
ACAD_LAYOUT
350
1A
  3
ACAD_MLINESTYLE
350
17
  3
ACAD_PLOTSETTINGS
350
19
  3
ACAD_PLOTSTYLENAME
350
E
  3
ACAD_SCALELIST
350
47
  3
APPDATA
350
174
  3
DWGPROPS
350
19B
  0
DICTIONARY
  5
17A
330
179
100
AcDbDictionary
280
     1
281
     1
  0
DICTIONARY
  5
18F
330
18E
100
AcDbDictionary
280
     1
281
     1
  0
DICTIONARY
  5
D
102
{ACAD_REACTORS
330
C
102
}
330
C
100
AcDbDictionary
281
     1
  0
RASTERVARIABLES
  5
176
102
{ACAD_REACTORS
330
C
102
}
330
C
100
AcDbRasterVariables
 90
        0
 70
     1
 71
     1
 72
     1
  0
DICTIONARY
  5
1A
102
{ACAD_REACTORS
330
C
102
}
330
C
100
AcDbDictionary
281
     1
  3
Layout1
350
1E
  3
Layout2
350
26
  3
Model
350
22
  0
DICTIONARY
  5
17
102
{ACAD_REACTORS
330
C
102
}
330
C
100
AcDbDictionary
281
     1
  3
Standard
350
18
  0
DICTIONARY
  5
19
102
{ACAD_REACTORS
330
C
102
}
330
C
100
AcDbDictionary
281
     1
  0
ACDBDICTIONARYWDFLT
  5
E
102
{ACAD_REACTORS
330
C
102
}
330
C
100
AcDbDictionary
281
     1
  3
Normal
350
F
100
AcDbDictionaryWithDefault
340
F
  0
DICTIONARY
  5
47
102
{ACAD_REACTORS
330
C
102
}
330
C
100
AcDbDictionary
281
     1
  3
A0
350
48
  3
A1
350
49
  3
A2
350
4A
  3
A3
350
4B
  3
A4
350
4C
  3
A5
350
4D
  3
A6
350
4E
  3
A7
350
4F
  3
A8
350
50
  3
A9
350
51
  3
B0
350
52
  3
B1
350
53
  3
B2
350
54
  3
B3
350
55
  3
B4
350
56
  3
B5
350
57
  3
B6
350
58
  3
B7
350
59
  3
B8
350
5A
  3
B9
350
5B
  3
C0
350
5C
  3
C1
350
5D
  3
C2
350
5E
  3
C3
350
5F
  3
C4
350
60
  3
C5
350
61
  3
C6
350
62
  3
C7
350
63
  3
C8
350
64
  3
C9
350
65
  3
D0
350
66
  3
D1
350
67
  3
D2
350
68
  0
DICTIONARY
  5
174
102
{ACAD_REACTORS
330
C
102
}
330
C
100
AcDbDictionary
281
     1
  0
XRECORD
  5
19B
102
{ACAD_REACTORS
330
C
102
}
330
C
100
AcDbXrecord
280
     1
  1
DWGPROPS COOKIE
  2

  3

  4

  6

  7

  8
12016016
  9

300
=
301
=
302
=
303
=
304
=
305
=
306
=
307
=
308
=
309
=
 40
0.0
 41
2458236.370988599
 42
2458241.354148704
  1

 90
        0
  0
LAYOUT
  5
1E
102
{ACAD_REACTORS
330
1A
102
}
330
1A
100
AcDbPlotSettings
  1

  2
none_device
  4

  6

 40
0.0
 41
0.0
 42
0.0
 43
0.0
 44
0.0
 45
0.0
 46
0.0
 47
0.0
 48
0.0
 49
0.0
140
0.0
141
0.0
142
1.0
143
1.0
 70
   688
 72
     1
 73
     0
 74
     5
  7

 75
    16
147
1.0
148
0.0
149
0.0
100
AcDbLayout
  1
Layout1
 70
     1
 71
     1
 10
0.0
 20
0.0
 11
420.0
 21
297.0
 12
0.0
 22
0.0
 32
0.0
 14
1.000000000000000E+20
 24
1.000000000000000E+20
 34
1.000000000000000E+20
 15
-1.000000000000000E+20
 25
-1.000000000000000E+20
 35
-1.000000000000000E+20
146
0.0
 13
0.0
 23
0.0
 33
0.0
 16
1.0
 26
0.0
 36
0.0
 17
0.0
 27
1.0
 37
0.0
 76
     0
330
1B
  0
LAYOUT
  5
26
102
{ACAD_REACTORS
330
1A
102
}
330
1A
100
AcDbPlotSettings
  1

  2
none_device
  4

  6

 40
0.0
 41
0.0
 42
0.0
 43
0.0
 44
0.0
 45
0.0
 46
0.0
 47
0.0
 48
0.0
 49
0.0
140
0.0
141
0.0
142
1.0
143
1.0
 70
   688
 72
     1
 73
     0
 74
     5
  7

 75
    16
147
1.0
148
0.0
149
0.0
100
AcDbLayout
  1
Layout2
 70
     1
 71
     2
 10
0.0
 20
0.0
 11
0.0
 21
0.0
 12
0.0
 22
0.0
 32
0.0
 14
0.0
 24
0.0
 34
0.0
 15
0.0
 25
0.0
 35
0.0
146
0.0
 13
0.0
 23
0.0
 33
0.0
 16
1.0
 26
0.0
 36
0.0
 17
0.0
 27
1.0
 37
0.0
 76
     0
330
23
  0
LAYOUT
  5
22
102
{ACAD_REACTORS
330
1A
102
}
330
1A
100
AcDbPlotSettings
  1

  2
none_device
  4
ANSI_A_(11.00_x_8.50_Inches)
  6

 40
6.35
 41
19.05
 42
6.35000508
 43
19.05000254
 44
279.4
 45
215.9
 46
99.87631773931109
 47
89.85874249665527
 48
0.0
 49
0.0
140
0.0
141
0.0
142
0.0638941542253013
143
1.0
 70
  1696
 72
     0
 73
     0
 74
     0
  7

 75
     0
147
0.0235690232323232
148
0.0
149
0.0
100
AcDbLayout
  1
Model
 70
     1
 71
     0
 10
0.0
 20
0.0
 11
420.0
 21
297.0
 12
0.0
 22
0.0
 32
0.0
 14
-52.87004773547347
 24
-49.71142936356763
 34
0.0
 15
110.4220818735878
 25
43.38055141807178
 35
0.0
146
0.0
 13
0.0
 23
0.0
 33
0.0
 16
1.0
 26
0.0
 36
0.0
 17
0.0
 27
1.0
 37
0.0
 76
     0
330
1F
331
29
  0
MLINESTYLE
  5
18
102
{ACAD_REACTORS
330
17
102
}
330
17
100
AcDbMlineStyle
  2
Standard
 70
     0
  3

 62
   256
 51
90.0
 52
90.0
 71
     2
 49
0.5
 62
   256
  6
BYLAYER
 49
-0.5
 62
   256
  6
BYLAYER
  0
ACDBPLACEHOLDER
  5
F
102
{ACAD_REACTORS
330
E
102
}
330
E
  0
SCALE
  5
48
102
{ACAD_REACTORS
330
47
102
}
330
47
100
AcDbScale
 70
     0
300
1:1
140
1.0
141
1.0
290
     1
  0
SCALE
  5
49
102
{ACAD_REACTORS
330
47
102
}
330
47
100
AcDbScale
 70
     0
300
1:2
140
1.0
141
2.0
290
     0
  0
SCALE
  5
4A
102
{ACAD_REACTORS
330
47
102
}
330
47
100
AcDbScale
 70
     0
300
1:4
140
1.0
141
4.0
290
     0
  0
SCALE
  5
4B
102
{ACAD_REACTORS
330
47
102
}
330
47
100
AcDbScale
 70
     0
300
1:5
140
1.0
141
5.0
290
     0
  0
SCALE
  5
4C
102
{ACAD_REACTORS
330
47
102
}
330
47
100
AcDbScale
 70
     0
300
1:8
140
1.0
141
8.0
290
     0
  0
SCALE
  5
4D
102
{ACAD_REACTORS
330
47
102
}
330
47
100
AcDbScale
 70
     0
300
1:10
140
1.0
141
10.0
290
     0
  0
SCALE
  5
4E
102
{ACAD_REACTORS
330
47
102
}
330
47
100
AcDbScale
 70
     0
300
1:16
140
1.0
141
16.0
290
     0
  0
SCALE
  5
4F
102
{ACAD_REACTORS
330
47
102
}
330
47
100
AcDbScale
 70
     0
300
1:20
140
1.0
141
20.0
290
     0
  0
SCALE
  5
50
102
{ACAD_REACTORS
330
47
102
}
330
47
100
AcDbScale
 70
     0
300
1:30
140
1.0
141
30.0
290
     0
  0
SCALE
  5
51
102
{ACAD_REACTORS
330
47
102
}
330
47
100
AcDbScale
 70
     0
300
1:40
140
1.0
141
40.0
290
     0
  0
SCALE
  5
52
102
{ACAD_REACTORS
330
47
102
}
330
47
100
AcDbScale
 70
     0
300
1:50
140
1.0
141
50.0
290
     0
  0
SCALE
  5
53
102
{ACAD_REACTORS
330
47
102
}
330
47
100
AcDbScale
 70
     0
300
1:100
140
1.0
141
100.0
290
     0
  0
SCALE
  5
54
102
{ACAD_REACTORS
330
47
102
}
330
47
100
AcDbScale
 70
     0
300
2:1
140
2.0
141
1.0
290
     0
  0
SCALE
  5
55
102
{ACAD_REACTORS
330
47
102
}
330
47
100
AcDbScale
 70
     0
300
4:1
140
4.0
141
1.0
290
     0
  0
SCALE
  5
56
102
{ACAD_REACTORS
330
47
102
}
330
47
100
AcDbScale
 70
     0
300
8:1
140
8.0
141
1.0
290
     0
  0
SCALE
  5
57
102
{ACAD_REACTORS
330
47
102
}
330
47
100
AcDbScale
 70
     0
300
10:1
140
10.0
141
1.0
290
     0
  0
SCALE
  5
58
102
{ACAD_REACTORS
330
47
102
}
330
47
100
AcDbScale
 70
     0
300
100:1
140
100.0
141
1.0
290
     0
  0
SCALE
  5
59
102
{ACAD_REACTORS
330
47
102
}
330
47
100
AcDbScale
 70
     0
300
1/128" = 1'-0"
140
0.0078125
141
12.0
290
     0
  0
SCALE
  5
5A
102
{ACAD_REACTORS
330
47
102
}
330
47
100
AcDbScale
 70
     0
300
1/64" = 1'-0"
140
0.015625
141
12.0
290
     0
  0
SCALE
  5
5B
102
{ACAD_REACTORS
330
47
102
}
330
47
100
AcDbScale
 70
     0
300
1/32" = 1'-0"
140
0.03125
141
12.0
290
     0
  0
SCALE
  5
5C
102
{ACAD_REACTORS
330
47
102
}
330
47
100
AcDbScale
 70
     0
300
1/16" = 1'-0"
140
0.0625
141
12.0
290
     0
  0
SCALE
  5
5D
102
{ACAD_REACTORS
330
47
102
}
330
47
100
AcDbScale
 70
     0
300
3/32" = 1'-0"
140
0.09375
141
12.0
290
     0
  0
SCALE
  5
5E
102
{ACAD_REACTORS
330
47
102
}
330
47
100
AcDbScale
 70
     0
300
1/8" = 1'-0"
140
0.125
141
12.0
290
     0
  0
SCALE
  5
5F
102
{ACAD_REACTORS
330
47
102
}
330
47
100
AcDbScale
 70
     0
300
3/16" = 1'-0"
140
0.1875
141
12.0
290
     0
  0
SCALE
  5
60
102
{ACAD_REACTORS
330
47
102
}
330
47
100
AcDbScale
 70
     0
300
1/4" = 1'-0"
140
0.25
141
12.0
290
     0
  0
SCALE
  5
61
102
{ACAD_REACTORS
330
47
102
}
330
47
100
AcDbScale
 70
     0
300
3/8" = 1'-0"
140
0.375
141
12.0
290
     0
  0
SCALE
  5
62
102
{ACAD_REACTORS
330
47
102
}
330
47
100
AcDbScale
 70
     0
300
1/2" = 1'-0"
140
0.5
141
12.0
290
     0
  0
SCALE
  5
63
102
{ACAD_REACTORS
330
47
102
}
330
47
100
AcDbScale
 70
     0
300
3/4" = 1'-0"
140
0.75
141
12.0
290
     0
  0
SCALE
  5
64
102
{ACAD_REACTORS
330
47
102
}
330
47
100
AcDbScale
 70
     0
300
1" = 1'-0"
140
1.0
141
12.0
290
     0
  0
SCALE
  5
65
102
{ACAD_REACTORS
330
47
102
}
330
47
100
AcDbScale
 70
     0
300
1-1/2" = 1'-0"
140
1.5
141
12.0
290
     0
  0
SCALE
  5
66
102
{ACAD_REACTORS
330
47
102
}
330
47
100
AcDbScale
 70
     0
300
3" = 1'-0"
140
3.0
141
12.0
290
     0
  0
SCALE
  5
67
102
{ACAD_REACTORS
330
47
102
}
330
47
100
AcDbScale
 70
     0
300
6" = 1'-0"
140
6.0
141
12.0
290
     0
  0
SCALE
  5
68
102
{ACAD_REACTORS
330
47
102
}
330
47
100
AcDbScale
 70
     0
300
1'-0" = 1'-0"
140
12.0
141
12.0
290
     0
  0
ENDSEC
  0
EOF
