  0
SECTION
  2
HEADER
  9
$ACADVER
  1
AC1015
  9
$ACADMAINTVER
 70
     6
  9
$DWGCODEPAGE
  3
ANSI_949
  9
$INSBASE
 10
0.0
 20
0.0
 30
0.0
  9
$EXTMIN
 10
-55.36332805105504
 20
-49.71142936356763
 30
0.0
  9
$EXTMAX
 10
123.9949591039995
 20
43.38055141807179
 30
0.0
  9
$LIMMIN
 10
0.0
 20
0.0
  9
$LIMMAX
 10
420.0
 20
297.0
  9
$ORTHOMODE
 70
     1
  9
$REGENMODE
 70
     1
  9
$FILLMODE
 70
     1
  9
$QTEXTMODE
 70
     0
  9
$MIRRTEXT
 70
     1
  9
$LTSCALE
 40
1.0
  9
$ATTMODE
 70
     1
  9
$TEXTSIZE
 40
3.5
  9
$TRACEWID
 40
1.0
  9
$TEXTSTYLE
  7
Standard
  9
$CLAYER
  8
0
  9
$CELTYPE
  6
ByLayer
  9
$CECOLOR
 62
   256
  9
$CELTSCALE
 40
1.0
  9
$DISPSILH
 70
     0
  9
$DIMSCALE
 40
1.0
  9
$DIMASZ
 40
3.302
  9
$DIMEXO
 40
1.0
  9
$DIMDLI
 40
3.75
  9
$DIMRND
 40
0.0
  9
$DIMDLE
 40
0.0
  9
$DIMEXE
 40
1.0
  9
$DIMTP
 40
0.0
  9
$DIMTM
 40
0.0
  9
$DIMTXT
 40
3.5
  9
$DIMCEN
 40
2.5
  9
$DIMTSZ
 40
0.0
  9
$DIMTOL
 70
     0
  9
$DIMLIM
 70
     0
  9
$DIMTIH
 70
     1
  9
$DIMTOH
 70
     1
  9
$DIMSE1
 70
     0
  9
$DIMSE2
 70
     0
  9
$DIMTAD
 70
     1
  9
$DIMZIN
 70
     0
  9
$DIMBLK
  1

  9
$DIMASO
 70
     1
  9
$DIMSHO
 70
     1
  9
$DIMPOST
  1

  9
$DIMAPOST
  1

  9
$DIMALT
 70
     0
  9
$DIMALTD
 70
     3
  9
$DIMALTF
 40
0.0393700787401575
  9
$DIMLFAC
 40
1.0
  9
$DIMTOFL
 70
     1
  9
$DIMTVP
 40
0.0
  9
$DIMTIX
 70
     0
  9
$DIMSOXD
 70
     0
  9
$DIMSAH
 70
     0
  9
$DIMBLK1
  1

  9
$DIMBLK2
  1

  9
$DIMSTYLE
  2
ISO-25
  9
$DIMCLRD
 70
     0
  9
$DIMCLRE
 70
     0
  9
$DIMCLRT
 70
     0
  9
$DIMTFAC
 40
1.0
  9
$DIMGAP
 40
1.524
  9
$DIMJUST
 70
     0
  9
$DIMSD1
 70
     0
  9
$DIMSD2
 70
     0
  9
$DIMTOLJ
 70
     0
  9
$DIMTZIN
 70
     0
  9
$DIMALTZ
 70
     0
  9
$DIMALTTZ
 70
     0
  9
$DIMUPT
 70
     0
  9
$DIMDEC
 70
     2
  9
$DIMTDEC
 70
     2
  9
$DIMALTU
 70
     2
  9
$DIMALTTD
 70
     3
  9
$DIMTXSTY
  7
Standard
  9
$DIMAUNIT
 70
     0
  9
$DIMADEC
 70
     2
  9
$DIMALTRND
 40
0.0
  9
$DIMAZIN
 70
     0
  9
$DIMDSEP
 70
    44
  9
$DIMATFIT
 70
     3
  9
$DIMFRAC
 70
     0
  9
$DIMLDRBLK
  1

  9
$DIMLUNIT
 70
     2
  9
$DIMLWD
 70
    -2
  9
$DIMLWE
 70
    -2
  9
$DIMTMOVE
 70
     0
  9
$LUNITS
 70
     2
  9
$LUPREC
 70
     2
  9
$SKETCHINC
 40
1.0
  9
$FILLETRAD
 40
10.0
  9
$AUNITS
 70
     0
  9
$AUPREC
 70
     2
  9
$MENU
  1
.
  9
$ELEVATION
 40
0.0
  9
$PELEVATION
 40
0.0
  9
$THICKNESS
 40
0.0
  9
$LIMCHECK
 70
     0
  9
$CHAMFERA
 40
0.0
  9
$CHAMFERB
 40
0.0
  9
$CHAMFERC
 40
0.0
  9
$CHAMFERD
 40
0.0
  9
$SKPOLY
 70
     0
  9
$TDCREATE
 40
2458236.745517257
  9
$TDUCREATE
 40
2458236.370517257
  9
$TDUPDATE
 40
2459683.801625289
  9
$TDUUPDATE
 40
2459683.426625289
  9
$TDINDWG
 40
0.0060998495
  9
$TDUSRTIMER
 40
0.0030644329
  9
$USRTIMER
 70
     1
  9
$ANGBASE
 50
0.0
  9
$ANGDIR
 70
     0
  9
$PDMODE
 70
     0
  9
$PDSIZE
 40
-1.0
  9
$PLINEWID
 40
0.0
  9
$SPLFRAME
 70
     0
  9
$SPLINETYPE
 70
     6
  9
$SPLINESEGS
 70
     8
  9
$HANDSEED
  5
1F9
  9
$SURFTAB1
 70
     6
  9
$SURFTAB2
 70
     6
  9
$SURFTYPE
 70
     6
  9
$SURFU
 70
     6
  9
$SURFV
 70
     6
  9
$UCSBASE
  2

  9
$UCSNAME
  2

  9
$UCSORG
 10
0.0
 20
0.0
 30
0.0
  9
$UCSXDIR
 10
1.0
 20
0.0
 30
0.0
  9
$UCSYDIR
 10
0.0
 20
1.0
 30
0.0
  9
$UCSORTHOREF
  2

  9
$UCSORTHOVIEW
 70
     0
  9
$UCSORGTOP
 10
0.0
 20
0.0
 30
0.0
  9
$UCSORGBOTTOM
 10
0.0
 20
0.0
 30
0.0
  9
$UCSORGLEFT
 10
0.0
 20
0.0
 30
0.0
  9
$UCSORGRIGHT
 10
0.0
 20
0.0
 30
0.0
  9
$UCSORGFRONT
 10
0.0
 20
0.0
 30
0.0
  9
$UCSORGBACK
 10
0.0
 20
0.0
 30
0.0
  9
$PUCSBASE
  2

  9
$PUCSNAME
  2

  9
$PUCSORG
 10
0.0
 20
0.0
 30
0.0
  9
$PUCSXDIR
 10
1.0
 20
0.0
 30
0.0
  9
$PUCSYDIR
 10
0.0
 20
1.0
 30
0.0
  9
$PUCSORTHOREF
  2

  9
$PUCSORTHOVIEW
 70
     0
  9
$PUCSORGTOP
 10
0.0
 20
0.0
 30
0.0
  9
$PUCSORGBOTTOM
 10
0.0
 20
0.0
 30
0.0
  9
$PUCSORGLEFT
 10
0.0
 20
0.0
 30
0.0
  9
$PUCSORGRIGHT
 10
0.0
 20
0.0
 30
0.0
  9
$PUCSORGFRONT
 10
0.0
 20
0.0
 30
0.0
  9
$PUCSORGBACK
 10
0.0
 20
0.0
 30
0.0
  9
$USERI1
 70
     0
  9
$USERI2
 70
     0
  9
$USERI3
 70
     0
  9
$USERI4
 70
     0
  9
$USERI5
 70
     0
  9
$USERR1
 40
0.0
  9
$USERR2
 40
0.0
  9
$USERR3
 40
0.0
  9
$USERR4
 40
0.0
  9
$USERR5
 40
0.0
  9
$WORLDVIEW
 70
     1
  9
$SHADEDGE
 70
     3
  9
$SHADEDIF
 70
    70
  9
$TILEMODE
 70
     1
  9
$MAXACTVP
 70
    64
  9
$PINSBASE
 10
0.0
 20
0.0
 30
0.0
  9
$PLIMCHECK
 70
     0
  9
$PEXTMIN
 10
1.000000000000000E+20
 20
1.000000000000000E+20
 30
1.000000000000000E+20
  9
$PEXTMAX
 10
-1.000000000000000E+20
 20
-1.000000000000000E+20
 30
-1.000000000000000E+20
  9
$PLIMMIN
 10
0.0
 20
0.0
  9
$PLIMMAX
 10
0.0
 20
0.0
  9
$UNITMODE
 70
     0
  9
$VISRETAIN
 70
     1
  9
$PLINEGEN
 70
     0
  9
$PSLTSCALE
 70
     1
  9
$TREEDEPTH
 70
  3020
  9
$CMLSTYLE
  2
Standard
  9
$CMLJUST
 70
     0
  9
$CMLSCALE
 40
20.0
  9
$PROXYGRAPHICS
 70
     1
  9
$MEASUREMENT
 70
     1
  9
$CELWEIGHT
370
    -1
  9
$ENDCAPS
280
     0
  9
$JOINSTYLE
280
     0
  9
$LWDISPLAY
290
     1
  9
$INSUNITS
 70
     4
  9
$HYPERLINKBASE
  1

  9
$STYLESHEET
  1

  9
$XEDIT
290
     1
  9
$CEPSNTYPE
380
     0
  9
$PSTYLEMODE
290
     1
  9
$FINGERPRINTGUID
  2
{2B5DFE8A-7A90-4F1C-8F0F-AAE85984BBF4}
  9
$VERSIONGUID
  2
{FAEB1C32-E019-11D5-929B-00C0DF256EC4}
  9
$EXTNAMES
290
     1
  9
$PSVPSCALE
 40
0.0
  9
$OLESTARTUP
290
     0
  0
ENDSEC
  0
SECTION
  2
CLASSES
  0
CLASS
  1
ACDBDICTIONARYWDFLT
  2
AcDbDictionaryWithDefault
  3
ObjectDBX Classes
 90
        0
280
     0
281
     0
  0
CLASS
  1
VISUALSTYLE
  2
AcDbVisualStyle
  3
ObjectDBX Classes
 90
     4095
280
     0
281
     0
  0
CLASS
  1
MATERIAL
  2
AcDbMaterial
  3
ObjectDBX Classes
 90
     1153
280
     0
281
     0
  0
CLASS
  1
SCALE
  2
AcDbScale
  3
ObjectDBX Classes
 90
     1153
280
     0
281
     0
  0
CLASS
  1
SUN
  2
AcDbSun
  3
SCENEOE
 90
     1153
280
     0
281
     0
  0
CLASS
  1
ACDBPLACEHOLDER
  2
AcDbPlaceHolder
  3
ObjectDBX Classes
 90
        0
280
     0
281
     0
  0
CLASS
  1
LAYOUT
  2
AcDbLayout
  3
ObjectDBX Classes
 90
        0
280
     0
281
     0
  0
CLASS
  1
TABLESTYLE
  2
AcDbTableStyle
  3
ObjectDBX Classes
 90
     4095
280
     0
281
     0
  0
CLASS
  1
MLEADERSTYLE
  2
AcDbMLeaderStyle
  3
ACDB_MLEADERSTYLE_CLASS
 90
     4095
280
     0
281
     0
  0
CLASS
  1
RASTERVARIABLES
  2
AcDbRasterVariables
  3
ISM
 90
        0
280
     0
281
     0
  0
CLASS
  1
DIMASSOC
  2
AcDbDimAssoc
  3
"AcDbDimAssoc|Product Desc:     AcDim ARX App For Dimension|Company:          Autodesk, Inc.|WEB Address:      www.autodesk.com"
 90
        0
280
     0
281
     0
  0
CLASS
  1
BREAKDATA
  2
AcDbBreakData
  3
ObjectDBX Classes
 90
     1024
280
     0
281
     0
  0
ENDSEC
  0
SECTION
  2
TABLES
  0
TABLE
  2
VPORT
  5
8
330
0
100
AcDbSymbolTable
 70
     1
  0
VPORT
  5
29
330
8
100
AcDbSymbolTableRecord
100
AcDbViewportTableRecord
  2
*Active
 70
     0
 10
0.0
 20
0.0
 11
1.0
 21
1.0
 12
-19.67143460655481
 22
43.22487770060359
 13
0.0
 23
0.0
 14
10.0
 24
10.0
 15
10.0
 25
10.0
 16
0.0
 26
0.0
 36
1.0
 17
0.0
 27
0.0
 37
0.0
 40
321.1260082646709
 41
1.326295585412668
 42
50.0
 43
0.0
 44
0.0
 50
0.0
 51
0.0
 71
    16
 72
  2000
 73
     1
 74
     3
 75
     0
 76
     0
 77
     0
 78
     0
281
     0
 65
     1
110
0.0
120
0.0
130
0.0
111
1.0
121
0.0
131
0.0
112
0.0
122
1.0
132
0.0
 79
     0
146
0.0
  0
ENDTAB
  0
TABLE
  2
LTYPE
  5
5
330
0
100
AcDbSymbolTable
 70
     6
  0
LTYPE
  5
14
330
5
100
AcDbSymbolTableRecord
100
AcDbLinetypeTableRecord
  2
ByBlock
 70
     0
  3

 72
    65
 73
     0
 40
0.0
  0
LTYPE
  5
15
330
5
100
AcDbSymbolTableRecord
100
AcDbLinetypeTableRecord
  2
ByLayer
 70
     0
  3

 72
    65
 73
     0
 40
0.0
  0
LTYPE
  5
16
330
5
100
AcDbSymbolTableRecord
100
AcDbLinetypeTableRecord
  2
Continuous
 70
     0
  3
Solid line
 72
    65
 73
     0
 40
0.0
  0
LTYPE
  5
6A
330
5
100
AcDbSymbolTableRecord
100
AcDbLinetypeTableRecord
  2
HIDDEN
 70
     0
  3
Hidden __ __ __ __ __ __ __ __ __ __ __ __ __ __
 72
    65
 73
     2
 40
1.905
 49
1.27
 74
     0
 49
-0.635
 74
     0
  0
LTYPE
  5
6B
330
5
100
AcDbSymbolTableRecord
100
AcDbLinetypeTableRecord
  2
PHANTOM
 70
     0
  3
Phantom ______  __  __  ______  __  __  ______
 72
    65
 73
     6
 40
12.7
 49
6.35
 74
     0
 49
-1.27
 74
     0
 49
1.27
 74
     0
 49
-1.27
 74
     0
 49
1.27
 74
     0
 49
-1.27
 74
     0
  0
LTYPE
  5
6C
330
5
100
AcDbSymbolTableRecord
100
AcDbLinetypeTableRecord
  2
CENTER
 70
     0
  3
Center ____ _ ____ _ ____ _ ____ _ ____ _ ____
 72
    65
 73
     4
 40
10.16
 49
6.35
 74
     0
 49
-1.27
 74
     0
 49
1.27
 74
     0
 49
-1.27
 74
     0
  0
LTYPE
  5
6D
330
5
100
AcDbSymbolTableRecord
100
AcDbLinetypeTableRecord
  2
CENTERX2
 70
     0
  3
Center (2x) ________  __  ________  __  _____
 72
    65
 73
     4
 40
20.32
 49
12.7
 74
     0
 49
-2.54
 74
     0
 49
2.54
 74
     0
 49
-2.54
 74
     0
  0
LTYPE
  5
6E
330
5
100
AcDbSymbolTableRecord
100
AcDbLinetypeTableRecord
  2
DOT2
 70
     0
  3
Dot (.5x) ........................................
 72
    65
 73
     2
 40
0.635
 49
0.0
 74
     0
 49
-0.635
 74
     0
  0
ENDTAB
  0
TABLE
  2
LAYER
  5
2
330
0
100
AcDbSymbolTable
 70
    17
  0
LAYER
  5
10
330
2
100
AcDbSymbolTableRecord
100
AcDbLayerTableRecord
  2
0
 70
     0
 62
     7
  6
Continuous
370
    -3
390
F
  0
LAYER
  5
6F
330
2
100
AcDbSymbolTableRecord
100
AcDbLayerTableRecord
  2
FORMAT
 70
     0
 62
     2
  6
Continuous
370
    -3
390
F
  0
LAYER
  5
70
330
2
100
AcDbSymbolTableRecord
100
AcDbLayerTableRecord
  2
외형선
 70
     0
 62
   100
  6
Continuous
370
    30
390
F
  0
LAYER
  5
71
330
2
100
AcDbSymbolTableRecord
100
AcDbLayerTableRecord
  2
숨은선
 70
     0
 62
     2
  6
HIDDEN
370
    15
390
F
  0
LAYER
  5
72
330
2
100
AcDbSymbolTableRecord
100
AcDbLayerTableRecord
  2
중심선
 70
     0
 62
     1
  6
CENTERX2
370
    -3
390
F
  0
LAYER
  5
73
330
2
100
AcDbSymbolTableRecord
100
AcDbLayerTableRecord
  2
파단선
 70
     0
 62
     4
  6
Continuous
370
    -3
390
F
  0
LAYER
  5
74
330
2
100
AcDbSymbolTableRecord
100
AcDbLayerTableRecord
  2
해칭선
 70
     0
 62
     4
  6
Continuous
370
    -3
390
F
  0
LAYER
  5
75
330
2
100
AcDbSymbolTableRecord
100
AcDbLayerTableRecord
  2
가는실선
 70
     0
 62
     4
  6
Continuous
370
    -3
390
F
  0
LAYER
  5
76
330
2
100
AcDbSymbolTableRecord
100
AcDbLayerTableRecord
  2
치수_보조선
 70
     0
 62
     4
  6
Continuous
370
    -3
390
F
  0
LAYER
  5
77
330
2
100
AcDbSymbolTableRecord
100
AcDbLayerTableRecord
  2
치수문자_일반주서
 70
     0
 62
     7
  6
Continuous
370
    15
390
F
  0
LAYER
  5
78
330
2
100
AcDbSymbolTableRecord
100
AcDbLayerTableRecord
  2
개별주서
 70
     0
 62
   100
  6
Continuous
370
    30
390
F
  0
LAYER
  5
79
330
2
100
AcDbSymbolTableRecord
100
AcDbLayerTableRecord
  2
중간선
 70
     0
 62
     2
  6
Continuous
370
    15
390
F
  0
LAYER
  5
7A
330
2
100
AcDbSymbolTableRecord
100
AcDbLayerTableRecord
  2
윤곽선
 70
     0
 62
     3
  6
Continuous
370
    40
390
F
  0
LAYER
  5
7B
330
2
100
AcDbSymbolTableRecord
100
AcDbLayerTableRecord
  2
중심마크
 70
     0
 62
   100
  6
Continuous
370
    30
390
F
  0
LAYER
  5
7C
330
2
100
AcDbSymbolTableRecord
100
AcDbLayerTableRecord
  2
가상선
 70
     0
 62
     4
  6
PHANTOM
370
    -3
390
F
  0
LAYER
  5
7D
330
2
100
AcDbSymbolTableRecord
100
AcDbLayerTableRecord
  2
특수지정선
 70
     0
 62
     5
  6
CENTERX2
370
    60
390
F
  0
LAYER
  5
176
330
2
100
AcDbSymbolTableRecord
100
AcDbLayerTableRecord
  2
Defpoints
 70
     0
 62
     7
  6
Continuous
290
     0
370
    -3
390
F
  0
ENDTAB
  0
TABLE
  2
STYLE
  5
3
330
0
100
AcDbSymbolTable
 70
     2
  0
STYLE
  5
11
330
3
100
AcDbSymbolTableRecord
100
AcDbTextStyleTableRecord
  2
Standard
 70
     0
 40
0.0
 41
1.0
 50
0.0
 71
     0
 42
3.5
  3
txt
  4

  0
STYLE
  5
93
330
3
100
AcDbSymbolTableRecord
100
AcDbTextStyleTableRecord
  2
SLDTEXTSTYLE0
 70
     0
 40
0.0
 41
0.75
 50
0.0
 71
     0
 42
3.5
  3
TXT
  4

  0
ENDTAB
  0
TABLE
  2
VIEW
  5
6
330
0
100
AcDbSymbolTable
 70
     0
  0
ENDTAB
  0
TABLE
  2
UCS
  5
7
330
0
100
AcDbSymbolTable
 70
     0
  0
ENDTAB
  0
TABLE
  2
APPID
  5
9
330
0
100
AcDbSymbolTable
 70
     6
  0
APPID
  5
12
330
9
100
AcDbSymbolTableRecord
100
AcDbRegAppTableRecord
  2
ACAD
 70
     0
  0
APPID
  5
188
330
9
100
AcDbSymbolTableRecord
100
AcDbRegAppTableRecord
  2
PE_DIMMEASUREMENT
 70
     0
  0
APPID
  5
189
330
9
100
AcDbSymbolTableRecord
100
AcDbRegAppTableRecord
  2
ACAD_DSTYLE_DIMRADIAL_EXTENSION
 70
     0
  0
APPID
  5
1C3
330
9
100
AcDbSymbolTableRecord
100
AcDbRegAppTableRecord
  2
ENABLE_CUSTOM_SPLIT
 70
     0
  0
APPID
  5
1F2
330
9
100
AcDbSymbolTableRecord
100
AcDbRegAppTableRecord
  2
FX_DIMP_FAV_VERSION
 70
     0
  0
APPID
  5
1F4
330
9
100
AcDbSymbolTableRecord
100
AcDbRegAppTableRecord
  2
FX_DIMP_RECENT_VERSION
 70
     0
  0
ENDTAB
  0
TABLE
  2
DIMSTYLE
  5
A
330
0
100
AcDbSymbolTable
 70
     5
100
AcDbDimStyleTable
  0
DIMSTYLE
105
27
102
{ACAD_REACTORS
330
1E4
102
}
330
A
100
AcDbSymbolTableRecord
100
AcDbDimStyleTableRecord
  2
ISO-25
 70
     0
 41
2.5
 42
0.625
 43
3.75
 44
1.25
 73
     0
 74
     0
 77
     1
 78
     8
140
2.5
141
2.5
143
0.03937007874016
147
0.625
171
     3
172
     1
178
     0
271
     2
272
     2
274
     3
278
    44
283
     0
284
     8
340
11
  0
DIMSTYLE
105
FE
102
{ACAD_REACTORS
330
FD
102
}
330
A
100
AcDbSymbolTableRecord
100
AcDbDimStyleTableRecord
  2
SLDDIMSTYLE0
 70
     0
 41
3.302
 44
0.0
 45
0.000000001
 73
     0
 74
     0
 77
     1
 78
    12
 79
     3
140
3.5
143
0.0393700787401575
147
0.875
148
0.000000001
170
     1
172
     1
173
     1
178
     0
271
     2
272
     2
276
     2
284
    12
289
     0
340
93
  0
DIMSTYLE
105
113
102
{ACAD_REACTORS
330
112
102
}
330
A
100
AcDbSymbolTableRecord
100
AcDbDimStyleTableRecord
  2
SLDDIMSTYLE1
 70
     0
 41
3.302
 44
0.0
 45
0.000000001
 73
     0
 74
     0
 77
     1
 78
    12
 79
     3
140
3.5
143
0.0393700787401575
147
0.875
148
0.000000001
170
     1
173
     1
178
     0
271
     2
272
     2
276
     2
284
    12
340
93
  0
DIMSTYLE
105
127
102
{ACAD_REACTORS
330
126
330
177
102
}
330
A
100
AcDbSymbolTableRecord
100
AcDbDimStyleTableRecord
  2
SLDDIMSTYLE2
 70
     0
 41
3.302
 44
0.0
 45
0.000000001
 73
     0
 74
     0
 77
     1
 78
     4
 79
     1
140
3.5
143
0.0393700787401575
147
0.875
148
0.000000001
170
     1
173
     1
178
     0
271
     2
272
     2
276
     2
284
    12
340
93
  0
DIMSTYLE
105
13B
330
A
100
AcDbSymbolTableRecord
100
AcDbDimStyleTableRecord
  2
SLDDIMSTYLE3
 70
     0
 41
3.302
 44
0.0
 45
0.000000001
 73
     0
 74
     0
 77
     1
 78
     8
 79
     2
140
3.5
143
0.0393700787401575
147
0.875
148
0.000000001
170
     1
172
     1
173
     1
178
     0
271
     2
272
     2
276
     2
284
    12
289
     0
340
93
341
13C
343
13C
344
13C
  0
ENDTAB
  0
TABLE
  2
BLOCK_RECORD
  5
1
330
0
100
AcDbSymbolTable
 70
    11
  0
BLOCK_RECORD
  5
1F
102
{ACAD_XDICTIONARY
360
1F6
102
}
330
1
100
AcDbSymbolTableRecord
100
AcDbBlockTableRecord
  2
*Model_Space
340
22
  0
BLOCK_RECORD
  5
1B
330
1
100
AcDbSymbolTableRecord
100
AcDbBlockTableRecord
  2
*Paper_Space
340
1E
  0
BLOCK_RECORD
  5
23
330
1
100
AcDbSymbolTableRecord
100
AcDbBlockTableRecord
  2
*Paper_Space0
340
26
  0
BLOCK_RECORD
  5
7E
330
1
100
AcDbSymbolTableRecord
100
AcDbBlockTableRecord
  2
블럭10
340
0
102
{BLKREFS
331
F5
102
}
  0
BLOCK_RECORD
  5
FF
330
1
100
AcDbSymbolTableRecord
100
AcDbBlockTableRecord
  2
_D
340
0
  0
BLOCK_RECORD
  5
114
330
1
100
AcDbSymbolTableRecord
100
AcDbBlockTableRecord
  2
_D_1
340
0
  0
BLOCK_RECORD
  5
128
330
1
100
AcDbSymbolTableRecord
100
AcDbBlockTableRecord
  2
_D_2
340
0
  0
BLOCK_RECORD
  5
13C
330
1
100
AcDbSymbolTableRecord
100
AcDbBlockTableRecord
  2
_NONE
340
0
  0
BLOCK_RECORD
  5
13F
330
1
100
AcDbSymbolTableRecord
100
AcDbBlockTableRecord
  2
_D_3
340
0
  0
BLOCK_RECORD
  5
14B
330
1
100
AcDbSymbolTableRecord
100
AcDbBlockTableRecord
  2
SW_DOWELSYMBOL_0
340
0
102
{BLKREFS
331
151
102
}
  0
BLOCK_RECORD
  5
17A
330
1
100
AcDbSymbolTableRecord
100
AcDbBlockTableRecord
  2
*D8
340
0
  0
BLOCK_RECORD
  5
194
330
1
100
AcDbSymbolTableRecord
100
AcDbBlockTableRecord
  2
*D9
340
0
  0
BLOCK_RECORD
  5
1E7
330
1
100
AcDbSymbolTableRecord
100
AcDbBlockTableRecord
  2
*D11
340
0
  0
ENDTAB
  0
ENDSEC
  0
SECTION
  2
BLOCKS
  0
BLOCK
  5
20
330
1F
100
AcDbEntity
  8
0
100
AcDbBlockBegin
  2
*Model_Space
 70
     0
 10
0.0
 20
0.0
 30
0.0
  3
*Model_Space
  1
*Model_Space
  0
ENDBLK
  5
21
330
1F
100
AcDbEntity
  8
0
100
AcDbBlockEnd
  0
BLOCK
  5
1C
330
1B
100
AcDbEntity
 67
     1
  8
0
100
AcDbBlockBegin
  2
*Paper_Space
 70
     0
 10
0.0
 20
0.0
 30
0.0
  3
*Paper_Space
  1
*Paper_Space
  0
ENDBLK
  5
1D
330
1B
100
AcDbEntity
 67
     1
  8
0
100
AcDbBlockEnd
  0
BLOCK
  5
24
330
23
100
AcDbEntity
  8
0
100
AcDbBlockBegin
  2
*Paper_Space0
 70
     0
 10
0.0
 20
0.0
 30
0.0
  3
*Paper_Space0
  1
*Paper_Space0
  0
ENDBLK
  5
25
330
23
100
AcDbEntity
  8
0
100
AcDbBlockEnd
  0
BLOCK
  5
7F
330
7E
100
AcDbEntity
  8
0
100
AcDbBlockBegin
  2
블럭10
 70
     2
 10
0.0
 20
0.0
 30
0.0
  3
블럭10
  1
블럭10
  0
ELLIPSE
  5
81
330
7E
100
AcDbEntity
  8
중심선
100
AcDbEllipse
 10
20.54032771741204
 20
12.0471743016438
 30
0.0
 11
6.600054785286829
 21
-1.261213355974178E-13
 31
0.0
210
0.0
220
0.0
230
1.0
 40
0.636358354079598
 41
0.9219305317359503
 42
6.513795318482858
  0
ELLIPSE
  5
82
330
7E
100
AcDbEntity
  8
중심선
100
AcDbEllipse
 10
20.54032771746488
 20
12.04717430159265
 30
0.0
 11
3.960054785062283
 21
1.540847449632565E-10
 31
0.0
210
0.0
220
0.0
230
1.0
 40
0.3939339440162632
 41
1.131841032648279
 42
5.62031148352944
  0
LINE
  5
83
330
7E
100
AcDbEntity
  8
중심선
100
AcDbLine
 10
2.268634060543552
 20
16.24717430164393
 30
0.0
 11
5.714909304380834
 21
16.24717430164393
 31
0.0
  0
LINE
  5
84
330
7E
100
AcDbEntity
  8
중심선
100
AcDbLine
 10
5.245725140726316
 20
7.84717430164391
 30
0.0
 11
8.692000384563599
 21
7.84717430164391
 31
0.0
  0
LINE
  5
85
330
7E
100
AcDbEntity
  8
중심선
100
AcDbLine
 10
15.74043728645272
 20
16.24717430164393
 30
0.0
 11
8.692000384563599
 21
7.84717430164391
 31
0.0
  0
LINE
  5
86
330
7E
100
AcDbEntity
  8
중심선
100
AcDbLine
 10
0.1404042013395286
 20
13.71084872107135
 30
0.0
 11
3.58671253028996
 21
13.71088815037384
 31
0.0
  0
LINE
  5
87
330
7E
100
AcDbEntity
  8
중심선
100
AcDbLine
 10
2.750260043222114
 20
10.84717430164391
 30
0.0
 11
6.196535287059397
 21
10.84717430164391
 31
0.0
  0
LINE
  5
88
330
7E
100
AcDbEntity
  8
중심선
100
AcDbLine
 10
12.29416204261559
 20
16.24717430164393
 30
0.0
 11
5.245725140726316
 21
7.84717430164391
 31
0.0
  0
LINE
  5
89
330
7E
100
AcDbEntity
  8
중심선
100
AcDbLine
 10
10.72767329541681
 20
16.24717430164393
 30
0.0
 11
6.196535287059397
 21
10.84717430164391
 31
0.0
  0
LINE
  5
8A
330
7E
100
AcDbEntity
  8
중심선
100
AcDbLine
 10
7.28139805157953
 20
16.24717430164393
 30
0.0
 11
2.750260043222114
 21
10.84717430164391
 31
0.0
  0
LINE
  5
8B
330
7E
100
AcDbEntity
  8
중심선
100
AcDbLine
 10
5.714909304380834
 20
16.24717430164393
 30
0.0
 11
3.58671253028996
 21
13.71088815037384
 31
0.0
  0
LINE
  5
8C
330
7E
100
AcDbEntity
  8
중심선
100
AcDbLine
 10
2.268634060543552
 20
16.24717430164393
 30
0.0
 11
0.1404042013395286
 21
13.71084872107135
 31
0.0
  0
LINE
  5
8D
330
7E
100
AcDbEntity
  8
중심선
100
AcDbLine
 10
7.28139805157953
 20
16.24717430164393
 30
0.0
 11
10.72767329541681
 21
16.24717430164393
 31
0.0
  0
LINE
  5
8E
330
7E
100
AcDbEntity
  8
중심선
100
AcDbLine
 10
12.29416204261559
 20
16.24717430164393
 30
0.0
 11
15.74043728645272
 21
16.24717430164393
 31
0.0
  0
LINE
  5
8F
330
7E
100
AcDbEntity
  8
중심선
100
AcDbLine
 10
19.22036997980202
 20
11.08717430171403
 30
0.0
 11
23.66174974927406
 21
11.08717430171406
 31
0.0
  0
LINE
  5
90
330
7E
100
AcDbEntity
  8
중심선
100
AcDbLine
 10
19.22039502424796
 20
13.00717430171391
 30
0.0
 11
19.22036997980202
 21
11.08717430171403
 31
0.0
  0
LINE
  5
91
330
7E
100
AcDbEntity
  8
중심선
100
AcDbLine
 10
19.22039502424796
 20
13.00717430171391
 30
0.0
 11
26.96566020931264
 21
13.00717430171391
 31
0.0
  0
LINE
  5
92
330
7E
100
AcDbEntity
  8
중심선
100
AcDbLine
 10
22.22332737316547
 20
13.45928029700563
 30
0.0
 11
24.52862924686651
 21
15.39360700705356
 31
0.0
  0
ATTDEF
  5
94
330
7E
100
AcDbEntity
  8
FORMAT
 62
     2
100
AcDbText
 10
-11.05102035218446
 20
2.075366912832191
 30
0.0
 40
4.233333333333333
  1
GMG22927[ 6 FLUTE ]
 41
0.75
  7
SLDTEXTSTYLE0
 11
-11.05102035218446
 21
-0.0412997538344756
 31
0.0
100
AcDbAttributeDefinition
  3

  2
AUTOATTR0
 70
     0
 74
     1
  0
ENDBLK
  5
80
330
7E
100
AcDbEntity
  8
0
100
AcDbBlockEnd
  0
BLOCK
  5
100
330
FF
100
AcDbEntity
  8
0
100
AcDbBlockBegin
  2
_D
 70
     0
 10
0.0
 20
0.0
 30
0.0
  3
_D
  1
_D
  0
LINE
  5
102
330
FF
100
AcDbEntity
  8
치수문자_일반주서
 62
     0
370
    -2
100
AcDbLine
 10
86.26249999999999
 20
-6.342954639465924
 30
0.0
 11
101.076
 21
-6.342954639465868
 31
0.0
  0
LINE
  5
103
330
FF
100
AcDbEntity
  8
치수문자_일반주서
 62
     0
370
    -2
100
AcDbLine
 10
86.26249999999999
 20
6.361901282632157
 30
0.0
 11
101.076
 21
6.361901282632212
 31
0.0
  0
LINE
  5
104
330
FF
100
AcDbEntity
  8
치수문자_일반주서
 62
     0
370
    -2
100
AcDbLine
 10
101.076
 20
-3.040954639465868
 30
0.0
 11
101.076
 21
3.059901282632212
 31
0.0
  0
SOLID
  5
105
330
FF
100
AcDbEntity
  8
치수문자_일반주서
 62
     0
100
AcDbTrace
 10
100.5256666666667
 20
-3.04095463946587
 30
0.0
 11
101.6263333333333
 21
-3.040954639465867
 31
0.0
 12
101.076
 22
-6.342954639465868
 32
0.0
 13
101.076
 23
-6.342954639465868
 33
0.0
  0
SOLID
  5
106
330
FF
100
AcDbEntity
  8
치수문자_일반주서
 62
     0
100
AcDbTrace
 10
101.6263333333333
 20
3.059901282632214
 30
0.0
 11
100.5256666666667
 21
3.059901282632211
 31
0.0
 12
101.076
 22
6.361901282632212
 32
0.0
 13
101.076
 23
6.361901282632212
 33
0.0
  0
MTEXT
  5
107
330
FF
100
AcDbEntity
  8
치수문자_일반주서
 62
     0
100
AcDbMText
 10
96.701
 20
-0.003446155493651
 30
0.0
 40
3.5
 41
0.0
 71
     2
 72
     1
  1
\A1;%%c12.7 [1/2]
  7
SLDTEXTSTYLE0
 11
-3.355611776081099E-15
 21
1.0
 31
0.0
 73
     1
 44
1.0
  0
POINT
  5
108
330
FF
100
AcDbEntity
  8
Defpoints
 62
     0
100
AcDbPoint
 10
86.19999999999999
 20
-6.342954639465924
 30
0.0
  0
POINT
  5
109
330
FF
100
AcDbEntity
  8
Defpoints
 62
     0
100
AcDbPoint
 10
86.19999999999999
 20
6.361901282632157
 30
0.0
  0
POINT
  5
10A
330
FF
100
AcDbEntity
  8
Defpoints
 62
     0
100
AcDbPoint
 10
101.076
 20
6.361901282632213
 30
0.0
  0
ENDBLK
  5
101
330
FF
100
AcDbEntity
  8
0
100
AcDbBlockEnd
  0
BLOCK
  5
115
330
114
100
AcDbEntity
  8
0
100
AcDbBlockBegin
  2
_D_1
 70
     0
 10
0.0
 20
0.0
 30
0.0
  3
_D_1
  1
_D_1
  0
LINE
  5
117
330
114
100
AcDbEntity
  8
치수문자_일반주서
 62
     0
370
    -2
100
AcDbLine
 10
-40.80000000000001
 20
5.912499999999997
 30
0.0
 11
-40.80000000000001
 21
39.00555141807178
 31
0.0
  0
LINE
  5
118
330
114
100
AcDbEntity
  8
치수문자_일반주서
 62
     0
370
    -2
100
AcDbLine
 10
86.19999999999999
 20
6.486901282632157
 30
0.0
 11
86.19999999999999
 21
39.00555141807178
 31
0.0
  0
LINE
  5
119
330
114
100
AcDbEntity
  8
치수문자_일반주서
 62
     0
370
    -2
100
AcDbLine
 10
-37.49800000000001
 20
39.00555141807178
 30
0.0
 11
82.89799999999998
 21
39.00555141807178
 31
0.0
  0
SOLID
  5
11A
330
114
100
AcDbEntity
  8
치수문자_일반주서
 62
     0
100
AcDbTrace
 10
-37.49800000000001
 20
39.55588475140512
 30
0.0
 11
-37.49800000000001
 21
38.45521808473845
 31
0.0
 12
-40.80000000000001
 22
39.00555141807178
 32
0.0
 13
-40.80000000000001
 23
39.00555141807178
 33
0.0
  0
SOLID
  5
11B
330
114
100
AcDbEntity
  8
치수문자_일반주서
 62
     0
100
AcDbTrace
 10
82.89799999999998
 20
38.45521808473845
 30
0.0
 11
82.89799999999998
 21
39.55588475140512
 31
0.0
 12
86.19999999999999
 22
39.00555141807178
 32
0.0
 13
86.19999999999999
 23
39.00555141807178
 33
0.0
  0
MTEXT
  5
11C
330
114
100
AcDbEntity
  8
치수문자_일반주서
 62
     0
100
AcDbMText
 10
22.69999999999999
 20
43.38055141807178
 30
0.0
 40
3.5
 41
0.0
 71
     2
 72
     1
  1
\A1;127 [5]
  7
SLDTEXTSTYLE0
 73
     1
 44
1.0
  0
POINT
  5
11D
330
114
100
AcDbEntity
  8
Defpoints
 62
     0
100
AcDbPoint
 10
-40.80000000000001
 20
5.849999999999997
 30
0.0
  0
POINT
  5
11E
330
114
100
AcDbEntity
  8
Defpoints
 62
     0
100
AcDbPoint
 10
86.19999999999999
 20
6.424401282632157
 30
0.0
  0
POINT
  5
11F
330
114
100
AcDbEntity
  8
Defpoints
 62
     0
100
AcDbPoint
 10
86.19999999999999
 20
39.00555141807178
 30
0.0
  0
ENDBLK
  5
116
330
114
100
AcDbEntity
  8
0
100
AcDbBlockEnd
  0
BLOCK
  5
129
330
128
100
AcDbEntity
  8
0
100
AcDbBlockBegin
  2
_D_2
 70
     0
 10
0.0
 20
0.0
 30
0.0
  3
_D_2
  1
_D_2
  0
LINE
  5
12B
330
128
100
AcDbEntity
  8
치수문자_일반주서
 62
     0
370
    -2
100
AcDbLine
 10
86.19999999999999
 20
6.424401282632157
 30
0.0
 11
86.19999999999999
 21
20.87945164067496
 31
0.0
  0
LINE
  5
12C
330
128
100
AcDbEntity
  8
치수문자_일반주서
 62
     0
370
    -2
100
AcDbLine
 10
9.999999999999998
 20
-5.811057076579071
 30
0.0
 11
9.999999999999996
 21
-2.977693110913952
 31
0.0
  0
LINE
  5
12D
330
128
100
AcDbEntity
  8
치수문자_일반주서
 62
     0
370
    -2
100
AcDbLine
 10
9.999999999999996
 20
-0.7843334550142029
 30
0.0
 11
9.999999999999995
 21
3.365403607736143
 31
0.0
  0
LINE
  5
12E
330
128
100
AcDbEntity
  8
치수문자_일반주서
 62
     0
370
    -2
100
AcDbLine
 10
9.999999999999996
 20
5.089223621564821
 30
0.0
 11
10.0
 21
20.87945164067496
 31
0.0
  0
LINE
  5
12F
330
128
100
AcDbEntity
  8
치수문자_일반주서
 62
     0
370
    -2
100
AcDbLine
 10
82.89799999999998
 20
20.87945164067496
 30
0.0
 11
13.302
 21
20.87945164067496
 31
0.0
  0
SOLID
  5
130
330
128
100
AcDbEntity
  8
치수문자_일반주서
 62
     0
100
AcDbTrace
 10
82.89799999999998
 20
20.32911830734163
 30
0.0
 11
82.89799999999998
 21
21.4297849740083
 31
0.0
 12
86.19999999999999
 22
20.87945164067496
 32
0.0
 13
86.19999999999999
 23
20.87945164067496
 33
0.0
  0
SOLID
  5
131
330
128
100
AcDbEntity
  8
치수문자_일반주서
 62
     0
100
AcDbTrace
 10
13.302
 20
21.4297849740083
 30
0.0
 11
13.302
 21
20.32911830734163
 31
0.0
 12
10.0
 22
20.87945164067496
 32
0.0
 13
10.0
 23
20.87945164067496
 33
0.0
  0
MTEXT
  5
132
330
128
100
AcDbEntity
  8
치수문자_일반주서
 62
     0
100
AcDbMText
 10
47.26180339570445
 20
25.25445164067496
 30
0.0
 40
3.5
 41
0.0
 71
     2
 72
     1
  1
\A1;76.20 [3]
  7
SLDTEXTSTYLE0
 73
     1
 44
1.0
  0
POINT
  5
133
330
128
100
AcDbEntity
  8
Defpoints
 62
     0
100
AcDbPoint
 10
86.19999999999999
 20
6.361901282632157
 30
0.0
  0
POINT
  5
1C4
330
128
100
AcDbEntity
  8
Defpoints
 62
     0
100
AcDbPoint
 10
9.999999999999996
 20
-6.34309671865008
 30
0.0
  0
POINT
  5
1C5
330
128
100
AcDbEntity
  8
Defpoints
 62
     0
100
AcDbPoint
 10
9.999999999999996
 20
20.87945164067496
 30
0.0
  0
ENDBLK
  5
12A
330
128
100
AcDbEntity
  8
0
100
AcDbBlockEnd
  0
BLOCK
  5
13D
330
13C
100
AcDbEntity
  8
0
100
AcDbBlockBegin
  2
_NONE
 70
     0
 10
0.0
 20
0.0
 30
0.0
  3
_NONE
  1
_NONE
  0
ENDBLK
  5
13E
330
13C
100
AcDbEntity
  8
0
100
AcDbBlockEnd
  0
BLOCK
  5
140
330
13F
100
AcDbEntity
  8
0
100
AcDbBlockBegin
  2
_D_3
 70
     0
 10
0.0
 20
0.0
 30
0.0
  3
_D_3
  1
_D_3
  0
LINE
  5
142
330
13F
100
AcDbEntity
  8
치수문자_일반주서
100
AcDbLine
 10
-64.59336763611721
 20
-12.02664086223942
 30
0.0
 11
-64.59336763611721
 21
-12.73757834780392
 31
0.0
  0
LINE
  5
143
330
13F
100
AcDbEntity
  8
치수문자_일반주서
100
AcDbLine
 10
-64.59336763611721
 20
-12.73757834780392
 30
0.0
 11
-59.03711764505791
 21
-12.73757834780388
 31
0.0
  0
LINE
  5
144
330
13F
100
AcDbEntity
  8
치수문자_일반주서
100
AcDbLine
 10
-59.03711764505791
 20
-12.73757834780388
 30
0.0
 11
-59.03711764505791
 21
-12.02664086223938
 31
0.0
  0
LINE
  5
145
330
13F
100
AcDbEntity
  8
치수문자_일반주서
100
AcDbLine
 10
-64.59336763611729
 20
-1.197908000102161
 30
0.0
 11
-64.59336763611729
 21
-0.4869705145376605
 31
0.0
  0
LINE
  5
146
330
13F
100
AcDbEntity
  8
치수문자_일반주서
100
AcDbLine
 10
-64.59336763611729
 20
-0.4869705145376605
 30
0.0
 11
-59.037117645058
 21
-0.4869705145376214
 31
0.0
  0
LINE
  5
147
330
13F
100
AcDbEntity
  8
치수문자_일반주서
100
AcDbLine
 10
-59.037117645058
 20
-0.4869705145376214
 30
0.0
 11
-59.03711764505799
 21
-1.197908000102122
 31
0.0
  0
MTEXT
  5
148
330
13F
100
AcDbEntity
  8
치수문자_일반주서
100
AcDbMText
 10
-63.54885455963682
 20
-11.13796896162804
 30
0.0
 40
3.5
 41
0.0
 71
     1
 72
     1
  1
0.00
  7
SLDTEXTSTYLE0
 11
-7.044195017643634E-15
 21
1.0
 31
0.0
 73
     1
 44
1.0
  0
MTEXT
  5
149
330
13F
100
AcDbEntity
  8
치수문자_일반주서
100
AcDbMText
 10
-58.31222300927634
 20
-10.54454884353451
 30
0.0
 40
3.5
 41
0.0
 71
     1
 72
     1
  1
%%c
  7
SLDTEXTSTYLE0
 11
-7.044195017643634E-15
 21
1.0
 31
0.0
 73
     1
 44
1.0
  0
MTEXT
  5
14A
330
13F
100
AcDbEntity
  8
치수문자_일반주서
100
AcDbMText
 10
-58.31222300927638
 20
-5.266111445160434
 30
0.0
 40
3.5
 41
0.0
 71
     1
 72
     1
  1
0
  7
SLDTEXTSTYLE0
 11
-7.044195017643634E-15
 21
1.0
 31
0.0
 73
     1
 44
1.0
  0
ENDBLK
  5
141
330
13F
100
AcDbEntity
  8
0
100
AcDbBlockEnd
  0
BLOCK
  5
14C
330
14B
100
AcDbEntity
  8
0
100
AcDbBlockBegin
  2
SW_DOWELSYMBOL_0
 70
     0
 10
0.0
 20
0.0
 30
0.0
  3
SW_DOWELSYMBOL_0
  1
SW_DOWELSYMBOL_0
  0
CIRCLE
  5
14E
330
14B
100
AcDbEntity
  8
외형선
 62
     0
100
AcDbCircle
 10
0.0
 20
0.0
 30
0.0
 40
3.000000000000006
  0
HATCH
  5
14F
330
14B
100
AcDbEntity
  8
0
  6
Continuous
 62
     0
370
    30
100
AcDbHatch
 10
0.0
 20
0.0
 30
0.0
210
0.0
220
0.0
230
1.0
  2
SOLID
 70
     1
 71
     0
 91
        1
 92
        0
 93
        3
 72
     2
 10
0.0
 20
0.0
 40
3.000000000000006
 50
0.0
 51
90.0
 73
     1
 72
     1
 10
0.0
 20
3.000000000000006
 11
0.0
 21
0.0
 72
     1
 10
0.0
 20
0.0
 11
3.000000000000006
 21
0.0
 97
        0
 75
     0
 76
     1
 98
        1
 10
0.0
 20
0.0
  0
HATCH
  5
150
330
14B
100
AcDbEntity
  8
0
  6
Continuous
 62
     0
370
    30
100
AcDbHatch
 10
0.0
 20
0.0
 30
0.0
210
0.0
220
0.0
230
1.0
  2
SOLID
 70
     1
 71
     0
 91
        1
 92
        0
 93
        3
 72
     2
 10
0.0
 20
0.0
 40
3.000000000000006
 50
180.0
 51
270.0000000000007
 73
     1
 72
     1
 10
0.0
 20
-3.000000000000006
 11
0.0
 21
0.0
 72
     1
 10
0.0
 20
0.0
 11
-3.000000000000006
 21
0.0
 97
        0
 75
     0
 76
     1
 98
        1
 10
0.0
 20
0.0
  0
ENDBLK
  5
14D
330
14B
100
AcDbEntity
  8
0
100
AcDbBlockEnd
  0
BLOCK
  5
17B
330
17A
100
AcDbEntity
  8
0
100
AcDbBlockBegin
  2
*D8
 70
     1
 10
0.0
 20
0.0
 30
0.0
  3
*D8
  1
*D8
  0
LINE
  5
17D
330
17A
100
AcDbEntity
  8
치수문자_일반주서
 62
     0
370
    -2
100
AcDbLine
 10
-40.36250000000001
 20
6.349999999999999
 30
0.0
 11
-50.98832805105505
 21
6.35
 31
0.0
  0
LINE
  5
17E
330
17A
100
AcDbEntity
  8
치수문자_일반주서
 62
     0
370
    -2
100
AcDbLine
 10
-40.36250000000001
 20
-6.349999999999997
 30
0.0
 11
-50.98832805105505
 21
-6.349999999999996
 31
0.0
  0
LINE
  5
17F
330
17A
100
AcDbEntity
  8
치수문자_일반주서
 62
     0
370
    -2
100
AcDbLine
 10
-50.98832805105505
 20
3.048
 30
0.0
 11
-50.98832805105505
 21
-3.047999999999996
 31
0.0
  0
SOLID
  5
180
330
17A
100
AcDbEntity
  8
치수문자_일반주서
 62
     0
100
AcDbTrace
 10
-50.43799471772171
 20
3.048
 30
0.0
 11
-51.53866138438838
 21
3.048
 31
0.0
 12
-50.98832805105505
 22
6.35
 32
0.0
 13
-50.98832805105505
 23
6.35
 33
0.0
  0
SOLID
  5
181
330
17A
100
AcDbEntity
  8
치수문자_일반주서
 62
     0
100
AcDbTrace
 10
-51.53866138438838
 20
-3.047999999999996
 30
0.0
 11
-50.43799471772171
 21
-3.047999999999996
 31
0.0
 12
-50.98832805105505
 22
-6.349999999999996
 32
0.0
 13
-50.98832805105505
 23
-6.349999999999996
 33
0.0
  0
MTEXT
  5
182
330
17A
100
AcDbEntity
  8
치수문자_일반주서
 62
     0
100
AcDbMText
 10
-53.61332805105505
 20
0.0
 30
0.0
 40
3.5
 41
0.0
 71
     5
 72
     1
  1
\A1;{%%C12.70 [1/2]}
  7
SLDTEXTSTYLE0
 11
0.0
 21
1.0
 31
0.0
 73
     1
 44
1.0
  0
POINT
  5
183
330
17A
100
AcDbEntity
  8
Defpoints
 62
     0
100
AcDbPoint
 10
-40.30000000000001
 20
6.349999999999999
 30
0.0
  0
POINT
  5
184
330
17A
100
AcDbEntity
  8
Defpoints
 62
     0
100
AcDbPoint
 10
-40.30000000000001
 20
-6.349999999999997
 30
0.0
  0
POINT
  5
185
330
17A
100
AcDbEntity
  8
Defpoints
 62
     0
100
AcDbPoint
 10
-50.98832805105505
 20
-6.349999999999996
 30
0.0
  0
ENDBLK
  5
17C
330
17A
100
AcDbEntity
  8
0
100
AcDbBlockEnd
  0
BLOCK
  5
195
330
194
100
AcDbEntity
  8
0
100
AcDbBlockBegin
  2
*D9
 70
     1
 10
0.0
 20
0.0
 30
0.0
  3
*D9
  1
*D9
  0
LINE
  5
197
330
194
100
AcDbEntity
  8
치수문자_일반주서
 62
     0
370
    -2
100
AcDbLine
 10
88.09729581263792
 20
8.650276747532711
 30
0.0
 11
110.5509967578987
 21
34.48113871998908
 31
0.0
  0
MTEXT
  5
198
330
194
100
AcDbEntity
  8
치수문자_일반주서
 62
     0
100
AcDbMText
 10
99.95924014596282
 20
26.2975611481986
 30
0.0
 40
3.5
 41
0.0
 71
     5
 72
     1
  1
\A1;R.78 [R0.03]
  7
SLDTEXTSTYLE0
 11
0.6560469668555168
 21
0.7547200655075208
 31
0.0
 73
     1
 44
1.0
  0
LINE
  5
199
330
194
100
AcDbEntity
  8
치수문자_일반주서
 62
     0
370
    -2
100
AcDbLine
 10
85.41799999999999
 20
5.568
 30
0.0
 11
85.931028728081
 21
6.158191091226877
 31
0.0
  0
SOLID
  5
19A
330
194
100
AcDbEntity
  8
치수문자_일반주서
 62
     0
100
AcDbTrace
 10
87.68194820325361
 20
9.01132126162553
 30
0.0
 11
88.51264342202224
 21
8.289232233439892
 31
0.0
 12
85.931028728081
 22
6.158191091226877
 32
0.0
 13
85.931028728081
 23
6.158191091226877
 33
0.0
  0
POINT
  5
19B
330
194
100
AcDbEntity
  8
Defpoints
 62
     0
100
AcDbPoint
 10
85.931028728081
 20
6.158191091226877
 30
0.0
  0
POINT
  5
19C
330
194
100
AcDbEntity
  8
Defpoints
 62
     0
100
AcDbPoint
 10
85.41799999999999
 20
5.568
 30
0.0
  0
ENDBLK
  5
196
330
194
100
AcDbEntity
  8
0
100
AcDbBlockEnd
  0
BLOCK
  5
1E8
330
1E7
100
AcDbEntity
  8
0
100
AcDbBlockBegin
  2
*D11
 70
     1
 10
0.0
 20
0.0
 30
0.0
  3
*D11
  1

  0
LINE
  5
1EA
330
1E7
100
AcDbEntity
  8
0
 62
     0
370
    -2
100
AcDbLine
 10
123.9949591039995
 20
20.0000621832332
 30
0.0
 11
89.80429243733275
 21
20.0000621832332
 31
0.0
  0
LINE
  5
1EB
330
1E7
100
AcDbEntity
  8
0
 62
     0
370
    -2
100
AcDbLine
 10
89.80429243733275
 20
20.0000621832332
 30
0.0
 11
86.61634774732933
 21
9.477482780821335
 31
0.0
  0
MTEXT
  5
1EC
330
1E7
100
AcDbEntity
  8
0
 62
     0
100
AcDbMText
 10
107.6616257706661
 20
23.56572884989987
 30
0.0
 40
3.5
 41
0.0
 71
     5
 72
     1
  1
R0,76 [0.03]
 73
     1
 44
1.0
  0
LINE
  5
1ED
330
1E7
100
AcDbEntity
  8
0
 62
     0
370
    -2
100
AcDbLine
 10
85.43799999939701
 20
5.588062183233201
 30
0.0
 11
85.65894020213432
 21
6.317328545280977
 31
0.0
  0
SOLID
  5
1EE
330
1E7
100
AcDbEntity
  8
0
 62
     0
100
AcDbTrace
 10
86.08965537473927
 20
9.637050705020503
 30
0.0
 11
87.14304011991939
 21
9.317914856622167
 31
0.0
 12
85.65894020213432
 22
6.317328545280977
 32
0.0
 13
85.65894020213432
 23
6.317328545280977
 33
0.0
  0
POINT
  5
1EF
330
1E7
100
AcDbEntity
  8
Defpoints
 62
     0
100
AcDbPoint
 10
85.65894020213432
 20
6.317328545280977
 30
0.0
  0
POINT
  5
1F0
330
1E7
100
AcDbEntity
  8
Defpoints
 62
     0
100
AcDbPoint
 10
85.43799999939701
 20
5.588062183233201
 30
0.0
  0
ENDBLK
  5
1E9
330
1E7
100
AcDbEntity
  8
0
100
AcDbBlockEnd
  0
ENDSEC
  0
SECTION
  2
ENTITIES
  0
LINE
  5
95
330
1F
100
AcDbEntity
  8
0
  6
Continuous
 62
     4
370
    15
100
AcDbLine
 10
8.21963576095369
 20
6.350000000000003
 30
0.0
 11
-40.30000000000001
 21
6.350000000000001
 31
0.0
  0
LINE
  5
96
330
1F
100
AcDbEntity
  8
0
  6
Continuous
 62
     4
370
    15
100
AcDbLine
 10
-40.30000000000001
 20
-6.349999999999999
 30
0.0
 11
8.219635760953686
 21
-6.349999999999996
 31
0.0
  0
LINE
  5
97
330
1F
100
AcDbEntity
  8
0
  6
Continuous
 62
     4
370
    15
100
AcDbLine
 10
-40.30000000000001
 20
6.349999999999999
 30
0.0
 11
-40.80000000000001
 21
5.849999999999997
 31
0.0
  0
LINE
  5
98
330
1F
100
AcDbEntity
  8
0
  6
Continuous
 62
     4
370
    15
100
AcDbLine
 10
-40.80000000000001
 20
-5.849999999999998
 30
0.0
 11
-40.30000000000001
 21
-6.349999999999997
 31
0.0
  0
LINE
  5
99
330
1F
100
AcDbEntity
  8
0
  6
Continuous
 62
     1
370
    15
100
AcDbLine
 10
43.55274200791161
 20
-6.349999999999996
 30
0.0
 11
45.72595344422324
 21
-6.349999999999996
 31
0.0
  0
LINE
  5
9A
330
1F
100
AcDbEntity
  8
0
  6
Continuous
 62
     1
370
    15
100
AcDbLine
 10
25.77564827431623
 20
6.350000000000003
 30
0.0
 11
23.60524919517212
 21
6.350000000000003
 31
0.0
  0
LINE
  5
9B
330
1F
100
AcDbEntity
  8
0
  6
Continuous
 62
     1
370
    15
100
AcDbLine
 10
65.67344971514099
 20
6.350000000000003
 30
0.0
 11
63.50303900632755
 21
6.350000000000003
 31
0.0
  0
LINE
  5
9F
330
1F
100
AcDbEntity
  8
0
  6
Continuous
 62
     1
370
    15
100
AcDbLine
 10
50.20422084932593
 20
-6.349999999999996
 30
0.0
 11
52.37375588010698
 21
-6.349999999999996
 31
0.0
  0
LINE
  5
A0
330
1F
100
AcDbEntity
  8
0
  6
Continuous
 62
     1
370
    15
100
AcDbLine
 10
10.30397010696871
 20
-6.349999999999996
 30
0.0
 11
12.47740897489687
 21
-6.349999999999996
 31
0.0
  0
LINE
  5
A1
330
1F
100
AcDbEntity
  8
0
  6
Continuous
 62
     1
370
    15
100
AcDbLine
 10
32.42608524308987
 20
6.350000000000003
 30
0.0
 11
30.25349386768063
 21
6.350000000000003
 31
0.0
  0
LINE
  5
A2
330
1F
100
AcDbEntity
  8
0
  6
Continuous
 62
     1
370
    15
100
AcDbLine
 10
72.32405225333365
 20
6.350000000000003
 30
0.0
 11
70.15280298367715
 21
6.350000000000003
 31
0.0
  0
LINE
  5
A3
330
1F
100
AcDbEntity
  8
0
  6
Continuous
 62
     1
370
    15
100
AcDbLine
 10
56.85261784486461
 20
-6.349999999999996
 30
0.0
 11
59.02519658829154
 21
-6.349999999999996
 31
0.0
  0
LINE
  5
A4
330
1F
100
AcDbEntity
  8
0
  6
Continuous
 62
     1
370
    15
100
AcDbLine
 10
16.95463552275994
 20
-6.349999999999996
 30
0.0
 11
19.12589789132729
 21
-6.349999999999996
 31
0.0
  0
LINE
  5
A5
330
1F
100
AcDbEntity
  8
0
  6
Continuous
 62
     1
370
    15
100
AcDbLine
 10
39.07446999662085
 20
6.350000000000003
 30
0.0
 11
36.90493941116446
 21
6.350000000000003
 31
0.0
  0
LINE
  5
A6
330
1F
100
AcDbEntity
  8
0
  6
Continuous
 62
     1
370
    15
100
AcDbLine
 10
78.97346716069994
 20
6.350000000000003
 30
0.0
 11
76.80176720127515
 21
6.350000000000003
 31
0.0
  0
LINE
  5
A7
330
1F
100
AcDbEntity
  8
0
  6
Continuous
 62
     1
370
    15
100
AcDbLine
 10
70.15280298367712
 20
-6.349999999999996
 30
0.0
 11
72.32405225333362
 21
-6.349999999999996
 31
0.0
  0
LINE
  5
A8
330
1F
100
AcDbEntity
  8
0
  6
Continuous
 62
     1
370
    15
100
AcDbLine
 10
30.25349386768057
 20
-6.349999999999996
 30
0.0
 11
32.42608524308982
 21
-6.349999999999996
 31
0.0
  0
LINE
  5
A9
330
1F
100
AcDbEntity
  8
0
  6
Continuous
 62
     1
370
    15
100
AcDbLine
 10
12.47740897489683
 20
6.350000000000003
 30
0.0
 11
10.30397010696867
 21
6.350000000000003
 31
0.0
  0
LINE
  5
AA
330
1F
100
AcDbEntity
  8
0
  6
Continuous
 62
     1
370
    15
100
AcDbLine
 10
52.37375588010693
 20
6.350000000000003
 30
0.0
 11
50.20422084932589
 21
6.350000000000003
 31
0.0
  0
LINE
  5
AB
330
1F
100
AcDbEntity
  8
0
  6
Continuous
 62
     1
370
    15
100
AcDbLine
 10
76.80176720127511
 20
-6.349999999999996
 30
0.0
 11
78.97346716069995
 21
-6.349999999999996
 31
0.0
  0
LINE
  5
AC
330
1F
100
AcDbEntity
  8
0
  6
Continuous
 62
     1
370
    15
100
AcDbLine
 10
36.9049394111644
 20
-6.349999999999996
 30
0.0
 11
39.07446999662085
 21
-6.349999999999996
 31
0.0
  0
LINE
  5
AD
330
1F
100
AcDbEntity
  8
0
  6
Continuous
 62
     1
370
    15
100
AcDbLine
 10
19.12589789132731
 20
6.350000000000003
 30
0.0
 11
16.95463552275988
 21
6.350000000000003
 31
0.0
  0
LINE
  5
AE
330
1F
100
AcDbEntity
  8
0
  6
Continuous
 62
     1
370
    15
100
AcDbLine
 10
59.02519658829156
 20
6.350000000000003
 30
0.0
 11
56.85261784486458
 21
6.350000000000003
 31
0.0
  0
LINE
  5
AF
330
1F
100
AcDbEntity
  8
0
  6
Continuous
 62
     1
370
    15
100
AcDbLine
 10
63.50303900632754
 20
-6.349999999999996
 30
0.0
 11
65.67344971514095
 21
-6.349999999999996
 31
0.0
  0
LINE
  5
B0
330
1F
100
AcDbEntity
  8
0
  6
Continuous
 62
     1
370
    15
100
AcDbLine
 10
23.60524919517213
 20
-6.349999999999996
 30
0.0
 11
25.77564827431617
 21
-6.349999999999996
 31
0.0
  0
LINE
  5
B1
330
1F
100
AcDbEntity
  8
0
  6
Continuous
 62
     1
370
    15
100
AcDbLine
 10
45.72595344422322
 20
6.350000000000003
 30
0.0
 11
43.55274200791157
 21
6.350000000000003
 31
0.0
  0
SPLINE
  5
B2
330
1F
100
AcDbEntity
  8
0
  6
Continuous
 62
     4
370
    15
100
AcDbSpline
210
0.0
220
0.0
230
1.0
 70
     8
 71
     3
 72
    14
 73
    10
 74
     0
 42
0.000000001
 43
0.00000001
 40
0.0
 40
0.0
 40
0.0
 40
0.0
 40
0.2499999999999998
 40
0.2499999999999998
 40
0.4999999999999999
 40
0.4999999999999999
 40
0.7499999999999999
 40
0.7499999999999999
 40
1.0
 40
1.0
 40
1.0
 40
1.0
 10
8.391549400962536
 20
0.7572449540728468
 30
0.0
 10
8.302469766255705
 20
0.8457158873306301
 30
0.0
 10
8.229210159587089
 20
0.944839712048147
 30
0.0
 10
8.11042932654611
 20
1.161275163562843
 30
0.0
 10
8.06616896425553
 20
1.277437261139544
 30
0.0
 10
8.005035138815765
 20
1.513067899957101
 30
0.0
 10
7.987696125204844
 20
1.634290250986462
 30
0.0
 10
7.970316389345067
 20
1.873506202548938
 30
0.0
 10
7.970231973229021
 20
1.992526105972843
 30
0.0
 10
7.970231973229021
 20
2.110482767110163
 30
0.0
  0
SPLINE
  5
B3
102
{ACAD_REACTORS
330
1C2
102
}
330
1F
100
AcDbEntity
  8
0
  6
Continuous
 62
     4
370
    15
100
AcDbSpline
210
0.0
220
0.0
230
1.0
 70
     8
 71
     3
 72
    20
 73
    16
 74
     0
 42
0.000000001
 43
0.00000001
 40
0.0
 40
0.0
 40
0.0
 40
0.0
 40
0.125
 40
0.125
 40
0.25
 40
0.25
 40
0.375
 40
0.375
 40
0.5
 40
0.5
 40
0.75
 40
0.75
 40
0.875
 40
0.875
 40
1.0
 40
1.0
 40
1.0
 40
1.0
 10
7.970231973229019
 20
2.11048276711027
 30
0.0
 10
7.970231973229021
 20
2.238467133900349
 30
0.0
 10
7.970505373288113
 20
2.364730329787093
 30
0.0
 10
7.992718951738852
 20
2.612093384996528
 30
0.0
 10
8.014468849452959
 20
2.734201886426397
 30
0.0
 10
8.091913479242663
 20
2.968017642066293
 30
0.0
 10
8.14630186805088
 20
3.076946721584129
 30
0.0
 10
8.294478344012303
 20
3.277035325088672
 30
0.0
 10
8.384200743678988
 20
3.362887008996295
 30
0.0
 10
8.703048619144893
 20
3.578492288340841
 30
0.0
 10
8.973152892616524
 20
3.655498785475622
 30
0.0
 10
9.382237304537314
 20
3.653914458271612
 30
0.0
 10
9.517651645792515
 20
3.634288912367613
 30
0.0
 10
9.77427056421092
 20
3.557743293891824
 30
0.0
 10
9.893833204518204
 20
3.501325850637472
 30
0.0
 10
9.999999999999876
 20
3.427903607735898
 30
0.0
  0
SPLINE
  5
B4
102
{ACAD_REACTORS
330
1C2
102
}
330
1F
100
AcDbEntity
  8
0
  6
Continuous
 62
     1
370
    15
100
AcDbSpline
210
0.0
220
0.0
230
1.0
 70
    24
 71
     3
 72
     8
 73
     4
 74
     0
 42
0.000000001
 43
0.00000001
 40
0.0
 40
0.0
 40
0.0
 40
0.0
 40
1.0
 40
1.0
 40
1.0
 40
1.0
 10
9.999999999999995
 20
3.4279036077362
 30
0.0
 10
9.999999999999995
 20
3.293673670712056
 30
0.0
 10
9.999999999999995
 20
3.153276252020273
 30
0.0
 10
9.999999999999995
 20
3.005894935738444
 30
0.0
  0
SPLINE
  5
B5
102
{ACAD_REACTORS
330
1C2
102
}
330
1F
100
AcDbEntity
  8
0
  6
Continuous
 62
     4
370
    15
100
AcDbSpline
210
0.0
220
0.0
230
1.0
 70
     8
 71
     3
 72
    10
 73
     6
 74
     0
 42
0.000000001
 43
0.00000001
 40
0.0
 40
0.0
 40
0.0
 40
0.0
 40
0.5
 40
0.5
 40
1.0
 40
1.0
 40
1.0
 40
1.0
 10
9.999999999999996
 20
-0.8468334550154553
 30
0.0
 10
9.732342369587519
 20
-0.5812962549845937
 30
0.0
 10
9.467001686422723
 20
-0.3142680851282802
 30
0.0
 10
8.929468610932185
 20
0.2223171012475239
 30
0.0
 10
8.65949364274502
 20
0.4911316363705229
 30
0.0
 10
8.391549400962534
 20
0.7572449540728468
 30
0.0
  0
SPLINE
  5
B6
102
{ACAD_REACTORS
330
1C2
102
}
330
1F
100
AcDbEntity
  8
0
  6
Continuous
 62
     4
370
    15
100
AcDbSpline
210
0.0
220
0.0
230
1.0
 70
    24
 71
     3
 72
    14
 73
    10
 74
     0
 42
0.000000001
 43
0.00000001
 40
0.0
 40
0.0
 40
0.0
 40
0.0
 40
0.2500000000000002
 40
0.2500000000000002
 40
0.5000000000000001
 40
0.5000000000000001
 40
0.75
 40
0.75
 40
1.0
 40
1.0
 40
1.0
 40
1.0
 10
9.999999999999996
 20
3.005894935738435
 30
0.0
 10
9.999999999999996
 20
2.76838024629608
 30
0.0
 10
9.999999999999996
 20
2.493739427923763
 30
0.0
 10
9.999999999999996
 20
1.872612287339205
 30
0.0
 10
9.999999999999996
 20
1.525345576007741
 30
0.0
 10
9.999999999999996
 20
0.7982459743389461
 30
0.0
 10
9.999999999999996
 20
0.4188056765690655
 30
0.0
 10
9.999999999999996
 20
-0.2832679163686559
 30
0.0
 10
9.999999999999996
 20
-0.6033862990065156
 30
0.0
 10
9.999999999999996
 20
-0.8468334550142049
 30
0.0
  0
LINE
  5
B7
330
1F
100
AcDbEntity
  8
0
  6
Continuous
 62
     4
370
    15
100
AcDbLine
 10
-40.30000000000001
 20
6.349999999999999
 30
0.0
 11
-40.30000000000001
 21
-6.349999999999999
 31
0.0
  0
SPLINE
  5
B8
102
{ACAD_REACTORS
330
1C2
102
}
330
1F
100
AcDbEntity
  8
0
  6
Continuous
 62
     4
370
    15
100
AcDbSpline
210
0.0
220
0.0
230
1.0
 70
     8
 71
     3
 72
    10
 73
     6
 74
     0
 42
0.000000001
 43
0.00000001
 40
0.0
 40
0.0
 40
0.0
 40
0.0
 40
0.5
 40
0.5
 40
1.0
 40
1.0
 40
1.0
 40
1.0
 10
9.999999999999996
 20
5.026723621565817
 30
0.0
 10
9.732342369587519
 20
5.1904362574411
 30
0.0
 10
9.467001686422721
 20
5.340300831520656
 30
0.0
 10
8.929468610932183
 20
5.611958024034068
 30
0.0
 10
8.65949364274502
 20
5.73326530947783
 30
0.0
 10
8.391549400962532
 20
5.838641713234052
 30
0.0
  0
SPLINE
  5
B9
102
{ACAD_REACTORS
330
1C2
102
}
330
1F
100
AcDbEntity
  8
0
  6
Continuous
 62
     4
370
    15
100
AcDbSpline
210
0.0
220
0.0
230
1.0
 70
     8
 71
     3
 72
    20
 73
    16
 74
     0
 42
0.000000001
 43
0.00000001
 40
0.0
 40
0.0
 40
0.0
 40
0.0
 40
0.125
 40
0.125
 40
0.25
 40
0.25
 40
0.375
 40
0.375
 40
0.5
 40
0.5
 40
0.75
 40
0.75
 40
0.875
 40
0.875
 40
1.0
 40
1.0
 40
1.0
 40
1.0
 10
7.970231973229019
 20
-4.131402219711069
 30
0.0
 10
7.970231973229021
 20
-4.028351713453839
 30
0.0
 10
7.970505373288113
 20
-3.922678143963651
 30
0.0
 10
7.992718951738852
 20
-3.707749817713522
 30
0.0
 10
8.014468849452948
 20
-3.597556031015663
 30
0.0
 10
8.091913479242653
 20
-3.378898467395242
 30
0.0
 10
8.14630186805088
 20
-3.273094700049152
 30
0.0
 10
8.294478344012301
 20
-3.072922420731533
 30
0.0
 10
8.384200743678987
 20
-2.98391759410796
 30
0.0
 10
8.703048619144889
 20
-2.756034213969079
 30
0.0
 10
8.97315289261652
 20
-2.668901886057378
 30
0.0
 10
9.382237304537313
 20
-2.670659602197082
 30
0.0
 10
9.517651645792514
 20
-2.692561779519635
 30
0.0
 10
9.77427056421092
 20
-2.776382379706932
 30
0.0
 10
9.893833204518206
 20
-2.837704852006566
 30
0.0
 10
9.999999999999876
 20
-2.915193110914212
 30
0.0
  0
SPLINE
  5
BA
330
1F
100
AcDbEntity
  8
0
  6
Continuous
 62
     4
370
    15
100
AcDbSpline
210
0.0
220
0.0
230
1.0
 70
     8
 71
     3
 72
    14
 73
    10
 74
     0
 42
0.000000001
 43
0.00000001
 40
0.0
 40
0.0
 40
0.0
 40
0.0
 40
0.2500000000000001
 40
0.2500000000000001
 40
0.5000000000000001
 40
0.5000000000000001
 40
0.75
 40
0.75
 40
1.0
 40
1.0
 40
1.0
 40
1.0
 10
8.391549400962523
 20
-5.081396759161236
 30
0.0
 10
8.302469766255694
 20
-5.027958829377897
 30
0.0
 10
8.229210159587081
 20
-4.966455499348779
 30
0.0
 10
8.110429326546106
 20
-4.826717288046217
 30
0.0
 10
8.066168964255526
 20
-4.749131494163398
 30
0.0
 10
8.005035138815764
 20
-4.585355470562425
 30
0.0
 10
7.98769612520484
 20
-4.497957153057987
 30
0.0
 10
7.970316389345067
 20
-4.318812670511704
 30
0.0
 10
7.970231973229023
 20
-4.226378613714801
 30
0.0
 10
7.970231973229025
 20
-4.131402219710751
 30
0.0
  0
SPLINE
  5
BB
102
{ACAD_REACTORS
330
1C2
102
}
330
1F
100
AcDbEntity
  8
0
  6
Continuous
 62
     4
370
    15
100
AcDbSpline
210
0.0
220
0.0
230
1.0
 70
     8
 71
     3
 72
    10
 73
     6
 74
     0
 42
0.000000001
 43
0.00000001
 40
0.0
 40
0.0
 40
0.0
 40
0.0
 40
0.5
 40
0.5
 40
1.0
 40
1.0
 40
1.0
 40
1.0
 10
9.999999999999996
 20
-5.873557076581318
 30
0.0
 10
9.732342369587517
 20
-5.771732512425739
 30
0.0
 10
9.467001686422716
 20
-5.654568916648977
 30
0.0
 10
8.929468610932174
 20
-5.389640922786579
 30
0.0
 10
8.659493642745012
 20
-5.242133673107342
 30
0.0
 10
8.391549400962525
 20
-5.081396759161236
 30
0.0
  0
SPLINE
  5
BC
330
1F
100
AcDbEntity
  8
0
  6
Continuous
 62
     4
370
    15
100
AcDbSpline
210
0.0
220
0.0
230
1.0
 70
     8
 71
     3
 72
    13
 73
     9
 74
     0
 42
0.000000001
 43
0.00000001
 40
0.0
 40
0.0
 40
0.0
 40
0.0
 40
0.0018472843973718
 40
0.2270046966191425
 40
0.4330128925504544
 40
0.6308809038366325
 40
0.8276994160126682
 40
1.0
 40
1.0
 40
1.0
 40
1.0
 10
8.219635760953674
 20
-6.349887450314814
 30
0.0
 10
8.220131861100796
 20
-6.349924923199887
 30
0.0
 10
8.28109543744594
 20
-6.354529802080322
 30
0.0
 10
8.51671451206471
 20
-6.340106190700815
 30
0.0
 10
8.896069727204587
 20
-6.32746542377877
 30
0.0
 10
9.310171221073134
 20
-6.3223550210847
 30
0.0
 10
9.695518988197835
 20
-6.33097036302909
 30
0.0
 10
9.903102421153198
 20
-6.339237645491625
 30
0.0
 10
9.999999999999876
 20
-6.343096718650095
 30
0.0
  0
SPLINE
  5
BD
102
{ACAD_REACTORS
330
1C2
102
}
330
1F
100
AcDbEntity
  8
0
  6
Continuous
 62
     4
370
    15
100
AcDbSpline
210
0.0
220
0.0
230
1.0
 70
     8
 71
     3
 72
    20
 73
    16
 74
     0
 42
0.000000001
 43
0.00000001
 40
0.0
 40
0.0
 40
0.0
 40
0.0
 40
0.125
 40
0.125
 40
0.2500000000000001
 40
0.2500000000000001
 40
0.375
 40
0.375
 40
0.5
 40
0.5
 40
0.7499999999999999
 40
0.7499999999999999
 40
0.875
 40
0.875
 40
1.0
 40
1.0
 40
1.0
 40
1.0
 10
7.970231973229019
 20
6.241884986821316
 30
0.0
 10
7.970231973229021
 20
6.266818847354167
 30
0.0
 10
7.970505373288113
 20
6.287408473750724
 30
0.0
 10
7.99271895173885
 20
6.319843202710034
 30
0.0
 10
8.014468849452959
 20
6.331757917442046
 30
0.0
 10
8.091913479242663
 20
6.346916109461525
 30
0.0
 10
8.146301868050877
 20
6.35004142163327
 30
0.0
 10
8.2944783440123
 20
6.349957745820196
 30
0.0
 10
8.384200743678985
 20
6.346804603104247
 30
0.0
 10
8.703048619144887
 20
6.334526502309911
 30
0.0
 10
8.973152892616518
 20
6.324400671532996
 30
0.0
 10
9.38223730453731
 20
6.324574060468688
 30
0.0
 10
9.517651645792512
 20
6.326850691887244
 30
0.0
 10
9.77427056421092
 20
6.334125673598749
 30
0.0
 10
9.893833204518206
 20
6.339030702644036
 30
0.0
 10
9.999999999999874
 20
6.343096718650103
 30
0.0
  0
SPLINE
  5
BE
330
1F
100
AcDbEntity
  8
0
  6
Continuous
 62
     4
370
    15
100
AcDbSpline
210
0.0
220
0.0
230
1.0
 70
     8
 71
     3
 72
    14
 73
    10
 74
     0
 42
0.000000001
 43
0.00000001
 40
0.0
 40
0.0
 40
0.0
 40
0.0
 40
0.25
 40
0.25
 40
0.5
 40
0.5
 40
0.75
 40
0.75
 40
1.0
 40
1.0
 40
1.0
 40
1.0
 10
8.391549400962544
 20
5.83864171323401
 30
0.0
 10
8.302469766255715
 20
5.873674716708456
 30
0.0
 10
8.22921015958708
 20
5.911295211396904
 30
0.0
 10
8.110429326546106
 20
5.987992451609037
 30
0.0
 10
8.066168964255526
 20
6.026568755302923
 30
0.0
 10
8.005035138815764
 20
6.098423370519506
 30
0.0
 10
7.98769612520484
 20
6.132247404044429
 30
0.0
 10
7.970316389345065
 20
6.19231887306062
 30
0.0
 10
7.970231973229014
 20
6.218904719687622
 30
0.0
 10
7.970231973229016
 20
6.241884986820891
 30
0.0
  0
LINE
  5
BF
102
{ACAD_REACTORS
330
1C2
102
}
330
1F
100
AcDbEntity
  8
0
  6
Continuous
 62
     1
370
    15
100
AcDbLine
 10
9.999999999999998
 20
-5.873557076579073
 30
0.0
 11
9.999999999999996
 21
-6.34309671865008
 31
0.0
  0
LINE
  5
C0
102
{ACAD_REACTORS
330
1C2
102
}
330
1F
100
AcDbEntity
  8
0
  6
Continuous
 62
     4
370
    15
100
AcDbLine
 10
9.999999999999996
 20
-0.8468334550142045
 30
0.0
 11
9.999999999999996
 21
-2.915193110913952
 31
0.0
  0
LINE
  5
C1
102
{ACAD_REACTORS
330
1C2
102
}
330
1F
100
AcDbEntity
  8
0
  6
Continuous
 62
     4
370
    15
100
AcDbLine
 10
9.999999999999996
 20
5.026723621564821
 30
0.0
 11
9.999999999999995
 21
3.427903607736143
 31
0.0
  0
LINE
  5
C2
330
1F
100
AcDbEntity
  8
0
  6
Continuous
 62
     4
370
    15
100
AcDbLine
 10
-40.80000000000001
 20
5.849999999999997
 30
0.0
 11
-40.80000000000001
 21
-5.849999999999998
 31
0.0
  0
SPLINE
  5
C3
102
{ACAD_REACTORS
330
1C2
102
}
330
1F
100
AcDbEntity
  8
0
  6
Continuous
 62
     4
370
    15
100
AcDbSpline
210
0.0
220
0.0
230
1.0
 70
    24
 71
     3
 72
    14
 73
    10
 74
     0
 42
0.000000001
 43
0.00000001
 40
0.0
 40
0.0
 40
0.0
 40
0.0
 40
0.0642747462476274
 40
0.1994159617245124
 40
0.334557177201397
 40
0.4696983926782816
 40
0.6048396081551664
 40
0.7399808236320511
 40
1.0
 40
1.0
 40
1.0
 40
1.0
 10
9.999999999999998
 20
-3.02155298565388
 30
0.0
 10
9.999999999999998
 20
-3.040830590383853
 30
0.0
 10
9.999999999999998
 20
-3.100640427238937
 30
0.0
 10
9.999999999999998
 20
-3.292549067143694
 30
0.0
 10
9.999999999999998
 20
-3.588165665569912
 30
0.0
 10
9.999999999999998
 20
-3.957816494220518
 30
0.0
 10
9.999999999999998
 20
-4.388001629209479
 30
0.0
 10
9.999999999999998
 20
-5.01145899305172
 30
0.0
 10
9.999999999999998
 20
-5.531418761370853
 30
0.0
 10
9.999999999999998
 20
-5.873557076579073
 30
0.0
  0
SPLINE
  5
C4
102
{ACAD_REACTORS
330
1C2
102
}
330
1F
100
AcDbEntity
  8
0
  6
Continuous
 62
     1
370
    15
100
AcDbSpline
210
0.0
220
0.0
230
1.0
 70
    24
 71
     3
 72
    14
 73
    10
 74
     0
 42
0.000000001
 43
0.00000001
 40
0.0
 40
0.0
 40
0.0
 40
0.0
 40
0.0390110674835284
 40
0.222246821478005
 40
0.405482575472482
 40
0.588718329466958
 40
0.7719540834614341
 40
0.9551898374559105
 40
1.0
 40
1.0
 40
1.0
 40
1.0
 10
9.999999999999998
 20
5.940481310849373
 30
0.0
 10
9.999999999999998
 20
5.910639625538192
 30
0.0
 10
10.0
 20
5.740630955286925
 30
0.0
 10
9.999999999999998
 20
5.458496366587101
 30
0.0
 10
9.999999999999998
 20
5.142661972272687
 30
0.0
 10
9.999999999999998
 20
4.904316560913495
 30
0.0
 10
9.999999999999998
 20
4.755735745181063
 30
0.0
 10
9.999999999999998
 20
4.691937419877248
 30
0.0
 10
9.999999999999998
 20
4.705646700625528
 30
0.0
 10
9.999999999999998
 20
4.708340522589182
 30
0.0
  0
SPLINE
  5
C5
102
{ACAD_REACTORS
330
1C2
102
}
330
1F
100
AcDbEntity
  8
0
  6
Continuous
 62
     1
370
    15
100
AcDbSpline
210
0.0
220
0.0
230
1.0
 70
    24
 71
     3
 72
     8
 73
     4
 74
     0
 42
0.000000001
 43
0.00000001
 40
0.0
 40
0.0
 40
0.0
 40
0.0
 40
1.0
 40
1.0
 40
1.0
 40
1.0
 10
9.999999999999995
 20
6.343096718650194
 30
0.0
 10
9.999999999999995
 20
6.201474315943448
 30
0.0
 10
9.999999999999995
 20
6.066955725985824
 30
0.0
 10
9.999999999999995
 20
5.940481310849373
 30
0.0
  0
SPLINE
  5
C6
330
1F
100
AcDbEntity
  8
0
  6
Continuous
 62
     1
370
    15
100
AcDbSpline
210
0.0
220
0.0
230
1.0
 70
     8
 71
     3
 72
    26
 73
    22
 74
     0
 42
0.000000001
 43
0.00000001
 40
0.0
 40
0.0
 40
0.0
 40
0.0
 40
0.0172370487674003
 40
0.072321588159894
 40
0.127363355976038
 40
0.1824579603705712
 40
0.2376211536834255
 40
0.2926879273142786
 40
0.347733186386791
 40
0.4028524682391363
 40
0.4579994789420979
 40
0.5130531984410981
 40
0.5681066820359961
 40
0.6232531859049065
 40
0.6783730677188571
 40
0.7334184578399017
 40
0.7884848909483604
 40
0.8436478672406773
 40
0.898742968027164
 40
0.9537847619043827
 40
1.0
 40
1.0
 40
1.0
 40
1.0
 10
12.47740897489682
 20
6.318531899998865
 30
0.0
 10
12.60497410905733
 20
6.328014861411115
 30
0.0
 10
13.14019990210409
 20
6.367802579079477
 30
0.0
 10
14.08184936389083
 20
6.173577411029344
 30
0.0
 10
15.30298214691625
 20
5.769782120904757
 30
0.0
 10
16.52531424118942
 20
5.132291211406415
 30
0.0
 10
17.74929939609737
 20
4.311579032199123
 30
0.0
 10
18.97098840291444
 20
3.329067462833039
 30
0.0
 10
20.19219584543076
 20
2.223992415949472
 30
0.0
 10
21.41511773452715
 20
1.03714136909391
 30
0.0
 10
22.63870848631766
 20
-0.1874414743531426
 30
0.0
 10
23.86010884121465
 20
-1.406309202084643
 30
0.0
 10
25.08150394926961
 20
-2.573166360858294
 30
0.0
 10
26.30508237489761
 20
-3.64391223940812
 30
0.0
 10
27.52801883449895
 20
-4.580538228945923
 30
0.0
 10
28.74922867060316
 20
-5.348428578203154
 30
0.0
 10
29.97091235748352
 20
-5.918209659619169
 30
0.0
 10
31.19488348613306
 20
-6.270538568689771
 30
0.0
 10
32.41725984735794
 20
-6.385507450338202
 30
0.0
 10
33.57272949388622
 20
-6.292576906185352
 30
0.0
 10
34.32158874954371
 20
-6.053475900537201
 30
0.0
 10
34.6633794195448
 20
-5.944346591790572
 30
0.0
  0
SPLINE
  5
C7
330
1F
100
AcDbEntity
  8
0
  6
Continuous
 62
     1
370
    15
100
AcDbSpline
210
0.0
220
0.0
230
1.0
 70
     8
 71
     3
 72
    26
 73
    22
 74
     0
 42
0.000000001
 43
0.00000001
 40
0.0
 40
0.0
 40
0.0
 40
0.0
 40
0.0370296279200898
 40
0.0921894006993124
 40
0.1472672535580532
 40
0.2023024968492601
 40
0.257390727208903
 40
0.3125473015400652
 40
0.3676074254993989
 40
0.4226461946244542
 40
0.4777591340333941
 40
0.5328994310812477
 40
0.5879465373260454
 40
0.642993564945474
 40
0.698133693068692
 40
0.7532468324411008
 40
0.8082856452438166
 40
0.863345655709156
 40
0.9185021577087235
 40
0.9735905535127146
 40
1.0
 40
1.0
 40
1.0
 40
1.0
 10
52.37375588010693
 20
6.324122137484239
 30
0.0
 10
52.64753212656661
 20
6.324091909486835
 30
0.0
 10
53.32912871568954
 20
6.324016653506109
 30
0.0
 10
54.4197096783716
 20
6.055593218032027
 30
0.0
 10
55.64177569503784
 20
5.563965156899925
 30
0.0
 10
56.86291039470346
 20
4.857686639000502
 30
0.0
 10
58.08524592853233
 20
3.974325890167805
 30
0.0
 10
59.30922945929294
 20
2.944582778862721
 30
0.0
 10
60.53091587428386
 20
1.804930933891681
 30
0.0
 10
61.75212432606015
 20
0.5986440846976439
 30
0.0
 10
62.97505100717416
 20
-0.629214104054561
 30
0.0
 10
64.19863768277408
 20
-1.833329640181635
 30
0.0
 10
65.42003627973892
 20
-2.970876606471063
 30
0.0
 10
66.64143313176845
 20
-3.998578866989244
 30
0.0
 10
67.8650156865926
 20
-4.877613473003469
 30
0.0
 10
69.08794726871773
 20
-5.577165021583997
 30
0.0
 10
70.3091563539131
 20
-6.070069450251707
 30
0.0
 10
71.53084160966566
 20
-6.341779922490253
 30
0.0
 10
72.75481817011868
 20
-6.367211383457927
 30
0.0
 10
73.76546976115642
 20
-6.23062908608695
 30
0.0
 10
74.36794109839587
 20
-6.004876303477714
 30
0.0
 10
74.56317245782358
 20
-5.931720918450884
 30
0.0
  0
SPLINE
  5
C8
330
1F
100
AcDbEntity
  8
0
  6
Continuous
 62
     1
370
    15
100
AcDbSpline
210
0.0
220
0.0
230
1.0
 70
     8
 71
     3
 72
    26
 73
    22
 74
     0
 42
0.000000001
 43
0.00000001
 40
0.0
 40
0.0
 40
0.0
 40
0.0
 40
0.02647447897623
 40
0.0815625615983991
 40
0.13671922501974
 40
0.1917794801726697
 40
0.2468182233140243
 40
0.3019309804728346
 40
0.3570714631998843
 40
0.4121186657662317
 40
0.467165632456402
 40
0.5223056084093962
 40
0.5774189654587919
 40
0.6324578396331659
 40
0.6875177543040103
 40
0.7426742007305035
 40
0.7977627796858662
 40
0.8527980580421166
 40
0.9078756321078445
 40
0.96303547034879
 40
1.0
 40
1.0
 40
1.0
 40
1.0
 10
14.71553099916109
 20
5.931715824129755
 30
0.0
 10
14.9112431397342
 20
6.005017902277666
 30
0.0
 10
15.5141930045977
 20
6.230846908000403
 30
0.0
 10
16.52531802631962
 20
6.367324840691459
 30
0.0
 10
17.74929838330261
 20
6.341594828129655
 30
0.0
 10
18.9709886739733
 20
6.069616588226995
 30
0.0
 10
20.19219577265888
 20
5.576455749480391
 30
0.0
 10
21.41511775422166
 20
4.876670285666479
 30
0.0
 10
22.63870848040662
 20
3.997445064758359
 30
0.0
 10
23.86010884519106
 20
2.969588516867164
 30
0.0
 10
25.08150393926158
 20
1.831937301588674
 30
0.0
 10
26.3050824110091
 20
0.6277610265781032
 30
0.0
 10
27.52801870023374
 20
-0.6000904783387451
 30
0.0
 10
28.74922917092782
 20
-1.806326284367199
 30
0.0
 10
29.97091048800663
 20
-2.945874397713122
 30
0.0
 10
31.19489047302581
 20
-3.975468004598671
 30
0.0
 10
32.41723381981944
 20
-4.85862973233431
 30
0.0
 10
33.63836896336691
 20
-5.564683812329522
 30
0.0
 10
34.86042792447603
 20
-6.056041749634875
 30
0.0
 10
35.95052631120173
 20
-6.324155318708594
 30
0.0
 10
36.63164378307817
 20
-6.324097320358309
 30
0.0
 10
36.9049394111644
 20
-6.324074048755064
 30
0.0
  0
SPLINE
  5
C9
330
1F
100
AcDbEntity
  8
0
  6
Continuous
 62
     1
370
    15
100
AcDbSpline
210
0.0
220
0.0
230
1.0
 70
     8
 71
     3
 72
    26
 73
    22
 74
     0
 42
0.000000001
 43
0.00000001
 40
0.0
 40
0.0
 40
0.0
 40
0.0
 40
0.0462797220650045
 40
0.1013203227405583
 40
0.1564139156425534
 40
0.2115758591689849
 40
0.2666413429346645
 40
0.3216854697872868
 40
0.376803774143872
 40
0.4319494388024889
 40
0.487001903586428
 40
0.542054289737344
 40
0.5971997854548821
 40
0.6523182897944005
 40
0.7073624603289356
 40
0.7624278305895726
 40
0.8175897017773684
 40
0.8726834601398169
 40
0.9277240695022105
 40
0.9828071356301101
 40
1.0
 40
1.0
 40
1.0
 40
1.0
 10
54.61531142908273
 20
5.944435232636748
 30
0.0
 10
54.95758740983352
 20
6.053653774447
 30
0.0
 10
55.70693315541299
 20
6.29276622827558
 30
0.0
 10
56.86288446604356
 20
6.385514837275951
 30
0.0
 10
58.08525288893195
 20
6.270254733752015
 30
0.0
 10
59.30922759689425
 20
5.917661764807348
 30
0.0
 10
60.53091637271247
 20
5.347632390636741
 30
0.0
 10
61.75212419230109
 20
4.579525373178205
 30
0.0
 10
62.97505104316446
 20
3.642712710687982
 30
0.0
 10
64.19863767274583
 20
2.571835938873993
 30
0.0
 10
65.4200362839168
 20
1.404889929585194
 30
0.0
 10
66.64143312507103
 20
0.1859888771613907
 30
0.0
 10
67.86501570923605
 20
-1.038582950833996
 30
0.0
 10
69.08794718494974
 20
-2.225351209467444
 30
0.0
 10
70.3091566659537
 20
-3.330320462403062
 30
0.0
 10
71.53084044374444
 20
-4.312610199676671
 30
0.0
 10
72.75482252755621
 20
-5.133320087205289
 30
0.0
 10
73.97716078207885
 20
-5.769809706117091
 30
0.0
 10
75.19830010948505
 20
-6.176172230424548
 30
0.0
 10
76.13960182173567
 20
-6.361974857050472
 30
0.0
 10
76.67452149982473
 20
-6.331908024037396
 30
0.0
 10
76.80176720127511
 20
-6.324755781534733
 30
0.0
  0
SPLINE
  5
CB
102
{ACAD_REACTORS
330
1C2
102
}
330
1F
100
AcDbEntity
  8
0
  6
Continuous
 62
     1
370
    15
100
AcDbSpline
210
0.0
220
0.0
230
1.0
 70
     8
 71
     3
 72
    16
 73
    12
 74
     0
 42
0.000000001
 43
0.00000001
 40
0.0
 40
0.0
 40
0.0
 40
0.0
 40
0.125758125012127
 40
0.2515419981859294
 40
0.359088755512023
 40
0.4665520058433613
 40
0.5741184140250989
 40
0.6818187348406771
 40
0.7893308063896551
 40
0.896800873031079
 40
1.0
 40
1.0
 40
1.0
 40
1.0
 10
9.999999999999503
 20
-0.8468334550149641
 30
0.0
 10
10.47657131127359
 20
-1.314827158838134
 30
0.0
 10
11.42981150871142
 20
-2.250910385164563
 30
0.0
 10
12.79120348007327
 20
-3.467959335336233
 30
0.0
 10
14.08187771855908
 20
-4.476794595909327
 30
0.0
 10
15.30297439167846
 20
-5.266435660102939
 30
0.0
 10
16.52531689235268
 20
-5.861125779502723
 30
0.0
 10
17.74929656036032
 20
-6.240194236997852
 30
0.0
 10
18.97099707860691
 20
-6.384513192397695
 30
0.0
 10
20.17544955290065
 20
-6.311237376354594
 30
0.0
 10
20.97376213380964
 20
-6.072060430944954
 30
0.0
 10
21.36482624710612
 20
-5.954896399819352
 30
0.0
  0
SPLINE
  5
CC
330
1F
100
AcDbEntity
  8
0
  6
Continuous
 62
     1
370
    15
100
AcDbSpline
210
0.0
220
0.0
230
1.0
 70
     8
 71
     3
 72
    26
 73
    22
 74
     0
 42
0.000000001
 43
0.00000001
 40
0.0
 40
0.0
 40
0.0
 40
0.0
 40
0.0304405297269893
 40
0.0855927004679736
 40
0.1406478113069433
 40
0.195692125053585
 40
0.2508210992282029
 40
0.3059505072360831
 40
0.3609949433056659
 40
0.4160498619940118
 40
0.4712017914324231
 40
0.52630410574866
 40
0.5813425962317061
 40
0.6364128385013614
 40
0.6915746526607632
 40
0.7466545438679503
 40
0.8016918239306874
 40
0.8567820930228321
 40
0.9119407086158039
 40
0.9670028702674638
 40
1.0
 40
1.0
 40
1.0
 40
1.0
 10
39.07446999662086
 20
6.320928154373943
 30
0.0
 10
39.29960627598265
 20
6.325294900121192
 30
0.0
 10
39.93264460667908
 20
6.33757331853625
 30
0.0
 10
40.97401173200539
 20
6.099250372581367
 30
0.0
 10
42.19550532365921
 20
5.635305022684872
 30
0.0
 10
43.41680436597981
 20
4.951835786326197
 30
0.0
 10
44.64006533042414
 20
4.088996888734952
 30
0.0
 10
45.86334009267964
 20
3.074424896725787
 30
0.0
 10
47.08463198730045
 20
1.945731286124714
 30
0.0
 10
48.30615794822393
 20
0.7449440044615464
 30
0.0
 10
49.5299777314079
 20
-0.481933771530184
 30
0.0
 10
50.75260128418101
 20
-1.691954385450325
 30
0.0
 10
51.9737563911413
 20
-2.839709137882935
 30
0.0
 10
53.19562668075042
 20
-3.882626115902269
 30
0.0
 10
54.41968784721133
 20
-4.780922825197996
 30
0.0
 10
55.64178126375469
 20
-5.503869143497921
 30
0.0
 10
56.86290991621546
 20
-6.022633703928021
 30
0.0
 10
58.08524226364502
 20
-6.321381956110818
 30
0.0
 10
59.30924460793553
 20
-6.376894190733474
 30
0.0
 10
60.36791210325055
 20
-6.252235725703332
 30
0.0
 10
61.01892590510214
 20
-6.019847475153065
 30
0.0
 10
61.26287048539231
 20
-5.932768132006086
 30
0.0
  0
SPLINE
  5
CD
330
1F
100
AcDbEntity
  8
0
  6
Continuous
 62
     1
370
    15
100
AcDbSpline
210
0.0
220
0.0
230
1.0
 70
     8
 71
     3
 72
    11
 73
     7
 74
     0
 42
0.000000001
 43
0.00000001
 40
0.0
 40
0.0
 40
0.0
 40
0.0
 40
0.2665709160162965
 40
0.5590822366049982
 40
0.7798242669717966
 40
1.0
 40
1.0
 40
1.0
 40
1.0
 10
78.97346716069994
 20
6.340624860583604
 30
0.0
 10
79.3446486128345
 20
6.3257373345725
 30
0.0
 10
80.12313172549709
 20
6.29451355568398
 30
0.0
 10
81.20979083606166
 20
5.984007221108596
 30
0.0
 10
82.23224710700357
 20
5.557229683038284
 30
0.0
 10
82.84567832460016
 20
5.201264308860166
 30
0.0
 10
83.152
 20
5.023510215695829
 30
0.0
  0
SPLINE
  5
CE
102
{ACAD_REACTORS
330
1C2
102
}
330
1F
100
AcDbEntity
  8
0
  6
Continuous
 62
     1
370
    15
100
AcDbSpline
210
0.0
220
0.0
230
1.0
 70
     8
 71
     3
 72
    18
 73
    14
 74
     0
 42
0.000000001
 43
0.00000001
 40
0.0
 40
0.0
 40
0.0
 40
0.0
 40
0.1050492547485856
 40
0.2101200176517731
 40
0.2999568111523159
 40
0.3897238489407371
 40
0.4795770573468011
 40
0.5695421266953289
 40
0.6593499462028514
 40
0.7491226778444094
 40
0.8390161324557798
 40
0.928954809756752
 40
0.9999999999999999
 40
0.9999999999999999
 40
0.9999999999999999
 40
0.9999999999999999
 10
9.999999999998678
 20
3.434877776312022
 30
0.0
 10
10.47657130994185
 20
3.017398341346717
 30
0.0
 10
11.42981150471758
 20
2.182353995205428
 30
0.0
 10
12.79120349508541
 20
0.8413150071402148
 30
0.0
 10
14.08187767130737
 20
-0.4529351517595834
 30
0.0
 10
15.30297456892671
 20
-1.664773525949621
 30
0.0
 10
16.52531622951635
 20
-2.814172646424194
 30
0.0
 10
17.74929903569388
 20
-3.858921378701169
 30
0.0
 10
18.97098786041527
 20
-4.761836698497686
 30
0.0
 10
20.19219837599622
 20
-5.490523323246425
 30
0.0
 10
21.41510813814994
 20
-6.008898690768123
 30
0.0
 10
22.55368871431192
 20
-6.309631614128916
 30
0.0
 10
23.28327092603902
 20
-6.32418885626686
 30
0.0
 10
23.60524919517213
 20
-6.330613239361169
 30
0.0
  0
SPLINE
  5
CF
330
1F
100
AcDbEntity
  8
0
  6
Continuous
 62
     1
370
    15
100
AcDbSpline
210
0.0
220
0.0
230
1.0
 70
     8
 71
     3
 72
    26
 73
    22
 74
     0
 42
0.000000001
 43
0.00000001
 40
0.0
 40
0.0
 40
0.0
 40
0.0
 40
0.0396619150158086
 40
0.09470841356401
 40
0.1498395759005036
 40
0.2049711720874781
 40
0.260017792963476
 40
0.3150748968743102
 40
0.3702290153857301
 40
0.4253335168056676
 40
0.4803741918591388
 40
0.5354466199595004
 40
0.5906106235842516
 40
0.6456927010051281
 40
0.7007321655902469
 40
0.7558246213079968
 40
0.8109854262393613
 40
0.8660497734009952
 40
0.921092764090399
 40
0.976209930752671
 40
1.0
 40
1.0
 40
1.0
 40
1.0
 10
41.31586480028145
 20
5.937031764756428
 30
0.0
 10
41.60912293972548
 20
6.036228433820317
 30
0.0
 10
42.30939203012133
 20
6.273099476333783
 30
0.0
 10
43.41677544565279
 20
6.383018250479298
 30
0.0
 10
44.64007308509397
 20
6.297371756649361
 30
0.0
 10
45.86333801840966
 20
5.97151020229778
 30
0.0
 10
47.0846325427943
 20
5.42683498250725
 30
0.0
 10
48.30615779917998
 20
4.680882972570348
 30
0.0
 10
49.52997777092759
 20
3.763190300981074
 30
0.0
 10
50.75260127512867
 20
2.705793389632662
 30
0.0
 10
51.97375638790447
 20
1.548174618147311
 30
0.0
 10
53.19562670278293
 20
0.3331729742850832
 30
0.0
 10
54.41968776221758
 20
-0.8925819217005082
 30
0.0
 10
55.64178158102161
 20
-2.0868361991126
 30
0.0
 10
56.86290873245296
 20
-3.203810500554275
 30
0.0
 10
58.0852466887413
 20
-4.202586099052882
 30
0.0
 10
59.30922808314691
 20
-5.044292880618611
 30
0.0
 10
60.53092060885982
 20
-5.70438970291926
 30
0.0
 10
61.75210675765032
 20
-6.139707296537601
 30
0.0
 10
62.74314010065152
 20
-6.350289290306157
 30
0.0
 10
63.32700666001253
 20
-6.327890440714099
 30
0.0
 10
63.50303900632754
 20
-6.321137318814531
 30
0.0
  0
SPLINE
  5
D0
330
1F
100
AcDbEntity
  8
0
  6
Continuous
 62
     1
370
    15
100
AcDbSpline
210
0.0
220
0.0
230
1.0
 70
     8
 71
     3
 72
    10
 73
     6
 74
     0
 42
0.000000001
 43
0.00000001
 40
0.0
 40
0.0
 40
0.0
 40
0.0
 40
0.0505509331033556
 40
0.5258851839687981
 40
1.0
 40
1.0
 40
1.0
 40
1.0
 10
81.21176815147696
 20
5.951098813223678
 30
0.0
 10
81.24447825469743
 20
5.965033119803826
 30
0.0
 10
81.58476393477699
 20
6.109992766036192
 30
0.0
 10
82.23228023411289
 20
6.251351739073808
 30
0.0
 10
82.84568935751096
 20
6.31244649523148
 30
0.0
 10
83.15199999999999
 20
6.34295463946595
 30
0.0
  0
SPLINE
  5
D1
102
{ACAD_REACTORS
330
1C2
102
}
330
1F
100
AcDbEntity
  8
0
  6
Continuous
 62
     1
370
    15
100
AcDbSpline
210
0.0
220
0.0
230
1.0
 70
    24
 71
     3
 72
    16
 73
    12
 74
     0
 42
0.000000001
 43
0.00000001
 40
0.0
 40
0.0
 40
0.0
 40
0.0
 40
0.25
 40
0.25
 40
0.4999999999999999
 40
0.4999999999999999
 40
0.7499999999999998
 40
0.7499999999999998
 40
0.8749999999999999
 40
0.8749999999999999
 40
1.0
 40
1.0
 40
1.0
 40
1.0
 10
9.999999999999996
 20
3.434877776306684
 30
0.0
 10
9.999999999999996
 20
3.21114694481249
 30
0.0
 10
9.999999999999996
 20
2.942806519405896
 30
0.0
 10
9.999999999999996
 20
2.302702386928001
 30
0.0
 10
9.999999999999996
 20
1.929238909319089
 30
0.0
 10
9.999999999999996
 20
1.110755550140303
 30
0.0
 10
9.999999999999996
 20
0.6653699067937756
 30
0.0
 10
9.999999999999996
 20
0.0360169383500479
 30
0.0
 10
9.999999999999996
 20
-0.1665087201310567
 30
0.0
 10
9.999999999999996
 20
-0.5370110717390711
 30
0.0
 10
9.999999999999996
 20
-0.7047920155501028
 30
0.0
 10
9.999999999999996
 20
-0.8468334550142014
 30
0.0
  0
SPLINE
  5
D2
102
{ACAD_REACTORS
330
1C2
102
}
330
1F
100
AcDbEntity
  8
0
  6
Continuous
 62
     1
370
    15
100
AcDbSpline
210
0.0
220
0.0
230
1.0
 70
     8
 71
     3
 72
    22
 73
    18
 74
     0
 42
0.000000001
 43
0.00000001
 40
0.0
 40
0.0
 40
0.0
 40
0.0
 40
0.0793299069019832
 40
0.1586760560886571
 40
0.2265179887309136
 40
0.2943072440442185
 40
0.3621615727089875
 40
0.43010037525387
 40
0.4979204276441019
 40
0.5657139827769568
 40
0.6335987041154079
 40
0.7015175762126107
 40
0.769321551178149
 40
0.8371252356049921
 40
0.9050434834870895
 40
0.9729289437362266
 40
1.0
 40
1.0
 40
1.0
 40
1.0
 10
9.9999999999995
 20
5.026723621566119
 30
0.0
 10
10.4765713100408
 20
4.711048956408556
 30
0.0
 10
11.42981150501281
 20
4.079634993750076
 30
0.0
 10
12.79120349397724
 20
2.917562954625128
 30
0.0
 10
14.08187767479581
 20
1.710318644505125
 30
0.0
 10
15.30297455584107
 20
0.4997691869844034
 30
0.0
 10
16.52531627845133
 20
-0.7280693713336975
 30
0.0
 10
17.74929885294831
 20
-1.928091231327723
 30
0.0
 10
18.97098854096342
 20
-3.058299089806667
 30
0.0
 10
20.19219583567732
 20
-4.075335228553548
 30
0.0
 10
21.41511763512386
 20
-4.941316591354286
 30
0.0
 10
22.63870889360296
 20
-5.624827990831465
 30
0.0
 10
23.86010731438702
 20
-6.1001924374282
 30
0.0
 10
25.08150965443108
 20
-6.353629557965719
 30
0.0
 10
26.30506104645635
 20
-6.358630343576004
 30
0.0
 10
27.28347180730009
 20
-6.21558412099455
 30
0.0
 10
27.85336238892315
 20
-5.995529399865778
 30
0.0
 10
28.01583191250993
 20
-5.932794224276476
 30
0.0
  0
SPLINE
  5
D3
330
1F
100
AcDbEntity
  8
0
  6
Continuous
 62
     1
370
    15
100
AcDbSpline
210
0.0
220
0.0
230
1.0
 70
     8
 71
     3
 72
    27
 73
    23
 74
     0
 42
0.000000001
 43
0.00000001
 40
0.0
 40
0.0
 40
0.0
 40
0.0
 40
0.0062072124182023
 40
0.0612519754542005
 40
0.1163072211712291
 40
0.1714594782145712
 40
0.2265621198410228
 40
0.2816009372551673
 40
0.3366715066445281
 40
0.3918336484675765
 40
0.4469138668517839
 40
0.5019514738384295
 40
0.5570420701692399
 40
0.6122010134068585
 40
0.6672635021302247
 40
0.7223046351021488
 40
0.7774199415434792
 40
0.8325626067987
 40
0.8876120772484355
 40
0.942661469069425
 40
0.9978039653927552
 40
1.0
 40
1.0
 40
1.0
 40
1.0
 10
45.72595344422321
 20
6.338262000807288
 30
0.0
 10
45.771880671887
 20
6.34207644837412
 30
0.0
 10
46.22508465976604
 20
6.379716927383635
 30
0.0
 10
47.08457416714877
 20
6.228541020223302
 30
0.0
 10
48.30617347333709
 20
5.872045868865447
 30
0.0
 10
49.52997357200927
 20
5.275521434160964
 30
0.0
 10
50.75260239820727
 20
4.490106073097199
 30
0.0
 10
51.97375608737202
 20
3.53686881123474
 30
0.0
 10
53.19562678189185
 20
2.453208242278246
 30
0.0
 10
54.41968774698772
 20
1.280279425460917
 30
0.0
 10
55.64178156294919
 20
0.0587035041516727
 30
0.0
 10
56.86290881991509
 20
-1.164977066540779
 30
0.0
 10
58.08524635641202
 20
-2.345539998063805
 30
0.0
 10
59.309229325619
 20
-3.438349468618896
 30
0.0
 10
60.53091598149068
 20
-4.405531466448831
 30
0.0
 10
61.75212403065864
 20
-5.209584809984657
 30
0.0
 10
62.97505208337311
 20
-5.82132979845845
 30
0.0
 10
64.19863367471144
 20
-6.216195502508731
 30
0.0
 10
65.42005120757612
 20
-6.388401303075717
 30
0.0
 10
66.64137737806361
 20
-6.299584617093215
 30
0.0
 10
67.4734369027952
 20
-6.144108598003732
 30
0.0
 10
67.8976085774101
 20
-5.961991489581112
 30
0.0
 10
67.91385412227757
 20
-5.955016503194529
 30
0.0
  0
SPLINE
  5
D4
102
{ACAD_REACTORS
330
1C2
102
}
330
1F
100
AcDbEntity
  8
0
  6
Continuous
 62
     1
370
    15
100
AcDbSpline
210
0.0
220
0.0
230
1.0
 70
     8
 71
     3
 72
    24
 73
    20
 74
     0
 42
0.000000001
 43
0.00000001
 40
0.0
 40
0.0
 40
0.0
 40
0.0
 40
0.0705630889042147
 40
0.1411406251439099
 40
0.2014852859586857
 40
0.2617830908626052
 40
0.3221387778045098
 40
0.3825696033435123
 40
0.4428948019122179
 40
0.5031964314588355
 40
0.5635791523532406
 40
0.6239922499759195
 40
0.6843031478503182
 40
0.744613787293709
 40
0.8050263296838445
 40
0.865409707831264
 40
0.9257114809404731
 40
0.9860363064696904
 40
1.0
 40
1.0
 40
1.0
 40
1.0
 10
9.999999999998678
 20
6.342704934170415
 30
0.0
 10
10.47657131004137
 20
6.334510124545566
 30
0.0
 10
11.42981150501617
 20
6.318118827461663
 30
0.0
 10
12.79120349396292
 20
5.909373412212532
 30
0.0
 10
14.08187767484045
 20
5.293488212865026
 30
0.0
 10
15.30297455567362
 20
4.509704681056334
 30
0.0
 10
16.52531627907752
 20
3.560609146139979
 30
0.0
 10
17.74929885060983
 20
2.480758426204563
 30
0.0
 10
18.97098854967199
 20
1.307993640539207
 30
0.0
 10
20.19219580317039
 20
0.0869902279456006
 30
0.0
 10
21.41511775665091
 20
-1.136681707870357
 30
0.0
 10
22.63870844014809
 20
-2.317902075177548
 30
0.0
 10
23.86010900348029
 20
-3.414535181466866
 30
0.0
 10
25.08150334583076
 20
-4.385272599388578
 30
0.0
 10
26.30508463004656
 20
-5.191794397312338
 30
0.0
 10
27.52801042815355
 20
-5.812168837018541
 30
0.0
 10
28.74926000170306
 20
-6.198651586406366
 30
0.0
 10
29.65729792111728
 20
-6.369386089409208
 30
0.0
 10
30.15916085055255
 20
-6.335474821853338
 30
0.0
 10
30.25349386768058
 20
-6.329100666689537
 30
0.0
  0
SPLINE
  5
D5
330
1F
100
AcDbEntity
  8
0
  6
Continuous
 62
     1
370
    15
100
AcDbSpline
210
0.0
220
0.0
230
1.0
 70
     8
 71
     3
 72
    26
 73
    22
 74
     0
 42
0.000000001
 43
0.00000001
 40
0.0
 40
0.0
 40
0.0
 40
0.0
 40
0.0154588465272799
 40
0.0706072767443304
 40
0.1257060949871341
 40
0.1807410934461743
 40
0.2358078416772691
 40
0.2909661559881544
 40
0.3460425525445859
 40
0.4010763406601147
 40
0.456163114443059
 40
0.5113182303904532
 40
0.5663768985162441
 40
0.6214142123723947
 40
0.6765256945513091
 40
0.731664533645779
 40
0.7867101844012324
 40
0.8417557565333956
 40
0.8968944267076969
 40
0.9520061088447924
 40
1.0
 40
1.0
 40
1.0
 40
1.0
 10
47.96283339349505
 20
5.936974444126336
 30
0.0
 10
48.07712596426041
 20
5.982918610156206
 30
0.0
 10
48.59914985262814
 20
6.192765602293291
 30
0.0
 10
49.53003128180024
 20
6.342943656210449
 30
0.0
 10
50.75258696108119
 20
6.368337183359495
 30
0.0
 10
51.97376022416004
 20
6.141788563294649
 30
0.0
 10
53.19562567103663
 20
5.692579801100951
 30
0.0
 10
54.41968804446373
 20
5.032714397768261
 30
0.0
 10
55.64178148299079
 20
4.186486829224478
 30
0.0
 10
56.86290884274045
 20
3.18547675153568
 30
0.0
 10
58.08524634510552
 20
2.066810431776251
 30
0.0
 10
59.30922934798836
 20
0.8730215339941934
 30
0.0
 10
60.53091590348302
 20
-0.354516164359428
 30
0.0
 10
61.75212432042267
 20
-1.568801808262619
 30
0.0
 10
62.97505100047273
 20
-2.724574916830947
 30
0.0
 10
64.19863771521688
 20
-3.779419597828265
 30
0.0
 10
65.42003615690518
 20
-4.695210634262188
 30
0.0
 10
66.64143359107544
 20
-5.439001707743139
 30
0.0
 10
67.86501396941307
 20
-5.975217223427777
 30
0.0
 10
69.03584008760707
 20
-6.299298195917761
 30
0.0
 10
69.79802081516046
 20
-6.324962727708151
 30
0.0
 10
70.1528029836771
 20
-6.336909130855589
 30
0.0
  0
SPLINE
  5
D6
102
{ACAD_REACTORS
330
1C2
102
}
330
1F
100
AcDbEntity
  8
0
  6
Continuous
 62
     1
370
    15
100
AcDbSpline
210
0.0
220
0.0
230
1.0
 70
    24
 71
     3
 72
    14
 73
    10
 74
     0
 42
0.000000001
 43
0.00000001
 40
0.0
 40
0.0
 40
0.0
 40
0.0
 40
0.1732673990869821
 40
0.329266963495346
 40
0.4852665279037098
 40
0.6412660923120734
 40
0.7972656567204371
 40
0.9532652211288004
 40
1.0
 40
1.0
 40
1.0
 40
1.0
 10
9.999999999999996
 20
6.342704934163502
 30
0.0
 10
9.999999999999996
 20
6.174100654945275
 30
0.0
 10
9.999999999999996
 20
5.853695204508302
 30
0.0
 10
9.999999999999996
 20
5.458861794677089
 30
0.0
 10
9.999999999999996
 20
5.142537322943967
 30
0.0
 10
9.999999999999996
 20
4.904449730138368
 30
0.0
 10
9.999999999999998
 20
4.755327717610291
 30
0.0
 10
9.999999999999996
 20
4.691426881715857
 30
0.0
 10
9.999999999999996
 20
4.706303337011379
 30
0.0
 10
9.999999999999996
 20
4.709732691097996
 30
0.0
  0
LINE
  5
D7
102
{ACAD_REACTORS
330
1C9
102
}
330
1F
100
AcDbEntity
  8
0
  6
Continuous
 62
     1
370
    15
100
AcDbLine
 10
83.152
 20
-6.342954639459236
 30
0.0
 11
85.43799999939488
 21
-6.342954639465687
 31
0.0
  0
SPLINE
  5
D8
330
1F
100
AcDbEntity
  8
0
  6
Continuous
 62
     1
370
    15
100
AcDbSpline
210
0.0
220
0.0
230
1.0
 70
     8
 71
     3
 72
    26
 73
    22
 74
     0
 42
0.000000001
 43
0.00000001
 40
0.0
 40
0.0
 40
0.0
 40
0.0
 40
0.0480589944317671
 40
0.1031702797505528
 40
0.1583092898971395
 40
0.2133550223741618
 40
0.2684005189813063
 40
0.3235390223673716
 40
0.3786509075607219
 40
0.4336883118681889
 40
0.4887467561102188
 40
0.5439017295299229
 40
0.5989888372909636
 40
0.6540226458763364
 40
0.7090987490416387
 40
0.7642571141852135
 40
0.8193241270261991
 40
0.8743590759561088
 40
0.9294575315979818
 40
0.9846062059478919
 40
1.0
 40
1.0
 40
1.0
 40
1.0
 10
19.12589789132731
 20
6.337012780905932
 30
0.0
 10
19.48116140329913
 20
6.324978219507067
 30
0.0
 10
20.24382063803062
 20
6.299143116611626
 30
0.0
 10
21.41511936979025
 20
5.974711923146272
 30
0.0
 10
22.63870804827978
 20
5.438235873627677
 30
0.0
 10
23.86010896074585
 20
4.694224546792856
 30
0.0
 10
25.08150390877586
 20
3.778247456934863
 30
0.0
 10
26.30508241717588
 20
2.723254152381016
 30
0.0
 10
27.52801870605267
 20
1.567393390433974
 30
0.0
 10
28.74922914153703
 20
0.3530638001946941
 30
0.0
 10
29.97091059989658
 20
-0.8744634018590021
 30
0.0
 10
31.19489005429742
 20
-2.068190415904317
 30
0.0
 10
32.4172353798128
 20
-3.186736723539902
 30
0.0
 10
33.63836314552062
 20
-4.187585215776291
 30
0.0
 10
34.86044967004003
 20
-5.033612120347795
 30
0.0
 10
36.08451322165637
 20
-5.693241537362224
 30
0.0
 10
37.30638465517193
 20
-6.142187187851007
 30
0.0
 10
38.52755680839226
 20
-6.368467779358141
 30
0.0
 10
39.75010341648171
 20
-6.342768661080307
 30
0.0
 10
40.68050728932982
 20
-6.192533727219829
 30
0.0
 10
41.2020529774986
 20
-5.982799924526816
 30
0.0
 10
41.31586480028145
 20
-5.937031764756419
 30
0.0
  0
SPLINE
  5
D9
330
1F
100
AcDbEntity
  8
0
  6
Continuous
 62
     1
370
    15
100
AcDbSpline
210
0.0
220
0.0
230
1.0
 70
     8
 71
     3
 72
    26
 73
    22
 74
     0
 42
0.000000001
 43
0.00000001
 40
0.0
 40
0.0
 40
0.0
 40
0.0
 40
0.0128113974439105
 40
0.0678765306134873
 40
0.1229203070059851
 40
0.1780382604301644
 40
0.2331835739821761
 40
0.2882356882529032
 40
0.3432877238911081
 40
0.3984328685031159
 40
0.4535510219089562
 40
0.5085948419830881
 40
0.5636598616483453
 40
0.6188213816263503
 40
0.673914789212675
 40
0.7289550481373386
 40
0.7840377635571911
 40
0.8392025789658089
 40
0.8942759239606575
 40
0.9493173583673581
 40
1.0
 40
1.0
 40
1.0
 40
1.0
 10
59.02519658829156
 20
6.329025861194203
 30
0.0
 10
59.12001261476488
 20
6.335417264251784
 30
0.0
 10
59.62236085208578
 20
6.369279789179315
 30
0.0
 10
60.53088535604482
 20
6.198334147226656
 30
0.0
 10
61.75213251419722
 20
5.811557198838606
 30
0.0
 10
62.97504881067486
 20
5.190945218764385
 30
0.0
 10
64.19863827000104
 20
4.384214874534439
 30
0.0
 10
65.42003612376831
 20
3.413305568763445
 30
0.0
 10
66.64143316895282
 20
2.316547500185838
 30
0.0
 10
67.86501569415333
 20
1.135245117691899
 30
0.0
 10
69.08794720136717
 20
-0.0884439709110427
 30
0.0
 10
70.30915661540898
 20
-1.309413471428001
 30
0.0
 10
71.53084062975034
 20
-2.482114470902495
 30
0.0
 10
72.75482183315609
 20
-3.561764955773429
 30
0.0
 10
73.9771633686408
 20
-4.510939418641938
 30
0.0
 10
75.19829046322636
 20
-5.293537393599237
 30
0.0
 10
76.42038217914188
 20
-5.880134327843646
 30
0.0
 10
77.64443865822155
 20
-6.250465899401748
 30
0.0
 10
78.86633128798843
 20
-6.385224570668965
 30
0.0
 10
80.05472886914221
 20
-6.305253246990785
 30
0.0
 10
80.8368366384684
 20
-6.065860394544446
 30
0.0
 10
81.21176815147696
 20
-5.951098813223663
 30
0.0
  0
SPLINE
  5
DA
330
1F
100
AcDbEntity
  8
0
  6
Continuous
 62
     1
370
    15
100
AcDbSpline
210
0.0
220
0.0
230
1.0
 70
     8
 71
     3
 72
    27
 73
    23
 74
     0
 42
0.000000001
 43
0.00000001
 40
0.0
 40
0.0
 40
0.0
 40
0.0
 40
0.0022613894357002
 40
0.0574041933861865
 40
0.1124537132491989
 40
0.1675029972261044
 40
0.222645294381202
 40
0.2777609715121372
 40
0.3328021626325797
 40
0.3878643951352245
 40
0.443023163457171
 40
0.4981140614510012
 40
0.5531516566019485
 40
0.6082315492428764
 40
0.6633937095220588
 40
0.7184645112132163
 40
0.773503246787161
 40
0.8286054934426071
 40
0.883757962261356
 40
0.9388133706535168
 40
0.9938579818949943
 40
1.0
 40
1.0
 40
1.0
 40
1.0
 10
21.36482624710612
 20
5.95489639981936
 30
0.0
 10
21.38155520657635
 20
5.962077034106375
 30
0.0
 10
21.80621113245031
 20
6.144353696736933
 30
0.0
 10
22.63876467208624
 20
6.299836856550869
 30
0.0
 10
23.86009380020344
 20
6.388334485814359
 30
0.0
 10
25.08150797875089
 20
6.215862701956913
 30
0.0
 10
26.30508132636238
 20
5.820727039512536
 30
0.0
 10
27.52801899793377
 20
5.208743663794839
 30
0.0
 10
28.74922906296094
 20
4.404477824546383
 30
0.0
 10
29.97091062242577
 20
3.437122596796706
 30
0.0
 10
31.19489004292108
 20
2.344183309985361
 30
0.0
 10
32.41723540275751
 20
1.163547733639749
 30
0.0
 10
33.63836306515554
 20
-0.0601574610771656
 30
0.0
 10
34.86044996902493
 20
-1.281707341189638
 30
0.0
 10
36.08451210515758
 20
-2.454553131310267
 30
0.0
 10
37.3063888129834
 20
-3.538079686281141
 30
0.0
 10
38.5275412929518
 20
-4.491140575629887
 30
0.0
 10
39.75016141895485
 20
-5.276342017495174
 30
0.0
 10
40.97396733894681
 20
-5.872629323520494
 30
0.0
 10
42.19557109467507
 20
-6.228819443325904
 30
0.0
 10
43.05457860826576
 20
-6.379817039044623
 30
0.0
 10
43.50729733115525
 20
-6.342150902960327
 30
0.0
 10
43.5527420079116
 20
-6.338369912043743
 30
0.0
  0
SPLINE
  5
DB
330
1F
100
AcDbEntity
  8
0
  6
Continuous
 62
     1
370
    15
100
AcDbSpline
210
0.0
220
0.0
230
1.0
 70
     8
 71
     3
 72
    26
 73
    22
 74
     0
 42
0.000000001
 43
0.00000001
 40
0.0
 40
0.0
 40
0.0
 40
0.0
 40
0.02234405600154
 40
0.0782100631998834
 40
0.1341038018541942
 40
0.1899030763385631
 40
0.2457022711232193
 40
0.3015958385446948
 40
0.3574620484388238
 40
0.4132529161588281
 40
0.4690652711880818
 40
0.5249754362199152
 40
0.5808165644474496
 40
0.6366038226865235
 40
0.6924341136348773
 40
0.7483476188224844
 40
0.8041684121716318
 40
0.8599568618462331
 40
0.9158098463750752
 40
0.957958988439487
 40
1.0
 40
1.0
 40
1.0
 40
1.0
 10
61.26287048539233
 20
5.932768132006098
 30
0.0
 10
61.42582057192264
 20
5.995662121527202
 30
0.0
 10
61.99618866288537
 20
6.215807599814553
 30
0.0
 10
62.97507207233291
 20
6.358768375709324
 30
0.0
 10
64.19863204750251
 20
6.353466595953908
 30
0.0
 10
65.42003778979999
 20
6.099761226797124
 30
0.0
 10
66.64143272167519
 20
5.624138028186617
 30
0.0
 10
67.86501581408916
 20
4.940391154871522
 30
0.0
 10
69.0879471690524
 20
4.074215144875671
 30
0.0
 10
70.30915662493602
 20
3.057025514448363
 30
0.0
 10
71.5308406239409
 20
1.92669002771839
 30
0.0
 10
72.75482184686514
 20
0.7266707235039591
 30
0.0
 10
73.97716331970767
 20
-0.5014057727845402
 30
0.0
 10
75.19829064514545
 20
-1.711020714617291
 30
0.0
 10
76.42038149932937
 20
-2.857440437105027
 30
0.0
 10
77.6444411976451
 20
-3.89715205168467
 30
0.0
 10
78.86632183103511
 20
-4.793930092953998
 30
0.0
 10
80.08744904245427
 20
-5.514409329098534
 30
0.0
 10
81.20979211385229
 20
-5.985045074056196
 30
0.0
 10
82.2322468265188
 20
-6.260802539863081
 30
0.0
 10
82.84567823118533
 20
-6.31559406362042
 30
0.0
 10
83.15199999999999
 20
-6.342954639465935
 30
0.0
  0
SPLINE
  5
DC
330
1F
100
AcDbEntity
  8
0
  6
Continuous
 62
     1
370
    15
100
AcDbSpline
210
0.0
220
0.0
230
1.0
 70
     8
 71
     3
 72
    42
 73
    38
 74
     0
 42
0.000000001
 43
0.00000001
 40
0.0
 40
0.0
 40
0.0
 40
0.0
 40
0.1250000000000004
 40
0.1250000000000004
 40
0.1875000000000007
 40
0.1875000000000007
 40
0.2500000000000009
 40
0.2500000000000009
 40
0.3125000000000011
 40
0.3125000000000011
 40
0.3750000000000013
 40
0.3750000000000013
 40
0.4375000000000015
 40
0.4375000000000015
 40
0.5000000000000017
 40
0.5000000000000017
 40
0.5625000000000019
 40
0.5625000000000019
 40
0.593750000000002
 40
0.593750000000002
 40
0.6250000000000021
 40
0.6250000000000021
 40
0.6562500000000022
 40
0.6562500000000022
 40
0.6875000000000023
 40
0.6875000000000023
 40
0.7187500000000024
 40
0.7187500000000024
 40
0.7500000000000024
 40
0.7500000000000024
 40
0.7812500000000026
 40
0.7812500000000026
 40
0.8125000000000027
 40
0.8125000000000027
 40
0.8750000000000029
 40
0.8750000000000029
 40
1.0
 40
1.0
 40
1.0
 40
1.0
 10
83.152
 20
-2.912498881782132
 30
0.0
 10
83.42370208523532
 20
-3.154164910233807
 30
0.0
 10
83.68210267056574
 20
-3.373038093859208
 30
0.0
 10
84.05733844327426
 20
-3.663388329750537
 30
0.0
 10
84.17956766601995
 20
-3.753264091790671
 30
0.0
 10
84.41309952013769
 20
-3.915876968312859
 30
0.0
 10
84.52512651001948
 20
-3.989345169477838
 30
0.0
 10
84.73974443934345
 20
-4.121196845429925
 30
0.0
 10
84.84292598486155
 20
-4.179827368417989
 30
0.0
 10
85.03421135794675
 20
-4.282746890318714
 30
0.0
 10
85.12228228943506
 20
-4.327066322598637
 30
0.0
 10
85.28122783629156
 20
-4.40721799871076
 30
0.0
 10
85.35211160600801
 20
-4.442994398322169
 30
0.0
 10
85.47335927954592
 20
-4.51448295865675
 30
0.0
 10
85.52361129718149
 20
-4.55014916242347
 30
0.0
 10
85.59718639029023
 20
-4.632824618605399
 30
0.0
 10
85.6210678587694
 20
-4.680354609032454
 30
0.0
 10
85.62924006985894
 20
-4.772174842721178
 30
0.0
 10
85.62740051927518
 20
-4.806246667484267
 30
0.0
 10
85.6116116278171
 20
-4.884912145329494
 30
0.0
 10
85.59741604432999
 20
-4.930142106639786
 30
0.0
 10
85.55224796926635
 20
-5.032565307230125
 30
0.0
 10
85.52060244890875
 20
-5.091037600685936
 30
0.0
 10
85.43697635478541
 20
-5.217134190896986
 30
0.0
 10
85.38322534724776
 20
-5.286918588260205
 30
0.0
 10
85.25968095072567
 20
-5.423613838797419
 30
0.0
 10
85.18854067240878
 20
-5.491991094909644
 30
0.0
 10
85.04105400854787
 20
-5.615086734914236
 30
0.0
 10
84.96397864178046
 20
-5.670696890840388
 30
0.0
 10
84.81117757598955
 20
-5.766764343010403
 30
0.0
 10
84.73352394675699
 20
-5.80848343248653
 30
0.0
 10
84.58134958945972
 20
-5.878400610707822
 30
0.0
 10
84.50639903375856
 20
-5.9069485088398
 30
0.0
 10
84.28238075835492
 20
-5.977181699646131
 30
0.0
 10
84.13438301967959
 20
-6.003009138773158
 30
0.0
 10
83.70360444389064
 20
-6.028705217616892
 30
0.0
 10
83.42373644646439
 20
-5.978713102965356
 30
0.0
 10
83.15200000000002
 20
-5.875552639596775
 30
0.0
  0
SPLINE
  5
DD
330
1F
100
AcDbEntity
  8
0
  6
Continuous
 62
     1
370
    15
100
AcDbSpline
210
0.0
220
0.0
230
1.0
 70
     8
 71
     3
 72
    26
 73
    22
 74
     0
 42
0.000000001
 43
0.00000001
 40
0.0
 40
0.0
 40
0.0
 40
0.0
 40
0.0238551555692823
 40
0.0789727039333707
 40
0.1340157637580911
 40
0.1890798656793899
 40
0.2442405066974793
 40
0.2993332750831862
 40
0.3543727388163244
 40
0.4094545014754858
 40
0.4646185345659718
 40
0.5196912059667157
 40
0.5747318101615699
 40
0.6298359275941913
 40
0.6849902688952088
 40
0.7400475464743377
 40
0.7950940265362101
 40
0.8502251703579408
 40
0.9053567480300078
 40
0.9604033504196353
 40
1.0
 40
1.0
 40
1.0
 40
1.0
 10
25.77564827431622
 20
6.321118522269495
 30
0.0
 10
25.95216152997971
 20
6.327858098357972
 30
0.0
 10
26.53651022723901
 20
6.350169524729766
 30
0.0
 10
27.5280364774275
 20
6.139329212940016
 30
0.0
 10
28.74922438031628
 20
5.703728653896191
 30
0.0
 10
29.97091187973922
 20
5.043400848994556
 30
0.0
 10
31.19488970661529
 20
4.201487061589257
 30
0.0
 10
32.41723549127821
 20
3.202552767944093
 30
0.0
 10
33.63836304681798
 20
2.085461872893439
 30
0.0
 10
34.86044995379755
 20
0.8911386802081624
 30
0.0
 10
36.08451218452338
 20
-0.3346275418361738
 30
0.0
 10
37.30638851142293
 20
-1.549585548562692
 30
0.0
 10
38.52754241987562
 20
-2.70710986627568
 30
0.0
 10
39.75015720566282
 20
-3.764369566419984
 30
0.0
 10
40.97398306695059
 20
-4.681872763263141
 30
0.0
 10
42.19551251870647
 20
-5.427602916361201
 30
0.0
 10
43.41680421950062
 20
-5.97202572167309
 30
0.0
 10
44.64005869696182
 20
-6.297623224789712
 30
0.0
 10
45.86336675281785
 20
-6.382975940471765
 30
0.0
 10
46.97027233572437
 20
-6.272900243978037
 30
0.0
 10
47.67005835464481
 20
-6.036062241629979
 30
0.0
 10
47.96283339349509
 20
-5.936974444126327
 30
0.0
  0
SPLINE
  5
DE
330
1F
100
AcDbEntity
  8
0
  6
Continuous
 62
     1
370
    15
100
AcDbSpline
210
0.0
220
0.0
230
1.0
 70
     8
 71
     3
 72
    22
 73
    18
 74
     0
 42
0.000000001
 43
0.00000001
 40
0.0
 40
0.0
 40
0.0
 40
0.0
 40
0.0553755226997665
 40
0.1253723288529258
 40
0.1953348745423718
 40
0.2652030674860426
 40
0.3350981694836467
 40
0.4051157612078197
 40
0.4750468965465644
 40
0.5449105692538523
 40
0.6148281328174358
 40
0.6848499074958725
 40
0.7547555769964848
 40
0.8246207417660179
 40
0.8945667250248831
 40
0.9473510696768773
 40
1.0
 40
1.0
 40
1.0
 40
1.0
 10
65.67344971514099
 20
6.330694623474026
 30
0.0
 10
65.99590909125791
 20
6.324196114279859
 30
0.0
 10
66.72596961210256
 20
6.30948323768703
 30
0.0
 10
67.86502518815635
 20
6.008415891880032
 30
0.0
 10
69.08794466161065
 20
5.489776078801036
 30
0.0
 10
70.30915729667062
 20
4.760870233821003
 30
0.0
 10
71.53084044356187
 20
3.857751205789562
 30
0.0
 10
72.7548218951683
 20
2.812899802872034
 30
0.0
 10
73.97716330678591
 20
1.663233934098906
 30
0.0
 10
75.19829064860923
 20
0.4519922003996593
 30
0.0
 10
76.42038149839934
 20
-0.7760044681877116
 30
0.0
 10
77.64444119789397
 20
-1.973985903437287
 30
0.0
 10
78.86632183096845
 20
-3.100307478603342
 30
0.0
 10
80.08744904247227
 20
-4.112809129398933
 30
0.0
 10
81.20979211384878
 20
-4.899323880627173
 30
0.0
 10
82.23224682651959
 20
-5.490052993646718
 30
0.0
 10
82.84567823118557
 20
-5.747162831516092
 30
0.0
 10
83.152
 20
-5.875552639596783
 30
0.0
  0
LINE
  5
DF
330
1F
100
AcDbEntity
  8
0
  6
Continuous
 62
     1
370
    15
100
AcDbLine
 10
9.99999999999868
 20
-6.342704934170409
 30
0.0
 11
10.3039701069687
 21
-6.323134755288096
 31
0.0
  0
SPLINE
  5
E0
330
1F
100
AcDbEntity
  8
0
  6
Continuous
 62
     1
370
    15
100
AcDbSpline
210
0.0
220
0.0
230
1.0
 70
     8
 71
     3
 72
    26
 73
    22
 74
     0
 42
0.000000001
 43
0.00000001
 40
0.0
 40
0.0
 40
0.0
 40
0.0
 40
0.0330622455697217
 40
0.0881242023787715
 40
0.1432826945237734
 40
0.1983733166804821
 40
0.2534106362611924
 40
0.3084902531201019
 40
0.3636521372053563
 40
0.4187226631600134
 40
0.4737611231580109
 40
0.5288630939195134
 40
0.5840152865928588
 40
0.6390704193255925
 40
0.6941147549617038
 40
0.7492437510594591
 40
0.8043731809906483
 40
0.8594176389497494
 40
0.9144725795317827
 40
0.9696245309024598
 40
1.0
 40
1.0
 40
1.0
 40
1.0
 10
28.01583191250998
 20
5.932794224276484
 30
0.0
 10
28.26025812617513
 20
6.020001640734951
 30
0.0
 10
28.91175244389416
 20
6.252444533965219
 30
0.0
 10
29.970895181026
 20
6.376971768384596
 30
0.0
 10
31.19489417833281
 20
6.321163741970452
 30
0.0
 10
32.41723429504685
 20
6.022149267383791
 30
0.0
 10
33.6383633674245
 20
5.503130284149021
 30
0.0
 10
34.86044986790647
 20
4.779955868380995
 30
0.0
 10
36.08451220679727
 20
3.881469206268172
 30
0.0
 10
37.30638850811758
 20
2.838406235023852
 30
0.0
 10
38.52754241085638
 20
1.690552988225351
 30
0.0
 10
39.75015724511852
 20
0.4804785902742317
 30
0.0
 10
40.97398291812761
 20
-0.7463885471699898
 30
0.0
 10
42.19551307337951
 20
-1.947116966882817
 30
0.0
 10
43.4168021483125
 20
-3.075697937079653
 30
0.0
 10
44.64006644011471
 20
-4.090119662770647
 30
0.0
 10
45.86333787499923
 20
-4.952752180972897
 30
0.0
 10
47.08463973699286
 20
-5.635995288139312
 30
0.0
 10
48.30612913464018
 20
-6.099663802187633
 30
0.0
 10
49.34700666576599
 20
-6.337702388627546
 30
0.0
 10
49.9795648201255
 20
-6.325313468868459
 30
0.0
 10
50.20422084932593
 20
-6.320913485246436
 30
0.0
  0
SPLINE
  5
E1
330
1F
100
AcDbEntity
  8
0
  6
Continuous
 62
     1
370
    15
100
AcDbSpline
210
0.0
220
0.0
230
1.0
 70
     8
 71
     3
 72
    20
 73
    16
 74
     0
 42
0.000000001
 43
0.00000001
 40
0.0
 40
0.0
 40
0.0
 40
0.0
 40
0.0770496158642717
 40
0.1571883884742517
 40
0.2373580257518793
 40
0.3176681586675214
 40
0.3978791261643856
 40
0.4780127140661269
 40
0.5582081147455629
 40
0.6385230455070706
 40
0.7187048037038881
 40
0.7988401030000691
 40
0.8790681010518132
 40
0.9396117106002005
 40
1.0
 40
1.0
 40
1.0
 40
1.0
 10
67.91385412227761
 20
5.955016503194543
 30
0.0
 10
68.30540642566048
 20
6.072249788090994
 30
0.0
 10
69.10420957194164
 20
6.311416601860425
 30
0.0
 10
70.30914831159366
 20
6.384485639447916
 30
0.0
 10
71.53084285630031
 20
6.239879183559587
 30
0.0
 10
72.75482124906837
 20
5.860542751851991
 30
0.0
 10
73.9771634796266
 20
5.265623115253381
 30
0.0
 10
75.19829060227795
 20
4.475716370395437
 30
0.0
 10
76.42038151083916
 20
3.520409448929914
 30
0.0
 10
77.64444119456458
 20
2.436295677757424
 30
0.0
 10
78.86632183185992
 20
1.260923444855145
 30
0.0
 10
80.08744904223101
 20
0.0386747963270723
 30
0.0
 10
81.20979211389582
 20
-1.082919774053578
 30
0.0
 10
82.23224682650927
 20
-2.075595867000055
 30
0.0
 10
82.84567823118213
 20
-2.633770175857723
 30
0.0
 10
83.152
 20
-2.912498881782301
 30
0.0
  0
SPLINE
  5
E2
330
1F
100
AcDbEntity
  8
0
  6
Continuous
 62
     1
370
    15
100
AcDbSpline
210
0.0
220
0.0
230
1.0
 70
     8
 71
     3
 72
    42
 73
    38
 74
     0
 42
0.000000001
 43
0.00000001
 40
0.0
 40
0.0
 40
0.0
 40
0.0
 40
0.1249999999999996
 40
0.1249999999999996
 40
0.1874999999999994
 40
0.1874999999999994
 40
0.2499999999999992
 40
0.2499999999999992
 40
0.3124999999999989
 40
0.3124999999999989
 40
0.3749999999999988
 40
0.3749999999999988
 40
0.4374999999999986
 40
0.4374999999999986
 40
0.4999999999999983
 40
0.4999999999999983
 40
0.5624999999999981
 40
0.5624999999999981
 40
0.593749999999998
 40
0.593749999999998
 40
0.6249999999999979
 40
0.6249999999999979
 40
0.6562499999999978
 40
0.6562499999999978
 40
0.6874999999999977
 40
0.6874999999999977
 40
0.7187499999999976
 40
0.7187499999999976
 40
0.7499999999999976
 40
0.7499999999999976
 40
0.7812499999999974
 40
0.7812499999999974
 40
0.8124999999999973
 40
0.8124999999999973
 40
0.8749999999999971
 40
0.8749999999999971
 40
1.0
 40
1.0
 40
1.0
 40
1.0
 10
83.152
 20
3.430455757677125
 30
0.0
 10
83.42370208523532
 20
3.201597191106254
 30
0.0
 10
83.68210267056577
 20
2.943053123538724
 30
0.0
 10
84.05733844327422
 20
2.51827021179282
 30
0.0
 10
84.17956766601989
 20
2.370918530090131
 30
0.0
 10
84.41309952013772
 20
2.071573359783351
 30
0.0
 10
84.52512651001952
 20
1.918598065194826
 30
0.0
 10
84.73974443934353
 20
1.606061436308526
 30
0.0
 10
84.84292598486164
 20
1.445488156852041
 30
0.0
 10
85.03421135794683
 20
1.121723657352109
 30
0.0
 10
85.12228228943508
 20
0.958782643199611
 30
0.0
 10
85.28122783629159
 20
0.6283107190097228
 30
0.0
 10
85.35211160600804
 20
0.4607993187217828
 30
0.0
 10
85.47335927954593
 20
0.1174543197570766
 30
0.0
 10
85.52361129718152
 20
-0.0583159759936448
 30
0.0
 10
85.59718639029026
 20
-0.4166730859824245
 30
0.0
 10
85.62106785876941
 20
-0.6015763093871379
 30
0.0
 10
85.62924006985892
 20
-0.8811415734735577
 30
0.0
 10
85.62740051927523
 20
-0.9748760003798473
 30
0.0
 10
85.61161162781715
 20
-1.164019065367236
 30
0.0
 10
85.59741604433002
 20
-1.260615758832341
 30
0.0
 10
85.55224796926636
 20
-1.447337688585888
 30
0.0
 10
85.52060244890878
 20
-1.539425320755184
 30
0.0
 10
85.43697635478546
 20
-1.703730832378266
 30
0.0
 10
85.38322534724776
 20
-1.778113337611107
 30
0.0
 10
85.25968095072567
 20
-1.891529721785755
 30
0.0
 10
85.1885406724088
 20
-1.932092311106527
 30
0.0
 10
85.04105400854789
 20
-1.979219937490684
 30
0.0
 10
84.9639786417804
 20
-1.986745087888016
 30
0.0
 10
84.81117757598955
 20
-1.978902350342098
 30
0.0
 10
84.73352394675703
 20
-1.963493954847015
 30
0.0
 10
84.58134958945978
 20
-1.917466663564341
 30
0.0
 10
84.50639903375863
 20
-1.886833707463774
 30
0.0
 10
84.28238075835499
 20
-1.779010195775242
 30
0.0
 10
84.1343830196796
 20
-1.685587672975309
 30
0.0
 10
83.70360444389067
 20
-1.374978302576983
 30
0.0
 10
83.42373644646442
 20
-1.121576417821972
 30
0.0
 10
83.15200000000002
 20
-0.8520424239009596
 30
0.0
  0
SPLINE
  5
E3
102
{ACAD_REACTORS
330
1C2
102
}
330
1F
100
AcDbEntity
  8
0
  6
Continuous
 62
     1
370
    15
100
AcDbSpline
210
0.0
220
0.0
230
1.0
 70
     8
 71
     3
 72
    11
 73
     7
 74
     0
 42
0.000000001
 43
0.00000001
 40
0.0
 40
0.0
 40
0.0
 40
0.0
 40
0.3031358930841714
 40
0.6063338512793169
 40
0.8655718315466615
 40
1.0
 40
1.0
 40
1.0
 40
1.0
 10
9.999999999999503
 20
-5.873557076581132
 30
0.0
 10
10.47657113816287
 20
-6.026609740968309
 30
0.0
 10
11.42981098934384
 20
-6.332746406284511
 30
0.0
 10
12.79120543250411
 20
-6.377248085232941
 30
0.0
 10
13.88609146644952
 20
-6.238047519333207
 30
0.0
 10
14.50439440177852
 20
-6.009693578076754
 30
0.0
 10
14.71553099916113
 20
-5.931715824129748
 30
0.0
  0
SPLINE
  5
E4
330
1F
100
AcDbEntity
  8
0
  6
Continuous
 62
     1
370
    15
100
AcDbSpline
210
0.0
220
0.0
230
1.0
 70
     8
 71
     3
 72
    26
 73
    22
 74
     0
 42
0.000000001
 43
0.00000001
 40
0.0
 40
0.0
 40
0.0
 40
0.0
 40
0.0546490336051348
 40
0.1097263874900274
 40
0.1648860052212744
 40
0.2199542685754187
 40
0.2749904672903501
 40
0.3300901741594144
 40
0.385240100876929
 40
0.4402929716415883
 40
0.4953350457532301
 40
0.5504617768481969
 40
0.6055889417587743
 40
0.6606311381883802
 40
0.7156838168102337
 40
0.7708335022349935
 40
0.8259335745563117
 40
0.8809698256412939
 40
0.9360378272209734
 40
0.9911973969645356
 40
1.0
 40
1.0
 40
1.0
 40
1.0
 10
32.42608524308987
 20
6.349183831044925
 30
0.0
 10
32.83008321829001
 20
6.327147372576544
 30
0.0
 10
33.64124556550181
 20
6.282901741477551
 30
0.0
 10
34.86044238712985
 20
5.921927766698268
 30
0.0
 10
36.08451420891561
 20
5.359183385466799
 30
0.0
 10
37.30638797220882
 20
4.593142303348679
 30
0.0
 10
38.52754255529863
 20
3.658626867376151
 30
0.0
 10
39.75015720373553
 20
2.588800491763454
 30
0.0
 10
40.97398293897796
 20
1.424361196618964
 30
0.0
 10
42.19551303138557
 20
0.2059194865003655
 30
0.0
 10
43.41680229554287
 20
-1.020035340464847
 30
0.0
 10
44.64006589226694
 20
-2.207456925951744
 30
0.0
 10
45.86333991748976
 20
-3.31337972182756
 30
0.0
 10
47.0846321269938
 20
-4.297690229332801
 30
0.0
 10
48.3061575641246
 20
-5.123045708485848
 30
0.0
 10
49.5299791301274
 20
-5.758768622661533
 30
0.0
 10
50.75259608206098
 20
-6.18086406454504
 30
0.0
 10
51.97377578326606
 20
-6.380048837292981
 30
0.0
 10
53.19555420875286
 20
-6.323128697247405
 30
0.0
 10
54.07720254353715
 20
-6.168659001903665
 30
0.0
 10
54.5502145624149
 20
-5.971560346538055
 30
0.0
 10
54.61531142908277
 20
-5.944435232636732
 30
0.0
  0
SPLINE
  5
E5
330
1F
100
AcDbEntity
  8
0
  6
Continuous
 62
     1
370
    15
100
AcDbSpline
210
0.0
220
0.0
230
1.0
 70
     8
 71
     3
 72
    17
 73
    13
 74
     0
 42
0.000000001
 43
0.00000001
 40
0.0
 40
0.0
 40
0.0
 40
0.0
 40
0.0397784545715414
 40
0.1526565213780726
 40
0.2654256946083213
 40
0.3782818547814776
 40
0.4913062254252267
 40
0.6041431870135445
 40
0.7169147686288563
 40
0.8298168019348756
 40
0.9150176892521689
 40
1.0
 40
1.0
 40
1.0
 40
1.0
 10
72.32405225333366
 20
6.323158667450292
 30
0.0
 10
72.46773907591133
 20
6.330388850551739
 30
0.0
 10
73.01916146621875
 20
6.358135896360377
 30
0.0
 10
73.97716411191593
 20
6.16430177915866
 30
0.0
 10
75.1982904327879
 20
5.748121069794176
 30
0.0
 10
76.4203815563468
 20
5.103638429624777
 30
0.0
 10
77.64444118238492
 20
4.275847920552382
 30
0.0
 10
78.86632183512101
 20
3.287929261159921
 30
0.0
 10
80.08744904134844
 20
2.178827754924696
 30
0.0
 10
81.2097921140678
 20
1.087230221389881
 30
0.0
 10
82.23224682647148
 20
0.0666176296610568
 30
0.0
 10
82.84567823116957
 20
-0.5460847162679386
 30
0.0
 10
83.152
 20
-0.8520424239009665
 30
0.0
  0
SPLINE
  5
E6
102
{ACAD_REACTORS
330
1C2
102
}
330
1F
100
AcDbEntity
  8
0
  6
Continuous
 62
     1
370
    15
100
AcDbSpline
210
0.0
220
0.0
230
1.0
 70
     8
 71
     3
 72
    13
 73
     9
 74
     0
 42
0.000000001
 43
0.00000001
 40
0.0
 40
0.0
 40
0.0
 40
0.0
 40
0.2055213937397358
 40
0.4110848666538658
 40
0.5868441621722282
 40
0.7624669856022274
 40
0.9382583957154901
 40
1.0
 40
1.0
 40
1.0
 40
1.0
 10
9.99999999999868
 20
-2.9078271578584
 30
0.0
 10
10.47657131529368
 20
-3.31718616813542
 30
0.0
 10
11.42981152077418
 20
-4.135988002295768
 30
0.0
 10
12.7912034347247
 20
-5.06721945385279
 30
0.0
 10
14.08187786129503
 20
-5.74906399572128
 30
0.0
 10
15.30297385625444
 20
-6.164572802332227
 30
0.0
 10
16.26049288779855
 20
-6.358256005921854
 30
0.0
 10
16.8114309968516
 20
-6.330432245431388
 30
0.0
 10
16.95463552275993
 20
-6.323200056616437
 30
0.0
  0
SPLINE
  5
E7
330
1F
100
AcDbEntity
  8
0
  6
Continuous
 62
     1
370
    15
100
AcDbSpline
210
0.0
220
0.0
230
1.0
 70
     8
 71
     3
 72
    26
 73
    22
 74
     0
 42
0.000000001
 43
0.00000001
 40
0.0
 40
0.0
 40
0.0
 40
0.0
 40
0.0088677675627475
 40
0.06402736263588
 40
0.1190956033694363
 40
0.1741317794769505
 40
0.2292314637125101
 40
0.2843813677758912
 40
0.3394342159262853
 40
0.3944762674280961
 40
0.4496029758784581
 40
0.5047301181442516
 40
0.5597722919639765
 40
0.6148249479716438
 40
0.6699746107423694
 40
0.7250746604300331
 40
0.7801108889075771
 40
0.8351788678667751
 40
0.8903384149522426
 40
0.945416042452415
 40
1.0
 40
1.0
 40
1.0
 40
1.0
 10
34.66337941954483
 20
5.944346591790587
 30
0.0
 10
34.7289579976431
 20
5.971663554465387
 30
0.0
 10
35.20245071960867
 20
6.168898434937176
 30
0.0
 10
36.08458462189152
 20
6.323341508474311
 30
0.0
 10
37.30636913130699
 20
6.379950295995402
 30
0.0
 10
38.52754760882149
 20
6.180498381572091
 30
0.0
 10
39.75015584750029
 20
5.758135733493518
 30
0.0
 10
40.97398330193385
 20
5.122176529904698
 30
0.0
 10
42.1955129337652
 20
4.296613490446635
 30
0.0
 10
43.41680232347996
 20
3.312137903695401
 30
0.0
 10
44.64006587828072
 20
2.206085897859841
 30
0.0
 10
45.86333994545451
 20
1.018601585739708
 30
0.0
 10
47.084632029264
 20
-0.2073735562054478
 30
0.0
 10
48.30615792748875
 20
-1.425779067147037
 30
0.0
 10
49.52997777236038
 20
-2.590134551594536
 30
0.0
 10
50.7526011413419
 20
-3.659818306767359
 30
0.0
 10
51.97375692106827
 20
-4.594152552118806
 30
0.0
 10
53.1956247009966
 20
-5.359978861815656
 30
0.0
 10
54.41969524447526
 20
-5.922464734003909
 30
0.0
 10
55.63841847335763
 20
-6.283067468414366
 30
0.0
 10
56.4491012202952
 20
-6.327120228146846
 30
0.0
 10
56.85261784486462
 20
-6.349047450574322
 30
0.0
  0
SPLINE
  5
E8
330
1F
100
AcDbEntity
  8
0
  6
Continuous
 62
     1
370
    15
100
AcDbSpline
210
0.0
220
0.0
230
1.0
 70
     8
 71
     3
 72
    15
 73
    11
 74
     0
 42
0.000000001
 43
0.00000001
 40
0.0
 40
0.0
 40
0.0
 40
0.0
 40
0.0739449034529094
 40
0.2162191724247323
 40
0.3587054991318222
 40
0.5009555650418105
 40
0.6431232084429107
 40
0.7854553082538621
 40
0.8928654304857362
 40
1.0
 40
1.0
 40
1.0
 40
1.0
 10
74.56317245782363
 20
5.931720918450898
 30
0.0
 10
74.7747927094862
 20
6.009773772583814
 30
0.0
 10
75.39358255903865
 20
6.238004830276038
 30
0.0
 10
76.42037805709369
 20
6.370869170246968
 30
0.0
 10
77.64444211892453
 20
6.335316047115801
 30
0.0
 10
78.86632158436169
 20
6.054353294055344
 30
0.0
 10
80.08744910921281
 20
5.553219509164007
 30
0.0
 10
81.20979210084434
 20
4.902098920336335
 30
0.0
 10
82.23224682937418
 20
4.185212463400459
 30
0.0
 10
82.8456782321363
 20
3.681825816288455
 30
0.0
 10
83.152
 20
3.430455757683665
 30
0.0
  0
SPLINE
  5
E9
102
{ACAD_REACTORS
330
1C2
102
}
330
1F
100
AcDbEntity
  8
0
  6
Continuous
 62
     1
370
    15
100
AcDbSpline
210
0.0
220
0.0
230
1.0
 70
    24
 71
     3
 72
    15
 73
    11
 74
     0
 42
0.000000001
 43
0.00000001
 40
0.0
 40
0.0
 40
0.0
 40
0.0
 40
0.0336619677425266
 40
0.1556119026721434
 40
0.2775618376017598
 40
0.3995117725313764
 40
0.5214617074609927
 40
0.6434116423906088
 40
0.7653615773202247
 40
1.0
 40
1.0
 40
1.0
 40
1.0
 10
9.999999999999996
 20
-2.94067456662662
 30
0.0
 10
9.999999999999996
 20
-2.94344891429534
 30
0.0
 10
9.999999999999996
 20
-2.956274115801845
 30
0.0
 10
9.999999999999996
 20
-3.075966216367501
 30
0.0
 10
9.999999999999996
 20
-3.288268296483326
 30
0.0
 10
9.999999999999996
 20
-3.589312545188231
 30
0.0
 10
9.999999999999998
 20
-3.957509746407602
 30
0.0
 10
9.999999999999996
 20
-4.388081740842828
 30
0.0
 10
9.999999999999996
 20
-5.011416399011986
 30
0.0
 10
9.999999999999998
 20
-5.531401857200351
 30
0.0
 10
9.999999999999998
 20
-5.873557076579071
 30
0.0
  0
LINE
  5
ED
330
1F
100
AcDbEntity
  8
0
  6
Continuous
 62
     1
370
    15
100
AcDbLine
 10
86.19999999999999
 20
0.0000000000000033
 30
0.0
 11
86.19999999999999
 21
5.588062183233201
 31
0.0
  0
LINE
  5
EE
330
1F
100
AcDbEntity
  8
0
  6
Continuous
 62
     1
370
    15
100
AcDbLine
 10
86.19999999999999
 20
-5.588062183233195
 30
0.0
 11
86.19999999999999
 21
0.0000000000000036
 31
0.0
  0
LINE
  5
EF
102
{ACAD_REACTORS
330
1C2
102
}
330
1F
100
AcDbEntity
  8
0
  6
Continuous
 62
     1
370
    15
100
AcDbLine
 10
9.999999999999996
 20
-6.342704934163495
 30
0.0
 11
9.999999999999998
 21
-5.873557076579071
 31
0.0
  0
LINE
  5
F0
102
{ACAD_REACTORS
330
1C2
102
}
330
1F
100
AcDbEntity
  8
0
  6
Continuous
 62
     1
370
    15
100
AcDbLine
 10
9.999999999999996
 20
-2.907827157854089
 30
0.0
 11
9.999999999999996
 21
-0.8468334550142029
 31
0.0
  0
LINE
  5
F1
102
{ACAD_REACTORS
330
1C2
102
}
330
1F
100
AcDbEntity
  8
0
  6
Continuous
 62
     1
370
    15
100
AcDbLine
 10
9.999999999999996
 20
3.43487777630942
 30
0.0
 11
9.999999999999996
 21
5.026723621564821
 31
0.0
  0
LINE
  5
F3
102
{ACAD_REACTORS
330
1C2
102
}
330
1F
100
AcDbEntity
  8
중심선
100
AcDbLine
 10
-43.8
 20
0.0
 30
0.0
 11
89.19999999999999
 21
0.0
 31
0.0
  0
CIRCLE
  5
F4
330
1F
100
AcDbEntity
  8
외형선
100
AcDbCircle
 10
0.0
 20
0.0
 30
0.0
 40
3.000000000000006
  0
INSERT
  5
F5
330
1F
100
AcDbEntity
  8
0
  6
Continuous
 62
     7
100
AcDbBlockReference
 66
     1
  2
블럭10
 10
-16.62936049909349
 20
-51.78679627639982
 30
0.0
  0
ATTRIB
  5
F6
330
F5
100
AcDbEntity
  8
FORMAT
 62
     2
100
AcDbText
 10
-27.68038085127795
 20
-49.71142936356762
 30
0.0
 40
4.233333333333333
  1
GMG22927[ 6 FLUTE ]
 41
0.75
  7
SLDTEXTSTYLE0
 11
-27.68038085127795
 21
-51.82809603023429
 31
0.0
100
AcDbAttribute
  2
AUTOATTR0
 70
     0
 74
     1
  0
SEQEND
  5
F7
330
F5
100
AcDbEntity
  8
0
  6
Continuous
 62
     7
  0
HATCH
  5
F8
330
1F
100
AcDbEntity
  8
중심선
100
AcDbHatch
 10
0.0
 20
0.0
 30
0.0
210
0.0
220
0.0
230
1.0
  2
SOLID
 70
     1
 71
     0
 91
        1
 92
        0
 93
        4
 72
     1
 10
-10.91445119471264
 20
-35.53962197475588
 11
-14.36072643854992
 21
-35.53962197475588
 72
     1
 10
-14.36072643854992
 20
-35.53962197475588
 11
-16.48895629775394
 21
-38.07594755532848
 72
     1
 10
-16.48895629775394
 20
-38.07594755532848
 11
-13.04264796880351
 21
-38.07590812602599
 72
     1
 10
-13.04264796880351
 20
-38.07590812602599
 11
-10.91445119471264
 21
-35.53962197475588
 97
        0
 75
     0
 76
     1
 98
        1
 10
0.0004859200744747
 20
0.2622744311706908
  0
HATCH
  5
F9
330
1F
100
AcDbEntity
  8
중심선
100
AcDbHatch
 10
0.0
 20
0.0
 30
0.0
210
0.0
220
0.0
230
1.0
  2
SOLID
 70
     1
 71
     0
 91
        1
 92
        0
 93
        4
 72
     1
 10
-5.901687203676684
 20
-35.53962197475588
 11
-9.347962447513966
 21
-35.53962197475588
 72
     1
 10
-9.347962447513966
 20
-35.53962197475588
 11
-13.87910045587135
 21
-40.93962197475589
 72
     1
 10
-13.87910045587135
 20
-40.93962197475589
 11
-10.43282521203407
 21
-40.93962197475589
 72
     1
 10
-10.43282521203407
 20
-40.93962197475589
 11
-5.901687203676684
 21
-35.53962197475588
 97
        0
 75
     0
 76
     1
 98
        1
 10
0.0004859200744747
 20
0.2622744311706908
  0
HATCH
  5
FA
330
1F
100
AcDbEntity
  8
중심선
100
AcDbHatch
 10
0.0
 20
0.0
 30
0.0
210
0.0
220
0.0
230
1.0
  2
SOLID
 70
     1
 71
     0
 91
        1
 92
        0
 93
        4
 72
     1
 10
-0.8889232126407884
 20
-35.53962197475591
 11
-4.335198456477904
 21
-35.53962197475588
 72
     1
 10
-4.335198456477904
 20
-35.53962197475588
 11
-11.38363535836715
 21
-43.9396219747559
 72
     1
 10
-11.38363535836715
 20
-43.9396219747559
 11
-7.937360114529871
 21
-43.9396219747559
 72
     1
 10
-7.937360114529871
 20
-43.9396219747559
 11
-0.8889232126407887
 21
-35.53962197475591
 97
        0
 75
     0
 76
     1
 98
        1
 10
0.0004859200744747
 20
0.2622744311706908
  0
HATCH
  5
FB
330
1F
100
AcDbEntity
  8
중심선
100
AcDbHatch
 10
0.0
 20
0.0
 30
0.0
210
0.0
220
0.0
230
1.0
  2
SOLID
 70
     1
 71
     0
 91
        1
 92
        0
 93
        6
 72
     3
 10
3.910967218371411
 20
-39.73962197480716
 11
3.960054785062283
 21
1.540882976769353E-10
 40
0.3939339440162628
 50
17.09539180608436
 51
320.0019657685081
 73
     0
 72
     1
 10
5.593966874072006
 20
-38.32751597939419
 11
7.899268747773045
 21
-36.39318926934626
 72
     3
 10
3.910967218318564
 20
-39.73962197475603
 11
6.600054785286829
 21
-1.278976924368180E-13
 40
0.636358354079598
 50
39.99873849337411
 51
368.4976242363724
 73
     1
 72
     1
 10
10.33629971021917
 20
-38.7796219746859
 11
2.591034525154488
 21
-38.77962197468587
 72
     1
 10
2.591034525154487
 20
-38.77962197468587
 11
2.591009480708553
 21
-40.6996219746858
 72
     1
 10
2.591009480708553
 20
-40.6996219746858
 11
7.032389250180589
 21
-40.69962197468577
 97
        0
 75
     0
 76
     1
 98
        1
 10
0.0004859200744747
 20
0.2622744311706908
  0
POINT
  5
FC
330
1F
100
AcDbEntity
  8
치수문자_일반주서
100
AcDbPoint
 10
0.0
 20
0.0
 30
0.0
  0
DIMENSION
  5
FD
102
{ACAD_XDICTIONARY
360
1C8
102
}
330
1F
100
AcDbEntity
  8
치수문자_일반주서
100
AcDbDimension
  2
_D
 10
101.076
 20
6.361901282632212
 30
0.0
 11
101.076
 21
-0.0034461554936365
 31
0.0
 70
   160
  1
%%c<>
 71
     2
 42
12.70485592209808
 52
-270.0
  3
SLDDIMSTYLE0
100
AcDbAlignedDimension
 13
86.19999999999999
 23
-6.342954639465924
 33
0.0
 14
86.19999999999999
 24
6.361901282632157
 34
0.0
 50
90.0000000000002
100
AcDbRotatedDimension
1001
ACAD
1000
DSTYLE
1002
{
1070
   273
1070
     7
1002
}
1001
ENABLE_CUSTOM_SPLIT
1070
     1
  0
DIMENSION
  5
112
102
{ACAD_XDICTIONARY
360
1C6
102
}
330
1F
100
AcDbEntity
  8
치수문자_일반주서
100
AcDbDimension
  2
_D_1
 10
86.19999999999999
 20
39.00555141807178
 30
0.0
 11
22.69999999999999
 21
39.00555141807178
 31
0.0
 70
   160
  1
<>
 71
     2
 42
127.0
  3
SLDDIMSTYLE1
100
AcDbAlignedDimension
 13
-40.80000000000001
 23
5.849999999999997
 33
0.0
 14
86.19999999999999
 24
6.424401282632157
 34
0.0
 50
-0.0000000000000064
100
AcDbRotatedDimension
1001
ACAD
1000
DSTYLE
1002
{
1070
   273
1070
     7
1002
}
1001
ENABLE_CUSTOM_SPLIT
1070
     1
  0
DIMENSION
  5
126
102
{ACAD_XDICTIONARY
360
1C1
102
}
330
1F
100
AcDbEntity
  8
치수문자_일반주서
100
AcDbDimension
  2
_D_2
 10
10.0
 20
20.87945164067496
 30
0.0
 11
47.26180339570445
 21
20.87945164067496
 31
0.0
 70
   160
  1
<>
 71
     2
 42
76.19999999999999
  3
SLDDIMSTYLE2
100
AcDbAlignedDimension
 13
86.19999999999999
 23
6.361901282632157
 33
0.0
 14
9.999999999999996
 24
-6.34309671865008
 34
0.0
 50
0.0000000000000027
100
AcDbRotatedDimension
1001
ACAD
1000
DSTYLE
1002
{
1070
   273
1070
     7
1002
}
1001
ENABLE_CUSTOM_SPLIT
1070
     1
  0
INSERT
  5
151
330
1F
100
AcDbEntity
  8
외형선
100
AcDbBlockReference
  2
SW_DOWELSYMBOL_0
 10
0.0
 20
0.0
 30
0.0
  0
DIMENSION
  5
177
330
1F
100
AcDbEntity
  8
치수문자_일반주서
100
AcDbDimension
  2
*D8
 10
-50.98832805105505
 20
-6.349999999999996
 30
0.0
 11
-50.98832805105505
 21
0.0
 31
0.0
 70
   160
  1
{%%C<>}
 71
     5
 42
12.7
  3
SLDDIMSTYLE2
100
AcDbAlignedDimension
 13
-40.30000000000001
 23
6.349999999999999
 33
0.0
 14
-40.30000000000001
 24
-6.349999999999997
 34
0.0
 50
90.0
100
AcDbRotatedDimension
1001
ACAD
1000
DSTYLE
1002
{
1070
   273
1070
     7
1002
}
  0
SPLINE
  5
18C
330
1F
100
AcDbEntity
  8
0
  6
Continuous
 62
     1
370
    15
100
AcDbSpline
210
0.0
220
0.0
230
1.0
 70
     8
 71
     3
 72
    18
 73
    14
 74
     0
 42
0.000000001
 43
0.00000001
 40
0.7173494345479157
 40
0.7173494345479157
 40
0.7173494345479157
 40
0.7173494345479157
 40
0.7187500000000022
 40
0.7187500000000022
 40
0.7500000000000023
 40
0.7500000000000023
 40
0.7812500000000024
 40
0.7812500000000024
 40
0.8125000000000026
 40
0.8125000000000026
 40
0.8750000000000029
 40
0.8750000000000029
 40
1.0
 40
1.0
 40
1.0
 40
1.0
 10
85.12469615234974
 20
3.592837499162011
 30
0.0
 10
85.12140218305797
 20
3.594498475765164
 30
0.0
 10
85.11810237609504
 20
3.596180419807903
 30
0.0
 10
85.04105400854783
 20
3.635866797423566
 30
0.0
 10
84.9639786417804
 20
3.683951802952377
 30
0.0
 10
84.81117757598955
 20
3.787861992668309
 30
0.0
 10
84.73352394675702
 20
3.844989477639531
 30
0.0
 10
84.58134958945973
 20
3.960933947143494
 30
0.0
 10
84.50639903375861
 20
4.020114801376059
 30
0.0
 10
84.28238075835502
 20
4.198171503870924
 30
0.0
 10
84.13438301967956
 20
4.317421465797865
 30
0.0
 10
83.7036044438906
 20
4.653726915039918
 30
0.0
 10
83.42373644646442
 20
4.857136685143396
 30
0.0
 10
83.15200000000002
 20
5.023510215695823
 30
0.0
  0
LINE
  5
18D
330
1F
100
AcDbEntity
  8
0
  6
Continuous
 62
     1
370
    15
100
AcDbLine
 10
83.15199999999999
 20
6.34295463946595
 30
0.0
 11
85.43799999939732
 21
6.350062183233201
 31
0.0
  0
SPLINE
  5
18E
330
1F
100
AcDbEntity
  8
0
  6
Continuous
 62
     1
370
    15
100
AcDbSpline
210
0.0
220
0.0
230
1.0
 70
     8
 71
     3
 72
     9
 73
     5
 74
     0
 42
0.000000001
 43
0.0000000001
 40
0.0
 40
0.0
 40
0.0
 40
0.0
 40
0.942550184801534
 40
1.401688879743755
 40
1.401688879743755
 40
1.401688879743755
 40
1.401688879743755
 10
85.12469615234974
 20
3.592837499162011
 30
0.0
 10
85.38741702934145
 20
3.416563101858157
 30
0.0
 10
85.77811551701225
 20
3.154421237723496
 30
0.0
 10
86.09971050961036
 20
2.819625407951207
 30
0.0
 10
86.19999999999999
 20
2.704647232060525
 30
0.0
  0
SPLINE
  5
18F
330
1F
100
AcDbEntity
  8
0
  6
Continuous
 62
     1
370
    15
100
AcDbSpline
210
0.0
220
0.0
230
1.0
 70
     8
 71
     3
 72
     9
 73
     5
 74
     0
 42
0.000000001
 43
0.0000000001
 40
0.7622846905342364
 40
0.7622846905342364
 40
0.7622846905342364
 40
0.7622846905342364
 40
1.51487497157801
 40
3.743399481787998
 40
3.743399481787998
 40
3.743399481787998
 40
3.743399481787998
 10
85.03848404078533
 20
3.639941295293486
 30
0.0
 10
85.25327289823755
 20
3.78066488031806
 30
0.0
 10
85.9724224151588
 20
4.400970923916345
 30
0.0
 10
85.6551649685697
 20
5.516264914742949
 30
0.0
 10
85.41799999999999
 20
6.35
 30
0.0
  0
ARC
  5
1E1
102
{ACAD_REACTORS
102
}
330
1F
100
AcDbEntity
  8
0
  6
Continuous
 62
     1
370
    15
100
AcDbCircle
 10
85.43799999939701
 20
5.588062183233201
 30
0.0
 40
0.7619999999999998
100
AcDbArc
 50
0.0
 51
90.0
  0
ARC
  5
1E2
330
1F
100
AcDbEntity
  8
0
  6
Continuous
 62
     1
370
    15
100
AcDbCircle
 10
85.43799999939702
 20
-5.580954639465688
 30
0.0
 40
0.7619999999999998
100
AcDbArc
 50
270.0000000000011
 51
0.0000000000000668
  0
DIMENSION
  5
1E4
102
{ACAD_REACTORS
102
}
102
{ACAD_XDICTIONARY
360
1E5
102
}
330
1F
100
AcDbEntity
  8
0
100
AcDbDimension
  2
*D11
 10
85.43799999939701
 20
5.588062183233201
 30
0.0
 11
107.6616257706661
 21
20.0000621832332
 31
0.0
 70
   164
 71
     5
 42
0.7620000000000008
  3
ISO-25
100
AcDbRadialDimension
 15
85.65894020213432
 25
6.317328545280977
 35
0.0
 40
0.0
1001
ACAD
1000
DSTYLE
1002
{
1070
     3
1000
R<> [0.03]
1070
   179
1070
     2
1070
   143
1040
0.0393700787401575
1070
    41
1040
3.302
1070
    44
1040
1.0
1070
    42
1040
1.0
1070
   147
1040
1.524
1070
    73
1070
     1
1070
    74
1070
     1
1070
   140
1040
3.5
1070
   284
1070
     0
1070
    78
1070
     0
1002
}
1001
ACAD_DSTYLE_DIMRADIAL_EXTENSION
1070
   387
1070
     1
1070
   388
1040
0.0
1070
   390
1040
1.570796326794897
  0
ENDSEC
  0
SECTION
  2
OBJECTS
  0
DICTIONARY
  5
C
330
0
100
AcDbDictionary
281
     1
  3
ACAD_GROUP
350
D
  3
ACAD_IMAGE_VARS
350
175
  3
ACAD_LAYOUT
350
1A
  3
ACAD_MLINESTYLE
350
17
  3
ACAD_PLOTSETTINGS
350
19
  3
ACAD_PLOTSTYLENAME
350
E
  3
ACAD_SCALELIST
350
47
  3
APPDATA
350
173
  3
DWGPROPS
350
1F8
  3
FX_DICT_DIMENSION_PALETTE
350
1F1
  3
FX_DICT_DIMENSION_PALETTE_RECENTLIST
350
1F3
  0
DICTIONARY
  5
1F6
330
1F
100
AcDbDictionary
280
     1
281
     1
  3
DIM_BOUNDING_BOXES_V1
360
1F7
  0
DICTIONARY
  5
1C8
330
FD
100
AcDbDictionary
280
     1
281
     1
  3
ACAD_CUSTOM_BREAKDATA
360
1E3
  0
DICTIONARY
  5
1C6
330
112
100
AcDbDictionary
280
     1
281
     1
  3
ACAD_CUSTOM_BREAKDATA
360
1C7
  0
DICTIONARY
  5
1C1
330
126
100
AcDbDictionary
280
     1
281
     1
  3
ACAD_CUSTOM_BREAKDATA
360
1C2
  0
DICTIONARY
  5
1E5
330
1E4
100
AcDbDictionary
280
     1
281
     1
  0
DICTIONARY
  5
D
102
{ACAD_REACTORS
330
C
102
}
330
C
100
AcDbDictionary
281
     1
  0
RASTERVARIABLES
  5
175
102
{ACAD_REACTORS
330
C
102
}
330
C
100
AcDbRasterVariables
 90
        0
 70
     1
 71
     1
 72
     1
  0
DICTIONARY
  5
1A
102
{ACAD_REACTORS
330
C
102
}
330
C
100
AcDbDictionary
281
     1
  3
Layout1
350
1E
  3
Layout2
350
26
  3
Model
350
22
  0
DICTIONARY
  5
17
102
{ACAD_REACTORS
330
C
102
}
330
C
100
AcDbDictionary
281
     1
  3
Standard
350
18
  0
DICTIONARY
  5
19
102
{ACAD_REACTORS
330
C
102
}
330
C
100
AcDbDictionary
281
     1
  0
ACDBDICTIONARYWDFLT
  5
E
102
{ACAD_REACTORS
330
C
102
}
330
C
100
AcDbDictionary
281
     1
  3
Normal
350
F
100
AcDbDictionaryWithDefault
340
F
  0
DICTIONARY
  5
47
102
{ACAD_REACTORS
330
C
102
}
330
C
100
AcDbDictionary
281
     1
  3
A0
350
48
  3
A1
350
49
  3
A2
350
4A
  3
A3
350
4B
  3
A4
350
4C
  3
A5
350
4D
  3
A6
350
4E
  3
A7
350
4F
  3
A8
350
50
  3
A9
350
51
  3
B0
350
52
  3
B1
350
53
  3
B2
350
54
  3
B3
350
55
  3
B4
350
56
  3
B5
350
57
  3
B6
350
58
  3
B7
350
59
  3
B8
350
5A
  3
B9
350
5B
  3
C0
350
5C
  3
C1
350
5D
  3
C2
350
5E
  3
C3
350
5F
  3
C4
350
60
  3
C5
350
61
  3
C6
350
62
  3
C7
350
63
  3
C8
350
64
  3
C9
350
65
  3
D0
350
66
  3
D1
350
67
  3
D2
350
68
  0
DICTIONARY
  5
173
102
{ACAD_REACTORS
330
C
102
}
330
C
100
AcDbDictionary
281
     1
  0
XRECORD
  5
1F8
102
{ACAD_REACTORS
330
C
102
}
330
C
100
AcDbXrecord
280
     1
  1
DWGPROPS COOKIE
  2

  3

  4

  6

  7

  8
12018024
  9

300
=
301
=
302
=
303
=
304
=
305
=
306
=
307
=
308
=
309
=
 40
0.0
 41
2458236.370517257
 42
2459683.426625289
  1

 90
        0
  0
DICTIONARY
  5
1F1
102
{ACAD_REACTORS
330
C
102
}
330
C
100
AcDbDictionary
281
     1
1001
FX_DIMP_FAV_VERSION
1071
        1
  0
DICTIONARY
  5
1F3
102
{ACAD_REACTORS
330
C
102
}
330
C
100
AcDbDictionary
281
     1
  3
0
350
1F5
1001
FX_DIMP_RECENT_VERSION
1071
        1
  0
DICTIONARY
  5
1F7
102
{ACAD_REACTORS
330
1F6
102
}
330
1F6
100
AcDbDictionary
281
     1
  0
BREAKDATA
  5
1E3
102
{ACAD_REACTORS
330
1C8
102
}
330
1C8
100
AcDbBreakData
 70
     0
330
FD
 90
        0
  0
BREAKDATA
  5
1C7
102
{ACAD_REACTORS
330
1C6
102
}
330
1C6
100
AcDbBreakData
 70
     0
330
112
 90
        0
  0
BREAKDATA
  5
1C2
102
{ACAD_REACTORS
330
1C1
102
}
330
1C1
100
AcDbBreakData
 70
     0
330
126
 90
       27
100
AcDbBreakPointRef
 71
     0
 72
     0
 91
       -1
 10
0.0
 20
0.0
 30
0.0
 11
0.0
 21
0.0
 31
0.0
331
F3
 73
     2
 92
        0
100
AcDbBreakPointRef
 71
     0
 72
     0
 91
       -1
 10
0.0
 20
0.0
 30
0.0
 11
0.0
 21
0.0
 31
0.0
331
D2
 73
     2
 92
        0
100
AcDbBreakPointRef
 71
     0
 72
     0
 91
       -1
 10
0.0
 20
0.0
 30
0.0
 11
0.0
 21
0.0
 31
0.0
331
D4
 73
     2
 92
        0
100
AcDbBreakPointRef
 71
     0
 72
     0
 91
       -1
 10
0.0
 20
0.0
 30
0.0
 11
0.0
 21
0.0
 31
0.0
331
CE
 73
     2
 92
        0
100
AcDbBreakPointRef
 71
     0
 72
     0
 91
       -1
 10
0.0
 20
0.0
 30
0.0
 11
0.0
 21
0.0
 31
0.0
331
CB
 73
     2
 92
        0
100
AcDbBreakPointRef
 71
     0
 72
     0
 91
       -1
 10
0.0
 20
0.0
 30
0.0
 11
0.0
 21
0.0
 31
0.0
331
E6
 73
     2
 92
        0
100
AcDbBreakPointRef
 71
     0
 72
     0
 91
       -1
 10
0.0
 20
0.0
 30
0.0
 11
0.0
 21
0.0
 31
0.0
331
B9
 73
     2
 92
        0
100
AcDbBreakPointRef
 71
     0
 72
     0
 91
       -1
 10
0.0
 20
0.0
 30
0.0
 11
0.0
 21
0.0
 31
0.0
331
EF
 73
     2
 92
        0
100
AcDbBreakPointRef
 71
     0
 72
     0
 91
       -1
 10
0.0
 20
0.0
 30
0.0
 11
0.0
 21
0.0
 31
0.0
331
BF
 73
     2
 92
        0
100
AcDbBreakPointRef
 71
     0
 72
     0
 91
       -1
 10
0.0
 20
0.0
 30
0.0
 11
0.0
 21
0.0
 31
0.0
331
C3
 73
     2
 92
        0
100
AcDbBreakPointRef
 71
     0
 72
     0
 91
       -1
 10
0.0
 20
0.0
 30
0.0
 11
0.0
 21
0.0
 31
0.0
331
BB
 73
     2
 92
        0
100
AcDbBreakPointRef
 71
     0
 72
     0
 91
       -1
 10
0.0
 20
0.0
 30
0.0
 11
0.0
 21
0.0
 31
0.0
331
E9
 73
     2
 92
        0
100
AcDbBreakPointRef
 71
     0
 72
     0
 91
       -1
 10
0.0
 20
0.0
 30
0.0
 11
0.0
 21
0.0
 31
0.0
331
E3
 73
     2
 92
        0
100
AcDbBreakPointRef
 71
     0
 72
     0
 91
       -1
 10
0.0
 20
0.0
 30
0.0
 11
0.0
 21
0.0
 31
0.0
331
F0
 73
     2
 92
        0
100
AcDbBreakPointRef
 71
     0
 72
     0
 91
       -1
 10
0.0
 20
0.0
 30
0.0
 11
0.0
 21
0.0
 31
0.0
331
C1
 73
     2
 92
        0
100
AcDbBreakPointRef
 71
     0
 72
     0
 91
       -1
 10
0.0
 20
0.0
 30
0.0
 11
0.0
 21
0.0
 31
0.0
331
C0
 73
     2
 92
        0
100
AcDbBreakPointRef
 71
     0
 72
     0
 91
       -1
 10
0.0
 20
0.0
 30
0.0
 11
0.0
 21
0.0
 31
0.0
331
F1
 73
     2
 92
        0
100
AcDbBreakPointRef
 71
     0
 72
     0
 91
       -1
 10
0.0
 20
0.0
 30
0.0
 11
0.0
 21
0.0
 31
0.0
331
B3
 73
     2
 92
        0
100
AcDbBreakPointRef
 71
     0
 72
     0
 91
       -1
 10
0.0
 20
0.0
 30
0.0
 11
0.0
 21
0.0
 31
0.0
331
D6
 73
     2
 92
        0
100
AcDbBreakPointRef
 71
     0
 72
     0
 91
       -1
 10
0.0
 20
0.0
 30
0.0
 11
0.0
 21
0.0
 31
0.0
331
D1
 73
     2
 92
        0
100
AcDbBreakPointRef
 71
     0
 72
     0
 91
       -1
 10
0.0
 20
0.0
 30
0.0
 11
0.0
 21
0.0
 31
0.0
331
B8
 73
     2
 92
        0
100
AcDbBreakPointRef
 71
     0
 72
     0
 91
       -1
 10
0.0
 20
0.0
 30
0.0
 11
0.0
 21
0.0
 31
0.0
331
BD
 73
     2
 92
        0
100
AcDbBreakPointRef
 71
     0
 72
     0
 91
       -1
 10
0.0
 20
0.0
 30
0.0
 11
0.0
 21
0.0
 31
0.0
331
C4
 73
     2
 92
        0
100
AcDbBreakPointRef
 71
     0
 72
     0
 91
       -1
 10
0.0
 20
0.0
 30
0.0
 11
0.0
 21
0.0
 31
0.0
331
B4
 73
     2
 92
        0
100
AcDbBreakPointRef
 71
     0
 72
     0
 91
       -1
 10
0.0
 20
0.0
 30
0.0
 11
0.0
 21
0.0
 31
0.0
331
B5
 73
     2
 92
        0
100
AcDbBreakPointRef
 71
     0
 72
     0
 91
       -1
 10
0.0
 20
0.0
 30
0.0
 11
0.0
 21
0.0
 31
0.0
331
C5
 73
     2
 92
        0
100
AcDbBreakPointRef
 71
     0
 72
     0
 91
       -1
 10
0.0
 20
0.0
 30
0.0
 11
0.0
 21
0.0
 31
0.0
331
B6
 73
     2
 92
        0
  0
LAYOUT
  5
1E
102
{ACAD_REACTORS
330
1A
102
}
330
1A
100
AcDbPlotSettings
  1

  2
none_device
  4

  6

 40
0.0
 41
0.0
 42
0.0
 43
0.0
 44
0.0
 45
0.0
 46
0.0
 47
0.0
 48
0.0
 49
0.0
140
0.0
141
0.0
142
1.0
143
1.0
 70
   688
 72
     1
 73
     0
 74
     5
  7

 75
    16
147
1.0
148
0.0
149
0.0
100
AcDbLayout
  1
Layout1
 70
     1
 71
     1
 10
0.0
 20
0.0
 11
420.0
 21
297.0
 12
0.0
 22
0.0
 32
0.0
 14
1.000000000000000E+20
 24
1.000000000000000E+20
 34
1.000000000000000E+20
 15
-1.000000000000000E+20
 25
-1.000000000000000E+20
 35
-1.000000000000000E+20
146
0.0
 13
0.0
 23
0.0
 33
0.0
 16
1.0
 26
0.0
 36
0.0
 17
0.0
 27
1.0
 37
0.0
 76
     0
330
1B
  0
LAYOUT
  5
26
102
{ACAD_REACTORS
330
1A
102
}
330
1A
100
AcDbPlotSettings
  1

  2
none_device
  4

  6

 40
0.0
 41
0.0
 42
0.0
 43
0.0
 44
0.0
 45
0.0
 46
0.0
 47
0.0
 48
0.0
 49
0.0
140
0.0
141
0.0
142
1.0
143
1.0
 70
   688
 72
     1
 73
     0
 74
     5
  7

 75
    16
147
1.0
148
0.0
149
0.0
100
AcDbLayout
  1
Layout2
 70
     1
 71
     2
 10
0.0
 20
0.0
 11
0.0
 21
0.0
 12
0.0
 22
0.0
 32
0.0
 14
0.0
 24
0.0
 34
0.0
 15
0.0
 25
0.0
 35
0.0
146
0.0
 13
0.0
 23
0.0
 33
0.0
 16
1.0
 26
0.0
 36
0.0
 17
0.0
 27
1.0
 37
0.0
 76
     0
330
23
  0
LAYOUT
  5
22
102
{ACAD_REACTORS
330
1A
102
}
330
1A
100
AcDbPlotSettings
  1

  2
none_device
  4
ANSI_A_(11.00_x_8.50_Inches)
  6

 40
6.35
 41
19.05
 42
6.35000508
 43
19.05000254
 44
279.4
 45
215.9
 46
99.8763177393111
 47
89.85874249665527
 48
0.0
 49
0.0
140
0.0
141
0.0
142
0.0638941542253013
143
1.0
 70
  1696
 72
     0
 73
     0
 74
     0
  7

 75
     0
147
0.0235690232323232
148
0.0
149
0.0
100
AcDbLayout
  1
Model
 70
     1
 71
     0
 10
0.0
 20
0.0
 11
420.0
 21
297.0
 12
0.0
 22
0.0
 32
0.0
 14
-55.36332805105504
 24
-49.71142936356763
 34
0.0
 15
123.9949591039995
 25
43.38055141807179
 35
0.0
146
0.0
 13
0.0
 23
0.0
 33
0.0
 16
1.0
 26
0.0
 36
0.0
 17
0.0
 27
1.0
 37
0.0
 76
     0
330
1F
331
29
  0
MLINESTYLE
  5
18
102
{ACAD_REACTORS
330
17
102
}
330
17
100
AcDbMlineStyle
  2
Standard
 70
     0
  3

 62
   256
 51
90.0
 52
90.0
 71
     2
 49
0.5
 62
   256
  6
BYLAYER
 49
-0.5
 62
   256
  6
BYLAYER
  0
ACDBPLACEHOLDER
  5
F
102
{ACAD_REACTORS
330
E
102
}
330
E
  0
SCALE
  5
48
102
{ACAD_REACTORS
330
47
102
}
330
47
100
AcDbScale
 70
     0
300
1:1
140
1.0
141
1.0
290
     1
  0
SCALE
  5
49
102
{ACAD_REACTORS
330
47
102
}
330
47
100
AcDbScale
 70
     0
300
1:2
140
1.0
141
2.0
290
     0
  0
SCALE
  5
4A
102
{ACAD_REACTORS
330
47
102
}
330
47
100
AcDbScale
 70
     0
300
1:4
140
1.0
141
4.0
290
     0
  0
SCALE
  5
4B
102
{ACAD_REACTORS
330
47
102
}
330
47
100
AcDbScale
 70
     0
300
1:5
140
1.0
141
5.0
290
     0
  0
SCALE
  5
4C
102
{ACAD_REACTORS
330
47
102
}
330
47
100
AcDbScale
 70
     0
300
1:8
140
1.0
141
8.0
290
     0
  0
SCALE
  5
4D
102
{ACAD_REACTORS
330
47
102
}
330
47
100
AcDbScale
 70
     0
300
1:10
140
1.0
141
10.0
290
     0
  0
SCALE
  5
4E
102
{ACAD_REACTORS
330
47
102
}
330
47
100
AcDbScale
 70
     0
300
1:16
140
1.0
141
16.0
290
     0
  0
SCALE
  5
4F
102
{ACAD_REACTORS
330
47
102
}
330
47
100
AcDbScale
 70
     0
300
1:20
140
1.0
141
20.0
290
     0
  0
SCALE
  5
50
102
{ACAD_REACTORS
330
47
102
}
330
47
100
AcDbScale
 70
     0
300
1:30
140
1.0
141
30.0
290
     0
  0
SCALE
  5
51
102
{ACAD_REACTORS
330
47
102
}
330
47
100
AcDbScale
 70
     0
300
1:40
140
1.0
141
40.0
290
     0
  0
SCALE
  5
52
102
{ACAD_REACTORS
330
47
102
}
330
47
100
AcDbScale
 70
     0
300
1:50
140
1.0
141
50.0
290
     0
  0
SCALE
  5
53
102
{ACAD_REACTORS
330
47
102
}
330
47
100
AcDbScale
 70
     0
300
1:100
140
1.0
141
100.0
290
     0
  0
SCALE
  5
54
102
{ACAD_REACTORS
330
47
102
}
330
47
100
AcDbScale
 70
     0
300
2:1
140
2.0
141
1.0
290
     0
  0
SCALE
  5
55
102
{ACAD_REACTORS
330
47
102
}
330
47
100
AcDbScale
 70
     0
300
4:1
140
4.0
141
1.0
290
     0
  0
SCALE
  5
56
102
{ACAD_REACTORS
330
47
102
}
330
47
100
AcDbScale
 70
     0
300
8:1
140
8.0
141
1.0
290
     0
  0
SCALE
  5
57
102
{ACAD_REACTORS
330
47
102
}
330
47
100
AcDbScale
 70
     0
300
10:1
140
10.0
141
1.0
290
     0
  0
SCALE
  5
58
102
{ACAD_REACTORS
330
47
102
}
330
47
100
AcDbScale
 70
     0
300
100:1
140
100.0
141
1.0
290
     0
  0
SCALE
  5
59
102
{ACAD_REACTORS
330
47
102
}
330
47
100
AcDbScale
 70
     0
300
1/128" = 1'-0"
140
0.0078125
141
12.0
290
     0
  0
SCALE
  5
5A
102
{ACAD_REACTORS
330
47
102
}
330
47
100
AcDbScale
 70
     0
300
1/64" = 1'-0"
140
0.015625
141
12.0
290
     0
  0
SCALE
  5
5B
102
{ACAD_REACTORS
330
47
102
}
330
47
100
AcDbScale
 70
     0
300
1/32" = 1'-0"
140
0.03125
141
12.0
290
     0
  0
SCALE
  5
5C
102
{ACAD_REACTORS
330
47
102
}
330
47
100
AcDbScale
 70
     0
300
1/16" = 1'-0"
140
0.0625
141
12.0
290
     0
  0
SCALE
  5
5D
102
{ACAD_REACTORS
330
47
102
}
330
47
100
AcDbScale
 70
     0
300
3/32" = 1'-0"
140
0.09375
141
12.0
290
     0
  0
SCALE
  5
5E
102
{ACAD_REACTORS
330
47
102
}
330
47
100
AcDbScale
 70
     0
300
1/8" = 1'-0"
140
0.125
141
12.0
290
     0
  0
SCALE
  5
5F
102
{ACAD_REACTORS
330
47
102
}
330
47
100
AcDbScale
 70
     0
300
3/16" = 1'-0"
140
0.1875
141
12.0
290
     0
  0
SCALE
  5
60
102
{ACAD_REACTORS
330
47
102
}
330
47
100
AcDbScale
 70
     0
300
1/4" = 1'-0"
140
0.25
141
12.0
290
     0
  0
SCALE
  5
61
102
{ACAD_REACTORS
330
47
102
}
330
47
100
AcDbScale
 70
     0
300
3/8" = 1'-0"
140
0.375
141
12.0
290
     0
  0
SCALE
  5
62
102
{ACAD_REACTORS
330
47
102
}
330
47
100
AcDbScale
 70
     0
300
1/2" = 1'-0"
140
0.5
141
12.0
290
     0
  0
SCALE
  5
63
102
{ACAD_REACTORS
330
47
102
}
330
47
100
AcDbScale
 70
     0
300
3/4" = 1'-0"
140
0.75
141
12.0
290
     0
  0
SCALE
  5
64
102
{ACAD_REACTORS
330
47
102
}
330
47
100
AcDbScale
 70
     0
300
1" = 1'-0"
140
1.0
141
12.0
290
     0
  0
SCALE
  5
65
102
{ACAD_REACTORS
330
47
102
}
330
47
100
AcDbScale
 70
     0
300
1-1/2" = 1'-0"
140
1.5
141
12.0
290
     0
  0
SCALE
  5
66
102
{ACAD_REACTORS
330
47
102
}
330
47
100
AcDbScale
 70
     0
300
3" = 1'-0"
140
3.0
141
12.0
290
     0
  0
SCALE
  5
67
102
{ACAD_REACTORS
330
47
102
}
330
47
100
AcDbScale
 70
     0
300
6" = 1'-0"
140
6.0
141
12.0
290
     0
  0
SCALE
  5
68
102
{ACAD_REACTORS
330
47
102
}
330
47
100
AcDbScale
 70
     0
300
1'-0" = 1'-0"
140
12.0
141
12.0
290
     0
  0
XRECORD
  5
1F5
102
{ACAD_REACTORS
330
1F3
102
}
330
1F3
100
AcDbXrecord
280
     1
  2

  2

  2

 40
0.0
 40
0.0
 90
        0
 40
0.7620000000000012
 90
        2
 90
        2
 90
        0
 90
        5
  2

  2
R
  2
[0.03]
  2

290
     0
290
     0
  2
0
  2

  0
ENDSEC
  0
EOF
