  0
SECTION
  2
HEADER
  9
$ACADVER
  1
AC1015
  9
$ACADMAINTVER
 70
     6
  9
$DWGCODEPAGE
  3
ANSI_949
  9
$INSBASE
 10
0.0
 20
0.0
 30
0.0
  9
$EXTMIN
 10
-52.32369055860548
 20
-49.71142936356763
 30
0.0
  9
$EXTMAX
 10
84.85800910773227
 20
43.38055141807178
 30
0.0
  9
$LIMMIN
 10
0.0
 20
0.0
  9
$LIMMAX
 10
420.0
 20
297.0
  9
$ORTHOMODE
 70
     1
  9
$REGENMODE
 70
     1
  9
$FILLMODE
 70
     1
  9
$QTEXTMODE
 70
     0
  9
$MIRRTEXT
 70
     1
  9
$LTSCALE
 40
1.0
  9
$ATTMODE
 70
     1
  9
$TEXTSIZE
 40
3.5
  9
$TRACEWID
 40
1.0
  9
$TEXTSTYLE
  7
Standard
  9
$CLAYER
  8
0
  9
$CELTYPE
  6
ByLayer
  9
$CECOLOR
 62
   256
  9
$CELTSCALE
 40
1.0
  9
$DISPSILH
 70
     0
  9
$DIMSCALE
 40
1.0
  9
$DIMASZ
 40
3.302
  9
$DIMEXO
 40
1.0
  9
$DIMDLI
 40
3.75
  9
$DIMRND
 40
0.0
  9
$DIMDLE
 40
0.0
  9
$DIMEXE
 40
1.0
  9
$DIMTP
 40
0.0
  9
$DIMTM
 40
0.0
  9
$DIMTXT
 40
3.5
  9
$DIMCEN
 40
2.5
  9
$DIMTSZ
 40
0.0
  9
$DIMTOL
 70
     0
  9
$DIMLIM
 70
     0
  9
$DIMTIH
 70
     1
  9
$DIMTOH
 70
     1
  9
$DIMSE1
 70
     0
  9
$DIMSE2
 70
     0
  9
$DIMTAD
 70
     1
  9
$DIMZIN
 70
     0
  9
$DIMBLK
  1

  9
$DIMASO
 70
     1
  9
$DIMSHO
 70
     1
  9
$DIMPOST
  1

  9
$DIMAPOST
  1

  9
$DIMALT
 70
     0
  9
$DIMALTD
 70
     3
  9
$DIMALTF
 40
0.0393700787401575
  9
$DIMLFAC
 40
1.0
  9
$DIMTOFL
 70
     1
  9
$DIMTVP
 40
0.0
  9
$DIMTIX
 70
     0
  9
$DIMSOXD
 70
     0
  9
$DIMSAH
 70
     0
  9
$DIMBLK1
  1

  9
$DIMBLK2
  1

  9
$DIMSTYLE
  2
ISO-25
  9
$DIMCLRD
 70
     0
  9
$DIMCLRE
 70
     0
  9
$DIMCLRT
 70
     0
  9
$DIMTFAC
 40
1.0
  9
$DIMGAP
 40
1.524
  9
$DIMJUST
 70
     0
  9
$DIMSD1
 70
     0
  9
$DIMSD2
 70
     0
  9
$DIMTOLJ
 70
     0
  9
$DIMTZIN
 70
     0
  9
$DIMALTZ
 70
     0
  9
$DIMALTTZ
 70
     0
  9
$DIMUPT
 70
     0
  9
$DIMDEC
 70
     2
  9
$DIMTDEC
 70
     2
  9
$DIMALTU
 70
     2
  9
$DIMALTTD
 70
     3
  9
$DIMTXSTY
  7
Standard
  9
$DIMAUNIT
 70
     0
  9
$DIMADEC
 70
     2
  9
$DIMALTRND
 40
0.0
  9
$DIMAZIN
 70
     0
  9
$DIMDSEP
 70
    44
  9
$DIMATFIT
 70
     3
  9
$DIMFRAC
 70
     0
  9
$DIMLDRBLK
  1

  9
$DIMLUNIT
 70
     2
  9
$DIMLWD
 70
    -2
  9
$DIMLWE
 70
    -2
  9
$DIMTMOVE
 70
     0
  9
$LUNITS
 70
     2
  9
$LUPREC
 70
     2
  9
$SKETCHINC
 40
1.0
  9
$FILLETRAD
 40
10.0
  9
$AUNITS
 70
     0
  9
$AUPREC
 70
     2
  9
$MENU
  1
.
  9
$ELEVATION
 40
0.0
  9
$PELEVATION
 40
0.0
  9
$THICKNESS
 40
0.0
  9
$LIMCHECK
 70
     0
  9
$CHAMFERA
 40
0.0
  9
$CHAMFERB
 40
0.0
  9
$CHAMFERC
 40
0.0
  9
$CHAMFERD
 40
0.0
  9
$SKPOLY
 70
     0
  9
$TDCREATE
 40
2458236.745355116
  9
$TDUCREATE
 40
2458236.370355116
  9
$TDUPDATE
 40
2459683.946935636
  9
$TDUUPDATE
 40
2459683.571935636
  9
$TDINDWG
 40
0.0046292708
  9
$TDUSRTIMER
 40
0.0018760417
  9
$USRTIMER
 70
     1
  9
$ANGBASE
 50
0.0
  9
$ANGDIR
 70
     0
  9
$PDMODE
 70
     0
  9
$PDSIZE
 40
-1.0
  9
$PLINEWID
 40
0.0
  9
$SPLFRAME
 70
     0
  9
$SPLINETYPE
 70
     6
  9
$SPLINESEGS
 70
     8
  9
$HANDSEED
  5
1BD
  9
$SURFTAB1
 70
     6
  9
$SURFTAB2
 70
     6
  9
$SURFTYPE
 70
     6
  9
$SURFU
 70
     6
  9
$SURFV
 70
     6
  9
$UCSBASE
  2

  9
$UCSNAME
  2

  9
$UCSORG
 10
0.0
 20
0.0
 30
0.0
  9
$UCSXDIR
 10
1.0
 20
0.0
 30
0.0
  9
$UCSYDIR
 10
0.0
 20
1.0
 30
0.0
  9
$UCSORTHOREF
  2

  9
$UCSORTHOVIEW
 70
     0
  9
$UCSORGTOP
 10
0.0
 20
0.0
 30
0.0
  9
$UCSORGBOTTOM
 10
0.0
 20
0.0
 30
0.0
  9
$UCSORGLEFT
 10
0.0
 20
0.0
 30
0.0
  9
$UCSORGRIGHT
 10
0.0
 20
0.0
 30
0.0
  9
$UCSORGFRONT
 10
0.0
 20
0.0
 30
0.0
  9
$UCSORGBACK
 10
0.0
 20
0.0
 30
0.0
  9
$PUCSBASE
  2

  9
$PUCSNAME
  2

  9
$PUCSORG
 10
0.0
 20
0.0
 30
0.0
  9
$PUCSXDIR
 10
1.0
 20
0.0
 30
0.0
  9
$PUCSYDIR
 10
0.0
 20
1.0
 30
0.0
  9
$PUCSORTHOREF
  2

  9
$PUCSORTHOVIEW
 70
     0
  9
$PUCSORGTOP
 10
0.0
 20
0.0
 30
0.0
  9
$PUCSORGBOTTOM
 10
0.0
 20
0.0
 30
0.0
  9
$PUCSORGLEFT
 10
0.0
 20
0.0
 30
0.0
  9
$PUCSORGRIGHT
 10
0.0
 20
0.0
 30
0.0
  9
$PUCSORGFRONT
 10
0.0
 20
0.0
 30
0.0
  9
$PUCSORGBACK
 10
0.0
 20
0.0
 30
0.0
  9
$USERI1
 70
     0
  9
$USERI2
 70
     0
  9
$USERI3
 70
     0
  9
$USERI4
 70
     0
  9
$USERI5
 70
     0
  9
$USERR1
 40
0.0
  9
$USERR2
 40
0.0
  9
$USERR3
 40
0.0
  9
$USERR4
 40
0.0
  9
$USERR5
 40
0.0
  9
$WORLDVIEW
 70
     1
  9
$SHADEDGE
 70
     3
  9
$SHADEDIF
 70
    70
  9
$TILEMODE
 70
     1
  9
$MAXACTVP
 70
    64
  9
$PINSBASE
 10
0.0
 20
0.0
 30
0.0
  9
$PLIMCHECK
 70
     0
  9
$PEXTMIN
 10
1.000000000000000E+20
 20
1.000000000000000E+20
 30
1.000000000000000E+20
  9
$PEXTMAX
 10
-1.000000000000000E+20
 20
-1.000000000000000E+20
 30
-1.000000000000000E+20
  9
$PLIMMIN
 10
0.0
 20
0.0
  9
$PLIMMAX
 10
0.0
 20
0.0
  9
$UNITMODE
 70
     0
  9
$VISRETAIN
 70
     1
  9
$PLINEGEN
 70
     0
  9
$PSLTSCALE
 70
     1
  9
$TREEDEPTH
 70
  3020
  9
$CMLSTYLE
  2
Standard
  9
$CMLJUST
 70
     0
  9
$CMLSCALE
 40
20.0
  9
$PROXYGRAPHICS
 70
     1
  9
$MEASUREMENT
 70
     1
  9
$CELWEIGHT
370
    -1
  9
$ENDCAPS
280
     0
  9
$JOINSTYLE
280
     0
  9
$LWDISPLAY
290
     1
  9
$INSUNITS
 70
     4
  9
$HYPERLINKBASE
  1

  9
$STYLESHEET
  1

  9
$XEDIT
290
     1
  9
$CEPSNTYPE
380
     0
  9
$PSTYLEMODE
290
     1
  9
$FINGERPRINTGUID
  2
{B1C63B33-F096-46D6-A36B-A305795E8E39}
  9
$VERSIONGUID
  2
{FAEB1C32-E019-11D5-929B-00C0DF256EC4}
  9
$EXTNAMES
290
     1
  9
$PSVPSCALE
 40
0.0
  9
$OLESTARTUP
290
     0
  0
ENDSEC
  0
SECTION
  2
CLASSES
  0
CLASS
  1
ACDBDICTIONARYWDFLT
  2
AcDbDictionaryWithDefault
  3
ObjectDBX Classes
 90
        0
280
     0
281
     0
  0
CLASS
  1
VISUALSTYLE
  2
AcDbVisualStyle
  3
ObjectDBX Classes
 90
     4095
280
     0
281
     0
  0
CLASS
  1
MATERIAL
  2
AcDbMaterial
  3
ObjectDBX Classes
 90
     1153
280
     0
281
     0
  0
CLASS
  1
SCALE
  2
AcDbScale
  3
ObjectDBX Classes
 90
     1153
280
     0
281
     0
  0
CLASS
  1
SUN
  2
AcDbSun
  3
SCENEOE
 90
     1153
280
     0
281
     0
  0
CLASS
  1
ACDBPLACEHOLDER
  2
AcDbPlaceHolder
  3
ObjectDBX Classes
 90
        0
280
     0
281
     0
  0
CLASS
  1
LAYOUT
  2
AcDbLayout
  3
ObjectDBX Classes
 90
        0
280
     0
281
     0
  0
CLASS
  1
TABLESTYLE
  2
AcDbTableStyle
  3
ObjectDBX Classes
 90
     4095
280
     0
281
     0
  0
CLASS
  1
MLEADERSTYLE
  2
AcDbMLeaderStyle
  3
ACDB_MLEADERSTYLE_CLASS
 90
     4095
280
     0
281
     0
  0
CLASS
  1
RASTERVARIABLES
  2
AcDbRasterVariables
  3
ISM
 90
        0
280
     0
281
     0
  0
CLASS
  1
DIMASSOC
  2
AcDbDimAssoc
  3
"AcDbDimAssoc|Product Desc:     AcDim ARX App For Dimension|Company:          Autodesk, Inc.|WEB Address:      www.autodesk.com"
 90
        0
280
     0
281
     0
  0
CLASS
  1
BREAKDATA
  2
AcDbBreakData
  3
ObjectDBX Classes
 90
     1024
280
     0
281
     0
  0
ENDSEC
  0
SECTION
  2
TABLES
  0
TABLE
  2
VPORT
  5
8
330
0
100
AcDbSymbolTable
 70
     1
  0
VPORT
  5
29
330
8
100
AcDbSymbolTableRecord
100
AcDbViewportTableRecord
  2
*Active
 70
     0
 10
0.0
 20
0.0
 11
1.0
 21
1.0
 12
7.053623095018366
 22
34.66831788930486
 13
0.0
 23
0.0
 14
10.0
 24
10.0
 15
10.0
 25
10.0
 16
0.0
 26
0.0
 36
1.0
 17
0.0
 27
0.0
 37
0.0
 40
174.8923787799559
 41
2.073569482288828
 42
50.0
 43
0.0
 44
0.0
 50
0.0
 51
0.0
 71
    16
 72
  2000
 73
     1
 74
     3
 75
     0
 76
     0
 77
     0
 78
     0
281
     0
 65
     1
110
0.0
120
0.0
130
0.0
111
1.0
121
0.0
131
0.0
112
0.0
122
1.0
132
0.0
 79
     0
146
0.0
  0
ENDTAB
  0
TABLE
  2
LTYPE
  5
5
330
0
100
AcDbSymbolTable
 70
     6
  0
LTYPE
  5
14
330
5
100
AcDbSymbolTableRecord
100
AcDbLinetypeTableRecord
  2
ByBlock
 70
     0
  3

 72
    65
 73
     0
 40
0.0
  0
LTYPE
  5
15
330
5
100
AcDbSymbolTableRecord
100
AcDbLinetypeTableRecord
  2
ByLayer
 70
     0
  3

 72
    65
 73
     0
 40
0.0
  0
LTYPE
  5
16
330
5
100
AcDbSymbolTableRecord
100
AcDbLinetypeTableRecord
  2
Continuous
 70
     0
  3
Solid line
 72
    65
 73
     0
 40
0.0
  0
LTYPE
  5
6A
330
5
100
AcDbSymbolTableRecord
100
AcDbLinetypeTableRecord
  2
HIDDEN
 70
     0
  3
Hidden __ __ __ __ __ __ __ __ __ __ __ __ __ __
 72
    65
 73
     2
 40
1.905
 49
1.27
 74
     0
 49
-0.635
 74
     0
  0
LTYPE
  5
6B
330
5
100
AcDbSymbolTableRecord
100
AcDbLinetypeTableRecord
  2
PHANTOM
 70
     0
  3
Phantom ______  __  __  ______  __  __  ______
 72
    65
 73
     6
 40
12.7
 49
6.35
 74
     0
 49
-1.27
 74
     0
 49
1.27
 74
     0
 49
-1.27
 74
     0
 49
1.27
 74
     0
 49
-1.27
 74
     0
  0
LTYPE
  5
6C
330
5
100
AcDbSymbolTableRecord
100
AcDbLinetypeTableRecord
  2
CENTER
 70
     0
  3
Center ____ _ ____ _ ____ _ ____ _ ____ _ ____
 72
    65
 73
     4
 40
10.16
 49
6.35
 74
     0
 49
-1.27
 74
     0
 49
1.27
 74
     0
 49
-1.27
 74
     0
  0
LTYPE
  5
6D
330
5
100
AcDbSymbolTableRecord
100
AcDbLinetypeTableRecord
  2
CENTERX2
 70
     0
  3
Center (2x) ________  __  ________  __  _____
 72
    65
 73
     4
 40
20.32
 49
12.7
 74
     0
 49
-2.54
 74
     0
 49
2.54
 74
     0
 49
-2.54
 74
     0
  0
LTYPE
  5
6E
330
5
100
AcDbSymbolTableRecord
100
AcDbLinetypeTableRecord
  2
DOT2
 70
     0
  3
Dot (.5x) ........................................
 72
    65
 73
     2
 40
0.635
 49
0.0
 74
     0
 49
-0.635
 74
     0
  0
ENDTAB
  0
TABLE
  2
LAYER
  5
2
330
0
100
AcDbSymbolTable
 70
    17
  0
LAYER
  5
10
330
2
100
AcDbSymbolTableRecord
100
AcDbLayerTableRecord
  2
0
 70
     0
 62
     7
  6
Continuous
370
    -3
390
F
  0
LAYER
  5
6F
330
2
100
AcDbSymbolTableRecord
100
AcDbLayerTableRecord
  2
FORMAT
 70
     0
 62
     2
  6
Continuous
370
    -3
390
F
  0
LAYER
  5
70
330
2
100
AcDbSymbolTableRecord
100
AcDbLayerTableRecord
  2
외형선
 70
     0
 62
   100
  6
Continuous
370
    30
390
F
  0
LAYER
  5
71
330
2
100
AcDbSymbolTableRecord
100
AcDbLayerTableRecord
  2
숨은선
 70
     0
 62
     2
  6
HIDDEN
370
    15
390
F
  0
LAYER
  5
72
330
2
100
AcDbSymbolTableRecord
100
AcDbLayerTableRecord
  2
중심선
 70
     0
 62
     1
  6
CENTERX2
370
    -3
390
F
  0
LAYER
  5
73
330
2
100
AcDbSymbolTableRecord
100
AcDbLayerTableRecord
  2
파단선
 70
     0
 62
     4
  6
Continuous
370
    -3
390
F
  0
LAYER
  5
74
330
2
100
AcDbSymbolTableRecord
100
AcDbLayerTableRecord
  2
해칭선
 70
     0
 62
     4
  6
Continuous
370
    -3
390
F
  0
LAYER
  5
75
330
2
100
AcDbSymbolTableRecord
100
AcDbLayerTableRecord
  2
가는실선
 70
     0
 62
     4
  6
Continuous
370
    -3
390
F
  0
LAYER
  5
76
330
2
100
AcDbSymbolTableRecord
100
AcDbLayerTableRecord
  2
치수_보조선
 70
     0
 62
     4
  6
Continuous
370
    -3
390
F
  0
LAYER
  5
77
330
2
100
AcDbSymbolTableRecord
100
AcDbLayerTableRecord
  2
치수문자_일반주서
 70
     0
 62
     7
  6
Continuous
370
    15
390
F
  0
LAYER
  5
78
330
2
100
AcDbSymbolTableRecord
100
AcDbLayerTableRecord
  2
개별주서
 70
     0
 62
   100
  6
Continuous
370
    30
390
F
  0
LAYER
  5
79
330
2
100
AcDbSymbolTableRecord
100
AcDbLayerTableRecord
  2
중간선
 70
     0
 62
     2
  6
Continuous
370
    15
390
F
  0
LAYER
  5
7A
330
2
100
AcDbSymbolTableRecord
100
AcDbLayerTableRecord
  2
윤곽선
 70
     0
 62
     3
  6
Continuous
370
    40
390
F
  0
LAYER
  5
7B
330
2
100
AcDbSymbolTableRecord
100
AcDbLayerTableRecord
  2
중심마크
 70
     0
 62
   100
  6
Continuous
370
    30
390
F
  0
LAYER
  5
7C
330
2
100
AcDbSymbolTableRecord
100
AcDbLayerTableRecord
  2
가상선
 70
     0
 62
     4
  6
PHANTOM
370
    -3
390
F
  0
LAYER
  5
7D
330
2
100
AcDbSymbolTableRecord
100
AcDbLayerTableRecord
  2
특수지정선
 70
     0
 62
     5
  6
CENTERX2
370
    60
390
F
  0
LAYER
  5
16B
330
2
100
AcDbSymbolTableRecord
100
AcDbLayerTableRecord
  2
Defpoints
 70
     0
 62
     7
  6
Continuous
290
     0
370
    -3
390
F
  0
ENDTAB
  0
TABLE
  2
STYLE
  5
3
330
0
100
AcDbSymbolTable
 70
     2
  0
STYLE
  5
11
330
3
100
AcDbSymbolTableRecord
100
AcDbTextStyleTableRecord
  2
Standard
 70
     0
 40
0.0
 41
1.0
 50
0.0
 71
     0
 42
3.5
  3
txt
  4

  0
STYLE
  5
93
330
3
100
AcDbSymbolTableRecord
100
AcDbTextStyleTableRecord
  2
SLDTEXTSTYLE0
 70
     0
 40
0.0
 41
0.75
 50
0.0
 71
     0
 42
3.5
  3
TXT
  4

  0
ENDTAB
  0
TABLE
  2
VIEW
  5
6
330
0
100
AcDbSymbolTable
 70
     0
  0
ENDTAB
  0
TABLE
  2
UCS
  5
7
330
0
100
AcDbSymbolTable
 70
     0
  0
ENDTAB
  0
TABLE
  2
APPID
  5
9
330
0
100
AcDbSymbolTable
 70
     4
  0
APPID
  5
12
330
9
100
AcDbSymbolTableRecord
100
AcDbRegAppTableRecord
  2
ACAD
 70
     0
  0
APPID
  5
16C
330
9
100
AcDbSymbolTableRecord
100
AcDbRegAppTableRecord
  2
ACAD_DSTYLE_DIMRADIAL_EXTENSION
 70
     0
  0
APPID
  5
17E
330
9
100
AcDbSymbolTableRecord
100
AcDbRegAppTableRecord
  2
PE_DIMMEASUREMENT
 70
     0
  0
APPID
  5
1B6
330
9
100
AcDbSymbolTableRecord
100
AcDbRegAppTableRecord
  2
ENABLE_CUSTOM_SPLIT
 70
     0
  0
ENDTAB
  0
TABLE
  2
DIMSTYLE
  5
A
330
0
100
AcDbSymbolTable
 70
     4
100
AcDbDimStyleTable
  0
DIMSTYLE
105
27
330
A
100
AcDbSymbolTableRecord
100
AcDbDimStyleTableRecord
  2
ISO-25
 70
     0
 41
2.5
 42
0.625
 43
3.75
 44
1.25
 73
     0
 74
     0
 77
     1
 78
     8
140
2.5
141
2.5
143
0.03937007874016
147
0.625
171
     3
172
     1
178
     0
271
     2
272
     2
274
     3
278
    44
283
     0
284
     8
340
11
  0
DIMSTYLE
105
F4
102
{ACAD_REACTORS
330
F3
330
182
102
}
330
A
100
AcDbSymbolTableRecord
100
AcDbDimStyleTableRecord
  2
SLDDIMSTYLE0
 70
     0
 41
3.302
 44
0.0
 45
0.000000001
 73
     0
 74
     0
 77
     1
 78
    12
 79
     3
140
3.5
143
0.0393700787401575
147
0.875
148
0.000000001
170
     1
172
     1
173
     1
178
     0
271
     2
272
     2
276
     2
284
    12
289
     0
340
93
  0
DIMSTYLE
105
109
102
{ACAD_REACTORS
330
108
330
11C
330
16D
102
}
330
A
100
AcDbSymbolTableRecord
100
AcDbDimStyleTableRecord
  2
SLDDIMSTYLE1
 70
     0
 41
3.302
 44
0.0
 45
0.000000001
 73
     0
 74
     0
 77
     1
 78
     4
 79
     1
140
3.5
143
0.0393700787401575
147
0.875
148
0.000000001
170
     1
173
     1
178
     0
271
     2
272
     2
276
     2
284
    12
340
93
  0
DIMSTYLE
105
130
330
A
100
AcDbSymbolTableRecord
100
AcDbDimStyleTableRecord
  2
SLDDIMSTYLE2
 70
     0
 41
3.302
 44
0.0
 45
0.000000001
 73
     0
 74
     0
 77
     1
 78
     8
 79
     2
140
3.5
143
0.0393700787401575
147
0.875
148
0.000000001
170
     1
172
     1
173
     1
178
     0
271
     2
272
     2
276
     2
284
    12
289
     0
340
93
341
131
343
131
344
131
  0
ENDTAB
  0
TABLE
  2
BLOCK_RECORD
  5
1
330
0
100
AcDbSymbolTable
 70
    10
  0
BLOCK_RECORD
  5
1F
102
{ACAD_XDICTIONARY
360
1BA
102
}
330
1
100
AcDbSymbolTableRecord
100
AcDbBlockTableRecord
  2
*Model_Space
340
22
  0
BLOCK_RECORD
  5
1B
330
1
100
AcDbSymbolTableRecord
100
AcDbBlockTableRecord
  2
*Paper_Space
340
1E
  0
BLOCK_RECORD
  5
23
330
1
100
AcDbSymbolTableRecord
100
AcDbBlockTableRecord
  2
*Paper_Space0
340
26
  0
BLOCK_RECORD
  5
7E
330
1
100
AcDbSymbolTableRecord
100
AcDbBlockTableRecord
  2
블럭10
340
0
102
{BLKREFS
331
EB
102
}
  0
BLOCK_RECORD
  5
F5
330
1
100
AcDbSymbolTableRecord
100
AcDbBlockTableRecord
  2
_D
340
0
  0
BLOCK_RECORD
  5
10A
330
1
100
AcDbSymbolTableRecord
100
AcDbBlockTableRecord
  2
_D_1
340
0
  0
BLOCK_RECORD
  5
11D
330
1
100
AcDbSymbolTableRecord
100
AcDbBlockTableRecord
  2
_D_2
340
0
  0
BLOCK_RECORD
  5
131
330
1
100
AcDbSymbolTableRecord
100
AcDbBlockTableRecord
  2
_NONE
340
0
  0
BLOCK_RECORD
  5
134
330
1
100
AcDbSymbolTableRecord
100
AcDbBlockTableRecord
  2
_D_3
340
0
  0
BLOCK_RECORD
  5
140
330
1
100
AcDbSymbolTableRecord
100
AcDbBlockTableRecord
  2
SW_DOWELSYMBOL_0
340
0
102
{BLKREFS
331
146
102
}
  0
BLOCK_RECORD
  5
170
330
1
100
AcDbSymbolTableRecord
100
AcDbBlockTableRecord
  2
*D8
340
0
  0
BLOCK_RECORD
  5
185
330
1
100
AcDbSymbolTableRecord
100
AcDbBlockTableRecord
  2
*D9
340
0
  0
ENDTAB
  0
ENDSEC
  0
SECTION
  2
BLOCKS
  0
BLOCK
  5
20
330
1F
100
AcDbEntity
  8
0
100
AcDbBlockBegin
  2
*Model_Space
 70
     0
 10
0.0
 20
0.0
 30
0.0
  3
*Model_Space
  1
*Model_Space
  0
ENDBLK
  5
21
330
1F
100
AcDbEntity
  8
0
100
AcDbBlockEnd
  0
BLOCK
  5
1C
330
1B
100
AcDbEntity
 67
     1
  8
0
100
AcDbBlockBegin
  2
*Paper_Space
 70
     0
 10
0.0
 20
0.0
 30
0.0
  3
*Paper_Space
  1
*Paper_Space
  0
ENDBLK
  5
1D
330
1B
100
AcDbEntity
 67
     1
  8
0
100
AcDbBlockEnd
  0
BLOCK
  5
24
330
23
100
AcDbEntity
  8
0
100
AcDbBlockBegin
  2
*Paper_Space0
 70
     0
 10
0.0
 20
0.0
 30
0.0
  3
*Paper_Space0
  1
*Paper_Space0
  0
ENDBLK
  5
25
330
23
100
AcDbEntity
  8
0
100
AcDbBlockEnd
  0
BLOCK
  5
7F
330
7E
100
AcDbEntity
  8
0
100
AcDbBlockBegin
  2
블럭10
 70
     2
 10
0.0
 20
0.0
 30
0.0
  3
블럭10
  1
블럭10
  0
ELLIPSE
  5
81
330
7E
100
AcDbEntity
  8
중심선
100
AcDbEllipse
 10
20.54032771741204
 20
12.0471743016438
 30
0.0
 11
6.600054785286829
 21
-1.261213355974178E-13
 31
0.0
210
0.0
220
0.0
230
1.0
 40
0.636358354079598
 41
0.9219305317359503
 42
6.513795318482858
  0
ELLIPSE
  5
82
330
7E
100
AcDbEntity
  8
중심선
100
AcDbEllipse
 10
20.54032771746488
 20
12.04717430159265
 30
0.0
 11
3.960054785062283
 21
1.540847449632565E-10
 31
0.0
210
0.0
220
0.0
230
1.0
 40
0.3939339440162632
 41
1.131841032648279
 42
5.62031148352944
  0
LINE
  5
83
330
7E
100
AcDbEntity
  8
중심선
100
AcDbLine
 10
2.268634060543552
 20
16.24717430164393
 30
0.0
 11
5.714909304380834
 21
16.24717430164393
 31
0.0
  0
LINE
  5
84
330
7E
100
AcDbEntity
  8
중심선
100
AcDbLine
 10
5.245725140726316
 20
7.84717430164391
 30
0.0
 11
8.692000384563599
 21
7.84717430164391
 31
0.0
  0
LINE
  5
85
330
7E
100
AcDbEntity
  8
중심선
100
AcDbLine
 10
15.74043728645272
 20
16.24717430164393
 30
0.0
 11
8.692000384563599
 21
7.84717430164391
 31
0.0
  0
LINE
  5
86
330
7E
100
AcDbEntity
  8
중심선
100
AcDbLine
 10
0.1404042013395286
 20
13.71084872107135
 30
0.0
 11
3.58671253028996
 21
13.71088815037384
 31
0.0
  0
LINE
  5
87
330
7E
100
AcDbEntity
  8
중심선
100
AcDbLine
 10
2.750260043222114
 20
10.84717430164391
 30
0.0
 11
6.196535287059397
 21
10.84717430164391
 31
0.0
  0
LINE
  5
88
330
7E
100
AcDbEntity
  8
중심선
100
AcDbLine
 10
12.29416204261559
 20
16.24717430164393
 30
0.0
 11
5.245725140726316
 21
7.84717430164391
 31
0.0
  0
LINE
  5
89
330
7E
100
AcDbEntity
  8
중심선
100
AcDbLine
 10
10.72767329541681
 20
16.24717430164393
 30
0.0
 11
6.196535287059397
 21
10.84717430164391
 31
0.0
  0
LINE
  5
8A
330
7E
100
AcDbEntity
  8
중심선
100
AcDbLine
 10
7.28139805157953
 20
16.24717430164393
 30
0.0
 11
2.750260043222114
 21
10.84717430164391
 31
0.0
  0
LINE
  5
8B
330
7E
100
AcDbEntity
  8
중심선
100
AcDbLine
 10
5.714909304380834
 20
16.24717430164393
 30
0.0
 11
3.58671253028996
 21
13.71088815037384
 31
0.0
  0
LINE
  5
8C
330
7E
100
AcDbEntity
  8
중심선
100
AcDbLine
 10
2.268634060543552
 20
16.24717430164393
 30
0.0
 11
0.1404042013395286
 21
13.71084872107135
 31
0.0
  0
LINE
  5
8D
330
7E
100
AcDbEntity
  8
중심선
100
AcDbLine
 10
7.28139805157953
 20
16.24717430164393
 30
0.0
 11
10.72767329541681
 21
16.24717430164393
 31
0.0
  0
LINE
  5
8E
330
7E
100
AcDbEntity
  8
중심선
100
AcDbLine
 10
12.29416204261559
 20
16.24717430164393
 30
0.0
 11
15.74043728645272
 21
16.24717430164393
 31
0.0
  0
LINE
  5
8F
330
7E
100
AcDbEntity
  8
중심선
100
AcDbLine
 10
19.22036997980202
 20
11.08717430171403
 30
0.0
 11
23.66174974927406
 21
11.08717430171406
 31
0.0
  0
LINE
  5
90
330
7E
100
AcDbEntity
  8
중심선
100
AcDbLine
 10
19.22039502424796
 20
13.00717430171391
 30
0.0
 11
19.22036997980202
 21
11.08717430171403
 31
0.0
  0
LINE
  5
91
330
7E
100
AcDbEntity
  8
중심선
100
AcDbLine
 10
19.22039502424796
 20
13.00717430171391
 30
0.0
 11
26.96566020931264
 21
13.00717430171391
 31
0.0
  0
LINE
  5
92
330
7E
100
AcDbEntity
  8
중심선
100
AcDbLine
 10
22.22332737316547
 20
13.45928029700563
 30
0.0
 11
24.52862924686651
 21
15.39360700705356
 31
0.0
  0
ATTDEF
  5
94
330
7E
100
AcDbEntity
  8
FORMAT
 62
     2
100
AcDbText
 10
-11.05102035218446
 20
2.075366912832191
 30
0.0
 40
4.233333333333333
  1
GMG22926[ 6 FLUTE ]
 41
0.75
  7
SLDTEXTSTYLE0
 11
-11.05102035218446
 21
-0.0412997538344756
 31
0.0
100
AcDbAttributeDefinition
  3

  2
AUTOATTR0
 70
     0
 74
     1
  0
ENDBLK
  5
80
330
7E
100
AcDbEntity
  8
0
100
AcDbBlockEnd
  0
BLOCK
  5
F6
330
F5
100
AcDbEntity
  8
0
100
AcDbBlockBegin
  2
_D
 70
     0
 10
0.0
 20
0.0
 30
0.0
  3
_D
  1
_D
  0
LINE
  5
F8
330
F5
100
AcDbEntity
  8
치수문자_일반주서
 62
     0
370
    -2
100
AcDbLine
 10
58.7059445830908
 20
-6.349999999999995
 30
0.0
 11
76.28869029886376
 21
-6.349999999999929
 31
0.0
  0
LINE
  5
F9
330
F5
100
AcDbEntity
  8
치수문자_일반주서
 62
     0
370
    -2
100
AcDbLine
 10
58.06003248010904
 20
6.350000000000005
 30
0.0
 11
58.58094458309077
 21
6.350000000000003
 31
0.0
  0
LINE
  5
FA
330
F5
100
AcDbEntity
  8
치수문자_일반주서
 62
     0
370
    -2
100
AcDbLine
 10
58.70594458309077
 20
6.350000000000003
 30
0.0
 11
76.28869029886371
 21
6.350000000000073
 31
0.0
  0
LINE
  5
FB
330
F5
100
AcDbEntity
  8
치수문자_일반주서
 62
     0
370
    -2
100
AcDbLine
 10
76.28869029886374
 20
-3.047999999999929
 30
0.0
 11
76.28869029886373
 21
3.048000000000073
 31
0.0
  0
SOLID
  5
FC
330
F5
100
AcDbEntity
  8
치수문자_일반주서
 62
     0
100
AcDbTrace
 10
75.73835696553041
 20
-3.047999999999931
 30
0.0
 11
76.83902363219707
 21
-3.047999999999928
 31
0.0
 12
76.28869029886376
 22
-6.349999999999929
 32
0.0
 13
76.28869029886376
 23
-6.349999999999929
 33
0.0
  0
SOLID
  5
FD
330
F5
100
AcDbEntity
  8
치수문자_일반주서
 62
     0
100
AcDbTrace
 10
76.83902363219705
 20
3.048000000000075
 30
0.0
 11
75.7383569655304
 21
3.048000000000072
 31
0.0
 12
76.28869029886371
 22
6.350000000000073
 32
0.0
 13
76.28869029886371
 23
6.350000000000073
 33
0.0
  0
MTEXT
  5
FE
330
F5
100
AcDbEntity
  8
치수문자_일반주서
 62
     0
100
AcDbMText
 10
71.91369029886374
 20
-0.0083781640674827
 30
0.0
 40
3.5
 41
0.0
 71
     2
 72
     1
  1
\A1;%%c12.7 [1/2]
  7
SLDTEXTSTYLE0
 11
-3.356894814614646E-15
 21
1.0
 31
0.0
 73
     1
 44
1.0
  0
POINT
  5
1B7
330
F5
100
AcDbEntity
  8
Defpoints
 62
     0
100
AcDbPoint
 10
58.6434445830908
 20
-6.349999999999995
 30
0.0
  0
POINT
  5
1B8
330
F5
100
AcDbEntity
  8
Defpoints
 62
     0
100
AcDbPoint
 10
57.99753248010904
 20
6.350000000000005
 30
0.0
  0
POINT
  5
1B9
330
F5
100
AcDbEntity
  8
Defpoints
 62
     0
100
AcDbPoint
 10
76.28869029886371
 20
6.350000000000073
 30
0.0
  0
ENDBLK
  5
F7
330
F5
100
AcDbEntity
  8
0
100
AcDbBlockEnd
  0
BLOCK
  5
10B
330
10A
100
AcDbEntity
  8
0
100
AcDbBlockBegin
  2
_D_1
 70
     0
 10
0.0
 20
0.0
 30
0.0
  3
_D_1
  1
_D_1
  0
LINE
  5
10D
330
10A
100
AcDbEntity
  8
치수문자_일반주서
 62
     0
370
    -2
100
AcDbLine
 10
-40.67055541690923
 20
5.912499999999997
 30
0.0
 11
-40.67055541690923
 21
39.00555141807178
 31
0.0
  0
LINE
  5
10E
330
10A
100
AcDbEntity
  8
치수문자_일반주서
 62
     0
370
    -2
100
AcDbLine
 10
60.92944458309076
 20
4.126500000000004
 30
0.0
 11
60.92944458309076
 21
39.00555141807178
 31
0.0
  0
LINE
  5
10F
330
10A
100
AcDbEntity
  8
치수문자_일반주서
 62
     0
370
    -2
100
AcDbLine
 10
-37.36855541690923
 20
39.00555141807178
 30
0.0
 11
57.62744458309076
 21
39.00555141807178
 31
0.0
  0
SOLID
  5
110
330
10A
100
AcDbEntity
  8
치수문자_일반주서
 62
     0
100
AcDbTrace
 10
-37.36855541690923
 20
39.55588475140512
 30
0.0
 11
-37.36855541690923
 21
38.45521808473845
 31
0.0
 12
-40.67055541690923
 22
39.00555141807178
 32
0.0
 13
-40.67055541690923
 23
39.00555141807178
 33
0.0
  0
SOLID
  5
111
330
10A
100
AcDbEntity
  8
치수문자_일반주서
 62
     0
100
AcDbTrace
 10
57.62744458309076
 20
38.45521808473845
 30
0.0
 11
57.62744458309076
 21
39.55588475140512
 31
0.0
 12
60.92944458309076
 22
39.00555141807178
 32
0.0
 13
60.92944458309076
 23
39.00555141807178
 33
0.0
  0
MTEXT
  5
112
330
10A
100
AcDbEntity
  8
치수문자_일반주서
 62
     0
100
AcDbMText
 10
10.12944458309077
 20
43.38055141807178
 30
0.0
 40
3.5
 41
0.0
 71
     2
 72
     1
  1
\A1;101.60 [4]
  7
SLDTEXTSTYLE0
 73
     1
 44
1.0
  0
POINT
  5
113
330
10A
100
AcDbEntity
  8
Defpoints
 62
     0
100
AcDbPoint
 10
-40.67055541690923
 20
5.849999999999997
 30
0.0
  0
POINT
  5
114
330
10A
100
AcDbEntity
  8
Defpoints
 62
     0
100
AcDbPoint
 10
60.92944458309076
 20
4.064000000000004
 30
0.0
  0
POINT
  5
115
330
10A
100
AcDbEntity
  8
Defpoints
 62
     0
100
AcDbPoint
 10
60.92944458309076
 20
39.00555141807178
 30
0.0
  0
ENDBLK
  5
10C
330
10A
100
AcDbEntity
  8
0
100
AcDbBlockEnd
  0
BLOCK
  5
11E
330
11D
100
AcDbEntity
  8
0
100
AcDbBlockBegin
  2
_D_2
 70
     0
 10
0.0
 20
0.0
 30
0.0
  3
_D_2
  1
_D_2
  0
LINE
  5
120
330
11D
100
AcDbEntity
  8
치수문자_일반주서
 62
     0
370
    -2
100
AcDbLine
 10
60.92944458309076
 20
4.126500000000004
 30
0.0
 11
60.92944458309076
 21
21.69099453033794
 31
0.0
  0
LINE
  5
121
330
11D
100
AcDbEntity
  8
치수문자_일반주서
 62
     0
370
    -2
100
AcDbLine
 10
10.12944458309066
 20
-6.112099545471377
 30
0.0
 11
10.12944458309066
 21
21.69099453033794
 31
0.0
  0
LINE
  5
122
330
11D
100
AcDbEntity
  8
치수문자_일반주서
 62
     0
370
    -2
100
AcDbLine
 10
57.62744458309076
 20
21.69099453033794
 30
0.0
 11
13.43144458309066
 21
21.69099453033794
 31
0.0
  0
SOLID
  5
123
330
11D
100
AcDbEntity
  8
치수문자_일반주서
 62
     0
100
AcDbTrace
 10
57.62744458309076
 20
21.1406611970046
 30
0.0
 11
57.62744458309076
 21
22.24132786367127
 31
0.0
 12
60.92944458309076
 22
21.69099453033794
 32
0.0
 13
60.92944458309076
 23
21.69099453033794
 33
0.0
  0
SOLID
  5
124
330
11D
100
AcDbEntity
  8
치수문자_일반주서
 62
     0
100
AcDbTrace
 10
13.43144458309066
 20
22.24132786367127
 30
0.0
 11
13.43144458309066
 21
21.1406611970046
 31
0.0
 12
10.12944458309066
 22
21.69099453033794
 32
0.0
 13
10.12944458309066
 23
21.69099453033794
 33
0.0
  0
MTEXT
  5
125
330
11D
100
AcDbEntity
  8
치수문자_일반주서
 62
     0
100
AcDbMText
 10
34.9706468468933
 20
26.06599453033794
 30
0.0
 40
3.5
 41
0.0
 71
     2
 72
     1
  1
\A1;50.80 [2]
  7
SLDTEXTSTYLE0
 73
     1
 44
1.0
  0
POINT
  5
126
330
11D
100
AcDbEntity
  8
Defpoints
 62
     0
100
AcDbPoint
 10
60.92944458309076
 20
4.064000000000004
 30
0.0
  0
POINT
  5
127
330
11D
100
AcDbEntity
  8
Defpoints
 62
     0
100
AcDbPoint
 10
10.12944458309066
 20
-6.174599545471377
 30
0.0
  0
POINT
  5
128
330
11D
100
AcDbEntity
  8
Defpoints
 62
     0
100
AcDbPoint
 10
10.12944458309066
 20
21.69099453033794
 30
0.0
  0
ENDBLK
  5
11F
330
11D
100
AcDbEntity
  8
0
100
AcDbBlockEnd
  0
BLOCK
  5
132
330
131
100
AcDbEntity
  8
0
100
AcDbBlockBegin
  2
_NONE
 70
     0
 10
0.0
 20
0.0
 30
0.0
  3
_NONE
  1
_NONE
  0
ENDBLK
  5
133
330
131
100
AcDbEntity
  8
0
100
AcDbBlockEnd
  0
BLOCK
  5
135
330
134
100
AcDbEntity
  8
0
100
AcDbBlockBegin
  2
_D_3
 70
     0
 10
0.0
 20
0.0
 30
0.0
  3
_D_3
  1
_D_3
  0
LINE
  5
137
330
134
100
AcDbEntity
  8
치수문자_일반주서
100
AcDbLine
 10
-64.5933676361172
 20
-12.02664086223941
 30
0.0
 11
-64.5933676361172
 21
-12.73757834780391
 31
0.0
  0
LINE
  5
138
330
134
100
AcDbEntity
  8
치수문자_일반주서
100
AcDbLine
 10
-64.5933676361172
 20
-12.73757834780391
 30
0.0
 11
-59.0371176450579
 21
-12.73757834780386
 31
0.0
  0
LINE
  5
139
330
134
100
AcDbEntity
  8
치수문자_일반주서
100
AcDbLine
 10
-59.0371176450579
 20
-12.73757834780386
 30
0.0
 11
-59.0371176450579
 21
-12.02664086223936
 31
0.0
  0
LINE
  5
13A
330
134
100
AcDbEntity
  8
치수문자_일반주서
100
AcDbLine
 10
-64.59336763611728
 20
-1.197908000102147
 30
0.0
 11
-64.59336763611728
 21
-0.4869705145376466
 31
0.0
  0
LINE
  5
13B
330
134
100
AcDbEntity
  8
치수문자_일반주서
100
AcDbLine
 10
-64.59336763611728
 20
-0.4869705145376466
 30
0.0
 11
-59.03711764505798
 21
-0.4869705145376075
 31
0.0
  0
LINE
  5
13C
330
134
100
AcDbEntity
  8
치수문자_일반주서
100
AcDbLine
 10
-59.03711764505798
 20
-0.4869705145376075
 30
0.0
 11
-59.03711764505798
 21
-1.197908000102108
 31
0.0
  0
MTEXT
  5
13D
330
134
100
AcDbEntity
  8
치수문자_일반주서
100
AcDbMText
 10
-63.54885455963681
 20
-11.13796896162803
 30
0.0
 40
3.5
 41
0.0
 71
     1
 72
     1
  1
0.00
  7
SLDTEXTSTYLE0
 11
-7.044195017643634E-15
 21
1.0
 31
0.0
 73
     1
 44
1.0
  0
MTEXT
  5
13E
330
134
100
AcDbEntity
  8
치수문자_일반주서
100
AcDbMText
 10
-58.31222300927633
 20
-10.5445488435345
 30
0.0
 40
3.5
 41
0.0
 71
     1
 72
     1
  1
%%c
  7
SLDTEXTSTYLE0
 11
-7.044195017643634E-15
 21
1.0
 31
0.0
 73
     1
 44
1.0
  0
MTEXT
  5
13F
330
134
100
AcDbEntity
  8
치수문자_일반주서
100
AcDbMText
 10
-58.31222300927637
 20
-5.26611144516042
 30
0.0
 40
3.5
 41
0.0
 71
     1
 72
     1
  1
0
  7
SLDTEXTSTYLE0
 11
-7.044195017643634E-15
 21
1.0
 31
0.0
 73
     1
 44
1.0
  0
ENDBLK
  5
136
330
134
100
AcDbEntity
  8
0
100
AcDbBlockEnd
  0
BLOCK
  5
141
330
140
100
AcDbEntity
  8
0
100
AcDbBlockBegin
  2
SW_DOWELSYMBOL_0
 70
     0
 10
0.0
 20
0.0
 30
0.0
  3
SW_DOWELSYMBOL_0
  1
SW_DOWELSYMBOL_0
  0
CIRCLE
  5
143
330
140
100
AcDbEntity
  8
외형선
 62
     0
100
AcDbCircle
 10
0.0
 20
0.0
 30
0.0
 40
3.00000000000089
  0
HATCH
  5
144
330
140
100
AcDbEntity
  8
0
  6
Continuous
 62
     0
370
    30
100
AcDbHatch
 10
0.0
 20
0.0
 30
0.0
210
0.0
220
0.0
230
1.0
  2
SOLID
 70
     1
 71
     0
 91
        1
 92
        0
 93
        3
 72
     2
 10
0.0
 20
0.0
 40
3.00000000000089
 50
0.0
 51
90.0
 73
     1
 72
     1
 10
0.0
 20
3.00000000000089
 11
0.0
 21
0.0
 72
     1
 10
0.0
 20
0.0
 11
3.00000000000089
 21
0.0
 97
        0
 75
     0
 76
     1
 98
        1
 10
0.0
 20
0.0
  0
HATCH
  5
145
330
140
100
AcDbEntity
  8
0
  6
Continuous
 62
     0
370
    30
100
AcDbHatch
 10
0.0
 20
0.0
 30
0.0
210
0.0
220
0.0
230
1.0
  2
SOLID
 70
     1
 71
     0
 91
        1
 92
        0
 93
        3
 72
     2
 10
0.0
 20
0.0
 40
3.00000000000089
 50
180.0
 51
270.0000000000007
 73
     1
 72
     1
 10
0.0
 20
-3.00000000000089
 11
0.0
 21
0.0
 72
     1
 10
0.0
 20
0.0
 11
-3.00000000000089
 21
0.0
 97
        0
 75
     0
 76
     1
 98
        1
 10
0.0
 20
0.0
  0
ENDBLK
  5
142
330
140
100
AcDbEntity
  8
0
100
AcDbBlockEnd
  0
BLOCK
  5
171
330
170
100
AcDbEntity
  8
0
100
AcDbBlockBegin
  2
*D8
 70
     1
 10
0.0
 20
0.0
 30
0.0
  3
*D8
  1
*D8
  0
LINE
  5
173
330
170
100
AcDbEntity
  8
치수문자_일반주서
 62
     0
370
    -2
100
AcDbLine
 10
-40.23305541690923
 20
6.349999999999999
 30
0.0
 11
-47.94869055860548
 21
6.349999999999998
 31
0.0
  0
LINE
  5
174
330
170
100
AcDbEntity
  8
치수문자_일반주서
 62
     0
370
    -2
100
AcDbLine
 10
-40.23305541690923
 20
-6.349999999999999
 30
0.0
 11
-47.94869055860548
 21
-6.35
 31
0.0
  0
LINE
  5
175
330
170
100
AcDbEntity
  8
치수문자_일반주서
 62
     0
370
    -2
100
AcDbLine
 10
-47.94869055860548
 20
3.047999999999998
 30
0.0
 11
-47.94869055860548
 21
-3.048
 31
0.0
  0
SOLID
  5
176
330
170
100
AcDbEntity
  8
치수문자_일반주서
 62
     0
100
AcDbTrace
 10
-47.39835722527215
 20
3.047999999999998
 30
0.0
 11
-48.49902389193882
 21
3.047999999999998
 31
0.0
 12
-47.94869055860548
 22
6.349999999999998
 32
0.0
 13
-47.94869055860548
 23
6.349999999999998
 33
0.0
  0
SOLID
  5
177
330
170
100
AcDbEntity
  8
치수문자_일반주서
 62
     0
100
AcDbTrace
 10
-48.49902389193882
 20
-3.048
 30
0.0
 11
-47.39835722527215
 21
-3.048
 31
0.0
 12
-47.94869055860548
 22
-6.35
 32
0.0
 13
-47.94869055860548
 23
-6.35
 33
0.0
  0
MTEXT
  5
178
330
170
100
AcDbEntity
  8
치수문자_일반주서
 62
     0
100
AcDbMText
 10
-50.57369055860548
 20
-0.0000000000000006
 30
0.0
 40
3.5
 41
0.0
 71
     5
 72
     1
  1
\A1;{%%C12.70 [1/2]}
  7
SLDTEXTSTYLE0
 11
0.0
 21
1.0
 31
0.0
 73
     1
 44
1.0
  0
POINT
  5
179
330
170
100
AcDbEntity
  8
Defpoints
 62
     0
100
AcDbPoint
 10
-40.17055541690923
 20
6.349999999999999
 30
0.0
  0
POINT
  5
17A
330
170
100
AcDbEntity
  8
Defpoints
 62
     0
100
AcDbPoint
 10
-40.17055541690923
 20
-6.349999999999999
 30
0.0
  0
POINT
  5
17B
330
170
100
AcDbEntity
  8
Defpoints
 62
     0
100
AcDbPoint
 10
-47.94869055860548
 20
-6.349999999999998
 30
0.0
  0
ENDBLK
  5
172
330
170
100
AcDbEntity
  8
0
100
AcDbBlockEnd
  0
BLOCK
  5
186
330
185
100
AcDbEntity
  8
0
100
AcDbBlockBegin
  2
*D9
 70
     1
 10
0.0
 20
0.0
 30
0.0
  3
*D9
  1
*D9
  0
LINE
  5
188
330
185
100
AcDbEntity
  8
치수문자_일반주서
 62
     0
370
    -2
100
AcDbLine
 10
62.43103516875616
 20
7.731867436258651
 30
0.0
 11
84.85800910773229
 21
29.56867223779695
 31
0.0
  0
MTEXT
  5
189
330
185
100
AcDbEntity
  8
치수문자_일반주서
 62
     0
100
AcDbMText
 10
72.99617127789062
 20
21.68277163618287
 30
0.0
 40
3.5
 41
0.0
 71
     5
 72
     1
  1
\A1;R3.05 [R0.12]
  7
SLDTEXTSTYLE0
 11
0.716470958372504
 21
0.69761691909585
 31
0.0
 73
     1
 44
1.0
  0
LINE
  5
18A
330
185
100
AcDbEntity
  8
치수문자_일반주서
 62
     0
370
    -2
100
AcDbLine
 10
57.88144458309076
 20
3.302000000000004
 30
0.0
 11
60.06524806421015
 21
5.428336369404154
 31
0.0
  0
SOLID
  5
18B
330
185
100
AcDbEntity
  8
치수문자_일반주서
 62
     0
100
AcDbTrace
 10
62.04711332428041
 20
8.126165287016319
 30
0.0
 11
62.81495701323191
 21
7.337569585500983
 31
0.0
 12
60.06524806421015
 22
5.428336369404154
 32
0.0
 13
60.06524806421015
 23
5.428336369404154
 33
0.0
  0
POINT
  5
18C
330
185
100
AcDbEntity
  8
Defpoints
 62
     0
100
AcDbPoint
 10
60.06524806421015
 20
5.428336369404154
 30
0.0
  0
POINT
  5
18D
330
185
100
AcDbEntity
  8
Defpoints
 62
     0
100
AcDbPoint
 10
57.88144458309076
 20
3.302000000000004
 30
0.0
  0
ENDBLK
  5
187
330
185
100
AcDbEntity
  8
0
100
AcDbBlockEnd
  0
ENDSEC
  0
SECTION
  2
ENTITIES
  0
LINE
  5
95
330
1F
100
AcDbEntity
  8
0
  6
Continuous
 62
     4
370
    15
100
AcDbLine
 10
8.098363307921066
 20
6.350000000000003
 30
0.0
 11
-40.17055541690923
 21
6.350000000000001
 31
0.0
  0
LINE
  5
96
330
1F
100
AcDbEntity
  8
0
  6
Continuous
 62
     4
370
    15
100
AcDbLine
 10
-40.17055541690923
 20
-6.349999999999999
 30
0.0
 11
8.099366901324455
 21
-6.349999999999996
 31
0.0
  0
LINE
  5
97
330
1F
100
AcDbEntity
  8
0
  6
Continuous
 62
     4
370
    15
100
AcDbLine
 10
-40.17055541690923
 20
6.349999999999999
 30
0.0
 11
-40.67055541690923
 21
5.849999999999997
 31
0.0
  0
LINE
  5
98
330
1F
100
AcDbEntity
  8
0
  6
Continuous
 62
     4
370
    15
100
AcDbLine
 10
-40.67055541690923
 20
-5.849999999999998
 30
0.0
 11
-40.17055541690923
 21
-6.349999999999997
 31
0.0
  0
LINE
  5
99
330
1F
100
AcDbEntity
  8
0
  6
Continuous
 62
     1
370
    15
100
AcDbLine
 10
8.098983138669674
 20
-6.349961764403416
 30
0.0
 11
8.098983138593614
 21
-6.349948107668582
 31
0.0
  0
LINE
  5
9A
330
1F
100
AcDbEntity
  8
0
  6
Continuous
 62
     1
370
    15
100
AcDbLine
 10
8.098983138734182
 20
6.34997606258966
 30
0.0
 11
8.098983225975768
 21
6.350428259443798
 31
0.0
  0
LINE
  5
9B
330
1F
100
AcDbEntity
  8
0
  6
Continuous
 62
     1
370
    15
100
AcDbLine
 10
38.23212987239954
 20
-6.349999999999996
 30
0.0
 11
40.4028074551945
 21
-6.349999999999996
 31
0.0
  0
LINE
  5
9C
330
1F
100
AcDbEntity
  8
0
  6
Continuous
 62
     1
370
    15
100
AcDbLine
 10
20.45388517782427
 20
6.350000000000003
 30
0.0
 11
18.28254004522277
 21
6.350000000000003
 31
0.0
  0
LINE
  5
9E
330
1F
100
AcDbEntity
  8
0
  6
Continuous
 62
     1
370
    15
100
AcDbLine
 10
51.53190759121259
 20
-6.349999999999996
 30
0.0
 11
53.70232361712622
 21
-6.349999999999996
 31
0.0
  0
LINE
  5
9F
330
1F
100
AcDbEntity
  8
0
  6
Continuous
 62
     1
370
    15
100
AcDbLine
 10
11.63303821269297
 20
-6.349999999999996
 30
0.0
 11
13.80415831913578
 21
-6.349999999999996
 31
0.0
  0
LINE
  5
A0
330
1F
100
AcDbEntity
  8
0
  6
Continuous
 62
     1
370
    15
100
AcDbLine
 10
33.75312345136725
 20
6.350000000000003
 30
0.0
 11
31.58224903797637
 21
6.350000000000003
 31
0.0
  0
LINE
  5
A1
330
1F
100
AcDbEntity
  8
0
  6
Continuous
 62
     1
370
    15
100
AcDbLine
 10
44.88201849829886
 20
-6.349999999999996
 30
0.0
 11
47.05253962368312
 21
-6.349999999999996
 31
0.0
  0
LINE
  5
A2
330
1F
100
AcDbEntity
  8
0
  6
Continuous
 62
     1
370
    15
100
AcDbLine
 10
27.10348392749294
 20
6.350000000000003
 30
0.0
 11
24.93238332102281
 21
6.350000000000003
 31
0.0
  0
LINE
  5
A3
330
1F
100
AcDbEntity
  8
0
  6
Continuous
 62
     1
370
    15
100
AcDbLine
 10
31.58224903797641
 20
-6.349999999999996
 30
0.0
 11
33.75312345136725
 21
-6.349999999999996
 31
0.0
  0
LINE
  5
A4
330
1F
100
AcDbEntity
  8
0
  6
Continuous
 62
     1
370
    15
100
AcDbLine
 10
13.80415831913578
 20
6.350000000000003
 30
0.0
 11
11.63303821269303
 21
6.350000000000003
 31
0.0
  0
LINE
  5
A5
330
1F
100
AcDbEntity
  8
0
  6
Continuous
 62
     1
370
    15
100
AcDbLine
 10
53.70232361712623
 20
6.350000000000003
 30
0.0
 11
51.53190759121262
 21
6.350000000000003
 31
0.0
  0
LINE
  5
A6
330
1F
100
AcDbEntity
  8
0
  6
Continuous
 62
     1
370
    15
100
AcDbLine
 10
58.18198262605002
 20
-6.349999999999996
 30
0.0
 11
58.64344458309077
 21
-6.349999999999996
 31
0.0
  0
LINE
  5
A7
330
1F
100
AcDbEntity
  8
0
  6
Continuous
 62
     1
370
    15
100
AcDbLine
 10
18.28254004522277
 20
-6.349999999999996
 30
0.0
 11
20.45388517782432
 21
-6.349999999999996
 31
0.0
  0
LINE
  5
A8
330
1F
100
AcDbEntity
  8
0
  6
Continuous
 62
     1
370
    15
100
AcDbLine
 10
40.40280745519454
 20
6.350000000000003
 30
0.0
 11
38.23212987239954
 21
6.350000000000003
 31
0.0
  0
LINE
  5
A9
330
1F
100
AcDbEntity
  8
0
  6
Continuous
 62
     1
370
    15
100
AcDbLine
 10
24.93238332102284
 20
-6.349999999999996
 30
0.0
 11
27.10348392749297
 21
-6.349999999999996
 31
0.0
  0
LINE
  5
AA
330
1F
100
AcDbEntity
  8
0
  6
Continuous
 62
     1
370
    15
100
AcDbLine
 10
47.05253962368315
 20
6.350000000000003
 30
0.0
 11
44.88201849829892
 21
6.350000000000003
 31
0.0
  0
ARC
  5
AB
330
1F
100
AcDbEntity
  8
0
  6
Continuous
 62
     1
370
    15
100
AcDbCircle
 10
58.64344458309077
 20
-4.063999999999997
 30
0.0
 40
2.285999999999999
100
AcDbArc
 50
270.0000000000009
 51
0.0
  0
SPLINE
  5
AD
330
1F
100
AcDbEntity
  8
0
  6
Continuous
 62
     4
370
    15
100
AcDbSpline
210
0.0
220
0.0
230
1.0
 70
     8
 71
     3
 72
    11
 73
     7
 74
     0
 42
0.000000001
 43
0.00000001
 40
0.0
 40
0.0
 40
0.0
 40
0.0
 40
0.2657769111197724
 40
0.52162145853172
 40
0.7760994503009737
 40
1.0
 40
1.0
 40
1.0
 40
1.0
 10
8.663084159982976
 20
6.164620831384454
 30
0.0
 10
8.784534451551654
 20
6.146628006969565
 30
0.0
 10
9.022896309096936
 20
6.111314768980397
 30
0.0
 10
9.438508355579877
 20
6.099537018544535
 30
0.0
 10
9.824000429228462
 20
6.123097100967954
 30
0.0
 10
10.03206290846551
 20
6.158179541259098
 30
0.0
 10
10.12944458309066
 20
6.174599545471373
 30
0.0
  0
SPLINE
  5
AE
330
1F
100
AcDbEntity
  8
0
  6
Continuous
 62
     4
370
    15
100
AcDbSpline
210
0.0
220
0.0
230
1.0
 70
     8
 71
     3
 72
    14
 73
    10
 74
     0
 42
0.000000001
 43
0.00000001
 40
0.0
 40
0.0
 40
0.0
 40
0.0
 40
0.25
 40
0.25
 40
0.5
 40
0.5
 40
0.75
 40
0.75
 40
1.0
 40
1.0
 40
1.0
 40
1.0
 10
8.521776760218295
 20
6.20343252977373
 30
0.0
 10
8.432520519715645
 20
6.222444759546274
 30
0.0
 10
8.359084336997206
 20
6.241982760733679
 30
0.0
 10
8.239959969847078
 20
6.27872161313053
 30
0.0
 10
8.195542947419689
 20
6.295623215700586
 30
0.0
 10
8.134132374561272
 20
6.322936965109045
 30
0.0
 10
8.116674849728803
 20
6.333562523223923
 30
0.0
 10
8.099120079940093
 20
6.347245062128013
 30
0.0
 10
8.098983138593592
 20
6.350449537904988
 30
0.0
 10
8.098983138593592
 20
6.349949231219966
 30
0.0
  0
SPLINE
  5
AF
330
1F
100
AcDbEntity
  8
0
  6
Continuous
 62
     4
370
    15
100
AcDbSpline
210
0.0
220
0.0
230
1.0
 70
     8
 71
     3
 72
    10
 73
     6
 74
     0
 42
0.000000001
 43
0.00000001
 40
0.0
 40
0.0
 40
0.0
 40
0.0
 40
0.5000000000000001
 40
0.5000000000000001
 40
1.0
 40
1.0
 40
1.0
 40
1.0
 10
10.12944458309076
 20
5.665848385709541
 30
0.0
 10
9.860356376865983
 20
5.787014932569014
 30
0.0
 10
9.592646037813335
 20
5.892772931214326
 30
0.0
 10
9.060186209363359
 20
6.072085264782289
 30
0.0
 10
8.790902374823716
 20
6.146106812336598
 30
0.0
 10
8.521776760218291
 20
6.20343252977373
 30
0.0
  0
SPLINE
  5
B0
330
1F
100
AcDbEntity
  8
0
  6
Continuous
 62
     4
370
    15
100
AcDbSpline
210
0.0
220
0.0
230
1.0
 70
     8
 71
     3
 72
    20
 73
    16
 74
     0
 42
0.000000001
 43
0.00000001
 40
0.0
 40
0.0
 40
0.0
 40
0.0
 40
0.1250000000000001
 40
0.1250000000000001
 40
0.2500000000000002
 40
0.2500000000000002
 40
0.3750000000000003
 40
0.3750000000000003
 40
0.5000000000000004
 40
0.5000000000000004
 40
0.7500000000000002
 40
0.7500000000000002
 40
0.8750000000000001
 40
0.8750000000000001
 40
1.0
 40
1.0
 40
1.0
 40
1.0
 10
8.098983138593589
 20
3.196964856556439
 30
0.0
 10
8.098983138593589
 20
3.314302316225286
 30
0.0
 10
8.09925535261805
 20
3.429190662140583
 30
0.0
 10
8.12138311421419
 20
3.65256548118882
 30
0.0
 10
8.143073573928241
 20
3.761949854289568
 30
0.0
 10
8.220416492641316
 20
3.969732131970594
 30
0.0
 10
8.274766878124822
 20
4.065689180258109
 30
0.0
 10
8.42293896008145
 20
4.240700776522333
 30
0.0
 10
8.512670772091496
 20
4.315103516775525
 30
0.0
 10
8.831697055427195
 20
4.50104143192453
 30
0.0
 10
9.101986242445552
 20
4.566176362469021
 30
0.0
 10
9.511425044795246
 20
4.564752408067315
 30
0.0
 10
9.646903646169392
 20
4.54805221814012
 30
0.0
 10
9.903702868753207
 20
4.482589998119439
 30
0.0
 10
10.0232691127461
 20
4.434277214408647
 30
0.0
 10
10.12944458309066
 20
4.37089446725516
 30
0.0
  0
SPLINE
  5
B1
330
1F
100
AcDbEntity
  8
0
  6
Continuous
 62
     4
370
    15
100
AcDbSpline
210
0.0
220
0.0
230
1.0
 70
     8
 71
     3
 72
    14
 73
    10
 74
     0
 42
0.000000001
 43
0.00000001
 40
0.0
 40
0.0
 40
0.0
 40
0.0
 40
0.25
 40
0.25
 40
0.5
 40
0.5
 40
0.75
 40
0.75
 40
1.0
 40
1.0
 40
1.0
 40
1.0
 10
8.52177676021828
 20
1.927006242622276
 30
0.0
 10
8.432520519715634
 20
2.011812484177577
 30
0.0
 10
8.3590843369972
 20
2.10652590852576
 30
0.0
 10
8.239959969847074
 20
2.312231456864897
 30
0.0
 10
8.195542947419685
 20
2.422095950578337
 30
0.0
 10
8.134132374561272
 20
2.643619013882363
 30
0.0
 10
8.116674849728803
 20
2.756919060743854
 30
0.0
 10
8.099120079940093
 20
2.979051743536526
 30
0.0
 10
8.098983138593589
 20
3.088862784761927
 30
0.0
 10
8.098983138593585
 20
3.196964856553294
 30
0.0
  0
SPLINE
  5
B2
330
1F
100
AcDbEntity
  8
0
  6
Continuous
 62
     4
370
    15
100
AcDbSpline
210
0.0
220
0.0
230
1.0
 70
     8
 71
     3
 72
    10
 73
     6
 74
     0
 42
0.000000001
 43
0.00000001
 40
0.0
 40
0.0
 40
0.0
 40
0.0
 40
0.5
 40
0.5
 40
1.0
 40
1.0
 40
1.0
 40
1.0
 10
10.12944458309076
 20
0.3498823984794688
 30
0.0
 10
9.860356376865983
 20
0.617825638266045
 30
0.0
 10
9.592646037813328
 20
0.8843675843895695
 30
0.0
 10
9.060186209363348
 20
1.410362195297977
 30
0.0
 10
8.790902374823709
 20
1.671298274726525
 30
0.0
 10
8.52177676021828
 20
1.927006242622276
 30
0.0
  0
SPLINE
  5
B3
330
1F
100
AcDbEntity
  8
0
  6
Continuous
 62
     4
370
    15
100
AcDbSpline
210
0.0
220
0.0
230
1.0
 70
     8
 71
     3
 72
    20
 73
    16
 74
     0
 42
0.000000001
 43
0.00000001
 40
0.0
 40
0.0
 40
0.0
 40
0.0
 40
0.125
 40
0.125
 40
0.25
 40
0.25
 40
0.375
 40
0.375
 40
0.5
 40
0.5
 40
0.75
 40
0.75
 40
0.875
 40
0.875
 40
1.0
 40
1.0
 40
1.0
 40
1.0
 10
8.098983138593589
 20
-3.152984374670945
 30
0.0
 10
8.098983138593589
 20
-3.035103866062322
 30
0.0
 10
8.099255352618052
 20
-2.915301082328145
 30
0.0
 10
8.12138311421419
 20
-2.673664625876084
 30
0.0
 10
8.143073573928241
 20
-2.55078962889266
 30
0.0
 10
8.220416492641313
 20
-2.308810355229032
 30
0.0
 10
8.274766878124819
 20
-2.192618676790199
 30
0.0
 10
8.422938960081446
 20
-1.974067017907503
 30
0.0
 10
8.512670772091496
 20
-1.877578408309906
 30
0.0
 10
8.831697055427192
 20
-1.631399099195289
 30
0.0
 10
9.101986242445548
 20
-1.538482368823948
 30
0.0
 10
9.511425044795242
 20
-1.540469848257938
 30
0.0
 10
9.646903646169392
 20
-1.563931165758478
 30
0.0
 10
9.903702868753204
 20
-1.653995806409869
 30
0.0
 10
10.0232691127461
 20
-1.719927582602295
 30
0.0
 10
10.12944458309066
 20
-1.803705078216184
 30
0.0
  0
SPLINE
  5
B4
330
1F
100
AcDbEntity
  8
0
  6
Continuous
 62
     4
370
    15
100
AcDbSpline
210
0.0
220
0.0
230
1.0
 70
     8
 71
     3
 72
    14
 73
    10
 74
     0
 42
0.000000001
 43
0.00000001
 40
0.0
 40
0.0
 40
0.0
 40
0.0
 40
0.2499999999999997
 40
0.2499999999999997
 40
0.4999999999999993
 40
0.4999999999999993
 40
0.7499999999999997
 40
0.7499999999999997
 40
1.0
 40
1.0
 40
1.0
 40
1.0
 10
8.52177676021828
 20
-4.276426287151428
 30
0.0
 10
8.432520519715634
 20
-4.21063227536867
 30
0.0
 10
8.3590843369972
 20
-4.135456852207895
 30
0.0
 10
8.239959969847074
 20
-3.966490156265607
 30
0.0
 10
8.195542947419685
 20
-3.873527265122222
 30
0.0
 10
8.134132374561275
 20
-3.679317951226654
 30
0.0
 10
8.116674849728806
 20
-3.576643462480045
 30
0.0
 10
8.099120079940096
 20
-3.368193318591463
 30
0.0
 10
8.098983138593585
 20
-3.261586753143038
 30
0.0
 10
8.098983138593585
 20
-3.152984374666651
 30
0.0
  0
SPLINE
  5
B5
330
1F
100
AcDbEntity
  8
0
  6
Continuous
 62
     4
370
    15
100
AcDbSpline
210
0.0
220
0.0
230
1.0
 70
     8
 71
     3
 72
    10
 73
     6
 74
     0
 42
0.000000001
 43
0.00000001
 40
0.0
 40
0.0
 40
0.0
 40
0.0
 40
0.5
 40
0.5
 40
1.0
 40
1.0
 40
1.0
 40
1.0
 10
10.12944458309076
 20
-5.315965987230046
 30
0.0
 10
9.860356376865983
 20
-5.16918929430294
 30
0.0
 10
9.592646037813331
 20
-5.008405346824734
 30
0.0
 10
9.060186209363348
 20
-4.661723069484285
 30
0.0
 10
8.790902374823709
 20
-4.474808537610047
 30
0.0
 10
8.521776760218284
 20
-4.276426287151428
 30
0.0
  0
SPLINE
  5
B6
330
1F
100
AcDbEntity
  8
0
  6
Continuous
 62
     4
370
    15
100
AcDbSpline
210
0.0
220
0.0
230
1.0
 70
     8
 71
     3
 72
    20
 73
    16
 74
     0
 42
0.000000001
 43
0.00000001
 40
0.0
 40
0.0
 40
0.0
 40
0.0
 40
0.1250000000000001
 40
0.1250000000000001
 40
0.2500000000000002
 40
0.2500000000000002
 40
0.3750000000000001
 40
0.3750000000000001
 40
0.5000000000000001
 40
0.5000000000000001
 40
0.75
 40
0.75
 40
0.875
 40
0.875
 40
1.0
 40
1.0
 40
1.0
 40
1.0
 10
8.098983138593589
 20
-6.349949231227402
 30
0.0
 10
8.098983138593589
 20
-6.349406182287626
 30
0.0
 10
8.099255352618052
 20
-6.344491744468747
 30
0.0
 10
8.12138311421419
 20
-6.326230107064926
 30
0.0
 10
8.143073573928241
 20
-6.312739483182251
 30
0.0
 10
8.220416492641316
 20
-6.278542487199648
 30
0.0
 10
8.274766878124822
 20
-6.258307857048332
 30
0.0
 10
8.422938960081453
 20
-6.214767794429862
 30
0.0
 10
8.5126707720915
 20
-6.192681925085459
 30
0.0
 10
8.831697055427203
 20
-6.13244053111985
 30
0.0
 10
9.101986242445559
 20
-6.104658731293003
 30
0.0
 10
9.51142504479525
 20
-6.105222256325288
 30
0.0
 10
9.646903646169395
 20
-6.111983383898631
 30
0.0
 10
9.903702868753207
 20
-6.136585804529343
 30
0.0
 10
10.0232691127461
 20
-6.154204797010977
 30
0.0
 10
10.12944458309066
 20
-6.174599545471377
 30
0.0
  0
SPLINE
  5
B7
330
1F
100
AcDbEntity
  8
0
  6
Continuous
 62
     4
370
    15
100
AcDbSpline
210
0.0
220
0.0
230
1.0
 70
     8
 71
     3
 72
    14
 73
    10
 74
     0
 42
0.000000001
 43
0.00000001
 40
0.0
 40
0.0
 40
0.0
 40
0.0
 40
0.2500000000000001
 40
0.2500000000000001
 40
0.5000000000000001
 40
0.5000000000000001
 40
0.75
 40
0.75
 40
1.0
 40
1.0
 40
1.0
 40
1.0
 10
8.52177676021828
 20
-6.203432529773715
 30
0.0
 10
8.432520519715634
 20
-6.222444759546261
 30
0.0
 10
8.3590843369972
 20
-6.241982760733666
 30
0.0
 10
8.239959969847074
 20
-6.278721613130518
 30
0.0
 10
8.195542947419685
 20
-6.295623215700572
 30
0.0
 10
8.134132374561272
 20
-6.32293696510903
 30
0.0
 10
8.116674849728803
 20
-6.333562523223913
 30
0.0
 10
8.099120079940093
 20
-6.347245062128006
 30
0.0
 10
8.098983138593585
 20
-6.350449537904979
 30
0.0
 10
8.098983138593585
 20
-6.34994923121996
 30
0.0
  0
LINE
  5
B8
330
1F
100
AcDbEntity
  8
0
  6
Continuous
 62
     4
370
    15
100
AcDbLine
 10
8.66308415998282
 20
-6.16462083138448
 30
0.0
 11
8.521776760218284
 21
-6.203432529773715
 31
0.0
  0
LINE
  5
B9
330
1F
100
AcDbEntity
  8
0
  6
Continuous
 62
     4
370
    15
100
AcDbLine
 10
-40.17055541690923
 20
6.349999999999999
 30
0.0
 11
-40.17055541690923
 21
-6.349999999999999
 31
0.0
  0
LINE
  5
BA
330
1F
100
AcDbEntity
  8
0
  6
Continuous
 62
     1
370
    15
100
AcDbLine
 10
10.12944458309076
 20
-5.315965987230046
 30
0.0
 11
10.12944458309076
 21
-6.174599545471319
 31
0.0
  0
LINE
  5
BB
330
1F
100
AcDbEntity
  8
0
  6
Continuous
 62
     1
370
    15
100
AcDbLine
 10
10.12944458309076
 20
0.3498823984794693
 30
0.0
 11
10.12944458309076
 21
-1.803705078215947
 31
0.0
  0
LINE
  5
BC
330
1F
100
AcDbEntity
  8
0
  6
Continuous
 62
     1
370
    15
100
AcDbLine
 10
10.12944458309076
 20
5.665848385709541
 30
0.0
 11
10.12944458309076
 21
4.370894467255338
 31
0.0
  0
LINE
  5
BD
330
1F
100
AcDbEntity
  8
0
  6
Continuous
 62
     4
370
    15
100
AcDbLine
 10
-40.67055541690923
 20
5.849999999999997
 30
0.0
 11
-40.67055541690923
 21
-5.849999999999998
 31
0.0
  0
SPLINE
  5
BE
330
1F
100
AcDbEntity
  8
0
  6
Continuous
 62
     1
370
    15
100
AcDbSpline
210
0.0
220
0.0
230
1.0
 70
    24
 71
     3
 72
    14
 73
    10
 74
     0
 42
0.000000001
 43
0.00000001
 40
0.0
 40
0.0
 40
0.0
 40
0.0
 40
0.25
 40
0.25
 40
0.4999999999999999
 40
0.4999999999999999
 40
0.75
 40
0.75
 40
1.0
 40
1.0
 40
1.0
 40
1.0
 10
10.12944458309076
 20
3.925872305406014
 30
0.0
 10
10.12944458309076
 20
3.67415714996482
 30
0.0
 10
10.12944458309076
 20
3.389135429014289
 30
0.0
 10
10.12944458309076
 20
2.763437385568287
 30
0.0
 10
10.12944458309076
 20
2.422133815012018
 30
0.0
 10
10.12944458309076
 20
1.733092133707621
 30
0.0
 10
10.12944458309076
 20
1.38607840590513
 30
0.0
 10
10.12944458309076
 20
0.7788519773087206
 30
0.0
 10
10.12944458309076
 20
0.5212760141486609
 30
0.0
 10
10.12944458309076
 20
0.3498823984794702
 30
0.0
  0
SPLINE
  5
C0
330
1F
100
AcDbEntity
  8
0
  6
Continuous
 62
     1
370
    15
100
AcDbSpline
210
0.0
220
0.0
230
1.0
 70
    24
 71
     3
 72
     8
 73
     4
 74
     0
 42
0.000000001
 43
0.00000001
 40
0.0
 40
0.0
 40
0.0
 40
0.0
 40
1.0
 40
1.0
 40
1.0
 40
1.0
 10
10.12944458309076
 20
-1.803705078215971
 30
0.0
 10
10.12944458309076
 20
-1.825902087095914
 30
0.0
 10
10.12944458309076
 20
-1.860447195608677
 30
0.0
 10
10.12944458309076
 20
-1.908928205366589
 30
0.0
  0
SPLINE
  5
C1
330
1F
100
AcDbEntity
  8
0
  6
Continuous
 62
     1
370
    15
100
AcDbSpline
210
0.0
220
0.0
230
1.0
 70
    24
 71
     3
 72
     8
 73
     4
 74
     0
 42
0.000000001
 43
0.00000001
 40
0.0
 40
0.0
 40
0.0
 40
0.0
 40
1.0
 40
1.0
 40
1.0
 40
1.0
 10
10.12944458309076
 20
4.370894467255398
 30
0.0
 10
10.12944458309076
 20
4.226402674300298
 30
0.0
 10
10.12944458309076
 20
4.078220146830364
 30
0.0
 10
10.12944458309076
 20
3.925872305405796
 30
0.0
  0
SPLINE
  5
C2
330
1F
100
AcDbEntity
  8
0
  6
Continuous
 62
     1
370
    15
100
AcDbSpline
210
0.0
220
0.0
230
1.0
 70
    24
 71
     3
 72
    14
 73
    10
 74
     0
 42
0.000000001
 43
0.00000001
 40
0.0
 40
0.0
 40
0.0
 40
0.0
 40
0.25
 40
0.25
 40
0.4999999999999999
 40
0.4999999999999999
 40
0.7499999999999998
 40
0.7499999999999998
 40
1.0
 40
1.0
 40
1.0
 40
1.0
 10
10.12944458309076
 20
-1.908928205366519
 30
0.0
 10
10.12944458309076
 20
-1.989030455539517
 30
0.0
 10
10.12944458309076
 20
-2.107101091791841
 30
0.0
 10
10.12944458309076
 20
-2.453702120337827
 30
0.0
 10
10.12944458309076
 20
-2.683386223731996
 30
0.0
 10
10.12944458309076
 20
-3.270577777254742
 30
0.0
 10
10.12944458309076
 20
-3.62922950866969
 30
0.0
 10
10.12944458309076
 20
-4.434350429024149
 30
0.0
 10
10.12944458309076
 20
-4.879656978922019
 30
0.0
 10
10.12944458309076
 20
-5.315965987230045
 30
0.0
  0
LINE
  5
C3
330
1F
100
AcDbEntity
  8
0
  6
Continuous
 62
     4
370
    15
100
AcDbLine
 10
10.12944458309076
 20
5.834800510772568
 30
0.0
 11
10.12944458309076
 21
5.736302716350465
 31
0.0
  0
SPLINE
  5
C4
330
1F
100
AcDbEntity
  8
0
  6
Continuous
 62
     1
370
    15
100
AcDbSpline
210
0.0
220
0.0
230
1.0
 70
    24
 71
     3
 72
     8
 73
     4
 74
     0
 42
0.000000001
 43
0.00000001
 40
0.0
 40
0.0
 40
0.0
 40
0.0
 40
1.0
 40
1.0
 40
1.0
 40
1.0
 10
10.12944458309076
 20
6.174599545471398
 30
0.0
 10
10.12944458309076
 20
6.052304761396245
 30
0.0
 10
10.12944458309076
 20
5.938667342439071
 30
0.0
 10
10.12944458309076
 20
5.834800510772415
 30
0.0
  0
SPLINE
  5
C5
330
1F
100
AcDbEntity
  8
0
  6
Continuous
 62
     1
370
    15
100
AcDbSpline
210
0.0
220
0.0
230
1.0
 70
     8
 71
     3
 72
    28
 73
    24
 74
     0
 42
0.000000001
 43
0.00000001
 40
0.0
 40
0.0
 40
0.0
 40
0.0
 40
0.0211440292658939
 40
0.0708028278512687
 40
0.1204058310734893
 40
0.1699461284280106
 40
0.2196099520150597
 40
0.2692064870300634
 40
0.3187484575283073
 40
0.3684166538550886
 40
0.4180070521381882
 40
0.4675510302093647
 40
0.5172229467130978
 40
0.5668075400714753
 40
0.6163538600359887
 40
0.666028843897912
 40
0.7156079644527555
 40
0.7651569605040981
 40
0.8148343586943632
 40
0.8644083388629747
 40
0.9139603450496312
 40
0.9636395043722253
 40
1.0
 40
1.0
 40
1.0
 40
1.0
 10
49.29290965462895
 20
-5.937374373712962
 30
0.0
 10
49.13665164656895
 20
-5.996573119908338
 30
0.0
 10
48.61340658736442
 20
-6.194805849497071
 30
0.0
 10
47.72168822825704
 20
-6.339784459982374
 30
0.0
 10
46.62107091542762
 20
-6.368979183089527
 30
0.0
 10
45.52180643737334
 20
-6.196292612351304
 30
0.0
 10
44.41981015366284
 20
-5.841436642880564
 30
0.0
 10
43.31930350500673
 20
-5.310492570917924
 30
0.0
 10
42.22001098214896
 20
-4.619603544786493
 30
0.0
 10
41.11791577117072
 20
-3.792233406650043
 30
0.0
 10
40.01754631353841
 20
-2.850043914121203
 30
0.0
 10
38.91820918160273
 20
-1.821305624130557
 30
0.0
 10
37.81603188905306
 20
-0.7407879713546542
 30
0.0
 10
36.71579159246847
 20
0.3638300931707233
 30
0.0
 10
35.61640255148578
 20
1.458404267295371
 30
0.0
 10
34.51415750331333
 20
2.506479928820343
 30
0.0
 10
33.41403914787826
 20
3.481507216453256
 30
0.0
 10
32.31459014107237
 20
4.352680887925069
 30
0.0
 10
31.21229390759681
 20
5.090930264545812
 30
0.0
 10
30.11228207714222
 20
5.680003851112372
 30
0.0
 10
29.01279555731795
 20
6.092182436101809
 30
0.0
 10
28.00821229176392
 20
6.323007006406432
 30
0.0
 10
27.37224480383187
 20
6.328898184160341
 30
0.0
 10
27.10348392749294
 20
6.33138780529012
 30
0.0
  0
SPLINE
  5
C6
330
1F
100
AcDbEntity
  8
0
  6
Continuous
 62
     1
370
    15
100
AcDbSpline
210
0.0
220
0.0
230
1.0
 70
     8
 71
     3
 72
     9
 73
     5
 74
     0
 42
0.000000001
 43
0.00000001
 40
0.0
 40
0.0
 40
0.0
 40
0.0
 40
0.7601866871880326
 40
1.0
 40
1.0
 40
1.0
 40
1.0
 10
10.12944458309143
 20
-6.172758784148889
 30
0.0
 10
10.51021933493512
 20
-6.254402787069565
 30
0.0
 10
11.01111570455217
 20
-6.361802724869952
 30
0.0
 10
11.5127416362259
 20
-6.334357900068969
 30
0.0
 10
11.63303821269297
 20
-6.327776265713903
 30
0.0
  0
SPLINE
  5
C7
330
1F
100
AcDbEntity
  8
0
  6
Continuous
 62
     1
370
    15
100
AcDbSpline
210
0.0
220
0.0
230
1.0
 70
     8
 71
     3
 72
    28
 73
    24
 74
     0
 42
0.000000001
 43
0.00000001
 40
0.0
 40
0.0
 40
0.0
 40
0.0
 40
0.0346225779502689
 40
0.0841997712044499
 40
0.1338803891832149
 40
0.1834325967008075
 40
0.233014930674389
 40
0.2826931341683302
 40
0.332242665425646
 40
0.3818304725574755
 40
0.4315056084944188
 40
0.48105279770661
 40
0.5306464101394018
 40
0.5803178256582737
 40
0.629863007167414
 40
0.6794627567298556
 40
0.7291297992255807
 40
0.7786733074825554
 40
0.8282795256714439
 40
0.8779415428398051
 40
0.927483712386192
 40
0.977096730348603
 40
1.0
 40
1.0
 40
1.0
 40
1.0
 10
29.34439416082222
 20
5.940421860361571
 30
0.0
 10
29.60034103947502
 20
6.02800146545259
 30
0.0
 10
30.22278656198965
 20
6.240989150004329
 30
0.0
 10
31.21225579069475
 20
6.366978115218109
 30
0.0
 10
32.31460033380263
 20
6.340823041121321
 30
0.0
 10
33.41403641804401
 20
6.117910834819924
 30
0.0
 10
34.51415823659788
 20
5.713205122521278
 30
0.0
 10
35.61640235540376
 20
5.138061561856373
 30
0.0
 10
36.7157916450354
 20
4.407439932073964
 30
0.0
 10
37.81603187477688
 20
3.545062985393093
 30
0.0
 10
38.9182091860083
 20
2.578268323693163
 30
0.0
 10
40.01754631016815
 20
1.531592277832931
 30
0.0
 10
41.11791578026455
 20
0.4399692160109436
 30
0.0
 10
42.22001094912932
 20
-0.6630818485640638
 30
0.0
 10
43.31930362768897
 20
-1.749110701764287
 30
0.0
 10
44.4198096950125
 20
-2.781421949510302
 30
0.0
 10
45.52180814979177
 20
-3.729131130673044
 30
0.0
 10
46.62106453918599
 20
-4.56757940379936
 30
0.0
 10
47.72171207147692
 20
-5.26712587289137
 30
0.0
 10
48.82360872952498
 20
-5.811289926639985
 30
0.0
 10
49.92280159259612
 20
-6.171761631932549
 30
0.0
 10
50.82580519910058
 20
-6.347764470164366
 30
0.0
 10
51.36242395545133
 20
-6.331443269226945
 30
0.0
 10
51.53190759121259
 20
-6.326288442933364
 30
0.0
  0
SPLINE
  5
C8
330
1F
100
AcDbEntity
  8
0
  6
Continuous
 62
     1
370
    15
100
AcDbSpline
210
0.0
220
0.0
230
1.0
 70
     8
 71
     3
 72
    18
 73
    14
 74
     0
 42
0.000000001
 43
0.00000001
 40
0.0
 40
0.0
 40
0.0
 40
0.0
 40
0.1249999999999994
 40
0.1249999999999994
 40
0.1874999999999991
 40
0.1874999999999991
 40
0.2499999999999989
 40
0.2499999999999989
 40
0.3124999999999986
 40
0.3124999999999986
 40
0.3749999999999984
 40
0.3749999999999984
 40
0.4606547121650861
 40
0.4606547121650861
 40
0.4606547121650861
 40
0.4606547121650861
 10
58.64344458309077
 20
-3.565862921728
 30
0.0
 10
58.8895176353393
 20
-3.769000800438899
 30
0.0
 10
59.11983660034578
 20
-3.945114967426575
 30
0.0
 10
59.45078257084874
 20
-4.166301540906614
 30
0.0
 10
59.55784078401869
 20
-4.231962167337831
 30
0.0
 10
59.7604302964991
 20
-4.345485970708273
 30
0.0
 10
59.85670850926007
 20
-4.393832152796825
 30
0.0
 10
60.03800272477538
 20
-4.475841411328355
 30
0.0
 10
60.12321104357451
 20
-4.509493034571178
 30
0.0
 10
60.2763467729873
 20
-4.564488828985649
 30
0.0
 10
60.34483939980464
 20
-4.586102198242333
 30
0.0
 10
60.48658839455689
 20
-4.631483639514987
 30
0.0
 10
60.55193509045311
 20
-4.652786994528278
 30
0.0
 10
60.82335336320021
 20
-4.752326746830141
 30
0.0
  0
SPLINE
  5
C9
330
1F
100
AcDbEntity
  8
0
  6
Continuous
 62
     1
370
    15
100
AcDbSpline
210
0.0
220
0.0
230
1.0
 70
     8
 71
     3
 72
    24
 73
    20
 74
     0
 42
0.000000001
 43
0.00000001
 40
0.0
 40
0.0
 40
0.0
 40
0.0
 40
0.0591858601338981
 40
0.1184050428750595
 40
0.1774921701738286
 40
0.2367131310969554
 40
0.2970718597273965
 40
0.3573345121153753
 40
0.4177372644934819
 40
0.4780873194070723
 40
0.5383511931937485
 40
0.5987608515116714
 40
0.6591026350738636
 40
0.7193681372891414
 40
0.7797839084942634
 40
0.8401178235175656
 40
0.9003853611030795
 40
0.9608064517222966
 40
1.0
 40
1.0
 40
1.0
 40
1.0
 10
58.64344458309014
 20
-6.121231968026192
 30
0.0
 10
58.28360590602774
 20
-6.008430209304189
 30
0.0
 10
57.56372595684245
 20
-5.782763182625104
 30
0.0
 10
56.48345999853674
 20
-5.231248781194064
 30
0.0
 10
55.40574815103449
 20
-4.539892469955897
 30
0.0
 10
54.31841154345857
 20
-3.710765991837807
 30
0.0
 10
53.22459671075134
 20
-2.767153998004862
 30
0.0
 10
52.12539126396879
 20
-1.732453572031241
 30
0.0
 10
51.0236292158977
 20
-0.6484173531966307
 30
0.0
 10
49.92282793286645
 20
0.455990931902474
 30
0.0
 10
48.8236016681717
 20
1.548340939797052
 30
0.0
 10
47.72171392008603
 20
2.591645662666808
 30
0.0
 10
46.62106420537278
 20
3.558533931161955
 30
0.0
 10
45.52180764058509
 20
4.419944274174697
 30
0.0
 10
44.4198120722935
 20
5.146334281118184
 30
0.0
 10
43.31929464774568
 20
5.721727603921953
 30
0.0
 10
42.22004449281377
 20
6.118253204094076
 30
0.0
 10
41.2464747758162
 20
6.331064189699441
 30
0.0
 10
40.64102334529552
 20
6.329090516686152
 30
0.0
 10
40.40280745519454
 20
6.328313971698515
 30
0.0
  0
SPLINE
  5
CA
330
1F
100
AcDbEntity
  8
0
  6
Continuous
 62
     1
370
    15
100
AcDbSpline
210
0.0
220
0.0
230
1.0
 70
     8
 71
     3
 72
    19
 73
    15
 74
     0
 42
0.000000001
 43
0.00000001
 40
0.0
 40
0.0
 40
0.0
 40
0.0
 40
0.0227110557056517
 40
0.1104469896300886
 40
0.1979707120733234
 40
0.2854988194066279
 40
0.3732344018923852
 40
0.4607513992219049
 40
0.5482871789543908
 40
0.6360212560804251
 40
0.7269539575588623
 40
0.8178920752696942
 40
0.9090344653154026
 40
1.0
 40
1.0
 40
1.0
 40
1.0
 10
22.6947991378224
 20
-5.942063464282644
 30
0.0
 10
22.59973721671047
 20
-5.979995429751098
 30
0.0
 10
22.13743801092528
 20
-6.164463798418814
 30
0.0
 10
21.30666904646885
 20
-6.315461274703385
 30
0.0
 10
20.20706180507205
 20
-6.379421921730997
 30
0.0
 10
19.10727519385808
 20
-6.23779317261631
 30
0.0
 10
18.00491354261248
 20
-5.913781255206473
 30
0.0
 10
16.90529629931297
 20
-5.41069633884473
 30
0.0
 10
15.80541937331373
 20
-4.745491949468635
 30
0.0
 10
14.68879249527537
 20
-3.929383133670769
 30
0.0
 10
13.56049295871171
 20
-2.977253180170917
 30
0.0
 10
12.41782510792187
 20
-1.916926136730738
 30
0.0
 10
11.27255090719754
 20
-0.7960404398374544
 30
0.0
 10
10.51023324778383
 20
-0.0318444962474582
 30
0.0
 10
10.12944458309076
 20
0.3498823984794681
 30
0.0
  0
SPLINE
  5
CB
330
1F
100
AcDbEntity
  8
0
  6
Continuous
 62
     1
370
    15
100
AcDbSpline
210
0.0
220
0.0
230
1.0
 70
    24
 71
     3
 72
    16
 73
    12
 74
     0
 42
0.000000001
 43
0.00000001
 40
0.0
 40
0.0
 40
0.0
 40
0.0
 40
0.25
 40
0.25
 40
0.4999999999999999
 40
0.4999999999999999
 40
0.7499999999999998
 40
0.7499999999999998
 40
0.8749999999999999
 40
0.8749999999999999
 40
1.0
 40
1.0
 40
1.0
 40
1.0
 10
10.12944458309076
 20
4.376597104161822
 30
0.0
 10
10.12944458309076
 20
4.131454794238214
 30
0.0
 10
10.12944458309076
 20
3.844347031309888
 30
0.0
 10
10.12944458309076
 20
3.18306728200555
 30
0.0
 10
10.12944458309076
 20
2.807364753973223
 30
0.0
 10
10.12944458309076
 20
2.016679791646073
 30
0.0
 10
10.12944458309076
 20
1.601974150627189
 30
0.0
 10
10.12944458309076
 20
1.049733879446802
 30
0.0
 10
10.12944458309076
 20
0.8779600247799904
 30
0.0
 10
10.12944458309076
 20
0.5777556944085716
 30
0.0
 10
10.12944458309076
 20
0.4495091450740142
 30
0.0
 10
10.12944458309076
 20
0.3498823984794702
 30
0.0
  0
SPLINE
  5
CC
330
1F
100
AcDbEntity
  8
0
  6
Continuous
 62
     1
370
    15
100
AcDbSpline
210
0.0
220
0.0
230
1.0
 70
     8
 71
     3
 72
    21
 73
    17
 74
     0
 42
0.000000001
 43
0.00000001
 40
0.0
 40
0.0
 40
0.0
 40
0.0
 40
0.0772121579907872
 40
0.1545744320022306
 40
0.2317633182811847
 40
0.3089476072256324
 40
0.3834168822947008
 40
0.4577178412016889
 40
0.5320028574786437
 40
0.6064734103071765
 40
0.6807678568301082
 40
0.7550585814288417
 40
0.8295294325608908
 40
0.9038178662945058
 40
0.9781147990113103
 40
1.0
 40
1.0
 40
1.0
 40
1.0
 10
10.12944458309143
 20
4.376597104167997
 30
0.0
 10
10.5102332476009
 20
4.086676809423362
 30
0.0
 10
11.27255090664707
 20
3.506272556359765
 30
0.0
 10
12.41782511012902
 20
2.48661379278177
 30
0.0
 10
13.56049295045778
 20
1.394697574425051
 30
0.0
 10
14.68879252563275
 20
0.2689237519427105
 30
0.0
 10
15.80541926454617
 20
-0.847076046122926
 30
0.0
 10
16.9052967046648
 20
-1.926012187064773
 30
0.0
 10
18.00491202833954
 20
-2.94731252978962
 30
0.0
 10
19.10728085535808
 20
-3.87785796174778
 30
0.0
 10
20.20704073384876
 20
-4.694711750838406
 30
0.0
 10
21.30674776728701
 20
-5.36956889083703
 30
0.0
 10
22.40911380793719
 20
-5.886056119081429
 30
0.0
 10
23.50880610909573
 20
-6.213265157729332
 30
0.0
 10
24.34926873781041
 20
-6.361059882854057
 30
0.0
 10
24.82429601739992
 20
-6.335915625891197
 30
0.0
 10
24.93238332102284
 20
-6.330194323023989
 30
0.0
  0
SPLINE
  5
CD
330
1F
100
AcDbEntity
  8
0
  6
Continuous
 62
     1
370
    15
100
AcDbSpline
210
0.0
220
0.0
230
1.0
 70
     8
 71
     3
 72
    22
 73
    18
 74
     0
 42
0.000000001
 43
0.00000001
 40
0.0
 40
0.0
 40
0.0
 40
0.0
 40
0.0422545074597182
 40
0.1110359730390729
 40
0.1799107557544053
 40
0.2486142298227091
 40
0.3174046656410515
 40
0.3862724795836751
 40
0.4549740972217143
 40
0.5237739624906611
 40
0.5926339035700436
 40
0.6613341287973228
 40
0.7301438822188421
 40
0.797656565321491
 40
0.8650166763123597
 40
0.932527332263918
 40
1.0
 40
1.0
 40
1.0
 40
1.0
 10
42.64343842230785
 20
5.938077500715516
 30
0.0
 10
42.86864876859525
 20
6.017771620300624
 30
0.0
 10
43.46045426916407
 20
6.227191032467732
 30
0.0
 10
44.41978117513885
 20
6.360225021735739
 30
0.0
 10
45.521815900896
 20
6.350972113021624
 30
0.0
 10
46.62106199131379
 20
6.143486233528246
 30
0.0
 10
47.72171451444748
 20
5.754005691970926
 30
0.0
 10
48.8236015092732
 20
5.192416260170752
 30
0.0
 10
49.92282797546638
 20
4.473761299410596
 30
0.0
 10
51.02362920446418
 20
3.62194973578794
 30
0.0
 10
52.12539126702561
 20
2.66262682814237
 30
0.0
 10
53.22459670993106
 20
1.62105516653012
 30
0.0
 10
54.31841154367392
 20
0.5397806886863346
 30
0.0
 10
55.4057481509774
 20
-0.549785348419233
 30
0.0
 10
56.48345999855199
 20
-1.617225448330911
 30
0.0
 10
57.56372595683862
 20
-2.642578339631029
 30
0.0
 10
58.28360590602644
 20
-3.258159141782949
 30
0.0
 10
58.64344458309014
 20
-3.565862921728548
 30
0.0
  0
SPLINE
  5
CE
330
1F
100
AcDbEntity
  8
0
  6
Continuous
 62
     1
370
    15
100
AcDbSpline
210
0.0
220
0.0
230
1.0
 70
     8
 71
     3
 72
    38
 73
    34
 74
     0
 42
0.000000001
 43
0.00000001
 40
0.0
 40
0.0
 40
0.0
 40
0.0
 40
0.1250000000000007
 40
0.1250000000000007
 40
0.1875000000000011
 40
0.1875000000000011
 40
0.2500000000000015
 40
0.2500000000000015
 40
0.3125000000000018
 40
0.3125000000000018
 40
0.375000000000002
 40
0.375000000000002
 40
0.5000000000000023
 40
0.5000000000000023
 40
0.5625000000000023
 40
0.5625000000000023
 40
0.6250000000000024
 40
0.6250000000000024
 40
0.6562500000000022
 40
0.6562500000000022
 40
0.6875000000000021
 40
0.6875000000000021
 40
0.718750000000002
 40
0.718750000000002
 40
0.7500000000000018
 40
0.7500000000000018
 40
0.8125000000000014
 40
0.8125000000000014
 40
0.875000000000001
 40
0.875000000000001
 40
0.9375000000000006
 40
0.9375000000000006
 40
1.0
 40
1.0
 40
1.0
 40
1.0
 10
58.62453738095215
 20
6.258030631398558
 30
0.0
 10
58.84841376016116
 20
6.192549188406213
 30
0.0
 10
59.06355675632145
 20
6.111433183028175
 30
0.0
 10
59.38560513793361
 20
5.953000759195453
 30
0.0
 10
59.4914985051328
 20
5.890055325551809
 30
0.0
 10
59.6976052524468
 20
5.749828511780236
 30
0.0
 10
59.79874224828653
 20
5.671445855687542
 30
0.0
 10
59.99610651351187
 20
5.497110229584767
 30
0.0
 10
60.14673888563313
 20
5.3413003022775
 30
0.0
 10
60.27634677298726
 20
5.193646336028957
 30
0.0
 10
60.34483939980463
 20
5.0693866964341
 30
0.0
 10
60.52423252289634
 20
4.682571273722244
 30
0.0
 10
60.60846521581139
 20
4.403743716513652
 30
0.0
 10
60.67559039387511
 20
4.008902648541745
 30
0.0
 10
60.68868276598464
 20
3.880153642408662
 30
0.0
 10
60.69316394336726
 20
3.64010091769034
 30
0.0
 10
60.68490636801631
 20
3.529214456619223
 30
0.0
 10
60.64693703864647
 20
3.393135874336474
 30
0.0
 10
60.63005595439751
 20
3.353255578043605
 30
0.0
 10
60.58353629280261
 20
3.288457549254452
 30
0.0
 10
60.55381897791172
 20
3.263984961824049
 30
0.0
 10
60.47849968520718
 20
3.238711300671382
 30
0.0
 10
60.43241604744921
 20
3.238201016719337
 30
0.0
 10
60.32652558809525
 20
3.263411663064431
 30
0.0
 10
60.2658781750232
 20
3.289327405330015
 30
0.0
 10
60.07500335823574
 20
3.394038670241108
 30
0.0
 10
59.93647678465683
 20
3.497162337143093
 30
0.0
 10
59.6671784597785
 20
3.709694884044979
 30
0.0
 10
59.53290092228197
 20
3.822158578992344
 30
0.0
 10
59.27154625788749
 20
4.039215874051127
 30
0.0
 10
59.14446541041036
 20
4.144145307410429
 30
0.0
 10
58.89142152970125
 20
4.343420490856931
 30
0.0
 10
58.76623517750839
 20
4.437431824333133
 30
0.0
 10
58.64344458309077
 20
4.523409337569694
 30
0.0
  0
SPLINE
  5
CF
330
1F
100
AcDbEntity
  8
0
  6
Continuous
 62
     1
370
    15
100
AcDbSpline
210
0.0
220
0.0
230
1.0
 70
     8
 71
     3
 72
    12
 73
     8
 74
     0
 42
0.000000001
 43
0.00000001
 40
0.0
 40
0.0
 40
0.0
 40
0.0
 40
0.2185031228513135
 40
0.4371292665344962
 40
0.6552678862299067
 40
0.8739005946282353
 40
1.0
 40
1.0
 40
1.0
 40
1.0
 10
58.64344458309014
 20
4.523409337570149
 30
0.0
 10
58.2836067133535
 20
4.763215886039541
 30
0.0
 10
57.56372837927425
 20
5.242963997987244
 30
0.0
 10
56.48345031145404
 20
5.777799444152077
 30
0.0
 10
55.40578442111729
 20
6.148068890926532
 30
0.0
 10
54.47776249244186
 20
6.338654143104698
 30
0.0
 10
53.91000381079226
 20
6.329811473727154
 30
0.0
 10
53.70232361712623
 20
6.32657691765922
 30
0.0
  0
SPLINE
  5
D0
330
1F
100
AcDbEntity
  8
0
  6
Continuous
 62
     1
370
    15
100
AcDbSpline
210
0.0
220
0.0
230
1.0
 70
     8
 71
     3
 72
    28
 73
    24
 74
     0
 42
0.000000001
 43
0.00000001
 40
0.0
 40
0.0
 40
0.0
 40
0.0
 40
0.0170024430634076
 40
0.0666768644554494
 40
0.1162554236258716
 40
0.1658038586338927
 40
0.2154806943269389
 40
0.2650541131693338
 40
0.314605558278585
 40
0.3642841550840189
 40
0.4138527662901123
 40
0.4634075553822095
 40
0.5130872599901991
 40
0.5626513965119567
 40
0.612209863287364
 40
0.661890022311823
 40
0.7114500173434759
 40
0.7610124953034595
 40
0.8106924553270222
 40
0.8602486422870688
 40
0.9098154647156684
 40
0.959494572334668
 40
1.0
 40
1.0
 40
1.0
 40
1.0
 10
35.9939369242693
 20
-5.939093275984419
 30
0.0
 10
35.86827526100586
 20
-5.988003340787109
 30
0.0
 10
35.37547986346117
 20
-6.179809291802162
 30
0.0
 10
34.51410348410153
 20
-6.328354080575678
 30
0.0
 10
33.41405349086841
 20
-6.374852260161266
 30
0.0
 10
32.31458669310612
 20
-6.217687292854239
 30
0.0
 10
31.21229331294277
 20
-5.878248890851062
 30
0.0
 10
30.11228788272853
 20
-5.361157696554874
 30
0.0
 10
29.01277291226603
 20
-4.682996942763245
 30
0.0
 10
27.91043563622731
 20
-3.866511765756723
 30
0.0
 10
26.81053853205668
 20
-2.932385171074075
 30
0.0
 10
25.71094887005611
 20
-1.909888968542885
 30
0.0
 10
24.60858723619401
 20
-0.8329016371504069
 30
0.0
 10
23.50878966996184
 20
0.2715822717384551
 30
0.0
 10
22.40911822952775
 20
1.368037325972194
 30
0.0
 10
21.30674656746283
 20
2.420883458553389
 30
0.0
 10
20.20704111838422
 20
3.403738468793352
 30
0.0
 10
19.10728051523919
 20
4.284418648257548
 30
0.0
 10
18.00491300480545
 20
5.034491344589551
 30
0.0
 10
16.90529314900604
 20
5.637180247618047
 30
0.0
 10
15.80543253025255
 20
6.064427549214963
 30
0.0
 10
14.77012083889298
 20
6.315578603259596
 30
0.0
 10
14.10354416398843
 20
6.327432747680581
 30
0.0
 10
13.80415831913578
 20
6.332756910940555
 30
0.0
  0
SPLINE
  5
D1
330
1F
100
AcDbEntity
  8
0
  6
Continuous
 62
     1
370
    15
100
AcDbSpline
210
0.0
220
0.0
230
1.0
 70
     8
 71
     3
 72
    28
 73
    24
 74
     0
 42
0.000000001
 43
0.00000001
 40
0.0
 40
0.0
 40
0.0
 40
0.0
 40
0.0387825375046004
 40
0.0883432773474414
 40
0.138027801625219
 40
0.1875948330459709
 40
0.2371593813102783
 40
0.286844104607235
 40
0.3364071244748906
 40
0.3859758146097938
 40
0.4356600834485325
 40
0.4852194252949973
 40
0.5347925905253398
 40
0.5844757514597456
 40
0.6340317490161423
 40
0.6836097223244788
 40
0.7332911219846979
 40
0.782844109163317
 40
0.8324272232719389
 40
0.8821062084093442
 40
0.931656519285578
 40
0.9812451066385632
 40
1.0
 40
1.0
 40
1.0
 40
1.0
 10
16.04514086813208
 20
5.944018347860622
 30
0.0
 10
16.33190603951816
 20
6.038709370448779
 30
0.0
 10
16.9851323805316
 20
6.254407357457138
 30
0.0
 10
18.00487764130076
 20
6.372313824480083
 30
0.0
 10
19.10728997584919
 20
6.329345209332028
 30
0.0
 10
20.20703858628747
 20
6.091040350960681
 30
0.0
 10
21.30674724781512
 20
5.671247076788519
 30
0.0
 10
22.40911804751508
 20
5.082551945305208
 30
0.0
 10
23.50878971877865
 20
4.340183378850129
 30
0.0
 10
24.6085872227247
 20
3.467512355372472
 30
0.0
 10
25.71094887497931
 20
2.493255607656079
 30
0.0
 10
26.81053852582519
 20
1.441774190391394
 30
0.0
 10
27.91043565626374
 20
0.3472986640152317
 30
0.0
 10
29.01277283825941
 20
-0.7551094377009863
 30
0.0
 10
30.11228815793678
 20
-1.837748642951006
 30
0.0
 10
31.21229228441857
 20
-2.8647188960221
 30
0.0
 10
32.31459053627086
 20
-3.803844422751938
 30
0.0
 10
33.41403918657787
 20
-4.631628548274259
 30
0.0
 10
34.51415695257409
 20
-5.318943584286262
 30
0.0
 10
35.61640471806926
 20
-5.8492420165065
 30
0.0
 10
36.71578349883364
 20
-6.193238630660383
 30
0.0
 10
37.58744417161161
 20
-6.354581741310207
 30
0.0
 10
38.09330969695758
 20
-6.33338618837996
 30
0.0
 10
38.23212987239954
 20
-6.327569681365858
 30
0.0
  0
SPLINE
  5
D2
330
1F
100
AcDbEntity
  8
0
  6
Continuous
 62
     1
370
    15
100
AcDbSpline
210
0.0
220
0.0
230
1.0
 70
     8
 71
     3
 72
    10
 73
     6
 74
     0
 42
0.000000001
 43
0.00000001
 40
0.0
 40
0.0
 40
0.0
 40
0.0
 40
0.2004103365359816
 40
0.600317682108955
 40
0.752849246641967
 40
0.752849246641967
 40
0.752849246641967
 40
0.752849246641967
 10
55.94217984427656
 20
5.948437168265432
 30
0.0
 10
56.12245368144415
 20
6.014654954995033
 30
0.0
 10
56.66245363326252
 20
6.21300654169956
 30
0.0
 10
57.34097656988799
 20
6.326859083637864
 30
0.0
 10
57.83850768079913
 20
6.34621796523611
 30
0.0
 10
57.97586156915428
 20
6.348537285631501
 30
0.0
  0
SPLINE
  5
D3
330
1F
100
AcDbEntity
  8
0
  6
Continuous
 62
     1
370
    15
100
AcDbSpline
210
0.0
220
0.0
230
1.0
 70
     8
 71
     3
 72
    28
 73
    24
 74
     0
 42
0.000000001
 43
0.00000001
 40
0.0
 40
0.0
 40
0.0
 40
0.0
 40
0.0241762282204408
 40
0.0728584364647739
 40
0.122475939300714
 40
0.1720144632823772
 40
0.2216681555556067
 40
0.2712785282186587
 40
0.3208180562432285
 40
0.3704774254996582
 40
0.4200809987517424
 40
0.4696218654155213
 40
0.519286259731372
 40
0.5688833647019076
 40
0.6184259045286368
 40
0.6680946716344704
 40
0.7176856398025795
 40
0.7672301872253118
 40
0.8169026745508489
 40
0.8664878377275266
 40
0.9160347270705086
 40
0.9657102817894855
 40
1.0
 40
1.0
 40
1.0
 40
1.0
 10
55.94217984427655
 20
-5.937757477937781
 30
0.0
 10
55.76352765764333
 20
-6.003724016353083
 30
0.0
 10
55.22513437021959
 20
-6.202523382577986
 30
0.0
 10
54.31841264592034
 20
-6.34543921682064
 30
0.0
 10
53.22459641346529
 20
-6.36545832170865
 30
0.0
 10
52.12539134400287
 20
-6.185141590264561
 30
0.0
 10
51.02362919362258
 20
-5.8225458928606
 30
0.0
 10
49.92282794191103
 20
-5.284744829123786
 30
0.0
 10
48.82360165422696
 20
-4.587575667305083
 30
0.0
 10
47.72171396691492
 20
-3.754761821091941
 30
0.0
 10
46.62106403235239
 20
-2.808651273158169
 30
0.0
 10
45.52180828571655
 20
-1.776915273392542
 30
0.0
 10
44.4198096593239
 20
-0.6946319244418854
 30
0.0
 10
43.31930363456483
 20
0.4099229144389772
 30
0.0
 10
42.22001095724013
 20
1.503428137514849
 30
0.0
 10
41.11791574083244
 20
2.549118476435739
 30
0.0
 10
40.01754645942815
 20
3.520114648923485
 30
0.0
 10
38.91820862826003
 20
4.386439231240649
 30
0.0
 10
37.81603396100222
 20
5.118760364255363
 30
0.0
 10
36.71578387750805
 20
5.70101372500422
 30
0.0
 10
35.61643135262633
 20
6.105392238941517
 30
0.0
 10
34.62732359078728
 20
6.32708510428983
 30
0.0
 10
34.00661022728536
 20
6.328930362708569
 30
0.0
 10
33.75312345136725
 20
6.329683928903219
 30
0.0
  0
SPLINE
  5
D4
330
1F
100
AcDbEntity
  8
0
  6
Continuous
 62
     1
370
    15
100
AcDbSpline
210
0.0
220
0.0
230
1.0
 70
     8
 71
     3
 72
    13
 73
     9
 74
     0
 42
0.000000001
 43
0.00000001
 40
0.0
 40
0.0
 40
0.0
 40
0.0
 40
0.0404693085891684
 40
0.2268344852298709
 40
0.4199941961264752
 40
0.613165412211714
 40
0.8067705446384602
 40
0.9999999999999999
 40
0.9999999999999999
 40
0.9999999999999999
 40
0.9999999999999999
 10
16.04514086813208
 20
-5.944018347860614
 30
0.0
 10
15.96538729076202
 20
-5.976213109598104
 30
0.0
 10
15.51836058586744
 20
-6.156667939700556
 30
0.0
 10
14.68870561568347
 20
-6.311179017185457
 30
0.0
 10
13.56051658110314
 20
-6.382952052403565
 30
0.0
 10
12.41781879224767
 20
-6.229583807344279
 30
0.0
 10
11.27255248401498
 20
-5.8920488675941
 30
0.0
 10
10.51023377304924
 20
-5.507869247793127
 30
0.0
 10
10.12944458309076
 20
-5.315965987230051
 30
0.0
  0
SPLINE
  5
D5
330
1F
100
AcDbEntity
  8
0
  6
Continuous
 62
     1
370
    15
100
AcDbSpline
210
0.0
220
0.0
230
1.0
 70
    24
 71
     3
 72
    16
 73
    12
 74
     0
 42
0.000000001
 43
0.00000001
 40
0.0
 40
0.0
 40
0.0
 40
0.0
 40
0.2500000000000002
 40
0.2500000000000002
 40
0.5000000000000002
 40
0.5000000000000002
 40
0.7500000000000002
 40
0.7500000000000002
 40
0.8750000000000001
 40
0.8750000000000001
 40
1.0
 40
1.0
 40
1.0
 40
1.0
 10
10.12944458309076
 20
-1.796161679981415
 30
0.0
 10
10.12944458309076
 20
-1.840086710648619
 30
0.0
 10
10.12944458309076
 20
-1.920632622147311
 30
0.0
 10
10.12944458309076
 20
-2.207851616899042
 30
0.0
 10
10.12944458309076
 20
-2.416196061221523
 30
0.0
 10
10.12944458309076
 20
-3.004615993301875
 30
0.0
 10
10.12944458309076
 20
-3.387494032979226
 30
0.0
 10
10.12944458309076
 20
-4.064583288613229
 30
0.0
 10
10.12944458309076
 20
-4.306397961041573
 30
0.0
 10
10.12944458309076
 20
-4.805362440568685
 30
0.0
 10
10.12944458309076
 20
-5.062350665341286
 30
0.0
 10
10.12944458309076
 20
-5.315965987230045
 30
0.0
  0
SPLINE
  5
D6
330
1F
100
AcDbEntity
  8
0
  6
Continuous
 62
     1
370
    15
100
AcDbSpline
210
0.0
220
0.0
230
1.0
 70
     8
 71
     3
 72
    15
 73
    11
 74
     0
 42
0.000000001
 43
0.00000001
 40
0.0
 40
0.0
 40
0.0
 40
0.0
 40
0.1401885815799223
 40
0.2806497180599512
 40
0.4207960468605482
 40
0.5609340286103693
 40
0.6961425542477891
 40
0.831045480292696
 40
0.9659194604468366
 40
1.0
 40
1.0
 40
1.0
 40
1.0
 10
10.12944458309143
 20
-1.796161679980869
 30
0.0
 10
10.51023323376747
 20
-2.156177710986078
 30
0.0
 10
11.27255086511986
 20
-2.876909716831161
 30
0.0
 10
12.4178252764592
 20
-3.846897247500739
 30
0.0
 10
13.56049232833623
 20
-4.698918986988963
 30
0.0
 10
14.68879481370189
 20
-5.387744175841542
 30
0.0
 10
15.80541106660133
 20
-5.904047077357959
 30
0.0
 10
16.90532725653757
 20
-6.222718434666374
 30
0.0
 10
17.73024687110736
 20
-6.364181347281992
 30
0.0
 10
18.18983463053261
 20
-6.337409579915618
 30
0.0
 10
18.28254004522277
 20
-6.332009332096154
 30
0.0
  0
SPLINE
  5
D7
330
1F
100
AcDbEntity
  8
0
  6
Continuous
 62
     1
370
    15
100
AcDbSpline
210
0.0
220
0.0
230
1.0
 70
     8
 71
     3
 72
    28
 73
    24
 74
     0
 42
0.000000001
 43
0.00000001
 40
0.0
 40
0.0
 40
0.0
 40
0.0
 40
0.0325451083040745
 40
0.0821318711981131
 40
0.1318059610582643
 40
0.1813521068880113
 40
0.2309446749607622
 40
0.2806150444811878
 40
0.3301591826501629
 40
0.3797578877233256
 40
0.4294238843126933
 40
0.4789663492647386
 40
0.5285715228281297
 40
0.5782324941959585
 40
0.6277736204656071
 40
0.6773855936593286
 40
0.7270408878608062
 40
0.7765810100551557
 40
0.8262001136517995
 40
0.8748838924823464
 40
0.9234576506974436
 40
0.9721399677378377
 40
1.0
 40
1.0
 40
1.0
 40
1.0
 10
35.9939369242693
 20
5.939093275984429
 30
0.0
 10
36.23450647217859
 20
6.022826072543622
 30
0.0
 10
36.84161544039801
 20
6.2341368230811
 30
0.0
 10
37.81599819839639
 20
6.363779565444031
 30
0.0
 10
38.9182181901244
 20
6.346063360151772
 30
0.0
 10
40.0175438975764
 20
6.130860959255813
 30
0.0
 10
41.11791642880567
 20
5.733751142987857
 30
0.0
 10
42.22001077330626
 20
5.165384112697295
 30
0.0
 10
43.31930368385122
 20
4.440718656319797
 30
0.0
 10
44.41980964610524
 20
3.583591567178015
 30
0.0
 10
45.52180828919531
 20
2.620528883261048
 30
0.0
 10
46.62106403162542
 20
1.576377257729693
 30
0.0
 10
47.7217139663415
 20
0.4863094312045184
 30
0.0
 10
48.82360165724963
 20
-0.6170631414401994
 30
0.0
 10
49.922827930419
 20
-1.704658009923468
 30
0.0
 10
51.02362923666224
 20
-2.739516869069091
 30
0.0
 10
52.12539118336793
 20
-3.691524515686272
 30
0.0
 10
53.22459701180347
 20
-4.535183171467661
 30
0.0
 10
54.31841042658476
 20
-5.236256245933309
 30
0.0
 10
55.40575222786714
 20
-5.781432410217429
 30
0.0
 10
56.48344479794566
 20
-6.14905840951476
 30
0.0
 10
57.40981559484418
 20
-6.338583966616675
 30
0.0
 10
57.97592795489449
 20
-6.330504790155081
 30
0.0
 10
58.18198262605002
 20
-6.32756411588884
 30
0.0
  0
SPLINE
  5
D8
330
1F
100
AcDbEntity
  8
0
  6
Continuous
 62
     1
370
    15
100
AcDbSpline
210
0.0
220
0.0
230
1.0
 70
     8
 71
     3
 72
    28
 73
    24
 74
     0
 42
0.000000001
 43
0.00000001
 40
0.0
 40
0.0
 40
0.0
 40
0.0
 40
0.0190732338359985
 40
0.0687411574493684
 40
0.1183312834462228
 40
0.1678749894860338
 40
0.2175466332559292
 40
0.2671309543599346
 40
0.3166770022802239
 40
0.3663517133914676
 40
0.4159305617219886
 40
0.4654792857144133
 40
0.5151564111407425
 40
0.564730119113256
 40
0.6142818532244668
 40
0.6639607397734552
 40
0.7135296400816272
 40
0.7630847181951875
 40
0.8127647125531926
 40
0.8623291381509309
 40
0.9118878939692509
 40
0.9615683427463758
 40
1.0
 40
1.0
 40
1.0
 40
1.0
 10
42.6434384223078
 20
-5.938077500715504
 30
0.0
 10
42.50247971985213
 20
-5.9922199614258
 30
0.0
 10
41.99445551993507
 20
-6.18735286067009
 30
0.0
 10
41.11787553877813
 20
-6.334250879045187
 30
0.0
 10
40.01755707448672
 20
-6.372078987619553
 30
0.0
 10
38.91820629104625
 20
-6.207150180563851
 30
0.0
 10
37.81603266235621
 20
-5.860002360965618
 30
0.0
 10
36.71579138770114
 20
-5.33596482116399
 30
0.0
 10
35.61640259869723
 20
-4.651411474805394
 30
0.0
 10
34.51415751986001
 20
-3.829484308768734
 30
0.0
 10
33.4140390348413
 20
-2.891289622692181
 30
0.0
 10
32.31459057693346
 20
-1.865631420012908
 30
0.0
 10
31.21229227392834
 20
-0.7868790704779777
 30
0.0
 10
30.11228815928477
 20
0.3177153300539504
 30
0.0
 10
29.01277284334464
 20
1.413272900193564
 30
0.0
 10
27.9104356345251
 20
2.463733579435678
 30
0.0
 10
26.81053860746377
 20
3.442714653491604
 30
0.0
 10
25.71094856985468
 20
4.318671393048644
 30
0.0
 10
24.60858836360694
 20
5.062846756854524
 30
0.0
 10
23.50878547251583
 20
5.658699180285296
 30
0.0
 10
22.40913391035016
 20
6.078625661487335
 30
0.0
 10
21.38913923490475
 20
6.31882955303058
 30
0.0
 10
20.73792417298206
 20
6.328992414801053
 30
0.0
 10
20.45388517782428
 20
6.333425127147553
 30
0.0
  0
SPLINE
  5
D9
330
1F
100
AcDbEntity
  8
0
  6
Continuous
 62
     1
370
    15
100
AcDbSpline
210
0.0
220
0.0
230
1.0
 70
     8
 71
     3
 72
    28
 73
    24
 74
     0
 42
0.000000001
 43
0.00000001
 40
0.0
 40
0.0
 40
0.0
 40
0.0
 40
0.0367015352473461
 40
0.0862698890870493
 40
0.1359538208464525
 40
0.18551282646114
 40
0.2350856553659214
 40
0.2847684792285082
 40
0.3343241405758168
 40
0.3839017775259722
 40
0.4335828401263214
 40
0.4831354911162761
 40
0.5327182688318395
 40
0.5823969169257562
 40
0.6319468916314827
 40
0.6815351425542765
 40
0.7312107230637419
 40
0.7807583557033835
 40
0.8303524119790947
 40
0.8800242720371925
 40
0.9295698969558148
 40
0.9791700904161008
 40
1.0
 40
1.0
 40
1.0
 40
1.0
 10
22.69479913782236
 20
5.942063464282652
 30
0.0
 10
22.96614379285689
 20
6.033296329181628
 30
0.0
 10
23.60396107042937
 20
6.247746462749206
 30
0.0
 10
24.60855018921787
 20
6.369822338981643
 30
0.0
 10
25.71095877991974
 20
6.335250508579445
 30
0.0
 10
26.81053587393198
 20
6.104636931096639
 30
0.0
 10
27.91043636893527
 20
5.692369715116518
 30
0.0
 10
29.01277264692213
 20
5.110450293683945
 30
0.0
 10
30.11228821195044
 20
4.373927307412739
 30
0.0
 10
31.21229225952276
 20
3.506368783807698
 30
0.0
 10
32.3145905817471
 20
2.535842878915482
 30
0.0
 10
33.41403902997494
 20
1.486723421570018
 30
0.0
 10
34.51415753453978
 20
0.3936310447772778
 30
0.0
 10
35.61640254479726
 20
-0.7090984818469137
 30
0.0
 10
36.71579158807997
 20
-1.793475514259077
 30
0.0
 10
37.81603191333833
 20
-2.823156609218019
 30
0.0
 10
38.91820908877671
 20
-3.766573627439477
 30
0.0
 10
40.0175466596561
 20
-4.599723469582503
 30
0.0
 10
41.11791447697972
 20
-5.293182871315302
 30
0.0
 10
42.22001581529195
 20
-5.830407630414602
 30
0.0
 10
43.31928551108481
 20
-6.182679199724103
 30
0.0
 10
44.20660077391553
 20
-6.351217196793272
 30
0.0
 10
44.72785579631019
 20
-6.33234307524835
 30
0.0
 10
44.88201849829888
 20
-6.326760998433702
 30
0.0
  0
SPLINE
  5
DA
330
1F
100
AcDbEntity
  8
0
  6
Continuous
 62
     1
370
    15
100
AcDbSpline
210
0.0
220
0.0
230
1.0
 70
     8
 71
     3
 72
    38
 73
    34
 74
     0
 42
0.000000001
 43
0.00000001
 40
0.0
 40
0.0
 40
0.0
 40
0.0
 40
0.1250000000000002
 40
0.1250000000000002
 40
0.1875000000000003
 40
0.1875000000000003
 40
0.2500000000000004
 40
0.2500000000000004
 40
0.3125000000000006
 40
0.3125000000000006
 40
0.3750000000000007
 40
0.3750000000000007
 40
0.5000000000000009
 40
0.5000000000000009
 40
0.5625000000000008
 40
0.5625000000000008
 40
0.6250000000000007
 40
0.6250000000000007
 40
0.6562500000000006
 40
0.6562500000000006
 40
0.6875000000000006
 40
0.6875000000000006
 40
0.7187500000000004
 40
0.7187500000000004
 40
0.7500000000000004
 40
0.7500000000000004
 40
0.8125000000000003
 40
0.8125000000000003
 40
0.8750000000000002
 40
0.8750000000000002
 40
0.9375000000000001
 40
0.9375000000000001
 40
1.0
 40
1.0
 40
1.0
 40
1.0
 10
58.64344458309077
 20
2.767380750136928
 30
0.0
 10
58.8895176353393
 20
2.546419701607777
 30
0.0
 10
59.11983660034578
 20
2.300074101817895
 30
0.0
 10
59.45078257084873
 20
1.901570881146958
 30
0.0
 10
59.55784078401871
 20
1.764733989200616
 30
0.0
 10
59.76043029649912
 20
1.489018383182123
 30
0.0
 10
59.85670850926009
 20
1.349249901758864
 30
0.0
 10
60.03800272477542
 20
1.064758891351519
 30
0.0
 10
60.12321104357452
 20
0.9194810087650873
 30
0.0
 10
60.27634677298729
 20
0.6291575070433126
 30
0.0
 10
60.34483939980464
 20
0.4832844981917643
 30
0.0
 10
60.52423252289636
 20
0.0390357335748497
 30
0.0
 10
60.60846521581139
 20
-0.2675735697258796
 30
0.0
 10
60.6755903938751
 20
-0.7463182579253077
 30
0.0
 10
60.68868276598464
 20
-0.9104015680176053
 30
0.0
 10
60.69316394336726
 20
-1.247585991606053
 30
0.0
 10
60.68490636801631
 20
-1.41992284334519
 30
0.0
 10
60.64693703864651
 20
-1.676731252002785
 30
0.0
 10
60.63005595439751
 20
-1.761251104834436
 30
0.0
 10
60.58353629280259
 20
-1.927086613556502
 30
0.0
 10
60.55381897791175
 20
-2.007880503047131
 30
0.0
 10
60.47849968520721
 20
-2.154155139420111
 30
0.0
 10
60.43241604744918
 20
-2.219777817953537
 30
0.0
 10
60.32652558809524
 20
-2.323450932974073
 30
0.0
 10
60.2658781750232
 20
-2.362161705963256
 30
0.0
 10
60.07500335823573
 20
-2.434414126574645
 30
0.0
 10
59.93647678465683
 20
-2.426772981512823
 30
0.0
 10
59.6671784597785
 20
-2.35438835656903
 30
0.0
 10
59.53290092228197
 20
-2.28936952178873
 30
0.0
 10
59.27154625788748
 20
-2.130340310359789
 30
0.0
 10
59.14446541041036
 20
-2.036349099829204
 30
0.0
 10
58.89142152970119
 20
-1.829404844474642
 30
0.0
 10
58.76623517750835
 20
-1.716386345361632
 30
0.0
 10
58.64344458309077
 20
-1.59782263045667
 30
0.0
  0
SPLINE
  5
DB
330
1F
100
AcDbEntity
  8
0
  6
Continuous
 62
     1
370
    15
100
AcDbSpline
210
0.0
220
0.0
230
1.0
 70
     8
 71
     3
 72
    18
 73
    14
 74
     0
 42
0.000000001
 43
0.00000001
 40
0.0
 40
0.0
 40
0.0
 40
0.0
 40
0.0931421836018888
 40
0.186336807776521
 40
0.2793236131878024
 40
0.3725210357293209
 40
0.4675089901386069
 40
0.5623457470998038
 40
0.6574029827188014
 40
0.7523772870953668
 40
0.8472159662004923
 40
0.9422840698598102
 40
1.0
 40
1.0
 40
1.0
 40
1.0
 10
58.64344458309013
 20
-1.597822630456054
 30
0.0
 10
58.28360590631925
 20
-1.245094472823997
 30
0.0
 10
57.56372595771717
 20
-0.5394395658381327
 30
0.0
 10
56.48345999503873
 20
0.545112580345173
 30
0.0
 10
55.40574816413164
 20
1.613560846501304
 30
0.0
 10
54.31841149403751
 20
2.640324004864506
 30
0.0
 10
53.22459689900679
 20
3.596756178293246
 30
0.0
 10
52.12539056239215
 20
4.453195503161115
 30
0.0
 10
51.0236318400459
 20
5.173648839884859
 30
0.0
 10
49.92281815557887
 20
5.742144493255581
 30
0.0
 10
48.82363813760367
 20
6.13076333521591
 30
0.0
 10
47.8656675123777
 20
6.334944774874852
 30
0.0
 10
47.27548708429354
 20
6.32938029528058
 30
0.0
 10
47.05253962368316
 20
6.32727824896368
 30
0.0
  0
SPLINE
  5
DC
330
1F
100
AcDbEntity
  8
0
  6
Continuous
 62
     1
370
    15
100
AcDbSpline
210
0.0
220
0.0
230
1.0
 70
     8
 71
     3
 72
    25
 73
    21
 74
     0
 42
0.000000001
 43
0.00000001
 40
0.0
 40
0.0
 40
0.0
 40
0.0
 40
0.0172434698986352
 40
0.0746142105399312
 40
0.1318579356111467
 40
0.1890856983773016
 40
0.246457718351292
 40
0.3036962758861642
 40
0.3609282857814434
 40
0.4183008305329252
 40
0.4755346053168755
 40
0.5327712474812764
 40
0.590143562418924
 40
0.6473729394963665
 40
0.7046145988190251
 40
0.7619859293673329
 40
0.8214489139346138
 40
0.8809154403008083
 40
0.940515545044185
 40
1.0
 40
1.0
 40
1.0
 40
1.0
 10
29.34439416082226
 20
-5.940421860361561
 30
0.0
 10
29.23403040290959
 20
-5.983927055341265
 30
0.0
 10
28.75647543762237
 20
-6.172178364206504
 30
0.0
 10
27.91036898413333
 20
-6.322091785895458
 30
0.0
 10
26.81055636773885
 20
-6.377299628217884
 30
0.0
 10
25.71094407786826
 20
-6.227902217928269
 30
0.0
 10
24.60858851796493
 20
-5.8961753727286
 30
0.0
 10
23.50878932813959
 20
-5.386069166901114
 30
0.0
 10
22.40911831681701
 20
-4.714356961936275
 30
0.0
 10
21.30674656114839
 20
-3.903313239243846
 30
0.0
 10
20.20704105669624
 20
-2.973327140595317
 30
0.0
 10
19.10728076861417
 20
-1.954075251989017
 30
0.0
 10
18.00491205154083
 20
-0.8788496129181028
 30
0.0
 10
16.90529669845414
 20
0.225425285300163
 30
0.0
 10
15.80541926621268
 20
1.322735549355547
 30
0.0
 10
14.68879252516757
 20
2.391542704362687
 30
0.0
 10
13.56049295058408
 20
3.403048730671634
 30
0.0
 10
12.41782511009487
 20
4.313366211522454
 30
0.0
 10
11.27255090665502
 20
5.095831528248599
 30
0.0
 10
10.51023324760311
 20
5.475965823232515
 30
0.0
 10
10.12944458309076
 20
5.665848385709544
 30
0.0
  0
LINE
  5
DD
330
1F
100
AcDbEntity
  8
0
  6
Continuous
 62
     1
370
    15
100
AcDbLine
 10
10.12944458308991
 20
6.172758784142575
 30
0.0
 11
10.12944458309064
 21
5.736302716350465
 31
0.0
  0
SPLINE
  5
DE
330
1F
100
AcDbEntity
  8
0
  6
Continuous
 62
     1
370
    15
100
AcDbSpline
210
0.0
220
0.0
230
1.0
 70
     8
 71
     3
 72
    27
 73
    23
 74
     0
 42
0.000000001
 43
0.00000001
 40
0.0
 40
0.0
 40
0.0
 40
0.0
 40
0.0532781432226424
 40
0.1066598699100738
 40
0.1599219551228334
 40
0.2131808680703352
 40
0.2645663597605116
 40
0.3158357094748209
 40
0.3670940584122012
 40
0.4184804317854378
 40
0.4697452878067912
 40
0.5210075756158883
 40
0.5723941548253284
 40
0.6236548618854466
 40
0.6749214334370569
 40
0.726307542621675
 40
0.7775644456769663
 40
0.8288356456099178
 40
0.8802206089410426
 40
0.9314740531539557
 40
0.9827502258564891
 40
1.0
 40
1.0
 40
1.0
 40
1.0
 10
10.12944458309143
 20
6.172758784148886
 30
0.0
 10
10.51023324760365
 20
6.242850223748967
 30
0.0
 10
11.27255090665534
 20
6.383169374855896
 30
0.0
 10
12.41782511009589
 20
6.333562702371068
 30
0.0
 10
13.56049295058165
 20
6.093423330725166
 30
0.0
 10
14.68879252517716
 20
5.657378601106263
 30
0.0
 10
15.80541926617845
 20
5.05442475299275
 30
0.0
 10
16.90529669858163
 20
4.306195646527799
 30
0.0
 10
18.00491205106445
 20
3.428501175588754
 30
0.0
 10
19.10728077039513
 20
2.450508517131052
 30
0.0
 10
20.20704105006768
 20
1.396748395628121
 30
0.0
 10
21.30674658591222
 20
0.3009757078089736
 30
0.0
 10
22.40911822424294
 20
-0.8011109981226491
 30
0.0
 10
23.50878967267778
 20
-1.881926604202163
 30
0.0
 10
24.60858723060198
 20
-2.906105765186774
 30
0.0
 10
25.71094888973282
 20
-3.840940163654691
 30
0.0
 10
26.81053845915084
 20
-4.663292160019818
 30
0.0
 10
27.91043590858899
 20
-5.34440618317496
 30
0.0
 10
29.01277189441709
 20
-5.867791865450148
 30
0.0
 10
30.11229167099367
 20
-6.203435554930032
 30
0.0
 10
30.96833396463832
 20
-6.357861422173949
 30
0.0
 10
31.45878873666728
 20
-6.334575844133176
 30
0.0
 10
31.58224903797641
 20
-6.328714254757304
 30
0.0
  0
SPLINE
  5
DF
330
1F
100
AcDbEntity
  8
0
  6
Continuous
 62
     1
370
    15
100
AcDbSpline
210
0.0
220
0.0
230
1.0
 70
     8
 71
     3
 72
    16
 73
    12
 74
     0
 42
0.000000001
 43
0.00000001
 40
0.0
 40
0.0
 40
0.0
 40
0.0
 40
0.0673825261810483
 40
0.1851089612351103
 40
0.3029381946154183
 40
0.4204941312702711
 40
0.5382374863712996
 40
0.6537613681629237
 40
0.7690241771931647
 40
0.8845445902385889
 40
0.9999999999999999
 40
0.9999999999999999
 40
0.9999999999999999
 40
0.9999999999999999
 10
49.29290965462901
 20
5.937374373712974
 30
0.0
 10
49.50277658535111
 20
6.012839717357775
 30
0.0
 10
50.07930957907101
 20
6.220153277164155
 30
0.0
 10
51.02360855767998
 20
6.356314365505481
 30
0.0
 10
52.12539678702704
 20
6.355543975368931
 30
0.0
 10
53.22459522873791
 20
6.155808208525171
 30
0.0
 10
54.31841193251849
 20
5.776359489619799
 30
0.0
 10
55.40574804792916
 20
5.230797875285495
 30
0.0
 10
56.4834600260743
 20
4.534910239983556
 30
0.0
 10
57.56372594995614
 20
3.716017838074719
 30
0.0
 10
58.28360590373273
 20
3.083533779678439
 30
0.0
 10
58.64344458309013
 20
2.767380750143515
 30
0.0
  0
LINE
  5
E0
330
1F
100
AcDbEntity
  8
0
  6
Continuous
 62
     1
370
    15
100
AcDbLine
 10
10.12944458308991
 20
-6.172758784142578
 30
0.0
 11
10.12944458309076
 21
-5.315965987230046
 31
0.0
  0
LINE
  5
E2
330
1F
100
AcDbEntity
  8
0
  6
Continuous
 62
     1
370
    15
100
AcDbLine
 10
10.12944458308991
 20
-1.796161679980385
 30
0.0
 11
10.12944458309076
 21
0.3498823984794693
 31
0.0
  0
LINE
  5
E4
330
1F
100
AcDbEntity
  8
0
  6
Continuous
 62
     1
370
    15
100
AcDbLine
 10
10.12944458308991
 20
4.376597104162163
 30
0.0
 11
10.12944458309076
 21
5.665848385709541
 31
0.0
  0
LINE
  5
E5
330
1F
100
AcDbEntity
  8
0
  6
Continuous
 62
     1
370
    15
100
AcDbLine
 10
60.92944458309076
 20
0.0000000000000036
 30
0.0
 11
60.92944458309076
 21
3.302000000000004
 31
0.0
  0
LINE
  5
E6
330
1F
100
AcDbEntity
  8
0
  6
Continuous
 62
     1
370
    15
100
AcDbLine
 10
60.92944458309077
 20
-4.063999999999997
 30
0.0
 11
60.92944458309076
 21
0.0000000000000039
 31
0.0
  0
LINE
  5
E7
102
{ACAD_REACTORS
330
1B5
102
}
330
1F
100
AcDbEntity
  8
0
  6
Continuous
 62
     8
370
    15
100
AcDbLine
 10
58.64344458309078
 20
6.33324367187201
 30
0.0
 11
58.64344458309077
 21
6.350000000000003
 31
0.0
  0
LINE
  5
E9
330
1F
100
AcDbEntity
  8
중심선
100
AcDbLine
 10
-43.79999999999907
 20
0.0
 30
0.0
 11
63.80000000000091
 21
0.0
 31
0.0
  0
CIRCLE
  5
EA
330
1F
100
AcDbEntity
  8
외형선
100
AcDbCircle
 10
0.0
 20
0.0
 30
0.0
 40
3.00000000000089
  0
INSERT
  5
EB
330
1F
100
AcDbEntity
  8
0
  6
Continuous
 62
     7
100
AcDbBlockReference
 66
     1
  2
블럭10
 10
-16.49991591600272
 20
-51.78679627639982
 30
0.0
  0
ATTRIB
  5
EC
330
EB
100
AcDbEntity
  8
FORMAT
 62
     2
100
AcDbText
 10
-27.55093626818718
 20
-49.71142936356762
 30
0.0
 40
4.233333333333333
  1
GMG22926[ 6 FLUTE ]
 41
0.75
  7
SLDTEXTSTYLE0
 11
-27.55093626818718
 21
-51.82809603023429
 31
0.0
100
AcDbAttribute
  2
AUTOATTR0
 70
     0
 74
     1
  0
SEQEND
  5
ED
330
EB
100
AcDbEntity
  8
0
  6
Continuous
 62
     7
  0
HATCH
  5
EE
330
1F
100
AcDbEntity
  8
중심선
100
AcDbHatch
 10
0.0
 20
0.0
 30
0.0
210
0.0
220
0.0
230
1.0
  2
SOLID
 70
     1
 71
     0
 91
        1
 92
        0
 93
        4
 72
     1
 10
-10.78500661162187
 20
-35.53962197475588
 11
-14.23128185545915
 21
-35.53962197475588
 72
     1
 10
-14.23128185545915
 20
-35.53962197475588
 11
-16.35951171466317
 21
-38.07594755532848
 72
     1
 10
-16.35951171466317
 20
-38.07594755532848
 11
-12.91320338571274
 21
-38.07590812602599
 72
     1
 10
-12.91320338571274
 20
-38.07590812602599
 11
-10.78500661162187
 21
-35.53962197475588
 97
        0
 75
     0
 76
     1
 98
        1
 10
0.1299305031652418
 20
0.2622744311706912
  0
HATCH
  5
EF
330
1F
100
AcDbEntity
  8
중심선
100
AcDbHatch
 10
0.0
 20
0.0
 30
0.0
210
0.0
220
0.0
230
1.0
  2
SOLID
 70
     1
 71
     0
 91
        1
 92
        0
 93
        4
 72
     1
 10
-5.772242620585917
 20
-35.53962197475588
 11
-9.218517864423198
 21
-35.53962197475588
 72
     1
 10
-9.218517864423198
 20
-35.53962197475588
 11
-13.74965587278059
 21
-40.93962197475589
 72
     1
 10
-13.74965587278059
 20
-40.93962197475589
 11
-10.3033806289433
 21
-40.93962197475589
 72
     1
 10
-10.30338062894331
 20
-40.93962197475589
 11
-5.772242620585918
 21
-35.53962197475588
 97
        0
 75
     0
 76
     1
 98
        1
 10
0.1299305031652418
 20
0.2622744311706912
  0
HATCH
  5
F0
330
1F
100
AcDbEntity
  8
중심선
100
AcDbHatch
 10
0.0
 20
0.0
 30
0.0
210
0.0
220
0.0
230
1.0
  2
SOLID
 70
     1
 71
     0
 91
        1
 92
        0
 93
        4
 72
     1
 10
-0.7594786295500213
 20
-35.53962197475591
 11
-4.205753873387137
 21
-35.53962197475588
 72
     1
 10
-4.205753873387137
 20
-35.53962197475588
 11
-11.25419077527638
 21
-43.9396219747559
 72
     1
 10
-11.25419077527638
 20
-43.9396219747559
 11
-7.807915531439103
 21
-43.9396219747559
 72
     1
 10
-7.807915531439104
 20
-43.9396219747559
 11
-0.7594786295500215
 21
-35.53962197475591
 97
        0
 75
     0
 76
     1
 98
        1
 10
0.1299305031652418
 20
0.2622744311706912
  0
HATCH
  5
F1
330
1F
100
AcDbEntity
  8
중심선
100
AcDbHatch
 10
0.0
 20
0.0
 30
0.0
210
0.0
220
0.0
230
1.0
  2
SOLID
 70
     1
 71
     0
 91
        1
 92
        0
 93
        6
 72
     3
 10
4.040411801462178
 20
-39.73962197480716
 11
3.960054785062282
 21
1.540882976769353E-10
 40
0.3939339440162629
 50
17.09539180608438
 51
320.0019657685081
 73
     0
 72
     1
 10
5.723411457162773
 20
-38.32751597939419
 11
8.028713330863813
 21
-36.39318926934626
 72
     3
 10
4.040411801409332
 20
-39.73962197475603
 11
6.600054785286829
 21
-1.278976924368180E-13
 40
0.6363583540795982
 50
39.99873849337412
 51
368.4976242363724
 73
     1
 72
     1
 10
10.46574429330994
 20
-38.7796219746859
 11
2.720479108245253
 21
-38.77962197468587
 72
     1
 10
2.720479108245254
 20
-38.77962197468587
 11
2.72045406379932
 21
-40.6996219746858
 72
     1
 10
2.72045406379932
 20
-40.6996219746858
 11
7.161833833271356
 21
-40.69962197468577
 97
        0
 75
     0
 76
     1
 98
        1
 10
0.1299305031652418
 20
0.2622744311706912
  0
POINT
  5
F2
330
1F
100
AcDbEntity
  8
치수문자_일반주서
100
AcDbPoint
 10
0.0
 20
0.0
 30
0.0
  0
DIMENSION
  5
F3
102
{ACAD_XDICTIONARY
360
1B4
102
}
330
1F
100
AcDbEntity
  8
치수문자_일반주서
100
AcDbDimension
  2
_D
 10
76.28869029886371
 20
6.350000000000073
 30
0.0
 11
76.28869029886374
 21
-0.0083781640674682
 31
0.0
 70
   160
  1
%%c<>
 71
     2
 42
12.7
 52
-270.0
  3
SLDDIMSTYLE0
100
AcDbAlignedDimension
 13
58.6434445830908
 23
-6.349999999999995
 33
0.0
 14
57.99753248010904
 24
6.350000000000005
 34
0.0
 50
90.0000000000002
100
AcDbRotatedDimension
1001
ACAD
1000
DSTYLE
1002
{
1070
   273
1070
     7
1002
}
1001
ENABLE_CUSTOM_SPLIT
1070
     1
  0
DIMENSION
  5
108
330
1F
100
AcDbEntity
  8
치수문자_일반주서
100
AcDbDimension
  2
_D_1
 10
60.92944458309076
 20
39.00555141807178
 30
0.0
 11
10.12944458309077
 21
39.00555141807178
 31
0.0
 70
   160
  1
<>
 71
     2
 42
101.6
  3
SLDDIMSTYLE1
100
AcDbAlignedDimension
 13
-40.67055541690923
 23
5.849999999999997
 33
0.0
 14
60.92944458309076
 24
4.064000000000004
 34
0.0
100
AcDbRotatedDimension
1001
ACAD
1000
DSTYLE
1002
{
1070
   273
1070
     7
1002
}
  0
DIMENSION
  5
11C
330
1F
100
AcDbEntity
  8
치수문자_일반주서
100
AcDbDimension
  2
_D_2
 10
10.12944458309066
 20
21.69099453033794
 30
0.0
 11
34.9706468468933
 21
21.69099453033794
 31
0.0
 70
   160
  1
<>
 71
     2
 42
50.8000000000001
  3
SLDDIMSTYLE1
100
AcDbAlignedDimension
 13
60.92944458309076
 23
4.064000000000004
 33
0.0
 14
10.12944458309066
 24
-6.174599545471377
 34
0.0
 50
0.000000000000012
100
AcDbRotatedDimension
1001
ACAD
1000
DSTYLE
1002
{
1070
   273
1070
     7
1002
}
  0
INSERT
  5
146
330
1F
100
AcDbEntity
  8
외형선
100
AcDbBlockReference
  2
SW_DOWELSYMBOL_0
 10
0.0
 20
0.0
 30
0.0
  0
DIMENSION
  5
16D
330
1F
100
AcDbEntity
  8
치수문자_일반주서
100
AcDbDimension
  2
*D8
 10
-47.94869055860548
 20
-6.35
 30
0.0
 11
-47.94869055860548
 21
-0.0000000000000006
 31
0.0
 70
   160
  1
{%%C<>}
 71
     5
 42
12.7
  3
SLDDIMSTYLE1
100
AcDbAlignedDimension
 13
-40.17055541690923
 23
6.349999999999999
 33
0.0
 14
-40.17055541690923
 24
-6.349999999999999
 34
0.0
 50
90.0
100
AcDbRotatedDimension
1001
ACAD
1000
DSTYLE
1002
{
1070
   273
1070
     7
1002
}
  0
ARC
  5
17F
330
1F
100
AcDbEntity
  8
0
  6
Continuous
 62
     1
370
    15
100
AcDbCircle
 10
57.88144458309076
 20
3.302000000000004
 30
0.0
 40
3.047999999999999
100
AcDbArc
 50
0.0
 51
88.22488177808266
  0
SPLINE
  5
181
330
1F
100
AcDbEntity
  8
0
  6
Continuous
 62
     1
370
    15
100
AcDbSpline
210
0.0
220
0.0
230
1.0
 70
     8
 71
     3
 72
     8
 73
     4
 74
     0
 42
0.000000001
 43
0.00000001
 40
0.9598327503211372
 40
0.9598327503211372
 40
0.9598327503211372
 40
0.9598327503211372
 40
1.0
 40
1.0
 40
1.0
 40
1.0
 10
59.43265125738814
 20
-6.20944839724576
 30
0.0
 10
58.80226324361085
 20
-6.15750812486982
 30
0.0
 10
58.72235915051777
 20
-6.14217433760236
 30
0.0
 10
58.64344458309077
 20
-6.121231968026358
 30
0.0
  0
DIMENSION
  5
182
330
1F
100
AcDbEntity
  8
치수문자_일반주서
100
AcDbDimension
  2
*D9
 10
57.88144458309076
 20
3.302000000000004
 30
0.0
 11
74.82741569051723
 21
19.80203537045505
 31
0.0
 70
   164
  1
<>
 71
     5
 42
3.047999999999998
  3
SLDDIMSTYLE0
100
AcDbRadialDimension
 15
60.06524806421015
 25
5.428336369404154
 35
0.0
 40
0.0
1001
ACAD
1000
DSTYLE
1002
{
1070
   273
1070
     2
1002
}
1001
ACAD_DSTYLE_DIMRADIAL_EXTENSION
1070
   387
1070
     1
1070
   388
1040
0.0
1070
   390
1040
1.465891346603165
  0
ENDSEC
  0
SECTION
  2
OBJECTS
  0
DICTIONARY
  5
C
330
0
100
AcDbDictionary
281
     1
  3
ACAD_GROUP
350
D
  3
ACAD_IMAGE_VARS
350
16A
  3
ACAD_LAYOUT
350
1A
  3
ACAD_MLINESTYLE
350
17
  3
ACAD_PLOTSETTINGS
350
19
  3
ACAD_PLOTSTYLENAME
350
E
  3
ACAD_SCALELIST
350
47
  3
APPDATA
350
168
  3
DWGPROPS
350
1BC
  0
DICTIONARY
  5
1BA
330
1F
100
AcDbDictionary
280
     1
281
     1
  3
DIM_BOUNDING_BOXES_V1
360
1BB
  0
DICTIONARY
  5
1B4
330
F3
100
AcDbDictionary
280
     1
281
     1
  3
ACAD_CUSTOM_BREAKDATA
360
1B5
  0
DICTIONARY
  5
D
102
{ACAD_REACTORS
330
C
102
}
330
C
100
AcDbDictionary
281
     1
  0
RASTERVARIABLES
  5
16A
102
{ACAD_REACTORS
330
C
102
}
330
C
100
AcDbRasterVariables
 90
        0
 70
     1
 71
     1
 72
     1
  0
DICTIONARY
  5
1A
102
{ACAD_REACTORS
330
C
102
}
330
C
100
AcDbDictionary
281
     1
  3
Layout1
350
1E
  3
Layout2
350
26
  3
Model
350
22
  0
DICTIONARY
  5
17
102
{ACAD_REACTORS
330
C
102
}
330
C
100
AcDbDictionary
281
     1
  3
Standard
350
18
  0
DICTIONARY
  5
19
102
{ACAD_REACTORS
330
C
102
}
330
C
100
AcDbDictionary
281
     1
  0
ACDBDICTIONARYWDFLT
  5
E
102
{ACAD_REACTORS
330
C
102
}
330
C
100
AcDbDictionary
281
     1
  3
Normal
350
F
100
AcDbDictionaryWithDefault
340
F
  0
DICTIONARY
  5
47
102
{ACAD_REACTORS
330
C
102
}
330
C
100
AcDbDictionary
281
     1
  3
A0
350
48
  3
A1
350
49
  3
A2
350
4A
  3
A3
350
4B
  3
A4
350
4C
  3
A5
350
4D
  3
A6
350
4E
  3
A7
350
4F
  3
A8
350
50
  3
A9
350
51
  3
B0
350
52
  3
B1
350
53
  3
B2
350
54
  3
B3
350
55
  3
B4
350
56
  3
B5
350
57
  3
B6
350
58
  3
B7
350
59
  3
B8
350
5A
  3
B9
350
5B
  3
C0
350
5C
  3
C1
350
5D
  3
C2
350
5E
  3
C3
350
5F
  3
C4
350
60
  3
C5
350
61
  3
C6
350
62
  3
C7
350
63
  3
C8
350
64
  3
C9
350
65
  3
D0
350
66
  3
D1
350
67
  3
D2
350
68
  0
DICTIONARY
  5
168
102
{ACAD_REACTORS
330
C
102
}
330
C
100
AcDbDictionary
281
     1
  0
XRECORD
  5
1BC
102
{ACAD_REACTORS
330
C
102
}
330
C
100
AcDbXrecord
280
     1
  1
DWGPROPS COOKIE
  2

  3

  4

  6

  7

  8
12018024
  9

300
=
301
=
302
=
303
=
304
=
305
=
306
=
307
=
308
=
309
=
 40
0.0
 41
2458236.370355116
 42
2459683.571935636
  1

 90
        0
  0
DICTIONARY
  5
1BB
102
{ACAD_REACTORS
330
1BA
102
}
330
1BA
100
AcDbDictionary
281
     1
  0
BREAKDATA
  5
1B5
102
{ACAD_REACTORS
330
1B4
102
}
330
1B4
100
AcDbBreakData
 70
     0
330
F3
 90
        1
100
AcDbBreakPointRef
 71
     0
 72
     0
 91
       -1
 10
0.0
 20
0.0
 30
0.0
 11
0.0
 21
0.0
 31
0.0
331
E7
 73
     2
 92
        0
  0
LAYOUT
  5
1E
102
{ACAD_REACTORS
330
1A
102
}
330
1A
100
AcDbPlotSettings
  1

  2
none_device
  4

  6

 40
0.0
 41
0.0
 42
0.0
 43
0.0
 44
0.0
 45
0.0
 46
0.0
 47
0.0
 48
0.0
 49
0.0
140
0.0
141
0.0
142
1.0
143
1.0
 70
   688
 72
     1
 73
     0
 74
     5
  7

 75
    16
147
1.0
148
0.0
149
0.0
100
AcDbLayout
  1
Layout1
 70
     1
 71
     1
 10
0.0
 20
0.0
 11
420.0
 21
297.0
 12
0.0
 22
0.0
 32
0.0
 14
1.000000000000000E+20
 24
1.000000000000000E+20
 34
1.000000000000000E+20
 15
-1.000000000000000E+20
 25
-1.000000000000000E+20
 35
-1.000000000000000E+20
146
0.0
 13
0.0
 23
0.0
 33
0.0
 16
1.0
 26
0.0
 36
0.0
 17
0.0
 27
1.0
 37
0.0
 76
     0
330
1B
  0
LAYOUT
  5
26
102
{ACAD_REACTORS
330
1A
102
}
330
1A
100
AcDbPlotSettings
  1

  2
none_device
  4

  6

 40
0.0
 41
0.0
 42
0.0
 43
0.0
 44
0.0
 45
0.0
 46
0.0
 47
0.0
 48
0.0
 49
0.0
140
0.0
141
0.0
142
1.0
143
1.0
 70
   688
 72
     1
 73
     0
 74
     5
  7

 75
    16
147
1.0
148
0.0
149
0.0
100
AcDbLayout
  1
Layout2
 70
     1
 71
     2
 10
0.0
 20
0.0
 11
0.0
 21
0.0
 12
0.0
 22
0.0
 32
0.0
 14
0.0
 24
0.0
 34
0.0
 15
0.0
 25
0.0
 35
0.0
146
0.0
 13
0.0
 23
0.0
 33
0.0
 16
1.0
 26
0.0
 36
0.0
 17
0.0
 27
1.0
 37
0.0
 76
     0
330
23
  0
LAYOUT
  5
22
102
{ACAD_REACTORS
330
1A
102
}
330
1A
100
AcDbPlotSettings
  1

  2
none_device
  4
ANSI_A_(11.00_x_8.50_Inches)
  6

 40
6.35
 41
19.05
 42
6.35000508
 43
19.05000254
 44
279.4
 45
215.9
 46
118.2346955137777
 47
90.0266438071882
 48
0.0
 49
0.0
140
0.0
141
0.0
142
0.0750837051803466
143
1.0
 70
  1696
 72
     0
 73
     0
 74
     0
  7

 75
     0
147
0.0235690232323232
148
0.0
149
0.0
100
AcDbLayout
  1
Model
 70
     1
 71
     0
 10
0.0
 20
0.0
 11
420.0
 21
297.0
 12
0.0
 22
0.0
 32
0.0
 14
-52.32369055860548
 24
-49.71142936356763
 34
0.0
 15
84.85800910773227
 25
43.38055141807178
 35
0.0
146
0.0
 13
0.0
 23
0.0
 33
0.0
 16
1.0
 26
0.0
 36
0.0
 17
0.0
 27
1.0
 37
0.0
 76
     0
330
1F
331
29
  0
MLINESTYLE
  5
18
102
{ACAD_REACTORS
330
17
102
}
330
17
100
AcDbMlineStyle
  2
Standard
 70
     0
  3

 62
   256
 51
90.0
 52
90.0
 71
     2
 49
0.5
 62
   256
  6
BYLAYER
 49
-0.5
 62
   256
  6
BYLAYER
  0
ACDBPLACEHOLDER
  5
F
102
{ACAD_REACTORS
330
E
102
}
330
E
  0
SCALE
  5
48
102
{ACAD_REACTORS
330
47
102
}
330
47
100
AcDbScale
 70
     0
300
1:1
140
1.0
141
1.0
290
     1
  0
SCALE
  5
49
102
{ACAD_REACTORS
330
47
102
}
330
47
100
AcDbScale
 70
     0
300
1:2
140
1.0
141
2.0
290
     0
  0
SCALE
  5
4A
102
{ACAD_REACTORS
330
47
102
}
330
47
100
AcDbScale
 70
     0
300
1:4
140
1.0
141
4.0
290
     0
  0
SCALE
  5
4B
102
{ACAD_REACTORS
330
47
102
}
330
47
100
AcDbScale
 70
     0
300
1:5
140
1.0
141
5.0
290
     0
  0
SCALE
  5
4C
102
{ACAD_REACTORS
330
47
102
}
330
47
100
AcDbScale
 70
     0
300
1:8
140
1.0
141
8.0
290
     0
  0
SCALE
  5
4D
102
{ACAD_REACTORS
330
47
102
}
330
47
100
AcDbScale
 70
     0
300
1:10
140
1.0
141
10.0
290
     0
  0
SCALE
  5
4E
102
{ACAD_REACTORS
330
47
102
}
330
47
100
AcDbScale
 70
     0
300
1:16
140
1.0
141
16.0
290
     0
  0
SCALE
  5
4F
102
{ACAD_REACTORS
330
47
102
}
330
47
100
AcDbScale
 70
     0
300
1:20
140
1.0
141
20.0
290
     0
  0
SCALE
  5
50
102
{ACAD_REACTORS
330
47
102
}
330
47
100
AcDbScale
 70
     0
300
1:30
140
1.0
141
30.0
290
     0
  0
SCALE
  5
51
102
{ACAD_REACTORS
330
47
102
}
330
47
100
AcDbScale
 70
     0
300
1:40
140
1.0
141
40.0
290
     0
  0
SCALE
  5
52
102
{ACAD_REACTORS
330
47
102
}
330
47
100
AcDbScale
 70
     0
300
1:50
140
1.0
141
50.0
290
     0
  0
SCALE
  5
53
102
{ACAD_REACTORS
330
47
102
}
330
47
100
AcDbScale
 70
     0
300
1:100
140
1.0
141
100.0
290
     0
  0
SCALE
  5
54
102
{ACAD_REACTORS
330
47
102
}
330
47
100
AcDbScale
 70
     0
300
2:1
140
2.0
141
1.0
290
     0
  0
SCALE
  5
55
102
{ACAD_REACTORS
330
47
102
}
330
47
100
AcDbScale
 70
     0
300
4:1
140
4.0
141
1.0
290
     0
  0
SCALE
  5
56
102
{ACAD_REACTORS
330
47
102
}
330
47
100
AcDbScale
 70
     0
300
8:1
140
8.0
141
1.0
290
     0
  0
SCALE
  5
57
102
{ACAD_REACTORS
330
47
102
}
330
47
100
AcDbScale
 70
     0
300
10:1
140
10.0
141
1.0
290
     0
  0
SCALE
  5
58
102
{ACAD_REACTORS
330
47
102
}
330
47
100
AcDbScale
 70
     0
300
100:1
140
100.0
141
1.0
290
     0
  0
SCALE
  5
59
102
{ACAD_REACTORS
330
47
102
}
330
47
100
AcDbScale
 70
     0
300
1/128" = 1'-0"
140
0.0078125
141
12.0
290
     0
  0
SCALE
  5
5A
102
{ACAD_REACTORS
330
47
102
}
330
47
100
AcDbScale
 70
     0
300
1/64" = 1'-0"
140
0.015625
141
12.0
290
     0
  0
SCALE
  5
5B
102
{ACAD_REACTORS
330
47
102
}
330
47
100
AcDbScale
 70
     0
300
1/32" = 1'-0"
140
0.03125
141
12.0
290
     0
  0
SCALE
  5
5C
102
{ACAD_REACTORS
330
47
102
}
330
47
100
AcDbScale
 70
     0
300
1/16" = 1'-0"
140
0.0625
141
12.0
290
     0
  0
SCALE
  5
5D
102
{ACAD_REACTORS
330
47
102
}
330
47
100
AcDbScale
 70
     0
300
3/32" = 1'-0"
140
0.09375
141
12.0
290
     0
  0
SCALE
  5
5E
102
{ACAD_REACTORS
330
47
102
}
330
47
100
AcDbScale
 70
     0
300
1/8" = 1'-0"
140
0.125
141
12.0
290
     0
  0
SCALE
  5
5F
102
{ACAD_REACTORS
330
47
102
}
330
47
100
AcDbScale
 70
     0
300
3/16" = 1'-0"
140
0.1875
141
12.0
290
     0
  0
SCALE
  5
60
102
{ACAD_REACTORS
330
47
102
}
330
47
100
AcDbScale
 70
     0
300
1/4" = 1'-0"
140
0.25
141
12.0
290
     0
  0
SCALE
  5
61
102
{ACAD_REACTORS
330
47
102
}
330
47
100
AcDbScale
 70
     0
300
3/8" = 1'-0"
140
0.375
141
12.0
290
     0
  0
SCALE
  5
62
102
{ACAD_REACTORS
330
47
102
}
330
47
100
AcDbScale
 70
     0
300
1/2" = 1'-0"
140
0.5
141
12.0
290
     0
  0
SCALE
  5
63
102
{ACAD_REACTORS
330
47
102
}
330
47
100
AcDbScale
 70
     0
300
3/4" = 1'-0"
140
0.75
141
12.0
290
     0
  0
SCALE
  5
64
102
{ACAD_REACTORS
330
47
102
}
330
47
100
AcDbScale
 70
     0
300
1" = 1'-0"
140
1.0
141
12.0
290
     0
  0
SCALE
  5
65
102
{ACAD_REACTORS
330
47
102
}
330
47
100
AcDbScale
 70
     0
300
1-1/2" = 1'-0"
140
1.5
141
12.0
290
     0
  0
SCALE
  5
66
102
{ACAD_REACTORS
330
47
102
}
330
47
100
AcDbScale
 70
     0
300
3" = 1'-0"
140
3.0
141
12.0
290
     0
  0
SCALE
  5
67
102
{ACAD_REACTORS
330
47
102
}
330
47
100
AcDbScale
 70
     0
300
6" = 1'-0"
140
6.0
141
12.0
290
     0
  0
SCALE
  5
68
102
{ACAD_REACTORS
330
47
102
}
330
47
100
AcDbScale
 70
     0
300
1'-0" = 1'-0"
140
12.0
141
12.0
290
     0
  0
ENDSEC
  0
EOF
