  0
SECTION
  2
HEADER
  9
$ACADVER
  1
AC1015
  9
$ACADMAINTVER
 70
     6
  9
$DWGCODEPAGE
  3
ANSI_949
  9
$INSBASE
 10
0.0
 20
0.0
 30
0.0
  9
$EXTMIN
 10
-52.9040423440935
 20
-49.71142936356763
 30
0.0
  9
$EXTMAX
 10
85.01101325613615
 20
43.38055141807178
 30
0.0
  9
$LIMMIN
 10
0.0
 20
0.0
  9
$LIMMAX
 10
420.0
 20
297.0
  9
$ORTHOMODE
 70
     0
  9
$REGENMODE
 70
     1
  9
$FILLMODE
 70
     1
  9
$QTEXTMODE
 70
     0
  9
$MIRRTEXT
 70
     1
  9
$LTSCALE
 40
1.0
  9
$ATTMODE
 70
     1
  9
$TEXTSIZE
 40
3.5
  9
$TRACEWID
 40
1.0
  9
$TEXTSTYLE
  7
Standard
  9
$CLAYER
  8
0
  9
$CELTYPE
  6
ByLayer
  9
$CECOLOR
 62
   256
  9
$CELTSCALE
 40
1.0
  9
$DISPSILH
 70
     0
  9
$DIMSCALE
 40
1.0
  9
$DIMASZ
 40
3.302
  9
$DIMEXO
 40
1.0
  9
$DIMDLI
 40
3.75
  9
$DIMRND
 40
0.0
  9
$DIMDLE
 40
0.0
  9
$DIMEXE
 40
1.0
  9
$DIMTP
 40
0.0
  9
$DIMTM
 40
0.0
  9
$DIMTXT
 40
3.5
  9
$DIMCEN
 40
2.5
  9
$DIMTSZ
 40
0.0
  9
$DIMTOL
 70
     0
  9
$DIMLIM
 70
     0
  9
$DIMTIH
 70
     1
  9
$DIMTOH
 70
     1
  9
$DIMSE1
 70
     0
  9
$DIMSE2
 70
     0
  9
$DIMTAD
 70
     1
  9
$DIMZIN
 70
     0
  9
$DIMBLK
  1

  9
$DIMASO
 70
     1
  9
$DIMSHO
 70
     1
  9
$DIMPOST
  1

  9
$DIMAPOST
  1

  9
$DIMALT
 70
     0
  9
$DIMALTD
 70
     3
  9
$DIMALTF
 40
0.0393700787401575
  9
$DIMLFAC
 40
1.0
  9
$DIMTOFL
 70
     1
  9
$DIMTVP
 40
0.0
  9
$DIMTIX
 70
     0
  9
$DIMSOXD
 70
     0
  9
$DIMSAH
 70
     0
  9
$DIMBLK1
  1

  9
$DIMBLK2
  1

  9
$DIMSTYLE
  2
ISO-25
  9
$DIMCLRD
 70
     0
  9
$DIMCLRE
 70
     0
  9
$DIMCLRT
 70
     0
  9
$DIMTFAC
 40
1.0
  9
$DIMGAP
 40
1.524
  9
$DIMJUST
 70
     0
  9
$DIMSD1
 70
     0
  9
$DIMSD2
 70
     0
  9
$DIMTOLJ
 70
     0
  9
$DIMTZIN
 70
     0
  9
$DIMALTZ
 70
     0
  9
$DIMALTTZ
 70
     0
  9
$DIMUPT
 70
     0
  9
$DIMDEC
 70
     2
  9
$DIMTDEC
 70
     2
  9
$DIMALTU
 70
     2
  9
$DIMALTTD
 70
     3
  9
$DIMTXSTY
  7
Standard
  9
$DIMAUNIT
 70
     0
  9
$DIMADEC
 70
     2
  9
$DIMALTRND
 40
0.0
  9
$DIMAZIN
 70
     0
  9
$DIMDSEP
 70
    44
  9
$DIMATFIT
 70
     3
  9
$DIMFRAC
 70
     0
  9
$DIMLDRBLK
  1

  9
$DIMLUNIT
 70
     2
  9
$DIMLWD
 70
    -2
  9
$DIMLWE
 70
    -2
  9
$DIMTMOVE
 70
     0
  9
$LUNITS
 70
     2
  9
$LUPREC
 70
     2
  9
$SKETCHINC
 40
1.0
  9
$FILLETRAD
 40
10.0
  9
$AUNITS
 70
     0
  9
$AUPREC
 70
     2
  9
$MENU
  1
.
  9
$ELEVATION
 40
0.0
  9
$PELEVATION
 40
0.0
  9
$THICKNESS
 40
0.0
  9
$LIMCHECK
 70
     0
  9
$CHAMFERA
 40
0.0
  9
$CHAMFERB
 40
0.0
  9
$CHAMFERC
 40
0.0
  9
$CHAMFERD
 40
0.0
  9
$SKPOLY
 70
     0
  9
$TDCREATE
 40
2458236.745197129
  9
$TDUCREATE
 40
2458236.370197129
  9
$TDUPDATE
 40
2458241.745039444
  9
$TDUUPDATE
 40
2458241.370039444
  9
$TDINDWG
 40
0.0010800116
  9
$TDUSRTIMER
 40
2458241.368959688
  9
$USRTIMER
 70
     1
  9
$ANGBASE
 50
0.0
  9
$ANGDIR
 70
     0
  9
$PDMODE
 70
     0
  9
$PDSIZE
 40
-1.0
  9
$PLINEWID
 40
0.0
  9
$SPLFRAME
 70
     0
  9
$SPLINETYPE
 70
     6
  9
$SPLINESEGS
 70
     8
  9
$HANDSEED
  5
190
  9
$SURFTAB1
 70
     6
  9
$SURFTAB2
 70
     6
  9
$SURFTYPE
 70
     6
  9
$SURFU
 70
     6
  9
$SURFV
 70
     6
  9
$UCSBASE
  2

  9
$UCSNAME
  2

  9
$UCSORG
 10
0.0
 20
0.0
 30
0.0
  9
$UCSXDIR
 10
1.0
 20
0.0
 30
0.0
  9
$UCSYDIR
 10
0.0
 20
1.0
 30
0.0
  9
$UCSORTHOREF
  2

  9
$UCSORTHOVIEW
 70
     0
  9
$UCSORGTOP
 10
0.0
 20
0.0
 30
0.0
  9
$UCSORGBOTTOM
 10
0.0
 20
0.0
 30
0.0
  9
$UCSORGLEFT
 10
0.0
 20
0.0
 30
0.0
  9
$UCSORGRIGHT
 10
0.0
 20
0.0
 30
0.0
  9
$UCSORGFRONT
 10
0.0
 20
0.0
 30
0.0
  9
$UCSORGBACK
 10
0.0
 20
0.0
 30
0.0
  9
$PUCSBASE
  2

  9
$PUCSNAME
  2

  9
$PUCSORG
 10
0.0
 20
0.0
 30
0.0
  9
$PUCSXDIR
 10
1.0
 20
0.0
 30
0.0
  9
$PUCSYDIR
 10
0.0
 20
1.0
 30
0.0
  9
$PUCSORTHOREF
  2

  9
$PUCSORTHOVIEW
 70
     0
  9
$PUCSORGTOP
 10
0.0
 20
0.0
 30
0.0
  9
$PUCSORGBOTTOM
 10
0.0
 20
0.0
 30
0.0
  9
$PUCSORGLEFT
 10
0.0
 20
0.0
 30
0.0
  9
$PUCSORGRIGHT
 10
0.0
 20
0.0
 30
0.0
  9
$PUCSORGFRONT
 10
0.0
 20
0.0
 30
0.0
  9
$PUCSORGBACK
 10
0.0
 20
0.0
 30
0.0
  9
$USERI1
 70
     0
  9
$USERI2
 70
     0
  9
$USERI3
 70
     0
  9
$USERI4
 70
     0
  9
$USERI5
 70
     0
  9
$USERR1
 40
0.0
  9
$USERR2
 40
0.0
  9
$USERR3
 40
0.0
  9
$USERR4
 40
0.0
  9
$USERR5
 40
0.0
  9
$WORLDVIEW
 70
     1
  9
$SHADEDGE
 70
     3
  9
$SHADEDIF
 70
    70
  9
$TILEMODE
 70
     1
  9
$MAXACTVP
 70
    64
  9
$PINSBASE
 10
0.0
 20
0.0
 30
0.0
  9
$PLIMCHECK
 70
     0
  9
$PEXTMIN
 10
1.000000000000000E+20
 20
1.000000000000000E+20
 30
1.000000000000000E+20
  9
$PEXTMAX
 10
-1.000000000000000E+20
 20
-1.000000000000000E+20
 30
-1.000000000000000E+20
  9
$PLIMMIN
 10
0.0
 20
0.0
  9
$PLIMMAX
 10
0.0
 20
0.0
  9
$UNITMODE
 70
     0
  9
$VISRETAIN
 70
     1
  9
$PLINEGEN
 70
     0
  9
$PSLTSCALE
 70
     1
  9
$TREEDEPTH
 70
  3020
  9
$CMLSTYLE
  2
Standard
  9
$CMLJUST
 70
     0
  9
$CMLSCALE
 40
20.0
  9
$PROXYGRAPHICS
 70
     1
  9
$MEASUREMENT
 70
     1
  9
$CELWEIGHT
370
    -1
  9
$ENDCAPS
280
     0
  9
$JOINSTYLE
280
     0
  9
$LWDISPLAY
290
     1
  9
$INSUNITS
 70
     4
  9
$HYPERLINKBASE
  1

  9
$STYLESHEET
  1

  9
$XEDIT
290
     1
  9
$CEPSNTYPE
380
     0
  9
$PSTYLEMODE
290
     1
  9
$FINGERPRINTGUID
  2
{95850315-C032-4571-9D41-A9BE2828DE6E}
  9
$VERSIONGUID
  2
{FAEB1C32-E019-11D5-929B-00C0DF256EC4}
  9
$EXTNAMES
290
     1
  9
$PSVPSCALE
 40
0.0
  9
$OLESTARTUP
290
     0
  0
ENDSEC
  0
SECTION
  2
CLASSES
  0
CLASS
  1
ACDBDICTIONARYWDFLT
  2
AcDbDictionaryWithDefault
  3
ObjectDBX Classes
 90
        0
280
     0
281
     0
  0
CLASS
  1
VISUALSTYLE
  2
AcDbVisualStyle
  3
ObjectDBX Classes
 90
     4095
280
     0
281
     0
  0
CLASS
  1
MATERIAL
  2
AcDbMaterial
  3
ObjectDBX Classes
 90
     1153
280
     0
281
     0
  0
CLASS
  1
SCALE
  2
AcDbScale
  3
ObjectDBX Classes
 90
     1153
280
     0
281
     0
  0
CLASS
  1
SUN
  2
AcDbSun
  3
SCENEOE
 90
     1153
280
     0
281
     0
  0
CLASS
  1
ACDBPLACEHOLDER
  2
AcDbPlaceHolder
  3
ObjectDBX Classes
 90
        0
280
     0
281
     0
  0
CLASS
  1
LAYOUT
  2
AcDbLayout
  3
ObjectDBX Classes
 90
        0
280
     0
281
     0
  0
CLASS
  1
TABLESTYLE
  2
AcDbTableStyle
  3
ObjectDBX Classes
 90
     4095
280
     0
281
     0
  0
CLASS
  1
MLEADERSTYLE
  2
AcDbMLeaderStyle
  3
ACDB_MLEADERSTYLE_CLASS
 90
     4095
280
     0
281
     0
  0
CLASS
  1
RASTERVARIABLES
  2
AcDbRasterVariables
  3
ISM
 90
        0
280
     0
281
     0
  0
CLASS
  1
DIMASSOC
  2
AcDbDimAssoc
  3
"AcDbDimAssoc|Product Desc:     AcDim ARX App For Dimension|Company:          Autodesk, Inc.|WEB Address:      www.autodesk.com"
 90
        0
280
     0
281
     0
  0
ENDSEC
  0
SECTION
  2
TABLES
  0
TABLE
  2
VPORT
  5
8
330
0
100
AcDbSymbolTable
 70
     1
  0
VPORT
  5
29
330
8
100
AcDbSymbolTableRecord
100
AcDbViewportTableRecord
  2
*Active
 70
     0
 10
0.0
 20
0.0
 11
1.0
 21
1.0
 12
71.9547730177208
 22
15.58006578212526
 13
0.0
 23
0.0
 14
10.0
 24
10.0
 15
10.0
 25
10.0
 16
0.0
 26
0.0
 36
1.0
 17
0.0
 27
0.0
 37
0.0
 40
45.84698774289294
 41
1.328320802005013
 42
50.0
 43
0.0
 44
0.0
 50
0.0
 51
0.0
 71
    16
 72
  2000
 73
     1
 74
     3
 75
     0
 76
     0
 77
     0
 78
     0
281
     0
 65
     1
110
0.0
120
0.0
130
0.0
111
1.0
121
0.0
131
0.0
112
0.0
122
1.0
132
0.0
 79
     0
146
0.0
  0
ENDTAB
  0
TABLE
  2
LTYPE
  5
5
330
0
100
AcDbSymbolTable
 70
     6
  0
LTYPE
  5
14
330
5
100
AcDbSymbolTableRecord
100
AcDbLinetypeTableRecord
  2
ByBlock
 70
     0
  3

 72
    65
 73
     0
 40
0.0
  0
LTYPE
  5
15
330
5
100
AcDbSymbolTableRecord
100
AcDbLinetypeTableRecord
  2
ByLayer
 70
     0
  3

 72
    65
 73
     0
 40
0.0
  0
LTYPE
  5
16
330
5
100
AcDbSymbolTableRecord
100
AcDbLinetypeTableRecord
  2
Continuous
 70
     0
  3
Solid line
 72
    65
 73
     0
 40
0.0
  0
LTYPE
  5
6A
330
5
100
AcDbSymbolTableRecord
100
AcDbLinetypeTableRecord
  2
HIDDEN
 70
     0
  3
Hidden __ __ __ __ __ __ __ __ __ __ __ __ __ __
 72
    65
 73
     2
 40
1.905
 49
1.27
 74
     0
 49
-0.635
 74
     0
  0
LTYPE
  5
6B
330
5
100
AcDbSymbolTableRecord
100
AcDbLinetypeTableRecord
  2
PHANTOM
 70
     0
  3
Phantom ______  __  __  ______  __  __  ______
 72
    65
 73
     6
 40
12.7
 49
6.35
 74
     0
 49
-1.27
 74
     0
 49
1.27
 74
     0
 49
-1.27
 74
     0
 49
1.27
 74
     0
 49
-1.27
 74
     0
  0
LTYPE
  5
6C
330
5
100
AcDbSymbolTableRecord
100
AcDbLinetypeTableRecord
  2
CENTER
 70
     0
  3
Center ____ _ ____ _ ____ _ ____ _ ____ _ ____
 72
    65
 73
     4
 40
10.16
 49
6.35
 74
     0
 49
-1.27
 74
     0
 49
1.27
 74
     0
 49
-1.27
 74
     0
  0
LTYPE
  5
6D
330
5
100
AcDbSymbolTableRecord
100
AcDbLinetypeTableRecord
  2
CENTERX2
 70
     0
  3
Center (2x) ________  __  ________  __  _____
 72
    65
 73
     4
 40
20.32
 49
12.7
 74
     0
 49
-2.54
 74
     0
 49
2.54
 74
     0
 49
-2.54
 74
     0
  0
LTYPE
  5
6E
330
5
100
AcDbSymbolTableRecord
100
AcDbLinetypeTableRecord
  2
DOT2
 70
     0
  3
Dot (.5x) ........................................
 72
    65
 73
     2
 40
0.635
 49
0.0
 74
     0
 49
-0.635
 74
     0
  0
ENDTAB
  0
TABLE
  2
LAYER
  5
2
330
0
100
AcDbSymbolTable
 70
    17
  0
LAYER
  5
10
330
2
100
AcDbSymbolTableRecord
100
AcDbLayerTableRecord
  2
0
 70
     0
 62
     7
  6
Continuous
370
    -3
390
F
  0
LAYER
  5
6F
330
2
100
AcDbSymbolTableRecord
100
AcDbLayerTableRecord
  2
FORMAT
 70
     0
 62
     2
  6
Continuous
370
    -3
390
F
  0
LAYER
  5
70
330
2
100
AcDbSymbolTableRecord
100
AcDbLayerTableRecord
  2
외형선
 70
     0
 62
   100
  6
Continuous
370
    30
390
F
  0
LAYER
  5
71
330
2
100
AcDbSymbolTableRecord
100
AcDbLayerTableRecord
  2
숨은선
 70
     0
 62
     2
  6
HIDDEN
370
    15
390
F
  0
LAYER
  5
72
330
2
100
AcDbSymbolTableRecord
100
AcDbLayerTableRecord
  2
중심선
 70
     0
 62
     1
  6
CENTERX2
370
    -3
390
F
  0
LAYER
  5
73
330
2
100
AcDbSymbolTableRecord
100
AcDbLayerTableRecord
  2
파단선
 70
     0
 62
     4
  6
Continuous
370
    -3
390
F
  0
LAYER
  5
74
330
2
100
AcDbSymbolTableRecord
100
AcDbLayerTableRecord
  2
해칭선
 70
     0
 62
     4
  6
Continuous
370
    -3
390
F
  0
LAYER
  5
75
330
2
100
AcDbSymbolTableRecord
100
AcDbLayerTableRecord
  2
가는실선
 70
     0
 62
     4
  6
Continuous
370
    -3
390
F
  0
LAYER
  5
76
330
2
100
AcDbSymbolTableRecord
100
AcDbLayerTableRecord
  2
치수_보조선
 70
     0
 62
     4
  6
Continuous
370
    -3
390
F
  0
LAYER
  5
77
330
2
100
AcDbSymbolTableRecord
100
AcDbLayerTableRecord
  2
치수문자_일반주서
 70
     0
 62
     7
  6
Continuous
370
    15
390
F
  0
LAYER
  5
78
330
2
100
AcDbSymbolTableRecord
100
AcDbLayerTableRecord
  2
개별주서
 70
     0
 62
   100
  6
Continuous
370
    30
390
F
  0
LAYER
  5
79
330
2
100
AcDbSymbolTableRecord
100
AcDbLayerTableRecord
  2
중간선
 70
     0
 62
     2
  6
Continuous
370
    15
390
F
  0
LAYER
  5
7A
330
2
100
AcDbSymbolTableRecord
100
AcDbLayerTableRecord
  2
윤곽선
 70
     0
 62
     3
  6
Continuous
370
    40
390
F
  0
LAYER
  5
7B
330
2
100
AcDbSymbolTableRecord
100
AcDbLayerTableRecord
  2
중심마크
 70
     0
 62
   100
  6
Continuous
370
    30
390
F
  0
LAYER
  5
7C
330
2
100
AcDbSymbolTableRecord
100
AcDbLayerTableRecord
  2
가상선
 70
     0
 62
     4
  6
PHANTOM
370
    -3
390
F
  0
LAYER
  5
7D
330
2
100
AcDbSymbolTableRecord
100
AcDbLayerTableRecord
  2
특수지정선
 70
     0
 62
     5
  6
CENTERX2
370
    60
390
F
  0
LAYER
  5
16B
330
2
100
AcDbSymbolTableRecord
100
AcDbLayerTableRecord
  2
Defpoints
 70
     0
 62
     7
  6
Continuous
290
     0
370
    -3
390
F
  0
ENDTAB
  0
TABLE
  2
STYLE
  5
3
330
0
100
AcDbSymbolTable
 70
     2
  0
STYLE
  5
11
330
3
100
AcDbSymbolTableRecord
100
AcDbTextStyleTableRecord
  2
Standard
 70
     0
 40
0.0
 41
1.0
 50
0.0
 71
     0
 42
3.5
  3
txt
  4

  0
STYLE
  5
93
330
3
100
AcDbSymbolTableRecord
100
AcDbTextStyleTableRecord
  2
SLDTEXTSTYLE0
 70
     0
 40
0.0
 41
0.75
 50
0.0
 71
     0
 42
3.5
  3
TXT
  4

  0
ENDTAB
  0
TABLE
  2
VIEW
  5
6
330
0
100
AcDbSymbolTable
 70
     0
  0
ENDTAB
  0
TABLE
  2
UCS
  5
7
330
0
100
AcDbSymbolTable
 70
     0
  0
ENDTAB
  0
TABLE
  2
APPID
  5
9
330
0
100
AcDbSymbolTable
 70
     3
  0
APPID
  5
12
330
9
100
AcDbSymbolTableRecord
100
AcDbRegAppTableRecord
  2
ACAD
 70
     0
  0
APPID
  5
16C
330
9
100
AcDbSymbolTableRecord
100
AcDbRegAppTableRecord
  2
ACAD_DSTYLE_DIMRADIAL_EXTENSION
 70
     0
  0
APPID
  5
17E
330
9
100
AcDbSymbolTableRecord
100
AcDbRegAppTableRecord
  2
PE_DIMMEASUREMENT
 70
     0
  0
ENDTAB
  0
TABLE
  2
DIMSTYLE
  5
A
330
0
100
AcDbSymbolTable
 70
     4
100
AcDbDimStyleTable
  0
DIMSTYLE
105
27
330
A
100
AcDbSymbolTableRecord
100
AcDbDimStyleTableRecord
  2
ISO-25
 70
     0
 41
2.5
 42
0.625
 43
3.75
 44
1.25
 73
     0
 74
     0
 77
     1
 78
     8
140
2.5
141
2.5
143
0.03937007874016
147
0.625
171
     3
172
     1
178
     0
271
     2
272
     2
274
     3
278
    44
283
     0
284
     8
340
11
  0
DIMSTYLE
105
F4
102
{ACAD_REACTORS
330
F3
330
16D
330
108
330
11C
330
182
102
}
330
A
100
AcDbSymbolTableRecord
100
AcDbDimStyleTableRecord
  2
SLDDIMSTYLE0
 70
     0
 41
3.302
 44
0.0
 45
0.000000001
 73
     0
 74
     0
 77
     1
 78
    12
 79
     3
140
3.5
143
0.0393700787401575
147
0.875
148
0.000000001
170
     1
172
     1
173
     1
178
     0
271
     2
272
     2
276
     2
284
    12
289
     0
340
93
  0
DIMSTYLE
105
109
330
A
100
AcDbSymbolTableRecord
100
AcDbDimStyleTableRecord
  2
SLDDIMSTYLE1
 70
     0
 41
3.302
 44
0.0
 45
0.000000001
 73
     0
 74
     0
 77
     1
 78
     4
 79
     1
140
3.5
143
0.0393700787401575
147
0.875
148
0.000000001
170
     1
173
     1
178
     0
271
     2
272
     2
276
     2
284
    12
340
93
  0
DIMSTYLE
105
130
330
A
100
AcDbSymbolTableRecord
100
AcDbDimStyleTableRecord
  2
SLDDIMSTYLE2
 70
     0
 41
3.302
 44
0.0
 45
0.000000001
 73
     0
 74
     0
 77
     1
 78
     8
 79
     2
140
3.5
143
0.0393700787401575
147
0.875
148
0.000000001
170
     1
172
     1
173
     1
178
     0
271
     2
272
     2
276
     2
284
    12
289
     0
340
93
341
131
343
131
344
131
  0
ENDTAB
  0
TABLE
  2
BLOCK_RECORD
  5
1
330
0
100
AcDbSymbolTable
 70
    10
  0
BLOCK_RECORD
  5
1F
330
1
100
AcDbSymbolTableRecord
100
AcDbBlockTableRecord
  2
*Model_Space
340
22
  0
BLOCK_RECORD
  5
1B
330
1
100
AcDbSymbolTableRecord
100
AcDbBlockTableRecord
  2
*Paper_Space
340
1E
  0
BLOCK_RECORD
  5
23
330
1
100
AcDbSymbolTableRecord
100
AcDbBlockTableRecord
  2
*Paper_Space0
340
26
  0
BLOCK_RECORD
  5
7E
330
1
100
AcDbSymbolTableRecord
100
AcDbBlockTableRecord
  2
블럭10
340
0
102
{BLKREFS
331
EB
102
}
  0
BLOCK_RECORD
  5
F5
330
1
100
AcDbSymbolTableRecord
100
AcDbBlockTableRecord
  2
_D
340
0
  0
BLOCK_RECORD
  5
10A
330
1
100
AcDbSymbolTableRecord
100
AcDbBlockTableRecord
  2
_D_1
340
0
  0
BLOCK_RECORD
  5
11D
330
1
100
AcDbSymbolTableRecord
100
AcDbBlockTableRecord
  2
_D_2
340
0
  0
BLOCK_RECORD
  5
131
330
1
100
AcDbSymbolTableRecord
100
AcDbBlockTableRecord
  2
_NONE
340
0
  0
BLOCK_RECORD
  5
134
330
1
100
AcDbSymbolTableRecord
100
AcDbBlockTableRecord
  2
_D_3
340
0
  0
BLOCK_RECORD
  5
140
330
1
100
AcDbSymbolTableRecord
100
AcDbBlockTableRecord
  2
SW_DOWELSYMBOL_0
340
0
102
{BLKREFS
331
146
102
}
  0
BLOCK_RECORD
  5
170
330
1
100
AcDbSymbolTableRecord
100
AcDbBlockTableRecord
  2
*D8
340
0
  0
BLOCK_RECORD
  5
185
330
1
100
AcDbSymbolTableRecord
100
AcDbBlockTableRecord
  2
*D9
340
0
  0
ENDTAB
  0
ENDSEC
  0
SECTION
  2
BLOCKS
  0
BLOCK
  5
20
330
1F
100
AcDbEntity
  8
0
100
AcDbBlockBegin
  2
*Model_Space
 70
     0
 10
0.0
 20
0.0
 30
0.0
  3
*Model_Space
  1
*Model_Space
  0
ENDBLK
  5
21
330
1F
100
AcDbEntity
  8
0
100
AcDbBlockEnd
  0
BLOCK
  5
1C
330
1B
100
AcDbEntity
 67
     1
  8
0
100
AcDbBlockBegin
  2
*Paper_Space
 70
     0
 10
0.0
 20
0.0
 30
0.0
  3
*Paper_Space
  1
*Paper_Space
  0
ENDBLK
  5
1D
330
1B
100
AcDbEntity
 67
     1
  8
0
100
AcDbBlockEnd
  0
BLOCK
  5
24
330
23
100
AcDbEntity
  8
0
100
AcDbBlockBegin
  2
*Paper_Space0
 70
     0
 10
0.0
 20
0.0
 30
0.0
  3
*Paper_Space0
  1
*Paper_Space0
  0
ENDBLK
  5
25
330
23
100
AcDbEntity
  8
0
100
AcDbBlockEnd
  0
BLOCK
  5
7F
330
7E
100
AcDbEntity
  8
0
100
AcDbBlockBegin
  2
블럭10
 70
     2
 10
0.0
 20
0.0
 30
0.0
  3
블럭10
  1
블럭10
  0
ELLIPSE
  5
81
330
7E
100
AcDbEntity
  8
중심선
100
AcDbEllipse
 10
20.54032771741204
 20
12.0471743016438
 30
0.0
 11
6.600054785286829
 21
-1.261213355974178E-13
 31
0.0
210
0.0
220
0.0
230
1.0
 40
0.636358354079598
 41
0.9219305317359503
 42
6.513795318482858
  0
ELLIPSE
  5
82
330
7E
100
AcDbEntity
  8
중심선
100
AcDbEllipse
 10
20.54032771746488
 20
12.04717430159265
 30
0.0
 11
3.960054785062283
 21
1.540847449632565E-10
 31
0.0
210
0.0
220
0.0
230
1.0
 40
0.3939339440162632
 41
1.131841032648279
 42
5.62031148352944
  0
LINE
  5
83
330
7E
100
AcDbEntity
  8
중심선
100
AcDbLine
 10
2.268634060543552
 20
16.24717430164393
 30
0.0
 11
5.714909304380834
 21
16.24717430164393
 31
0.0
  0
LINE
  5
84
330
7E
100
AcDbEntity
  8
중심선
100
AcDbLine
 10
5.245725140726316
 20
7.84717430164391
 30
0.0
 11
8.692000384563599
 21
7.84717430164391
 31
0.0
  0
LINE
  5
85
330
7E
100
AcDbEntity
  8
중심선
100
AcDbLine
 10
15.74043728645272
 20
16.24717430164393
 30
0.0
 11
8.692000384563599
 21
7.84717430164391
 31
0.0
  0
LINE
  5
86
330
7E
100
AcDbEntity
  8
중심선
100
AcDbLine
 10
0.1404042013395286
 20
13.71084872107135
 30
0.0
 11
3.58671253028996
 21
13.71088815037384
 31
0.0
  0
LINE
  5
87
330
7E
100
AcDbEntity
  8
중심선
100
AcDbLine
 10
2.750260043222114
 20
10.84717430164391
 30
0.0
 11
6.196535287059397
 21
10.84717430164391
 31
0.0
  0
LINE
  5
88
330
7E
100
AcDbEntity
  8
중심선
100
AcDbLine
 10
12.29416204261559
 20
16.24717430164393
 30
0.0
 11
5.245725140726316
 21
7.84717430164391
 31
0.0
  0
LINE
  5
89
330
7E
100
AcDbEntity
  8
중심선
100
AcDbLine
 10
10.72767329541681
 20
16.24717430164393
 30
0.0
 11
6.196535287059397
 21
10.84717430164391
 31
0.0
  0
LINE
  5
8A
330
7E
100
AcDbEntity
  8
중심선
100
AcDbLine
 10
7.28139805157953
 20
16.24717430164393
 30
0.0
 11
2.750260043222114
 21
10.84717430164391
 31
0.0
  0
LINE
  5
8B
330
7E
100
AcDbEntity
  8
중심선
100
AcDbLine
 10
5.714909304380834
 20
16.24717430164393
 30
0.0
 11
3.58671253028996
 21
13.71088815037384
 31
0.0
  0
LINE
  5
8C
330
7E
100
AcDbEntity
  8
중심선
100
AcDbLine
 10
2.268634060543552
 20
16.24717430164393
 30
0.0
 11
0.1404042013395286
 21
13.71084872107135
 31
0.0
  0
LINE
  5
8D
330
7E
100
AcDbEntity
  8
중심선
100
AcDbLine
 10
7.28139805157953
 20
16.24717430164393
 30
0.0
 11
10.72767329541681
 21
16.24717430164393
 31
0.0
  0
LINE
  5
8E
330
7E
100
AcDbEntity
  8
중심선
100
AcDbLine
 10
12.29416204261559
 20
16.24717430164393
 30
0.0
 11
15.74043728645272
 21
16.24717430164393
 31
0.0
  0
LINE
  5
8F
330
7E
100
AcDbEntity
  8
중심선
100
AcDbLine
 10
19.22036997980202
 20
11.08717430171403
 30
0.0
 11
23.66174974927406
 21
11.08717430171406
 31
0.0
  0
LINE
  5
90
330
7E
100
AcDbEntity
  8
중심선
100
AcDbLine
 10
19.22039502424796
 20
13.00717430171391
 30
0.0
 11
19.22036997980202
 21
11.08717430171403
 31
0.0
  0
LINE
  5
91
330
7E
100
AcDbEntity
  8
중심선
100
AcDbLine
 10
19.22039502424796
 20
13.00717430171391
 30
0.0
 11
26.96566020931264
 21
13.00717430171391
 31
0.0
  0
LINE
  5
92
330
7E
100
AcDbEntity
  8
중심선
100
AcDbLine
 10
22.22332737316547
 20
13.45928029700563
 30
0.0
 11
24.52862924686651
 21
15.39360700705356
 31
0.0
  0
ATTDEF
  5
94
330
7E
100
AcDbEntity
  8
FORMAT
 62
     2
100
AcDbText
 10
-11.05102035218446
 20
2.075366912832191
 30
0.0
 40
4.233333333333333
  1
GMG22925[ 6 FLUTE ]
 41
0.75
  7
SLDTEXTSTYLE0
 11
-11.05102035218446
 21
-0.0412997538344756
 31
0.0
100
AcDbAttributeDefinition
  3

  2
AUTOATTR0
 70
     0
 74
     1
  0
ENDBLK
  5
80
330
7E
100
AcDbEntity
  8
0
100
AcDbBlockEnd
  0
BLOCK
  5
F6
330
F5
100
AcDbEntity
  8
0
100
AcDbBlockBegin
  2
_D
 70
     0
 10
0.0
 20
0.0
 30
0.0
  3
_D
  1
_D
  0
LINE
  5
F8
330
F5
100
AcDbEntity
  8
치수문자_일반주서
 62
     0
370
    -2
100
AcDbLine
 10
59.33850000000093
 20
-6.349999999999996
 30
0.0
 11
77.85874571577395
 21
-6.349999999999926
 31
0.0
  0
LINE
  5
F9
330
F5
100
AcDbEntity
  8
치수문자_일반주서
 62
     0
370
    -2
100
AcDbLine
 10
59.27600000000093
 20
6.350000000000002
 30
0.0
 11
77.85874571577389
 21
6.350000000000072
 31
0.0
  0
LINE
  5
FA
330
F5
100
AcDbEntity
  8
치수문자_일반주서
 62
     0
370
    -2
100
AcDbLine
 10
77.85874571577394
 20
-3.047999999999926
 30
0.0
 11
77.8587457157739
 21
3.048000000000073
 31
0.0
  0
SOLID
  5
FB
330
F5
100
AcDbEntity
  8
치수문자_일반주서
 62
     0
100
AcDbTrace
 10
77.30841238244061
 20
-3.047999999999928
 30
0.0
 11
78.40907904910726
 21
-3.047999999999925
 31
0.0
 12
77.85874571577395
 22
-6.349999999999926
 32
0.0
 13
77.85874571577395
 23
-6.349999999999926
 33
0.0
  0
SOLID
  5
FC
330
F5
100
AcDbEntity
  8
치수문자_일반주서
 62
     0
100
AcDbTrace
 10
78.40907904910723
 20
3.048000000000075
 30
0.0
 11
77.30841238244058
 21
3.048000000000071
 31
0.0
 12
77.85874571577389
 22
6.350000000000072
 32
0.0
 13
77.85874571577389
 23
6.350000000000072
 33
0.0
  0
MTEXT
  5
FD
330
F5
100
AcDbEntity
  8
치수문자_일반주서
 62
     0
100
AcDbMText
 10
73.48374571577392
 20
0.0000000000000583
 30
0.0
 40
3.5
 41
0.0
 71
     2
 72
     1
  1
\A1;%%c12.7 [1/2]
  7
SLDTEXTSTYLE0
 11
-3.356894814614647E-15
 21
1.0
 31
0.0
 73
     1
 44
1.0
  0
POINT
  5
FE
330
F5
100
AcDbEntity
  8
Defpoints
 62
     0
100
AcDbPoint
 10
59.27600000000093
 20
-6.349999999999996
 30
0.0
  0
POINT
  5
FF
330
F5
100
AcDbEntity
  8
Defpoints
 62
     0
100
AcDbPoint
 10
59.21350000000093
 20
6.350000000000002
 30
0.0
  0
POINT
  5
100
330
F5
100
AcDbEntity
  8
Defpoints
 62
     0
100
AcDbPoint
 10
77.85874571577389
 20
6.350000000000072
 30
0.0
  0
ENDBLK
  5
F7
330
F5
100
AcDbEntity
  8
0
100
AcDbBlockEnd
  0
BLOCK
  5
10B
330
10A
100
AcDbEntity
  8
0
100
AcDbBlockBegin
  2
_D_1
 70
     0
 10
0.0
 20
0.0
 30
0.0
  3
_D_1
  1
_D_1
  0
LINE
  5
10D
330
10A
100
AcDbEntity
  8
치수문자_일반주서
 62
     0
370
    -2
100
AcDbLine
 10
-40.79999999999909
 20
5.912499999999999
 30
0.0
 11
-40.79999999999909
 21
39.00555141807178
 31
0.0
  0
LINE
  5
10E
330
10A
100
AcDbEntity
  8
치수문자_일반주서
 62
     0
370
    -2
100
AcDbLine
 10
60.80000000000091
 20
4.888500000000004
 30
0.0
 11
60.80000000000091
 21
39.00555141807178
 31
0.0
  0
LINE
  5
10F
330
10A
100
AcDbEntity
  8
치수문자_일반주서
 62
     0
370
    -2
100
AcDbLine
 10
-37.49799999999909
 20
39.00555141807178
 30
0.0
 11
57.49800000000091
 21
39.00555141807178
 31
0.0
  0
SOLID
  5
110
330
10A
100
AcDbEntity
  8
치수문자_일반주서
 62
     0
100
AcDbTrace
 10
-37.49799999999909
 20
39.55588475140512
 30
0.0
 11
-37.49799999999909
 21
38.45521808473845
 31
0.0
 12
-40.79999999999909
 22
39.00555141807178
 32
0.0
 13
-40.79999999999909
 23
39.00555141807178
 33
0.0
  0
SOLID
  5
111
330
10A
100
AcDbEntity
  8
치수문자_일반주서
 62
     0
100
AcDbTrace
 10
57.49800000000091
 20
38.45521808473845
 30
0.0
 11
57.49800000000091
 21
39.55588475140512
 31
0.0
 12
60.80000000000091
 22
39.00555141807178
 32
0.0
 13
60.80000000000091
 23
39.00555141807178
 33
0.0
  0
MTEXT
  5
112
330
10A
100
AcDbEntity
  8
치수문자_일반주서
 62
     0
100
AcDbMText
 10
10.00000000000091
 20
43.38055141807178
 30
0.0
 40
3.5
 41
0.0
 71
     2
 72
     1
  1
\A1;101.6 [4]
  7
SLDTEXTSTYLE0
 73
     1
 44
1.0
  0
POINT
  5
113
330
10A
100
AcDbEntity
  8
Defpoints
 62
     0
100
AcDbPoint
 10
-40.79999999999909
 20
5.849999999999999
 30
0.0
  0
POINT
  5
114
330
10A
100
AcDbEntity
  8
Defpoints
 62
     0
100
AcDbPoint
 10
60.80000000000091
 20
4.826000000000004
 30
0.0
  0
POINT
  5
115
330
10A
100
AcDbEntity
  8
Defpoints
 62
     0
100
AcDbPoint
 10
60.80000000000091
 20
39.00555141807178
 30
0.0
  0
ENDBLK
  5
10C
330
10A
100
AcDbEntity
  8
0
100
AcDbBlockEnd
  0
BLOCK
  5
11E
330
11D
100
AcDbEntity
  8
0
100
AcDbBlockBegin
  2
_D_2
 70
     0
 10
0.0
 20
0.0
 30
0.0
  3
_D_2
  1
_D_2
  0
LINE
  5
120
330
11D
100
AcDbEntity
  8
치수문자_일반주서
 62
     0
370
    -2
100
AcDbLine
 10
60.80000000000091
 20
4.888500000000004
 30
0.0
 11
60.80000000000091
 21
22.45299453033794
 31
0.0
  0
LINE
  5
121
330
11D
100
AcDbEntity
  8
치수문자_일반주서
 62
     0
370
    -2
100
AcDbLine
 10
10.0
 20
6.235258784142553
 30
0.0
 11
10.0
 21
22.45299453033794
 31
0.0
  0
LINE
  5
122
330
11D
100
AcDbEntity
  8
치수문자_일반주서
 62
     0
370
    -2
100
AcDbLine
 10
57.49800000000091
 20
22.45299453033794
 30
0.0
 11
13.302
 21
22.45299453033794
 31
0.0
  0
SOLID
  5
123
330
11D
100
AcDbEntity
  8
치수문자_일반주서
 62
     0
100
AcDbTrace
 10
57.49800000000091
 20
21.9026611970046
 30
0.0
 11
57.49800000000091
 21
23.00332786367127
 31
0.0
 12
60.80000000000091
 22
22.45299453033794
 32
0.0
 13
60.80000000000091
 23
22.45299453033794
 33
0.0
  0
SOLID
  5
124
330
11D
100
AcDbEntity
  8
치수문자_일반주서
 62
     0
100
AcDbTrace
 10
13.302
 20
23.00332786367127
 30
0.0
 11
13.302
 21
21.9026611970046
 31
0.0
 12
10.0
 22
22.45299453033794
 32
0.0
 13
10.0
 23
22.45299453033794
 33
0.0
  0
MTEXT
  5
125
330
11D
100
AcDbEntity
  8
치수문자_일반주서
 62
     0
100
AcDbMText
 10
34.84120226380341
 20
26.82799453033794
 30
0.0
 40
3.5
 41
0.0
 71
     2
 72
     1
  1
\A1;50.8 [2]
  7
SLDTEXTSTYLE0
 73
     1
 44
1.0
  0
POINT
  5
126
330
11D
100
AcDbEntity
  8
Defpoints
 62
     0
100
AcDbPoint
 10
60.80000000000091
 20
4.826000000000004
 30
0.0
  0
POINT
  5
127
330
11D
100
AcDbEntity
  8
Defpoints
 62
     0
100
AcDbPoint
 10
10.0
 20
6.172758784142553
 30
0.0
  0
POINT
  5
128
330
11D
100
AcDbEntity
  8
Defpoints
 62
     0
100
AcDbPoint
 10
10.0
 20
22.45299453033794
 30
0.0
  0
ENDBLK
  5
11F
330
11D
100
AcDbEntity
  8
0
100
AcDbBlockEnd
  0
BLOCK
  5
132
330
131
100
AcDbEntity
  8
0
100
AcDbBlockBegin
  2
_NONE
 70
     0
 10
0.0
 20
0.0
 30
0.0
  3
_NONE
  1
_NONE
  0
ENDBLK
  5
133
330
131
100
AcDbEntity
  8
0
100
AcDbBlockEnd
  0
BLOCK
  5
135
330
134
100
AcDbEntity
  8
0
100
AcDbBlockBegin
  2
_D_3
 70
     0
 10
0.0
 20
0.0
 30
0.0
  3
_D_3
  1
_D_3
  0
LINE
  5
137
330
134
100
AcDbEntity
  8
치수문자_일반주서
100
AcDbLine
 10
-64.59336763611721
 20
-12.02664086223942
 30
0.0
 11
-64.59336763611721
 21
-12.73757834780392
 31
0.0
  0
LINE
  5
138
330
134
100
AcDbEntity
  8
치수문자_일반주서
100
AcDbLine
 10
-64.59336763611721
 20
-12.73757834780392
 30
0.0
 11
-59.03711764505791
 21
-12.73757834780388
 31
0.0
  0
LINE
  5
139
330
134
100
AcDbEntity
  8
치수문자_일반주서
100
AcDbLine
 10
-59.03711764505791
 20
-12.73757834780388
 30
0.0
 11
-59.03711764505791
 21
-12.02664086223938
 31
0.0
  0
LINE
  5
13A
330
134
100
AcDbEntity
  8
치수문자_일반주서
100
AcDbLine
 10
-64.59336763611729
 20
-1.197908000102161
 30
0.0
 11
-64.59336763611729
 21
-0.4869705145376605
 31
0.0
  0
LINE
  5
13B
330
134
100
AcDbEntity
  8
치수문자_일반주서
100
AcDbLine
 10
-64.59336763611729
 20
-0.4869705145376605
 30
0.0
 11
-59.037117645058
 21
-0.4869705145376214
 31
0.0
  0
LINE
  5
13C
330
134
100
AcDbEntity
  8
치수문자_일반주서
100
AcDbLine
 10
-59.037117645058
 20
-0.4869705145376214
 30
0.0
 11
-59.03711764505799
 21
-1.197908000102122
 31
0.0
  0
MTEXT
  5
13D
330
134
100
AcDbEntity
  8
치수문자_일반주서
100
AcDbMText
 10
-63.54885455963682
 20
-11.13796896162804
 30
0.0
 40
3.5
 41
0.0
 71
     1
 72
     1
  1
0.00
  7
SLDTEXTSTYLE0
 11
-7.044195017643634E-15
 21
1.0
 31
0.0
 73
     1
 44
1.0
  0
MTEXT
  5
13E
330
134
100
AcDbEntity
  8
치수문자_일반주서
100
AcDbMText
 10
-58.31222300927634
 20
-10.54454884353451
 30
0.0
 40
3.5
 41
0.0
 71
     1
 72
     1
  1
%%c
  7
SLDTEXTSTYLE0
 11
-7.044195017643634E-15
 21
1.0
 31
0.0
 73
     1
 44
1.0
  0
MTEXT
  5
13F
330
134
100
AcDbEntity
  8
치수문자_일반주서
100
AcDbMText
 10
-58.31222300927638
 20
-5.266111445160434
 30
0.0
 40
3.5
 41
0.0
 71
     1
 72
     1
  1
0
  7
SLDTEXTSTYLE0
 11
-7.044195017643634E-15
 21
1.0
 31
0.0
 73
     1
 44
1.0
  0
ENDBLK
  5
136
330
134
100
AcDbEntity
  8
0
100
AcDbBlockEnd
  0
BLOCK
  5
141
330
140
100
AcDbEntity
  8
0
100
AcDbBlockBegin
  2
SW_DOWELSYMBOL_0
 70
     0
 10
0.0
 20
0.0
 30
0.0
  3
SW_DOWELSYMBOL_0
  1
SW_DOWELSYMBOL_0
  0
CIRCLE
  5
143
330
140
100
AcDbEntity
  8
외형선
 62
     0
100
AcDbCircle
 10
0.0
 20
0.0
 30
0.0
 40
3.00000000000089
  0
HATCH
  5
144
330
140
100
AcDbEntity
  8
0
  6
Continuous
 62
     0
370
    30
100
AcDbHatch
 10
0.0
 20
0.0
 30
0.0
210
0.0
220
0.0
230
1.0
  2
SOLID
 70
     1
 71
     0
 91
        1
 92
        0
 93
        3
 72
     2
 10
0.0
 20
0.0
 40
3.00000000000089
 50
0.0
 51
90.0
 73
     1
 72
     1
 10
0.0
 20
3.00000000000089
 11
0.0
 21
0.0
 72
     1
 10
0.0
 20
0.0
 11
3.00000000000089
 21
0.0
 97
        0
 75
     0
 76
     1
 98
        1
 10
0.0
 20
0.0
  0
HATCH
  5
145
330
140
100
AcDbEntity
  8
0
  6
Continuous
 62
     0
370
    30
100
AcDbHatch
 10
0.0
 20
0.0
 30
0.0
210
0.0
220
0.0
230
1.0
  2
SOLID
 70
     1
 71
     0
 91
        1
 92
        0
 93
        3
 72
     2
 10
0.0
 20
0.0
 40
3.00000000000089
 50
180.0
 51
270.0000000000008
 73
     1
 72
     1
 10
0.0
 20
-3.00000000000089
 11
0.0
 21
0.0
 72
     1
 10
0.0
 20
0.0
 11
-3.00000000000089
 21
0.0
 97
        0
 75
     0
 76
     1
 98
        1
 10
0.0
 20
0.0
  0
ENDBLK
  5
142
330
140
100
AcDbEntity
  8
0
100
AcDbBlockEnd
  0
BLOCK
  5
171
330
170
100
AcDbEntity
  8
0
100
AcDbBlockBegin
  2
*D8
 70
     1
 10
0.0
 20
0.0
 30
0.0
  3
*D8
  1
*D8
  0
LINE
  5
173
330
170
100
AcDbEntity
  8
치수문자_일반주서
 62
     0
370
    -2
100
AcDbLine
 10
-40.36249999999909
 20
6.349999999999998
 30
0.0
 11
-48.5290423440935
 21
6.349999999999998
 31
0.0
  0
LINE
  5
174
330
170
100
AcDbEntity
  8
치수문자_일반주서
 62
     0
370
    -2
100
AcDbLine
 10
-40.36249999999909
 20
-6.349999999999999
 30
0.0
 11
-48.5290423440935
 21
-6.349999999999999
 31
0.0
  0
LINE
  5
175
330
170
100
AcDbEntity
  8
치수문자_일반주서
 62
     0
370
    -2
100
AcDbLine
 10
-48.5290423440935
 20
3.047999999999998
 30
0.0
 11
-48.5290423440935
 21
-3.047999999999999
 31
0.0
  0
SOLID
  5
176
330
170
100
AcDbEntity
  8
치수문자_일반주서
 62
     0
100
AcDbTrace
 10
-47.97870901076016
 20
3.047999999999998
 30
0.0
 11
-49.07937567742683
 21
3.047999999999998
 31
0.0
 12
-48.5290423440935
 22
6.349999999999998
 32
0.0
 13
-48.5290423440935
 23
6.349999999999998
 33
0.0
  0
SOLID
  5
177
330
170
100
AcDbEntity
  8
치수문자_일반주서
 62
     0
100
AcDbTrace
 10
-49.07937567742683
 20
-3.047999999999999
 30
0.0
 11
-47.97870901076016
 21
-3.047999999999999
 31
0.0
 12
-48.5290423440935
 22
-6.349999999999999
 32
0.0
 13
-48.5290423440935
 23
-6.349999999999999
 33
0.0
  0
MTEXT
  5
178
330
170
100
AcDbEntity
  8
치수문자_일반주서
 62
     0
100
AcDbMText
 10
-51.1540423440935
 20
0.0
 30
0.0
 40
3.5
 41
0.0
 71
     5
 72
     1
  1
\A1;{%%C12.7 [1/2]}
  7
SLDTEXTSTYLE0
 11
0.0
 21
1.0
 31
0.0
 73
     1
 44
1.0
  0
POINT
  5
179
330
170
100
AcDbEntity
  8
Defpoints
 62
     0
100
AcDbPoint
 10
-40.29999999999909
 20
6.349999999999998
 30
0.0
  0
POINT
  5
17A
330
170
100
AcDbEntity
  8
Defpoints
 62
     0
100
AcDbPoint
 10
-40.29999999999909
 20
-6.349999999999999
 30
0.0
  0
POINT
  5
17B
330
170
100
AcDbEntity
  8
Defpoints
 62
     0
100
AcDbPoint
 10
-48.5290423440935
 20
-6.349999999999998
 30
0.0
  0
ENDBLK
  5
172
330
170
100
AcDbEntity
  8
0
100
AcDbBlockEnd
  0
BLOCK
  5
186
330
185
100
AcDbEntity
  8
0
100
AcDbBlockBegin
  2
*D9
 70
     1
 10
0.0
 20
0.0
 30
0.0
  3
*D9
  1
*D9
  0
LINE
  5
188
330
185
100
AcDbEntity
  8
치수문자_일반주서
 62
     0
370
    -2
100
AcDbLine
 10
62.43470197472045
 20
8.04568808741095
 30
0.0
 11
85.01101325613615
 21
30.97317154994173
 31
0.0
  0
MTEXT
  5
189
330
185
100
AcDbEntity
  8
치수문자_일반주서
 62
     0
100
AcDbMText
 10
73.01082249209406
 20
22.52761337557582
 30
0.0
 40
3.5
 41
0.0
 71
     5
 72
     1
  1
\A1;R2.29 [R0.09]
  7
SLDTEXTSTYLE0
 11
0.7016288430063615
 21
0.7125426069096181
 31
0.0
 73
     1
 44
1.0
  0
LINE
  5
18A
330
185
100
AcDbEntity
  8
치수문자_일반주서
 62
     0
370
    -2
100
AcDbLine
 10
58.51400000000091
 20
4.064000000000004
 30
0.0
 11
60.11792353511345
 21
5.692872399395391
 31
0.0
  0
SOLID
  5
18B
330
185
100
AcDbEntity
  8
치수문자_일반주서
 62
     0
100
AcDbTrace
 10
62.04256602671786
 20
8.431817827345451
 30
0.0
 11
62.82683792272304
 21
7.659558347476449
 31
0.0
 12
60.11792353511345
 22
5.692872399395391
 32
0.0
 13
60.11792353511345
 23
5.692872399395391
 33
0.0
  0
POINT
  5
18C
330
185
100
AcDbEntity
  8
Defpoints
 62
     0
100
AcDbPoint
 10
60.11792353511345
 20
5.692872399395391
 30
0.0
  0
POINT
  5
18D
330
185
100
AcDbEntity
  8
Defpoints
 62
     0
100
AcDbPoint
 10
58.51400000000091
 20
4.064000000000004
 30
0.0
  0
ENDBLK
  5
187
330
185
100
AcDbEntity
  8
0
100
AcDbBlockEnd
  0
ENDSEC
  0
SECTION
  2
ENTITIES
  0
LINE
  5
95
330
1F
100
AcDbEntity
  8
0
  6
Continuous
 62
     4
370
    15
100
AcDbLine
 10
7.968918724831223
 20
6.350000000000003
 30
0.0
 11
-40.29999999999909
 21
6.350000000000001
 31
0.0
  0
LINE
  5
96
102
{ACAD_REACTORS
102
}
330
1F
100
AcDbEntity
  8
0
  6
Continuous
 62
     4
370
    15
100
AcDbLine
 10
-40.29999999999909
 20
-6.349999999999999
 30
0.0
 11
7.969922318234613
 21
-6.349999999999996
 31
0.0
  0
LINE
  5
97
102
{ACAD_REACTORS
102
}
330
1F
100
AcDbEntity
  8
0
  6
Continuous
 62
     4
370
    15
100
AcDbLine
 10
-40.29999999999909
 20
6.349999999999998
 30
0.0
 11
-40.79999999999909
 21
5.849999999999999
 31
0.0
  0
LINE
  5
98
330
1F
100
AcDbEntity
  8
0
  6
Continuous
 62
     4
370
    15
100
AcDbLine
 10
-40.79999999999909
 20
-5.85
 30
0.0
 11
-40.29999999999909
 21
-6.349999999999996
 31
0.0
  0
LINE
  5
99
330
1F
100
AcDbEntity
  8
0
  6
Continuous
 62
     1
370
    15
100
AcDbLine
 10
7.96953855557983
 20
-6.349961764403416
 30
0.0
 11
7.96953855550377
 21
-6.349948107668582
 31
0.0
  0
LINE
  5
9A
330
1F
100
AcDbEntity
  8
0
  6
Continuous
 62
     1
370
    15
100
AcDbLine
 10
7.969538555644339
 20
6.34997606258966
 30
0.0
 11
7.969538642885927
 21
6.350428259443798
 31
0.0
  0
LINE
  5
9B
330
1F
100
AcDbEntity
  8
0
  6
Continuous
 62
     1
370
    15
100
AcDbLine
 10
38.1026852893097
 20
-6.349999999999996
 30
0.0
 11
40.27336287210466
 21
-6.349999999999996
 31
0.0
  0
LINE
  5
9C
330
1F
100
AcDbEntity
  8
0
  6
Continuous
 62
     1
370
    15
100
AcDbLine
 10
20.32444059473442
 20
6.350000000000003
 30
0.0
 11
18.15309546213294
 21
6.350000000000003
 31
0.0
  0
LINE
  5
9D
330
1F
100
AcDbEntity
  8
0
  6
Continuous
 62
     1
370
    15
100
AcDbLine
 10
58.51400000000091
 20
6.350000000000003
 30
0.0
 11
58.05115668758192
 21
6.350000000000003
 31
0.0
  0
LINE
  5
9E
330
1F
100
AcDbEntity
  8
0
  6
Continuous
 62
     1
370
    15
100
AcDbLine
 10
31.45280445488657
 20
-6.349999999999996
 30
0.0
 11
33.62367886827741
 21
-6.349999999999996
 31
0.0
  0
LINE
  5
9F
330
1F
100
AcDbEntity
  8
0
  6
Continuous
 62
     1
370
    15
100
AcDbLine
 10
13.67471373604594
 20
6.350000000000003
 30
0.0
 11
11.50359362960315
 21
6.350000000000003
 31
0.0
  0
LINE
  5
A0
330
1F
100
AcDbEntity
  8
0
  6
Continuous
 62
     1
370
    15
100
AcDbLine
 10
53.57287903403639
 20
6.350000000000003
 30
0.0
 11
51.40246300812277
 21
6.350000000000003
 31
0.0
  0
LINE
  5
A1
330
1F
100
AcDbEntity
  8
0
  6
Continuous
 62
     1
370
    15
100
AcDbLine
 10
51.40246300812274
 20
-6.349999999999996
 30
0.0
 11
53.57287903403638
 21
-6.349999999999996
 31
0.0
  0
LINE
  5
A2
330
1F
100
AcDbEntity
  8
0
  6
Continuous
 62
     1
370
    15
100
AcDbLine
 10
11.50359362960312
 20
-6.349999999999996
 30
0.0
 11
13.67471373604594
 21
-6.349999999999996
 31
0.0
  0
LINE
  5
A3
330
1F
100
AcDbEntity
  8
0
  6
Continuous
 62
     1
370
    15
100
AcDbLine
 10
33.6236788682774
 20
6.350000000000003
 30
0.0
 11
31.45280445488652
 21
6.350000000000003
 31
0.0
  0
LINE
  5
A4
330
1F
100
AcDbEntity
  8
0
  6
Continuous
 62
     1
370
    15
100
AcDbLine
 10
44.75257391520902
 20
-6.349999999999996
 30
0.0
 11
46.92309504059327
 21
-6.349999999999996
 31
0.0
  0
LINE
  5
A5
330
1F
100
AcDbEntity
  8
0
  6
Continuous
 62
     1
370
    15
100
AcDbLine
 10
26.9740393444031
 20
6.350000000000003
 30
0.0
 11
24.80293873793297
 21
6.350000000000003
 31
0.0
  0
LINE
  5
A6
330
1F
100
AcDbEntity
  8
0
  6
Continuous
 62
     1
370
    15
100
AcDbLine
 10
24.802938737933
 20
-6.349999999999996
 30
0.0
 11
26.97403934440313
 21
-6.349999999999996
 31
0.0
  0
LINE
  5
A7
330
1F
100
AcDbEntity
  8
0
  6
Continuous
 62
     1
370
    15
100
AcDbLine
 10
46.9230950405933
 20
6.350000000000003
 30
0.0
 11
44.75257391520908
 21
6.350000000000003
 31
0.0
  0
LINE
  5
A8
330
1F
100
AcDbEntity
  8
0
  6
Continuous
 62
     1
370
    15
100
AcDbLine
 10
58.0511566875819
 20
-6.349999999999996
 30
0.0
 11
58.5140000000009
 21
-6.349999999999996
 31
0.0
  0
LINE
  5
A9
330
1F
100
AcDbEntity
  8
0
  6
Continuous
 62
     1
370
    15
100
AcDbLine
 10
18.15309546213293
 20
-6.349999999999996
 30
0.0
 11
20.32444059473448
 21
-6.349999999999996
 31
0.0
  0
LINE
  5
AA
330
1F
100
AcDbEntity
  8
0
  6
Continuous
 62
     1
370
    15
100
AcDbLine
 10
40.27336287210471
 20
6.350000000000003
 30
0.0
 11
38.10268528930969
 21
6.350000000000003
 31
0.0
  0
SPLINE
  5
AD
330
1F
100
AcDbEntity
  8
0
  6
Continuous
 62
     4
370
    15
100
AcDbSpline
210
0.0
220
0.0
230
1.0
 70
     8
 71
     3
 72
    11
 73
     7
 74
     0
 42
0.000000001
 43
0.00000001
 40
0.0
 40
0.0
 40
0.0
 40
0.0
 40
0.2657769111197724
 40
0.52162145853172
 40
0.7760994503009737
 40
1.0
 40
1.0
 40
1.0
 40
1.0
 10
8.533639576893133
 20
6.164620831384454
 30
0.0
 10
8.655089868461811
 20
6.146628006969565
 30
0.0
 10
8.893451726007093
 20
6.111314768980397
 30
0.0
 10
9.309063772490035
 20
6.099537018544535
 30
0.0
 10
9.69455584613862
 20
6.123097100967954
 30
0.0
 10
9.902618325375666
 20
6.158179541259098
 30
0.0
 10
10.00000000000082
 20
6.174599545471373
 30
0.0
  0
SPLINE
  5
AE
330
1F
100
AcDbEntity
  8
0
  6
Continuous
 62
     4
370
    15
100
AcDbSpline
210
0.0
220
0.0
230
1.0
 70
     8
 71
     3
 72
    14
 73
    10
 74
     0
 42
0.000000001
 43
0.00000001
 40
0.0
 40
0.0
 40
0.0
 40
0.0
 40
0.25
 40
0.25
 40
0.5
 40
0.5
 40
0.75
 40
0.75
 40
1.0
 40
1.0
 40
1.0
 40
1.0
 10
8.392332177128452
 20
6.20343252977373
 30
0.0
 10
8.303075936625802
 20
6.222444759546274
 30
0.0
 10
8.229639753907364
 20
6.241982760733679
 30
0.0
 10
8.110515386757235
 20
6.27872161313053
 30
0.0
 10
8.066098364329847
 20
6.295623215700586
 30
0.0
 10
8.00468779147143
 20
6.322936965109045
 30
0.0
 10
7.987230266638961
 20
6.333562523223923
 30
0.0
 10
7.969675496850249
 20
6.347245062128013
 30
0.0
 10
7.969538555503751
 20
6.350449537904988
 30
0.0
 10
7.969538555503751
 20
6.349949231219966
 30
0.0
  0
SPLINE
  5
AF
330
1F
100
AcDbEntity
  8
0
  6
Continuous
 62
     4
370
    15
100
AcDbSpline
210
0.0
220
0.0
230
1.0
 70
     8
 71
     3
 72
    10
 73
     6
 74
     0
 42
0.000000001
 43
0.00000001
 40
0.0
 40
0.0
 40
0.0
 40
0.0
 40
0.5000000000000001
 40
0.5000000000000001
 40
1.0
 40
1.0
 40
1.0
 40
1.0
 10
10.00000000000092
 20
5.665848385709541
 30
0.0
 10
9.73091179377614
 20
5.787014932569014
 30
0.0
 10
9.463201454723492
 20
5.892772931214326
 30
0.0
 10
8.930741626273516
 20
6.072085264782289
 30
0.0
 10
8.661457791733874
 20
6.146106812336598
 30
0.0
 10
8.392332177128448
 20
6.20343252977373
 30
0.0
  0
SPLINE
  5
B0
330
1F
100
AcDbEntity
  8
0
  6
Continuous
 62
     4
370
    15
100
AcDbSpline
210
0.0
220
0.0
230
1.0
 70
     8
 71
     3
 72
    20
 73
    16
 74
     0
 42
0.000000001
 43
0.00000001
 40
0.0
 40
0.0
 40
0.0
 40
0.0
 40
0.1250000000000001
 40
0.1250000000000001
 40
0.2500000000000002
 40
0.2500000000000002
 40
0.3750000000000003
 40
0.3750000000000003
 40
0.5000000000000004
 40
0.5000000000000004
 40
0.7500000000000002
 40
0.7500000000000002
 40
0.8750000000000001
 40
0.8750000000000001
 40
1.0
 40
1.0
 40
1.0
 40
1.0
 10
7.969538555503745
 20
3.196964856556438
 30
0.0
 10
7.969538555503745
 20
3.314302316225285
 30
0.0
 10
7.969810769528207
 20
3.429190662140583
 30
0.0
 10
7.991938531124346
 20
3.652565481188819
 30
0.0
 10
8.013628990838399
 20
3.761949854289568
 30
0.0
 10
8.090971909551474
 20
3.969732131970593
 30
0.0
 10
8.14532229503498
 20
4.065689180258108
 30
0.0
 10
8.293494376991607
 20
4.240700776522333
 30
0.0
 10
8.383226189001654
 20
4.315103516775525
 30
0.0
 10
8.702252472337353
 20
4.50104143192453
 30
0.0
 10
8.97254165935571
 20
4.566176362469021
 30
0.0
 10
9.381980461705403
 20
4.564752408067315
 30
0.0
 10
9.51745906307955
 20
4.54805221814012
 30
0.0
 10
9.774258285663365
 20
4.482589998119439
 30
0.0
 10
9.893824529656253
 20
4.434277214408647
 30
0.0
 10
10.00000000000082
 20
4.37089446725516
 30
0.0
  0
SPLINE
  5
B1
330
1F
100
AcDbEntity
  8
0
  6
Continuous
 62
     4
370
    15
100
AcDbSpline
210
0.0
220
0.0
230
1.0
 70
     8
 71
     3
 72
    14
 73
    10
 74
     0
 42
0.000000001
 43
0.00000001
 40
0.0
 40
0.0
 40
0.0
 40
0.0
 40
0.25
 40
0.25
 40
0.5
 40
0.5
 40
0.75
 40
0.75
 40
1.0
 40
1.0
 40
1.0
 40
1.0
 10
8.392332177128438
 20
1.927006242622276
 30
0.0
 10
8.303075936625792
 20
2.011812484177577
 30
0.0
 10
8.229639753907357
 20
2.10652590852576
 30
0.0
 10
8.110515386757232
 20
2.312231456864896
 30
0.0
 10
8.066098364329843
 20
2.422095950578337
 30
0.0
 10
8.00468779147143
 20
2.643619013882363
 30
0.0
 10
7.987230266638959
 20
2.756919060743853
 30
0.0
 10
7.969675496850249
 20
2.979051743536525
 30
0.0
 10
7.969538555503745
 20
3.088862784761927
 30
0.0
 10
7.969538555503743
 20
3.196964856553293
 30
0.0
  0
SPLINE
  5
B2
330
1F
100
AcDbEntity
  8
0
  6
Continuous
 62
     4
370
    15
100
AcDbSpline
210
0.0
220
0.0
230
1.0
 70
     8
 71
     3
 72
    10
 73
     6
 74
     0
 42
0.000000001
 43
0.00000001
 40
0.0
 40
0.0
 40
0.0
 40
0.0
 40
0.5
 40
0.5
 40
1.0
 40
1.0
 40
1.0
 40
1.0
 10
10.00000000000092
 20
0.3498823984794684
 30
0.0
 10
9.73091179377614
 20
0.6178256382660445
 30
0.0
 10
9.463201454723485
 20
0.8843675843895692
 30
0.0
 10
8.930741626273505
 20
1.410362195297977
 30
0.0
 10
8.661457791733866
 20
1.671298274726524
 30
0.0
 10
8.392332177128438
 20
1.927006242622275
 30
0.0
  0
SPLINE
  5
B3
330
1F
100
AcDbEntity
  8
0
  6
Continuous
 62
     4
370
    15
100
AcDbSpline
210
0.0
220
0.0
230
1.0
 70
     8
 71
     3
 72
    20
 73
    16
 74
     0
 42
0.000000001
 43
0.00000001
 40
0.0
 40
0.0
 40
0.0
 40
0.0
 40
0.125
 40
0.125
 40
0.25
 40
0.25
 40
0.375
 40
0.375
 40
0.5
 40
0.5
 40
0.75
 40
0.75
 40
0.875
 40
0.875
 40
1.0
 40
1.0
 40
1.0
 40
1.0
 10
7.969538555503747
 20
-3.152984374670946
 30
0.0
 10
7.969538555503747
 20
-3.035103866062323
 30
0.0
 10
7.969810769528209
 20
-2.915301082328145
 30
0.0
 10
7.991938531124348
 20
-2.673664625876085
 30
0.0
 10
8.013628990838399
 20
-2.550789628892661
 30
0.0
 10
8.09097190955147
 20
-2.308810355229033
 30
0.0
 10
8.145322295034976
 20
-2.192618676790199
 30
0.0
 10
8.293494376991603
 20
-1.974067017907504
 30
0.0
 10
8.383226189001654
 20
-1.877578408309906
 30
0.0
 10
8.70225247233735
 20
-1.631399099195289
 30
0.0
 10
8.972541659355706
 20
-1.538482368823949
 30
0.0
 10
9.3819804617054
 20
-1.540469848257938
 30
0.0
 10
9.51745906307955
 20
-1.563931165758478
 30
0.0
 10
9.774258285663361
 20
-1.653995806409869
 30
0.0
 10
9.893824529656253
 20
-1.719927582602295
 30
0.0
 10
10.00000000000082
 20
-1.803705078216185
 30
0.0
  0
SPLINE
  5
B4
330
1F
100
AcDbEntity
  8
0
  6
Continuous
 62
     4
370
    15
100
AcDbSpline
210
0.0
220
0.0
230
1.0
 70
     8
 71
     3
 72
    14
 73
    10
 74
     0
 42
0.000000001
 43
0.00000001
 40
0.0
 40
0.0
 40
0.0
 40
0.0
 40
0.2499999999999997
 40
0.2499999999999997
 40
0.4999999999999993
 40
0.4999999999999993
 40
0.7499999999999997
 40
0.7499999999999997
 40
1.0
 40
1.0
 40
1.0
 40
1.0
 10
8.392332177128438
 20
-4.276426287151428
 30
0.0
 10
8.303075936625792
 20
-4.21063227536867
 30
0.0
 10
8.229639753907357
 20
-4.135456852207895
 30
0.0
 10
8.110515386757232
 20
-3.966490156265607
 30
0.0
 10
8.066098364329843
 20
-3.873527265122222
 30
0.0
 10
8.004687791471433
 20
-3.679317951226655
 30
0.0
 10
7.987230266638963
 20
-3.576643462480045
 30
0.0
 10
7.969675496850253
 20
-3.368193318591463
 30
0.0
 10
7.969538555503742
 20
-3.261586753143038
 30
0.0
 10
7.969538555503742
 20
-3.152984374666651
 30
0.0
  0
SPLINE
  5
B5
330
1F
100
AcDbEntity
  8
0
  6
Continuous
 62
     4
370
    15
100
AcDbSpline
210
0.0
220
0.0
230
1.0
 70
     8
 71
     3
 72
    10
 73
     6
 74
     0
 42
0.000000001
 43
0.00000001
 40
0.0
 40
0.0
 40
0.0
 40
0.0
 40
0.5
 40
0.5
 40
1.0
 40
1.0
 40
1.0
 40
1.0
 10
10.00000000000092
 20
-5.315965987230046
 30
0.0
 10
9.73091179377614
 20
-5.16918929430294
 30
0.0
 10
9.463201454723489
 20
-5.008405346824734
 30
0.0
 10
8.930741626273505
 20
-4.661723069484285
 30
0.0
 10
8.661457791733866
 20
-4.474808537610047
 30
0.0
 10
8.392332177128441
 20
-4.276426287151428
 30
0.0
  0
SPLINE
  5
B6
330
1F
100
AcDbEntity
  8
0
  6
Continuous
 62
     4
370
    15
100
AcDbSpline
210
0.0
220
0.0
230
1.0
 70
     8
 71
     3
 72
    20
 73
    16
 74
     0
 42
0.000000001
 43
0.00000001
 40
0.0
 40
0.0
 40
0.0
 40
0.0
 40
0.1250000000000001
 40
0.1250000000000001
 40
0.2500000000000002
 40
0.2500000000000002
 40
0.3750000000000001
 40
0.3750000000000001
 40
0.5000000000000001
 40
0.5000000000000001
 40
0.75
 40
0.75
 40
0.875
 40
0.875
 40
1.0
 40
1.0
 40
1.0
 40
1.0
 10
7.969538555503747
 20
-6.349949231227402
 30
0.0
 10
7.969538555503747
 20
-6.349406182287626
 30
0.0
 10
7.969810769528209
 20
-6.344491744468747
 30
0.0
 10
7.991938531124348
 20
-6.326230107064926
 30
0.0
 10
8.013628990838399
 20
-6.312739483182251
 30
0.0
 10
8.090971909551474
 20
-6.278542487199648
 30
0.0
 10
8.14532229503498
 20
-6.258307857048332
 30
0.0
 10
8.29349437699161
 20
-6.214767794429862
 30
0.0
 10
8.383226189001658
 20
-6.192681925085459
 30
0.0
 10
8.70225247233736
 20
-6.13244053111985
 30
0.0
 10
8.972541659355716
 20
-6.104658731293003
 30
0.0
 10
9.381980461705407
 20
-6.105222256325288
 30
0.0
 10
9.517459063079553
 20
-6.111983383898631
 30
0.0
 10
9.774258285663365
 20
-6.136585804529343
 30
0.0
 10
9.893824529656253
 20
-6.154204797010977
 30
0.0
 10
10.00000000000082
 20
-6.174599545471377
 30
0.0
  0
SPLINE
  5
B7
330
1F
100
AcDbEntity
  8
0
  6
Continuous
 62
     4
370
    15
100
AcDbSpline
210
0.0
220
0.0
230
1.0
 70
     8
 71
     3
 72
    14
 73
    10
 74
     0
 42
0.000000001
 43
0.00000001
 40
0.0
 40
0.0
 40
0.0
 40
0.0
 40
0.2500000000000001
 40
0.2500000000000001
 40
0.5000000000000001
 40
0.5000000000000001
 40
0.75
 40
0.75
 40
1.0
 40
1.0
 40
1.0
 40
1.0
 10
8.392332177128438
 20
-6.203432529773715
 30
0.0
 10
8.303075936625792
 20
-6.222444759546261
 30
0.0
 10
8.229639753907357
 20
-6.241982760733666
 30
0.0
 10
8.110515386757232
 20
-6.278721613130518
 30
0.0
 10
8.066098364329843
 20
-6.295623215700572
 30
0.0
 10
8.00468779147143
 20
-6.32293696510903
 30
0.0
 10
7.987230266638961
 20
-6.333562523223913
 30
0.0
 10
7.969675496850251
 20
-6.347245062128006
 30
0.0
 10
7.969538555503743
 20
-6.350449537904979
 30
0.0
 10
7.969538555503743
 20
-6.34994923121996
 30
0.0
  0
LINE
  5
B8
330
1F
100
AcDbEntity
  8
0
  6
Continuous
 62
     4
370
    15
100
AcDbLine
 10
8.533639576892977
 20
-6.16462083138448
 30
0.0
 11
8.392332177128441
 21
-6.203432529773715
 31
0.0
  0
LINE
  5
B9
330
1F
100
AcDbEntity
  8
0
  6
Continuous
 62
     4
370
    15
100
AcDbLine
 10
-40.29999999999909
 20
6.349999999999998
 30
0.0
 11
-40.29999999999909
 21
-6.349999999999999
 31
0.0
  0
LINE
  5
BA
330
1F
100
AcDbEntity
  8
0
  6
Continuous
 62
     1
370
    15
100
AcDbLine
 10
10.00000000000092
 20
-5.315965987230046
 30
0.0
 11
10.00000000000092
 21
-6.174599545471319
 31
0.0
  0
LINE
  5
BB
330
1F
100
AcDbEntity
  8
0
  6
Continuous
 62
     1
370
    15
100
AcDbLine
 10
10.00000000000092
 20
0.349882398479469
 30
0.0
 11
10.00000000000092
 21
-1.803705078215947
 31
0.0
  0
LINE
  5
BC
330
1F
100
AcDbEntity
  8
0
  6
Continuous
 62
     1
370
    15
100
AcDbLine
 10
10.00000000000092
 20
5.665848385709541
 30
0.0
 11
10.00000000000092
 21
4.370894467255338
 31
0.0
  0
LINE
  5
BD
330
1F
100
AcDbEntity
  8
0
  6
Continuous
 62
     4
370
    15
100
AcDbLine
 10
-40.79999999999909
 20
5.849999999999999
 30
0.0
 11
-40.79999999999909
 21
-5.85
 31
0.0
  0
SPLINE
  5
BE
330
1F
100
AcDbEntity
  8
0
  6
Continuous
 62
     1
370
    15
100
AcDbSpline
210
0.0
220
0.0
230
1.0
 70
    24
 71
     3
 72
    14
 73
    10
 74
     0
 42
0.000000001
 43
0.00000001
 40
0.0
 40
0.0
 40
0.0
 40
0.0
 40
0.25
 40
0.25
 40
0.4999999999999999
 40
0.4999999999999999
 40
0.75
 40
0.75
 40
1.0
 40
1.0
 40
1.0
 40
1.0
 10
10.00000000000092
 20
3.925872305406013
 30
0.0
 10
10.00000000000092
 20
3.67415714996482
 30
0.0
 10
10.00000000000092
 20
3.389135429014289
 30
0.0
 10
10.00000000000092
 20
2.763437385568286
 30
0.0
 10
10.00000000000092
 20
2.422133815012018
 30
0.0
 10
10.00000000000092
 20
1.733092133707621
 30
0.0
 10
10.00000000000092
 20
1.38607840590513
 30
0.0
 10
10.00000000000092
 20
0.7788519773087202
 30
0.0
 10
10.00000000000092
 20
0.5212760141486605
 30
0.0
 10
10.00000000000092
 20
0.3498823984794699
 30
0.0
  0
SPLINE
  5
C0
330
1F
100
AcDbEntity
  8
0
  6
Continuous
 62
     1
370
    15
100
AcDbSpline
210
0.0
220
0.0
230
1.0
 70
    24
 71
     3
 72
     8
 73
     4
 74
     0
 42
0.000000001
 43
0.00000001
 40
0.0
 40
0.0
 40
0.0
 40
0.0
 40
1.0
 40
1.0
 40
1.0
 40
1.0
 10
10.00000000000092
 20
-1.803705078215971
 30
0.0
 10
10.00000000000092
 20
-1.825902087095915
 30
0.0
 10
10.00000000000092
 20
-1.860447195608678
 30
0.0
 10
10.00000000000092
 20
-1.908928205366589
 30
0.0
  0
SPLINE
  5
C1
330
1F
100
AcDbEntity
  8
0
  6
Continuous
 62
     1
370
    15
100
AcDbSpline
210
0.0
220
0.0
230
1.0
 70
    24
 71
     3
 72
     8
 73
     4
 74
     0
 42
0.000000001
 43
0.00000001
 40
0.0
 40
0.0
 40
0.0
 40
0.0
 40
1.0
 40
1.0
 40
1.0
 40
1.0
 10
10.00000000000092
 20
4.370894467255398
 30
0.0
 10
10.00000000000092
 20
4.226402674300298
 30
0.0
 10
10.00000000000092
 20
4.078220146830363
 30
0.0
 10
10.00000000000092
 20
3.925872305405795
 30
0.0
  0
SPLINE
  5
C2
330
1F
100
AcDbEntity
  8
0
  6
Continuous
 62
     1
370
    15
100
AcDbSpline
210
0.0
220
0.0
230
1.0
 70
    24
 71
     3
 72
    14
 73
    10
 74
     0
 42
0.000000001
 43
0.00000001
 40
0.0
 40
0.0
 40
0.0
 40
0.0
 40
0.25
 40
0.25
 40
0.4999999999999999
 40
0.4999999999999999
 40
0.7499999999999998
 40
0.7499999999999998
 40
1.0
 40
1.0
 40
1.0
 40
1.0
 10
10.00000000000092
 20
-1.90892820536652
 30
0.0
 10
10.00000000000092
 20
-1.989030455539518
 30
0.0
 10
10.00000000000092
 20
-2.107101091791841
 30
0.0
 10
10.00000000000092
 20
-2.453702120337828
 30
0.0
 10
10.00000000000092
 20
-2.683386223731997
 30
0.0
 10
10.00000000000092
 20
-3.270577777254742
 30
0.0
 10
10.00000000000092
 20
-3.629229508669691
 30
0.0
 10
10.00000000000092
 20
-4.434350429024149
 30
0.0
 10
10.00000000000092
 20
-4.879656978922019
 30
0.0
 10
10.00000000000092
 20
-5.315965987230045
 30
0.0
  0
LINE
  5
C3
330
1F
100
AcDbEntity
  8
0
  6
Continuous
 62
     4
370
    15
100
AcDbLine
 10
10.00000000000092
 20
5.834800510772568
 30
0.0
 11
10.00000000000092
 21
5.736302716350465
 31
0.0
  0
SPLINE
  5
C4
330
1F
100
AcDbEntity
  8
0
  6
Continuous
 62
     1
370
    15
100
AcDbSpline
210
0.0
220
0.0
230
1.0
 70
    24
 71
     3
 72
     8
 73
     4
 74
     0
 42
0.000000001
 43
0.00000001
 40
0.0
 40
0.0
 40
0.0
 40
0.0
 40
1.0
 40
1.0
 40
1.0
 40
1.0
 10
10.00000000000092
 20
6.174599545471398
 30
0.0
 10
10.00000000000092
 20
6.052304761396245
 30
0.0
 10
10.00000000000092
 20
5.938667342439071
 30
0.0
 10
10.00000000000092
 20
5.834800510772415
 30
0.0
  0
SPLINE
  5
C5
330
1F
100
AcDbEntity
  8
0
  6
Continuous
 62
     1
370
    15
100
AcDbSpline
210
0.0
220
0.0
230
1.0
 70
     8
 71
     3
 72
    16
 73
    12
 74
     0
 42
0.000000001
 43
0.00000001
 40
0.0
 40
0.0
 40
0.0
 40
0.0
 40
0.1249999999999999
 40
0.1249999999999999
 40
0.1874999999999999
 40
0.1874999999999999
 40
0.25
 40
0.25
 40
0.3750000000000002
 40
0.3750000000000002
 40
0.3917493247308143
 40
0.3917493247308143
 40
0.3917493247308143
 40
0.3917493247308143
 10
59.27600000000093
 20
-4.170093950152309
 30
0.0
 10
59.49151193410274
 20
-4.333125107346742
 30
0.0
 10
59.69213825115234
 20
-4.462933279110272
 30
0.0
 10
59.97121553394717
 20
-4.606622155929873
 30
0.0
 10
60.05843292798892
 20
-4.644978823721021
 30
0.0
 10
60.22084205107429
 20
-4.704893527891888
 30
0.0
 10
60.29647609332191
 20
-4.726477394247508
 30
0.0
 10
60.49860133830626
 20
-4.769673744585441
 30
0.0
 10
60.59910231300283
 20
-4.768772182216769
 30
0.0
 10
60.67281116906986
 20
-4.769338894758605
 30
0.0
 10
60.68086861564631
 20
-4.769479320419947
 30
0.0
 10
60.68832248971231
 20
-4.769774546675663
 30
0.0
  0
SPLINE
  5
C6
330
1F
100
AcDbEntity
  8
0
  6
Continuous
 62
     1
370
    15
100
AcDbSpline
210
0.0
220
0.0
230
1.0
 70
     8
 71
     3
 72
    24
 73
    20
 74
     0
 42
0.000000001
 43
0.00000001
 40
0.0059834152206377
 40
0.0059834152206377
 40
0.0059834152206377
 40
0.0059834152206377
 40
0.0668368981501857
 40
0.1336134409360866
 40
0.2004086864627451
 40
0.2672991009721707
 40
0.3252391711259501
 40
0.3830870149463607
 40
0.4410693447548089
 40
0.4990010887596744
 40
0.5568501050356325
 40
0.6148390640532524
 40
0.6727628681513116
 40
0.7306134476024649
 40
0.7886082745553643
 40
0.846524525417866
 40
0.9043770586791302
 40
0.9623769918897795
 40
0.9999999999999999
 40
0.9999999999999999
 40
0.9999999999999999
 40
0.9999999999999999
 10
59.16226217050966
 20
-6.256156964792252
 30
0.0
 10
58.77667802460126
 20
-6.176469549704962
 30
0.0
 10
57.9680026566517
 20
-6.001360891317624
 30
0.0
 10
56.73692867685585
 20
-5.449896325782785
 30
0.0
 10
55.4675280680374
 20
-4.68192298222866
 30
0.0
 10
54.25260018048668
 20
-3.76555058252656
 30
0.0
 10
53.09515108796177
 20
-2.767180844470149
 30
0.0
 10
51.99594696000769
 20
-1.732446364547065
 30
0.0
 10
50.8941845580117
 20
-0.6484192845352433
 30
0.0
 10
49.79338336977739
 20
0.4559914483496939
 30
0.0
 10
48.69415707971125
 20
1.548340801120963
 30
0.0
 10
47.59226933843497
 20
2.591645699817731
 30
0.0
 10
46.49161962189815
 20
3.558533921226914
 30
0.0
 10
45.39236305759858
 20
4.419944276842879
 30
0.0
 10
44.29036748917597
 20
5.146334280403516
 30
0.0
 10
43.18985006466326
 20
5.72172760411322
 30
0.0
 10
42.09059990972192
 20
6.118253204042214
 30
0.0
 10
41.11703019272667
 20
6.331064189707261
 30
0.0
 10
40.51157876220577
 20
6.329090516688362
 30
0.0
 10
40.2733628721047
 20
6.328313971698515
 30
0.0
  0
SPLINE
  5
C7
330
1F
100
AcDbEntity
  8
0
  6
Continuous
 62
     1
370
    15
100
AcDbSpline
210
0.0
220
0.0
230
1.0
 70
     8
 71
     3
 72
    19
 73
    15
 74
     0
 42
0.000000001
 43
0.00000001
 40
0.0
 40
0.0
 40
0.0
 40
0.0
 40
0.0227110557056517
 40
0.1104469896300886
 40
0.1979707120733234
 40
0.2854988194066279
 40
0.3732344018923852
 40
0.4607513992219049
 40
0.5482871789543908
 40
0.6360212560804251
 40
0.7269539575588623
 40
0.8178920752696942
 40
0.9090344653154026
 40
1.0
 40
1.0
 40
1.0
 40
1.0
 10
22.56535455473256
 20
-5.942063464282644
 30
0.0
 10
22.47029263362063
 20
-5.979995429751098
 30
0.0
 10
22.00799342783544
 20
-6.164463798418814
 30
0.0
 10
21.17722446337901
 20
-6.315461274703385
 30
0.0
 10
20.07761722198221
 20
-6.379421921730997
 30
0.0
 10
18.97783061076823
 20
-6.23779317261631
 30
0.0
 10
17.87546895952264
 20
-5.913781255206473
 30
0.0
 10
16.77585171622313
 20
-5.41069633884473
 30
0.0
 10
15.67597479022388
 20
-4.745491949468635
 30
0.0
 10
14.55934791218553
 20
-3.929383133670769
 30
0.0
 10
13.43104837562186
 20
-2.977253180170917
 30
0.0
 10
12.28838052483203
 20
-1.916926136730738
 30
0.0
 10
11.1431063241077
 20
-0.7960404398374548
 30
0.0
 10
10.38078866469399
 20
-0.0318444962474585
 30
0.0
 10
10.00000000000092
 20
0.3498823984794678
 30
0.0
  0
SPLINE
  5
C8
330
1F
100
AcDbEntity
  8
0
  6
Continuous
 62
     1
370
    15
100
AcDbSpline
210
0.0
220
0.0
230
1.0
 70
    24
 71
     3
 72
    16
 73
    12
 74
     0
 42
0.000000001
 43
0.00000001
 40
0.0
 40
0.0
 40
0.0
 40
0.0
 40
0.25
 40
0.25
 40
0.4999999999999999
 40
0.4999999999999999
 40
0.7499999999999998
 40
0.7499999999999998
 40
0.8749999999999999
 40
0.8749999999999999
 40
1.0
 40
1.0
 40
1.0
 40
1.0
 10
10.00000000000092
 20
4.376597104161864
 30
0.0
 10
10.00000000000092
 20
4.131454794238257
 30
0.0
 10
10.00000000000092
 20
3.844347031309928
 30
0.0
 10
10.00000000000092
 20
3.183067282005588
 30
0.0
 10
10.00000000000092
 20
2.807364753973258
 30
0.0
 10
10.00000000000092
 20
2.016679791646098
 30
0.0
 10
10.00000000000092
 20
1.601974150627208
 30
0.0
 10
10.00000000000092
 20
1.049733879446812
 30
0.0
 10
10.00000000000092
 20
0.8779600247799997
 30
0.0
 10
10.00000000000092
 20
0.5777556944085753
 30
0.0
 10
10.00000000000092
 20
0.4495091450740153
 30
0.0
 10
10.00000000000092
 20
0.3498823984794699
 30
0.0
  0
SPLINE
  5
C9
330
1F
100
AcDbEntity
  8
0
  6
Continuous
 62
     1
370
    15
100
AcDbSpline
210
0.0
220
0.0
230
1.0
 70
     8
 71
     3
 72
    21
 73
    17
 74
     0
 42
0.000000001
 43
0.00000001
 40
0.0
 40
0.0
 40
0.0
 40
0.0
 40
0.0772121579907881
 40
0.1545744320022321
 40
0.231763318281187
 40
0.3089476072256361
 40
0.3834168822947042
 40
0.4577178412016917
 40
0.5320028574786462
 40
0.6064734103071786
 40
0.6807678568301099
 40
0.755058581428843
 40
0.8295294325608917
 40
0.9038178662945062
 40
0.9781147990113104
 40
1.0
 40
1.0
 40
1.0
 40
1.0
 10
10.0000000000015
 20
4.376597104168055
 30
0.0
 10
10.38078866451098
 20
4.086676809423418
 30
0.0
 10
11.14310632355717
 20
3.506272556359819
 30
0.0
 10
12.28838052703913
 20
2.48661379278181
 30
0.0
 10
13.43104836736791
 20
1.394697574425075
 30
0.0
 10
14.55934794254289
 20
0.2689237519427188
 30
0.0
 10
15.67597468145632
 20
-0.8470760461229254
 30
0.0
 10
16.77585212157496
 20
-1.926012187064774
 30
0.0
 10
17.8754674452497
 20
-2.947312529789622
 30
0.0
 10
18.97783627226824
 20
-3.877857961747779
 30
0.0
 10
20.07759615075892
 20
-4.694711750838406
 30
0.0
 10
21.17730318419717
 20
-5.36956889083703
 30
0.0
 10
22.27966922484734
 20
-5.886056119081428
 30
0.0
 10
23.37936152600589
 20
-6.213265157729332
 30
0.0
 10
24.21982415472056
 20
-6.361059882854054
 30
0.0
 10
24.69485143431007
 20
-6.335915625891197
 30
0.0
 10
24.802938737933
 20
-6.330194323023989
 30
0.0
  0
SPLINE
  5
CA
330
1F
100
AcDbEntity
  8
0
  6
Continuous
 62
     1
370
    15
100
AcDbSpline
210
0.0
220
0.0
230
1.0
 70
     8
 71
     3
 72
    22
 73
    18
 74
     0
 42
0.000000001
 43
0.00000001
 40
0.0
 40
0.0
 40
0.0
 40
0.0
 40
0.0403350096733539
 40
0.1059919359109988
 40
0.1717379401620589
 40
0.2373204178132264
 40
0.3029859067983293
 40
0.3687252588474938
 40
0.4343059644005542
 40
0.4999804544841009
 40
0.565712291311007
 40
0.631291667706426
 40
0.6969755967529057
 40
0.7728061097099233
 40
0.8485287340728318
 40
0.9242301560192847
 40
1.0
 40
1.0
 40
1.0
 40
1.0
 10
42.513993839218
 20
5.938077500715516
 30
0.0
 10
42.73920418550649
 20
6.017771620346831
 30
0.0
 10
43.33100968607818
 20
6.227191032635356
 30
0.0
 10
44.29033659202097
 20
6.360225020549175
 30
0.0
 10
45.39237131790959
 20
6.350972117402306
 30
0.0
 10
46.49161740783916
 20
6.143486217229828
 30
0.0
 10
47.5922699327964
 20
5.754005752913431
 30
0.0
 10
48.69415692081277
 20
5.192416032686947
 30
0.0
 10
49.79338341237724
 20
4.473762146588704
 30
0.0
 10
50.89418454657853
 20
3.621946567627304
 30
0.0
 10
51.99594696306318
 20
2.662638651272432
 30
0.0
 10
53.0951510871463
 20
1.621011127688966
 30
0.0
 10
54.25260018074325
 20
0.4770565149648575
 30
0.0
 10
55.46752806796465
 20
-0.7427634061317794
 30
0.0
 10
56.73692867687522
 20
-1.987290675488933
 30
0.0
 10
58.0058888158965
 20
-3.164299344142988
 30
0.0
 10
58.85250212896533
 20
-3.834728133621283
 30
0.0
 10
59.27600000000091
 20
-4.170093950154274
 30
0.0
  0
SPLINE
  5
CB
330
1F
100
AcDbEntity
  8
0
  6
Continuous
 62
     1
370
    15
100
AcDbSpline
210
0.0
220
0.0
230
1.0
 70
     8
 71
     3
 72
    30
 73
    26
 74
     0
 42
0.000000001
 43
0.00000001
 40
0.2438562734769628
 40
0.2438562734769628
 40
0.2438562734769628
 40
0.2438562734769628
 40
0.2499999999999973
 40
0.2499999999999973
 40
0.3749999999999974
 40
0.3749999999999974
 40
0.4999999999999976
 40
0.4999999999999976
 40
0.6249999999999974
 40
0.6249999999999974
 40
0.6874999999999973
 40
0.6874999999999973
 40
0.7187499999999976
 40
0.7187499999999976
 40
0.7499999999999978
 40
0.7499999999999978
 40
0.781249999999998
 40
0.781249999999998
 40
0.8124999999999981
 40
0.8124999999999981
 40
0.8749999999999988
 40
0.8749999999999988
 40
0.9374999999999993
 40
0.9374999999999993
 40
1.0
 40
1.0
 40
1.0
 40
1.0
 10
60.34374547849193
 20
5.434338455981479
 30
0.0
 10
60.35052547972737
 20
5.423689788884523
 30
0.0
 10
60.35722822976422
 20
5.412967024835485
 30
0.0
 10
60.49860133830624
 20
5.182564453599535
 30
0.0
 10
60.59910231300279
 20
4.93429545843734
 30
0.0
 10
60.72910091477217
 20
4.421483217595807
 30
0.0
 10
60.75778025642079
 20
4.163633123169742
 30
0.0
 10
60.78284803861342
 20
3.686518555195082
 30
0.0
 10
60.78361323310015
 20
3.469383049625873
 30
0.0
 10
60.75882762835069
 20
3.206563732015701
 30
0.0
 10
60.74582876699689
 20
3.130279918444294
 30
0.0
 10
60.70470714960077
 20
3.044005133758927
 30
0.0
 10
60.68753588563514
 20
3.020790865233281
 30
0.0
 10
60.64177683871745
 20
2.989471420455045
 30
0.0
 10
60.61312099446399
 20
2.981755851286491
 30
0.0
 10
60.54189939681437
 20
2.987543771491382
 30
0.0
 10
60.49901409387705
 20
3.001347096644515
 30
0.0
 10
60.40287917931786
 20
3.04863578759213
 30
0.0
 10
60.34908708964792
 20
3.082259065833101
 30
0.0
 10
60.18196348512339
 20
3.199573434845254
 30
0.0
 10
60.06358083365486
 20
3.297733275890378
 30
0.0
 10
59.8320417580161
 20
3.49338646568426
 30
0.0
 10
59.71784051427527
 20
3.592159841871875
 30
0.0
 10
59.49277153016298
 20
3.782098935098933
 30
0.0
 10
59.38359382833887
 20
3.872043776693431
 30
0.0
 10
59.27600000000091
 20
3.956461368793494
 30
0.0
  0
SPLINE
  5
CC
330
1F
100
AcDbEntity
  8
0
  6
Continuous
 62
     1
370
    15
100
AcDbSpline
210
0.0
220
0.0
230
1.0
 70
     8
 71
     3
 72
    12
 73
     8
 74
     0
 42
0.000000001
 43
0.00000001
 40
0.0
 40
0.0
 40
0.0
 40
0.0
 40
0.2227251431779416
 40
0.4452491600689965
 40
0.6678355013755828
 40
0.8907389807585843
 40
1.0
 40
1.0
 40
1.0
 40
1.0
 10
59.27600000000093
 20
3.956461368793486
 30
0.0
 10
58.85250313329853
 20
4.272168763211337
 30
0.0
 10
58.00589182798917
 20
4.903298460498434
 30
0.0
 10
56.73691663979251
 20
5.615512761752061
 30
0.0
 10
55.46757324966705
 20
6.104385892130792
 30
0.0
 10
54.41193575515439
 20
6.338813520513254
 30
0.0
 10
53.78056116576711
 20
6.329605704273887
 30
0.0
 10
53.5728790340364
 20
6.326576917659221
 30
0.0
  0
SPLINE
  5
CD
330
1F
100
AcDbEntity
  8
0
  6
Continuous
 62
     1
370
    15
100
AcDbSpline
210
0.0
220
0.0
230
1.0
 70
     8
 71
     3
 72
    28
 73
    24
 74
     0
 42
0.000000001
 43
0.00000001
 40
0.0
 40
0.0
 40
0.0
 40
0.0
 40
0.0170024430634076
 40
0.0666768644554494
 40
0.1162554236258716
 40
0.1658038586338927
 40
0.2154806943269389
 40
0.2650541131693338
 40
0.314605558278585
 40
0.3642841550840189
 40
0.4138527662901123
 40
0.4634075553822095
 40
0.5130872599901991
 40
0.5626513965119567
 40
0.612209863287364
 40
0.661890022311823
 40
0.7114500173434759
 40
0.7610124953034595
 40
0.8106924553270222
 40
0.8602486422870688
 40
0.9098154647156684
 40
0.959494572334668
 40
1.0
 40
1.0
 40
1.0
 40
1.0
 10
35.86449234117946
 20
-5.939093275984419
 30
0.0
 10
35.73883067791601
 20
-5.988003340787109
 30
0.0
 10
35.24603528037133
 20
-6.179809291802162
 30
0.0
 10
34.38465890101169
 20
-6.328354080575678
 30
0.0
 10
33.28460890777857
 20
-6.374852260161266
 30
0.0
 10
32.18514211001628
 20
-6.217687292854239
 30
0.0
 10
31.08284872985292
 20
-5.878248890851062
 30
0.0
 10
29.98284329963869
 20
-5.361157696554874
 30
0.0
 10
28.88332832917618
 20
-4.682996942763245
 30
0.0
 10
27.78099105313746
 20
-3.866511765756723
 30
0.0
 10
26.68109394896683
 20
-2.932385171074076
 30
0.0
 10
25.58150428696626
 20
-1.909888968542885
 30
0.0
 10
24.47914265310417
 20
-0.8329016371504072
 30
0.0
 10
23.379345086872
 20
0.2715822717384548
 30
0.0
 10
22.27967364643791
 20
1.368037325972193
 30
0.0
 10
21.17730198437298
 20
2.420883458553388
 30
0.0
 10
20.07759653529438
 20
3.403738468793352
 30
0.0
 10
18.97783593214935
 20
4.284418648257548
 30
0.0
 10
17.87546842171561
 20
5.034491344589551
 30
0.0
 10
16.7758485659162
 20
5.637180247618047
 30
0.0
 10
15.67598794716271
 20
6.064427549214963
 30
0.0
 10
14.64067625580314
 20
6.315578603259596
 30
0.0
 10
13.97409958089859
 20
6.327432747680581
 30
0.0
 10
13.67471373604594
 20
6.332756910940555
 30
0.0
  0
SPLINE
  5
CE
330
1F
100
AcDbEntity
  8
0
  6
Continuous
 62
     1
370
    15
100
AcDbSpline
210
0.0
220
0.0
230
1.0
 70
     8
 71
     3
 72
    28
 73
    24
 74
     0
 42
0.000000001
 43
0.00000001
 40
0.0
 40
0.0
 40
0.0
 40
0.0
 40
0.0387825375046004
 40
0.0883432773474414
 40
0.138027801625219
 40
0.1875948330459709
 40
0.2371593813102783
 40
0.286844104607235
 40
0.3364071244748906
 40
0.3859758146097938
 40
0.4356600834485325
 40
0.4852194252949973
 40
0.5347925905253398
 40
0.5844757514597456
 40
0.6340317490161423
 40
0.6836097223244788
 40
0.7332911219846979
 40
0.782844109163317
 40
0.8324272232719389
 40
0.8821062084093442
 40
0.931656519285578
 40
0.9812451066385632
 40
1.0
 40
1.0
 40
1.0
 40
1.0
 10
15.91569628504223
 20
5.944018347860622
 30
0.0
 10
16.20246145642831
 20
6.038709370448779
 30
0.0
 10
16.85568779744176
 20
6.254407357457138
 30
0.0
 10
17.87543305821092
 20
6.372313824480083
 30
0.0
 10
18.97784539275935
 20
6.329345209332028
 30
0.0
 10
20.07759400319763
 20
6.091040350960681
 30
0.0
 10
21.17730266472528
 20
5.671247076788519
 30
0.0
 10
22.27967346442524
 20
5.082551945305208
 30
0.0
 10
23.37934513568881
 20
4.340183378850129
 30
0.0
 10
24.47914263963486
 20
3.467512355372472
 30
0.0
 10
25.58150429188946
 20
2.493255607656078
 30
0.0
 10
26.68109394273534
 20
1.441774190391394
 30
0.0
 10
27.78099107317389
 20
0.3472986640152314
 30
0.0
 10
28.88332825516957
 20
-0.7551094377009866
 30
0.0
 10
29.98284357484694
 20
-1.837748642951007
 30
0.0
 10
31.08284770132873
 20
-2.8647188960221
 30
0.0
 10
32.18514595318102
 20
-3.803844422751938
 30
0.0
 10
33.28459460348802
 20
-4.631628548274259
 30
0.0
 10
34.38471236948425
 20
-5.318943584286262
 30
0.0
 10
35.48696013497942
 20
-5.8492420165065
 30
0.0
 10
36.5863389157438
 20
-6.193238630660383
 30
0.0
 10
37.45799958852177
 20
-6.354581741310207
 30
0.0
 10
37.96386511386773
 20
-6.33338618837996
 30
0.0
 10
38.1026852893097
 20
-6.327569681365858
 30
0.0
  0
SPLINE
  5
CF
330
1F
100
AcDbEntity
  8
0
  6
Continuous
 62
     1
370
    15
100
AcDbSpline
210
0.0
220
0.0
230
1.0
 70
     8
 71
     3
 72
    10
 73
     6
 74
     0
 42
0.000000001
 43
0.00000001
 40
0.0
 40
0.0
 40
0.0
 40
0.0
 40
0.2665870900820682
 40
0.6331278977714202
 40
0.7145831466690408
 40
0.7145831466690408
 40
0.7145831466690408
 40
0.7145831466690408
 10
55.81422340900209
 20
5.93562054892378
 30
0.0
 10
56.12184336496018
 20
6.038646704123798
 30
0.0
 10
56.85242178857525
 20
6.283327468811911
 30
0.0
 10
57.67665496126766
 20
6.365787333029346
 30
0.0
 10
58.19364612082941
 20
6.344511698832237
 30
0.0
 10
58.51400000000091
 20
6.350000000000003
 30
0.0
  0
SPLINE
  5
D0
330
1F
100
AcDbEntity
  8
0
  6
Continuous
 62
     1
370
    15
100
AcDbSpline
210
0.0
220
0.0
230
1.0
 70
     8
 71
     3
 72
    28
 73
    24
 74
     0
 42
0.000000001
 43
0.00000001
 40
0.0
 40
0.0
 40
0.0
 40
0.0
 40
0.0156094501455284
 40
0.0728897279742939
 40
0.1225055561937316
 40
0.1720424082244697
 40
0.2216944246597845
 40
0.2713031229469811
 40
0.320840978986739
 40
0.3704986722136528
 40
0.4201005713193653
 40
0.4696397659531525
 40
0.5193024840698888
 40
0.5688979151123607
 40
0.6184387828526279
 40
0.6681058736117634
 40
0.717695168058929
 40
0.7672380433274419
 40
0.8169088541807215
 40
0.8664923438323772
 40
0.9160375609420988
 40
0.9657114390852921
 40
1.0
 40
1.0
 40
1.0
 40
1.0
 10
55.81422340900209
 20
-5.935620548923769
 30
0.0
 10
55.69878379742657
 20
-5.982400735975561
 30
0.0
 10
55.15972817363777
 20
-6.200845016651811
 30
0.0
 10
54.2525604477808
 20
-6.34076379591292
 30
0.0
 10
53.09516106321542
 20
-6.366339763768459
 30
0.0
 10
51.99594428216779
 20
-6.184904949066897
 30
0.0
 10
50.89418527474459
 20
-5.822609303930426
 30
0.0
 10
49.79338318120843
 20
-5.284727872764866
 30
0.0
 10
48.69415711882959
 20
-4.587580220416073
 30
0.0
 10
47.59226937104842
 20
-3.754760601326739
 30
0.0
 10
46.49161945267932
 20
-2.808651599352252
 30
0.0
 10
45.39236370170909
 20
-1.776915185789163
 30
0.0
 10
44.29036507647981
 20
-0.6946319479051266
 30
0.0
 10
43.18985905140925
 20
0.4099229207141244
 30
0.0
 10
42.09056637416797
 20
1.503428135829353
 30
0.0
 10
40.98847115773785
 20
2.549118476887076
 30
0.0
 10
39.88810187633956
 20
3.520114648802764
 30
0.0
 10
38.78876404516987
 20
4.386439231273077
 30
0.0
 10
37.68658937791245
 20
5.118760364246683
 30
0.0
 10
36.5863392944182
 20
5.701013725006542
 30
0.0
 10
35.48698676953649
 20
6.105392238940891
 30
0.0
 10
34.49787900769742
 20
6.327085104289928
 30
0.0
 10
33.87716564419551
 20
6.328930362708599
 30
0.0
 10
33.62367886827741
 20
6.329683928903219
 30
0.0
  0
SPLINE
  5
D1
330
1F
100
AcDbEntity
  8
0
  6
Continuous
 62
     1
370
    15
100
AcDbSpline
210
0.0
220
0.0
230
1.0
 70
     8
 71
     3
 72
    13
 73
     9
 74
     0
 42
0.000000001
 43
0.00000001
 40
0.0
 40
0.0
 40
0.0
 40
0.0
 40
0.0404693085891684
 40
0.2268344852298709
 40
0.4199941961264752
 40
0.613165412211714
 40
0.8067705446384602
 40
0.9999999999999999
 40
0.9999999999999999
 40
0.9999999999999999
 40
0.9999999999999999
 10
15.91569628504224
 20
-5.944018347860614
 30
0.0
 10
15.83594270767218
 20
-5.976213109598104
 30
0.0
 10
15.3889160027776
 20
-6.156667939700556
 30
0.0
 10
14.55926103259363
 20
-6.311179017185457
 30
0.0
 10
13.4310719980133
 20
-6.382952052403565
 30
0.0
 10
12.28837420915782
 20
-6.229583807344279
 30
0.0
 10
11.14310790092514
 20
-5.8920488675941
 30
0.0
 10
10.38078918995939
 20
-5.507869247793127
 30
0.0
 10
10.00000000000092
 20
-5.315965987230051
 30
0.0
  0
SPLINE
  5
D2
330
1F
100
AcDbEntity
  8
0
  6
Continuous
 62
     1
370
    15
100
AcDbSpline
210
0.0
220
0.0
230
1.0
 70
    24
 71
     3
 72
    16
 73
    12
 74
     0
 42
0.000000001
 43
0.00000001
 40
0.0
 40
0.0
 40
0.0
 40
0.0
 40
0.25
 40
0.25
 40
0.5
 40
0.5
 40
0.75
 40
0.75
 40
0.875
 40
0.875
 40
1.0
 40
1.0
 40
1.0
 40
1.0
 10
10.00000000000092
 20
-1.796161679981407
 30
0.0
 10
10.00000000000092
 20
-1.840086710648607
 30
0.0
 10
10.00000000000092
 20
-1.920632622147295
 30
0.0
 10
10.00000000000092
 20
-2.20785161689902
 30
0.0
 10
10.00000000000092
 20
-2.416196061221499
 30
0.0
 10
10.00000000000092
 20
-3.004615993301849
 30
0.0
 10
10.00000000000092
 20
-3.387494032979202
 30
0.0
 10
10.00000000000092
 20
-4.064583288613212
 30
0.0
 10
10.00000000000092
 20
-4.306397961041555
 30
0.0
 10
10.00000000000092
 20
-4.805362440568678
 30
0.0
 10
10.00000000000092
 20
-5.062350665341281
 30
0.0
 10
10.00000000000092
 20
-5.315965987230045
 30
0.0
  0
SPLINE
  5
D3
330
1F
100
AcDbEntity
  8
0
  6
Continuous
 62
     1
370
    15
100
AcDbSpline
210
0.0
220
0.0
230
1.0
 70
     8
 71
     3
 72
    15
 73
    11
 74
     0
 42
0.000000001
 43
0.00000001
 40
0.0
 40
0.0
 40
0.0
 40
0.0
 40
0.1401885815799241
 40
0.2806497180599548
 40
0.4207960468605534
 40
0.5609340286103741
 40
0.6961425542477926
 40
0.831045480292698
 40
0.9659194604468371
 40
1.0
 40
1.0
 40
1.0
 40
1.0
 10
10.0000000000015
 20
-1.796161679980785
 30
0.0
 10
10.38078865067754
 20
-2.156177710986003
 30
0.0
 10
11.14310628202995
 20
-2.876909716831106
 30
0.0
 10
12.28838069336932
 20
-3.846897247500713
 30
0.0
 10
13.43104774524638
 20
-4.698918986988956
 30
0.0
 10
14.55935023061204
 20
-5.38774417584154
 30
0.0
 10
15.67596648351149
 20
-5.904047077357961
 30
0.0
 10
16.77588267344772
 20
-6.222718434666369
 30
0.0
 10
17.60080228801753
 20
-6.364181347281995
 30
0.0
 10
18.06039004744277
 20
-6.337409579915619
 30
0.0
 10
18.15309546213292
 20
-6.332009332096154
 30
0.0
  0
SPLINE
  5
D4
330
1F
100
AcDbEntity
  8
0
  6
Continuous
 62
     1
370
    15
100
AcDbSpline
210
0.0
220
0.0
230
1.0
 70
     8
 71
     3
 72
    28
 73
    24
 74
     0
 42
0.000000001
 43
0.00000001
 40
0.0
 40
0.0
 40
0.0
 40
0.0
 40
0.0325475988991524
 40
0.0821381565431251
 40
0.131816047836123
 40
0.1813659853074827
 40
0.2309623485744234
 40
0.2806365192429874
 40
0.3301844488999338
 40
0.3797869496369356
 40
0.4294567470397923
 40
0.4790030033517619
 40
0.5286119730740092
 40
0.5782767448707595
 40
0.6278216623978865
 40
0.6774374322708228
 40
0.7270965264667627
 40
0.7766404398417511
 40
0.8262633406632814
 40
0.883551783640697
 40
0.9407587189330066
 40
0.9979496362217609
 40
1.0
 40
1.0
 40
1.0
 40
1.0
 10
35.86449234117946
 20
5.939093275984429
 30
0.0
 10
36.10506188908877
 20
6.022826072543705
 30
0.0
 10
36.71217085730817
 20
6.23413682308139
 30
0.0
 10
37.68655361530652
 20
6.36377956544214
 30
0.0
 10
38.78877360703463
 20
6.346063360158771
 30
0.0
 10
39.88809931448627
 20
6.130860959229773
 30
0.0
 10
40.98847184571685
 20
5.733751143085204
 30
0.0
 10
42.09056619021262
 20
5.165384112333767
 30
0.0
 10
43.18985910077559
 20
4.440718657673211
 30
0.0
 10
44.29036506296226
 20
3.583591562117496
 30
0.0
 10
45.39236370630391
 20
2.620528902155226
 30
0.0
 10
46.4916194477967
 20
1.576377187376597
 30
0.0
 10
47.59226938601451
 20
0.486309694281814
 30
0.0
 10
48.69415706384664
 20
-0.6170641234489731
 30
0.0
 10
49.79338338573659
 20
-1.704654352799077
 30
0.0
 10
50.89418450994154
 20
-2.739530545482251
 30
0.0
 10
51.99594713628819
 20
-3.69147347723512
 30
0.0
 10
53.09515043218119
 20
-4.535373279690393
 30
0.0
 10
54.25260279229395
 20
-5.276281644468861
 30
0.0
 10
55.46751663776142
 20
-5.874688775302968
 30
0.0
 10
56.73697106021827
 20
-6.237454255852565
 30
0.0
 10
57.59775174637659
 20
-6.389000322498207
 30
0.0
 10
58.03598912158381
 20
-6.347076610728778
 30
0.0
 10
58.0511566875819
 20
-6.34562561475919
 30
0.0
  0
SPLINE
  5
D5
330
1F
100
AcDbEntity
  8
0
  6
Continuous
 62
     1
370
    15
100
AcDbSpline
210
0.0
220
0.0
230
1.0
 70
     8
 71
     3
 72
    28
 73
    24
 74
     0
 42
0.000000001
 43
0.00000001
 40
0.0
 40
0.0
 40
0.0
 40
0.0
 40
0.0211440292658939
 40
0.0708028278512687
 40
0.1204058310734893
 40
0.1699461284280106
 40
0.2196099520150597
 40
0.2692064870300634
 40
0.3187484575283073
 40
0.3684166538550886
 40
0.4180070521381882
 40
0.4675510302093647
 40
0.5172229467130978
 40
0.5668075400714753
 40
0.6163538600359887
 40
0.666028843897912
 40
0.7156079644527555
 40
0.7651569605040981
 40
0.8148343586943632
 40
0.8644083388629747
 40
0.9139603450496312
 40
0.9636395043722253
 40
1.0
 40
1.0
 40
1.0
 40
1.0
 10
49.16346507153911
 20
-5.937374373712962
 30
0.0
 10
49.00720706347911
 20
-5.996573119908338
 30
0.0
 10
48.48396200427457
 20
-6.194805849497071
 30
0.0
 10
47.5922436451672
 20
-6.339784459982374
 30
0.0
 10
46.49162633233777
 20
-6.368979183089527
 30
0.0
 10
45.39236185428349
 20
-6.196292612351304
 30
0.0
 10
44.290365570573
 20
-5.841436642880564
 30
0.0
 10
43.18985892191689
 20
-5.310492570917924
 30
0.0
 10
42.09056639905911
 20
-4.619603544786493
 30
0.0
 10
40.98847118808088
 20
-3.792233406650044
 30
0.0
 10
39.88810173044857
 20
-2.850043914121204
 30
0.0
 10
38.78876459851289
 20
-1.821305624130558
 30
0.0
 10
37.68658730596322
 20
-0.7407879713546546
 30
0.0
 10
36.58634700937863
 20
0.363830093170723
 30
0.0
 10
35.48695796839593
 20
1.45840426729537
 30
0.0
 10
34.38471292022349
 20
2.506479928820343
 30
0.0
 10
33.28459456478842
 20
3.481507216453256
 30
0.0
 10
32.18514555798252
 20
4.352680887925069
 30
0.0
 10
31.08284932450697
 20
5.090930264545812
 30
0.0
 10
29.98283749405238
 20
5.680003851112372
 30
0.0
 10
28.88335097422811
 20
6.092182436101809
 30
0.0
 10
27.87876770867408
 20
6.323007006406432
 30
0.0
 10
27.24280022074203
 20
6.328898184160341
 30
0.0
 10
26.9740393444031
 20
6.33138780529012
 30
0.0
  0
SPLINE
  5
D6
330
1F
100
AcDbEntity
  8
0
  6
Continuous
 62
     1
370
    15
100
AcDbSpline
210
0.0
220
0.0
230
1.0
 70
     8
 71
     3
 72
     9
 73
     5
 74
     0
 42
0.000000001
 43
0.00000001
 40
0.0
 40
0.0
 40
0.0
 40
0.0
 40
0.7601866871880041
 40
1.0
 40
1.0
 40
1.0
 40
1.0
 10
10.0000000000015
 20
-6.17275878414887
 30
0.0
 10
10.38077475184521
 20
-6.254402787069554
 30
0.0
 10
10.88167112146229
 20
-6.361802724869952
 30
0.0
 10
11.38329705313604
 20
-6.334357900068968
 30
0.0
 10
11.50359362960312
 20
-6.327776265713901
 30
0.0
  0
SPLINE
  5
D7
330
1F
100
AcDbEntity
  8
0
  6
Continuous
 62
     1
370
    15
100
AcDbSpline
210
0.0
220
0.0
230
1.0
 70
     8
 71
     3
 72
    28
 73
    24
 74
     0
 42
0.000000001
 43
0.00000001
 40
0.0
 40
0.0
 40
0.0
 40
0.0
 40
0.0346225779502689
 40
0.0841997712044499
 40
0.1338803891832149
 40
0.1834325967008075
 40
0.233014930674389
 40
0.2826931341683302
 40
0.332242665425646
 40
0.3818304725574755
 40
0.4315056084944188
 40
0.48105279770661
 40
0.5306464101394018
 40
0.5803178256582737
 40
0.629863007167414
 40
0.6794627567298556
 40
0.7291297992255807
 40
0.7786733074825554
 40
0.8282795256714439
 40
0.8779415428398051
 40
0.927483712386192
 40
0.977096730348603
 40
1.0
 40
1.0
 40
1.0
 40
1.0
 10
29.21494957773238
 20
5.940421860361571
 30
0.0
 10
29.47089645638518
 20
6.02800146545259
 30
0.0
 10
30.09334197889981
 20
6.240989150004329
 30
0.0
 10
31.08281120760491
 20
6.366978115218109
 30
0.0
 10
32.18515575071279
 20
6.340823041121321
 30
0.0
 10
33.28459183495416
 20
6.117910834819924
 30
0.0
 10
34.38471365350804
 20
5.713205122521278
 30
0.0
 10
35.48695777231391
 20
5.138061561856373
 30
0.0
 10
36.58634706194556
 20
4.407439932073964
 30
0.0
 10
37.68658729168704
 20
3.545062985393093
 30
0.0
 10
38.78876460291846
 20
2.578268323693163
 30
0.0
 10
39.88810172707831
 20
1.531592277832931
 30
0.0
 10
40.9884711971747
 20
0.4399692160109433
 30
0.0
 10
42.09056636603948
 20
-0.6630818485640642
 30
0.0
 10
43.18985904459912
 20
-1.749110701764288
 30
0.0
 10
44.29036511192266
 20
-2.781421949510302
 30
0.0
 10
45.39236356670192
 20
-3.729131130673045
 30
0.0
 10
46.49161995609614
 20
-4.56757940379936
 30
0.0
 10
47.59226748838707
 20
-5.26712587289137
 30
0.0
 10
48.69416414643514
 20
-5.811289926639985
 30
0.0
 10
49.79335700950628
 20
-6.171761631932549
 30
0.0
 10
50.69636061601074
 20
-6.347764470164366
 30
0.0
 10
51.23297937236148
 20
-6.331443269226945
 30
0.0
 10
51.40246300812274
 20
-6.326288442933364
 30
0.0
  0
SPLINE
  5
D8
330
1F
100
AcDbEntity
  8
0
  6
Continuous
 62
     1
370
    15
100
AcDbSpline
210
0.0
220
0.0
230
1.0
 70
     8
 71
     3
 72
    28
 73
    24
 74
     0
 42
0.000000001
 43
0.00000001
 40
0.0
 40
0.0
 40
0.0
 40
0.0
 40
0.0190732338359985
 40
0.0687411574493684
 40
0.1183312834462228
 40
0.1678749894860337
 40
0.2175466332559291
 40
0.2671309543599345
 40
0.3166770022802238
 40
0.3663517133914674
 40
0.4159305617219883
 40
0.4654792857144131
 40
0.5151564111407423
 40
0.5647301191132558
 40
0.6142818532244666
 40
0.6639607397734549
 40
0.7135296400816269
 40
0.7630847181951872
 40
0.8127647125531923
 40
0.8623291381509305
 40
0.9118878939692505
 40
0.9615683427463754
 40
1.0
 40
1.0
 40
1.0
 40
1.0
 10
42.51399383921797
 20
-5.938077500715504
 30
0.0
 10
42.3730351367623
 20
-5.992219961425802
 30
0.0
 10
41.86501093684524
 20
-6.187352860670094
 30
0.0
 10
40.98843095568826
 20
-6.334250879045183
 30
0.0
 10
39.88811249139688
 20
-6.372078987619553
 30
0.0
 10
38.7887617079564
 20
-6.20715018056385
 30
0.0
 10
37.68658807926637
 20
-5.860002360965621
 30
0.0
 10
36.5863468046113
 20
-5.335964821163991
 30
0.0
 10
35.48695801560739
 20
-4.651411474805393
 30
0.0
 10
34.38471293677016
 20
-3.829484308768734
 30
0.0
 10
33.28459445175147
 20
-2.891289622692183
 30
0.0
 10
32.18514599384362
 20
-1.865631420012909
 30
0.0
 10
31.08284769083849
 20
-0.786879070477978
 30
0.0
 10
29.98284357619493
 20
0.31771533005395
 30
0.0
 10
28.88332826025479
 20
1.413272900193564
 30
0.0
 10
27.78099105143526
 20
2.463733579435676
 30
0.0
 10
26.68109402437393
 20
3.442714653491605
 30
0.0
 10
25.58150398676484
 20
4.318671393048644
 30
0.0
 10
24.47914378051711
 20
5.062846756854524
 30
0.0
 10
23.37934088942598
 20
5.658699180285295
 30
0.0
 10
22.27968932726033
 20
6.078625661487338
 30
0.0
 10
21.2596946518149
 20
6.318829553030584
 30
0.0
 10
20.60847958989221
 20
6.328992414801053
 30
0.0
 10
20.32444059473443
 20
6.333425127147553
 30
0.0
  0
SPLINE
  5
D9
330
1F
100
AcDbEntity
  8
0
  6
Continuous
 62
     1
370
    15
100
AcDbSpline
210
0.0
220
0.0
230
1.0
 70
     8
 71
     3
 72
    28
 73
    24
 74
     0
 42
0.000000001
 43
0.00000001
 40
0.0
 40
0.0
 40
0.0
 40
0.0
 40
0.0367015352473461
 40
0.0862698890870493
 40
0.1359538208464525
 40
0.18551282646114
 40
0.2350856553659214
 40
0.2847684792285082
 40
0.3343241405758168
 40
0.3839017775259722
 40
0.4335828401263214
 40
0.4831354911162761
 40
0.5327182688318395
 40
0.5823969169257562
 40
0.6319468916314827
 40
0.6815351425542765
 40
0.7312107230637419
 40
0.7807583557033835
 40
0.8303524119790947
 40
0.8800242720371925
 40
0.9295698969558148
 40
0.9791700904161008
 40
1.0
 40
1.0
 40
1.0
 40
1.0
 10
22.56535455473252
 20
5.942063464282652
 30
0.0
 10
22.83669920976704
 20
6.033296329181628
 30
0.0
 10
23.47451648733953
 20
6.247746462749206
 30
0.0
 10
24.47910560612803
 20
6.369822338981643
 30
0.0
 10
25.5815141968299
 20
6.335250508579445
 30
0.0
 10
26.68109129084214
 20
6.104636931096639
 30
0.0
 10
27.78099178584543
 20
5.692369715116518
 30
0.0
 10
28.88332806383229
 20
5.110450293683945
 30
0.0
 10
29.9828436288606
 20
4.373927307412739
 30
0.0
 10
31.08284767643292
 20
3.506368783807698
 30
0.0
 10
32.18514599865726
 20
2.535842878915481
 30
0.0
 10
33.28459444688509
 20
1.486723421570018
 30
0.0
 10
34.38471295144994
 20
0.3936310447772775
 30
0.0
 10
35.48695796170742
 20
-0.709098481846914
 30
0.0
 10
36.58634700499012
 20
-1.793475514259077
 30
0.0
 10
37.68658733024849
 20
-2.82315660921802
 30
0.0
 10
38.78876450568687
 20
-3.766573627439477
 30
0.0
 10
39.88810207656626
 20
-4.599723469582503
 30
0.0
 10
40.98846989388988
 20
-5.293182871315302
 30
0.0
 10
42.09057123220211
 20
-5.830407630414602
 30
0.0
 10
43.18984092799496
 20
-6.182679199724103
 30
0.0
 10
44.07715619082568
 20
-6.351217196793272
 30
0.0
 10
44.59841121322034
 20
-6.33234307524835
 30
0.0
 10
44.75257391520903
 20
-6.326760998433702
 30
0.0
  0
SPLINE
  5
DA
330
1F
100
AcDbEntity
  8
0
  6
Continuous
 62
     1
370
    15
100
AcDbSpline
210
0.0
220
0.0
230
1.0
 70
     8
 71
     3
 72
    34
 73
    30
 74
     0
 42
0.000000001
 43
0.00000001
 40
0.0
 40
0.0
 40
0.0
 40
0.0
 40
0.1249999999999979
 40
0.1249999999999979
 40
0.1874999999999978
 40
0.1874999999999978
 40
0.2499999999999977
 40
0.2499999999999977
 40
0.3749999999999975
 40
0.3749999999999975
 40
0.4999999999999973
 40
0.4999999999999973
 40
0.6249999999999972
 40
0.6249999999999972
 40
0.6874999999999971
 40
0.6874999999999971
 40
0.7187499999999974
 40
0.7187499999999974
 40
0.7499999999999977
 40
0.7499999999999977
 40
0.7812499999999979
 40
0.7812499999999979
 40
0.8124999999999981
 40
0.8124999999999981
 40
0.8749999999999988
 40
0.8749999999999988
 40
0.9374999999999993
 40
0.9374999999999993
 40
1.0
 40
1.0
 40
1.0
 40
1.0
 10
59.27600000000093
 20
2.062194558181512
 30
0.0
 10
59.49151193410274
 20
1.857731852526902
 30
0.0
 10
59.69213825115236
 20
1.631759389836767
 30
0.0
 10
59.97121553394719
 20
1.273494263693352
 30
0.0
 10
60.05843292798895
 20
1.153103373242182
 30
0.0
 10
60.22084205107428
 20
0.9095440456032975
 30
0.0
 10
60.29647609332192
 20
0.7855003164867713
 30
0.0
 10
60.49860133830624
 20
0.4128907090140945
 30
0.0
 10
60.59910231300282
 20
0.165523276220574
 30
0.0
 10
60.7291009147722
 20
-0.3482884624014909
 30
0.0
 10
60.75778025642079
 20
-0.6107298591431544
 30
0.0
 10
60.78284803861342
 20
-1.172828514856072
 30
0.0
 10
60.78361323310018
 20
-1.468590804991935
 30
0.0
 10
60.75882762835072
 20
-1.922308901717627
 30
0.0
 10
60.74582876699691
 20
-2.073170451496969
 30
0.0
 10
60.70470714960077
 20
-2.297137396711556
 30
0.0
 10
60.68753588563509
 20
-2.369624569546481
 30
0.0
 10
60.64177683871742
 20
-2.508223531104325
 30
0.0
 10
60.61312099446399
 20
-2.57376928414694
 30
0.0
 10
60.54189939681435
 20
-2.687233681999697
 30
0.0
 10
60.49901409387704
 20
-2.735016970283443
 30
0.0
 10
60.40287917931784
 20
-2.804465344963105
 30
0.0
 10
60.34908708964795
 20
-2.826656825901898
 30
0.0
 10
60.18196348512339
 20
-2.857875729029192
 30
0.0
 10
60.06358083365485
 20
-2.834021139136789
 30
0.0
 10
59.83204175801608
 20
-2.742877067227738
 30
0.0
 10
59.71784051427527
 20
-2.675402821537376
 30
0.0
 10
59.49277153016297
 20
-2.515242596253974
 30
0.0
 10
59.38359382833888
 20
-2.423573159897791
 30
0.0
 10
59.27600000000091
 20
-2.323127830995061
 30
0.0
  0
SPLINE
  5
DB
330
1F
100
AcDbEntity
  8
0
  6
Continuous
 62
     1
370
    15
100
AcDbSpline
210
0.0
220
0.0
230
1.0
 70
     8
 71
     3
 72
    18
 73
    14
 74
     0
 42
0.000000001
 43
0.00000001
 40
0.0
 40
0.0
 40
0.0
 40
0.0
 40
0.1028190034751458
 40
0.2055451588591638
 40
0.3083000857334839
 40
0.4112014164691544
 40
0.5003339232037607
 40
0.5893245529220246
 40
0.678522070088002
 40
0.7676417682339725
 40
0.8566342016073181
 40
0.9458419168629698
 40
1.0
 40
1.0
 40
1.0
 40
1.0
 10
59.27600000000094
 20
-2.323127830995078
 30
0.0
 10
58.852502129338
 20
-1.920158456903362
 30
0.0
 10
58.00588881701411
 20
-1.114583599984217
 30
0.0
 10
56.73692867240912
 20
0.1638177666100981
 30
0.0
 10
55.46752808472831
 20
1.429214291917788
 30
0.0
 10
54.25260012160535
 20
2.58486512880245
 30
0.0
 10
53.09515127512086
 20
3.596711384406123
 30
0.0
 10
51.99594625872658
 20
4.453207529050614
 30
0.0
 10
50.89418718207621
 20
5.173645617198156
 30
0.0
 10
49.79337359252899
 20
5.74214535573709
 30
0.0
 10
48.69419354907006
 20
6.13076310092695
 30
0.0
 10
47.73622293004755
 20
6.334944807570788
 30
0.0
 10
47.146042501412
 20
6.329380304245317
 30
0.0
 10
46.92309504059332
 20
6.32727824896368
 30
0.0
  0
SPLINE
  5
DC
330
1F
100
AcDbEntity
  8
0
  6
Continuous
 62
     1
370
    15
100
AcDbSpline
210
0.0
220
0.0
230
1.0
 70
     8
 71
     3
 72
    25
 73
    21
 74
     0
 42
0.000000001
 43
0.00000001
 40
0.0
 40
0.0
 40
0.0
 40
0.0
 40
0.0172434698986352
 40
0.0746142105399312
 40
0.1318579356111467
 40
0.1890856983773016
 40
0.246457718351292
 40
0.3036962758861642
 40
0.3609282857814434
 40
0.4183008305329252
 40
0.4755346053168755
 40
0.5327712474812764
 40
0.590143562418924
 40
0.6473729394963665
 40
0.7046145988190251
 40
0.7619859293673329
 40
0.8214489139346138
 40
0.8809154403008083
 40
0.940515545044185
 40
1.0
 40
1.0
 40
1.0
 40
1.0
 10
29.21494957773242
 20
-5.940421860361561
 30
0.0
 10
29.10458581981974
 20
-5.983927055341265
 30
0.0
 10
28.62703085453253
 20
-6.172178364206504
 30
0.0
 10
27.78092440104349
 20
-6.322091785895458
 30
0.0
 10
26.68111178464901
 20
-6.377299628217884
 30
0.0
 10
25.58149949477842
 20
-6.227902217928269
 30
0.0
 10
24.47914393487508
 20
-5.8961753727286
 30
0.0
 10
23.37934474504975
 20
-5.386069166901114
 30
0.0
 10
22.27967373372717
 20
-4.714356961936275
 30
0.0
 10
21.17730197805855
 20
-3.903313239243847
 30
0.0
 10
20.0775964736064
 20
-2.973327140595317
 30
0.0
 10
18.97783618552432
 20
-1.954075251989018
 30
0.0
 10
17.87546746845099
 20
-0.8788496129181032
 30
0.0
 10
16.77585211536429
 20
0.2254252853001626
 30
0.0
 10
15.67597468312284
 20
1.322735549355547
 30
0.0
 10
14.55934794207772
 20
2.391542704362686
 30
0.0
 10
13.43104836749424
 20
3.403048730671633
 30
0.0
 10
12.28838052700502
 20
4.313366211522454
 30
0.0
 10
11.14310632356518
 20
5.095831528248599
 30
0.0
 10
10.38078866451326
 20
5.475965823232515
 30
0.0
 10
10.00000000000092
 20
5.665848385709544
 30
0.0
  0
LINE
  5
DD
330
1F
100
AcDbEntity
  8
0
  6
Continuous
 62
     1
370
    15
100
AcDbLine
 10
10.0
 20
6.172758784142553
 30
0.0
 11
10.00000000000079
 21
5.736302716350465
 31
0.0
  0
SPLINE
  5
DE
330
1F
100
AcDbEntity
  8
0
  6
Continuous
 62
     1
370
    15
100
AcDbSpline
210
0.0
220
0.0
230
1.0
 70
     8
 71
     3
 72
    27
 73
    23
 74
     0
 42
0.000000001
 43
0.00000001
 40
0.0
 40
0.0
 40
0.0
 40
0.0
 40
0.053278143222643
 40
0.1066598699100751
 40
0.1599219551228353
 40
0.2131808680703381
 40
0.2645663597605143
 40
0.3158357094748234
 40
0.3670940584122035
 40
0.41848043178544
 40
0.4697452878067931
 40
0.52100757561589
 40
0.57239415482533
 40
0.6236548618854479
 40
0.674921433437058
 40
0.726307542621676
 40
0.777564445676967
 40
0.8288356456099184
 40
0.880220608941043
 40
0.931474053153956
 40
0.9827502258564892
 40
1.0
 40
1.0
 40
1.0
 40
1.0
 10
10.0000000000015
 20
6.172758784148866
 30
0.0
 10
10.38078866451374
 20
6.242850223748953
 30
0.0
 10
11.14310632356543
 20
6.383169374855895
 30
0.0
 10
12.28838052700601
 20
6.333562702371077
 30
0.0
 10
13.43104836749178
 20
6.093423330725172
 30
0.0
 10
14.55934794208731
 20
5.657378601106269
 30
0.0
 10
15.67597468308861
 20
5.054424752992752
 30
0.0
 10
16.77585211549179
 20
4.306195646527799
 30
0.0
 10
17.87546746797462
 20
3.428501175588754
 30
0.0
 10
18.97783618730529
 20
2.450508517131053
 30
0.0
 10
20.07759646697784
 20
1.396748395628121
 30
0.0
 10
21.17730200282238
 20
0.3009757078089711
 30
0.0
 10
22.2796736411531
 20
-0.8011109981226479
 30
0.0
 10
23.37934508958794
 20
-1.881926604202163
 30
0.0
 10
24.47914264751214
 20
-2.906105765186775
 30
0.0
 10
25.58150430664297
 20
-3.840940163654691
 30
0.0
 10
26.68109387606099
 20
-4.663292160019816
 30
0.0
 10
27.78099132549915
 20
-5.34440618317496
 30
0.0
 10
28.88332731132725
 20
-5.867791865450149
 30
0.0
 10
29.98284708790382
 20
-6.203435554930029
 30
0.0
 10
30.83888938154847
 20
-6.357861422173948
 30
0.0
 10
31.32934415357744
 20
-6.334575844133177
 30
0.0
 10
31.45280445488657
 20
-6.328714254757304
 30
0.0
  0
SPLINE
  5
DF
330
1F
100
AcDbEntity
  8
0
  6
Continuous
 62
     1
370
    15
100
AcDbSpline
210
0.0
220
0.0
230
1.0
 70
     8
 71
     3
 72
    16
 73
    12
 74
     0
 42
0.000000001
 43
0.00000001
 40
0.0
 40
0.0
 40
0.0
 40
0.0
 40
0.0623086464083234
 40
0.1711703236180316
 40
0.2801270584773183
 40
0.3888310757554151
 40
0.4977083989386925
 40
0.6234046443708525
 40
0.7489220542567976
 40
0.8744043191326573
 40
1.0
 40
1.0
 40
1.0
 40
1.0
 10
49.16346507153916
 20
5.937374373712974
 30
0.0
 10
49.37333200487366
 20
6.012839790330196
 30
0.0
 10
49.94986500577017
 20
6.220153550601741
 30
0.0
 10
50.8941638993302
 20
6.356312263259928
 30
0.0
 10
51.99595248103925
 20
6.355551715696731
 30
0.0
 10
53.09514961449946
 20
6.1557794053175
 30
0.0
 10
54.25260064404647
 20
5.75440102715099
 30
0.0
 10
55.46752793663358
 20
5.127746593363486
 30
0.0
 10
56.73692871186377
 20
4.265545762919133
 30
0.0
 10
58.00588880714118
 20
3.239164561759639
 30
0.0
 10
58.85250212604601
 20
2.454636020811524
 30
0.0
 10
59.27600000000091
 20
2.062194558186927
 30
0.0
  0
LINE
  5
E1
330
1F
100
AcDbEntity
  8
0
  6
Continuous
 62
     1
370
    15
100
AcDbLine
 10
10.0
 20
-6.172758784142556
 30
0.0
 11
10.00000000000092
 21
-5.315965987230046
 31
0.0
  0
LINE
  5
E3
330
1F
100
AcDbEntity
  8
0
  6
Continuous
 62
     1
370
    15
100
AcDbLine
 10
10.0
 20
4.376597104162233
 30
0.0
 11
10.00000000000092
 21
5.665848385709541
 31
0.0
  0
LINE
  5
E4
330
1F
100
AcDbEntity
  8
0
  6
Continuous
 62
     1
370
    15
100
AcDbLine
 10
10.0
 20
-1.79616167998029
 30
0.0
 11
10.00000000000092
 21
0.349882398479469
 31
0.0
  0
LINE
  5
E5
330
1F
100
AcDbEntity
  8
0
  6
Continuous
 62
     1
370
    15
100
AcDbLine
 10
60.80000000000091
 20
0.0000000000000033
 30
0.0
 11
60.80000000000091
 21
4.064000000000004
 31
0.0
  0
LINE
  5
E6
330
1F
100
AcDbEntity
  8
0
  6
Continuous
 62
     1
370
    15
100
AcDbLine
 10
60.80000000000091
 20
-4.063999999999992
 30
0.0
 11
60.80000000000091
 21
0.0000000000000036
 31
0.0
  0
LINE
  5
E9
330
1F
100
AcDbEntity
  8
중심선
100
AcDbLine
 10
-43.79999999999907
 20
0.0
 30
0.0
 11
63.80000000000091
 21
0.0
 31
0.0
  0
CIRCLE
  5
EA
330
1F
100
AcDbEntity
  8
외형선
100
AcDbCircle
 10
0.0
 20
0.0
 30
0.0
 40
3.00000000000089
  0
INSERT
  5
EB
330
1F
100
AcDbEntity
  8
0
  6
Continuous
 62
     7
100
AcDbBlockReference
 66
     1
  2
블럭10
 10
-16.62936049909256
 20
-51.78679627639982
 30
0.0
  0
ATTRIB
  5
EC
330
EB
100
AcDbEntity
  8
FORMAT
 62
     2
100
AcDbText
 10
-27.68038085127703
 20
-49.71142936356762
 30
0.0
 40
4.233333333333333
  1
GMG22925[ 6 FLUTE ]
 41
0.75
  7
SLDTEXTSTYLE0
 11
-27.68038085127703
 21
-51.82809603023429
 31
0.0
100
AcDbAttribute
  2
AUTOATTR0
 70
     0
 74
     1
  0
SEQEND
  5
ED
330
EB
100
AcDbEntity
  8
0
  6
Continuous
 62
     7
  0
HATCH
  5
EE
330
1F
100
AcDbEntity
  8
중심선
100
AcDbHatch
 10
0.0
 20
0.0
 30
0.0
210
0.0
220
0.0
230
1.0
  2
SOLID
 70
     1
 71
     0
 91
        1
 92
        0
 93
        4
 72
     1
 10
-10.91445119471171
 20
-35.53962197475588
 11
-14.36072643854899
 21
-35.53962197475588
 72
     1
 10
-14.36072643854899
 20
-35.53962197475588
 11
-16.48895629775302
 21
-38.07594755532848
 72
     1
 10
-16.48895629775302
 20
-38.07594755532848
 11
-13.04264796880259
 21
-38.07590812602599
 72
     1
 10
-13.04264796880258
 20
-38.07590812602599
 11
-10.91445119471171
 21
-35.53962197475588
 97
        0
 75
     0
 76
     1
 98
        1
 10
0.0004859200753993
 20
0.2622744311706908
  0
HATCH
  5
EF
330
1F
100
AcDbEntity
  8
중심선
100
AcDbHatch
 10
0.0
 20
0.0
 30
0.0
210
0.0
220
0.0
230
1.0
  2
SOLID
 70
     1
 71
     0
 91
        1
 92
        0
 93
        4
 72
     1
 10
-5.90168720367576
 20
-35.53962197475588
 11
-9.34796244751304
 21
-35.53962197475588
 72
     1
 10
-9.34796244751304
 20
-35.53962197475588
 11
-13.87910045587043
 21
-40.93962197475589
 72
     1
 10
-13.87910045587043
 20
-40.93962197475589
 11
-10.43282521203315
 21
-40.93962197475589
 72
     1
 10
-10.43282521203315
 20
-40.93962197475589
 11
-5.901687203675761
 21
-35.53962197475588
 97
        0
 75
     0
 76
     1
 98
        1
 10
0.0004859200753993
 20
0.2622744311706908
  0
HATCH
  5
F0
330
1F
100
AcDbEntity
  8
중심선
100
AcDbHatch
 10
0.0
 20
0.0
 30
0.0
210
0.0
220
0.0
230
1.0
  2
SOLID
 70
     1
 71
     0
 91
        1
 92
        0
 93
        4
 72
     1
 10
-0.8889232126398638
 20
-35.53962197475591
 11
-4.33519845647698
 21
-35.53962197475588
 72
     1
 10
-4.33519845647698
 20
-35.53962197475588
 11
-11.38363535836623
 21
-43.9396219747559
 72
     1
 10
-11.38363535836623
 20
-43.9396219747559
 11
-7.937360114528945
 21
-43.9396219747559
 72
     1
 10
-7.937360114528946
 20
-43.9396219747559
 11
-0.8889232126398641
 21
-35.53962197475591
 97
        0
 75
     0
 76
     1
 98
        1
 10
0.0004859200753993
 20
0.2622744311706908
  0
HATCH
  5
F1
330
1F
100
AcDbEntity
  8
중심선
100
AcDbHatch
 10
0.0
 20
0.0
 30
0.0
210
0.0
220
0.0
230
1.0
  2
SOLID
 70
     1
 71
     0
 91
        1
 92
        0
 93
        6
 72
     3
 10
3.910967218372336
 20
-39.73962197480716
 11
3.960054785062283
 21
1.540882976769353E-10
 40
0.3939339440162628
 50
17.09539180608437
 51
320.0019657685081
 73
     0
 72
     1
 10
5.59396687407293
 20
-38.32751597939419
 11
7.899268747773969
 21
-36.39318926934626
 72
     3
 10
3.910967218319489
 20
-39.73962197475603
 11
6.600054785286829
 21
-1.278976924368180E-13
 40
0.6363583540795981
 50
39.99873849337411
 51
368.4976242363725
 73
     1
 72
     1
 10
10.3362997102201
 20
-38.7796219746859
 11
2.59103452515541
 21
-38.77962197468587
 72
     1
 10
2.591034525155411
 20
-38.77962197468587
 11
2.591009480709477
 21
-40.6996219746858
 72
     1
 10
2.591009480709477
 20
-40.6996219746858
 11
7.032389250181514
 21
-40.69962197468577
 97
        0
 75
     0
 76
     1
 98
        1
 10
0.0004859200753993
 20
0.2622744311706908
  0
POINT
  5
F2
330
1F
100
AcDbEntity
  8
치수문자_일반주서
100
AcDbPoint
 10
0.0
 20
0.0
 30
0.0
  0
DIMENSION
  5
F3
330
1F
100
AcDbEntity
  8
치수문자_일반주서
100
AcDbDimension
  2
_D
 10
77.85874571577389
 20
6.350000000000072
 30
0.0
 11
77.85874571577392
 21
0.0000000000000728
 31
0.0
 70
   160
  1
%%c<>
 71
     2
 42
12.7
 52
-270.0
  3
SLDDIMSTYLE0
100
AcDbAlignedDimension
 13
59.27600000000093
 23
-6.349999999999996
 33
0.0
 14
59.21350000000093
 24
6.350000000000002
 34
0.0
 50
90.0000000000002
100
AcDbRotatedDimension
1001
ACAD
1000
DSTYLE
1002
{
1070
   273
1070
     7
1002
}
  0
DIMENSION
  5
108
330
1F
100
AcDbEntity
  8
치수문자_일반주서
100
AcDbDimension
  2
_D_1
 10
60.80000000000091
 20
39.00555141807178
 30
0.0
 11
10.00000000000091
 21
39.00555141807178
 31
0.0
 70
   160
  1
<>
 71
     2
 42
101.6
  3
SLDDIMSTYLE0
100
AcDbAlignedDimension
 13
-40.79999999999909
 23
5.849999999999999
 33
0.0
 14
60.80000000000091
 24
4.826000000000004
 34
0.0
100
AcDbRotatedDimension
1001
ACAD
1000
DSTYLE
1002
{
1070
   273
1070
     7
1002
}
  0
DIMENSION
  5
11C
330
1F
100
AcDbEntity
  8
치수문자_일반주서
100
AcDbDimension
  2
_D_2
 10
10.0
 20
22.45299453033794
 30
0.0
 11
34.84120226380341
 21
22.45299453033794
 31
0.0
 70
   160
  1
<>
 71
     2
 42
50.80000000000091
  3
SLDDIMSTYLE0
100
AcDbAlignedDimension
 13
60.80000000000091
 23
4.826000000000004
 33
0.0
 14
10.0
 24
6.172758784142553
 34
0.0
 50
-0.000000000000004
100
AcDbRotatedDimension
1001
ACAD
1000
DSTYLE
1002
{
1070
   273
1070
     7
1002
}
  0
INSERT
  5
146
330
1F
100
AcDbEntity
  8
외형선
100
AcDbBlockReference
  2
SW_DOWELSYMBOL_0
 10
0.0
 20
0.0
 30
0.0
  0
DIMENSION
  5
16D
102
{ACAD_REACTORS
102
}
102
{ACAD_XDICTIONARY
360
16E
102
}
330
1F
100
AcDbEntity
  8
치수문자_일반주서
100
AcDbDimension
  2
*D8
 10
-48.5290423440935
 20
-6.349999999999999
 30
0.0
 11
-48.5290423440935
 21
0.0
 31
0.0
 70
   160
  1
{%%C<>}
 71
     5
 42
12.7
  3
SLDDIMSTYLE0
100
AcDbAlignedDimension
 13
-40.29999999999909
 23
6.349999999999998
 33
0.0
 14
-40.29999999999909
 24
-6.349999999999999
 34
0.0
 50
90.0
100
AcDbRotatedDimension
1001
ACAD
1000
DSTYLE
1002
{
1070
   273
1070
     7
1002
}
  0
ARC
  5
17F
102
{ACAD_REACTORS
102
}
330
1F
100
AcDbEntity
  8
0
  6
Continuous
 62
     1
370
    15
100
AcDbCircle
 10
58.51400000000091
 20
4.064000000000004
 30
0.0
 40
2.285999999999999
100
AcDbArc
 50
0.0
 51
90.0
  0
ARC
  5
181
330
1F
100
AcDbEntity
  8
0
  6
Continuous
 62
     1
370
    15
100
AcDbCircle
 10
58.5140000000009
 20
-4.063999999999992
 30
0.0
 40
2.285999999999999
100
AcDbArc
 50
269.9999999999998
 51
359.9999999999999
  0
DIMENSION
  5
182
102
{ACAD_REACTORS
102
}
102
{ACAD_XDICTIONARY
360
183
102
}
330
1F
100
AcDbEntity
  8
치수문자_일반주서
100
AcDbDimension
  2
*D9
 10
58.51400000000091
 20
4.064000000000004
 30
0.0
 11
74.8812468352318
 21
20.68583766268412
 31
0.0
 70
   164
  1
<>
 71
     5
 42
2.286
  3
SLDDIMSTYLE0
100
AcDbRadialDimension
 15
60.11792353511345
 25
5.692872399395391
 35
0.0
 40
0.0
1001
ACAD
1000
DSTYLE
1002
{
1070
   273
1070
     2
1002
}
1001
ACAD_DSTYLE_DIMRADIAL_EXTENSION
1070
   387
1070
     1
1070
   388
1040
0.0
1070
   390
1040
1.570796326794897
  0
ENDSEC
  0
SECTION
  2
OBJECTS
  0
DICTIONARY
  5
C
330
0
100
AcDbDictionary
281
     1
  3
ACAD_GROUP
350
D
  3
ACAD_IMAGE_VARS
350
16A
  3
ACAD_LAYOUT
350
1A
  3
ACAD_MLINESTYLE
350
17
  3
ACAD_PLOTSETTINGS
350
19
  3
ACAD_PLOTSTYLENAME
350
E
  3
ACAD_SCALELIST
350
47
  3
APPDATA
350
168
  3
DWGPROPS
350
18F
  0
DICTIONARY
  5
16E
330
16D
100
AcDbDictionary
280
     1
281
     1
  0
DICTIONARY
  5
183
330
182
100
AcDbDictionary
280
     1
281
     1
  0
DICTIONARY
  5
D
102
{ACAD_REACTORS
330
C
102
}
330
C
100
AcDbDictionary
281
     1
  0
RASTERVARIABLES
  5
16A
102
{ACAD_REACTORS
330
C
102
}
330
C
100
AcDbRasterVariables
 90
        0
 70
     1
 71
     1
 72
     1
  0
DICTIONARY
  5
1A
102
{ACAD_REACTORS
330
C
102
}
330
C
100
AcDbDictionary
281
     1
  3
Layout1
350
1E
  3
Layout2
350
26
  3
Model
350
22
  0
DICTIONARY
  5
17
102
{ACAD_REACTORS
330
C
102
}
330
C
100
AcDbDictionary
281
     1
  3
Standard
350
18
  0
DICTIONARY
  5
19
102
{ACAD_REACTORS
330
C
102
}
330
C
100
AcDbDictionary
281
     1
  0
ACDBDICTIONARYWDFLT
  5
E
102
{ACAD_REACTORS
330
C
102
}
330
C
100
AcDbDictionary
281
     1
  3
Normal
350
F
100
AcDbDictionaryWithDefault
340
F
  0
DICTIONARY
  5
47
102
{ACAD_REACTORS
330
C
102
}
330
C
100
AcDbDictionary
281
     1
  3
A0
350
48
  3
A1
350
49
  3
A2
350
4A
  3
A3
350
4B
  3
A4
350
4C
  3
A5
350
4D
  3
A6
350
4E
  3
A7
350
4F
  3
A8
350
50
  3
A9
350
51
  3
B0
350
52
  3
B1
350
53
  3
B2
350
54
  3
B3
350
55
  3
B4
350
56
  3
B5
350
57
  3
B6
350
58
  3
B7
350
59
  3
B8
350
5A
  3
B9
350
5B
  3
C0
350
5C
  3
C1
350
5D
  3
C2
350
5E
  3
C3
350
5F
  3
C4
350
60
  3
C5
350
61
  3
C6
350
62
  3
C7
350
63
  3
C8
350
64
  3
C9
350
65
  3
D0
350
66
  3
D1
350
67
  3
D2
350
68
  0
DICTIONARY
  5
168
102
{ACAD_REACTORS
330
C
102
}
330
C
100
AcDbDictionary
281
     1
  0
XRECORD
  5
18F
102
{ACAD_REACTORS
330
C
102
}
330
C
100
AcDbXrecord
280
     1
  1
DWGPROPS COOKIE
  2

  3

  4

  6

  7

  8
12016016
  9

300
=
301
=
302
=
303
=
304
=
305
=
306
=
307
=
308
=
309
=
 40
0.0
 41
2458236.370197129
 42
2458241.370039444
  1

 90
        0
  0
LAYOUT
  5
1E
102
{ACAD_REACTORS
330
1A
102
}
330
1A
100
AcDbPlotSettings
  1

  2
none_device
  4

  6

 40
0.0
 41
0.0
 42
0.0
 43
0.0
 44
0.0
 45
0.0
 46
0.0
 47
0.0
 48
0.0
 49
0.0
140
0.0
141
0.0
142
1.0
143
1.0
 70
   688
 72
     1
 73
     0
 74
     5
  7

 75
    16
147
1.0
148
0.0
149
0.0
100
AcDbLayout
  1
Layout1
 70
     1
 71
     1
 10
0.0
 20
0.0
 11
420.0
 21
297.0
 12
0.0
 22
0.0
 32
0.0
 14
1.000000000000000E+20
 24
1.000000000000000E+20
 34
1.000000000000000E+20
 15
-1.000000000000000E+20
 25
-1.000000000000000E+20
 35
-1.000000000000000E+20
146
0.0
 13
0.0
 23
0.0
 33
0.0
 16
1.0
 26
0.0
 36
0.0
 17
0.0
 27
1.0
 37
0.0
 76
     0
330
1B
  0
LAYOUT
  5
26
102
{ACAD_REACTORS
330
1A
102
}
330
1A
100
AcDbPlotSettings
  1

  2
none_device
  4

  6

 40
0.0
 41
0.0
 42
0.0
 43
0.0
 44
0.0
 45
0.0
 46
0.0
 47
0.0
 48
0.0
 49
0.0
140
0.0
141
0.0
142
1.0
143
1.0
 70
   688
 72
     1
 73
     0
 74
     5
  7

 75
    16
147
1.0
148
0.0
149
0.0
100
AcDbLayout
  1
Layout2
 70
     1
 71
     2
 10
0.0
 20
0.0
 11
0.0
 21
0.0
 12
0.0
 22
0.0
 32
0.0
 14
0.0
 24
0.0
 34
0.0
 15
0.0
 25
0.0
 35
0.0
146
0.0
 13
0.0
 23
0.0
 33
0.0
 16
1.0
 26
0.0
 36
0.0
 17
0.0
 27
1.0
 37
0.0
 76
     0
330
23
  0
LAYOUT
  5
22
102
{ACAD_REACTORS
330
1A
102
}
330
1A
100
AcDbPlotSettings
  1

  2
none_device
  4
ANSI_A_(11.00_x_8.50_Inches)
  6

 40
6.35
 41
19.05
 42
6.35000508
 43
19.05000254
 44
279.4
 45
215.9
 46
118.2346955137777
 47
90.02664380718818
 48
0.0
 49
0.0
140
0.0
141
0.0
142
0.0750837051803466
143
1.0
 70
  1696
 72
     0
 73
     0
 74
     0
  7

 75
     0
147
0.0235690232323232
148
0.0
149
0.0
100
AcDbLayout
  1
Model
 70
     1
 71
     0
 10
0.0
 20
0.0
 11
420.0
 21
297.0
 12
0.0
 22
0.0
 32
0.0
 14
-52.9040423440935
 24
-49.71142936356763
 34
0.0
 15
85.01101325613615
 25
43.38055141807178
 35
0.0
146
0.0
 13
0.0
 23
0.0
 33
0.0
 16
1.0
 26
0.0
 36
0.0
 17
0.0
 27
1.0
 37
0.0
 76
     0
330
1F
331
29
  0
MLINESTYLE
  5
18
102
{ACAD_REACTORS
330
17
102
}
330
17
100
AcDbMlineStyle
  2
Standard
 70
     0
  3

 62
   256
 51
90.0
 52
90.0
 71
     2
 49
0.5
 62
   256
  6
BYLAYER
 49
-0.5
 62
   256
  6
BYLAYER
  0
ACDBPLACEHOLDER
  5
F
102
{ACAD_REACTORS
330
E
102
}
330
E
  0
SCALE
  5
48
102
{ACAD_REACTORS
330
47
102
}
330
47
100
AcDbScale
 70
     0
300
1:1
140
1.0
141
1.0
290
     1
  0
SCALE
  5
49
102
{ACAD_REACTORS
330
47
102
}
330
47
100
AcDbScale
 70
     0
300
1:2
140
1.0
141
2.0
290
     0
  0
SCALE
  5
4A
102
{ACAD_REACTORS
330
47
102
}
330
47
100
AcDbScale
 70
     0
300
1:4
140
1.0
141
4.0
290
     0
  0
SCALE
  5
4B
102
{ACAD_REACTORS
330
47
102
}
330
47
100
AcDbScale
 70
     0
300
1:5
140
1.0
141
5.0
290
     0
  0
SCALE
  5
4C
102
{ACAD_REACTORS
330
47
102
}
330
47
100
AcDbScale
 70
     0
300
1:8
140
1.0
141
8.0
290
     0
  0
SCALE
  5
4D
102
{ACAD_REACTORS
330
47
102
}
330
47
100
AcDbScale
 70
     0
300
1:10
140
1.0
141
10.0
290
     0
  0
SCALE
  5
4E
102
{ACAD_REACTORS
330
47
102
}
330
47
100
AcDbScale
 70
     0
300
1:16
140
1.0
141
16.0
290
     0
  0
SCALE
  5
4F
102
{ACAD_REACTORS
330
47
102
}
330
47
100
AcDbScale
 70
     0
300
1:20
140
1.0
141
20.0
290
     0
  0
SCALE
  5
50
102
{ACAD_REACTORS
330
47
102
}
330
47
100
AcDbScale
 70
     0
300
1:30
140
1.0
141
30.0
290
     0
  0
SCALE
  5
51
102
{ACAD_REACTORS
330
47
102
}
330
47
100
AcDbScale
 70
     0
300
1:40
140
1.0
141
40.0
290
     0
  0
SCALE
  5
52
102
{ACAD_REACTORS
330
47
102
}
330
47
100
AcDbScale
 70
     0
300
1:50
140
1.0
141
50.0
290
     0
  0
SCALE
  5
53
102
{ACAD_REACTORS
330
47
102
}
330
47
100
AcDbScale
 70
     0
300
1:100
140
1.0
141
100.0
290
     0
  0
SCALE
  5
54
102
{ACAD_REACTORS
330
47
102
}
330
47
100
AcDbScale
 70
     0
300
2:1
140
2.0
141
1.0
290
     0
  0
SCALE
  5
55
102
{ACAD_REACTORS
330
47
102
}
330
47
100
AcDbScale
 70
     0
300
4:1
140
4.0
141
1.0
290
     0
  0
SCALE
  5
56
102
{ACAD_REACTORS
330
47
102
}
330
47
100
AcDbScale
 70
     0
300
8:1
140
8.0
141
1.0
290
     0
  0
SCALE
  5
57
102
{ACAD_REACTORS
330
47
102
}
330
47
100
AcDbScale
 70
     0
300
10:1
140
10.0
141
1.0
290
     0
  0
SCALE
  5
58
102
{ACAD_REACTORS
330
47
102
}
330
47
100
AcDbScale
 70
     0
300
100:1
140
100.0
141
1.0
290
     0
  0
SCALE
  5
59
102
{ACAD_REACTORS
330
47
102
}
330
47
100
AcDbScale
 70
     0
300
1/128" = 1'-0"
140
0.0078125
141
12.0
290
     0
  0
SCALE
  5
5A
102
{ACAD_REACTORS
330
47
102
}
330
47
100
AcDbScale
 70
     0
300
1/64" = 1'-0"
140
0.015625
141
12.0
290
     0
  0
SCALE
  5
5B
102
{ACAD_REACTORS
330
47
102
}
330
47
100
AcDbScale
 70
     0
300
1/32" = 1'-0"
140
0.03125
141
12.0
290
     0
  0
SCALE
  5
5C
102
{ACAD_REACTORS
330
47
102
}
330
47
100
AcDbScale
 70
     0
300
1/16" = 1'-0"
140
0.0625
141
12.0
290
     0
  0
SCALE
  5
5D
102
{ACAD_REACTORS
330
47
102
}
330
47
100
AcDbScale
 70
     0
300
3/32" = 1'-0"
140
0.09375
141
12.0
290
     0
  0
SCALE
  5
5E
102
{ACAD_REACTORS
330
47
102
}
330
47
100
AcDbScale
 70
     0
300
1/8" = 1'-0"
140
0.125
141
12.0
290
     0
  0
SCALE
  5
5F
102
{ACAD_REACTORS
330
47
102
}
330
47
100
AcDbScale
 70
     0
300
3/16" = 1'-0"
140
0.1875
141
12.0
290
     0
  0
SCALE
  5
60
102
{ACAD_REACTORS
330
47
102
}
330
47
100
AcDbScale
 70
     0
300
1/4" = 1'-0"
140
0.25
141
12.0
290
     0
  0
SCALE
  5
61
102
{ACAD_REACTORS
330
47
102
}
330
47
100
AcDbScale
 70
     0
300
3/8" = 1'-0"
140
0.375
141
12.0
290
     0
  0
SCALE
  5
62
102
{ACAD_REACTORS
330
47
102
}
330
47
100
AcDbScale
 70
     0
300
1/2" = 1'-0"
140
0.5
141
12.0
290
     0
  0
SCALE
  5
63
102
{ACAD_REACTORS
330
47
102
}
330
47
100
AcDbScale
 70
     0
300
3/4" = 1'-0"
140
0.75
141
12.0
290
     0
  0
SCALE
  5
64
102
{ACAD_REACTORS
330
47
102
}
330
47
100
AcDbScale
 70
     0
300
1" = 1'-0"
140
1.0
141
12.0
290
     0
  0
SCALE
  5
65
102
{ACAD_REACTORS
330
47
102
}
330
47
100
AcDbScale
 70
     0
300
1-1/2" = 1'-0"
140
1.5
141
12.0
290
     0
  0
SCALE
  5
66
102
{ACAD_REACTORS
330
47
102
}
330
47
100
AcDbScale
 70
     0
300
3" = 1'-0"
140
3.0
141
12.0
290
     0
  0
SCALE
  5
67
102
{ACAD_REACTORS
330
47
102
}
330
47
100
AcDbScale
 70
     0
300
6" = 1'-0"
140
6.0
141
12.0
290
     0
  0
SCALE
  5
68
102
{ACAD_REACTORS
330
47
102
}
330
47
100
AcDbScale
 70
     0
300
1'-0" = 1'-0"
140
12.0
141
12.0
290
     0
  0
ENDSEC
  0
EOF
