  0
SECTION
  2
HEADER
  9
$ACADVER
  1
AC1015
  9
$ACADMAINTVER
 70
     6
  9
$DWGCODEPAGE
  3
ANSI_949
  9
$INSBASE
 10
0.0
 20
0.0
 30
0.0
  9
$EXTMIN
 10
1.000000000000000E+20
 20
1.000000000000000E+20
 30
1.000000000000000E+20
  9
$EXTMAX
 10
-1.000000000000000E+20
 20
-1.000000000000000E+20
 30
-1.000000000000000E+20
  9
$LIMMIN
 10
0.0
 20
0.0
  9
$LIMMAX
 10
420.0
 20
297.0
  9
$ORTHOMODE
 70
     0
  9
$REGENMODE
 70
     1
  9
$FILLMODE
 70
     1
  9
$QTEXTMODE
 70
     0
  9
$MIRRTEXT
 70
     1
  9
$LTSCALE
 40
1.0
  9
$ATTMODE
 70
     1
  9
$TEXTSIZE
 40
3.5
  9
$TRACEWID
 40
1.0
  9
$TEXTSTYLE
  7
Standard
  9
$CLAYER
  8
0
  9
$CELTYPE
  6
ByLayer
  9
$CECOLOR
 62
   256
  9
$CELTSCALE
 40
1.0
  9
$DISPSILH
 70
     0
  9
$DIMSCALE
 40
1.0
  9
$DIMASZ
 40
3.302
  9
$DIMEXO
 40
1.0
  9
$DIMDLI
 40
3.75
  9
$DIMRND
 40
0.0
  9
$DIMDLE
 40
0.0
  9
$DIMEXE
 40
1.0
  9
$DIMTP
 40
0.0
  9
$DIMTM
 40
0.0
  9
$DIMTXT
 40
3.5
  9
$DIMCEN
 40
2.5
  9
$DIMTSZ
 40
0.0
  9
$DIMTOL
 70
     0
  9
$DIMLIM
 70
     0
  9
$DIMTIH
 70
     1
  9
$DIMTOH
 70
     1
  9
$DIMSE1
 70
     0
  9
$DIMSE2
 70
     0
  9
$DIMTAD
 70
     1
  9
$DIMZIN
 70
     0
  9
$DIMBLK
  1

  9
$DIMASO
 70
     1
  9
$DIMSHO
 70
     1
  9
$DIMPOST
  1

  9
$DIMAPOST
  1

  9
$DIMALT
 70
     0
  9
$DIMALTD
 70
     3
  9
$DIMALTF
 40
0.0393700787401575
  9
$DIMLFAC
 40
1.0
  9
$DIMTOFL
 70
     1
  9
$DIMTVP
 40
0.0
  9
$DIMTIX
 70
     0
  9
$DIMSOXD
 70
     0
  9
$DIMSAH
 70
     0
  9
$DIMBLK1
  1

  9
$DIMBLK2
  1

  9
$DIMSTYLE
  2
ISO-25
  9
$DIMCLRD
 70
     0
  9
$DIMCLRE
 70
     0
  9
$DIMCLRT
 70
     0
  9
$DIMTFAC
 40
1.0
  9
$DIMGAP
 40
1.524
  9
$DIMJUST
 70
     0
  9
$DIMSD1
 70
     0
  9
$DIMSD2
 70
     0
  9
$DIMTOLJ
 70
     0
  9
$DIMTZIN
 70
     0
  9
$DIMALTZ
 70
     0
  9
$DIMALTTZ
 70
     0
  9
$DIMUPT
 70
     0
  9
$DIMDEC
 70
     2
  9
$DIMTDEC
 70
     2
  9
$DIMALTU
 70
     2
  9
$DIMALTTD
 70
     3
  9
$DIMTXSTY
  7
Standard
  9
$DIMAUNIT
 70
     0
  9
$DIMADEC
 70
     2
  9
$DIMALTRND
 40
0.0
  9
$DIMAZIN
 70
     0
  9
$DIMDSEP
 70
    44
  9
$DIMATFIT
 70
     3
  9
$DIMFRAC
 70
     0
  9
$DIMLDRBLK
  1

  9
$DIMLUNIT
 70
     2
  9
$DIMLWD
 70
    -2
  9
$DIMLWE
 70
    -2
  9
$DIMTMOVE
 70
     0
  9
$LUNITS
 70
     2
  9
$LUPREC
 70
     2
  9
$SKETCHINC
 40
1.0
  9
$FILLETRAD
 40
10.0
  9
$AUNITS
 70
     0
  9
$AUPREC
 70
     2
  9
$MENU
  1
.
  9
$ELEVATION
 40
0.0
  9
$PELEVATION
 40
0.0
  9
$THICKNESS
 40
0.0
  9
$LIMCHECK
 70
     0
  9
$CHAMFERA
 40
0.0
  9
$CHAMFERB
 40
0.0
  9
$CHAMFERC
 40
0.0
  9
$CHAMFERD
 40
0.0
  9
$SKPOLY
 70
     0
  9
$TDCREATE
 40
2458236.745031192
  9
$TDUCREATE
 40
2458236.370031192
  9
$TDUPDATE
 40
2458241.745496933
  9
$TDUUPDATE
 40
2458241.370496933
  9
$TDINDWG
 40
0.0004394676
  9
$TDUSRTIMER
 40
2458241.370057674
  9
$USRTIMER
 70
     1
  9
$ANGBASE
 50
0.0
  9
$ANGDIR
 70
     0
  9
$PDMODE
 70
     0
  9
$PDSIZE
 40
-1.0
  9
$PLINEWID
 40
0.0
  9
$SPLFRAME
 70
     0
  9
$SPLINETYPE
 70
     6
  9
$SPLINESEGS
 70
     8
  9
$HANDSEED
  5
44C
  9
$SURFTAB1
 70
     6
  9
$SURFTAB2
 70
     6
  9
$SURFTYPE
 70
     6
  9
$SURFU
 70
     6
  9
$SURFV
 70
     6
  9
$UCSBASE
  2

  9
$UCSNAME
  2

  9
$UCSORG
 10
0.0
 20
0.0
 30
0.0
  9
$UCSXDIR
 10
1.0
 20
0.0
 30
0.0
  9
$UCSYDIR
 10
0.0
 20
1.0
 30
0.0
  9
$UCSORTHOREF
  2

  9
$UCSORTHOVIEW
 70
     0
  9
$UCSORGTOP
 10
0.0
 20
0.0
 30
0.0
  9
$UCSORGBOTTOM
 10
0.0
 20
0.0
 30
0.0
  9
$UCSORGLEFT
 10
0.0
 20
0.0
 30
0.0
  9
$UCSORGRIGHT
 10
0.0
 20
0.0
 30
0.0
  9
$UCSORGFRONT
 10
0.0
 20
0.0
 30
0.0
  9
$UCSORGBACK
 10
0.0
 20
0.0
 30
0.0
  9
$PUCSBASE
  2

  9
$PUCSNAME
  2

  9
$PUCSORG
 10
0.0
 20
0.0
 30
0.0
  9
$PUCSXDIR
 10
1.0
 20
0.0
 30
0.0
  9
$PUCSYDIR
 10
0.0
 20
1.0
 30
0.0
  9
$PUCSORTHOREF
  2

  9
$PUCSORTHOVIEW
 70
     0
  9
$PUCSORGTOP
 10
0.0
 20
0.0
 30
0.0
  9
$PUCSORGBOTTOM
 10
0.0
 20
0.0
 30
0.0
  9
$PUCSORGLEFT
 10
0.0
 20
0.0
 30
0.0
  9
$PUCSORGRIGHT
 10
0.0
 20
0.0
 30
0.0
  9
$PUCSORGFRONT
 10
0.0
 20
0.0
 30
0.0
  9
$PUCSORGBACK
 10
0.0
 20
0.0
 30
0.0
  9
$USERI1
 70
     0
  9
$USERI2
 70
     0
  9
$USERI3
 70
     0
  9
$USERI4
 70
     0
  9
$USERI5
 70
     0
  9
$USERR1
 40
0.0
  9
$USERR2
 40
0.0
  9
$USERR3
 40
0.0
  9
$USERR4
 40
0.0
  9
$USERR5
 40
0.0
  9
$WORLDVIEW
 70
     1
  9
$SHADEDGE
 70
     3
  9
$SHADEDIF
 70
    70
  9
$TILEMODE
 70
     1
  9
$MAXACTVP
 70
    64
  9
$PINSBASE
 10
0.0
 20
0.0
 30
0.0
  9
$PLIMCHECK
 70
     0
  9
$PEXTMIN
 10
1.000000000000000E+20
 20
1.000000000000000E+20
 30
1.000000000000000E+20
  9
$PEXTMAX
 10
-1.000000000000000E+20
 20
-1.000000000000000E+20
 30
-1.000000000000000E+20
  9
$PLIMMIN
 10
0.0
 20
0.0
  9
$PLIMMAX
 10
0.0
 20
0.0
  9
$UNITMODE
 70
     0
  9
$VISRETAIN
 70
     1
  9
$PLINEGEN
 70
     0
  9
$PSLTSCALE
 70
     1
  9
$TREEDEPTH
 70
  3020
  9
$CMLSTYLE
  2
Standard
  9
$CMLJUST
 70
     0
  9
$CMLSCALE
 40
20.0
  9
$PROXYGRAPHICS
 70
     1
  9
$MEASUREMENT
 70
     1
  9
$CELWEIGHT
370
    -1
  9
$ENDCAPS
280
     0
  9
$JOINSTYLE
280
     0
  9
$LWDISPLAY
290
     1
  9
$INSUNITS
 70
     4
  9
$HYPERLINKBASE
  1

  9
$STYLESHEET
  1

  9
$XEDIT
290
     1
  9
$CEPSNTYPE
380
     0
  9
$PSTYLEMODE
290
     1
  9
$FINGERPRINTGUID
  2
{E615996C-B276-4DEA-910A-A6DBE58649FF}
  9
$VERSIONGUID
  2
{FAEB1C32-E019-11D5-929B-00C0DF256EC4}
  9
$EXTNAMES
290
     1
  9
$PSVPSCALE
 40
0.0
  9
$OLESTARTUP
290
     0
  0
ENDSEC
  0
SECTION
  2
CLASSES
  0
CLASS
  1
ACDBDICTIONARYWDFLT
  2
AcDbDictionaryWithDefault
  3
ObjectDBX Classes
 90
        0
280
     0
281
     0
  0
CLASS
  1
VISUALSTYLE
  2
AcDbVisualStyle
  3
ObjectDBX Classes
 90
     4095
280
     0
281
     0
  0
CLASS
  1
MATERIAL
  2
AcDbMaterial
  3
ObjectDBX Classes
 90
     1153
280
     0
281
     0
  0
CLASS
  1
SCALE
  2
AcDbScale
  3
ObjectDBX Classes
 90
     1153
280
     0
281
     0
  0
CLASS
  1
SUN
  2
AcDbSun
  3
SCENEOE
 90
     1153
280
     0
281
     0
  0
CLASS
  1
ACDBPLACEHOLDER
  2
AcDbPlaceHolder
  3
ObjectDBX Classes
 90
        0
280
     0
281
     0
  0
CLASS
  1
LAYOUT
  2
AcDbLayout
  3
ObjectDBX Classes
 90
        0
280
     0
281
     0
  0
CLASS
  1
TABLESTYLE
  2
AcDbTableStyle
  3
ObjectDBX Classes
 90
     4095
280
     0
281
     0
  0
CLASS
  1
MLEADERSTYLE
  2
AcDbMLeaderStyle
  3
ACDB_MLEADERSTYLE_CLASS
 90
     4095
280
     0
281
     0
  0
CLASS
  1
RASTERVARIABLES
  2
AcDbRasterVariables
  3
ISM
 90
        0
280
     0
281
     0
  0
CLASS
  1
DIMASSOC
  2
AcDbDimAssoc
  3
"AcDbDimAssoc|Product Desc:     AcDim ARX App For Dimension|Company:          Autodesk, Inc.|WEB Address:      www.autodesk.com"
 90
        0
280
     0
281
     0
  0
ENDSEC
  0
SECTION
  2
TABLES
  0
TABLE
  2
VPORT
  5
8
330
0
100
AcDbSymbolTable
 70
     1
  0
VPORT
  5
29
330
8
100
AcDbSymbolTableRecord
100
AcDbViewportTableRecord
  2
*Active
 70
     0
 10
0.0
 20
0.0
 11
1.0
 21
1.0
 12
96.60049070809995
 22
20.09324329907344
 13
0.0
 23
0.0
 14
10.0
 24
10.0
 15
10.0
 25
10.0
 16
0.0
 26
0.0
 36
1.0
 17
0.0
 27
0.0
 37
0.0
 40
139.2160780712273
 41
1.328320802005013
 42
50.0
 43
0.0
 44
0.0
 50
0.0
 51
0.0
 71
    16
 72
  2000
 73
     1
 74
     3
 75
     0
 76
     0
 77
     0
 78
     0
281
     0
 65
     1
110
0.0
120
0.0
130
0.0
111
1.0
121
0.0
131
0.0
112
0.0
122
1.0
132
0.0
 79
     0
146
0.0
  0
ENDTAB
  0
TABLE
  2
LTYPE
  5
5
330
0
100
AcDbSymbolTable
 70
     6
  0
LTYPE
  5
14
330
5
100
AcDbSymbolTableRecord
100
AcDbLinetypeTableRecord
  2
ByBlock
 70
     0
  3

 72
    65
 73
     0
 40
0.0
  0
LTYPE
  5
15
330
5
100
AcDbSymbolTableRecord
100
AcDbLinetypeTableRecord
  2
ByLayer
 70
     0
  3

 72
    65
 73
     0
 40
0.0
  0
LTYPE
  5
16
330
5
100
AcDbSymbolTableRecord
100
AcDbLinetypeTableRecord
  2
Continuous
 70
     0
  3
Solid line
 72
    65
 73
     0
 40
0.0
  0
LTYPE
  5
6A
330
5
100
AcDbSymbolTableRecord
100
AcDbLinetypeTableRecord
  2
HIDDEN
 70
     0
  3
Hidden __ __ __ __ __ __ __ __ __ __ __ __ __ __
 72
    65
 73
     2
 40
1.905
 49
1.27
 74
     0
 49
-0.635
 74
     0
  0
LTYPE
  5
6B
330
5
100
AcDbSymbolTableRecord
100
AcDbLinetypeTableRecord
  2
PHANTOM
 70
     0
  3
Phantom ______  __  __  ______  __  __  ______
 72
    65
 73
     6
 40
12.7
 49
6.35
 74
     0
 49
-1.27
 74
     0
 49
1.27
 74
     0
 49
-1.27
 74
     0
 49
1.27
 74
     0
 49
-1.27
 74
     0
  0
LTYPE
  5
6C
330
5
100
AcDbSymbolTableRecord
100
AcDbLinetypeTableRecord
  2
CENTER
 70
     0
  3
Center ____ _ ____ _ ____ _ ____ _ ____ _ ____
 72
    65
 73
     4
 40
10.16
 49
6.35
 74
     0
 49
-1.27
 74
     0
 49
1.27
 74
     0
 49
-1.27
 74
     0
  0
LTYPE
  5
6D
330
5
100
AcDbSymbolTableRecord
100
AcDbLinetypeTableRecord
  2
CENTERX2
 70
     0
  3
Center (2x) ________  __  ________  __  _____
 72
    65
 73
     4
 40
20.32
 49
12.7
 74
     0
 49
-2.54
 74
     0
 49
2.54
 74
     0
 49
-2.54
 74
     0
  0
LTYPE
  5
6E
330
5
100
AcDbSymbolTableRecord
100
AcDbLinetypeTableRecord
  2
DOT2
 70
     0
  3
Dot (.5x) ........................................
 72
    65
 73
     2
 40
0.635
 49
0.0
 74
     0
 49
-0.635
 74
     0
  0
ENDTAB
  0
TABLE
  2
LAYER
  5
2
330
0
100
AcDbSymbolTable
 70
    17
  0
LAYER
  5
10
330
2
100
AcDbSymbolTableRecord
100
AcDbLayerTableRecord
  2
0
 70
     0
 62
     7
  6
Continuous
370
    -3
390
F
  0
LAYER
  5
6F
330
2
100
AcDbSymbolTableRecord
100
AcDbLayerTableRecord
  2
FORMAT
 70
     0
 62
     2
  6
Continuous
370
    -3
390
F
  0
LAYER
  5
70
330
2
100
AcDbSymbolTableRecord
100
AcDbLayerTableRecord
  2
외형선
 70
     0
 62
   100
  6
Continuous
370
    30
390
F
  0
LAYER
  5
71
330
2
100
AcDbSymbolTableRecord
100
AcDbLayerTableRecord
  2
숨은선
 70
     0
 62
     2
  6
HIDDEN
370
    15
390
F
  0
LAYER
  5
72
330
2
100
AcDbSymbolTableRecord
100
AcDbLayerTableRecord
  2
중심선
 70
     0
 62
     1
  6
CENTERX2
370
    -3
390
F
  0
LAYER
  5
73
330
2
100
AcDbSymbolTableRecord
100
AcDbLayerTableRecord
  2
파단선
 70
     0
 62
     4
  6
Continuous
370
    -3
390
F
  0
LAYER
  5
74
330
2
100
AcDbSymbolTableRecord
100
AcDbLayerTableRecord
  2
해칭선
 70
     0
 62
     4
  6
Continuous
370
    -3
390
F
  0
LAYER
  5
75
330
2
100
AcDbSymbolTableRecord
100
AcDbLayerTableRecord
  2
가는실선
 70
     0
 62
     4
  6
Continuous
370
    -3
390
F
  0
LAYER
  5
76
330
2
100
AcDbSymbolTableRecord
100
AcDbLayerTableRecord
  2
치수_보조선
 70
     0
 62
     4
  6
Continuous
370
    -3
390
F
  0
LAYER
  5
77
330
2
100
AcDbSymbolTableRecord
100
AcDbLayerTableRecord
  2
치수문자_일반주서
 70
     0
 62
     7
  6
Continuous
370
    15
390
F
  0
LAYER
  5
78
330
2
100
AcDbSymbolTableRecord
100
AcDbLayerTableRecord
  2
개별주서
 70
     0
 62
   100
  6
Continuous
370
    30
390
F
  0
LAYER
  5
79
330
2
100
AcDbSymbolTableRecord
100
AcDbLayerTableRecord
  2
중간선
 70
     0
 62
     2
  6
Continuous
370
    15
390
F
  0
LAYER
  5
7A
330
2
100
AcDbSymbolTableRecord
100
AcDbLayerTableRecord
  2
윤곽선
 70
     0
 62
     3
  6
Continuous
370
    40
390
F
  0
LAYER
  5
7B
330
2
100
AcDbSymbolTableRecord
100
AcDbLayerTableRecord
  2
중심마크
 70
     0
 62
   100
  6
Continuous
370
    30
390
F
  0
LAYER
  5
7C
330
2
100
AcDbSymbolTableRecord
100
AcDbLayerTableRecord
  2
가상선
 70
     0
 62
     4
  6
PHANTOM
370
    -3
390
F
  0
LAYER
  5
7D
330
2
100
AcDbSymbolTableRecord
100
AcDbLayerTableRecord
  2
특수지정선
 70
     0
 62
     5
  6
CENTERX2
370
    60
390
F
  0
LAYER
  5
182
330
2
100
AcDbSymbolTableRecord
100
AcDbLayerTableRecord
  2
Defpoints
 70
     0
 62
     7
  6
Continuous
290
     0
370
    -3
390
F
  0
ENDTAB
  0
TABLE
  2
STYLE
  5
3
330
0
100
AcDbSymbolTable
 70
     2
  0
STYLE
  5
11
330
3
100
AcDbSymbolTableRecord
100
AcDbTextStyleTableRecord
  2
Standard
 70
     0
 40
0.0
 41
1.0
 50
0.0
 71
     0
 42
3.5
  3
txt
  4

  0
STYLE
  5
93
330
3
100
AcDbSymbolTableRecord
100
AcDbTextStyleTableRecord
  2
SLDTEXTSTYLE0
 70
     0
 40
0.0
 41
0.75
 50
0.0
 71
     0
 42
3.5
  3
TXT
  4

  0
ENDTAB
  0
TABLE
  2
VIEW
  5
6
330
0
100
AcDbSymbolTable
 70
     0
  0
ENDTAB
  0
TABLE
  2
UCS
  5
7
330
0
100
AcDbSymbolTable
 70
     0
  0
ENDTAB
  0
TABLE
  2
APPID
  5
9
330
0
100
AcDbSymbolTable
 70
     2
  0
APPID
  5
12
330
9
100
AcDbSymbolTableRecord
100
AcDbRegAppTableRecord
  2
ACAD
 70
     0
  0
APPID
  5
43D
330
9
100
AcDbSymbolTableRecord
100
AcDbRegAppTableRecord
  2
ACAD_DSTYLE_DIMRADIAL_EXTENSION
 70
     0
  0
ENDTAB
  0
TABLE
  2
DIMSTYLE
  5
A
330
0
100
AcDbSymbolTable
 70
     4
100
AcDbDimStyleTable
  0
DIMSTYLE
105
27
330
A
100
AcDbSymbolTableRecord
100
AcDbDimStyleTableRecord
  2
ISO-25
 70
     0
 41
2.5
 42
0.625
 43
3.75
 44
1.25
 73
     0
 74
     0
 77
     1
 78
     8
140
2.5
141
2.5
143
0.03937007874016
147
0.625
171
     3
172
     1
178
     0
271
     2
272
     2
274
     3
278
    44
283
     0
284
     8
340
11
  0
DIMSTYLE
105
10A
102
{ACAD_REACTORS
330
200
330
34E
330
35B
330
368
330
37C
330
406
330
407
330
408
330
40A
330
43E
102
}
330
A
100
AcDbSymbolTableRecord
100
AcDbDimStyleTableRecord
  2
SLDDIMSTYLE0
 70
     0
 41
3.302
 44
0.0
 45
0.000000001
 73
     0
 74
     0
 77
     1
 78
    12
 79
     3
140
3.5
143
0.0393700787401575
147
0.875
148
0.000000001
170
     1
172
     1
173
     1
178
     0
271
     2
272
     2
276
     2
284
    12
289
     0
340
93
  0
DIMSTYLE
105
11F
102
{ACAD_REACTORS
330
20D
330
21A
102
}
330
A
100
AcDbSymbolTableRecord
100
AcDbDimStyleTableRecord
  2
SLDDIMSTYLE1
 70
     0
 41
3.302
 44
0.0
 45
0.000000001
 73
     0
 74
     0
 77
     1
 78
     4
 79
     1
140
3.5
143
0.0393700787401575
147
0.875
148
0.000000001
170
     1
173
     1
178
     0
271
     2
272
     2
276
     2
284
    12
340
93
  0
DIMSTYLE
105
146
330
A
100
AcDbSymbolTableRecord
100
AcDbDimStyleTableRecord
  2
SLDDIMSTYLE2
 70
     0
 41
3.302
 44
0.0
 45
0.000000001
 73
     0
 74
     0
 77
     1
 78
     8
 79
     2
140
3.5
143
0.0393700787401575
147
0.875
148
0.000000001
170
     1
172
     1
173
     1
178
     0
271
     2
272
     2
276
     2
284
    12
289
     0
340
93
341
147
343
147
344
147
  0
ENDTAB
  0
TABLE
  2
BLOCK_RECORD
  5
1
330
0
100
AcDbSymbolTable
 70
    25
  0
BLOCK_RECORD
  5
1F
330
1
100
AcDbSymbolTableRecord
100
AcDbBlockTableRecord
  2
*Model_Space
340
22
  0
BLOCK_RECORD
  5
1B
330
1
100
AcDbSymbolTableRecord
100
AcDbBlockTableRecord
  2
*Paper_Space
340
1E
  0
BLOCK_RECORD
  5
23
330
1
100
AcDbSymbolTableRecord
100
AcDbBlockTableRecord
  2
*Paper_Space0
340
26
  0
BLOCK_RECORD
  5
7E
330
1
100
AcDbSymbolTableRecord
100
AcDbBlockTableRecord
  2
블럭10
340
0
102
{BLKREFS
331
101
102
}
  0
BLOCK_RECORD
  5
10B
330
1
100
AcDbSymbolTableRecord
100
AcDbBlockTableRecord
  2
_D
340
0
  0
BLOCK_RECORD
  5
120
330
1
100
AcDbSymbolTableRecord
100
AcDbBlockTableRecord
  2
_D_1
340
0
  0
BLOCK_RECORD
  5
133
330
1
100
AcDbSymbolTableRecord
100
AcDbBlockTableRecord
  2
_D_2
340
0
  0
BLOCK_RECORD
  5
147
330
1
100
AcDbSymbolTableRecord
100
AcDbBlockTableRecord
  2
_NONE
340
0
  0
BLOCK_RECORD
  5
14A
330
1
100
AcDbSymbolTableRecord
100
AcDbBlockTableRecord
  2
_D_3
340
0
  0
BLOCK_RECORD
  5
156
330
1
100
AcDbSymbolTableRecord
100
AcDbBlockTableRecord
  2
SW_DOWELSYMBOL_0
340
0
102
{BLKREFS
331
0
331
227
331
0
331
375
331
409
102
}
  0
BLOCK_RECORD
  5
230
330
1
100
AcDbSymbolTableRecord
100
AcDbBlockTableRecord
  2
*D9
340
0
  0
BLOCK_RECORD
  5
23C
330
1
100
AcDbSymbolTableRecord
100
AcDbBlockTableRecord
  2
*D10
340
0
  0
BLOCK_RECORD
  5
248
330
1
100
AcDbSymbolTableRecord
100
AcDbBlockTableRecord
  2
*D11
340
0
  0
BLOCK_RECORD
  5
2AE
330
1
100
AcDbSymbolTableRecord
100
AcDbBlockTableRecord
  2
*D12
340
0
  0
BLOCK_RECORD
  5
2BA
330
1
100
AcDbSymbolTableRecord
100
AcDbBlockTableRecord
  2
*D13
340
0
  0
BLOCK_RECORD
  5
2C6
330
1
100
AcDbSymbolTableRecord
100
AcDbBlockTableRecord
  2
*D14
340
0
  0
BLOCK_RECORD
  5
37F
330
1
100
AcDbSymbolTableRecord
100
AcDbBlockTableRecord
  2
*D16
340
0
  0
BLOCK_RECORD
  5
38D
330
1
100
AcDbSymbolTableRecord
100
AcDbBlockTableRecord
  2
*D17
340
0
  0
BLOCK_RECORD
  5
399
330
1
100
AcDbSymbolTableRecord
100
AcDbBlockTableRecord
  2
*D18
340
0
  0
BLOCK_RECORD
  5
3A5
330
1
100
AcDbSymbolTableRecord
100
AcDbBlockTableRecord
  2
*D19
340
0
  0
BLOCK_RECORD
  5
40D
330
1
100
AcDbSymbolTableRecord
100
AcDbBlockTableRecord
  2
*D20
340
0
  0
BLOCK_RECORD
  5
419
330
1
100
AcDbSymbolTableRecord
100
AcDbBlockTableRecord
  2
*D21
340
0
  0
BLOCK_RECORD
  5
425
330
1
100
AcDbSymbolTableRecord
100
AcDbBlockTableRecord
  2
*D22
340
0
  0
BLOCK_RECORD
  5
431
330
1
100
AcDbSymbolTableRecord
100
AcDbBlockTableRecord
  2
*D23
340
0
  0
BLOCK_RECORD
  5
441
330
1
100
AcDbSymbolTableRecord
100
AcDbBlockTableRecord
  2
*D24
340
0
  0
ENDTAB
  0
ENDSEC
  0
SECTION
  2
BLOCKS
  0
BLOCK
  5
20
330
1F
100
AcDbEntity
  8
0
100
AcDbBlockBegin
  2
*Model_Space
 70
     0
 10
0.0
 20
0.0
 30
0.0
  3
*Model_Space
  1
*Model_Space
  0
ENDBLK
  5
21
330
1F
100
AcDbEntity
  8
0
100
AcDbBlockEnd
  0
BLOCK
  5
1C
330
1B
100
AcDbEntity
 67
     1
  8
0
100
AcDbBlockBegin
  2
*Paper_Space
 70
     0
 10
0.0
 20
0.0
 30
0.0
  3
*Paper_Space
  1
*Paper_Space
  0
ENDBLK
  5
1D
330
1B
100
AcDbEntity
 67
     1
  8
0
100
AcDbBlockEnd
  0
BLOCK
  5
24
330
23
100
AcDbEntity
  8
0
100
AcDbBlockBegin
  2
*Paper_Space0
 70
     0
 10
0.0
 20
0.0
 30
0.0
  3
*Paper_Space0
  1
*Paper_Space0
  0
ENDBLK
  5
25
330
23
100
AcDbEntity
  8
0
100
AcDbBlockEnd
  0
BLOCK
  5
7F
330
7E
100
AcDbEntity
  8
0
100
AcDbBlockBegin
  2
블럭10
 70
     2
 10
0.0
 20
0.0
 30
0.0
  3
블럭10
  1
블럭10
  0
ELLIPSE
  5
81
330
7E
100
AcDbEntity
  8
중심선
100
AcDbEllipse
 10
20.54032771741204
 20
12.0471743016438
 30
0.0
 11
6.600054785286829
 21
-1.261213355974178E-13
 31
0.0
210
0.0
220
0.0
230
1.0
 40
0.636358354079598
 41
0.9219305317359503
 42
6.513795318482858
  0
ELLIPSE
  5
82
330
7E
100
AcDbEntity
  8
중심선
100
AcDbEllipse
 10
20.54032771746488
 20
12.04717430159265
 30
0.0
 11
3.960054785062283
 21
1.540847449632565E-10
 31
0.0
210
0.0
220
0.0
230
1.0
 40
0.3939339440162632
 41
1.131841032648279
 42
5.62031148352944
  0
LINE
  5
83
330
7E
100
AcDbEntity
  8
중심선
100
AcDbLine
 10
2.268634060543552
 20
16.24717430164393
 30
0.0
 11
5.714909304380834
 21
16.24717430164393
 31
0.0
  0
LINE
  5
84
330
7E
100
AcDbEntity
  8
중심선
100
AcDbLine
 10
5.245725140726316
 20
7.84717430164391
 30
0.0
 11
8.692000384563599
 21
7.84717430164391
 31
0.0
  0
LINE
  5
85
330
7E
100
AcDbEntity
  8
중심선
100
AcDbLine
 10
15.74043728645272
 20
16.24717430164393
 30
0.0
 11
8.692000384563599
 21
7.84717430164391
 31
0.0
  0
LINE
  5
86
330
7E
100
AcDbEntity
  8
중심선
100
AcDbLine
 10
0.1404042013395286
 20
13.71084872107135
 30
0.0
 11
3.58671253028996
 21
13.71088815037384
 31
0.0
  0
LINE
  5
87
330
7E
100
AcDbEntity
  8
중심선
100
AcDbLine
 10
2.750260043222114
 20
10.84717430164391
 30
0.0
 11
6.196535287059397
 21
10.84717430164391
 31
0.0
  0
LINE
  5
88
330
7E
100
AcDbEntity
  8
중심선
100
AcDbLine
 10
12.29416204261559
 20
16.24717430164393
 30
0.0
 11
5.245725140726316
 21
7.84717430164391
 31
0.0
  0
LINE
  5
89
330
7E
100
AcDbEntity
  8
중심선
100
AcDbLine
 10
10.72767329541681
 20
16.24717430164393
 30
0.0
 11
6.196535287059397
 21
10.84717430164391
 31
0.0
  0
LINE
  5
8A
330
7E
100
AcDbEntity
  8
중심선
100
AcDbLine
 10
7.28139805157953
 20
16.24717430164393
 30
0.0
 11
2.750260043222114
 21
10.84717430164391
 31
0.0
  0
LINE
  5
8B
330
7E
100
AcDbEntity
  8
중심선
100
AcDbLine
 10
5.714909304380834
 20
16.24717430164393
 30
0.0
 11
3.58671253028996
 21
13.71088815037384
 31
0.0
  0
LINE
  5
8C
330
7E
100
AcDbEntity
  8
중심선
100
AcDbLine
 10
2.268634060543552
 20
16.24717430164393
 30
0.0
 11
0.1404042013395286
 21
13.71084872107135
 31
0.0
  0
LINE
  5
8D
330
7E
100
AcDbEntity
  8
중심선
100
AcDbLine
 10
7.28139805157953
 20
16.24717430164393
 30
0.0
 11
10.72767329541681
 21
16.24717430164393
 31
0.0
  0
LINE
  5
8E
330
7E
100
AcDbEntity
  8
중심선
100
AcDbLine
 10
12.29416204261559
 20
16.24717430164393
 30
0.0
 11
15.74043728645272
 21
16.24717430164393
 31
0.0
  0
LINE
  5
8F
330
7E
100
AcDbEntity
  8
중심선
100
AcDbLine
 10
19.22036997980202
 20
11.08717430171403
 30
0.0
 11
23.66174974927406
 21
11.08717430171406
 31
0.0
  0
LINE
  5
90
330
7E
100
AcDbEntity
  8
중심선
100
AcDbLine
 10
19.22039502424796
 20
13.00717430171391
 30
0.0
 11
19.22036997980202
 21
11.08717430171403
 31
0.0
  0
LINE
  5
91
330
7E
100
AcDbEntity
  8
중심선
100
AcDbLine
 10
19.22039502424796
 20
13.00717430171391
 30
0.0
 11
26.96566020931264
 21
13.00717430171391
 31
0.0
  0
LINE
  5
92
330
7E
100
AcDbEntity
  8
중심선
100
AcDbLine
 10
22.22332737316547
 20
13.45928029700563
 30
0.0
 11
24.52862924686651
 21
15.39360700705356
 31
0.0
  0
ATTDEF
  5
94
330
7E
100
AcDbEntity
  8
FORMAT
 62
     2
100
AcDbText
 10
-11.05102035218446
 20
2.075366912832191
 30
0.0
 40
4.233333333333333
  1
GMG22924[ 6 FLUTE ]
 41
0.75
  7
SLDTEXTSTYLE0
 11
-11.05102035218446
 21
-0.0412997538344756
 31
0.0
100
AcDbAttributeDefinition
  3

  2
AUTOATTR0
 70
     0
 74
     1
  0
ENDBLK
  5
80
330
7E
100
AcDbEntity
  8
0
100
AcDbBlockEnd
  0
BLOCK
  5
10C
330
10B
100
AcDbEntity
  8
0
100
AcDbBlockBegin
  2
_D
 70
     0
 10
0.0
 20
0.0
 30
0.0
  3
_D
  1
_D
  0
SOLID
  5
10E
330
10B
100
AcDbEntity
  8
치수문자_일반주서
100
AcDbTrace
 10
79.44475979569853
 20
-12.96227443117071
 30
0.0
 11
78.93675979569853
 21
-16.2642744311707
 31
0.0
 12
79.95275979569853
 22
-16.2642744311707
 32
0.0
 13
79.95275979569853
 23
-16.2642744311707
 33
0.0
  0
SOLID
  5
10F
330
10B
100
AcDbEntity
  8
치수문자_일반주서
100
AcDbTrace
 10
79.44475979569853
 20
-6.612274431170683
 30
0.0
 11
79.95275979569853
 21
-3.310274431170684
 31
0.0
 12
78.93675979569853
 22
-3.310274431170684
 32
0.0
 13
78.93675979569853
 23
-3.310274431170684
 33
0.0
  0
LINE
  5
110
330
10B
100
AcDbEntity
  8
치수문자_일반주서
100
AcDbLine
 10
68.65187807965577
 20
-15.69819464689283
 30
0.0
 11
68.65187807965577
 21
-16.40913213245733
 31
0.0
  0
LINE
  5
111
330
10B
100
AcDbEntity
  8
치수문자_일반주서
100
AcDbLine
 10
68.65187807965577
 20
-16.40913213245733
 30
0.0
 11
74.20812807071508
 21
-16.40913213245733
 31
0.0
  0
LINE
  5
112
330
10B
100
AcDbEntity
  8
치수문자_일반주서
100
AcDbLine
 10
74.20812807071508
 20
-16.40913213245733
 30
0.0
 11
74.20812807071508
 21
-15.69819464689283
 31
0.0
  0
LINE
  5
113
330
10B
100
AcDbEntity
  8
치수문자_일반주서
100
AcDbLine
 10
68.65187807965577
 20
-4.869461784755572
 30
0.0
 11
68.65187807965577
 21
-4.158524299191072
 31
0.0
  0
LINE
  5
114
330
10B
100
AcDbEntity
  8
치수문자_일반주서
100
AcDbLine
 10
68.65187807965577
 20
-4.158524299191072
 30
0.0
 11
74.20812807071508
 21
-4.158524299191072
 31
0.0
  0
LINE
  5
115
330
10B
100
AcDbEntity
  8
치수문자_일반주서
100
AcDbLine
 10
74.20812807071508
 20
-4.158524299191072
 30
0.0
 11
74.20812807071508
 21
-4.869461784755572
 31
0.0
  0
LINE
  5
116
330
10B
100
AcDbEntity
  8
치수문자_일반주서
100
AcDbLine
 10
61.79951407992554
 20
-12.96227443117071
 30
0.0
 11
80.44475979569853
 21
-12.96227443117071
 31
0.0
  0
LINE
  5
117
330
10B
100
AcDbEntity
  8
치수문자_일반주서
100
AcDbLine
 10
61.79951407992554
 20
-6.612274431170684
 30
0.0
 11
80.44475979569853
 21
-6.612274431170683
 31
0.0
  0
LINE
  5
118
330
10B
100
AcDbEntity
  8
치수문자_일반주서
100
AcDbLine
 10
79.44475979569853
 20
-12.96227443117071
 30
0.0
 11
79.44475979569853
 21
-19.3122744311707
 31
0.0
  0
LINE
  5
119
330
10B
100
AcDbEntity
  8
치수문자_일반주서
100
AcDbLine
 10
79.44475979569853
 20
-12.96227443117071
 30
0.0
 11
79.44475979569853
 21
-6.612274431170683
 31
0.0
  0
LINE
  5
11A
330
10B
100
AcDbEntity
  8
치수문자_일반주서
100
AcDbLine
 10
79.44475979569853
 20
-6.612274431170683
 30
0.0
 11
79.44475979569853
 21
-0.2622744311706832
 31
0.0
  0
MTEXT
  5
11B
330
10B
100
AcDbEntity
  8
치수문자_일반주서
100
AcDbMText
 10
69.69639115613617
 20
-14.80952274628146
 30
0.0
 40
3.5
 41
0.0
 71
     1
 72
     1
  1
0.25
  7
SLDTEXTSTYLE0
 11
6.123233995736766E-17
 21
1.0
 31
0.0
 73
     1
 44
1.0
  0
MTEXT
  5
11C
330
10B
100
AcDbEntity
  8
치수문자_일반주서
100
AcDbMText
 10
74.93302270649664
 20
-17.44874191112979
 30
0.0
 40
3.5
 41
0.0
 71
     1
 72
     1
  1
%%c
  7
SLDTEXTSTYLE0
 11
6.123233995736766E-17
 21
1.0
 31
0.0
 73
     1
 44
1.0
  0
MTEXT
  5
11D
330
10B
100
AcDbEntity
  8
치수문자_일반주서
100
AcDbMText
 10
74.93302270649664
 20
-12.17030451275571
 30
0.0
 40
3.5
 41
0.0
 71
     1
 72
     1
  1
6.35
  7
SLDTEXTSTYLE0
 11
6.123233995736766E-17
 21
1.0
 31
0.0
 73
     1
 44
1.0
  0
ENDBLK
  5
10D
330
10B
100
AcDbEntity
  8
0
100
AcDbBlockEnd
  0
BLOCK
  5
121
330
120
100
AcDbEntity
  8
0
100
AcDbBlockBegin
  2
_D_1
 70
     0
 10
0.0
 20
0.0
 30
0.0
  3
_D_1
  1
_D_1
  0
SOLID
  5
123
330
120
100
AcDbEntity
  8
치수문자_일반주서
100
AcDbTrace
 10
-40.80048592007447
 20
38.74327698690109
 30
0.0
 11
-37.49848592007447
 21
38.23527698690109
 31
0.0
 12
-37.49848592007447
 22
39.2512769869011
 32
0.0
 13
-37.49848592007447
 23
39.2512769869011
 33
0.0
  0
SOLID
  5
124
330
120
100
AcDbEntity
  8
치수문자_일반주서
100
AcDbTrace
 10
60.79951407992552
 20
38.74327698690109
 30
0.0
 11
57.49751407992552
 21
39.2512769869011
 31
0.0
 12
57.49751407992552
 22
38.23527698690109
 32
0.0
 13
57.49751407992552
 23
38.23527698690109
 33
0.0
  0
LINE
  5
125
330
120
100
AcDbEntity
  8
치수문자_일반주서
100
AcDbLine
 10
4.585147998102862
 20
49.53615870294384
 30
0.0
 11
3.874210512538362
 21
49.53615870294384
 31
0.0
  0
LINE
  5
126
330
120
100
AcDbEntity
  8
치수문자_일반주서
100
AcDbLine
 10
3.874210512538362
 20
49.53615870294384
 30
0.0
 11
3.874210512538362
 21
43.97990871188454
 31
0.0
  0
LINE
  5
127
330
120
100
AcDbEntity
  8
치수문자_일반주서
100
AcDbLine
 10
3.874210512538362
 20
43.97990871188454
 30
0.0
 11
4.585147998102862
 21
43.97990871188454
 31
0.0
  0
LINE
  5
128
330
120
100
AcDbEntity
  8
치수문자_일반주서
100
AcDbLine
 10
15.41388086024012
 20
49.53615870294384
 30
0.0
 11
16.12481834580462
 21
49.53615870294384
 31
0.0
  0
LINE
  5
129
330
120
100
AcDbEntity
  8
치수문자_일반주서
100
AcDbLine
 10
16.12481834580462
 20
49.53615870294384
 30
0.0
 11
16.12481834580462
 21
43.97990871188454
 31
0.0
  0
LINE
  5
12A
330
120
100
AcDbEntity
  8
치수문자_일반주서
100
AcDbLine
 10
16.12481834580462
 20
43.97990871188454
 30
0.0
 11
15.41388086024012
 21
43.97990871188454
 31
0.0
  0
LINE
  5
12B
330
120
100
AcDbEntity
  8
치수문자_일반주서
100
AcDbLine
 10
-40.80048592007447
 20
6.587725568829308
 30
0.0
 11
-40.80048592007447
 21
39.74327698690109
 31
0.0
  0
LINE
  5
12C
330
120
100
AcDbEntity
  8
치수문자_일반주서
100
AcDbLine
 10
60.79951407992552
 20
6.325725568829312
 30
0.0
 11
60.79951407992552
 21
39.74327698690109
 31
0.0
  0
LINE
  5
12D
330
120
100
AcDbEntity
  8
치수문자_일반주서
100
AcDbLine
 10
-40.80048592007447
 20
38.74327698690109
 30
0.0
 11
60.79951407992552
 21
38.74327698690109
 31
0.0
  0
MTEXT
  5
12E
330
120
100
AcDbEntity
  8
치수문자_일반주서
100
AcDbMText
 10
2.907152875599373
 20
43.30848625276282
 30
0.0
 40
3.5
 41
0.0
 71
     1
 72
     1
  1

  7
SLDTEXTSTYLE0
 73
     1
 44
1.0
  0
MTEXT
  5
12F
330
120
100
AcDbEntity
  8
치수문자_일반주서
100
AcDbMText
 10
5.473819898714233
 20
48.49164562646344
 30
0.0
 40
3.5
 41
0.0
 71
     1
 72
     1
  1
4.00
  7
SLDTEXTSTYLE0
 73
     1
 44
1.0
  0
MTEXT
  5
130
330
120
100
AcDbEntity
  8
치수문자_일반주서
100
AcDbMText
 10
2.887708472360778
 20
43.25501407610297
 30
0.0
 40
3.5
 41
0.0
 71
     1
 72
     1
  1
101.60
  7
SLDTEXTSTYLE0
 73
     1
 44
1.0
  0
MTEXT
  5
131
330
120
100
AcDbEntity
  8
치수문자_일반주서
100
AcDbMText
 10
18.42382050239753
 20
43.30848625276282
 30
0.0
 40
3.5
 41
0.0
 71
     1
 72
     1
  1

  7
SLDTEXTSTYLE0
 73
     1
 44
1.0
  0
ENDBLK
  5
122
330
120
100
AcDbEntity
  8
0
100
AcDbBlockEnd
  0
BLOCK
  5
134
330
133
100
AcDbEntity
  8
0
100
AcDbBlockBegin
  2
_D_2
 70
     0
 10
0.0
 20
0.0
 30
0.0
  3
_D_2
  1
_D_2
  0
SOLID
  5
136
330
133
100
AcDbEntity
  8
치수문자_일반주서
100
AcDbTrace
 10
60.79951407992552
 20
22.95272009916723
 30
0.0
 11
57.49751407992552
 21
23.46072009916723
 31
0.0
 12
57.49751407992552
 22
22.44472009916723
 32
0.0
 13
57.49751407992552
 23
22.44472009916723
 33
0.0
  0
SOLID
  5
137
330
133
100
AcDbEntity
  8
치수문자_일반주서
100
AcDbTrace
 10
9.999514079925511
 20
22.95272009916722
 30
0.0
 11
13.30151407992551
 21
22.44472009916722
 31
0.0
 12
13.30151407992551
 22
23.46072009916722
 32
0.0
 13
13.30151407992551
 23
23.46072009916722
 33
0.0
  0
LINE
  5
138
330
133
100
AcDbEntity
  8
치수문자_일반주서
100
AcDbLine
 10
29.42635026190583
 20
33.74560181521002
 30
0.0
 11
28.71541277634133
 21
33.74560181521002
 31
0.0
  0
LINE
  5
139
330
133
100
AcDbEntity
  8
치수문자_일반주서
100
AcDbLine
 10
28.71541277634133
 20
33.74560181521002
 30
0.0
 11
28.71541277634137
 21
28.18935182415072
 31
0.0
  0
LINE
  5
13A
330
133
100
AcDbEntity
  8
치수문자_일반주서
100
AcDbLine
 10
28.71541277634137
 20
28.18935182415072
 30
0.0
 11
29.42635026190587
 21
28.18935182415072
 31
0.0
  0
LINE
  5
13B
330
133
100
AcDbEntity
  8
치수문자_일반주서
100
AcDbLine
 10
40.25508312404308
 20
33.7456018152101
 30
0.0
 11
40.96602060960758
 21
33.74560181521011
 31
0.0
  0
LINE
  5
13C
330
133
100
AcDbEntity
  8
치수문자_일반주서
100
AcDbLine
 10
40.96602060960758
 20
33.74560181521011
 30
0.0
 11
40.96602060960763
 21
28.1893518241508
 31
0.0
  0
LINE
  5
13D
330
133
100
AcDbEntity
  8
치수문자_일반주서
100
AcDbLine
 10
40.96602060960763
 20
28.1893518241508
 30
0.0
 11
40.25508312404313
 21
28.1893518241508
 31
0.0
  0
LINE
  5
13E
330
133
100
AcDbEntity
  8
치수문자_일반주서
100
AcDbLine
 10
60.79951407992552
 20
6.325725568829312
 30
0.0
 11
60.79951407992552
 21
23.95272009916723
 31
0.0
  0
LINE
  5
13F
330
133
100
AcDbEntity
  8
치수문자_일반주서
100
AcDbLine
 10
9.999514079925516
 20
6.910484352982137
 30
0.0
 11
9.999514079925511
 21
23.95272009916722
 31
0.0
  0
LINE
  5
140
330
133
100
AcDbEntity
  8
치수문자_일반주서
100
AcDbLine
 10
60.79951407992552
 20
22.95272009916723
 30
0.0
 11
9.999514079925511
 21
22.95272009916722
 31
0.0
  0
MTEXT
  5
141
330
133
100
AcDbEntity
  8
치수문자_일반주서
100
AcDbMText
 10
28.20165405085467
 20
27.51792936502898
 30
0.0
 40
3.5
 41
0.0
 71
     1
 72
     1
  1

  7
SLDTEXTSTYLE0
 73
     1
 44
1.0
  0
MTEXT
  5
142
330
133
100
AcDbEntity
  8
치수문자_일반주서
100
AcDbMText
 10
30.31502216251721
 20
32.70108873872962
 30
0.0
 40
3.5
 41
0.0
 71
     1
 72
     1
  1
2.00
  7
SLDTEXTSTYLE0
 73
     1
 44
1.0
  0
MTEXT
  5
143
330
133
100
AcDbEntity
  8
치수문자_일반주서
100
AcDbMText
 10
29.02196644934051
 20
27.46445718836914
 30
0.0
 40
3.5
 41
0.0
 71
     1
 72
     1
  1
50.80
  7
SLDTEXTSTYLE0
 73
     1
 44
1.0
  0
MTEXT
  5
144
330
133
100
AcDbEntity
  8
치수문자_일반주서
100
AcDbMText
 10
42.81172385474823
 20
27.51792936502908
 30
0.0
 40
3.5
 41
0.0
 71
     1
 72
     1
  1

  7
SLDTEXTSTYLE0
 73
     1
 44
1.0
  0
ENDBLK
  5
135
330
133
100
AcDbEntity
  8
0
100
AcDbBlockEnd
  0
BLOCK
  5
148
330
147
100
AcDbEntity
  8
0
100
AcDbBlockBegin
  2
_NONE
 70
     0
 10
0.0
 20
0.0
 30
0.0
  3
_NONE
  1
_NONE
  0
ENDBLK
  5
149
330
147
100
AcDbEntity
  8
0
100
AcDbBlockEnd
  0
BLOCK
  5
14B
330
14A
100
AcDbEntity
  8
0
100
AcDbBlockBegin
  2
_D_3
 70
     0
 10
0.0
 20
0.0
 30
0.0
  3
_D_3
  1
_D_3
  0
LINE
  5
14D
330
14A
100
AcDbEntity
  8
치수문자_일반주서
100
AcDbLine
 10
-64.5933676361172
 20
-12.02664086223941
 30
0.0
 11
-64.5933676361172
 21
-12.73757834780391
 31
0.0
  0
LINE
  5
14E
330
14A
100
AcDbEntity
  8
치수문자_일반주서
100
AcDbLine
 10
-64.5933676361172
 20
-12.73757834780391
 30
0.0
 11
-59.0371176450579
 21
-12.73757834780386
 31
0.0
  0
LINE
  5
14F
330
14A
100
AcDbEntity
  8
치수문자_일반주서
100
AcDbLine
 10
-59.0371176450579
 20
-12.73757834780386
 30
0.0
 11
-59.0371176450579
 21
-12.02664086223936
 31
0.0
  0
LINE
  5
150
330
14A
100
AcDbEntity
  8
치수문자_일반주서
100
AcDbLine
 10
-64.59336763611728
 20
-1.197908000102147
 30
0.0
 11
-64.59336763611728
 21
-0.4869705145376466
 31
0.0
  0
LINE
  5
151
330
14A
100
AcDbEntity
  8
치수문자_일반주서
100
AcDbLine
 10
-64.59336763611728
 20
-0.4869705145376466
 30
0.0
 11
-59.03711764505798
 21
-0.4869705145376075
 31
0.0
  0
LINE
  5
152
330
14A
100
AcDbEntity
  8
치수문자_일반주서
100
AcDbLine
 10
-59.03711764505798
 20
-0.4869705145376075
 30
0.0
 11
-59.03711764505798
 21
-1.197908000102108
 31
0.0
  0
MTEXT
  5
153
330
14A
100
AcDbEntity
  8
치수문자_일반주서
100
AcDbMText
 10
-63.54885455963681
 20
-11.13796896162803
 30
0.0
 40
3.5
 41
0.0
 71
     1
 72
     1
  1
0.00
  7
SLDTEXTSTYLE0
 11
-7.044195017643634E-15
 21
1.0
 31
0.0
 73
     1
 44
1.0
  0
MTEXT
  5
154
330
14A
100
AcDbEntity
  8
치수문자_일반주서
100
AcDbMText
 10
-58.31222300927633
 20
-10.5445488435345
 30
0.0
 40
3.5
 41
0.0
 71
     1
 72
     1
  1
%%c
  7
SLDTEXTSTYLE0
 11
-7.044195017643634E-15
 21
1.0
 31
0.0
 73
     1
 44
1.0
  0
MTEXT
  5
155
330
14A
100
AcDbEntity
  8
치수문자_일반주서
100
AcDbMText
 10
-58.31222300927637
 20
-5.26611144516042
 30
0.0
 40
3.5
 41
0.0
 71
     1
 72
     1
  1
0
  7
SLDTEXTSTYLE0
 11
-7.044195017643634E-15
 21
1.0
 31
0.0
 73
     1
 44
1.0
  0
ENDBLK
  5
14C
330
14A
100
AcDbEntity
  8
0
100
AcDbBlockEnd
  0
BLOCK
  5
157
330
156
100
AcDbEntity
  8
0
100
AcDbBlockBegin
  2
SW_DOWELSYMBOL_0
 70
     0
 10
0.0
 20
0.0
 30
0.0
  3
SW_DOWELSYMBOL_0
  1
SW_DOWELSYMBOL_0
  0
CIRCLE
  5
159
330
156
100
AcDbEntity
  8
외형선
 62
     0
100
AcDbCircle
 10
0.0
 20
0.0
 30
0.0
 40
3.000000000000014
  0
HATCH
  5
15A
330
156
100
AcDbEntity
  8
0
  6
Continuous
 62
     0
370
    30
100
AcDbHatch
 10
0.0
 20
0.0
 30
0.0
210
0.0
220
0.0
230
1.0
  2
SOLID
 70
     1
 71
     0
 91
        1
 92
        0
 93
        3
 72
     2
 10
0.0
 20
0.0
 40
3.000000000000014
 50
0.0
 51
90.0
 73
     1
 72
     1
 10
0.0
 20
3.000000000000014
 11
0.0
 21
0.0
 72
     1
 10
0.0
 20
0.0
 11
3.000000000000014
 21
0.0
 97
        0
 75
     0
 76
     1
 98
        1
 10
0.0
 20
0.0
  0
HATCH
  5
15B
330
156
100
AcDbEntity
  8
0
  6
Continuous
 62
     0
370
    30
100
AcDbHatch
 10
0.0
 20
0.0
 30
0.0
210
0.0
220
0.0
230
1.0
  2
SOLID
 70
     1
 71
     0
 91
        1
 92
        0
 93
        3
 72
     2
 10
0.0
 20
0.0
 40
3.000000000000014
 50
180.0
 51
270.0000000000008
 73
     1
 72
     1
 10
0.0
 20
-3.000000000000014
 11
0.0
 21
0.0
 72
     1
 10
0.0
 20
0.0
 11
-3.000000000000014
 21
0.0
 97
        0
 75
     0
 76
     1
 98
        1
 10
0.0
 20
0.0
  0
ENDBLK
  5
158
330
156
100
AcDbEntity
  8
0
100
AcDbBlockEnd
  0
BLOCK
  5
231
330
230
100
AcDbEntity
  8
0
100
AcDbBlockBegin
  2
*D9
 70
     1
 10
0.0
 20
0.0
 30
0.0
  3
*D9
  1
*D9
  0
LINE
  5
233
330
230
100
AcDbEntity
  8
치수문자_일반주서
 62
     0
370
    -2
100
AcDbLine
 10
103.1385
 20
2.784053784653548
 30
0.0
 11
121.658745715773
 21
2.784053784653617
 31
0.0
  0
LINE
  5
234
330
230
100
AcDbEntity
  8
치수문자_일반주서
 62
     0
370
    -2
100
AcDbLine
 10
103.076
 20
15.48405378465355
 30
0.0
 11
121.658745715773
 21
15.48405378465362
 31
0.0
  0
LINE
  5
235
330
230
100
AcDbEntity
  8
치수문자_일반주서
 62
     0
370
    -2
100
AcDbLine
 10
121.658745715773
 20
6.086053784653616
 30
0.0
 11
121.658745715773
 21
12.18205378465362
 31
0.0
  0
SOLID
  5
236
330
230
100
AcDbEntity
  8
치수문자_일반주서
 62
     0
100
AcDbTrace
 10
121.1084123824397
 20
6.086053784653615
 30
0.0
 11
122.2090790491063
 21
6.086053784653618
 31
0.0
 12
121.658745715773
 22
2.784053784653617
 32
0.0
 13
121.658745715773
 23
2.784053784653617
 33
0.0
  0
SOLID
  5
237
330
230
100
AcDbEntity
  8
치수문자_일반주서
 62
     0
100
AcDbTrace
 10
122.2090790491063
 20
12.18205378465362
 30
0.0
 11
121.1084123824397
 21
12.18205378465361
 31
0.0
 12
121.658745715773
 22
15.48405378465362
 32
0.0
 13
121.658745715773
 23
15.48405378465362
 33
0.0
  0
MTEXT
  5
238
330
230
100
AcDbEntity
  8
치수문자_일반주서
 62
     0
100
AcDbMText
 10
117.283745715773
 20
11.8125
 30
0.0
 40
3.5
 41
0.0
 71
     2
 72
     1
  1
\A1;%%c12.7 [0.50]
  7
SLDTEXTSTYLE0
 11
-3.356894814614647E-15
 21
1.0
 31
0.0
 73
     1
 44
1.0
  0
POINT
  5
239
330
230
100
AcDbEntity
  8
Defpoints
 62
     0
100
AcDbPoint
 10
103.076
 20
2.784053784653548
 30
0.0
  0
POINT
  5
23A
330
230
100
AcDbEntity
  8
Defpoints
 62
     0
100
AcDbPoint
 10
103.0135
 20
15.48405378465355
 30
0.0
  0
POINT
  5
23B
330
230
100
AcDbEntity
  8
Defpoints
 62
     0
100
AcDbPoint
 10
121.658745715773
 20
15.48405378465362
 30
0.0
  0
ENDBLK
  5
232
330
230
100
AcDbEntity
  8
0
100
AcDbBlockEnd
  0
BLOCK
  5
23D
330
23C
100
AcDbEntity
  8
0
100
AcDbBlockBegin
  2
*D10
 70
     1
 10
0.0
 20
0.0
 30
0.0
  3
*D10
  1
*D10
  0
LINE
  5
23F
330
23C
100
AcDbEntity
  8
치수문자_일반주서
 62
     0
370
    -2
100
AcDbLine
 10
2.999999999999986
 20
15.04655378465354
 30
0.0
 11
2.999999999999986
 21
48.13960520272533
 31
0.0
  0
LINE
  5
240
330
23C
100
AcDbEntity
  8
치수문자_일반주서
 62
     0
370
    -2
100
AcDbLine
 10
104.6
 20
14.02255378465355
 30
0.0
 11
104.6
 21
48.13960520272533
 31
0.0
  0
LINE
  5
241
330
23C
100
AcDbEntity
  8
치수문자_일반주서
 62
     0
370
    -2
100
AcDbLine
 10
6.301999999999985
 20
48.13960520272533
 30
0.0
 11
101.298
 21
48.13960520272533
 31
0.0
  0
SOLID
  5
242
330
23C
100
AcDbEntity
  8
치수문자_일반주서
 62
     0
100
AcDbTrace
 10
6.301999999999985
 20
48.68993853605866
 30
0.0
 11
6.301999999999985
 21
47.58927186939199
 31
0.0
 12
2.999999999999986
 22
48.13960520272533
 32
0.0
 13
2.999999999999986
 23
48.13960520272533
 33
0.0
  0
SOLID
  5
243
330
23C
100
AcDbEntity
  8
치수문자_일반주서
 62
     0
100
AcDbTrace
 10
101.298
 20
47.58927186939199
 30
0.0
 11
101.298
 21
48.68993853605866
 31
0.0
 12
104.6
 22
48.13960520272533
 32
0.0
 13
104.6
 23
48.13960520272533
 33
0.0
  0
MTEXT
  5
244
330
23C
100
AcDbEntity
  8
치수문자_일반주서
 62
     0
100
AcDbMText
 10
53.79999999999998
 20
52.51460520272533
 30
0.0
 40
3.5
 41
0.0
 71
     2
 72
     1
  1
\A1;101.60 [4.00]
  7
SLDTEXTSTYLE0
 73
     1
 44
1.0
  0
POINT
  5
245
330
23C
100
AcDbEntity
  8
Defpoints
 62
     0
100
AcDbPoint
 10
2.999999999999986
 20
14.98405378465354
 30
0.0
  0
POINT
  5
246
330
23C
100
AcDbEntity
  8
Defpoints
 62
     0
100
AcDbPoint
 10
104.6
 20
13.96005378465355
 30
0.0
  0
POINT
  5
247
330
23C
100
AcDbEntity
  8
Defpoints
 62
     0
100
AcDbPoint
 10
104.6
 20
48.13960520272533
 30
0.0
  0
ENDBLK
  5
23E
330
23C
100
AcDbEntity
  8
0
100
AcDbBlockEnd
  0
BLOCK
  5
249
330
248
100
AcDbEntity
  8
0
100
AcDbBlockBegin
  2
*D11
 70
     1
 10
0.0
 20
0.0
 30
0.0
  3
*D11
  1
*D11
  0
LINE
  5
24B
330
248
100
AcDbEntity
  8
치수문자_일반주서
 62
     0
370
    -2
100
AcDbLine
 10
104.6
 20
14.02255378465355
 30
0.0
 11
104.6
 21
31.58704831499148
 31
0.0
  0
LINE
  5
24C
330
248
100
AcDbEntity
  8
치수문자_일반주서
 62
     0
370
    -2
100
AcDbLine
 10
53.79999999999907
 20
15.3693125687961
 30
0.0
 11
53.79999999999907
 21
31.58704831499148
 31
0.0
  0
LINE
  5
24D
330
248
100
AcDbEntity
  8
치수문자_일반주서
 62
     0
370
    -2
100
AcDbLine
 10
101.298
 20
31.58704831499148
 30
0.0
 11
57.10199999999907
 21
31.58704831499148
 31
0.0
  0
SOLID
  5
24E
330
248
100
AcDbEntity
  8
치수문자_일반주서
 62
     0
100
AcDbTrace
 10
101.298
 20
31.03671498165815
 30
0.0
 11
101.298
 21
32.13738164832482
 31
0.0
 12
104.6
 22
31.58704831499148
 32
0.0
 13
104.6
 23
31.58704831499148
 33
0.0
  0
SOLID
  5
24F
330
248
100
AcDbEntity
  8
치수문자_일반주서
 62
     0
100
AcDbTrace
 10
57.10199999999907
 20
32.13738164832482
 30
0.0
 11
57.10199999999907
 21
31.03671498165815
 31
0.0
 12
53.79999999999907
 22
31.58704831499148
 32
0.0
 13
53.79999999999907
 23
31.58704831499148
 33
0.0
  0
MTEXT
  5
250
330
248
100
AcDbEntity
  8
치수문자_일반주서
 62
     0
100
AcDbMText
 10
78.64120226380248
 20
35.96204831499148
 30
0.0
 40
3.5
 41
0.0
 71
     2
 72
     1
  1
\A1;50.80 [2.00]
  7
SLDTEXTSTYLE0
 73
     1
 44
1.0
  0
POINT
  5
251
330
248
100
AcDbEntity
  8
Defpoints
 62
     0
100
AcDbPoint
 10
104.6
 20
13.96005378465355
 30
0.0
  0
POINT
  5
252
330
248
100
AcDbEntity
  8
Defpoints
 62
     0
100
AcDbPoint
 10
53.79999999999907
 20
15.3068125687961
 30
0.0
  0
POINT
  5
253
330
248
100
AcDbEntity
  8
Defpoints
 62
     0
100
AcDbPoint
 10
53.79999999999907
 20
31.58704831499148
 30
0.0
  0
ENDBLK
  5
24A
330
248
100
AcDbEntity
  8
0
100
AcDbBlockEnd
  0
BLOCK
  5
2AF
330
2AE
100
AcDbEntity
  8
0
100
AcDbBlockBegin
  2
*D12
 70
     1
 10
0.0
 20
0.0
 30
0.0
  3
*D12
  1
*D12
  0
LINE
  5
2B1
330
2AE
100
AcDbEntity
  8
치수문자_일반주서
 62
     0
370
    -2
100
AcDbLine
 10
-35.30458775700109
 20
-93.9903968767698
 30
0.0
 11
-16.78434204122805
 21
-93.99039687676972
 31
0.0
  0
LINE
  5
2B2
330
2AE
100
AcDbEntity
  8
치수문자_일반주서
 62
     0
370
    -2
100
AcDbLine
 10
-35.36708775700109
 20
-81.29039687676979
 30
0.0
 11
-16.7843420412281
 21
-81.29039687676972
 31
0.0
  0
LINE
  5
2B3
330
2AE
100
AcDbEntity
  8
치수문자_일반주서
 62
     0
370
    -2
100
AcDbLine
 10
-16.78434204122807
 20
-90.68839687676973
 30
0.0
 11
-16.78434204122809
 21
-84.59239687676973
 31
0.0
  0
SOLID
  5
2B4
330
2AE
100
AcDbEntity
  8
치수문자_일반주서
 62
     0
100
AcDbTrace
 10
-17.3346753745614
 20
-90.68839687676973
 30
0.0
 11
-16.23400870789473
 21
-90.68839687676973
 31
0.0
 12
-16.78434204122805
 22
-93.99039687676972
 32
0.0
 13
-16.78434204122805
 23
-93.99039687676972
 33
0.0
  0
SOLID
  5
2B5
330
2AE
100
AcDbEntity
  8
치수문자_일반주서
 62
     0
100
AcDbTrace
 10
-16.23400870789475
 20
-84.59239687676973
 30
0.0
 11
-17.33467537456142
 21
-84.59239687676973
 31
0.0
 12
-16.7843420412281
 22
-81.29039687676972
 32
0.0
 13
-16.7843420412281
 23
-81.29039687676972
 33
0.0
  0
MTEXT
  5
2B6
330
2AE
100
AcDbEntity
  8
치수문자_일반주서
 62
     0
100
AcDbMText
 10
-21.15934204122809
 20
-84.96195066142334
 30
0.0
 40
3.5
 41
0.0
 71
     2
 72
     1
  1
\A1;%%c12.7 [0.50]
  7
SLDTEXTSTYLE0
 11
-3.356894814614646E-15
 21
1.0
 31
0.0
 73
     1
 44
1.0
  0
POINT
  5
2B7
330
2AE
100
AcDbEntity
  8
Defpoints
 62
     0
100
AcDbPoint
 10
-35.36708775700109
 20
-93.9903968767698
 30
0.0
  0
POINT
  5
2B8
330
2AE
100
AcDbEntity
  8
Defpoints
 62
     0
100
AcDbPoint
 10
-35.42958775700109
 20
-81.29039687676979
 30
0.0
  0
POINT
  5
2B9
330
2AE
100
AcDbEntity
  8
Defpoints
 62
     0
100
AcDbPoint
 10
-16.7843420412281
 20
-81.29039687676972
 30
0.0
  0
ENDBLK
  5
2B0
330
2AE
100
AcDbEntity
  8
0
100
AcDbBlockEnd
  0
BLOCK
  5
2BB
330
2BA
100
AcDbEntity
  8
0
100
AcDbBlockBegin
  2
*D13
 70
     1
 10
0.0
 20
0.0
 30
0.0
  3
*D13
  1
*D13
  0
LINE
  5
2BD
330
2BA
100
AcDbEntity
  8
치수문자_일반주서
 62
     0
370
    -2
100
AcDbLine
 10
-135.4430877570011
 20
-81.7278968767698
 30
0.0
 11
-135.4430877570011
 21
-48.63484545869802
 31
0.0
  0
LINE
  5
2BE
330
2BA
100
AcDbEntity
  8
치수문자_일반주서
 62
     0
370
    -2
100
AcDbLine
 10
-33.8430877570011
 20
-82.75189687676979
 30
0.0
 11
-33.8430877570011
 21
-48.63484545869802
 31
0.0
  0
LINE
  5
2BF
330
2BA
100
AcDbEntity
  8
치수문자_일반주서
 62
     0
370
    -2
100
AcDbLine
 10
-132.1410877570011
 20
-48.63484545869802
 30
0.0
 11
-37.1450877570011
 21
-48.63484545869802
 31
0.0
  0
SOLID
  5
2C0
330
2BA
100
AcDbEntity
  8
치수문자_일반주서
 62
     0
100
AcDbTrace
 10
-132.1410877570011
 20
-48.08451212536468
 30
0.0
 11
-132.1410877570011
 21
-49.18517879203135
 31
0.0
 12
-135.4430877570011
 22
-48.63484545869802
 32
0.0
 13
-135.4430877570011
 23
-48.63484545869802
 33
0.0
  0
SOLID
  5
2C1
330
2BA
100
AcDbEntity
  8
치수문자_일반주서
 62
     0
100
AcDbTrace
 10
-37.1450877570011
 20
-49.18517879203135
 30
0.0
 11
-37.1450877570011
 21
-48.08451212536468
 31
0.0
 12
-33.8430877570011
 22
-48.63484545869802
 32
0.0
 13
-33.8430877570011
 23
-48.63484545869802
 33
0.0
  0
MTEXT
  5
2C2
330
2BA
100
AcDbEntity
  8
치수문자_일반주서
 62
     0
100
AcDbMText
 10
-84.6430877570011
 20
-44.25984545869802
 30
0.0
 40
3.5
 41
0.0
 71
     2
 72
     1
  1
\A1;101.60 [4.00]
  7
SLDTEXTSTYLE0
 73
     1
 44
1.0
  0
POINT
  5
2C3
330
2BA
100
AcDbEntity
  8
Defpoints
 62
     0
100
AcDbPoint
 10
-135.4430877570011
 20
-81.7903968767698
 30
0.0
  0
POINT
  5
2C4
330
2BA
100
AcDbEntity
  8
Defpoints
 62
     0
100
AcDbPoint
 10
-33.8430877570011
 20
-82.81439687676979
 30
0.0
  0
POINT
  5
2C5
330
2BA
100
AcDbEntity
  8
Defpoints
 62
     0
100
AcDbPoint
 10
-33.8430877570011
 20
-48.63484545869802
 30
0.0
  0
ENDBLK
  5
2BC
330
2BA
100
AcDbEntity
  8
0
100
AcDbBlockEnd
  0
BLOCK
  5
2C7
330
2C6
100
AcDbEntity
  8
0
100
AcDbBlockBegin
  2
*D14
 70
     1
 10
0.0
 20
0.0
 30
0.0
  3
*D14
  1
*D14
  0
LINE
  5
2C9
330
2C6
100
AcDbEntity
  8
치수문자_일반주서
 62
     0
370
    -2
100
AcDbLine
 10
-33.8430877570011
 20
-82.75189687676979
 30
0.0
 11
-33.8430877570011
 21
-65.18740234643187
 31
0.0
  0
LINE
  5
2CA
330
2C6
100
AcDbEntity
  8
치수문자_일반주서
 62
     0
370
    -2
100
AcDbLine
 10
-84.64308775700201
 20
-81.40513809262725
 30
0.0
 11
-84.64308775700201
 21
-65.18740234643187
 31
0.0
  0
LINE
  5
2CB
330
2C6
100
AcDbEntity
  8
치수문자_일반주서
 62
     0
370
    -2
100
AcDbLine
 10
-37.1450877570011
 20
-65.18740234643187
 30
0.0
 11
-81.34108775700201
 21
-65.18740234643187
 31
0.0
  0
SOLID
  5
2CC
330
2C6
100
AcDbEntity
  8
치수문자_일반주서
 62
     0
100
AcDbTrace
 10
-37.1450877570011
 20
-65.7377356797652
 30
0.0
 11
-37.1450877570011
 21
-64.63706901309854
 31
0.0
 12
-33.8430877570011
 22
-65.18740234643187
 32
0.0
 13
-33.8430877570011
 23
-65.18740234643187
 33
0.0
  0
SOLID
  5
2CD
330
2C6
100
AcDbEntity
  8
치수문자_일반주서
 62
     0
100
AcDbTrace
 10
-81.34108775700201
 20
-64.63706901309854
 30
0.0
 11
-81.34108775700201
 21
-65.7377356797652
 31
0.0
 12
-84.64308775700201
 22
-65.18740234643187
 32
0.0
 13
-84.64308775700201
 23
-65.18740234643187
 33
0.0
  0
MTEXT
  5
2CE
330
2C6
100
AcDbEntity
  8
치수문자_일반주서
 62
     0
100
AcDbMText
 10
-59.8018854931986
 20
-60.81240234643187
 30
0.0
 40
3.5
 41
0.0
 71
     2
 72
     1
  1
\A1;50.80 [2.00]
  7
SLDTEXTSTYLE0
 73
     1
 44
1.0
  0
POINT
  5
2CF
330
2C6
100
AcDbEntity
  8
Defpoints
 62
     0
100
AcDbPoint
 10
-33.8430877570011
 20
-82.81439687676979
 30
0.0
  0
POINT
  5
2D0
330
2C6
100
AcDbEntity
  8
Defpoints
 62
     0
100
AcDbPoint
 10
-84.64308775700201
 20
-81.46763809262725
 30
0.0
  0
POINT
  5
2D1
330
2C6
100
AcDbEntity
  8
Defpoints
 62
     0
100
AcDbPoint
 10
-84.64308775700201
 20
-65.18740234643187
 30
0.0
  0
ENDBLK
  5
2C8
330
2C6
100
AcDbEntity
  8
0
100
AcDbBlockEnd
  0
BLOCK
  5
380
330
37F
100
AcDbEntity
  8
0
100
AcDbBlockBegin
  2
*D16
 70
     1
 10
0.0
 20
0.0
 30
0.0
  3
*D16
  1
*D16
  0
LINE
  5
381
330
37F
100
AcDbEntity
  8
치수문자_일반주서
 62
     0
370
    -2
100
AcDbLine
 10
12.54154234409441
 20
17.725
 30
0.0
 11
4.375
 21
17.725
 31
0.0
  0
LINE
  5
382
330
37F
100
AcDbEntity
  8
치수문자_일반주서
 62
     0
370
    -2
100
AcDbLine
 10
12.54154234409441
 20
5.025000000000001
 30
0.0
 11
4.374999999999999
 21
5.025000000000001
 31
0.0
  0
LINE
  5
383
330
37F
100
AcDbEntity
  8
치수문자_일반주서
 62
     0
370
    -2
100
AcDbLine
 10
4.375
 20
14.423
 30
0.0
 11
4.374999999999999
 21
8.327000000000002
 31
0.0
  0
SOLID
  5
384
330
37F
100
AcDbEntity
  8
치수문자_일반주서
 62
     0
100
AcDbTrace
 10
4.925333333333334
 20
14.423
 30
0.0
 11
3.824666666666667
 21
14.423
 31
0.0
 12
4.375
 22
17.725
 32
0.0
 13
4.375
 23
17.725
 33
0.0
  0
SOLID
  5
385
330
37F
100
AcDbEntity
  8
치수문자_일반주서
 62
     0
100
AcDbTrace
 10
3.824666666666666
 20
8.327000000000002
 30
0.0
 11
4.925333333333333
 21
8.327000000000002
 31
0.0
 12
4.374999999999999
 22
5.025000000000001
 32
0.0
 13
4.374999999999999
 23
5.025000000000001
 33
0.0
  0
MTEXT
  5
386
330
37F
100
AcDbEntity
  8
치수문자_일반주서
 62
     0
100
AcDbMText
 10
1.75
 20
11.375
 30
0.0
 40
3.5
 41
0.0
 71
     5
 72
     1
  1
\A1;{%%C12.7 [1/2]}
  7
SLDTEXTSTYLE0
 11
6.993530863780516E-17
 21
1.0
 31
0.0
 73
     1
 44
1.0
  0
POINT
  5
387
330
37F
100
AcDbEntity
  8
Defpoints
 62
     0
100
AcDbPoint
 10
12.60404234409441
 20
17.725
 30
0.0
  0
POINT
  5
388
330
37F
100
AcDbEntity
  8
Defpoints
 62
     0
100
AcDbPoint
 10
12.60404234409441
 20
5.025000000000001
 30
0.0
  0
POINT
  5
389
330
37F
100
AcDbEntity
  8
Defpoints
 62
     0
100
AcDbPoint
 10
4.375
 20
5.025000000000002
 30
0.0
  0
ENDBLK
  5
38A
330
37F
100
AcDbEntity
  8
0
100
AcDbBlockEnd
  0
BLOCK
  5
38E
330
38D
100
AcDbEntity
  8
0
100
AcDbBlockBegin
  2
*D17
 70
     1
 10
0.0
 20
0.0
 30
0.0
  3
*D17
  1
*D17
  0
LINE
  5
390
330
38D
100
AcDbEntity
  8
치수문자_일반주서
 62
     0
370
    -2
100
AcDbLine
 10
112.2425423440944
 20
5.025000000000004
 30
0.0
 11
130.7627880598675
 21
5.025000000000073
 31
0.0
  0
LINE
  5
391
330
38D
100
AcDbEntity
  8
치수문자_일반주서
 62
     0
370
    -2
100
AcDbLine
 10
112.1800423440944
 20
17.725
 30
0.0
 11
130.7627880598674
 21
17.72500000000007
 31
0.0
  0
LINE
  5
392
330
38D
100
AcDbEntity
  8
치수문자_일반주서
 62
     0
370
    -2
100
AcDbLine
 10
130.7627880598674
 20
8.327000000000073
 30
0.0
 11
130.7627880598674
 21
14.42300000000007
 31
0.0
  0
SOLID
  5
393
330
38D
100
AcDbEntity
  8
치수문자_일반주서
 62
     0
100
AcDbTrace
 10
130.2124547265341
 20
8.327000000000071
 30
0.0
 11
131.3131213932008
 21
8.327000000000075
 31
0.0
 12
130.7627880598675
 22
5.025000000000073
 32
0.0
 13
130.7627880598675
 23
5.025000000000073
 33
0.0
  0
SOLID
  5
394
330
38D
100
AcDbEntity
  8
치수문자_일반주서
 62
     0
100
AcDbTrace
 10
131.3131213932008
 20
14.42300000000007
 30
0.0
 11
130.2124547265341
 21
14.42300000000007
 31
0.0
 12
130.7627880598674
 22
17.72500000000007
 32
0.0
 13
130.7627880598674
 23
17.72500000000007
 33
0.0
  0
MTEXT
  5
395
330
38D
100
AcDbEntity
  8
치수문자_일반주서
 62
     0
100
AcDbMText
 10
126.3877880598674
 20
11.37500000000005
 30
0.0
 40
3.5
 41
0.0
 71
     2
 72
     1
  1
\A1;%%c12.7 [1/2]
  7
SLDTEXTSTYLE0
 11
-4.475859752819529E-15
 21
1.0
 31
0.0
 73
     1
 44
1.0
  0
POINT
  5
396
330
38D
100
AcDbEntity
  8
Defpoints
 62
     0
100
AcDbPoint
 10
112.1800423440944
 20
5.025000000000004
 30
0.0
  0
POINT
  5
397
330
38D
100
AcDbEntity
  8
Defpoints
 62
     0
100
AcDbPoint
 10
112.1175423440944
 20
17.725
 30
0.0
  0
POINT
  5
398
330
38D
100
AcDbEntity
  8
Defpoints
 62
     0
100
AcDbPoint
 10
130.7627880598674
 20
17.72500000000007
 30
0.0
  0
ENDBLK
  5
38F
330
38D
100
AcDbEntity
  8
0
100
AcDbBlockEnd
  0
BLOCK
  5
39A
330
399
100
AcDbEntity
  8
0
100
AcDbBlockBegin
  2
*D18
 70
     1
 10
0.0
 20
0.0
 30
0.0
  3
*D18
  1
*D18
  0
LINE
  5
39C
330
399
100
AcDbEntity
  8
치수문자_일반주서
 62
     0
370
    -2
100
AcDbLine
 10
12.10404234409441
 20
17.2875
 30
0.0
 11
12.10404234409441
 21
50.38055141807178
 31
0.0
  0
LINE
  5
39D
330
399
100
AcDbEntity
  8
치수문자_일반주서
 62
     0
370
    -2
100
AcDbLine
 10
113.7040423440944
 20
16.2635
 30
0.0
 11
113.7040423440944
 21
50.38055141807178
 31
0.0
  0
LINE
  5
39E
330
399
100
AcDbEntity
  8
치수문자_일반주서
 62
     0
370
    -2
100
AcDbLine
 10
15.40604234409441
 20
50.38055141807178
 30
0.0
 11
110.4020423440944
 21
50.38055141807178
 31
0.0
  0
SOLID
  5
39F
330
399
100
AcDbEntity
  8
치수문자_일반주서
 62
     0
100
AcDbTrace
 10
15.40604234409441
 20
50.93088475140512
 30
0.0
 11
15.40604234409441
 21
49.83021808473845
 31
0.0
 12
12.10404234409441
 22
50.38055141807178
 32
0.0
 13
12.10404234409441
 23
50.38055141807178
 33
0.0
  0
SOLID
  5
3A0
330
399
100
AcDbEntity
  8
치수문자_일반주서
 62
     0
100
AcDbTrace
 10
110.4020423440944
 20
49.83021808473845
 30
0.0
 11
110.4020423440944
 21
50.93088475140512
 31
0.0
 12
113.7040423440944
 22
50.38055141807178
 32
0.0
 13
113.7040423440944
 23
50.38055141807178
 33
0.0
  0
MTEXT
  5
3A1
330
399
100
AcDbEntity
  8
치수문자_일반주서
 62
     0
100
AcDbMText
 10
62.90404234409441
 20
54.75555141807178
 30
0.0
 40
3.5
 41
0.0
 71
     2
 72
     1
  1
\A1;101.6 [4]
  7
SLDTEXTSTYLE0
 73
     1
 44
1.0
  0
POINT
  5
3A2
330
399
100
AcDbEntity
  8
Defpoints
 62
     0
100
AcDbPoint
 10
12.10404234409441
 20
17.225
 30
0.0
  0
POINT
  5
3A3
330
399
100
AcDbEntity
  8
Defpoints
 62
     0
100
AcDbPoint
 10
113.7040423440944
 20
16.201
 30
0.0
  0
POINT
  5
3A4
330
399
100
AcDbEntity
  8
Defpoints
 62
     0
100
AcDbPoint
 10
113.7040423440944
 20
50.38055141807178
 30
0.0
  0
ENDBLK
  5
39B
330
399
100
AcDbEntity
  8
0
100
AcDbBlockEnd
  0
BLOCK
  5
3A6
330
3A5
100
AcDbEntity
  8
0
100
AcDbBlockBegin
  2
*D19
 70
     1
 10
0.0
 20
0.0
 30
0.0
  3
*D19
  1
*D19
  0
LINE
  5
3A8
330
3A5
100
AcDbEntity
  8
치수문자_일반주서
 62
     0
370
    -2
100
AcDbLine
 10
113.7040423440944
 20
16.2635
 30
0.0
 11
113.7040423440944
 21
33.82799453033794
 31
0.0
  0
LINE
  5
3A9
330
3A5
100
AcDbEntity
  8
치수문자_일반주서
 62
     0
370
    -2
100
AcDbLine
 10
62.9040423440935
 20
17.61025878414255
 30
0.0
 11
62.9040423440935
 21
33.82799453033794
 31
0.0
  0
LINE
  5
3AA
330
3A5
100
AcDbEntity
  8
치수문자_일반주서
 62
     0
370
    -2
100
AcDbLine
 10
110.4020423440944
 20
33.82799453033794
 30
0.0
 11
66.2060423440935
 21
33.82799453033794
 31
0.0
  0
SOLID
  5
3AB
330
3A5
100
AcDbEntity
  8
치수문자_일반주서
 62
     0
100
AcDbTrace
 10
110.4020423440944
 20
33.2776611970046
 30
0.0
 11
110.4020423440944
 21
34.37832786367127
 31
0.0
 12
113.7040423440944
 22
33.82799453033794
 32
0.0
 13
113.7040423440944
 23
33.82799453033794
 33
0.0
  0
SOLID
  5
3AC
330
3A5
100
AcDbEntity
  8
치수문자_일반주서
 62
     0
100
AcDbTrace
 10
66.2060423440935
 20
34.37832786367127
 30
0.0
 11
66.2060423440935
 21
33.2776611970046
 31
0.0
 12
62.9040423440935
 22
33.82799453033794
 32
0.0
 13
62.9040423440935
 23
33.82799453033794
 33
0.0
  0
MTEXT
  5
3AD
330
3A5
100
AcDbEntity
  8
치수문자_일반주서
 62
     0
100
AcDbMText
 10
87.74524460789691
 20
38.20299453033794
 30
0.0
 40
3.5
 41
0.0
 71
     2
 72
     1
  1
\A1;50.8 [2]
  7
SLDTEXTSTYLE0
 73
     1
 44
1.0
  0
POINT
  5
3AE
330
3A5
100
AcDbEntity
  8
Defpoints
 62
     0
100
AcDbPoint
 10
113.7040423440944
 20
16.201
 30
0.0
  0
POINT
  5
3AF
330
3A5
100
AcDbEntity
  8
Defpoints
 62
     0
100
AcDbPoint
 10
62.9040423440935
 20
17.54775878414255
 30
0.0
  0
POINT
  5
3B0
330
3A5
100
AcDbEntity
  8
Defpoints
 62
     0
100
AcDbPoint
 10
62.9040423440935
 20
33.82799453033794
 30
0.0
  0
ENDBLK
  5
3A7
330
3A5
100
AcDbEntity
  8
0
100
AcDbBlockEnd
  0
BLOCK
  5
40E
330
40D
100
AcDbEntity
  8
0
100
AcDbBlockBegin
  2
*D20
 70
     1
 10
0.0
 20
0.0
 30
0.0
  3
*D20
  1
*D20
  0
LINE
  5
410
330
40D
100
AcDbEntity
  8
치수문자_일반주서
 62
     0
370
    -2
100
AcDbLine
 10
59.33850000000093
 20
-6.349999999999994
 30
0.0
 11
77.85874571577396
 21
-6.349999999999925
 31
0.0
  0
LINE
  5
411
330
40D
100
AcDbEntity
  8
치수문자_일반주서
 62
     0
370
    -2
100
AcDbLine
 10
59.27600000000093
 20
6.349999999999994
 30
0.0
 11
77.85874571577392
 21
6.350000000000064
 31
0.0
  0
LINE
  5
412
330
40D
100
AcDbEntity
  8
치수문자_일반주서
 62
     0
370
    -2
100
AcDbLine
 10
77.85874571577395
 20
-3.047999999999925
 30
0.0
 11
77.85874571577394
 21
3.048000000000064
 31
0.0
  0
SOLID
  5
413
330
40D
100
AcDbEntity
  8
치수문자_일반주서
 62
     0
100
AcDbTrace
 10
77.30841238244062
 20
-3.047999999999927
 30
0.0
 11
78.40907904910728
 21
-3.047999999999924
 31
0.0
 12
77.85874571577396
 22
-6.349999999999925
 32
0.0
 13
77.85874571577396
 23
-6.349999999999925
 33
0.0
  0
SOLID
  5
414
330
40D
100
AcDbEntity
  8
치수문자_일반주서
 62
     0
100
AcDbTrace
 10
78.40907904910726
 20
3.048000000000066
 30
0.0
 11
77.30841238244061
 21
3.048000000000062
 31
0.0
 12
77.85874571577392
 22
6.350000000000064
 32
0.0
 13
77.85874571577392
 23
6.350000000000064
 33
0.0
  0
MTEXT
  5
415
330
40D
100
AcDbEntity
  8
치수문자_일반주서
 62
     0
100
AcDbMText
 10
73.48374571577394
 20
0.0000000000000565
 30
0.0
 40
3.5
 41
0.0
 71
     2
 72
     1
  1
\A1;%%c12.7 [1/2]
  7
SLDTEXTSTYLE0
 11
-3.356894814614650E-15
 21
1.0
 31
0.0
 73
     1
 44
1.0
  0
POINT
  5
416
330
40D
100
AcDbEntity
  8
Defpoints
 62
     0
100
AcDbPoint
 10
59.27600000000093
 20
-6.349999999999994
 30
0.0
  0
POINT
  5
417
330
40D
100
AcDbEntity
  8
Defpoints
 62
     0
100
AcDbPoint
 10
59.21350000000093
 20
6.349999999999994
 30
0.0
  0
POINT
  5
418
330
40D
100
AcDbEntity
  8
Defpoints
 62
     0
100
AcDbPoint
 10
77.85874571577392
 20
6.350000000000064
 30
0.0
  0
ENDBLK
  5
40F
330
40D
100
AcDbEntity
  8
0
100
AcDbBlockEnd
  0
BLOCK
  5
41A
330
419
100
AcDbEntity
  8
0
100
AcDbBlockBegin
  2
*D21
 70
     1
 10
0.0
 20
0.0
 30
0.0
  3
*D21
  1
*D21
  0
LINE
  5
41C
330
419
100
AcDbEntity
  8
치수문자_일반주서
 62
     0
370
    -2
100
AcDbLine
 10
-40.79999999999909
 20
5.912499999999994
 30
0.0
 11
-40.79999999999909
 21
39.00555141807178
 31
0.0
  0
LINE
  5
41D
330
419
100
AcDbEntity
  8
치수문자_일반주서
 62
     0
370
    -2
100
AcDbLine
 10
60.80000000000091
 20
4.888500000000008
 30
0.0
 11
60.80000000000091
 21
39.00555141807178
 31
0.0
  0
LINE
  5
41E
330
419
100
AcDbEntity
  8
치수문자_일반주서
 62
     0
370
    -2
100
AcDbLine
 10
-37.49799999999909
 20
39.00555141807178
 30
0.0
 11
57.49800000000091
 21
39.00555141807178
 31
0.0
  0
SOLID
  5
41F
330
419
100
AcDbEntity
  8
치수문자_일반주서
 62
     0
100
AcDbTrace
 10
-37.49799999999909
 20
39.55588475140512
 30
0.0
 11
-37.49799999999909
 21
38.45521808473845
 31
0.0
 12
-40.79999999999909
 22
39.00555141807178
 32
0.0
 13
-40.79999999999909
 23
39.00555141807178
 33
0.0
  0
SOLID
  5
420
330
419
100
AcDbEntity
  8
치수문자_일반주서
 62
     0
100
AcDbTrace
 10
57.49800000000091
 20
38.45521808473845
 30
0.0
 11
57.49800000000091
 21
39.55588475140512
 31
0.0
 12
60.80000000000091
 22
39.00555141807178
 32
0.0
 13
60.80000000000091
 23
39.00555141807178
 33
0.0
  0
MTEXT
  5
421
330
419
100
AcDbEntity
  8
치수문자_일반주서
 62
     0
100
AcDbMText
 10
10.00000000000091
 20
43.38055141807178
 30
0.0
 40
3.5
 41
0.0
 71
     2
 72
     1
  1
\A1;101.6 [4]
  7
SLDTEXTSTYLE0
 73
     1
 44
1.0
  0
POINT
  5
422
330
419
100
AcDbEntity
  8
Defpoints
 62
     0
100
AcDbPoint
 10
-40.79999999999909
 20
5.849999999999994
 30
0.0
  0
POINT
  5
423
330
419
100
AcDbEntity
  8
Defpoints
 62
     0
100
AcDbPoint
 10
60.80000000000091
 20
4.826000000000008
 30
0.0
  0
POINT
  5
424
330
419
100
AcDbEntity
  8
Defpoints
 62
     0
100
AcDbPoint
 10
60.80000000000091
 20
39.00555141807178
 30
0.0
  0
ENDBLK
  5
41B
330
419
100
AcDbEntity
  8
0
100
AcDbBlockEnd
  0
BLOCK
  5
426
330
425
100
AcDbEntity
  8
0
100
AcDbBlockBegin
  2
*D22
 70
     1
 10
0.0
 20
0.0
 30
0.0
  3
*D22
  1
*D22
  0
LINE
  5
428
330
425
100
AcDbEntity
  8
치수문자_일반주서
 62
     0
370
    -2
100
AcDbLine
 10
60.80000000000091
 20
4.888500000000008
 30
0.0
 11
60.80000000000091
 21
22.45299453033795
 31
0.0
  0
LINE
  5
429
330
425
100
AcDbEntity
  8
치수문자_일반주서
 62
     0
370
    -2
100
AcDbLine
 10
10.0
 20
6.235258784142559
 30
0.0
 11
10.0
 21
22.45299453033795
 31
0.0
  0
LINE
  5
42A
330
425
100
AcDbEntity
  8
치수문자_일반주서
 62
     0
370
    -2
100
AcDbLine
 10
57.49800000000091
 20
22.45299453033795
 30
0.0
 11
13.302
 21
22.45299453033795
 31
0.0
  0
SOLID
  5
42B
330
425
100
AcDbEntity
  8
치수문자_일반주서
 62
     0
100
AcDbTrace
 10
57.49800000000091
 20
21.90266119700461
 30
0.0
 11
57.49800000000091
 21
23.00332786367128
 31
0.0
 12
60.80000000000091
 22
22.45299453033795
 32
0.0
 13
60.80000000000091
 23
22.45299453033795
 33
0.0
  0
SOLID
  5
42C
330
425
100
AcDbEntity
  8
치수문자_일반주서
 62
     0
100
AcDbTrace
 10
13.302
 20
23.00332786367128
 30
0.0
 11
13.302
 21
21.90266119700461
 31
0.0
 12
10.0
 22
22.45299453033795
 32
0.0
 13
10.0
 23
22.45299453033795
 33
0.0
  0
MTEXT
  5
42D
330
425
100
AcDbEntity
  8
치수문자_일반주서
 62
     0
100
AcDbMText
 10
34.84120226380341
 20
26.82799453033795
 30
0.0
 40
3.5
 41
0.0
 71
     2
 72
     1
  1
\A1;50.8 [2]
  7
SLDTEXTSTYLE0
 73
     1
 44
1.0
  0
POINT
  5
42E
330
425
100
AcDbEntity
  8
Defpoints
 62
     0
100
AcDbPoint
 10
60.80000000000091
 20
4.826000000000008
 30
0.0
  0
POINT
  5
42F
330
425
100
AcDbEntity
  8
Defpoints
 62
     0
100
AcDbPoint
 10
10.0
 20
6.172758784142559
 30
0.0
  0
POINT
  5
430
330
425
100
AcDbEntity
  8
Defpoints
 62
     0
100
AcDbPoint
 10
10.0
 20
22.45299453033795
 30
0.0
  0
ENDBLK
  5
427
330
425
100
AcDbEntity
  8
0
100
AcDbBlockEnd
  0
BLOCK
  5
432
330
431
100
AcDbEntity
  8
0
100
AcDbBlockBegin
  2
*D23
 70
     1
 10
0.0
 20
0.0
 30
0.0
  3
*D23
  1
*D23
  0
LINE
  5
434
330
431
100
AcDbEntity
  8
치수문자_일반주서
 62
     0
370
    -2
100
AcDbLine
 10
-40.36249999999909
 20
6.349999999999994
 30
0.0
 11
-48.5290423440935
 21
6.349999999999995
 31
0.0
  0
LINE
  5
435
330
431
100
AcDbEntity
  8
치수문자_일반주서
 62
     0
370
    -2
100
AcDbLine
 10
-40.36249999999909
 20
-6.349999999999994
 30
0.0
 11
-48.5290423440935
 21
-6.349999999999993
 31
0.0
  0
LINE
  5
436
330
431
100
AcDbEntity
  8
치수문자_일반주서
 62
     0
370
    -2
100
AcDbLine
 10
-48.5290423440935
 20
3.047999999999996
 30
0.0
 11
-48.5290423440935
 21
-3.047999999999994
 31
0.0
  0
SOLID
  5
437
330
431
100
AcDbEntity
  8
치수문자_일반주서
 62
     0
100
AcDbTrace
 10
-47.97870901076016
 20
3.047999999999996
 30
0.0
 11
-49.07937567742683
 21
3.047999999999996
 31
0.0
 12
-48.5290423440935
 22
6.349999999999995
 32
0.0
 13
-48.5290423440935
 23
6.349999999999995
 33
0.0
  0
SOLID
  5
438
330
431
100
AcDbEntity
  8
치수문자_일반주서
 62
     0
100
AcDbTrace
 10
-49.07937567742683
 20
-3.047999999999994
 30
0.0
 11
-47.97870901076016
 21
-3.047999999999994
 31
0.0
 12
-48.5290423440935
 22
-6.349999999999993
 32
0.0
 13
-48.5290423440935
 23
-6.349999999999993
 33
0.0
  0
MTEXT
  5
439
330
431
100
AcDbEntity
  8
치수문자_일반주서
 62
     0
100
AcDbMText
 10
-51.1540423440935
 20
0.0
 30
0.0
 40
3.5
 41
0.0
 71
     5
 72
     1
  1
\A1;{%%C12.7 [1/2]}
  7
SLDTEXTSTYLE0
 11
0.0
 21
1.0
 31
0.0
 73
     1
 44
1.0
  0
POINT
  5
43A
330
431
100
AcDbEntity
  8
Defpoints
 62
     0
100
AcDbPoint
 10
-40.29999999999909
 20
6.349999999999994
 30
0.0
  0
POINT
  5
43B
330
431
100
AcDbEntity
  8
Defpoints
 62
     0
100
AcDbPoint
 10
-40.29999999999909
 20
-6.349999999999994
 30
0.0
  0
POINT
  5
43C
330
431
100
AcDbEntity
  8
Defpoints
 62
     0
100
AcDbPoint
 10
-48.5290423440935
 20
-6.349999999999993
 30
0.0
  0
ENDBLK
  5
433
330
431
100
AcDbEntity
  8
0
100
AcDbBlockEnd
  0
BLOCK
  5
442
330
441
100
AcDbEntity
  8
0
100
AcDbBlockBegin
  2
*D24
 70
     1
 10
0.0
 20
0.0
 30
0.0
  3
*D24
  1
*D24
  0
LINE
  5
444
330
441
100
AcDbEntity
  8
치수문자_일반주서
 62
     0
370
    -2
100
AcDbLine
 10
62.74826950731806
 20
8.177659360459497
 30
0.0
 11
87.59864390346917
 21
32.16484980759083
 31
0.0
  0
MTEXT
  5
445
330
441
100
AcDbEntity
  8
치수문자_일반주서
 62
     0
100
AcDbMText
 10
75.70268888406471
 20
24.3305100666614
 30
0.0
 40
3.5
 41
0.0
 71
     5
 72
     1
  1
\A1;R1.52 [R0.06]
  7
SLDTEXTSTYLE0
 11
0.7194922311059103
 21
0.6945004891130312
 31
0.0
 73
     1
 44
1.0
  0
LINE
  5
446
330
441
100
AcDbEntity
  8
치수문자_일반주서
 62
     0
370
    -2
100
AcDbLine
 10
59.27600000000093
 20
4.826000000000008
 30
0.0
 11
60.37250616020634
 21
5.884418745408268
 31
0.0
  0
SOLID
  5
447
330
441
100
AcDbEntity
  8
치수문자_일반주서
 62
     0
100
AcDbTrace
 10
62.36606273814285
 20
8.573619918311449
 30
0.0
 11
63.13047627649326
 21
7.781698802607544
 31
0.0
 12
60.37250616020634
 22
5.884418745408268
 32
0.0
 13
60.37250616020634
 23
5.884418745408268
 33
0.0
  0
POINT
  5
448
330
441
100
AcDbEntity
  8
Defpoints
 62
     0
100
AcDbPoint
 10
60.37250616020634
 20
5.884418745408268
 30
0.0
  0
POINT
  5
449
330
441
100
AcDbEntity
  8
Defpoints
 62
     0
100
AcDbPoint
 10
59.27600000000093
 20
4.826000000000008
 30
0.0
  0
ENDBLK
  5
443
330
441
100
AcDbEntity
  8
0
100
AcDbBlockEnd
  0
ENDSEC
  0
SECTION
  2
ENTITIES
  0
INSERT
  5
101
330
1F
100
AcDbEntity
  8
0
  6
Continuous
 62
     7
100
AcDbBlockReference
 66
     1
  2
블럭10
 10
-16.62984641916796
 20
-52.04907070757051
 30
0.0
  0
ATTRIB
  5
102
330
101
100
AcDbEntity
  8
FORMAT
 62
     2
100
AcDbText
 10
-27.68086677135242
 20
-49.97370379473831
 30
0.0
 40
4.233333333333333
  1
GMG22924[ 6 FLUTE ]
 41
0.75
  7
SLDTEXTSTYLE0
 11
-27.68086677135242
 21
-52.09037046140498
 31
0.0
100
AcDbAttribute
  2
AUTOATTR0
 70
     0
 74
     1
  0
SEQEND
  5
103
330
101
100
AcDbEntity
  8
0
  6
Continuous
 62
     7
  0
HATCH
  5
104
330
1F
100
AcDbEntity
  8
중심선
100
AcDbHatch
 10
0.0
 20
0.0
 30
0.0
210
0.0
220
0.0
230
1.0
  2
SOLID
 70
     1
 71
     0
 91
        1
 92
        0
 93
        4
 72
     1
 10
-10.91493711478711
 20
-35.80189640592657
 11
-14.36121235862439
 21
-35.80189640592657
 72
     1
 10
-14.36121235862439
 20
-35.80189640592657
 11
-16.48944221782842
 21
-38.33822198649916
 72
     1
 10
-16.48944221782842
 20
-38.33822198649916
 11
-13.04313388887798
 21
-38.33818255719667
 72
     1
 10
-13.04313388887798
 20
-38.33818255719667
 11
-10.91493711478711
 21
-35.80189640592657
 97
        0
 75
     0
 76
     1
 98
        1
 10
0.0
 20
0.0
  0
HATCH
  5
105
330
1F
100
AcDbEntity
  8
중심선
100
AcDbHatch
 10
0.0
 20
0.0
 30
0.0
210
0.0
220
0.0
230
1.0
  2
SOLID
 70
     1
 71
     0
 91
        1
 92
        0
 93
        4
 72
     1
 10
-5.902173123751159
 20
-35.80189640592657
 11
-9.348448367588441
 21
-35.80189640592657
 72
     1
 10
-9.348448367588441
 20
-35.80189640592657
 11
-13.87958637594583
 21
-41.20189640592658
 72
     1
 10
-13.87958637594583
 20
-41.20189640592658
 11
-10.43331113210855
 21
-41.20189640592658
 72
     1
 10
-10.43331113210855
 20
-41.20189640592658
 11
-5.902173123751159
 21
-35.80189640592657
 97
        0
 75
     0
 76
     1
 98
        1
 10
0.0
 20
0.0
  0
HATCH
  5
106
330
1F
100
AcDbEntity
  8
중심선
100
AcDbHatch
 10
0.0
 20
0.0
 30
0.0
210
0.0
220
0.0
230
1.0
  2
SOLID
 70
     1
 71
     0
 91
        1
 92
        0
 93
        4
 72
     1
 10
-0.8894091327152631
 20
-35.8018964059266
 11
-4.335684376552379
 21
-35.80189640592657
 72
     1
 10
-4.335684376552379
 20
-35.80189640592657
 11
-11.38412127844163
 21
-44.20189640592659
 72
     1
 10
-11.38412127844163
 20
-44.20189640592659
 11
-7.937846034604346
 21
-44.20189640592659
 72
     1
 10
-7.937846034604346
 20
-44.20189640592659
 11
-0.8894091327152633
 21
-35.8018964059266
 97
        0
 75
     0
 76
     1
 98
        1
 10
0.0
 20
0.0
  0
HATCH
  5
107
330
1F
100
AcDbEntity
  8
중심선
100
AcDbHatch
 10
0.0
 20
0.0
 30
0.0
210
0.0
220
0.0
230
1.0
  2
SOLID
 70
     1
 71
     0
 91
        1
 92
        0
 93
        6
 72
     3
 10
3.910481298296936
 20
-40.00189640597785
 11
3.960054785062284
 21
1.540850780301639E-10
 40
0.3939339440162633
 50
17.09539180608434
 51
320.0019657685079
 73
     0
 72
     1
 10
5.593480953997531
 20
-38.58979041056487
 11
7.89878282769857
 21
-36.65546370051695
 72
     3
 10
3.91048129824409
 20
-40.00189640592671
 11
6.600054785286829
 21
-1.249000902703301E-13
 40
0.6363583540795982
 50
39.99873849337408
 51
368.4976242363725
 73
     1
 72
     1
 10
10.3358137901447
 20
-39.04189640585659
 11
2.590548605080012
 21
-39.04189640585656
 72
     1
 10
2.590548605080012
 20
-39.04189640585656
 11
2.590523560634078
 21
-40.96189640585649
 72
     1
 10
2.590523560634078
 20
-40.96189640585649
 11
7.031903330106115
 21
-40.96189640585646
 97
        0
 75
     0
 76
     1
 98
        1
 10
0.0
 20
0.0
  0
LINE
  5
3B2
330
1F
100
AcDbEntity
  8
0
  6
Continuous
 62
     4
370
    15
100
AcDbLine
 10
7.968918724831227
 20
6.349999999999994
 30
0.0
 11
-40.29999999999909
 21
6.349999999999994
 31
0.0
  0
LINE
  5
3B3
102
{ACAD_REACTORS
102
}
330
1F
100
AcDbEntity
  8
0
  6
Continuous
 62
     4
370
    15
100
AcDbLine
 10
-40.29999999999909
 20
-6.349999999999994
 30
0.0
 11
7.969922318234623
 21
-6.349999999999994
 31
0.0
  0
LINE
  5
3B4
102
{ACAD_REACTORS
102
}
330
1F
100
AcDbEntity
  8
0
  6
Continuous
 62
     4
370
    15
100
AcDbLine
 10
-40.29999999999909
 20
6.349999999999994
 30
0.0
 11
-40.79999999999909
 21
5.849999999999994
 31
0.0
  0
LINE
  5
3B5
330
1F
100
AcDbEntity
  8
0
  6
Continuous
 62
     4
370
    15
100
AcDbLine
 10
-40.79999999999909
 20
-5.849999999999994
 30
0.0
 11
-40.29999999999909
 21
-6.349999999999994
 31
0.0
  0
LINE
  5
3B6
330
1F
100
AcDbEntity
  8
0
  6
Continuous
 62
     1
370
    15
100
AcDbLine
 10
7.969538555579831
 20
-6.349961764403417
 30
0.0
 11
7.969538555503775
 21
-6.349948107668581
 31
0.0
  0
LINE
  5
3B7
330
1F
100
AcDbEntity
  8
0
  6
Continuous
 62
     1
370
    15
100
AcDbLine
 10
7.969538555644348
 20
6.349976062589661
 30
0.0
 11
7.969538642885922
 21
6.350428259443802
 31
0.0
  0
LINE
  5
3B8
330
1F
100
AcDbEntity
  8
0
  6
Continuous
 62
     1
370
    15
100
AcDbLine
 10
38.10268528930969
 20
-6.349999999999994
 30
0.0
 11
40.27336287210466
 21
-6.349999999999994
 31
0.0
  0
LINE
  5
3B9
330
1F
100
AcDbEntity
  8
0
  6
Continuous
 62
     1
370
    15
100
AcDbLine
 10
20.32444059473443
 20
6.349999999999994
 30
0.0
 11
18.15309546213294
 21
6.349999999999994
 31
0.0
  0
LINE
  5
3BA
330
1F
100
AcDbEntity
  8
0
  6
Continuous
 62
     1
370
    15
100
AcDbLine
 10
59.27600000000093
 20
6.349999999999994
 30
0.0
 11
58.05115668758192
 21
6.349999999999994
 31
0.0
  0
LINE
  5
3BB
330
1F
100
AcDbEntity
  8
0
  6
Continuous
 62
     1
370
    15
100
AcDbLine
 10
31.45280445488658
 20
-6.349999999999994
 30
0.0
 11
33.62367886827741
 21
-6.349999999999994
 31
0.0
  0
LINE
  5
3BC
330
1F
100
AcDbEntity
  8
0
  6
Continuous
 62
     1
370
    15
100
AcDbLine
 10
13.67471373604594
 20
6.349999999999994
 30
0.0
 11
11.50359362960315
 21
6.349999999999994
 31
0.0
  0
LINE
  5
3BD
330
1F
100
AcDbEntity
  8
0
  6
Continuous
 62
     1
370
    15
100
AcDbLine
 10
53.57287903403639
 20
6.349999999999994
 30
0.0
 11
51.40246300812278
 21
6.349999999999994
 31
0.0
  0
LINE
  5
3BE
330
1F
100
AcDbEntity
  8
0
  6
Continuous
 62
     1
370
    15
100
AcDbLine
 10
51.40246300812275
 20
-6.349999999999994
 30
0.0
 11
53.57287903403638
 21
-6.349999999999994
 31
0.0
  0
LINE
  5
3BF
330
1F
100
AcDbEntity
  8
0
  6
Continuous
 62
     1
370
    15
100
AcDbLine
 10
11.50359362960312
 20
-6.349999999999994
 30
0.0
 11
13.67471373604594
 21
-6.349999999999994
 31
0.0
  0
LINE
  5
3C0
330
1F
100
AcDbEntity
  8
0
  6
Continuous
 62
     1
370
    15
100
AcDbLine
 10
33.62367886827739
 20
6.349999999999994
 30
0.0
 11
31.45280445488652
 21
6.349999999999994
 31
0.0
  0
LINE
  5
3C1
330
1F
100
AcDbEntity
  8
0
  6
Continuous
 62
     1
370
    15
100
AcDbLine
 10
44.75257391520903
 20
-6.349999999999994
 30
0.0
 11
46.92309504059328
 21
-6.349999999999994
 31
0.0
  0
LINE
  5
3C2
330
1F
100
AcDbEntity
  8
0
  6
Continuous
 62
     1
370
    15
100
AcDbLine
 10
26.9740393444031
 20
6.349999999999994
 30
0.0
 11
24.80293873793296
 21
6.349999999999994
 31
0.0
  0
LINE
  5
3C3
330
1F
100
AcDbEntity
  8
0
  6
Continuous
 62
     1
370
    15
100
AcDbLine
 10
24.802938737933
 20
-6.349999999999994
 30
0.0
 11
26.97403934440312
 21
-6.349999999999994
 31
0.0
  0
LINE
  5
3C4
330
1F
100
AcDbEntity
  8
0
  6
Continuous
 62
     1
370
    15
100
AcDbLine
 10
46.92309504059331
 20
6.349999999999994
 30
0.0
 11
44.75257391520908
 21
6.349999999999994
 31
0.0
  0
LINE
  5
3C5
330
1F
100
AcDbEntity
  8
0
  6
Continuous
 62
     1
370
    15
100
AcDbLine
 10
58.05115668758189
 20
-6.349999999999994
 30
0.0
 11
59.27600000000093
 21
-6.349999999999994
 31
0.0
  0
LINE
  5
3C6
330
1F
100
AcDbEntity
  8
0
  6
Continuous
 62
     1
370
    15
100
AcDbLine
 10
18.15309546213292
 20
-6.349999999999994
 30
0.0
 11
20.32444059473447
 21
-6.349999999999994
 31
0.0
  0
LINE
  5
3C7
330
1F
100
AcDbEntity
  8
0
  6
Continuous
 62
     1
370
    15
100
AcDbLine
 10
40.27336287210471
 20
6.349999999999994
 30
0.0
 11
38.10268528930969
 21
6.349999999999994
 31
0.0
  0
ARC
  5
3C8
330
1F
100
AcDbEntity
  8
0
  6
Continuous
 62
     1
370
    15
100
AcDbCircle
 10
59.27600000000093
 20
-4.825999999999993
 30
0.0
 40
1.523999999999997
100
AcDbArc
 50
270.0000000000005
 51
0.0
  0
ARC
  5
3C9
102
{ACAD_REACTORS
102
}
330
1F
100
AcDbEntity
  8
0
  6
Continuous
 62
     1
370
    15
100
AcDbCircle
 10
59.27600000000093
 20
4.826000000000008
 30
0.0
 40
1.523999999999997
100
AcDbArc
 50
0.0
 51
90.0
  0
SPLINE
  5
3CA
330
1F
100
AcDbEntity
  8
0
  6
Continuous
 62
     4
370
    15
100
AcDbSpline
210
0.0
220
0.0
230
1.0
 70
     8
 71
     3
 72
    11
 73
     7
 74
     0
 42
0.000000001
 43
0.00000001
 40
0.0
 40
0.0
 40
0.0
 40
0.0
 40
0.2657769111197724
 40
0.52162145853172
 40
0.7760994503009737
 40
1.0
 40
1.0
 40
1.0
 40
1.0
 10
8.533639576893137
 20
6.164620831384454
 30
0.0
 10
8.655089868461815
 20
6.146628006969564
 30
0.0
 10
8.893451726007086
 20
6.111314768980392
 30
0.0
 10
9.309063772490035
 20
6.099537018544538
 30
0.0
 10
9.694555846138613
 20
6.123097100967954
 30
0.0
 10
9.90261832537567
 20
6.158179541259102
 30
0.0
 10
10.00000000000081
 20
6.174599545471381
 30
0.0
  0
SPLINE
  5
3CB
330
1F
100
AcDbEntity
  8
0
  6
Continuous
 62
     4
370
    15
100
AcDbSpline
210
0.0
220
0.0
230
1.0
 70
     8
 71
     3
 72
    14
 73
    10
 74
     0
 42
0.000000001
 43
0.00000001
 40
0.0
 40
0.0
 40
0.0
 40
0.0
 40
0.25
 40
0.25
 40
0.5
 40
0.5
 40
0.75
 40
0.75
 40
1.0
 40
1.0
 40
1.0
 40
1.0
 10
8.392332177128452
 20
6.203432529773721
 30
0.0
 10
8.303075936625802
 20
6.222444759546278
 30
0.0
 10
8.229639753907364
 20
6.241982760733677
 30
0.0
 10
8.110515386757228
 20
6.278721613130529
 30
0.0
 10
8.066098364329847
 20
6.295623215700587
 30
0.0
 10
8.004687791471426
 20
6.322936965109051
 30
0.0
 10
7.98723026663896
 20
6.333562523223918
 30
0.0
 10
7.969675496850257
 20
6.34724506212801
 30
0.0
 10
7.969538555503746
 20
6.350449537904993
 30
0.0
 10
7.969538555503746
 20
6.349949231219966
 30
0.0
  0
SPLINE
  5
3CC
330
1F
100
AcDbEntity
  8
0
  6
Continuous
 62
     4
370
    15
100
AcDbSpline
210
0.0
220
0.0
230
1.0
 70
     8
 71
     3
 72
    10
 73
     6
 74
     0
 42
0.000000001
 43
0.00000001
 40
0.0
 40
0.0
 40
0.0
 40
0.0
 40
0.5000000000000001
 40
0.5000000000000001
 40
1.0
 40
1.0
 40
1.0
 40
1.0
 10
10.00000000000092
 20
5.665848385709538
 30
0.0
 10
9.730911793776144
 20
5.787014932569008
 30
0.0
 10
9.463201454723489
 20
5.892772931214324
 30
0.0
 10
8.930741626273516
 20
6.072085264782288
 30
0.0
 10
8.661457791733866
 20
6.146106812336598
 30
0.0
 10
8.392332177128452
 20
6.203432529773721
 30
0.0
  0
SPLINE
  5
3CD
330
1F
100
AcDbEntity
  8
0
  6
Continuous
 62
     4
370
    15
100
AcDbSpline
210
0.0
220
0.0
230
1.0
 70
     8
 71
     3
 72
    20
 73
    16
 74
     0
 42
0.000000001
 43
0.00000001
 40
0.0
 40
0.0
 40
0.0
 40
0.0
 40
0.1250000000000001
 40
0.1250000000000001
 40
0.2500000000000002
 40
0.2500000000000002
 40
0.3750000000000003
 40
0.3750000000000003
 40
0.5000000000000004
 40
0.5000000000000004
 40
0.7500000000000002
 40
0.7500000000000002
 40
0.8750000000000001
 40
0.8750000000000001
 40
1.0
 40
1.0
 40
1.0
 40
1.0
 10
7.969538555503746
 20
3.196964856556434
 30
0.0
 10
7.969538555503746
 20
3.31430231622528
 30
0.0
 10
7.969810769528209
 20
3.429190662140584
 30
0.0
 10
7.991938531124347
 20
3.652565481188816
 30
0.0
 10
8.013628990838399
 20
3.761949854289568
 30
0.0
 10
8.09097190955147
 20
3.969732131970588
 30
0.0
 10
8.145322295034973
 20
4.065689180258104
 30
0.0
 10
8.293494376991603
 20
4.240700776522331
 30
0.0
 10
8.383226189001661
 20
4.315103516775523
 30
0.0
 10
8.70225247233735
 20
4.501041431924534
 30
0.0
 10
8.972541659355713
 20
4.566176362469022
 30
0.0
 10
9.381980461705396
 20
4.564752408067321
 30
0.0
 10
9.517459063079556
 20
4.548052218140128
 30
0.0
 10
9.774258285663365
 20
4.482589998119437
 30
0.0
 10
9.893824529656257
 20
4.434277214408652
 30
0.0
 10
10.00000000000081
 20
4.370894467255155
 30
0.0
  0
SPLINE
  5
3CE
330
1F
100
AcDbEntity
  8
0
  6
Continuous
 62
     4
370
    15
100
AcDbSpline
210
0.0
220
0.0
230
1.0
 70
     8
 71
     3
 72
    14
 73
    10
 74
     0
 42
0.000000001
 43
0.00000001
 40
0.0
 40
0.0
 40
0.0
 40
0.0
 40
0.25
 40
0.25
 40
0.5
 40
0.5
 40
0.75
 40
0.75
 40
1.0
 40
1.0
 40
1.0
 40
1.0
 10
8.392332177128438
 20
1.927006242622269
 30
0.0
 10
8.303075936625788
 20
2.011812484177582
 30
0.0
 10
8.229639753907364
 20
2.106525908525754
 30
0.0
 10
8.110515386757228
 20
2.312231456864893
 30
0.0
 10
8.066098364329847
 20
2.422095950578338
 30
0.0
 10
8.004687791471426
 20
2.643619013882358
 30
0.0
 10
7.98723026663896
 20
2.756919060743854
 30
0.0
 10
7.969675496850257
 20
2.97905174353653
 30
0.0
 10
7.969538555503746
 20
3.088862784761929
 30
0.0
 10
7.969538555503746
 20
3.196964856553294
 30
0.0
  0
SPLINE
  5
3CF
330
1F
100
AcDbEntity
  8
0
  6
Continuous
 62
     4
370
    15
100
AcDbSpline
210
0.0
220
0.0
230
1.0
 70
     8
 71
     3
 72
    10
 73
     6
 74
     0
 42
0.000000001
 43
0.00000001
 40
0.0
 40
0.0
 40
0.0
 40
0.0
 40
0.5
 40
0.5
 40
1.0
 40
1.0
 40
1.0
 40
1.0
 10
10.00000000000092
 20
0.3498823984794655
 30
0.0
 10
9.730911793776144
 20
0.6178256382660408
 30
0.0
 10
9.463201454723489
 20
0.8843675843895653
 30
0.0
 10
8.930741626273502
 20
1.410362195297978
 30
0.0
 10
8.661457791733866
 20
1.671298274726524
 30
0.0
 10
8.392332177128438
 20
1.927006242622269
 30
0.0
  0
SPLINE
  5
3D0
330
1F
100
AcDbEntity
  8
0
  6
Continuous
 62
     4
370
    15
100
AcDbSpline
210
0.0
220
0.0
230
1.0
 70
     8
 71
     3
 72
    20
 73
    16
 74
     0
 42
0.000000001
 43
0.00000001
 40
0.0
 40
0.0
 40
0.0
 40
0.0
 40
0.125
 40
0.125
 40
0.25
 40
0.25
 40
0.375
 40
0.375
 40
0.5
 40
0.5
 40
0.75
 40
0.75
 40
0.875
 40
0.875
 40
1.0
 40
1.0
 40
1.0
 40
1.0
 10
7.969538555503746
 20
-3.15298437467095
 30
0.0
 10
7.969538555503746
 20
-3.035103866062315
 30
0.0
 10
7.969810769528209
 20
-2.915301082328142
 30
0.0
 10
7.991938531124347
 20
-2.673664625876086
 30
0.0
 10
8.013628990838399
 20
-2.550789628892659
 30
0.0
 10
8.09097190955147
 20
-2.308810355229028
 30
0.0
 10
8.145322295034973
 20
-2.192618676790204
 30
0.0
 10
8.293494376991603
 20
-1.974067017907501
 30
0.0
 10
8.383226189001661
 20
-1.877578408309901
 30
0.0
 10
8.70225247233735
 20
-1.631399099195292
 30
0.0
 10
8.972541659355713
 20
-1.538482368823949
 30
0.0
 10
9.381980461705396
 20
-1.540469848257942
 30
0.0
 10
9.517459063079556
 20
-1.563931165758476
 30
0.0
 10
9.774258285663365
 20
-1.653995806409867
 30
0.0
 10
9.893824529656257
 20
-1.719927582602296
 30
0.0
 10
10.00000000000081
 20
-1.803705078216183
 30
0.0
  0
SPLINE
  5
3D1
330
1F
100
AcDbEntity
  8
0
  6
Continuous
 62
     4
370
    15
100
AcDbSpline
210
0.0
220
0.0
230
1.0
 70
     8
 71
     3
 72
    14
 73
    10
 74
     0
 42
0.000000001
 43
0.00000001
 40
0.0
 40
0.0
 40
0.0
 40
0.0
 40
0.2499999999999997
 40
0.2499999999999997
 40
0.4999999999999993
 40
0.4999999999999993
 40
0.7499999999999997
 40
0.7499999999999997
 40
1.0
 40
1.0
 40
1.0
 40
1.0
 10
8.392332177128438
 20
-4.276426287151423
 30
0.0
 10
8.303075936625788
 20
-4.210632275368667
 30
0.0
 10
8.229639753907364
 20
-4.135456852207895
 30
0.0
 10
8.110515386757228
 20
-3.966490156265607
 30
0.0
 10
8.066098364329847
 20
-3.87352726512222
 30
0.0
 10
8.004687791471426
 20
-3.679317951226651
 30
0.0
 10
7.98723026663896
 20
-3.57664346248005
 30
0.0
 10
7.969675496850257
 20
-3.368193318591466
 30
0.0
 10
7.969538555503746
 20
-3.261586753143035
 30
0.0
 10
7.969538555503746
 20
-3.152984374666659
 30
0.0
  0
SPLINE
  5
3D2
330
1F
100
AcDbEntity
  8
0
  6
Continuous
 62
     4
370
    15
100
AcDbSpline
210
0.0
220
0.0
230
1.0
 70
     8
 71
     3
 72
    10
 73
     6
 74
     0
 42
0.000000001
 43
0.00000001
 40
0.0
 40
0.0
 40
0.0
 40
0.0
 40
0.5
 40
0.5
 40
1.0
 40
1.0
 40
1.0
 40
1.0
 10
10.00000000000092
 20
-5.315965987230044
 30
0.0
 10
9.730911793776144
 20
-5.169189294302939
 30
0.0
 10
9.463201454723489
 20
-5.00840534682473
 30
0.0
 10
8.930741626273502
 20
-4.661723069484282
 30
0.0
 10
8.661457791733866
 20
-4.474808537610045
 30
0.0
 10
8.392332177128438
 20
-4.276426287151423
 30
0.0
  0
SPLINE
  5
3D3
330
1F
100
AcDbEntity
  8
0
  6
Continuous
 62
     4
370
    15
100
AcDbSpline
210
0.0
220
0.0
230
1.0
 70
     8
 71
     3
 72
    20
 73
    16
 74
     0
 42
0.000000001
 43
0.00000001
 40
0.0
 40
0.0
 40
0.0
 40
0.0
 40
0.1250000000000001
 40
0.1250000000000001
 40
0.2500000000000002
 40
0.2500000000000002
 40
0.3750000000000001
 40
0.3750000000000001
 40
0.5000000000000001
 40
0.5000000000000001
 40
0.75
 40
0.75
 40
0.875
 40
0.875
 40
1.0
 40
1.0
 40
1.0
 40
1.0
 10
7.969538555503746
 20
-6.349949231227399
 30
0.0
 10
7.969538555503746
 20
-6.349406182287623
 30
0.0
 10
7.969810769528209
 20
-6.344491744468741
 30
0.0
 10
7.991938531124347
 20
-6.32623010706493
 30
0.0
 10
8.013628990838399
 20
-6.312739483182256
 30
0.0
 10
8.09097190955147
 20
-6.278542487199644
 30
0.0
 10
8.145322295034973
 20
-6.258307857048337
 30
0.0
 10
8.293494376991603
 20
-6.214767794429861
 30
0.0
 10
8.383226189001661
 20
-6.192681925085452
 30
0.0
 10
8.702252472337364
 20
-6.132440531119855
 30
0.0
 10
8.972541659355713
 20
-6.104658731293
 30
0.0
 10
9.38198046170541
 20
-6.105222256325291
 30
0.0
 10
9.517459063079556
 20
-6.111983383898632
 30
0.0
 10
9.774258285663365
 20
-6.136585804529346
 30
0.0
 10
9.893824529656257
 20
-6.154204797010976
 30
0.0
 10
10.00000000000081
 20
-6.174599545471381
 30
0.0
  0
SPLINE
  5
3D4
330
1F
100
AcDbEntity
  8
0
  6
Continuous
 62
     4
370
    15
100
AcDbSpline
210
0.0
220
0.0
230
1.0
 70
     8
 71
     3
 72
    14
 73
    10
 74
     0
 42
0.000000001
 43
0.00000001
 40
0.0
 40
0.0
 40
0.0
 40
0.0
 40
0.2500000000000001
 40
0.2500000000000001
 40
0.5000000000000001
 40
0.5000000000000001
 40
0.75
 40
0.75
 40
1.0
 40
1.0
 40
1.0
 40
1.0
 10
8.392332177128438
 20
-6.203432529773721
 30
0.0
 10
8.303075936625788
 20
-6.222444759546264
 30
0.0
 10
8.229639753907364
 20
-6.241982760733663
 30
0.0
 10
8.110515386757228
 20
-6.278721613130514
 30
0.0
 10
8.066098364329847
 20
-6.295623215700573
 30
0.0
 10
8.004687791471426
 20
-6.322936965109037
 30
0.0
 10
7.98723026663896
 20
-6.333562523223918
 30
0.0
 10
7.969675496850257
 20
-6.34724506212801
 30
0.0
 10
7.969538555503746
 20
-6.350449537904979
 30
0.0
 10
7.969538555503746
 20
-6.349949231219966
 30
0.0
  0
LINE
  5
3D5
330
1F
100
AcDbEntity
  8
0
  6
Continuous
 62
     4
370
    15
100
AcDbLine
 10
8.53363957689298
 20
-6.164620831384482
 30
0.0
 11
8.392332177128438
 21
-6.203432529773721
 31
0.0
  0
LINE
  5
3D6
330
1F
100
AcDbEntity
  8
0
  6
Continuous
 62
     4
370
    15
100
AcDbLine
 10
-40.29999999999909
 20
6.349999999999994
 30
0.0
 11
-40.29999999999909
 21
-6.349999999999994
 31
0.0
  0
LINE
  5
3D7
330
1F
100
AcDbEntity
  8
0
  6
Continuous
 62
     1
370
    15
100
AcDbLine
 10
10.00000000000092
 20
-5.315965987230044
 30
0.0
 11
10.00000000000092
 21
-6.174599545471324
 31
0.0
  0
LINE
  5
3D8
330
1F
100
AcDbEntity
  8
0
  6
Continuous
 62
     1
370
    15
100
AcDbLine
 10
10.00000000000092
 20
0.3498823984794655
 30
0.0
 11
10.00000000000092
 21
-1.803705078215941
 31
0.0
  0
LINE
  5
3D9
330
1F
100
AcDbEntity
  8
0
  6
Continuous
 62
     1
370
    15
100
AcDbLine
 10
10.00000000000092
 20
5.665848385709538
 30
0.0
 11
10.00000000000092
 21
4.37089446725534
 31
0.0
  0
LINE
  5
3DA
330
1F
100
AcDbEntity
  8
0
  6
Continuous
 62
     4
370
    15
100
AcDbLine
 10
-40.79999999999909
 20
5.849999999999994
 30
0.0
 11
-40.79999999999909
 21
-5.849999999999994
 31
0.0
  0
SPLINE
  5
3DB
330
1F
100
AcDbEntity
  8
0
  6
Continuous
 62
     1
370
    15
100
AcDbSpline
210
0.0
220
0.0
230
1.0
 70
    24
 71
     3
 72
    14
 73
    10
 74
     0
 42
0.000000001
 43
0.00000001
 40
0.0
 40
0.0
 40
0.0
 40
0.0
 40
0.25
 40
0.25
 40
0.4999999999999999
 40
0.4999999999999999
 40
0.75
 40
0.75
 40
1.0
 40
1.0
 40
1.0
 40
1.0
 10
10.00000000000092
 20
3.925872305406017
 30
0.0
 10
10.00000000000092
 20
3.674157149964827
 30
0.0
 10
10.00000000000092
 20
3.389135429014289
 30
0.0
 10
10.00000000000092
 20
2.763437385568281
 30
0.0
 10
10.00000000000092
 20
2.422133815012018
 30
0.0
 10
10.00000000000092
 20
1.733092133707629
 30
0.0
 10
10.00000000000092
 20
1.386078405905124
 30
0.0
 10
10.00000000000092
 20
0.7788519773087188
 30
0.0
 10
10.00000000000092
 20
0.5212760141486683
 30
0.0
 10
10.00000000000092
 20
0.3498823984794655
 30
0.0
  0
SPLINE
  5
3DC
330
1F
100
AcDbEntity
  8
0
  6
Continuous
 62
     1
370
    15
100
AcDbSpline
210
0.0
220
0.0
230
1.0
 70
    24
 71
     3
 72
     8
 73
     4
 74
     0
 42
0.000000001
 43
0.00000001
 40
0.0
 40
0.0
 40
0.0
 40
0.0
 40
1.0
 40
1.0
 40
1.0
 40
1.0
 10
10.00000000000092
 20
-1.80370507821597
 30
0.0
 10
10.00000000000092
 20
-1.825902087095912
 30
0.0
 10
10.00000000000092
 20
-1.860447195608685
 30
0.0
 10
10.00000000000092
 20
-1.908928205366593
 30
0.0
  0
SPLINE
  5
3DD
330
1F
100
AcDbEntity
  8
0
  6
Continuous
 62
     1
370
    15
100
AcDbSpline
210
0.0
220
0.0
230
1.0
 70
    24
 71
     3
 72
     8
 73
     4
 74
     0
 42
0.000000001
 43
0.00000001
 40
0.0
 40
0.0
 40
0.0
 40
0.0
 40
1.0
 40
1.0
 40
1.0
 40
1.0
 10
10.00000000000092
 20
4.370894467255397
 30
0.0
 10
10.00000000000092
 20
4.226402674300303
 30
0.0
 10
10.00000000000092
 20
4.078220146830361
 30
0.0
 10
10.00000000000092
 20
3.92587230540579
 30
0.0
  0
SPLINE
  5
3DE
330
1F
100
AcDbEntity
  8
0
  6
Continuous
 62
     1
370
    15
100
AcDbSpline
210
0.0
220
0.0
230
1.0
 70
    24
 71
     3
 72
    14
 73
    10
 74
     0
 42
0.000000001
 43
0.00000001
 40
0.0
 40
0.0
 40
0.0
 40
0.0
 40
0.25
 40
0.25
 40
0.4999999999999999
 40
0.4999999999999999
 40
0.7499999999999998
 40
0.7499999999999998
 40
1.0
 40
1.0
 40
1.0
 40
1.0
 10
10.00000000000092
 20
-1.908928205366522
 30
0.0
 10
10.00000000000092
 20
-1.98903045553952
 30
0.0
 10
10.00000000000092
 20
-2.107101091791847
 30
0.0
 10
10.00000000000092
 20
-2.453702120337823
 30
0.0
 10
10.00000000000092
 20
-2.683386223732001
 30
0.0
 10
10.00000000000092
 20
-3.270577777254744
 30
0.0
 10
10.00000000000092
 20
-3.629229508669695
 30
0.0
 10
10.00000000000092
 20
-4.43435042902415
 30
0.0
 10
10.00000000000092
 20
-4.879656978922014
 30
0.0
 10
10.00000000000092
 20
-5.315965987230044
 30
0.0
  0
LINE
  5
3DF
330
1F
100
AcDbEntity
  8
0
  6
Continuous
 62
     4
370
    15
100
AcDbLine
 10
10.00000000000092
 20
5.834800510772567
 30
0.0
 11
10.00000000000092
 21
5.736302716350465
 31
0.0
  0
SPLINE
  5
3E0
330
1F
100
AcDbEntity
  8
0
  6
Continuous
 62
     1
370
    15
100
AcDbSpline
210
0.0
220
0.0
230
1.0
 70
    24
 71
     3
 72
     8
 73
     4
 74
     0
 42
0.000000001
 43
0.00000001
 40
0.0
 40
0.0
 40
0.0
 40
0.0
 40
1.0
 40
1.0
 40
1.0
 40
1.0
 10
10.00000000000092
 20
6.174599545471395
 30
0.0
 10
10.00000000000092
 20
6.052304761396243
 30
0.0
 10
10.00000000000092
 20
5.938667342439075
 30
0.0
 10
10.00000000000092
 20
5.834800510772411
 30
0.0
  0
SPLINE
  5
3E1
330
1F
100
AcDbEntity
  8
0
  6
Continuous
 62
     1
370
    15
100
AcDbSpline
210
0.0
220
0.0
230
1.0
 70
     8
 71
     3
 72
    34
 73
    30
 74
     0
 42
0.000000001
 43
0.00000001
 40
0.0
 40
0.0
 40
0.0
 40
0.0
 40
0.1249999999999999
 40
0.1249999999999999
 40
0.1874999999999999
 40
0.1874999999999999
 40
0.25
 40
0.25
 40
0.3750000000000002
 40
0.3750000000000002
 40
0.5000000000000004
 40
0.5000000000000004
 40
0.6250000000000007
 40
0.6250000000000007
 40
0.6875000000000009
 40
0.6875000000000009
 40
0.7187500000000008
 40
0.7187500000000008
 40
0.7500000000000006
 40
0.7500000000000006
 40
0.7812500000000004
 40
0.7812500000000004
 40
0.8125000000000003
 40
0.8125000000000003
 40
0.8750000000000002
 40
0.8750000000000002
 40
0.9375
 40
0.9375
 40
1.0
 40
1.0
 40
1.0
 40
1.0
 10
59.27600000000093
 20
-4.170093950152307
 30
0.0
 10
59.49151193410275
 20
-4.333125107346746
 30
0.0
 10
59.69213825115234
 20
-4.462933279110274
 30
0.0
 10
59.97121553394717
 20
-4.60662215592987
 30
0.0
 10
60.05843292798892
 20
-4.644978823721019
 30
0.0
 10
60.22084205107429
 20
-4.704893527891883
 30
0.0
 10
60.29647609332191
 20
-4.72647739424751
 30
0.0
 10
60.49860133830626
 20
-4.769673744585447
 30
0.0
 10
60.59910231300283
 20
-4.768772182216765
 30
0.0
 10
60.72910091477219
 20
-4.769771679997291
 30
0.0
 10
60.75778025642079
 20
-4.774362982312894
 30
0.0
 10
60.78284803861344
 20
-4.859347070051143
 30
0.0
 10
60.78361323310021
 20
-4.937973854617795
 30
0.0
 10
60.75882762835073
 20
-5.128872633733323
 30
0.0
 10
60.74582876699689
 20
-5.203450369941251
 30
0.0
 10
60.70470714960079
 20
-5.341142530470464
 30
0.0
 10
60.68753588563511
 20
-5.390415434779754
 30
0.0
 10
60.64177683871743
 20
-5.497694951559367
 30
0.0
 10
60.61312099446396
 20
-5.555525135433413
 30
0.0
 10
60.54189939681434
 20
-5.67477745349106
 30
0.0
 10
60.49901409387707
 20
-5.736364066927933
 30
0.0
 10
60.40287917931788
 20
-5.853101132555224
 30
0.0
 10
60.34908708964792
 20
-5.908915891734992
 30
0.0
 10
60.18196348512339
 20
-6.057449163874438
 30
0.0
 10
60.06358083365485
 20
-6.131754415027146
 30
0.0
 10
59.8320417580161
 20
-6.236263532911977
 30
0.0
 10
59.7178405142753
 20
-6.267562663409223
 30
0.0
 10
59.492771530163
 20
-6.297341531352885
 30
0.0
 10
59.38359382833887
 20
-6.295616936591202
 30
0.0
 10
59.27600000000091
 20
-6.279589199788546
 30
0.0
  0
SPLINE
  5
3E2
330
1F
100
AcDbEntity
  8
0
  6
Continuous
 62
     1
370
    15
100
AcDbSpline
210
0.0
220
0.0
230
1.0
 70
     8
 71
     3
 72
    24
 73
    20
 74
     0
 42
0.000000001
 43
0.00000001
 40
0.0
 40
0.0
 40
0.0
 40
0.0
 40
0.0668368981501857
 40
0.1336134409360866
 40
0.2004086864627451
 40
0.2672991009721707
 40
0.3252391711259501
 40
0.3830870149463607
 40
0.4410693447548089
 40
0.4990010887596744
 40
0.5568501050356325
 40
0.6148390640532524
 40
0.6727628681513116
 40
0.7306134476024649
 40
0.7886082745553643
 40
0.846524525417866
 40
0.9043770586791302
 40
0.9623769918897795
 40
0.9999999999999999
 40
0.9999999999999999
 40
0.9999999999999999
 40
0.9999999999999999
 10
59.27600000000093
 20
-6.279589199788546
 30
0.0
 10
58.85250212896698
 20
-6.19247729496027
 30
0.0
 10
58.00588881590137
 20
-6.018332149498121
 30
0.0
 10
56.73692867685585
 20
-5.449896325782788
 30
0.0
 10
55.4675280680374
 20
-4.681922982228656
 30
0.0
 10
54.25260018048668
 20
-3.765550582526558
 30
0.0
 10
53.09515108796177
 20
-2.767180844470147
 30
0.0
 10
51.99594696000769
 20
-1.732446364547059
 30
0.0
 10
50.8941845580117
 20
-0.6484192845352368
 30
0.0
 10
49.79338336977739
 20
0.4559914483496925
 30
0.0
 10
48.69415707971125
 20
1.548340801120958
 30
0.0
 10
47.59226933843497
 20
2.591645699817732
 30
0.0
 10
46.49161962189815
 20
3.55853392122691
 30
0.0
 10
45.39236305759859
 20
4.419944276842884
 30
0.0
 10
44.29036748917598
 20
5.146334280403522
 30
0.0
 10
43.18985006466326
 20
5.721727604113227
 30
0.0
 10
42.09059990972192
 20
6.118253204042219
 30
0.0
 10
41.11703019272666
 20
6.331064189707263
 30
0.0
 10
40.51157876220576
 20
6.329090516688353
 30
0.0
 10
40.2733628721047
 20
6.32831397169852
 30
0.0
  0
SPLINE
  5
3E3
330
1F
100
AcDbEntity
  8
0
  6
Continuous
 62
     1
370
    15
100
AcDbSpline
210
0.0
220
0.0
230
1.0
 70
     8
 71
     3
 72
    19
 73
    15
 74
     0
 42
0.000000001
 43
0.00000001
 40
0.0
 40
0.0
 40
0.0
 40
0.0
 40
0.0227110557056517
 40
0.1104469896300886
 40
0.1979707120733234
 40
0.2854988194066279
 40
0.3732344018923852
 40
0.4607513992219049
 40
0.5482871789543908
 40
0.6360212560804251
 40
0.7269539575588623
 40
0.8178920752696942
 40
0.9090344653154026
 40
1.0
 40
1.0
 40
1.0
 40
1.0
 10
22.56535455473256
 20
-5.94206346428264
 30
0.0
 10
22.47029263362063
 20
-5.979995429751099
 30
0.0
 10
22.00799342783544
 20
-6.164463798418808
 30
0.0
 10
21.17722446337901
 20
-6.315461274703381
 30
0.0
 10
20.07761722198221
 20
-6.379421921730994
 30
0.0
 10
18.97783061076824
 20
-6.237793172616307
 30
0.0
 10
17.87546895952264
 20
-5.913781255206473
 30
0.0
 10
16.77585171622313
 20
-5.41069633884473
 30
0.0
 10
15.67597479022389
 20
-4.745491949468629
 30
0.0
 10
14.55934791218553
 20
-3.929383133670768
 30
0.0
 10
13.43104837562187
 20
-2.977253180170919
 30
0.0
 10
12.28838052483202
 20
-1.916926136730737
 30
0.0
 10
11.14310632410771
 20
-0.796040439837455
 30
0.0
 10
10.38078866469399
 20
-0.0318444962474587
 30
0.0
 10
10.00000000000092
 20
0.3498823984794655
 30
0.0
  0
SPLINE
  5
3E4
330
1F
100
AcDbEntity
  8
0
  6
Continuous
 62
     1
370
    15
100
AcDbSpline
210
0.0
220
0.0
230
1.0
 70
    24
 71
     3
 72
    16
 73
    12
 74
     0
 42
0.000000001
 43
0.00000001
 40
0.0
 40
0.0
 40
0.0
 40
0.0
 40
0.25
 40
0.25
 40
0.4999999999999999
 40
0.4999999999999999
 40
0.7499999999999998
 40
0.7499999999999998
 40
0.8749999999999999
 40
0.8749999999999999
 40
1.0
 40
1.0
 40
1.0
 40
1.0
 10
10.00000000000092
 20
4.37659710416186
 30
0.0
 10
10.00000000000092
 20
4.131454794238252
 30
0.0
 10
10.00000000000092
 20
3.844347031309923
 30
0.0
 10
10.00000000000092
 20
3.183067282005595
 30
0.0
 10
10.00000000000092
 20
2.80736475397326
 30
0.0
 10
10.00000000000092
 20
2.016679791646098
 30
0.0
 10
10.00000000000092
 20
1.601974150627214
 30
0.0
 10
10.00000000000092
 20
1.049733879446819
 30
0.0
 10
10.00000000000092
 20
0.8779600247799948
 30
0.0
 10
10.00000000000092
 20
0.5777556944085802
 30
0.0
 10
10.00000000000092
 20
0.4495091450740176
 30
0.0
 10
10.00000000000092
 20
0.3498823984794655
 30
0.0
  0
SPLINE
  5
3E5
330
1F
100
AcDbEntity
  8
0
  6
Continuous
 62
     1
370
    15
100
AcDbSpline
210
0.0
220
0.0
230
1.0
 70
     8
 71
     3
 72
    21
 73
    17
 74
     0
 42
0.000000001
 43
0.00000001
 40
0.0
 40
0.0
 40
0.0
 40
0.0
 40
0.0772121579907881
 40
0.1545744320022321
 40
0.231763318281187
 40
0.3089476072256361
 40
0.3834168822947042
 40
0.4577178412016917
 40
0.5320028574786462
 40
0.6064734103071786
 40
0.6807678568301099
 40
0.755058581428843
 40
0.8295294325608917
 40
0.9038178662945062
 40
0.9781147990113104
 40
1.0
 40
1.0
 40
1.0
 40
1.0
 10
10.00000000000151
 20
4.376597104168056
 30
0.0
 10
10.38078866451099
 20
4.086676809423423
 30
0.0
 10
11.14310632355716
 20
3.506272556359818
 30
0.0
 10
12.28838052703912
 20
2.48661379278181
 30
0.0
 10
13.43104836736792
 20
1.394697574425081
 30
0.0
 10
14.55934794254289
 20
0.2689237519427223
 30
0.0
 10
15.67597468145632
 20
-0.8470760461229219
 30
0.0
 10
16.77585212157496
 20
-1.926012187064771
 30
0.0
 10
17.8754674452497
 20
-2.947312529789627
 30
0.0
 10
18.97783627226823
 20
-3.877857961747779
 30
0.0
 10
20.07759615075892
 20
-4.694711750838408
 30
0.0
 10
21.17730318419717
 20
-5.36956889083703
 30
0.0
 10
22.27966922484734
 20
-5.886056119081431
 30
0.0
 10
23.37936152600589
 20
-6.213265157729325
 30
0.0
 10
24.21982415472057
 20
-6.36105988285405
 30
0.0
 10
24.69485143431007
 20
-6.335915625891204
 30
0.0
 10
24.80293873793299
 20
-6.330194323023989
 30
0.0
  0
SPLINE
  5
3E6
330
1F
100
AcDbEntity
  8
0
  6
Continuous
 62
     1
370
    15
100
AcDbSpline
210
0.0
220
0.0
230
1.0
 70
     8
 71
     3
 72
    22
 73
    18
 74
     0
 42
0.000000001
 43
0.00000001
 40
0.0
 40
0.0
 40
0.0
 40
0.0
 40
0.0403350096733539
 40
0.1059919359109988
 40
0.1717379401620589
 40
0.2373204178132264
 40
0.3029859067983293
 40
0.3687252588474938
 40
0.4343059644005542
 40
0.4999804544841009
 40
0.565712291311007
 40
0.631291667706426
 40
0.6969755967529057
 40
0.7728061097099233
 40
0.8485287340728318
 40
0.9242301560192847
 40
1.0
 40
1.0
 40
1.0
 40
1.0
 10
42.513993839218
 20
5.938077500715508
 30
0.0
 10
42.73920418550649
 20
6.017771620346835
 30
0.0
 10
43.33100968607819
 20
6.227191032635361
 30
0.0
 10
44.29033659202098
 20
6.360225020549166
 30
0.0
 10
45.39237131790959
 20
6.350972117402307
 30
0.0
 10
46.49161740783917
 20
6.143486217229821
 30
0.0
 10
47.5922699327964
 20
5.754005752913429
 30
0.0
 10
48.69415692081277
 20
5.19241603268695
 30
0.0
 10
49.79338341237724
 20
4.473762146588712
 30
0.0
 10
50.89418454657853
 20
3.621946567627305
 30
0.0
 10
51.99594696306319
 20
2.662638651272431
 30
0.0
 10
53.09515108714631
 20
1.621011127688973
 30
0.0
 10
54.25260018074324
 20
0.4770565149648576
 30
0.0
 10
55.46752806796465
 20
-0.742763406131786
 30
0.0
 10
56.73692867687522
 20
-1.987290675488936
 30
0.0
 10
58.00588881589651
 20
-3.164299344142989
 30
0.0
 10
58.85250212896533
 20
-3.834728133621283
 30
0.0
 10
59.27600000000091
 20
-4.170093950154268
 30
0.0
  0
SPLINE
  5
3E7
330
1F
100
AcDbEntity
  8
0
  6
Continuous
 62
     1
370
    15
100
AcDbSpline
210
0.0
220
0.0
230
1.0
 70
     8
 71
     3
 72
    34
 73
    30
 74
     0
 42
0.000000001
 43
0.00000001
 40
0.0
 40
0.0
 40
0.0
 40
0.0
 40
0.1249999999999986
 40
0.1249999999999986
 40
0.1874999999999979
 40
0.1874999999999979
 40
0.2499999999999973
 40
0.2499999999999973
 40
0.3749999999999974
 40
0.3749999999999974
 40
0.4999999999999976
 40
0.4999999999999976
 40
0.6249999999999974
 40
0.6249999999999974
 40
0.6874999999999973
 40
0.6874999999999973
 40
0.7187499999999976
 40
0.7187499999999976
 40
0.7499999999999978
 40
0.7499999999999978
 40
0.781249999999998
 40
0.781249999999998
 40
0.8124999999999981
 40
0.8124999999999981
 40
0.8749999999999988
 40
0.8749999999999988
 40
0.9374999999999993
 40
0.9374999999999993
 40
1.0
 40
1.0
 40
1.0
 40
1.0
 10
59.27600000000093
 20
6.232288508333824
 30
0.0
 10
59.49151193410275
 20
6.190856959873642
 30
0.0
 10
59.69213825115237
 20
6.094692668947047
 30
0.0
 10
59.97121553394719
 20
5.880116419623221
 30
0.0
 10
60.05843292798895
 20
5.798082196963207
 30
0.0
 10
60.22084205107429
 20
5.614437573495195
 30
0.0
 10
60.29647609332189
 20
5.511977710734271
 30
0.0
 10
60.49860133830624
 20
5.182564453599539
 30
0.0
 10
60.59910231300279
 20
4.934295458437333
 30
0.0
 10
60.72910091477216
 20
4.421483217595807
 30
0.0
 10
60.75778025642079
 20
4.163633123169745
 30
0.0
 10
60.78284803861341
 20
3.686518555195079
 30
0.0
 10
60.78361323310016
 20
3.469383049625876
 30
0.0
 10
60.75882762835069
 20
3.206563732015695
 30
0.0
 10
60.74582876699689
 20
3.130279918444302
 30
0.0
 10
60.70470714960076
 20
3.04400513375893
 30
0.0
 10
60.68753588563514
 20
3.02079086523328
 30
0.0
 10
60.64177683871745
 20
2.989471420455047
 30
0.0
 10
60.61312099446398
 20
2.981755851286493
 30
0.0
 10
60.54189939681437
 20
2.987543771491374
 30
0.0
 10
60.49901409387705
 20
3.001347096644508
 30
0.0
 10
60.40287917931785
 20
3.048635787592133
 30
0.0
 10
60.34908708964792
 20
3.082259065833099
 30
0.0
 10
60.18196348512339
 20
3.199573434845249
 30
0.0
 10
60.06358083365485
 20
3.29773327589038
 30
0.0
 10
59.8320417580161
 20
3.493386465684267
 30
0.0
 10
59.71784051427527
 20
3.592159841871876
 30
0.0
 10
59.49277153016298
 20
3.782098935098929
 30
0.0
 10
59.38359382833887
 20
3.872043776693431
 30
0.0
 10
59.27600000000091
 20
3.956461368793498
 30
0.0
  0
SPLINE
  5
3E8
330
1F
100
AcDbEntity
  8
0
  6
Continuous
 62
     1
370
    15
100
AcDbSpline
210
0.0
220
0.0
230
1.0
 70
     8
 71
     3
 72
    12
 73
     8
 74
     0
 42
0.000000001
 43
0.00000001
 40
0.0
 40
0.0
 40
0.0
 40
0.0
 40
0.2227251431779416
 40
0.4452491600689965
 40
0.6678355013755828
 40
0.8907389807585843
 40
1.0
 40
1.0
 40
1.0
 40
1.0
 10
59.27600000000093
 20
3.956461368793484
 30
0.0
 10
58.85250313329853
 20
4.27216876321134
 30
0.0
 10
58.00589182798917
 20
4.903298460498434
 30
0.0
 10
56.73691663979251
 20
5.615512761752058
 30
0.0
 10
55.46757324966705
 20
6.104385892130793
 30
0.0
 10
54.41193575515439
 20
6.338813520513256
 30
0.0
 10
53.78056116576711
 20
6.329605704273888
 30
0.0
 10
53.5728790340364
 20
6.326576917659224
 30
0.0
  0
SPLINE
  5
3E9
330
1F
100
AcDbEntity
  8
0
  6
Continuous
 62
     1
370
    15
100
AcDbSpline
210
0.0
220
0.0
230
1.0
 70
     8
 71
     3
 72
    28
 73
    24
 74
     0
 42
0.000000001
 43
0.00000001
 40
0.0
 40
0.0
 40
0.0
 40
0.0
 40
0.0170024430634076
 40
0.0666768644554494
 40
0.1162554236258716
 40
0.1658038586338927
 40
0.2154806943269389
 40
0.2650541131693338
 40
0.314605558278585
 40
0.3642841550840189
 40
0.4138527662901123
 40
0.4634075553822095
 40
0.5130872599901991
 40
0.5626513965119567
 40
0.612209863287364
 40
0.661890022311823
 40
0.7114500173434759
 40
0.7610124953034595
 40
0.8106924553270222
 40
0.8602486422870688
 40
0.9098154647156684
 40
0.959494572334668
 40
1.0
 40
1.0
 40
1.0
 40
1.0
 10
35.86449234117946
 20
-5.939093275984419
 30
0.0
 10
35.73883067791601
 20
-5.988003340787103
 30
0.0
 10
35.24603528037133
 20
-6.179809291802158
 30
0.0
 10
34.38465890101169
 20
-6.328354080575679
 30
0.0
 10
33.28460890777858
 20
-6.374852260161262
 30
0.0
 10
32.18514211001629
 20
-6.217687292854237
 30
0.0
 10
31.08284872985293
 20
-5.878248890851069
 30
0.0
 10
29.98284329963869
 20
-5.361157696554869
 30
0.0
 10
28.88332832917618
 20
-4.682996942763239
 30
0.0
 10
27.78099105313747
 20
-3.866511765756727
 30
0.0
 10
26.68109394896683
 20
-2.932385171074074
 30
0.0
 10
25.58150428696626
 20
-1.909888968542887
 30
0.0
 10
24.47914265310418
 20
-0.8329016371503997
 30
0.0
 10
23.37934508687199
 20
0.2715822717384526
 30
0.0
 10
22.2796736464379
 20
1.368037325972196
 30
0.0
 10
21.17730198437299
 20
2.420883458553391
 30
0.0
 10
20.07759653529438
 20
3.40373846879335
 30
0.0
 10
18.97783593214935
 20
4.284418648257542
 30
0.0
 10
17.87546842171561
 20
5.034491344589554
 30
0.0
 10
16.77584856591619
 20
5.637180247618048
 30
0.0
 10
15.67598794716271
 20
6.064427549214969
 30
0.0
 10
14.64067625580314
 20
6.315578603259596
 30
0.0
 10
13.9740995808986
 20
6.327432747680575
 30
0.0
 10
13.67471373604594
 20
6.33275691094056
 30
0.0
  0
SPLINE
  5
3EA
330
1F
100
AcDbEntity
  8
0
  6
Continuous
 62
     1
370
    15
100
AcDbSpline
210
0.0
220
0.0
230
1.0
 70
     8
 71
     3
 72
    28
 73
    24
 74
     0
 42
0.000000001
 43
0.00000001
 40
0.0
 40
0.0
 40
0.0
 40
0.0
 40
0.0387825375046004
 40
0.0883432773474414
 40
0.138027801625219
 40
0.1875948330459709
 40
0.2371593813102783
 40
0.286844104607235
 40
0.3364071244748906
 40
0.3859758146097938
 40
0.4356600834485325
 40
0.4852194252949973
 40
0.5347925905253398
 40
0.5844757514597456
 40
0.6340317490161423
 40
0.6836097223244788
 40
0.7332911219846979
 40
0.782844109163317
 40
0.8324272232719389
 40
0.8821062084093442
 40
0.931656519285578
 40
0.9812451066385632
 40
1.0
 40
1.0
 40
1.0
 40
1.0
 10
15.91569628504223
 20
5.94401834786062
 30
0.0
 10
16.20246145642831
 20
6.038709370448771
 30
0.0
 10
16.85568779744176
 20
6.25440735745714
 30
0.0
 10
17.87543305821092
 20
6.372313824480088
 30
0.0
 10
18.97784539275935
 20
6.329345209332033
 30
0.0
 10
20.07759400319763
 20
6.091040350960682
 30
0.0
 10
21.17730266472527
 20
5.671247076788518
 30
0.0
 10
22.27967346442524
 20
5.082551945305212
 30
0.0
 10
23.37934513568881
 20
4.340183378850128
 30
0.0
 10
24.47914263963486
 20
3.467512355372477
 30
0.0
 10
25.58150429188946
 20
2.493255607656081
 30
0.0
 10
26.68109394273534
 20
1.441774190391399
 30
0.0
 10
27.78099107317389
 20
0.3472986640152271
 30
0.0
 10
28.88332825516956
 20
-0.7551094377009804
 30
0.0
 10
29.98284357484694
 20
-1.837748642950999
 30
0.0
 10
31.08284770132873
 20
-2.864718896022097
 30
0.0
 10
32.18514595318102
 20
-3.803844422751936
 30
0.0
 10
33.28459460348803
 20
-4.631628548274264
 30
0.0
 10
34.38471236948425
 20
-5.318943584286259
 30
0.0
 10
35.48696013497941
 20
-5.849242016506494
 30
0.0
 10
36.5863389157438
 20
-6.193238630660389
 30
0.0
 10
37.45799958852176
 20
-6.354581741310213
 30
0.0
 10
37.96386511386773
 20
-6.333386188379961
 30
0.0
 10
38.10268528930969
 20
-6.327569681365858
 30
0.0
  0
SPLINE
  5
3EB
330
1F
100
AcDbEntity
  8
0
  6
Continuous
 62
     1
370
    15
100
AcDbSpline
210
0.0
220
0.0
230
1.0
 70
     8
 71
     3
 72
    10
 73
     6
 74
     0
 42
0.000000001
 43
0.00000001
 40
0.0
 40
0.0
 40
0.0
 40
0.0
 40
0.2665870900820682
 40
0.6331278977714202
 40
1.0
 40
1.0
 40
1.0
 40
1.0
 10
55.81422340900208
 20
5.935620548923779
 30
0.0
 10
56.12184336496018
 20
6.038646704123806
 30
0.0
 10
56.85242178857526
 20
6.283327468811905
 30
0.0
 10
58.00586792921611
 20
6.398723227306647
 30
0.0
 10
58.85249516464221
 20
6.287783452429878
 30
0.0
 10
59.27600000000093
 20
6.232288508341199
 30
0.0
  0
SPLINE
  5
3EC
330
1F
100
AcDbEntity
  8
0
  6
Continuous
 62
     1
370
    15
100
AcDbSpline
210
0.0
220
0.0
230
1.0
 70
     8
 71
     3
 72
    28
 73
    24
 74
     0
 42
0.000000001
 43
0.00000001
 40
0.0
 40
0.0
 40
0.0
 40
0.0
 40
0.0156094501455284
 40
0.0728897279742939
 40
0.1225055561937316
 40
0.1720424082244697
 40
0.2216944246597845
 40
0.2713031229469811
 40
0.320840978986739
 40
0.3704986722136528
 40
0.4201005713193653
 40
0.4696397659531525
 40
0.5193024840698888
 40
0.5688979151123607
 40
0.6184387828526279
 40
0.6681058736117634
 40
0.717695168058929
 40
0.7672380433274419
 40
0.8169088541807215
 40
0.8664923438323772
 40
0.9160375609420988
 40
0.9657114390852921
 40
1.0
 40
1.0
 40
1.0
 40
1.0
 10
55.81422340900208
 20
-5.935620548923765
 30
0.0
 10
55.69878379742657
 20
-5.98240073597556
 30
0.0
 10
55.15972817363777
 20
-6.200845016651812
 30
0.0
 10
54.25256044778079
 20
-6.34076379591292
 30
0.0
 10
53.09516106321543
 20
-6.366339763768465
 30
0.0
 10
51.9959442821678
 20
-6.18490494906689
 30
0.0
 10
50.8941852747446
 20
-5.82260930393042
 30
0.0
 10
49.79338318120843
 20
-5.284727872764861
 30
0.0
 10
48.69415711882958
 20
-4.587580220416072
 30
0.0
 10
47.59226937104842
 20
-3.754760601326737
 30
0.0
 10
46.49161945267933
 20
-2.80865159935226
 30
0.0
 10
45.39236370170909
 20
-1.776915185789164
 30
0.0
 10
44.2903650764798
 20
-0.6946319479051226
 30
0.0
 10
43.18985905140924
 20
0.4099229207141235
 30
0.0
 10
42.09056637416798
 20
1.503428135829353
 30
0.0
 10
40.98847115773785
 20
2.549118476887074
 30
0.0
 10
39.88810187633956
 20
3.52011464880276
 30
0.0
 10
38.78876404516987
 20
4.386439231273073
 30
0.0
 10
37.68658937791245
 20
5.118760364246683
 30
0.0
 10
36.5863392944182
 20
5.701013725006547
 30
0.0
 10
35.48698676953649
 20
6.105392238940894
 30
0.0
 10
34.49787900769742
 20
6.327085104289921
 30
0.0
 10
33.87716564419551
 20
6.328930362708604
 30
0.0
 10
33.62367886827741
 20
6.329683928903222
 30
0.0
  0
SPLINE
  5
3ED
330
1F
100
AcDbEntity
  8
0
  6
Continuous
 62
     1
370
    15
100
AcDbSpline
210
0.0
220
0.0
230
1.0
 70
     8
 71
     3
 72
    13
 73
     9
 74
     0
 42
0.000000001
 43
0.00000001
 40
0.0
 40
0.0
 40
0.0
 40
0.0
 40
0.0404693085891684
 40
0.2268344852298709
 40
0.4199941961264752
 40
0.613165412211714
 40
0.8067705446384602
 40
0.9999999999999999
 40
0.9999999999999999
 40
0.9999999999999999
 40
0.9999999999999999
 10
15.91569628504224
 20
-5.94401834786062
 30
0.0
 10
15.83594270767217
 20
-5.976213109598106
 30
0.0
 10
15.38891600277761
 20
-6.156667939700554
 30
0.0
 10
14.55926103259362
 20
-6.311179017185452
 30
0.0
 10
13.43107199801329
 20
-6.382952052403567
 30
0.0
 10
12.28837420915782
 20
-6.229583807344284
 30
0.0
 10
11.14310790092513
 20
-5.892048867594099
 30
0.0
 10
10.3807891899594
 20
-5.507869247793124
 30
0.0
 10
10.00000000000092
 20
-5.315965987230044
 30
0.0
  0
SPLINE
  5
3EE
330
1F
100
AcDbEntity
  8
0
  6
Continuous
 62
     1
370
    15
100
AcDbSpline
210
0.0
220
0.0
230
1.0
 70
    24
 71
     3
 72
    16
 73
    12
 74
     0
 42
0.000000001
 43
0.00000001
 40
0.0
 40
0.0
 40
0.0
 40
0.0
 40
0.25
 40
0.25
 40
0.5
 40
0.5
 40
0.75
 40
0.75
 40
0.875
 40
0.875
 40
1.0
 40
1.0
 40
1.0
 40
1.0
 10
10.00000000000092
 20
-1.79616167998141
 30
0.0
 10
10.00000000000092
 20
-1.840086710648606
 30
0.0
 10
10.00000000000092
 20
-1.920632622147295
 30
0.0
 10
10.00000000000092
 20
-2.207851616899021
 30
0.0
 10
10.00000000000092
 20
-2.416196061221498
 30
0.0
 10
10.00000000000092
 20
-3.004615993301854
 30
0.0
 10
10.00000000000092
 20
-3.387494032979205
 30
0.0
 10
10.00000000000092
 20
-4.064583288613207
 30
0.0
 10
10.00000000000092
 20
-4.306397961041554
 30
0.0
 10
10.00000000000092
 20
-4.805362440568672
 30
0.0
 10
10.00000000000092
 20
-5.062350665341285
 30
0.0
 10
10.00000000000092
 20
-5.315965987230044
 30
0.0
  0
SPLINE
  5
3EF
330
1F
100
AcDbEntity
  8
0
  6
Continuous
 62
     1
370
    15
100
AcDbSpline
210
0.0
220
0.0
230
1.0
 70
     8
 71
     3
 72
    15
 73
    11
 74
     0
 42
0.000000001
 43
0.00000001
 40
0.0
 40
0.0
 40
0.0
 40
0.0
 40
0.1401885815799241
 40
0.2806497180599548
 40
0.4207960468605534
 40
0.5609340286103741
 40
0.6961425542477926
 40
0.831045480292698
 40
0.9659194604468371
 40
1.0
 40
1.0
 40
1.0
 40
1.0
 10
10.00000000000151
 20
-1.796161679980784
 30
0.0
 10
10.38078865067754
 20
-2.156177710986
 30
0.0
 10
11.14310628202996
 20
-2.876909716831108
 30
0.0
 10
12.28838069336932
 20
-3.846897247500706
 30
0.0
 10
13.43104774524637
 20
-4.698918986988957
 30
0.0
 10
14.55935023061204
 20
-5.387744175841533
 30
0.0
 10
15.67596648351149
 20
-5.904047077357959
 30
0.0
 10
16.77588267344773
 20
-6.222718434666376
 30
0.0
 10
17.60080228801753
 20
-6.364181347281999
 30
0.0
 10
18.06039004744277
 20
-6.337409579915615
 30
0.0
 10
18.15309546213292
 20
-6.332009332096149
 30
0.0
  0
SPLINE
  5
3F0
330
1F
100
AcDbEntity
  8
0
  6
Continuous
 62
     1
370
    15
100
AcDbSpline
210
0.0
220
0.0
230
1.0
 70
     8
 71
     3
 72
    28
 73
    24
 74
     0
 42
0.000000001
 43
0.00000001
 40
0.0
 40
0.0
 40
0.0
 40
0.0
 40
0.0325475988991524
 40
0.0821381565431251
 40
0.131816047836123
 40
0.1813659853074827
 40
0.2309623485744234
 40
0.2806365192429874
 40
0.3301844488999338
 40
0.3797869496369356
 40
0.4294567470397923
 40
0.4790030033517619
 40
0.5286119730740092
 40
0.5782767448707595
 40
0.6278216623978865
 40
0.6774374322708228
 40
0.7270965264667627
 40
0.7766404398417511
 40
0.8262633406632814
 40
0.883551783640697
 40
0.9407587189330066
 40
0.9979496362217609
 40
1.0
 40
1.0
 40
1.0
 40
1.0
 10
35.86449234117946
 20
5.939093275984433
 30
0.0
 10
36.10506188908876
 20
6.022826072543708
 30
0.0
 10
36.71217085730818
 20
6.234136823081386
 30
0.0
 10
37.68655361530652
 20
6.363779565442144
 30
0.0
 10
38.78877360703463
 20
6.34606336015878
 30
0.0
 10
39.88809931448627
 20
6.130860959229778
 30
0.0
 10
40.98847184571686
 20
5.7337511430852
 30
0.0
 10
42.09056619021261
 20
5.165384112333768
 30
0.0
 10
43.18985910077559
 20
4.440718657673216
 30
0.0
 10
44.29036506296227
 20
3.583591562117491
 30
0.0
 10
45.39236370630391
 20
2.620528902155229
 30
0.0
 10
46.49161944779671
 20
1.576377187376593
 30
0.0
 10
47.59226938601451
 20
0.4863096942818146
 30
0.0
 10
48.69415706384665
 20
-0.6170641234489693
 30
0.0
 10
49.79338338573659
 20
-1.704654352799082
 30
0.0
 10
50.89418450994154
 20
-2.739530545482253
 30
0.0
 10
51.99594713628819
 20
-3.691473477235121
 30
0.0
 10
53.09515043218119
 20
-4.53537327969039
 30
0.0
 10
54.25260279229396
 20
-5.276281644468867
 30
0.0
 10
55.46751663776142
 20
-5.874688775302971
 30
0.0
 10
56.73697106021827
 20
-6.237454255852569
 30
0.0
 10
57.59775174637659
 20
-6.389000322498205
 30
0.0
 10
58.03598912158381
 20
-6.347076610728777
 30
0.0
 10
58.05115668758189
 20
-6.345625614759186
 30
0.0
  0
SPLINE
  5
3F1
330
1F
100
AcDbEntity
  8
0
  6
Continuous
 62
     1
370
    15
100
AcDbSpline
210
0.0
220
0.0
230
1.0
 70
     8
 71
     3
 72
    28
 73
    24
 74
     0
 42
0.000000001
 43
0.00000001
 40
0.0
 40
0.0
 40
0.0
 40
0.0
 40
0.0211440292658939
 40
0.0708028278512687
 40
0.1204058310734893
 40
0.1699461284280106
 40
0.2196099520150597
 40
0.2692064870300634
 40
0.3187484575283073
 40
0.3684166538550886
 40
0.4180070521381882
 40
0.4675510302093647
 40
0.5172229467130978
 40
0.5668075400714753
 40
0.6163538600359887
 40
0.666028843897912
 40
0.7156079644527555
 40
0.7651569605040981
 40
0.8148343586943632
 40
0.8644083388629747
 40
0.9139603450496312
 40
0.9636395043722253
 40
1.0
 40
1.0
 40
1.0
 40
1.0
 10
49.16346507153911
 20
-5.937374373712956
 30
0.0
 10
49.0072070634791
 20
-5.996573119908334
 30
0.0
 10
48.48396200427457
 20
-6.194805849497072
 30
0.0
 10
47.5922436451672
 20
-6.339784459982369
 30
0.0
 10
46.49162633233777
 20
-6.368979183089522
 30
0.0
 10
45.39236185428349
 20
-6.1962926123513
 30
0.0
 10
44.290365570573
 20
-5.841436642880566
 30
0.0
 10
43.18985892191689
 20
-5.31049257091793
 30
0.0
 10
42.09056639905911
 20
-4.619603544786486
 30
0.0
 10
40.98847118808088
 20
-3.792233406650041
 30
0.0
 10
39.88810173044857
 20
-2.850043914121201
 30
0.0
 10
38.78876459851288
 20
-1.821305624130559
 30
0.0
 10
37.68658730596322
 20
-0.7407879713546492
 30
0.0
 10
36.58634700937863
 20
0.3638300931707192
 30
0.0
 10
35.48695796839594
 20
1.458404267295364
 30
0.0
 10
34.38471292022349
 20
2.50647992882034
 30
0.0
 10
33.28459456478842
 20
3.481507216453252
 30
0.0
 10
32.18514555798252
 20
4.352680887925061
 30
0.0
 10
31.08284932450697
 20
5.090930264545818
 30
0.0
 10
29.98283749405238
 20
5.680003851112374
 30
0.0
 10
28.88335097422811
 20
6.092182436101808
 30
0.0
 10
27.87876770867408
 20
6.323007006406428
 30
0.0
 10
27.24280022074203
 20
6.328898184160337
 30
0.0
 10
26.9740393444031
 20
6.33138780529012
 30
0.0
  0
SPLINE
  5
3F2
330
1F
100
AcDbEntity
  8
0
  6
Continuous
 62
     1
370
    15
100
AcDbSpline
210
0.0
220
0.0
230
1.0
 70
     8
 71
     3
 72
     9
 73
     5
 74
     0
 42
0.000000001
 43
0.00000001
 40
0.0
 40
0.0
 40
0.0
 40
0.0
 40
0.7601866871880041
 40
1.0
 40
1.0
 40
1.0
 40
1.0
 10
10.00000000000151
 20
-6.172758784148868
 30
0.0
 10
10.38077475184521
 20
-6.254402787069552
 30
0.0
 10
10.88167112146229
 20
-6.361802724869946
 30
0.0
 10
11.38329705313603
 20
-6.334357900068966
 30
0.0
 10
11.50359362960312
 20
-6.327776265713908
 30
0.0
  0
SPLINE
  5
3F3
330
1F
100
AcDbEntity
  8
0
  6
Continuous
 62
     1
370
    15
100
AcDbSpline
210
0.0
220
0.0
230
1.0
 70
     8
 71
     3
 72
    28
 73
    24
 74
     0
 42
0.000000001
 43
0.00000001
 40
0.0
 40
0.0
 40
0.0
 40
0.0
 40
0.0346225779502689
 40
0.0841997712044499
 40
0.1338803891832149
 40
0.1834325967008075
 40
0.233014930674389
 40
0.2826931341683302
 40
0.332242665425646
 40
0.3818304725574755
 40
0.4315056084944188
 40
0.48105279770661
 40
0.5306464101394018
 40
0.5803178256582737
 40
0.629863007167414
 40
0.6794627567298556
 40
0.7291297992255807
 40
0.7786733074825554
 40
0.8282795256714439
 40
0.8779415428398051
 40
0.927483712386192
 40
0.977096730348603
 40
1.0
 40
1.0
 40
1.0
 40
1.0
 10
29.21494957773238
 20
5.940421860361567
 30
0.0
 10
29.47089645638518
 20
6.02800146545259
 30
0.0
 10
30.09334197889982
 20
6.240989150004324
 30
0.0
 10
31.08281120760491
 20
6.366978115218103
 30
0.0
 10
32.18515575071278
 20
6.340823041121325
 30
0.0
 10
33.28459183495416
 20
6.117910834819924
 30
0.0
 10
34.38471365350803
 20
5.713205122521273
 30
0.0
 10
35.48695777231391
 20
5.138061561856375
 30
0.0
 10
36.58634706194556
 20
4.40743993207397
 30
0.0
 10
37.68658729168705
 20
3.545062985393088
 30
0.0
 10
38.78876460291845
 20
2.578268323693166
 30
0.0
 10
39.88810172707831
 20
1.531592277832928
 30
0.0
 10
40.9884711971747
 20
0.439969216010951
 30
0.0
 10
42.09056636603948
 20
-0.6630818485640617
 30
0.0
 10
43.18985904459912
 20
-1.749110701764295
 30
0.0
 10
44.29036511192267
 20
-2.781421949510303
 30
0.0
 10
45.39236356670192
 20
-3.729131130673039
 30
0.0
 10
46.49161995609614
 20
-4.567579403799357
 30
0.0
 10
47.59226748838707
 20
-5.26712587289137
 30
0.0
 10
48.69416414643514
 20
-5.811289926639986
 30
0.0
 10
49.79335700950628
 20
-6.171761631932554
 30
0.0
 10
50.69636061601074
 20
-6.347764470164364
 30
0.0
 10
51.23297937236148
 20
-6.331443269226952
 30
0.0
 10
51.40246300812275
 20
-6.326288442933361
 30
0.0
  0
SPLINE
  5
3F4
330
1F
100
AcDbEntity
  8
0
  6
Continuous
 62
     1
370
    15
100
AcDbSpline
210
0.0
220
0.0
230
1.0
 70
     8
 71
     3
 72
    28
 73
    24
 74
     0
 42
0.000000001
 43
0.00000001
 40
0.0
 40
0.0
 40
0.0
 40
0.0
 40
0.0190732338359985
 40
0.0687411574493684
 40
0.1183312834462228
 40
0.1678749894860337
 40
0.2175466332559291
 40
0.2671309543599345
 40
0.3166770022802238
 40
0.3663517133914674
 40
0.4159305617219883
 40
0.4654792857144131
 40
0.5151564111407423
 40
0.5647301191132558
 40
0.6142818532244666
 40
0.6639607397734549
 40
0.7135296400816269
 40
0.7630847181951872
 40
0.8127647125531923
 40
0.8623291381509305
 40
0.9118878939692505
 40
0.9615683427463754
 40
1.0
 40
1.0
 40
1.0
 40
1.0
 10
42.51399383921797
 20
-5.938077500715508
 30
0.0
 10
42.3730351367623
 20
-5.992219961425803
 30
0.0
 10
41.86501093684525
 20
-6.187352860670089
 30
0.0
 10
40.98843095568826
 20
-6.334250879045186
 30
0.0
 10
39.88811249139688
 20
-6.37207898761956
 30
0.0
 10
38.7887617079564
 20
-6.207150180563843
 30
0.0
 10
37.68658807926637
 20
-5.860002360965623
 30
0.0
 10
36.5863468046113
 20
-5.335964821163998
 30
0.0
 10
35.48695801560739
 20
-4.6514114748054
 30
0.0
 10
34.38471293677016
 20
-3.829484308768741
 30
0.0
 10
33.28459445175146
 20
-2.891289622692184
 30
0.0
 10
32.18514599384362
 20
-1.865631420012903
 30
0.0
 10
31.08284769083849
 20
-0.7868790704779798
 30
0.0
 10
29.98284357619492
 20
0.317715330053943
 30
0.0
 10
28.88332826025479
 20
1.413272900193562
 30
0.0
 10
27.78099105143527
 20
2.463733579435683
 30
0.0
 10
26.68109402437393
 20
3.442714653491606
 30
0.0
 10
25.58150398676484
 20
4.318671393048646
 30
0.0
 10
24.47914378051711
 20
5.062846756854526
 30
0.0
 10
23.37934088942599
 20
5.658699180285296
 30
0.0
 10
22.27968932726033
 20
6.078625661487337
 30
0.0
 10
21.2596946518149
 20
6.318829553030582
 30
0.0
 10
20.60847958989221
 20
6.32899241480105
 30
0.0
 10
20.32444059473443
 20
6.333425127147549
 30
0.0
  0
SPLINE
  5
3F5
330
1F
100
AcDbEntity
  8
0
  6
Continuous
 62
     1
370
    15
100
AcDbSpline
210
0.0
220
0.0
230
1.0
 70
     8
 71
     3
 72
    28
 73
    24
 74
     0
 42
0.000000001
 43
0.00000001
 40
0.0
 40
0.0
 40
0.0
 40
0.0
 40
0.0367015352473461
 40
0.0862698890870493
 40
0.1359538208464525
 40
0.18551282646114
 40
0.2350856553659214
 40
0.2847684792285082
 40
0.3343241405758168
 40
0.3839017775259722
 40
0.4335828401263214
 40
0.4831354911162761
 40
0.5327182688318395
 40
0.5823969169257562
 40
0.6319468916314827
 40
0.6815351425542765
 40
0.7312107230637419
 40
0.7807583557033835
 40
0.8303524119790947
 40
0.8800242720371925
 40
0.9295698969558148
 40
0.9791700904161008
 40
1.0
 40
1.0
 40
1.0
 40
1.0
 10
22.56535455473252
 20
5.942063464282654
 30
0.0
 10
22.83669920976705
 20
6.033296329181624
 30
0.0
 10
23.47451648733953
 20
6.247746462749205
 30
0.0
 10
24.47910560612803
 20
6.369822338981635
 30
0.0
 10
25.5815141968299
 20
6.335250508579449
 30
0.0
 10
26.68109129084213
 20
6.104636931096636
 30
0.0
 10
27.78099178584543
 20
5.692369715116513
 30
0.0
 10
28.88332806383229
 20
5.110450293683954
 30
0.0
 10
29.98284362886059
 20
4.373927307412742
 30
0.0
 10
31.08284767643292
 20
3.506368783807702
 30
0.0
 10
32.18514599865726
 20
2.535842878915474
 30
0.0
 10
33.28459444688509
 20
1.486723421570019
 30
0.0
 10
34.38471295144994
 20
0.3936310447772797
 30
0.0
 10
35.48695796170742
 20
-0.7090984818469082
 30
0.0
 10
36.58634700499012
 20
-1.793475514259072
 30
0.0
 10
37.68658733024849
 20
-2.823156609218017
 30
0.0
 10
38.78876450568687
 20
-3.76657362743947
 30
0.0
 10
39.88810207656626
 20
-4.5997234695825
 30
0.0
 10
40.98846989388987
 20
-5.29318287131531
 30
0.0
 10
42.09057123220211
 20
-5.830407630414598
 30
0.0
 10
43.18984092799496
 20
-6.182679199724106
 30
0.0
 10
44.07715619082568
 20
-6.351217196793272
 30
0.0
 10
44.59841121322034
 20
-6.332343075248346
 30
0.0
 10
44.75257391520903
 20
-6.326760998433699
 30
0.0
  0
SPLINE
  5
3F6
330
1F
100
AcDbEntity
  8
0
  6
Continuous
 62
     1
370
    15
100
AcDbSpline
210
0.0
220
0.0
230
1.0
 70
     8
 71
     3
 72
    34
 73
    30
 74
     0
 42
0.000000001
 43
0.00000001
 40
0.0
 40
0.0
 40
0.0
 40
0.0
 40
0.1249999999999979
 40
0.1249999999999979
 40
0.1874999999999978
 40
0.1874999999999978
 40
0.2499999999999977
 40
0.2499999999999977
 40
0.3749999999999975
 40
0.3749999999999975
 40
0.4999999999999973
 40
0.4999999999999973
 40
0.6249999999999972
 40
0.6249999999999972
 40
0.6874999999999971
 40
0.6874999999999971
 40
0.7187499999999974
 40
0.7187499999999974
 40
0.7499999999999977
 40
0.7499999999999977
 40
0.7812499999999979
 40
0.7812499999999979
 40
0.8124999999999981
 40
0.8124999999999981
 40
0.8749999999999988
 40
0.8749999999999988
 40
0.9374999999999993
 40
0.9374999999999993
 40
1.0
 40
1.0
 40
1.0
 40
1.0
 10
59.27600000000093
 20
2.062194558181517
 30
0.0
 10
59.49151193410275
 20
1.857731852526896
 30
0.0
 10
59.69213825115237
 20
1.631759389836773
 30
0.0
 10
59.97121553394719
 20
1.273494263693351
 30
0.0
 10
60.05843292798895
 20
1.153103373242175
 30
0.0
 10
60.22084205107429
 20
0.9095440456032975
 30
0.0
 10
60.29647609332191
 20
0.7855003164867753
 30
0.0
 10
60.49860133830624
 20
0.4128907090140927
 30
0.0
 10
60.59910231300282
 20
0.1655232762205685
 30
0.0
 10
60.72910091477219
 20
-0.3482884624014844
 30
0.0
 10
60.75778025642079
 20
-0.6107298591431487
 30
0.0
 10
60.78284803861341
 20
-1.172828514856064
 30
0.0
 10
60.78361323310018
 20
-1.468590804991933
 30
0.0
 10
60.75882762835072
 20
-1.922308901717628
 30
0.0
 10
60.74582876699691
 20
-2.073170451496964
 30
0.0
 10
60.70470714960076
 20
-2.297137396711548
 30
0.0
 10
60.68753588563509
 20
-2.369624569546488
 30
0.0
 10
60.64177683871742
 20
-2.508223531104321
 30
0.0
 10
60.61312099446398
 20
-2.573769284146948
 30
0.0
 10
60.54189939681434
 20
-2.6872336819997
 30
0.0
 10
60.49901409387704
 20
-2.735016970283439
 30
0.0
 10
60.40287917931785
 20
-2.804465344963106
 30
0.0
 10
60.34908708964795
 20
-2.826656825901892
 30
0.0
 10
60.18196348512339
 20
-2.857875729029189
 30
0.0
 10
60.06358083365485
 20
-2.834021139136794
 30
0.0
 10
59.83204175801608
 20
-2.742877067227738
 30
0.0
 10
59.71784051427527
 20
-2.675402821537375
 30
0.0
 10
59.49277153016297
 20
-2.51524259625397
 30
0.0
 10
59.38359382833887
 20
-2.423573159897785
 30
0.0
 10
59.27600000000091
 20
-2.323127830995062
 30
0.0
  0
SPLINE
  5
3F7
330
1F
100
AcDbEntity
  8
0
  6
Continuous
 62
     1
370
    15
100
AcDbSpline
210
0.0
220
0.0
230
1.0
 70
     8
 71
     3
 72
    18
 73
    14
 74
     0
 42
0.000000001
 43
0.00000001
 40
0.0
 40
0.0
 40
0.0
 40
0.0
 40
0.1028190034751458
 40
0.2055451588591638
 40
0.3083000857334839
 40
0.4112014164691544
 40
0.5003339232037607
 40
0.5893245529220246
 40
0.678522070088002
 40
0.7676417682339725
 40
0.8566342016073181
 40
0.9458419168629698
 40
1.0
 40
1.0
 40
1.0
 40
1.0
 10
59.27600000000093
 20
-2.323127830995077
 30
0.0
 10
58.85250212933799
 20
-1.920158456903366
 30
0.0
 10
58.00588881701411
 20
-1.114583599984215
 30
0.0
 10
56.73692867240912
 20
0.1638177666100944
 30
0.0
 10
55.4675280847283
 20
1.429214291917788
 30
0.0
 10
54.25260012160534
 20
2.584865128802448
 30
0.0
 10
53.09515127512087
 20
3.59671138440612
 30
0.0
 10
51.99594625872659
 20
4.453207529050616
 30
0.0
 10
50.89418718207621
 20
5.173645617198162
 30
0.0
 10
49.79337359252899
 20
5.742145355737094
 30
0.0
 10
48.69419354907006
 20
6.130763100926941
 30
0.0
 10
47.73622293004755
 20
6.334944807570793
 30
0.0
 10
47.146042501412
 20
6.329380304245319
 30
0.0
 10
46.92309504059331
 20
6.32727824896368
 30
0.0
  0
SPLINE
  5
3F8
330
1F
100
AcDbEntity
  8
0
  6
Continuous
 62
     1
370
    15
100
AcDbSpline
210
0.0
220
0.0
230
1.0
 70
     8
 71
     3
 72
    25
 73
    21
 74
     0
 42
0.000000001
 43
0.00000001
 40
0.0
 40
0.0
 40
0.0
 40
0.0
 40
0.0172434698986352
 40
0.0746142105399312
 40
0.1318579356111467
 40
0.1890856983773016
 40
0.246457718351292
 40
0.3036962758861642
 40
0.3609282857814434
 40
0.4183008305329252
 40
0.4755346053168755
 40
0.5327712474812764
 40
0.590143562418924
 40
0.6473729394963665
 40
0.7046145988190251
 40
0.7619859293673329
 40
0.8214489139346138
 40
0.8809154403008083
 40
0.940515545044185
 40
1.0
 40
1.0
 40
1.0
 40
1.0
 10
29.21494957773241
 20
-5.940421860361567
 30
0.0
 10
29.10458581981975
 20
-5.983927055341269
 30
0.0
 10
28.62703085453253
 20
-6.172178364206502
 30
0.0
 10
27.78092440104349
 20
-6.322091785895452
 30
0.0
 10
26.681111784649
 20
-6.377299628217884
 30
0.0
 10
25.58149949477841
 20
-6.227902217928275
 30
0.0
 10
24.47914393487508
 20
-5.896175372728607
 30
0.0
 10
23.37934474504975
 20
-5.386069166901109
 30
0.0
 10
22.27967373372717
 20
-4.714356961936275
 30
0.0
 10
21.17730197805855
 20
-3.903313239243843
 30
0.0
 10
20.07759647360639
 20
-2.973327140595316
 30
0.0
 10
18.97783618552432
 20
-1.954075251989025
 30
0.0
 10
17.87546746845099
 20
-0.8788496129181027
 30
0.0
 10
16.77585211536429
 20
0.2254252853001617
 30
0.0
 10
15.67597468312285
 20
1.322735549355542
 30
0.0
 10
14.55934794207772
 20
2.391542704362692
 30
0.0
 10
13.43104836749424
 20
3.403048730671628
 30
0.0
 10
12.28838052700503
 20
4.31336621152245
 30
0.0
 10
11.14310632356518
 20
5.095831528248596
 30
0.0
 10
10.38078866451326
 20
5.475965823232514
 30
0.0
 10
10.00000000000092
 20
5.665848385709552
 30
0.0
  0
LINE
  5
3F9
330
1F
100
AcDbEntity
  8
0
  6
Continuous
 62
     1
370
    15
100
AcDbLine
 10
10.0
 20
6.172758784142559
 30
0.0
 11
10.00000000000078
 21
5.736302716350465
 31
0.0
  0
SPLINE
  5
3FA
330
1F
100
AcDbEntity
  8
0
  6
Continuous
 62
     1
370
    15
100
AcDbSpline
210
0.0
220
0.0
230
1.0
 70
     8
 71
     3
 72
    27
 73
    23
 74
     0
 42
0.000000001
 43
0.00000001
 40
0.0
 40
0.0
 40
0.0
 40
0.0
 40
0.053278143222643
 40
0.1066598699100751
 40
0.1599219551228353
 40
0.2131808680703381
 40
0.2645663597605143
 40
0.3158357094748234
 40
0.3670940584122035
 40
0.41848043178544
 40
0.4697452878067931
 40
0.52100757561589
 40
0.57239415482533
 40
0.6236548618854479
 40
0.674921433437058
 40
0.726307542621676
 40
0.777564445676967
 40
0.8288356456099184
 40
0.880220608941043
 40
0.931474053153956
 40
0.9827502258564892
 40
1.0
 40
1.0
 40
1.0
 40
1.0
 10
10.00000000000151
 20
6.172758784148868
 30
0.0
 10
10.38078866451373
 20
6.242850223748945
 30
0.0
 10
11.14310632356543
 20
6.383169374855896
 30
0.0
 10
12.28838052700601
 20
6.333562702371069
 30
0.0
 10
13.43104836749178
 20
6.093423330725173
 30
0.0
 10
14.55934794208731
 20
5.657378601106274
 30
0.0
 10
15.67597468308861
 20
5.054424752992759
 30
0.0
 10
16.77585211549179
 20
4.306195646527797
 30
0.0
 10
17.87546746797462
 20
3.42850117558875
 30
0.0
 10
18.97783618730529
 20
2.450508517131055
 30
0.0
 10
20.07759646697785
 20
1.396748395628123
 30
0.0
 10
21.17730200282237
 20
0.3009757078089734
 30
0.0
 10
22.2796736411531
 20
-0.8011109981226525
 30
0.0
 10
23.37934508958794
 20
-1.881926604202164
 30
0.0
 10
24.47914264751215
 20
-2.90610576518678
 30
0.0
 10
25.58150430664297
 20
-3.840940163654693
 30
0.0
 10
26.68109387606098
 20
-4.663292160019822
 30
0.0
 10
27.78099132549916
 20
-5.344406183174954
 30
0.0
 10
28.88332731132725
 20
-5.867791865450144
 30
0.0
 10
29.98284708790382
 20
-6.203435554930024
 30
0.0
 10
30.83888938154847
 20
-6.357861422173954
 30
0.0
 10
31.32934415357744
 20
-6.334575844133184
 30
0.0
 10
31.45280445488658
 20
-6.328714254757301
 30
0.0
  0
SPLINE
  5
3FB
330
1F
100
AcDbEntity
  8
0
  6
Continuous
 62
     1
370
    15
100
AcDbSpline
210
0.0
220
0.0
230
1.0
 70
     8
 71
     3
 72
    16
 73
    12
 74
     0
 42
0.000000001
 43
0.00000001
 40
0.0
 40
0.0
 40
0.0
 40
0.0
 40
0.0623086464083234
 40
0.1711703236180316
 40
0.2801270584773183
 40
0.3888310757554151
 40
0.4977083989386925
 40
0.6234046443708525
 40
0.7489220542567976
 40
0.8744043191326573
 40
1.0
 40
1.0
 40
1.0
 40
1.0
 10
49.16346507153916
 20
5.93737437371297
 30
0.0
 10
49.37333200487366
 20
6.01283979033019
 30
0.0
 10
49.94986500577018
 20
6.220153550601736
 30
0.0
 10
50.8941638993302
 20
6.356312263259923
 30
0.0
 10
51.99595248103925
 20
6.355551715696734
 30
0.0
 10
53.09514961449945
 20
6.155779405317503
 30
0.0
 10
54.25260064404647
 20
5.75440102715099
 30
0.0
 10
55.46752793663357
 20
5.127746593363483
 30
0.0
 10
56.73692871186377
 20
4.265545762919132
 30
0.0
 10
58.00588880714118
 20
3.239164561759637
 30
0.0
 10
58.85250212604601
 20
2.45463602081152
 30
0.0
 10
59.27600000000091
 20
2.062194558186931
 30
0.0
  0
LINE
  5
3FC
330
1F
100
AcDbEntity
  8
0
  6
Continuous
 62
     1
370
    15
100
AcDbLine
 10
10.0
 20
-6.172758784142559
 30
0.0
 11
10.00000000000092
 21
-5.315965987230044
 31
0.0
  0
LINE
  5
3FD
330
1F
100
AcDbEntity
  8
0
  6
Continuous
 62
     1
370
    15
100
AcDbLine
 10
10.0
 20
4.376597104162229
 30
0.0
 11
10.00000000000092
 21
5.665848385709538
 31
0.0
  0
LINE
  5
3FE
330
1F
100
AcDbEntity
  8
0
  6
Continuous
 62
     1
370
    15
100
AcDbLine
 10
10.0
 20
-1.796161679980287
 30
0.0
 11
10.00000000000092
 21
0.3498823984794655
 31
0.0
  0
LINE
  5
3FF
330
1F
100
AcDbEntity
  8
0
  6
Continuous
 62
     1
370
    15
100
AcDbLine
 10
60.80000000000091
 20
0.0
 30
0.0
 11
60.80000000000091
 21
4.826000000000008
 31
0.0
  0
LINE
  5
400
330
1F
100
AcDbEntity
  8
0
  6
Continuous
 62
     1
370
    15
100
AcDbLine
 10
60.80000000000091
 20
-4.825999999999993
 30
0.0
 11
60.80000000000091
 21
0.0
 31
0.0
  0
LINE
  5
401
330
1F
100
AcDbEntity
  8
0
  6
Continuous
 62
     8
370
    15
100
AcDbLine
 10
59.27600000000091
 20
6.232288508341199
 30
0.0
 11
59.27600000000093
 21
6.349999999999994
 31
0.0
  0
LINE
  5
402
330
1F
100
AcDbEntity
  8
0
  6
Continuous
 62
     8
370
    15
100
AcDbLine
 10
59.27600000000093
 20
-6.349999999999994
 30
0.0
 11
59.27600000000093
 21
-6.279589199788546
 31
0.0
  0
LINE
  5
403
330
1F
100
AcDbEntity
  8
중심선
100
AcDbLine
 10
-43.79999999999909
 20
0.0
 30
0.0
 11
63.80000000000091
 21
0.0
 31
0.0
  0
CIRCLE
  5
404
330
1F
100
AcDbEntity
  8
외형선
100
AcDbCircle
 10
0.0
 20
0.0
 30
0.0
 40
3.00000000000089
  0
POINT
  5
405
330
1F
100
AcDbEntity
  8
치수문자_일반주서
100
AcDbPoint
 10
0.0
 20
0.0
 30
0.0
  0
DIMENSION
  5
406
330
1F
100
AcDbEntity
  8
치수문자_일반주서
100
AcDbDimension
  2
*D20
 10
77.85874571577392
 20
6.350000000000064
 30
0.0
 11
77.85874571577394
 21
0.0000000000000711
 31
0.0
 70
   160
  1
%%c<>
 71
     2
 42
12.69999999999999
 52
-270.0
  3
SLDDIMSTYLE0
100
AcDbAlignedDimension
 13
59.27600000000093
 23
-6.349999999999994
 33
0.0
 14
59.21350000000093
 24
6.349999999999994
 34
0.0
 50
90.0000000000002
100
AcDbRotatedDimension
1001
ACAD
1000
DSTYLE
1002
{
1070
   273
1070
     7
1002
}
  0
DIMENSION
  5
407
330
1F
100
AcDbEntity
  8
치수문자_일반주서
100
AcDbDimension
  2
*D21
 10
60.80000000000091
 20
39.00555141807178
 30
0.0
 11
10.00000000000091
 21
39.00555141807178
 31
0.0
 70
   160
  1
<>
 71
     2
 42
101.6
  3
SLDDIMSTYLE0
100
AcDbAlignedDimension
 13
-40.79999999999909
 23
5.849999999999994
 33
0.0
 14
60.80000000000091
 24
4.826000000000008
 34
0.0
100
AcDbRotatedDimension
1001
ACAD
1000
DSTYLE
1002
{
1070
   273
1070
     7
1002
}
  0
DIMENSION
  5
408
330
1F
100
AcDbEntity
  8
치수문자_일반주서
100
AcDbDimension
  2
*D22
 10
10.0
 20
22.45299453033795
 30
0.0
 11
34.84120226380341
 21
22.45299453033795
 31
0.0
 70
   160
  1
<>
 71
     2
 42
50.80000000000091
  3
SLDDIMSTYLE0
100
AcDbAlignedDimension
 13
60.80000000000091
 23
4.826000000000008
 33
0.0
 14
10.0
 24
6.172758784142559
 34
0.0
 50
-0.000000000000004
100
AcDbRotatedDimension
1001
ACAD
1000
DSTYLE
1002
{
1070
   273
1070
     7
1002
}
  0
INSERT
  5
409
330
1F
100
AcDbEntity
  8
외형선
100
AcDbBlockReference
  2
SW_DOWELSYMBOL_0
 10
0.0
 20
0.0
 30
0.0
  0
DIMENSION
  5
40A
102
{ACAD_REACTORS
102
}
102
{ACAD_XDICTIONARY
360
40B
102
}
330
1F
100
AcDbEntity
  8
치수문자_일반주서
100
AcDbDimension
  2
*D23
 10
-48.5290423440935
 20
-6.349999999999993
 30
0.0
 11
-48.5290423440935
 21
0.0
 31
0.0
 70
   160
  1
{%%C<>}
 71
     5
 42
12.69999999999999
  3
SLDDIMSTYLE0
100
AcDbAlignedDimension
 13
-40.29999999999909
 23
6.349999999999994
 33
0.0
 14
-40.29999999999909
 24
-6.349999999999994
 34
0.0
 50
90.0
100
AcDbRotatedDimension
1001
ACAD
1000
DSTYLE
1002
{
1070
   273
1070
     7
1002
}
  0
DIMENSION
  5
43E
102
{ACAD_REACTORS
102
}
102
{ACAD_XDICTIONARY
360
43F
102
}
330
1F
100
AcDbEntity
  8
치수문자_일반주서
100
AcDbDimension
  2
*D24
 10
59.27600000000093
 20
4.826000000000008
 30
0.0
 11
77.52575266798642
 21
22.44184296000839
 31
0.0
 70
   164
  1
<>
 71
     5
 42
1.524000000000001
  3
SLDDIMSTYLE0
100
AcDbRadialDimension
 15
60.37250616020634
 25
5.884418745408268
 35
0.0
 40
0.0
1001
ACAD
1000
DSTYLE
1002
{
1070
   273
1070
     2
1002
}
1001
ACAD_DSTYLE_DIMRADIAL_EXTENSION
1070
   387
1070
     1
1070
   388
1040
0.0
1070
   390
1040
1.570796326794897
  0
ENDSEC
  0
SECTION
  2
OBJECTS
  0
DICTIONARY
  5
C
330
0
100
AcDbDictionary
281
     1
  3
ACAD_GROUP
350
D
  3
ACAD_IMAGE_VARS
350
180
  3
ACAD_LAYOUT
350
1A
  3
ACAD_MLINESTYLE
350
17
  3
ACAD_PLOTSETTINGS
350
19
  3
ACAD_PLOTSTYLENAME
350
E
  3
ACAD_SCALELIST
350
47
  3
APPDATA
350
17E
  3
DWGPROPS
350
44B
  0
DICTIONARY
  5
40B
330
40A
100
AcDbDictionary
280
     1
281
     1
  0
DICTIONARY
  5
43F
330
43E
100
AcDbDictionary
280
     1
281
     1
  0
DICTIONARY
  5
D
102
{ACAD_REACTORS
330
C
102
}
330
C
100
AcDbDictionary
281
     1
  0
RASTERVARIABLES
  5
180
102
{ACAD_REACTORS
330
C
102
}
330
C
100
AcDbRasterVariables
 90
        0
 70
     1
 71
     1
 72
     1
  0
DICTIONARY
  5
1A
102
{ACAD_REACTORS
330
C
102
}
330
C
100
AcDbDictionary
281
     1
  3
Layout1
350
1E
  3
Layout2
350
26
  3
Model
350
22
  0
DICTIONARY
  5
17
102
{ACAD_REACTORS
330
C
102
}
330
C
100
AcDbDictionary
281
     1
  3
Standard
350
18
  0
DICTIONARY
  5
19
102
{ACAD_REACTORS
330
C
102
}
330
C
100
AcDbDictionary
281
     1
  0
ACDBDICTIONARYWDFLT
  5
E
102
{ACAD_REACTORS
330
C
102
}
330
C
100
AcDbDictionary
281
     1
  3
Normal
350
F
100
AcDbDictionaryWithDefault
340
F
  0
DICTIONARY
  5
47
102
{ACAD_REACTORS
330
C
102
}
330
C
100
AcDbDictionary
281
     1
  3
A0
350
48
  3
A1
350
49
  3
A2
350
4A
  3
A3
350
4B
  3
A4
350
4C
  3
A5
350
4D
  3
A6
350
4E
  3
A7
350
4F
  3
A8
350
50
  3
A9
350
51
  3
B0
350
52
  3
B1
350
53
  3
B2
350
54
  3
B3
350
55
  3
B4
350
56
  3
B5
350
57
  3
B6
350
58
  3
B7
350
59
  3
B8
350
5A
  3
B9
350
5B
  3
C0
350
5C
  3
C1
350
5D
  3
C2
350
5E
  3
C3
350
5F
  3
C4
350
60
  3
C5
350
61
  3
C6
350
62
  3
C7
350
63
  3
C8
350
64
  3
C9
350
65
  3
D0
350
66
  3
D1
350
67
  3
D2
350
68
  0
DICTIONARY
  5
17E
102
{ACAD_REACTORS
330
C
102
}
330
C
100
AcDbDictionary
281
     1
  0
XRECORD
  5
44B
102
{ACAD_REACTORS
330
C
102
}
330
C
100
AcDbXrecord
280
     1
  1
DWGPROPS COOKIE
  2

  3

  4

  6

  7

  8
12016016
  9

300
=
301
=
302
=
303
=
304
=
305
=
306
=
307
=
308
=
309
=
 40
0.0
 41
2458236.370031192
 42
2458241.370496933
  1

 90
        0
  0
LAYOUT
  5
1E
102
{ACAD_REACTORS
330
1A
102
}
330
1A
100
AcDbPlotSettings
  1

  2
none_device
  4

  6

 40
0.0
 41
0.0
 42
0.0
 43
0.0
 44
0.0
 45
0.0
 46
0.0
 47
0.0
 48
0.0
 49
0.0
140
0.0
141
0.0
142
1.0
143
1.0
 70
   688
 72
     1
 73
     0
 74
     5
  7

 75
    16
147
1.0
148
0.0
149
0.0
100
AcDbLayout
  1
Layout1
 70
     1
 71
     1
 10
0.0
 20
0.0
 11
420.0
 21
297.0
 12
0.0
 22
0.0
 32
0.0
 14
1.000000000000000E+20
 24
1.000000000000000E+20
 34
1.000000000000000E+20
 15
-1.000000000000000E+20
 25
-1.000000000000000E+20
 35
-1.000000000000000E+20
146
0.0
 13
0.0
 23
0.0
 33
0.0
 16
1.0
 26
0.0
 36
0.0
 17
0.0
 27
1.0
 37
0.0
 76
     0
330
1B
  0
LAYOUT
  5
26
102
{ACAD_REACTORS
330
1A
102
}
330
1A
100
AcDbPlotSettings
  1

  2
none_device
  4

  6

 40
0.0
 41
0.0
 42
0.0
 43
0.0
 44
0.0
 45
0.0
 46
0.0
 47
0.0
 48
0.0
 49
0.0
140
0.0
141
0.0
142
1.0
143
1.0
 70
   688
 72
     1
 73
     0
 74
     5
  7

 75
    16
147
1.0
148
0.0
149
0.0
100
AcDbLayout
  1
Layout2
 70
     1
 71
     2
 10
0.0
 20
0.0
 11
0.0
 21
0.0
 12
0.0
 22
0.0
 32
0.0
 14
0.0
 24
0.0
 34
0.0
 15
0.0
 25
0.0
 35
0.0
146
0.0
 13
0.0
 23
0.0
 33
0.0
 16
1.0
 26
0.0
 36
0.0
 17
0.0
 27
1.0
 37
0.0
 76
     0
330
23
  0
LAYOUT
  5
22
102
{ACAD_REACTORS
330
1A
102
}
330
1A
100
AcDbPlotSettings
  1

  2
none_device
  4
ANSI_A_(11.00_x_8.50_Inches)
  6

 40
6.35
 41
19.05
 42
6.35000508
 43
19.05000254
 44
279.4
 45
215.9
 46
118.2346955137777
 47
90.0266438071882
 48
0.0
 49
0.0
140
0.0
141
0.0
142
0.0750837051803466
143
1.0
 70
  1696
 72
     0
 73
     0
 74
     0
  7

 75
     0
147
0.0235690232323232
148
0.0
149
0.0
100
AcDbLayout
  1
Model
 70
     1
 71
     0
 10
0.0
 20
0.0
 11
420.0
 21
297.0
 12
0.0
 22
0.0
 32
0.0
 14
1.000000000000000E+20
 24
1.000000000000000E+20
 34
1.000000000000000E+20
 15
-1.000000000000000E+20
 25
-1.000000000000000E+20
 35
-1.000000000000000E+20
146
0.0
 13
0.0
 23
0.0
 33
0.0
 16
1.0
 26
0.0
 36
0.0
 17
0.0
 27
1.0
 37
0.0
 76
     0
330
1F
331
29
  0
MLINESTYLE
  5
18
102
{ACAD_REACTORS
330
17
102
}
330
17
100
AcDbMlineStyle
  2
Standard
 70
     0
  3

 62
   256
 51
90.0
 52
90.0
 71
     2
 49
0.5
 62
   256
  6
BYLAYER
 49
-0.5
 62
   256
  6
BYLAYER
  0
ACDBPLACEHOLDER
  5
F
102
{ACAD_REACTORS
330
E
102
}
330
E
  0
SCALE
  5
48
102
{ACAD_REACTORS
330
47
102
}
330
47
100
AcDbScale
 70
     0
300
1:1
140
1.0
141
1.0
290
     1
  0
SCALE
  5
49
102
{ACAD_REACTORS
330
47
102
}
330
47
100
AcDbScale
 70
     0
300
1:2
140
1.0
141
2.0
290
     0
  0
SCALE
  5
4A
102
{ACAD_REACTORS
330
47
102
}
330
47
100
AcDbScale
 70
     0
300
1:4
140
1.0
141
4.0
290
     0
  0
SCALE
  5
4B
102
{ACAD_REACTORS
330
47
102
}
330
47
100
AcDbScale
 70
     0
300
1:5
140
1.0
141
5.0
290
     0
  0
SCALE
  5
4C
102
{ACAD_REACTORS
330
47
102
}
330
47
100
AcDbScale
 70
     0
300
1:8
140
1.0
141
8.0
290
     0
  0
SCALE
  5
4D
102
{ACAD_REACTORS
330
47
102
}
330
47
100
AcDbScale
 70
     0
300
1:10
140
1.0
141
10.0
290
     0
  0
SCALE
  5
4E
102
{ACAD_REACTORS
330
47
102
}
330
47
100
AcDbScale
 70
     0
300
1:16
140
1.0
141
16.0
290
     0
  0
SCALE
  5
4F
102
{ACAD_REACTORS
330
47
102
}
330
47
100
AcDbScale
 70
     0
300
1:20
140
1.0
141
20.0
290
     0
  0
SCALE
  5
50
102
{ACAD_REACTORS
330
47
102
}
330
47
100
AcDbScale
 70
     0
300
1:30
140
1.0
141
30.0
290
     0
  0
SCALE
  5
51
102
{ACAD_REACTORS
330
47
102
}
330
47
100
AcDbScale
 70
     0
300
1:40
140
1.0
141
40.0
290
     0
  0
SCALE
  5
52
102
{ACAD_REACTORS
330
47
102
}
330
47
100
AcDbScale
 70
     0
300
1:50
140
1.0
141
50.0
290
     0
  0
SCALE
  5
53
102
{ACAD_REACTORS
330
47
102
}
330
47
100
AcDbScale
 70
     0
300
1:100
140
1.0
141
100.0
290
     0
  0
SCALE
  5
54
102
{ACAD_REACTORS
330
47
102
}
330
47
100
AcDbScale
 70
     0
300
2:1
140
2.0
141
1.0
290
     0
  0
SCALE
  5
55
102
{ACAD_REACTORS
330
47
102
}
330
47
100
AcDbScale
 70
     0
300
4:1
140
4.0
141
1.0
290
     0
  0
SCALE
  5
56
102
{ACAD_REACTORS
330
47
102
}
330
47
100
AcDbScale
 70
     0
300
8:1
140
8.0
141
1.0
290
     0
  0
SCALE
  5
57
102
{ACAD_REACTORS
330
47
102
}
330
47
100
AcDbScale
 70
     0
300
10:1
140
10.0
141
1.0
290
     0
  0
SCALE
  5
58
102
{ACAD_REACTORS
330
47
102
}
330
47
100
AcDbScale
 70
     0
300
100:1
140
100.0
141
1.0
290
     0
  0
SCALE
  5
59
102
{ACAD_REACTORS
330
47
102
}
330
47
100
AcDbScale
 70
     0
300
1/128" = 1'-0"
140
0.0078125
141
12.0
290
     0
  0
SCALE
  5
5A
102
{ACAD_REACTORS
330
47
102
}
330
47
100
AcDbScale
 70
     0
300
1/64" = 1'-0"
140
0.015625
141
12.0
290
     0
  0
SCALE
  5
5B
102
{ACAD_REACTORS
330
47
102
}
330
47
100
AcDbScale
 70
     0
300
1/32" = 1'-0"
140
0.03125
141
12.0
290
     0
  0
SCALE
  5
5C
102
{ACAD_REACTORS
330
47
102
}
330
47
100
AcDbScale
 70
     0
300
1/16" = 1'-0"
140
0.0625
141
12.0
290
     0
  0
SCALE
  5
5D
102
{ACAD_REACTORS
330
47
102
}
330
47
100
AcDbScale
 70
     0
300
3/32" = 1'-0"
140
0.09375
141
12.0
290
     0
  0
SCALE
  5
5E
102
{ACAD_REACTORS
330
47
102
}
330
47
100
AcDbScale
 70
     0
300
1/8" = 1'-0"
140
0.125
141
12.0
290
     0
  0
SCALE
  5
5F
102
{ACAD_REACTORS
330
47
102
}
330
47
100
AcDbScale
 70
     0
300
3/16" = 1'-0"
140
0.1875
141
12.0
290
     0
  0
SCALE
  5
60
102
{ACAD_REACTORS
330
47
102
}
330
47
100
AcDbScale
 70
     0
300
1/4" = 1'-0"
140
0.25
141
12.0
290
     0
  0
SCALE
  5
61
102
{ACAD_REACTORS
330
47
102
}
330
47
100
AcDbScale
 70
     0
300
3/8" = 1'-0"
140
0.375
141
12.0
290
     0
  0
SCALE
  5
62
102
{ACAD_REACTORS
330
47
102
}
330
47
100
AcDbScale
 70
     0
300
1/2" = 1'-0"
140
0.5
141
12.0
290
     0
  0
SCALE
  5
63
102
{ACAD_REACTORS
330
47
102
}
330
47
100
AcDbScale
 70
     0
300
3/4" = 1'-0"
140
0.75
141
12.0
290
     0
  0
SCALE
  5
64
102
{ACAD_REACTORS
330
47
102
}
330
47
100
AcDbScale
 70
     0
300
1" = 1'-0"
140
1.0
141
12.0
290
     0
  0
SCALE
  5
65
102
{ACAD_REACTORS
330
47
102
}
330
47
100
AcDbScale
 70
     0
300
1-1/2" = 1'-0"
140
1.5
141
12.0
290
     0
  0
SCALE
  5
66
102
{ACAD_REACTORS
330
47
102
}
330
47
100
AcDbScale
 70
     0
300
3" = 1'-0"
140
3.0
141
12.0
290
     0
  0
SCALE
  5
67
102
{ACAD_REACTORS
330
47
102
}
330
47
100
AcDbScale
 70
     0
300
6" = 1'-0"
140
6.0
141
12.0
290
     0
  0
SCALE
  5
68
102
{ACAD_REACTORS
330
47
102
}
330
47
100
AcDbScale
 70
     0
300
1'-0" = 1'-0"
140
12.0
141
12.0
290
     0
  0
ENDSEC
  0
EOF
