  0
SECTION
  2
HEADER
  9
$ACADVER
  1
AC1015
  9
$ACADMAINTVER
 70
     6
  9
$DWGCODEPAGE
  3
ANSI_949
  9
$INSBASE
 10
0.0
 20
0.0
 30
0.0
  9
$EXTMIN
 10
-51.20277618826907
 20
-49.71142936356762
 30
0.0
  9
$EXTMAX
 10
98.2831722083766
 20
43.38055141807179
 30
0.0
  9
$LIMMIN
 10
0.0
 20
0.0
  9
$LIMMAX
 10
420.0
 20
297.0
  9
$ORTHOMODE
 70
     0
  9
$REGENMODE
 70
     1
  9
$FILLMODE
 70
     1
  9
$QTEXTMODE
 70
     0
  9
$MIRRTEXT
 70
     1
  9
$LTSCALE
 40
1.0
  9
$ATTMODE
 70
     1
  9
$TEXTSIZE
 40
3.5
  9
$TRACEWID
 40
1.0
  9
$TEXTSTYLE
  7
Standard
  9
$CLAYER
  8
0
  9
$CELTYPE
  6
ByLayer
  9
$CECOLOR
 62
   256
  9
$CELTSCALE
 40
1.0
  9
$DISPSILH
 70
     0
  9
$DIMSCALE
 40
1.0
  9
$DIMASZ
 40
3.302
  9
$DIMEXO
 40
1.0
  9
$DIMDLI
 40
3.75
  9
$DIMRND
 40
0.0
  9
$DIMDLE
 40
0.0
  9
$DIMEXE
 40
1.0
  9
$DIMTP
 40
0.0
  9
$DIMTM
 40
0.0
  9
$DIMTXT
 40
3.5
  9
$DIMCEN
 40
2.5
  9
$DIMTSZ
 40
0.0
  9
$DIMTOL
 70
     0
  9
$DIMLIM
 70
     0
  9
$DIMTIH
 70
     1
  9
$DIMTOH
 70
     1
  9
$DIMSE1
 70
     0
  9
$DIMSE2
 70
     0
  9
$DIMTAD
 70
     1
  9
$DIMZIN
 70
     0
  9
$DIMBLK
  1

  9
$DIMASO
 70
     1
  9
$DIMSHO
 70
     1
  9
$DIMPOST
  1

  9
$DIMAPOST
  1

  9
$DIMALT
 70
     0
  9
$DIMALTD
 70
     3
  9
$DIMALTF
 40
0.0393700787401575
  9
$DIMLFAC
 40
1.0
  9
$DIMTOFL
 70
     1
  9
$DIMTVP
 40
0.0
  9
$DIMTIX
 70
     0
  9
$DIMSOXD
 70
     0
  9
$DIMSAH
 70
     0
  9
$DIMBLK1
  1

  9
$DIMBLK2
  1

  9
$DIMSTYLE
  2
ISO-25
  9
$DIMCLRD
 70
     0
  9
$DIMCLRE
 70
     0
  9
$DIMCLRT
 70
     0
  9
$DIMTFAC
 40
1.0
  9
$DIMGAP
 40
1.524
  9
$DIMJUST
 70
     0
  9
$DIMSD1
 70
     0
  9
$DIMSD2
 70
     0
  9
$DIMTOLJ
 70
     0
  9
$DIMTZIN
 70
     0
  9
$DIMALTZ
 70
     0
  9
$DIMALTTZ
 70
     0
  9
$DIMUPT
 70
     0
  9
$DIMDEC
 70
     2
  9
$DIMTDEC
 70
     2
  9
$DIMALTU
 70
     2
  9
$DIMALTTD
 70
     3
  9
$DIMTXSTY
  7
Standard
  9
$DIMAUNIT
 70
     0
  9
$DIMADEC
 70
     2
  9
$DIMALTRND
 40
0.0
  9
$DIMAZIN
 70
     0
  9
$DIMDSEP
 70
    44
  9
$DIMATFIT
 70
     3
  9
$DIMFRAC
 70
     0
  9
$DIMLDRBLK
  1

  9
$DIMLUNIT
 70
     2
  9
$DIMLWD
 70
    -2
  9
$DIMLWE
 70
    -2
  9
$DIMTMOVE
 70
     0
  9
$LUNITS
 70
     2
  9
$LUPREC
 70
     2
  9
$SKETCHINC
 40
1.0
  9
$FILLETRAD
 40
10.0
  9
$AUNITS
 70
     0
  9
$AUPREC
 70
     2
  9
$MENU
  1
.
  9
$ELEVATION
 40
0.0
  9
$PELEVATION
 40
0.0
  9
$THICKNESS
 40
0.0
  9
$LIMCHECK
 70
     0
  9
$CHAMFERA
 40
0.0
  9
$CHAMFERB
 40
0.0
  9
$CHAMFERC
 40
0.0
  9
$CHAMFERD
 40
0.0
  9
$SKPOLY
 70
     0
  9
$TDCREATE
 40
2458236.744844144
  9
$TDUCREATE
 40
2458236.369844144
  9
$TDUPDATE
 40
2459683.650611239
  9
$TDUUPDATE
 40
2459683.275611239
  9
$TDINDWG
 40
0.0111249074
  9
$TDUSRTIMER
 40
0.0078144792
  9
$USRTIMER
 70
     1
  9
$ANGBASE
 50
0.0
  9
$ANGDIR
 70
     0
  9
$PDMODE
 70
     0
  9
$PDSIZE
 40
-1.0
  9
$PLINEWID
 40
0.0
  9
$SPLFRAME
 70
     0
  9
$SPLINETYPE
 70
     6
  9
$SPLINESEGS
 70
     8
  9
$HANDSEED
  5
218
  9
$SURFTAB1
 70
     6
  9
$SURFTAB2
 70
     6
  9
$SURFTYPE
 70
     6
  9
$SURFU
 70
     6
  9
$SURFV
 70
     6
  9
$UCSBASE
  2

  9
$UCSNAME
  2

  9
$UCSORG
 10
0.0
 20
0.0
 30
0.0
  9
$UCSXDIR
 10
1.0
 20
0.0
 30
0.0
  9
$UCSYDIR
 10
0.0
 20
1.0
 30
0.0
  9
$UCSORTHOREF
  2

  9
$UCSORTHOVIEW
 70
     0
  9
$UCSORGTOP
 10
0.0
 20
0.0
 30
0.0
  9
$UCSORGBOTTOM
 10
0.0
 20
0.0
 30
0.0
  9
$UCSORGLEFT
 10
0.0
 20
0.0
 30
0.0
  9
$UCSORGRIGHT
 10
0.0
 20
0.0
 30
0.0
  9
$UCSORGFRONT
 10
0.0
 20
0.0
 30
0.0
  9
$UCSORGBACK
 10
0.0
 20
0.0
 30
0.0
  9
$PUCSBASE
  2

  9
$PUCSNAME
  2

  9
$PUCSORG
 10
0.0
 20
0.0
 30
0.0
  9
$PUCSXDIR
 10
1.0
 20
0.0
 30
0.0
  9
$PUCSYDIR
 10
0.0
 20
1.0
 30
0.0
  9
$PUCSORTHOREF
  2

  9
$PUCSORTHOVIEW
 70
     0
  9
$PUCSORGTOP
 10
0.0
 20
0.0
 30
0.0
  9
$PUCSORGBOTTOM
 10
0.0
 20
0.0
 30
0.0
  9
$PUCSORGLEFT
 10
0.0
 20
0.0
 30
0.0
  9
$PUCSORGRIGHT
 10
0.0
 20
0.0
 30
0.0
  9
$PUCSORGFRONT
 10
0.0
 20
0.0
 30
0.0
  9
$PUCSORGBACK
 10
0.0
 20
0.0
 30
0.0
  9
$USERI1
 70
     0
  9
$USERI2
 70
     0
  9
$USERI3
 70
     0
  9
$USERI4
 70
     0
  9
$USERI5
 70
     0
  9
$USERR1
 40
0.0
  9
$USERR2
 40
0.0
  9
$USERR3
 40
0.0
  9
$USERR4
 40
0.0
  9
$USERR5
 40
0.0
  9
$WORLDVIEW
 70
     1
  9
$SHADEDGE
 70
     3
  9
$SHADEDIF
 70
    70
  9
$TILEMODE
 70
     1
  9
$MAXACTVP
 70
    64
  9
$PINSBASE
 10
0.0
 20
0.0
 30
0.0
  9
$PLIMCHECK
 70
     0
  9
$PEXTMIN
 10
1.000000000000000E+20
 20
1.000000000000000E+20
 30
1.000000000000000E+20
  9
$PEXTMAX
 10
-1.000000000000000E+20
 20
-1.000000000000000E+20
 30
-1.000000000000000E+20
  9
$PLIMMIN
 10
0.0
 20
0.0
  9
$PLIMMAX
 10
0.0
 20
0.0
  9
$UNITMODE
 70
     0
  9
$VISRETAIN
 70
     1
  9
$PLINEGEN
 70
     0
  9
$PSLTSCALE
 70
     1
  9
$TREEDEPTH
 70
  3020
  9
$CMLSTYLE
  2
Standard
  9
$CMLJUST
 70
     0
  9
$CMLSCALE
 40
20.0
  9
$PROXYGRAPHICS
 70
     1
  9
$MEASUREMENT
 70
     1
  9
$CELWEIGHT
370
    -1
  9
$ENDCAPS
280
     0
  9
$JOINSTYLE
280
     0
  9
$LWDISPLAY
290
     1
  9
$INSUNITS
 70
     4
  9
$HYPERLINKBASE
  1

  9
$STYLESHEET
  1

  9
$XEDIT
290
     1
  9
$CEPSNTYPE
380
     0
  9
$PSTYLEMODE
290
     1
  9
$FINGERPRINTGUID
  2
{881A3811-DB26-49DA-A60C-075AB407CE45}
  9
$VERSIONGUID
  2
{FAEB1C32-E019-11D5-929B-00C0DF256EC4}
  9
$EXTNAMES
290
     1
  9
$PSVPSCALE
 40
0.0
  9
$OLESTARTUP
290
     0
  0
ENDSEC
  0
SECTION
  2
CLASSES
  0
CLASS
  1
ACDBDICTIONARYWDFLT
  2
AcDbDictionaryWithDefault
  3
ObjectDBX Classes
 90
        0
280
     0
281
     0
  0
CLASS
  1
VISUALSTYLE
  2
AcDbVisualStyle
  3
ObjectDBX Classes
 90
     4095
280
     0
281
     0
  0
CLASS
  1
MATERIAL
  2
AcDbMaterial
  3
ObjectDBX Classes
 90
     1153
280
     0
281
     0
  0
CLASS
  1
SCALE
  2
AcDbScale
  3
ObjectDBX Classes
 90
     1153
280
     0
281
     0
  0
CLASS
  1
SUN
  2
AcDbSun
  3
SCENEOE
 90
     1153
280
     0
281
     0
  0
CLASS
  1
ACDBPLACEHOLDER
  2
AcDbPlaceHolder
  3
ObjectDBX Classes
 90
        0
280
     0
281
     0
  0
CLASS
  1
LAYOUT
  2
AcDbLayout
  3
ObjectDBX Classes
 90
        0
280
     0
281
     0
  0
CLASS
  1
TABLESTYLE
  2
AcDbTableStyle
  3
ObjectDBX Classes
 90
     4095
280
     0
281
     0
  0
CLASS
  1
MLEADERSTYLE
  2
AcDbMLeaderStyle
  3
ACDB_MLEADERSTYLE_CLASS
 90
     4095
280
     0
281
     0
  0
CLASS
  1
RASTERVARIABLES
  2
AcDbRasterVariables
  3
ISM
 90
        0
280
     0
281
     0
  0
CLASS
  1
DIMASSOC
  2
AcDbDimAssoc
  3
"AcDbDimAssoc|Product Desc:     AcDim ARX App For Dimension|Company:          Autodesk, Inc.|WEB Address:      www.autodesk.com"
 90
        0
280
     0
281
     0
  0
CLASS
  1
DICTIONARYVAR
  2
AcDbDictionaryVar
  3
ObjectDBX Classes
 90
        0
280
     0
281
     0
  0
CLASS
  1
BREAKDATA
  2
AcDbBreakData
  3
ObjectDBX Classes
 90
     1024
280
     0
281
     0
  0
CLASS
  1
SORTENTSTABLE
  2
AcDbSortentsTable
  3
ObjectDBX Classes
 90
        0
280
     0
281
     0
  0
ENDSEC
  0
SECTION
  2
TABLES
  0
TABLE
  2
VPORT
  5
8
330
0
100
AcDbSymbolTable
 70
     1
  0
VPORT
  5
29
330
8
100
AcDbSymbolTableRecord
100
AcDbViewportTableRecord
  2
*Active
 70
     0
 10
0.0
 20
0.0
 11
1.0
 21
1.0
 12
26.99393779171781
 22
21.65154488723684
 13
0.0
 23
0.0
 14
10.0
 24
10.0
 15
10.0
 25
10.0
 16
0.0
 26
0.0
 36
1.0
 17
0.0
 27
0.0
 37
0.0
 40
122.4558080621832
 41
2.073569482288828
 42
50.0
 43
0.0
 44
0.0
 50
0.0
 51
0.0
 71
    16
 72
  2000
 73
     1
 74
     3
 75
     0
 76
     0
 77
     0
 78
     0
281
     0
 65
     1
110
0.0
120
0.0
130
0.0
111
1.0
121
0.0
131
0.0
112
0.0
122
1.0
132
0.0
 79
     0
146
0.0
  0
ENDTAB
  0
TABLE
  2
LTYPE
  5
5
330
0
100
AcDbSymbolTable
 70
     6
  0
LTYPE
  5
14
330
5
100
AcDbSymbolTableRecord
100
AcDbLinetypeTableRecord
  2
ByBlock
 70
     0
  3

 72
    65
 73
     0
 40
0.0
  0
LTYPE
  5
15
330
5
100
AcDbSymbolTableRecord
100
AcDbLinetypeTableRecord
  2
ByLayer
 70
     0
  3

 72
    65
 73
     0
 40
0.0
  0
LTYPE
  5
16
330
5
100
AcDbSymbolTableRecord
100
AcDbLinetypeTableRecord
  2
Continuous
 70
     0
  3
Solid line
 72
    65
 73
     0
 40
0.0
  0
LTYPE
  5
6A
330
5
100
AcDbSymbolTableRecord
100
AcDbLinetypeTableRecord
  2
HIDDEN
 70
     0
  3
Hidden __ __ __ __ __ __ __ __ __ __ __ __ __ __
 72
    65
 73
     2
 40
1.905
 49
1.27
 74
     0
 49
-0.635
 74
     0
  0
LTYPE
  5
6B
330
5
100
AcDbSymbolTableRecord
100
AcDbLinetypeTableRecord
  2
PHANTOM
 70
     0
  3
Phantom ______  __  __  ______  __  __  ______
 72
    65
 73
     6
 40
12.7
 49
6.35
 74
     0
 49
-1.27
 74
     0
 49
1.27
 74
     0
 49
-1.27
 74
     0
 49
1.27
 74
     0
 49
-1.27
 74
     0
  0
LTYPE
  5
6C
330
5
100
AcDbSymbolTableRecord
100
AcDbLinetypeTableRecord
  2
CENTER
 70
     0
  3
Center ____ _ ____ _ ____ _ ____ _ ____ _ ____
 72
    65
 73
     4
 40
10.16
 49
6.35
 74
     0
 49
-1.27
 74
     0
 49
1.27
 74
     0
 49
-1.27
 74
     0
  0
LTYPE
  5
6D
330
5
100
AcDbSymbolTableRecord
100
AcDbLinetypeTableRecord
  2
CENTERX2
 70
     0
  3
Center (2x) ________  __  ________  __  _____
 72
    65
 73
     4
 40
20.32
 49
12.7
 74
     0
 49
-2.54
 74
     0
 49
2.54
 74
     0
 49
-2.54
 74
     0
  0
LTYPE
  5
6E
330
5
100
AcDbSymbolTableRecord
100
AcDbLinetypeTableRecord
  2
DOT2
 70
     0
  3
Dot (.5x) ........................................
 72
    65
 73
     2
 40
0.635
 49
0.0
 74
     0
 49
-0.635
 74
     0
  0
ENDTAB
  0
TABLE
  2
LAYER
  5
2
330
0
100
AcDbSymbolTable
 70
    17
  0
LAYER
  5
10
330
2
100
AcDbSymbolTableRecord
100
AcDbLayerTableRecord
  2
0
 70
     0
 62
     7
  6
Continuous
370
    -3
390
F
  0
LAYER
  5
6F
330
2
100
AcDbSymbolTableRecord
100
AcDbLayerTableRecord
  2
FORMAT
 70
     0
 62
     2
  6
Continuous
370
    -3
390
F
  0
LAYER
  5
70
330
2
100
AcDbSymbolTableRecord
100
AcDbLayerTableRecord
  2
외형선
 70
     0
 62
   100
  6
Continuous
370
    30
390
F
  0
LAYER
  5
71
330
2
100
AcDbSymbolTableRecord
100
AcDbLayerTableRecord
  2
숨은선
 70
     0
 62
     2
  6
HIDDEN
370
    15
390
F
  0
LAYER
  5
72
330
2
100
AcDbSymbolTableRecord
100
AcDbLayerTableRecord
  2
중심선
 70
     0
 62
     1
  6
CENTERX2
370
    -3
390
F
  0
LAYER
  5
73
330
2
100
AcDbSymbolTableRecord
100
AcDbLayerTableRecord
  2
파단선
 70
     0
 62
     4
  6
Continuous
370
    -3
390
F
  0
LAYER
  5
74
330
2
100
AcDbSymbolTableRecord
100
AcDbLayerTableRecord
  2
해칭선
 70
     0
 62
     4
  6
Continuous
370
    -3
390
F
  0
LAYER
  5
75
330
2
100
AcDbSymbolTableRecord
100
AcDbLayerTableRecord
  2
가는실선
 70
     0
 62
     4
  6
Continuous
370
    -3
390
F
  0
LAYER
  5
76
330
2
100
AcDbSymbolTableRecord
100
AcDbLayerTableRecord
  2
치수_보조선
 70
     0
 62
     4
  6
Continuous
370
    -3
390
F
  0
LAYER
  5
77
330
2
100
AcDbSymbolTableRecord
100
AcDbLayerTableRecord
  2
치수문자_일반주서
 70
     0
 62
     7
  6
Continuous
370
    15
390
F
  0
LAYER
  5
78
330
2
100
AcDbSymbolTableRecord
100
AcDbLayerTableRecord
  2
개별주서
 70
     0
 62
   100
  6
Continuous
370
    30
390
F
  0
LAYER
  5
79
330
2
100
AcDbSymbolTableRecord
100
AcDbLayerTableRecord
  2
중간선
 70
     0
 62
     2
  6
Continuous
370
    15
390
F
  0
LAYER
  5
7A
330
2
100
AcDbSymbolTableRecord
100
AcDbLayerTableRecord
  2
윤곽선
 70
     0
 62
     3
  6
Continuous
370
    40
390
F
  0
LAYER
  5
7B
330
2
100
AcDbSymbolTableRecord
100
AcDbLayerTableRecord
  2
중심마크
 70
     0
 62
   100
  6
Continuous
370
    30
390
F
  0
LAYER
  5
7C
330
2
100
AcDbSymbolTableRecord
100
AcDbLayerTableRecord
  2
가상선
 70
     0
 62
     4
  6
PHANTOM
370
    -3
390
F
  0
LAYER
  5
7D
330
2
100
AcDbSymbolTableRecord
100
AcDbLayerTableRecord
  2
특수지정선
 70
     0
 62
     5
  6
CENTERX2
370
    60
390
F
  0
LAYER
  5
16A
330
2
100
AcDbSymbolTableRecord
100
AcDbLayerTableRecord
  2
Defpoints
 70
     0
 62
     7
  6
Continuous
290
     0
370
    -3
390
F
  0
ENDTAB
  0
TABLE
  2
STYLE
  5
3
330
0
100
AcDbSymbolTable
 70
     2
  0
STYLE
  5
11
330
3
100
AcDbSymbolTableRecord
100
AcDbTextStyleTableRecord
  2
Standard
 70
     0
 40
0.0
 41
1.0
 50
0.0
 71
     0
 42
3.5
  3
txt
  4

  0
STYLE
  5
93
330
3
100
AcDbSymbolTableRecord
100
AcDbTextStyleTableRecord
  2
SLDTEXTSTYLE0
 70
     0
 40
0.0
 41
0.75
 50
0.0
 71
     0
 42
3.5
  3
TXT
  4

  0
ENDTAB
  0
TABLE
  2
VIEW
  5
6
330
0
100
AcDbSymbolTable
 70
     0
  0
ENDTAB
  0
TABLE
  2
UCS
  5
7
330
0
100
AcDbSymbolTable
 70
     0
  0
ENDTAB
  0
TABLE
  2
APPID
  5
9
330
0
100
AcDbSymbolTable
 70
     7
  0
APPID
  5
12
330
9
100
AcDbSymbolTableRecord
100
AcDbRegAppTableRecord
  2
ACAD
 70
     0
  0
APPID
  5
169
330
9
100
AcDbSymbolTableRecord
100
AcDbRegAppTableRecord
  2
ACAD_DSTYLE_DIMRADIAL_EXTENSION
 70
     0
  0
APPID
  5
17C
330
9
100
AcDbSymbolTableRecord
100
AcDbRegAppTableRecord
  2
PE_DIMMEASUREMENT
 70
     0
  0
APPID
  5
1DA
330
9
100
AcDbSymbolTableRecord
100
AcDbRegAppTableRecord
  2
FX_DIMP_FAV_VERSION
 70
     0
  0
APPID
  5
1DB
330
9
100
AcDbSymbolTableRecord
100
AcDbRegAppTableRecord
  2
PE_URL
 70
     0
  0
APPID
  5
1E3
330
9
100
AcDbSymbolTableRecord
100
AcDbRegAppTableRecord
  2
ENABLE_CUSTOM_SPLIT
 70
     0
  0
APPID
  5
206
330
9
100
AcDbSymbolTableRecord
100
AcDbRegAppTableRecord
  2
FX_DIMP_RECENT_VERSION
 70
     0
  0
ENDTAB
  0
TABLE
  2
DIMSTYLE
  5
A
330
0
100
AcDbSymbolTable
 70
     4
100
AcDbDimStyleTable
  0
DIMSTYLE
105
27
102
{ACAD_REACTORS
330
1F8
102
}
330
A
100
AcDbSymbolTableRecord
100
AcDbDimStyleTableRecord
  2
ISO-25
 70
     0
 41
2.5
 42
0.625
 43
3.75
 44
1.25
 73
     0
 74
     0
 77
     1
 78
     8
140
2.5
141
2.5
143
0.03937007874016
147
0.625
171
     3
172
     1
178
     0
271
     2
272
     2
274
     3
278
    44
283
     0
284
     8
340
11
  0
DIMSTYLE
105
F2
102
{ACAD_REACTORS
330
F1
102
}
330
A
100
AcDbSymbolTableRecord
100
AcDbDimStyleTableRecord
  2
SLDDIMSTYLE0
 70
     0
 41
3.302
 44
0.0
 45
0.000000001
 73
     0
 74
     0
 77
     1
 78
    12
 79
     3
140
3.5
143
0.0393700787401575
147
0.875
148
0.000000001
170
     1
172
     1
173
     1
178
     0
271
     2
272
     2
276
     2
284
    12
289
     0
340
93
  0
DIMSTYLE
105
107
102
{ACAD_REACTORS
330
106
330
11A
330
16B
102
}
330
A
100
AcDbSymbolTableRecord
100
AcDbDimStyleTableRecord
  2
SLDDIMSTYLE1
 70
     0
 41
3.302
 44
0.0
 45
0.000000001
 73
     0
 74
     0
 77
     1
 78
     4
 79
     1
140
3.5
143
0.0393700787401575
147
0.875
148
0.000000001
170
     1
173
     1
178
     0
271
     2
272
     2
276
     2
284
    12
340
93
  0
DIMSTYLE
105
12E
330
A
100
AcDbSymbolTableRecord
100
AcDbDimStyleTableRecord
  2
SLDDIMSTYLE2
 70
     0
 41
3.302
 44
0.0
 45
0.000000001
 73
     0
 74
     0
 77
     1
 78
     8
 79
     2
140
3.5
143
0.0393700787401575
147
0.875
148
0.000000001
170
     1
172
     1
173
     1
178
     0
271
     2
272
     2
276
     2
284
    12
289
     0
340
93
341
12F
343
12F
344
12F
  0
ENDTAB
  0
TABLE
  2
BLOCK_RECORD
  5
1
330
0
100
AcDbSymbolTable
 70
    15
  0
BLOCK_RECORD
  5
1F
102
{ACAD_XDICTIONARY
360
1DC
102
}
330
1
100
AcDbSymbolTableRecord
100
AcDbBlockTableRecord
  2
*Model_Space
340
22
  0
BLOCK_RECORD
  5
1B
330
1
100
AcDbSymbolTableRecord
100
AcDbBlockTableRecord
  2
*Paper_Space
340
1E
  0
BLOCK_RECORD
  5
23
330
1
100
AcDbSymbolTableRecord
100
AcDbBlockTableRecord
  2
*Paper_Space0
340
26
  0
BLOCK_RECORD
  5
7E
330
1
100
AcDbSymbolTableRecord
100
AcDbBlockTableRecord
  2
블럭10
340
0
102
{BLKREFS
331
E9
102
}
  0
BLOCK_RECORD
  5
F3
330
1
100
AcDbSymbolTableRecord
100
AcDbBlockTableRecord
  2
_D
340
0
  0
BLOCK_RECORD
  5
108
330
1
100
AcDbSymbolTableRecord
100
AcDbBlockTableRecord
  2
_D_1
340
0
  0
BLOCK_RECORD
  5
11B
330
1
100
AcDbSymbolTableRecord
100
AcDbBlockTableRecord
  2
_D_2
340
0
  0
BLOCK_RECORD
  5
12F
330
1
100
AcDbSymbolTableRecord
100
AcDbBlockTableRecord
  2
_NONE
340
0
  0
BLOCK_RECORD
  5
132
330
1
100
AcDbSymbolTableRecord
100
AcDbBlockTableRecord
  2
_D_3
340
0
  0
BLOCK_RECORD
  5
13E
330
1
100
AcDbSymbolTableRecord
100
AcDbBlockTableRecord
  2
SW_DOWELSYMBOL_0
340
0
102
{BLKREFS
331
144
102
}
  0
BLOCK_RECORD
  5
16E
330
1
100
AcDbSymbolTableRecord
100
AcDbBlockTableRecord
  2
*D8
340
0
  0
BLOCK_RECORD
  5
188
330
1
100
AcDbSymbolTableRecord
100
AcDbBlockTableRecord
  2
*D9
340
0
  0
BLOCK_RECORD
  5
1C1
330
1
100
AcDbSymbolTableRecord
100
AcDbBlockTableRecord
  2
*D10
340
0
  0
BLOCK_RECORD
  5
1CF
330
1
100
AcDbSymbolTableRecord
100
AcDbBlockTableRecord
  2
*D11
340
0
  0
BLOCK_RECORD
  5
1E9
330
1
100
AcDbSymbolTableRecord
100
AcDbBlockTableRecord
  2
*D12
340
0
  0
BLOCK_RECORD
  5
1FB
330
1
100
AcDbSymbolTableRecord
100
AcDbBlockTableRecord
  2
*D13
340
0
  0
BLOCK_RECORD
  5
20B
330
1
100
AcDbSymbolTableRecord
100
AcDbBlockTableRecord
  2
*D14
340
0
  0
ENDTAB
  0
ENDSEC
  0
SECTION
  2
BLOCKS
  0
BLOCK
  5
20
330
1F
100
AcDbEntity
  8
0
100
AcDbBlockBegin
  2
*Model_Space
 70
     0
 10
0.0
 20
0.0
 30
0.0
  3
*Model_Space
  1
*Model_Space
  0
ENDBLK
  5
21
330
1F
100
AcDbEntity
  8
0
100
AcDbBlockEnd
  0
BLOCK
  5
1C
330
1B
100
AcDbEntity
 67
     1
  8
0
100
AcDbBlockBegin
  2
*Paper_Space
 70
     0
 10
0.0
 20
0.0
 30
0.0
  3
*Paper_Space
  1
*Paper_Space
  0
ENDBLK
  5
1D
330
1B
100
AcDbEntity
 67
     1
  8
0
100
AcDbBlockEnd
  0
BLOCK
  5
24
330
23
100
AcDbEntity
  8
0
100
AcDbBlockBegin
  2
*Paper_Space0
 70
     0
 10
0.0
 20
0.0
 30
0.0
  3
*Paper_Space0
  1
*Paper_Space0
  0
ENDBLK
  5
25
330
23
100
AcDbEntity
  8
0
100
AcDbBlockEnd
  0
BLOCK
  5
7F
330
7E
100
AcDbEntity
  8
0
100
AcDbBlockBegin
  2
블럭10
 70
     2
 10
0.0
 20
0.0
 30
0.0
  3
블럭10
  1
블럭10
  0
ELLIPSE
  5
81
330
7E
100
AcDbEntity
  8
중심선
100
AcDbEllipse
 10
20.54032771741204
 20
12.0471743016438
 30
0.0
 11
6.600054785286829
 21
-1.261213355974178E-13
 31
0.0
210
0.0
220
0.0
230
1.0
 40
0.636358354079598
 41
0.9219305317359503
 42
6.513795318482858
  0
ELLIPSE
  5
82
330
7E
100
AcDbEntity
  8
중심선
100
AcDbEllipse
 10
20.54032771746488
 20
12.04717430159265
 30
0.0
 11
3.960054785062283
 21
1.540847449632565E-10
 31
0.0
210
0.0
220
0.0
230
1.0
 40
0.3939339440162632
 41
1.131841032648279
 42
5.62031148352944
  0
LINE
  5
83
330
7E
100
AcDbEntity
  8
중심선
100
AcDbLine
 10
2.268634060543552
 20
16.24717430164393
 30
0.0
 11
5.714909304380834
 21
16.24717430164393
 31
0.0
  0
LINE
  5
84
330
7E
100
AcDbEntity
  8
중심선
100
AcDbLine
 10
5.245725140726316
 20
7.84717430164391
 30
0.0
 11
8.692000384563599
 21
7.84717430164391
 31
0.0
  0
LINE
  5
85
330
7E
100
AcDbEntity
  8
중심선
100
AcDbLine
 10
15.74043728645272
 20
16.24717430164393
 30
0.0
 11
8.692000384563599
 21
7.84717430164391
 31
0.0
  0
LINE
  5
86
330
7E
100
AcDbEntity
  8
중심선
100
AcDbLine
 10
0.1404042013395286
 20
13.71084872107135
 30
0.0
 11
3.58671253028996
 21
13.71088815037384
 31
0.0
  0
LINE
  5
87
330
7E
100
AcDbEntity
  8
중심선
100
AcDbLine
 10
2.750260043222114
 20
10.84717430164391
 30
0.0
 11
6.196535287059397
 21
10.84717430164391
 31
0.0
  0
LINE
  5
88
330
7E
100
AcDbEntity
  8
중심선
100
AcDbLine
 10
12.29416204261559
 20
16.24717430164393
 30
0.0
 11
5.245725140726316
 21
7.84717430164391
 31
0.0
  0
LINE
  5
89
330
7E
100
AcDbEntity
  8
중심선
100
AcDbLine
 10
10.72767329541681
 20
16.24717430164393
 30
0.0
 11
6.196535287059397
 21
10.84717430164391
 31
0.0
  0
LINE
  5
8A
330
7E
100
AcDbEntity
  8
중심선
100
AcDbLine
 10
7.28139805157953
 20
16.24717430164393
 30
0.0
 11
2.750260043222114
 21
10.84717430164391
 31
0.0
  0
LINE
  5
8B
330
7E
100
AcDbEntity
  8
중심선
100
AcDbLine
 10
5.714909304380834
 20
16.24717430164393
 30
0.0
 11
3.58671253028996
 21
13.71088815037384
 31
0.0
  0
LINE
  5
8C
330
7E
100
AcDbEntity
  8
중심선
100
AcDbLine
 10
2.268634060543552
 20
16.24717430164393
 30
0.0
 11
0.1404042013395286
 21
13.71084872107135
 31
0.0
  0
LINE
  5
8D
330
7E
100
AcDbEntity
  8
중심선
100
AcDbLine
 10
7.28139805157953
 20
16.24717430164393
 30
0.0
 11
10.72767329541681
 21
16.24717430164393
 31
0.0
  0
LINE
  5
8E
330
7E
100
AcDbEntity
  8
중심선
100
AcDbLine
 10
12.29416204261559
 20
16.24717430164393
 30
0.0
 11
15.74043728645272
 21
16.24717430164393
 31
0.0
  0
LINE
  5
8F
330
7E
100
AcDbEntity
  8
중심선
100
AcDbLine
 10
19.22036997980202
 20
11.08717430171403
 30
0.0
 11
23.66174974927406
 21
11.08717430171406
 31
0.0
  0
LINE
  5
90
330
7E
100
AcDbEntity
  8
중심선
100
AcDbLine
 10
19.22039502424796
 20
13.00717430171391
 30
0.0
 11
19.22036997980202
 21
11.08717430171403
 31
0.0
  0
LINE
  5
91
330
7E
100
AcDbEntity
  8
중심선
100
AcDbLine
 10
19.22039502424796
 20
13.00717430171391
 30
0.0
 11
26.96566020931264
 21
13.00717430171391
 31
0.0
  0
LINE
  5
92
330
7E
100
AcDbEntity
  8
중심선
100
AcDbLine
 10
22.22332737316547
 20
13.45928029700563
 30
0.0
 11
24.52862924686651
 21
15.39360700705356
 31
0.0
  0
ATTDEF
  5
94
330
7E
100
AcDbEntity
  8
FORMAT
 62
     2
100
AcDbText
 10
-11.05102035218446
 20
2.075366912832191
 30
0.0
 40
4.233333333333333
  1
GMG22923[ 6 FLUTE ]
 41
0.75
  7
SLDTEXTSTYLE0
 11
-11.05102035218446
 21
-0.0412997538344756
 31
0.0
100
AcDbAttributeDefinition
  3

  2
AUTOATTR0
 70
     0
 74
     1
  0
ENDBLK
  5
80
330
7E
100
AcDbEntity
  8
0
100
AcDbBlockEnd
  0
BLOCK
  5
F4
330
F3
100
AcDbEntity
  8
0
100
AcDbBlockBegin
  2
_D
 70
     0
 10
0.0
 20
0.0
 30
0.0
  3
_D
  1
_D
  0
LINE
  5
F6
330
F3
100
AcDbEntity
  8
치수문자_일반주서
 62
     0
370
    -2
100
AcDbLine
 10
57.61220785708497
 20
-6.355423940964639
 30
0.0
 11
75.6873334931846
 21
-6.35542394096457
 31
0.0
  0
LINE
  5
F7
330
F3
100
AcDbEntity
  8
치수문자_일반주서
 62
     0
370
    -2
100
AcDbLine
 10
57.88978079365764
 20
6.345166205089894
 30
0.0
 11
75.68733349318455
 21
6.345166205089961
 31
0.0
  0
LINE
  5
F8
330
F3
100
AcDbEntity
  8
치수문자_일반주서
 62
     0
370
    -2
100
AcDbLine
 10
75.68733349318458
 20
-3.053423940964571
 30
0.0
 11
75.68733349318457
 21
3.043166205089961
 31
0.0
  0
SOLID
  5
F9
330
F3
100
AcDbEntity
  8
치수문자_일반주서
 62
     0
100
AcDbTrace
 10
75.13700015985125
 20
-3.053423940964572
 30
0.0
 11
76.23766682651791
 21
-3.053423940964569
 31
0.0
 12
75.6873334931846
 22
-6.35542394096457
 32
0.0
 13
75.6873334931846
 23
-6.35542394096457
 33
0.0
  0
SOLID
  5
FA
330
F3
100
AcDbEntity
  8
치수문자_일반주서
 62
     0
100
AcDbTrace
 10
76.2376668265179
 20
3.043166205089963
 30
0.0
 11
75.13700015985124
 21
3.043166205089959
 31
0.0
 12
75.68733349318455
 22
6.345166205089961
 32
0.0
 13
75.68733349318455
 23
6.345166205089961
 33
0.0
  0
MTEXT
  5
FB
330
F3
100
AcDbEntity
  8
치수문자_일반주서
 62
     0
100
AcDbMText
 10
71.31233349318457
 20
2.664610528859648
 30
0.0
 40
3.5
 41
0.0
 71
     2
 72
     1
  1
\A1;%%c12.7 [1/2]
  7
SLDTEXTSTYLE0
 11
-3.356738833025796E-15
 21
1.0
 31
0.0
 73
     1
 44
1.0
  0
POINT
  5
FC
330
F3
100
AcDbEntity
  8
Defpoints
 62
     0
100
AcDbPoint
 10
57.54970785708497
 20
-6.355423940964639
 30
0.0
  0
POINT
  5
FD
330
F3
100
AcDbEntity
  8
Defpoints
 62
     0
100
AcDbPoint
 10
57.82728079365764
 20
6.345166205089894
 30
0.0
  0
POINT
  5
FE
330
F3
100
AcDbEntity
  8
Defpoints
 62
     0
100
AcDbPoint
 10
75.68733349318455
 20
6.345166205089961
 30
0.0
  0
ENDBLK
  5
F5
330
F3
100
AcDbEntity
  8
0
100
AcDbBlockEnd
  0
BLOCK
  5
109
330
108
100
AcDbEntity
  8
0
100
AcDbBlockBegin
  2
_D_1
 70
     0
 10
0.0
 20
0.0
 30
0.0
  3
_D_1
  1
_D_1
  0
LINE
  5
10B
330
108
100
AcDbEntity
  8
치수문자_일반주서
 62
     0
370
    -2
100
AcDbLine
 10
-40.79999999999914
 20
5.912499999999997
 30
0.0
 11
-40.79999999999914
 21
39.00555141807179
 31
0.0
  0
LINE
  5
10C
330
108
100
AcDbEntity
  8
치수문자_일반주서
 62
     0
370
    -2
100
AcDbLine
 10
60.80000000000086
 20
5.694
 30
0.0
 11
60.80000000000086
 21
39.00555141807179
 31
0.0
  0
LINE
  5
10D
330
108
100
AcDbEntity
  8
치수문자_일반주서
 62
     0
370
    -2
100
AcDbLine
 10
-37.49799999999914
 20
39.00555141807179
 30
0.0
 11
57.49800000000086
 21
39.00555141807179
 31
0.0
  0
SOLID
  5
10E
330
108
100
AcDbEntity
  8
치수문자_일반주서
 62
     0
100
AcDbTrace
 10
-37.49799999999914
 20
39.55588475140512
 30
0.0
 11
-37.49799999999914
 21
38.45521808473845
 31
0.0
 12
-40.79999999999914
 22
39.00555141807179
 32
0.0
 13
-40.79999999999914
 23
39.00555141807179
 33
0.0
  0
SOLID
  5
10F
330
108
100
AcDbEntity
  8
치수문자_일반주서
 62
     0
100
AcDbTrace
 10
57.49800000000086
 20
38.45521808473845
 30
0.0
 11
57.49800000000086
 21
39.55588475140512
 31
0.0
 12
60.80000000000086
 22
39.00555141807179
 32
0.0
 13
60.80000000000086
 23
39.00555141807179
 33
0.0
  0
MTEXT
  5
110
330
108
100
AcDbEntity
  8
치수문자_일반주서
 62
     0
100
AcDbMText
 10
10.00000000000085
 20
43.38055141807179
 30
0.0
 40
3.5
 41
0.0
 71
     2
 72
     1
  1
\A1;101.60 [4]
  7
SLDTEXTSTYLE0
 73
     1
 44
1.0
  0
POINT
  5
111
330
108
100
AcDbEntity
  8
Defpoints
 62
     0
100
AcDbPoint
 10
-40.79999999999914
 20
5.849999999999997
 30
0.0
  0
POINT
  5
112
330
108
100
AcDbEntity
  8
Defpoints
 62
     0
100
AcDbPoint
 10
60.80000000000086
 20
5.6315
 30
0.0
  0
POINT
  5
113
330
108
100
AcDbEntity
  8
Defpoints
 62
     0
100
AcDbPoint
 10
60.80000000000086
 20
39.00555141807179
 30
0.0
  0
ENDBLK
  5
10A
330
108
100
AcDbEntity
  8
0
100
AcDbBlockEnd
  0
BLOCK
  5
11C
330
11B
100
AcDbEntity
  8
0
100
AcDbBlockBegin
  2
_D_2
 70
     0
 10
0.0
 20
0.0
 30
0.0
  3
_D_2
  1
_D_2
  0
LINE
  5
11E
330
11B
100
AcDbEntity
  8
치수문자_일반주서
 62
     0
370
    -2
100
AcDbLine
 10
60.80000000000086
 20
5.6315
 30
0.0
 11
60.80000000000086
 21
20.88737939207129
 31
0.0
  0
LINE
  5
11F
330
11B
100
AcDbEntity
  8
치수문자_일반주서
 62
     0
370
    -2
100
AcDbLine
 10
9.999999999999996
 20
6.235258784142577
 30
0.0
 11
10.0
 21
20.88737939207129
 31
0.0
  0
LINE
  5
120
330
11B
100
AcDbEntity
  8
치수문자_일반주서
 62
     0
370
    -2
100
AcDbLine
 10
57.49800000000086
 20
20.88737939207129
 30
0.0
 11
13.302
 21
20.88737939207129
 31
0.0
  0
SOLID
  5
121
330
11B
100
AcDbEntity
  8
치수문자_일반주서
 62
     0
100
AcDbTrace
 10
57.49800000000086
 20
20.33704605873795
 30
0.0
 11
57.49800000000086
 21
21.43771272540462
 31
0.0
 12
60.80000000000086
 22
20.88737939207129
 32
0.0
 13
60.80000000000086
 23
20.88737939207129
 33
0.0
  0
SOLID
  5
122
330
11B
100
AcDbEntity
  8
치수문자_일반주서
 62
     0
100
AcDbTrace
 10
13.302
 20
21.43771272540462
 30
0.0
 11
13.302
 21
20.33704605873795
 31
0.0
 12
10.0
 22
20.88737939207129
 32
0.0
 13
10.0
 23
20.88737939207129
 33
0.0
  0
MTEXT
  5
123
330
11B
100
AcDbEntity
  8
치수문자_일반주서
 62
     0
100
AcDbMText
 10
34.84120226380338
 20
25.26237939207129
 30
0.0
 40
3.5
 41
0.0
 71
     2
 72
     1
  1
\A1;50.80 [2]
  7
SLDTEXTSTYLE0
 73
     1
 44
1.0
  0
POINT
  5
124
330
11B
100
AcDbEntity
  8
Defpoints
 62
     0
100
AcDbPoint
 10
60.80000000000086
 20
5.569
 30
0.0
  0
POINT
  5
125
330
11B
100
AcDbEntity
  8
Defpoints
 62
     0
100
AcDbPoint
 10
9.999999999999996
 20
6.172758784142577
 30
0.0
  0
POINT
  5
126
330
11B
100
AcDbEntity
  8
Defpoints
 62
     0
100
AcDbPoint
 10
9.999999999999996
 20
20.88737939207129
 30
0.0
  0
ENDBLK
  5
11D
330
11B
100
AcDbEntity
  8
0
100
AcDbBlockEnd
  0
BLOCK
  5
130
330
12F
100
AcDbEntity
  8
0
100
AcDbBlockBegin
  2
_NONE
 70
     0
 10
0.0
 20
0.0
 30
0.0
  3
_NONE
  1
_NONE
  0
ENDBLK
  5
131
330
12F
100
AcDbEntity
  8
0
100
AcDbBlockEnd
  0
BLOCK
  5
133
330
132
100
AcDbEntity
  8
0
100
AcDbBlockBegin
  2
_D_3
 70
     0
 10
0.0
 20
0.0
 30
0.0
  3
_D_3
  1
_D_3
  0
LINE
  5
135
330
132
100
AcDbEntity
  8
치수문자_일반주서
100
AcDbLine
 10
-64.5933676361172
 20
-12.02664086223941
 30
0.0
 11
-64.5933676361172
 21
-12.73757834780391
 31
0.0
  0
LINE
  5
136
330
132
100
AcDbEntity
  8
치수문자_일반주서
100
AcDbLine
 10
-64.5933676361172
 20
-12.73757834780391
 30
0.0
 11
-59.0371176450579
 21
-12.73757834780386
 31
0.0
  0
LINE
  5
137
330
132
100
AcDbEntity
  8
치수문자_일반주서
100
AcDbLine
 10
-59.0371176450579
 20
-12.73757834780386
 30
0.0
 11
-59.0371176450579
 21
-12.02664086223936
 31
0.0
  0
LINE
  5
138
330
132
100
AcDbEntity
  8
치수문자_일반주서
100
AcDbLine
 10
-64.59336763611728
 20
-1.197908000102147
 30
0.0
 11
-64.59336763611728
 21
-0.4869705145376466
 31
0.0
  0
LINE
  5
139
330
132
100
AcDbEntity
  8
치수문자_일반주서
100
AcDbLine
 10
-64.59336763611728
 20
-0.4869705145376466
 30
0.0
 11
-59.03711764505798
 21
-0.4869705145376075
 31
0.0
  0
LINE
  5
13A
330
132
100
AcDbEntity
  8
치수문자_일반주서
100
AcDbLine
 10
-59.03711764505798
 20
-0.4869705145376075
 30
0.0
 11
-59.03711764505798
 21
-1.197908000102108
 31
0.0
  0
MTEXT
  5
13B
330
132
100
AcDbEntity
  8
치수문자_일반주서
100
AcDbMText
 10
-63.54885455963681
 20
-11.13796896162803
 30
0.0
 40
3.5
 41
0.0
 71
     1
 72
     1
  1
0.00
  7
SLDTEXTSTYLE0
 11
-7.044195017643634E-15
 21
1.0
 31
0.0
 73
     1
 44
1.0
  0
MTEXT
  5
13C
330
132
100
AcDbEntity
  8
치수문자_일반주서
100
AcDbMText
 10
-58.31222300927633
 20
-10.5445488435345
 30
0.0
 40
3.5
 41
0.0
 71
     1
 72
     1
  1
%%c
  7
SLDTEXTSTYLE0
 11
-7.044195017643634E-15
 21
1.0
 31
0.0
 73
     1
 44
1.0
  0
MTEXT
  5
13D
330
132
100
AcDbEntity
  8
치수문자_일반주서
100
AcDbMText
 10
-58.31222300927637
 20
-5.26611144516042
 30
0.0
 40
3.5
 41
0.0
 71
     1
 72
     1
  1
0
  7
SLDTEXTSTYLE0
 11
-7.044195017643634E-15
 21
1.0
 31
0.0
 73
     1
 44
1.0
  0
ENDBLK
  5
134
330
132
100
AcDbEntity
  8
0
100
AcDbBlockEnd
  0
BLOCK
  5
13F
330
13E
100
AcDbEntity
  8
0
100
AcDbBlockBegin
  2
SW_DOWELSYMBOL_0
 70
     0
 10
0.0
 20
0.0
 30
0.0
  3
SW_DOWELSYMBOL_0
  1
SW_DOWELSYMBOL_0
  0
CIRCLE
  5
141
330
13E
100
AcDbEntity
  8
외형선
 62
     0
100
AcDbCircle
 10
0.0
 20
0.0
 30
0.0
 40
3.000000000000821
  0
HATCH
  5
142
330
13E
100
AcDbEntity
  8
0
  6
Continuous
 62
     0
370
    30
100
AcDbHatch
 10
0.0
 20
0.0
 30
0.0
210
0.0
220
0.0
230
1.0
  2
SOLID
 70
     1
 71
     0
 91
        1
 92
        0
 93
        3
 72
     2
 10
0.0
 20
0.0
 40
3.000000000000821
 50
0.0
 51
90.0
 73
     1
 72
     1
 10
0.0
 20
3.000000000000821
 11
0.0
 21
0.0
 72
     1
 10
0.0
 20
0.0
 11
3.000000000000821
 21
0.0
 97
        0
 75
     0
 76
     1
 98
        1
 10
0.0
 20
0.0
  0
HATCH
  5
143
330
13E
100
AcDbEntity
  8
0
  6
Continuous
 62
     0
370
    30
100
AcDbHatch
 10
0.0
 20
0.0
 30
0.0
210
0.0
220
0.0
230
1.0
  2
SOLID
 70
     1
 71
     0
 91
        1
 92
        0
 93
        3
 72
     2
 10
0.0
 20
0.0
 40
3.000000000000821
 50
180.0
 51
270.0000000000007
 73
     1
 72
     1
 10
0.0
 20
-3.000000000000821
 11
0.0
 21
0.0
 72
     1
 10
0.0
 20
0.0
 11
-3.000000000000821
 21
0.0
 97
        0
 75
     0
 76
     1
 98
        1
 10
0.0
 20
0.0
  0
ENDBLK
  5
140
330
13E
100
AcDbEntity
  8
0
100
AcDbBlockEnd
  0
BLOCK
  5
16F
330
16E
100
AcDbEntity
  8
0
100
AcDbBlockBegin
  2
*D8
 70
     1
 10
0.0
 20
0.0
 30
0.0
  3
*D8
  1
*D8
  0
LINE
  5
171
330
16E
100
AcDbEntity
  8
치수문자_일반주서
 62
     0
370
    -2
100
AcDbLine
 10
-40.36249999999914
 20
6.349999999999998
 30
0.0
 11
-46.82777618826907
 21
6.349999999999999
 31
0.0
  0
LINE
  5
172
330
16E
100
AcDbEntity
  8
치수문자_일반주서
 62
     0
370
    -2
100
AcDbLine
 10
-40.36249999999914
 20
-6.349999999999997
 30
0.0
 11
-46.82777618826907
 21
-6.349999999999996
 31
0.0
  0
LINE
  5
173
330
16E
100
AcDbEntity
  8
치수문자_일반주서
 62
     0
370
    -2
100
AcDbLine
 10
-46.82777618826907
 20
3.047999999999999
 30
0.0
 11
-46.82777618826907
 21
-3.047999999999996
 31
0.0
  0
SOLID
  5
174
330
16E
100
AcDbEntity
  8
치수문자_일반주서
 62
     0
100
AcDbTrace
 10
-46.27744285493574
 20
3.047999999999999
 30
0.0
 11
-47.3781095216024
 21
3.047999999999999
 31
0.0
 12
-46.82777618826907
 22
6.349999999999999
 32
0.0
 13
-46.82777618826907
 23
6.349999999999999
 33
0.0
  0
SOLID
  5
175
330
16E
100
AcDbEntity
  8
치수문자_일반주서
 62
     0
100
AcDbTrace
 10
-47.3781095216024
 20
-3.047999999999996
 30
0.0
 11
-46.27744285493574
 21
-3.047999999999996
 31
0.0
 12
-46.82777618826907
 22
-6.349999999999996
 32
0.0
 13
-46.82777618826907
 23
-6.349999999999996
 33
0.0
  0
MTEXT
  5
176
330
16E
100
AcDbEntity
  8
치수문자_일반주서
 62
     0
100
AcDbMText
 10
-49.45277618826907
 20
0.0
 30
0.0
 40
3.5
 41
0.0
 71
     5
 72
     1
  1
\A1;{%%C12.70 [1/2]}
  7
SLDTEXTSTYLE0
 11
0.0
 21
1.0
 31
0.0
 73
     1
 44
1.0
  0
POINT
  5
177
330
16E
100
AcDbEntity
  8
Defpoints
 62
     0
100
AcDbPoint
 10
-40.29999999999914
 20
6.349999999999998
 30
0.0
  0
POINT
  5
178
330
16E
100
AcDbEntity
  8
Defpoints
 62
     0
100
AcDbPoint
 10
-40.29999999999914
 20
-6.349999999999997
 30
0.0
  0
POINT
  5
179
330
16E
100
AcDbEntity
  8
Defpoints
 62
     0
100
AcDbPoint
 10
-46.82777618826907
 20
-6.349999999999997
 30
0.0
  0
ENDBLK
  5
170
330
16E
100
AcDbEntity
  8
0
100
AcDbBlockEnd
  0
BLOCK
  5
189
330
188
100
AcDbEntity
  8
0
100
AcDbBlockBegin
  2
*D9
 70
     1
 10
0.0
 20
0.0
 30
0.0
  3
*D9
  1
*D9
  0
LINE
  5
18B
330
188
100
AcDbEntity
  8
치수문자_일반주서
 62
     0
370
    -2
100
AcDbLine
 10
62.60468488093081
 20
8.728924476396593
 30
0.0
 11
81.31939455549407
 21
31.59987429919163
 31
0.0
  0
MTEXT
  5
18C
330
188
100
AcDbEntity
  8
치수문자_일반주서
 62
     0
100
AcDbMText
 10
70.97604020507855
 20
23.10450669197532
 30
0.0
 40
3.5
 41
0.0
 71
     5
 72
     1
  1
\A1;R.78 [R0.03]
  7
SLDTEXTSTYLE0
 11
0.6332806468111555
 21
0.7739222327691876
 31
0.0
 73
     1
 44
1.0
  0
LINE
  5
18D
330
188
100
AcDbEntity
  8
치수문자_일반주서
 62
     0
370
    -2
100
AcDbLine
 10
60.01900000000087
 20
5.569
 30
0.0
 11
60.51359218516038
 21
6.173433263792734
 31
0.0
  0
SOLID
  5
18E
330
188
100
AcDbEntity
  8
치수문자_일반주서
 62
     0
100
AcDbTrace
 10
62.17876967883017
 20
9.077439925691666
 30
0.0
 11
63.03060008303145
 21
8.38040902710152
 31
0.0
 12
60.51359218516038
 22
6.173433263792734
 32
0.0
 13
60.51359218516038
 23
6.173433263792734
 33
0.0
  0
POINT
  5
18F
330
188
100
AcDbEntity
  8
Defpoints
 62
     0
100
AcDbPoint
 10
60.51359218516038
 20
6.173433263792734
 30
0.0
  0
POINT
  5
190
330
188
100
AcDbEntity
  8
Defpoints
 62
     0
100
AcDbPoint
 10
60.01900000000087
 20
5.569
 30
0.0
  0
ENDBLK
  5
18A
330
188
100
AcDbEntity
  8
0
100
AcDbBlockEnd
  0
BLOCK
  5
1C2
330
1C1
100
AcDbEntity
  8
0
100
AcDbBlockBegin
  2
*D10
 70
     1
 10
0.0
 20
0.0
 30
0.0
  3
*D10
  1

  0
LINE
  5
1C4
330
1C1
100
AcDbEntity
  8
0
 62
     0
370
    -2
100
AcDbLine
 10
42.13354485103417
 20
12.56626765097768
 30
0.0
 11
57.65754485103417
 21
12.56626765097768
 31
0.0
  0
LINE
  5
1C5
330
1C1
100
AcDbEntity
  8
0
 62
     0
370
    -2
100
AcDbLine
 10
57.65754485103417
 20
12.56626765097768
 30
0.0
 11
58.71340468879829
 21
9.437631525923067
 31
0.0
  0
MTEXT
  5
1C6
330
1C1
100
AcDbEntity
  8
0
 62
     0
100
AcDbMText
 10
49.13354485103417
 20
16.13193431764434
 30
0.0
 40
3.5
 41
0.0
 71
     5
 72
     1
  1
R0,78
 73
     1
 44
1.0
  0
LINE
  5
1C7
330
1C1
100
AcDbEntity
  8
0
 62
     0
370
    -2
100
AcDbLine
 10
60.01900000000087
 20
5.569
 30
0.0
 11
59.76926452656242
 21
6.308995400868458
 31
0.0
  0
SOLID
  5
1C8
330
1C1
100
AcDbEntity
  8
0
 62
     0
100
AcDbTrace
 10
58.19196533462252
 20
9.261654886295712
 30
0.0
 11
59.23484404297406
 21
9.61360816555042
 31
0.0
 12
59.76926452656242
 22
6.308995400868458
 32
0.0
 13
59.76926452656242
 23
6.308995400868458
 33
0.0
  0
ARC
  5
1C9
330
1C1
100
AcDbEntity
  8
0
 62
     0
370
    -2
100
AcDbCircle
 10
60.01900000000087
 20
5.569
 30
0.0
 40
0.7809999999999996
100
AcDbArc
 50
90.3561253852317
 51
188.2628319154745
  0
POINT
  5
1CA
330
1C1
100
AcDbEntity
  8
Defpoints
 62
     0
100
AcDbPoint
 10
59.76926452656242
 20
6.308995400868458
 30
0.0
  0
POINT
  5
1CB
330
1C1
100
AcDbEntity
  8
Defpoints
 62
     0
100
AcDbPoint
 10
60.01900000000087
 20
5.569
 30
0.0
  0
ENDBLK
  5
1C3
330
1C1
100
AcDbEntity
  8
0
100
AcDbBlockEnd
  0
BLOCK
  5
1D0
330
1CF
100
AcDbEntity
  8
0
100
AcDbBlockBegin
  2
*D11
 70
     1
 10
0.0
 20
0.0
 30
0.0
  3
*D11
  1

  0
LINE
  5
1D2
330
1CF
100
AcDbEntity
  8
0
 62
     0
370
    -2
100
AcDbLine
 10
108.4180816048631
 20
17.73703121204922
 30
0.0
 11
74.2274149381964
 21
17.73703121204922
 31
0.0
  0
LINE
  5
1D3
330
1CF
100
AcDbEntity
  8
0
 62
     0
370
    -2
100
AcDbLine
 10
74.2274149381964
 20
17.73703121204922
 30
0.0
 11
63.12496472113631
 21
8.230961979493415
 31
0.0
  0
MTEXT
  5
1D4
330
1CF
100
AcDbEntity
  8
0
 62
     0
100
AcDbMText
 10
92.08474827152978
 20
21.01103121204922
 30
0.0
 40
3.5
 41
0.0
 71
     5
 72
     1
  1
{R.76 [R0.03]}
 73
     1
 44
1.0
  0
LINE
  5
1D5
330
1CF
100
AcDbEntity
  8
0
 62
     0
370
    -2
100
AcDbLine
 10
60.03703121205007
 20
5.587031212049218
 30
0.0
 11
60.61674814208713
 21
6.083392750671477
 31
0.0
  0
SOLID
  5
1D6
330
1CF
100
AcDbEntity
  8
0
 62
     0
100
AcDbTrace
 10
62.76703651633265
 20
8.648998076001611
 30
0.0
 11
63.48289292593996
 21
7.812925882985219
 31
0.0
 12
60.61674814208713
 22
6.083392750671477
 32
0.0
 13
60.61674814208713
 23
6.083392750671477
 33
0.0
  0
POINT
  5
1D7
330
1CF
100
AcDbEntity
  8
Defpoints
 62
     0
100
AcDbPoint
 10
60.61674814208713
 20
6.083392750671477
 30
0.0
  0
POINT
  5
1D8
330
1CF
100
AcDbEntity
  8
Defpoints
 62
     0
100
AcDbPoint
 10
60.03703121205007
 20
5.587031212049218
 30
0.0
  0
ENDBLK
  5
1D1
330
1CF
100
AcDbEntity
  8
0
100
AcDbBlockEnd
  0
BLOCK
  5
1EA
330
1E9
100
AcDbEntity
  8
0
100
AcDbBlockBegin
  2
*D12
 70
     1
 10
0.0
 20
0.0
 30
0.0
  3
*D12
  1

  0
LINE
  5
1EC
330
1E9
100
AcDbEntity
  8
0
 62
     0
370
    -2
100
AcDbLine
 10
86.0616407468023
 20
3.292072788658349
 30
0.0
 11
67.0376407468023
 21
3.292072788658349
 31
0.0
  0
LINE
  5
1ED
330
1E9
100
AcDbEntity
  8
0
 62
     0
370
    -2
100
AcDbLine
 10
67.0376407468023
 20
3.292072788658349
 30
0.0
 11
63.89993989497153
 21
4.32068222105752
 31
0.0
  0
MTEXT
  5
1EE
330
1E9
100
AcDbEntity
  8
0
 62
     0
100
AcDbMText
 10
77.3116407468023
 20
6.857739455325016
 30
0.0
 40
3.5
 41
0.0
 71
     5
 72
     1
  1
R0,763
 73
     1
 44
1.0
  0
LINE
  5
1EF
330
1E9
100
AcDbEntity
  8
0
 62
     0
370
    -2
100
AcDbLine
 10
60.03703121205007
 20
5.587031212049218
 30
0.0
 11
60.76223904314077
 21
5.349291653456691
 31
0.0
  0
SOLID
  5
1F0
330
1E9
100
AcDbEntity
  8
0
 62
     0
100
AcDbTrace
 10
64.07137480037139
 20
4.843632363029313
 30
0.0
 11
63.72850498957167
 21
3.797732079085728
 31
0.0
 12
60.76223904314077
 22
5.349291653456691
 32
0.0
 13
60.76223904314077
 23
5.349291653456691
 33
0.0
  0
ARC
  5
1F1
330
1E9
100
AcDbEntity
  8
0
 62
     0
370
    -2
100
AcDbCircle
 10
60.03703121205007
 20
5.587031212049218
 30
0.0
 40
0.7631818236796823
100
AcDbArc
 50
259.987350701954
 51
358.646183049984
  0
POINT
  5
1F2
330
1E9
100
AcDbEntity
  8
Defpoints
 62
     0
100
AcDbPoint
 10
60.76223904314077
 20
5.349291653456691
 30
0.0
  0
POINT
  5
1F3
330
1E9
100
AcDbEntity
  8
Defpoints
 62
     0
100
AcDbPoint
 10
60.03703121205007
 20
5.587031212049218
 30
0.0
  0
ENDBLK
  5
1EB
330
1E9
100
AcDbEntity
  8
0
100
AcDbBlockEnd
  0
BLOCK
  5
1FC
330
1FB
100
AcDbEntity
  8
0
100
AcDbBlockBegin
  2
*D13
 70
     1
 10
0.0
 20
0.0
 30
0.0
  3
*D13
  1

  0
LINE
  5
1FE
330
1FB
100
AcDbEntity
  8
0
 62
     0
370
    -2
100
AcDbLine
 10
98.28317220837658
 20
17.24997374057792
 30
0.0
 11
64.09250554170993
 21
17.24997374057792
 31
0.0
  0
LINE
  5
1FF
330
1FB
100
AcDbEntity
  8
0
 62
     0
370
    -2
100
AcDbLine
 10
64.09250554170993
 20
17.24997374057792
 30
0.0
 11
61.37268666798013
 21
9.426614160342114
 31
0.0
  0
MTEXT
  5
200
330
1FB
100
AcDbEntity
  8
0
 62
     0
100
AcDbMText
 10
81.94983887504326
 20
20.81564040724459
 30
0.0
 40
3.5
 41
0.0
 71
     5
 72
     1
  1
R0,76 [0.03]
 73
     1
 44
1.0
  0
LINE
  5
201
330
1FB
100
AcDbEntity
  8
0
 62
     0
370
    -2
100
AcDbLine
 10
60.03816962884104
 20
5.587973740577919
 30
0.0
 11
60.28839157367962
 21
6.307718819283704
 31
0.0
  0
SOLID
  5
202
330
1FB
100
AcDbEntity
  8
0
 62
     0
100
AcDbTrace
 10
60.85287077780372
 20
9.607330009392198
 30
0.0
 11
61.89250255815653
 21
9.245898311292029
 31
0.0
 12
60.28839157367962
 22
6.307718819283704
 32
0.0
 13
60.28839157367962
 23
6.307718819283704
 33
0.0
  0
POINT
  5
203
330
1FB
100
AcDbEntity
  8
Defpoints
 62
     0
100
AcDbPoint
 10
60.28839157367962
 20
6.307718819283704
 30
0.0
  0
POINT
  5
204
330
1FB
100
AcDbEntity
  8
Defpoints
 62
     0
100
AcDbPoint
 10
60.03816962884104
 20
5.587973740577919
 30
0.0
  0
ENDBLK
  5
1FD
330
1FB
100
AcDbEntity
  8
0
100
AcDbBlockEnd
  0
BLOCK
  5
20C
330
20B
100
AcDbEntity
  8
0
100
AcDbBlockBegin
  2
*D14
 70
     1
 10
0.0
 20
0.0
 30
0.0
  3
*D14
  1

  0
LINE
  5
20E
330
20B
100
AcDbEntity
  8
0
 62
     0
370
    -2
100
AcDbLine
 10
30.9705648833971
 20
7.449346787894001
 30
0.0
 11
52.91123155006378
 21
7.449346787894001
 31
0.0
  0
LINE
  5
20F
330
20B
100
AcDbEntity
  8
0
 62
     0
370
    -2
100
AcDbLine
 10
52.91123155006378
 20
7.449346787894001
 30
0.0
 11
56.1060658612398
 21
6.614938180476447
 31
0.0
  0
MTEXT
  5
210
330
20B
100
AcDbEntity
  8
0
 62
     0
100
AcDbMText
 10
41.17889821673045
 20
11.01501345456067
 30
0.0
 40
3.5
 41
0.0
 71
     5
 72
     1
  1
R0,7620
 73
     1
 44
1.0
  0
LINE
  5
211
330
20B
100
AcDbEntity
  8
0
 62
     0
370
    -2
100
AcDbLine
 10
60.03816962884104
 20
5.587973740577919
 30
0.0
 11
59.30090017241581
 21
5.780529573058892
 31
0.0
  0
SOLID
  5
212
330
20B
100
AcDbEntity
  8
0
 62
     0
100
AcDbTrace
 10
55.96699776000354
 20
6.082465795280445
 30
0.0
 11
56.24513396247606
 21
7.147410565672448
 31
0.0
 12
59.30090017241581
 22
5.780529573058892
 32
0.0
 13
59.30090017241581
 23
5.780529573058892
 33
0.0
  0
ARC
  5
213
330
20B
100
AcDbEntity
  8
0
 62
     0
370
    -2
100
AcDbCircle
 10
60.03816962884104
 20
5.587973740577919
 30
0.0
 40
0.7619999999999979
100
AcDbArc
 50
90.35182306768006
 51
247.3793233292159
  0
POINT
  5
214
330
20B
100
AcDbEntity
  8
Defpoints
 62
     0
100
AcDbPoint
 10
59.30090017241581
 20
5.780529573058892
 30
0.0
  0
POINT
  5
215
330
20B
100
AcDbEntity
  8
Defpoints
 62
     0
100
AcDbPoint
 10
60.03816962884104
 20
5.587973740577919
 30
0.0
  0
ENDBLK
  5
20D
330
20B
100
AcDbEntity
  8
0
100
AcDbBlockEnd
  0
ENDSEC
  0
SECTION
  2
ENTITIES
  0
LINE
  5
95
330
1F
100
AcDbEntity
  8
0
  6
Continuous
 62
     4
370
    15
100
AcDbLine
 10
7.96891872483115
 20
6.350000000000005
 30
0.0
 11
-40.29999999999914
 21
6.350000000000002
 31
0.0
  0
LINE
  5
96
330
1F
100
AcDbEntity
  8
0
  6
Continuous
 62
     4
370
    15
100
AcDbLine
 10
-40.29999999999914
 20
-6.349999999999997
 30
0.0
 11
7.96992231823454
 21
-6.349999999999994
 31
0.0
  0
LINE
  5
97
330
1F
100
AcDbEntity
  8
0
  6
Continuous
 62
     4
370
    15
100
AcDbLine
 10
-40.29999999999914
 20
6.349999999999998
 30
0.0
 11
-40.79999999999914
 21
5.849999999999997
 31
0.0
  0
LINE
  5
98
330
1F
100
AcDbEntity
  8
0
  6
Continuous
 62
     4
370
    15
100
AcDbLine
 10
-40.79999999999914
 20
-5.849999999999994
 30
0.0
 11
-40.29999999999914
 21
-6.349999999999993
 31
0.0
  0
LINE
  5
99
330
1F
100
AcDbEntity
  8
0
  6
Continuous
 62
     4
370
    15
100
AcDbLine
 10
7.969538555579757
 20
-6.349961764403414
 30
0.0
 11
7.969538555503697
 21
-6.34994810766858
 31
0.0
  0
LINE
  5
9A
330
1F
100
AcDbEntity
  8
0
  6
Continuous
 62
     1
370
    15
100
AcDbLine
 10
7.969538555644267
 20
6.349976062589661
 30
0.0
 11
7.969538642885854
 21
6.3504282594438
 31
0.0
  0
LINE
  5
9B
330
1F
100
AcDbEntity
  8
0
  6
Continuous
 62
     1
370
    15
100
AcDbLine
 10
38.10268528930963
 20
-6.349999999999994
 30
0.0
 11
40.27336287210458
 21
-6.349999999999994
 31
0.0
  0
LINE
  5
9C
330
1F
100
AcDbEntity
  8
0
  6
Continuous
 62
     1
370
    15
100
AcDbLine
 10
20.32444059473436
 20
6.350000000000005
 30
0.0
 11
18.15309546213287
 21
6.350000000000005
 31
0.0
  0
LINE
  5
9F
330
1F
100
AcDbEntity
  8
0
  6
Continuous
 62
     1
370
    15
100
AcDbLine
 10
44.75257391520895
 20
-6.349999999999994
 30
0.0
 11
46.9230950405932
 21
-6.349999999999994
 31
0.0
  0
LINE
  5
A0
330
1F
100
AcDbEntity
  8
0
  6
Continuous
 62
     1
370
    15
100
AcDbLine
 10
26.97403934440302
 20
6.350000000000005
 30
0.0
 11
24.80293873793291
 21
6.350000000000005
 31
0.0
  0
LINE
  5
A1
330
1F
100
AcDbEntity
  8
0
  6
Continuous
 62
     1
370
    15
100
AcDbLine
 10
51.40246300812267
 20
-6.349999999999994
 30
0.0
 11
53.5728790340363
 21
-6.349999999999994
 31
0.0
  0
LINE
  5
A2
330
1F
100
AcDbEntity
  8
0
  6
Continuous
 62
     1
370
    15
100
AcDbLine
 10
11.50359362960305
 20
-6.349999999999994
 30
0.0
 11
13.67471373604587
 21
-6.349999999999994
 31
0.0
  0
LINE
  5
A3
330
1F
100
AcDbEntity
  8
0
  6
Continuous
 62
     1
370
    15
100
AcDbLine
 10
33.62367886827734
 20
6.350000000000005
 30
0.0
 11
31.45280445488645
 21
6.350000000000005
 31
0.0
  0
LINE
  5
A4
330
1F
100
AcDbEntity
  8
0
  6
Continuous
 62
     1
370
    15
100
AcDbLine
 10
18.15309546213286
 20
-6.349999999999994
 30
0.0
 11
20.3244405947344
 21
-6.349999999999994
 31
0.0
  0
LINE
  5
A5
330
1F
100
AcDbEntity
  8
0
  6
Continuous
 62
     1
370
    15
100
AcDbLine
 10
40.27336287210463
 20
6.350000000000005
 30
0.0
 11
38.10268528930962
 21
6.350000000000005
 31
0.0
  0
LINE
  5
A6
330
1F
100
AcDbEntity
  8
0
  6
Continuous
 62
     1
370
    15
100
AcDbLine
 10
24.80293873793293
 20
-6.349999999999994
 30
0.0
 11
26.97403934440306
 21
-6.349999999999994
 31
0.0
  0
LINE
  5
A7
330
1F
100
AcDbEntity
  8
0
  6
Continuous
 62
     1
370
    15
100
AcDbLine
 10
46.92309504059323
 20
6.350000000000005
 30
0.0
 11
44.75257391520901
 21
6.350000000000005
 31
0.0
  0
LINE
  5
A8
330
1F
100
AcDbEntity
  8
0
  6
Continuous
 62
     1
370
    15
100
AcDbLine
 10
31.4528044548865
 20
-6.349999999999994
 30
0.0
 11
33.62367886827734
 21
-6.349999999999994
 31
0.0
  0
LINE
  5
A9
330
1F
100
AcDbEntity
  8
0
  6
Continuous
 62
     1
370
    15
100
AcDbLine
 10
13.67471373604587
 20
6.350000000000005
 30
0.0
 11
11.50359362960311
 21
6.350000000000005
 31
0.0
  0
LINE
  5
AA
330
1F
100
AcDbEntity
  8
0
  6
Continuous
 62
     1
370
    15
100
AcDbLine
 10
53.57287903403632
 20
6.350000000000005
 30
0.0
 11
51.4024630081227
 21
6.350000000000005
 31
0.0
  0
SPLINE
  5
AB
330
1F
100
AcDbEntity
  8
0
  6
Continuous
 62
     4
370
    15
100
AcDbSpline
210
0.0
220
0.0
230
1.0
 70
     8
 71
     3
 72
    11
 73
     7
 74
     0
 42
0.000000001
 43
0.00000001
 40
0.0
 40
0.0
 40
0.0
 40
0.0
 40
0.2657769111197723
 40
0.5216214585317198
 40
0.7760994503009735
 40
0.9999999999999999
 40
0.9999999999999999
 40
0.9999999999999999
 40
0.9999999999999999
 10
8.533639576893059
 20
6.164620831384456
 30
0.0
 10
8.655089868461738
 20
6.146628006969567
 30
0.0
 10
8.89345172600702
 20
6.111314768980396
 30
0.0
 10
9.30906377248996
 20
6.099537018544537
 30
0.0
 10
9.694555846138545
 20
6.123097100967954
 30
0.0
 10
9.902618325375595
 20
6.158179541259101
 30
0.0
 10
10.00000000000074
 20
6.174599545471375
 30
0.0
  0
SPLINE
  5
AC
330
1F
100
AcDbEntity
  8
0
  6
Continuous
 62
     4
370
    15
100
AcDbSpline
210
0.0
220
0.0
230
1.0
 70
     8
 71
     3
 72
    14
 73
    10
 74
     0
 42
0.000000001
 43
0.00000001
 40
0.0
 40
0.0
 40
0.0
 40
0.0
 40
0.25
 40
0.25
 40
0.5
 40
0.5
 40
0.75
 40
0.75
 40
1.0
 40
1.0
 40
1.0
 40
1.0
 10
8.392332177128377
 20
6.203432529773732
 30
0.0
 10
8.303075936625728
 20
6.222444759546276
 30
0.0
 10
8.22963975390729
 20
6.241982760733681
 30
0.0
 10
8.11051538675716
 20
6.278721613130532
 30
0.0
 10
8.066098364329772
 20
6.295623215700588
 30
0.0
 10
8.004687791471357
 20
6.322936965109046
 30
0.0
 10
7.987230266638888
 20
6.333562523223925
 30
0.0
 10
7.969675496850177
 20
6.347245062128015
 30
0.0
 10
7.969538555503678
 20
6.35044953790499
 30
0.0
 10
7.969538555503678
 20
6.349949231219968
 30
0.0
  0
SPLINE
  5
AD
330
1F
100
AcDbEntity
  8
0
  6
Continuous
 62
     4
370
    15
100
AcDbSpline
210
0.0
220
0.0
230
1.0
 70
     8
 71
     3
 72
    10
 73
     6
 74
     0
 42
0.000000001
 43
0.00000001
 40
0.0
 40
0.0
 40
0.0
 40
0.0
 40
0.5000000000000001
 40
0.5000000000000001
 40
1.0
 40
1.0
 40
1.0
 40
1.0
 10
10.00000000000085
 20
5.665848385709543
 30
0.0
 10
9.730911793776068
 20
5.787014932569016
 30
0.0
 10
9.46320145472342
 20
5.892772931214328
 30
0.0
 10
8.930741626273441
 20
6.072085264782291
 30
0.0
 10
8.661457791733799
 20
6.146106812336599
 30
0.0
 10
8.392332177128376
 20
6.203432529773732
 30
0.0
  0
SPLINE
  5
AE
330
1F
100
AcDbEntity
  8
0
  6
Continuous
 62
     4
370
    15
100
AcDbSpline
210
0.0
220
0.0
230
1.0
 70
     8
 71
     3
 72
    20
 73
    16
 74
     0
 42
0.000000001
 43
0.00000001
 40
0.0
 40
0.0
 40
0.0
 40
0.0
 40
0.1250000000000001
 40
0.1250000000000001
 40
0.2500000000000002
 40
0.2500000000000002
 40
0.3750000000000002
 40
0.3750000000000002
 40
0.5000000000000003
 40
0.5000000000000003
 40
0.7500000000000001
 40
0.7500000000000001
 40
0.8750000000000001
 40
0.8750000000000001
 40
1.0
 40
1.0
 40
1.0
 40
1.0
 10
7.969538555503672
 20
3.19696485655644
 30
0.0
 10
7.969538555503672
 20
3.314302316225287
 30
0.0
 10
7.969810769528134
 20
3.429190662140583
 30
0.0
 10
7.991938531124274
 20
3.652565481188821
 30
0.0
 10
8.013628990838326
 20
3.761949854289571
 30
0.0
 10
8.0909719095514
 20
3.969732131970596
 30
0.0
 10
8.145322295034905
 20
4.065689180258111
 30
0.0
 10
8.293494376991532
 20
4.240700776522336
 30
0.0
 10
8.383226189001581
 20
4.315103516775528
 30
0.0
 10
8.70225247233728
 20
4.501041431924533
 30
0.0
 10
8.972541659355636
 20
4.566176362469022
 30
0.0
 10
9.381980461705329
 20
4.564752408067319
 30
0.0
 10
9.517459063079476
 20
4.548052218140121
 30
0.0
 10
9.77425828566329
 20
4.48258999811944
 30
0.0
 10
9.89382452965618
 20
4.43427721440865
 30
0.0
 10
10.00000000000074
 20
4.370894467255162
 30
0.0
  0
SPLINE
  5
AF
330
1F
100
AcDbEntity
  8
0
  6
Continuous
 62
     4
370
    15
100
AcDbSpline
210
0.0
220
0.0
230
1.0
 70
     8
 71
     3
 72
    14
 73
    10
 74
     0
 42
0.000000001
 43
0.00000001
 40
0.0
 40
0.0
 40
0.0
 40
0.0
 40
0.25
 40
0.25
 40
0.5
 40
0.5
 40
0.75
 40
0.75
 40
1.0
 40
1.0
 40
1.0
 40
1.0
 10
8.392332177128365
 20
1.927006242622278
 30
0.0
 10
8.303075936625717
 20
2.011812484177579
 30
0.0
 10
8.229639753907282
 20
2.106525908525762
 30
0.0
 10
8.110515386757157
 20
2.312231456864899
 30
0.0
 10
8.066098364329768
 20
2.422095950578339
 30
0.0
 10
8.004687791471357
 20
2.643619013882365
 30
0.0
 10
7.987230266638886
 20
2.756919060743856
 30
0.0
 10
7.969675496850177
 20
2.979051743536528
 30
0.0
 10
7.969538555503672
 20
3.088862784761929
 30
0.0
 10
7.969538555503671
 20
3.196964856553295
 30
0.0
  0
SPLINE
  5
B0
330
1F
100
AcDbEntity
  8
0
  6
Continuous
 62
     4
370
    15
100
AcDbSpline
210
0.0
220
0.0
230
1.0
 70
     8
 71
     3
 72
    10
 73
     6
 74
     0
 42
0.000000001
 43
0.00000001
 40
0.0
 40
0.0
 40
0.0
 40
0.0
 40
0.5
 40
0.5
 40
1.0
 40
1.0
 40
1.0
 40
1.0
 10
10.00000000000085
 20
0.3498823984794706
 30
0.0
 10
9.730911793776066
 20
0.6178256382660468
 30
0.0
 10
9.463201454723412
 20
0.8843675843895713
 30
0.0
 10
8.93074162627343
 20
1.410362195297979
 30
0.0
 10
8.661457791733792
 20
1.671298274726527
 30
0.0
 10
8.392332177128365
 20
1.927006242622277
 30
0.0
  0
SPLINE
  5
B1
330
1F
100
AcDbEntity
  8
0
  6
Continuous
 62
     4
370
    15
100
AcDbSpline
210
0.0
220
0.0
230
1.0
 70
     8
 71
     3
 72
    20
 73
    16
 74
     0
 42
0.000000001
 43
0.00000001
 40
0.0
 40
0.0
 40
0.0
 40
0.0
 40
0.125
 40
0.125
 40
0.25
 40
0.25
 40
0.375
 40
0.375
 40
0.5
 40
0.5
 40
0.75
 40
0.75
 40
0.875
 40
0.875
 40
1.0
 40
1.0
 40
1.0
 40
1.0
 10
7.969538555503674
 20
-3.152984374670944
 30
0.0
 10
7.969538555503674
 20
-3.03510386606232
 30
0.0
 10
7.969810769528136
 20
-2.915301082328143
 30
0.0
 10
7.991938531124275
 20
-2.673664625876083
 30
0.0
 10
8.013628990838326
 20
-2.550789628892658
 30
0.0
 10
8.090971909551397
 20
-2.30881035522903
 30
0.0
 10
8.145322295034903
 20
-2.192618676790197
 30
0.0
 10
8.29349437699153
 20
-1.974067017907502
 30
0.0
 10
8.38322618900158
 20
-1.877578408309903
 30
0.0
 10
8.702252472337278
 20
-1.631399099195287
 30
0.0
 10
8.972541659355633
 20
-1.538482368823946
 30
0.0
 10
9.381980461705327
 20
-1.540469848257935
 30
0.0
 10
9.517459063079475
 20
-1.563931165758476
 30
0.0
 10
9.77425828566329
 20
-1.653995806409868
 30
0.0
 10
9.89382452965618
 20
-1.719927582602293
 30
0.0
 10
10.00000000000074
 20
-1.803705078216182
 30
0.0
  0
SPLINE
  5
B2
330
1F
100
AcDbEntity
  8
0
  6
Continuous
 62
     4
370
    15
100
AcDbSpline
210
0.0
220
0.0
230
1.0
 70
     8
 71
     3
 72
    14
 73
    10
 74
     0
 42
0.000000001
 43
0.00000001
 40
0.0
 40
0.0
 40
0.0
 40
0.0
 40
0.2499999999999997
 40
0.2499999999999997
 40
0.4999999999999993
 40
0.4999999999999993
 40
0.7499999999999997
 40
0.7499999999999997
 40
1.0
 40
1.0
 40
1.0
 40
1.0
 10
8.392332177128365
 20
-4.276426287151426
 30
0.0
 10
8.303075936625719
 20
-4.210632275368669
 30
0.0
 10
8.229639753907284
 20
-4.135456852207893
 30
0.0
 10
8.110515386757157
 20
-3.966490156265605
 30
0.0
 10
8.06609836432977
 20
-3.87352726512222
 30
0.0
 10
8.004687791471358
 20
-3.679317951226652
 30
0.0
 10
7.98723026663889
 20
-3.576643462480043
 30
0.0
 10
7.96967549685018
 20
-3.368193318591461
 30
0.0
 10
7.969538555503669
 20
-3.261586753143036
 30
0.0
 10
7.969538555503669
 20
-3.152984374666649
 30
0.0
  0
SPLINE
  5
B3
330
1F
100
AcDbEntity
  8
0
  6
Continuous
 62
     4
370
    15
100
AcDbSpline
210
0.0
220
0.0
230
1.0
 70
     8
 71
     3
 72
    10
 73
     6
 74
     0
 42
0.000000001
 43
0.00000001
 40
0.0
 40
0.0
 40
0.0
 40
0.0
 40
0.5
 40
0.5
 40
1.0
 40
1.0
 40
1.0
 40
1.0
 10
10.00000000000085
 20
-5.315965987230045
 30
0.0
 10
9.730911793776066
 20
-5.169189294302938
 30
0.0
 10
9.463201454723414
 20
-5.008405346824732
 30
0.0
 10
8.93074162627343
 20
-4.661723069484283
 30
0.0
 10
8.661457791733792
 20
-4.474808537610045
 30
0.0
 10
8.392332177128367
 20
-4.276426287151426
 30
0.0
  0
SPLINE
  5
B4
330
1F
100
AcDbEntity
  8
0
  6
Continuous
 62
     4
370
    15
100
AcDbSpline
210
0.0
220
0.0
230
1.0
 70
     8
 71
     3
 72
    20
 73
    16
 74
     0
 42
0.000000001
 43
0.00000001
 40
0.0
 40
0.0
 40
0.0
 40
0.0
 40
0.125
 40
0.125
 40
0.25
 40
0.25
 40
0.375
 40
0.375
 40
0.5
 40
0.5
 40
0.75
 40
0.75
 40
0.875
 40
0.875
 40
1.0
 40
1.0
 40
1.0
 40
1.0
 10
7.969538555503674
 20
-6.3499492312274
 30
0.0
 10
7.969538555503674
 20
-6.349406182287624
 30
0.0
 10
7.969810769528136
 20
-6.344491744468747
 30
0.0
 10
7.991938531124275
 20
-6.326230107064924
 30
0.0
 10
8.013628990838326
 20
-6.31273948318225
 30
0.0
 10
8.0909719095514
 20
-6.278542487199648
 30
0.0
 10
8.145322295034907
 20
-6.258307857048332
 30
0.0
 10
8.293494376991536
 20
-6.214767794429861
 30
0.0
 10
8.383226189001585
 20
-6.192681925085457
 30
0.0
 10
8.702252472337287
 20
-6.132440531119848
 30
0.0
 10
8.972541659355644
 20
-6.104658731293002
 30
0.0
 10
9.381980461705332
 20
-6.105222256325287
 30
0.0
 10
9.51745906307948
 20
-6.111983383898631
 30
0.0
 10
9.77425828566329
 20
-6.136585804529341
 30
0.0
 10
9.89382452965618
 20
-6.154204797010975
 30
0.0
 10
10.00000000000075
 20
-6.174599545471375
 30
0.0
  0
SPLINE
  5
B5
330
1F
100
AcDbEntity
  8
0
  6
Continuous
 62
     4
370
    15
100
AcDbSpline
210
0.0
220
0.0
230
1.0
 70
     8
 71
     3
 72
    14
 73
    10
 74
     0
 42
0.000000001
 43
0.00000001
 40
0.0
 40
0.0
 40
0.0
 40
0.0
 40
0.2500000000000001
 40
0.2500000000000001
 40
0.5000000000000001
 40
0.5000000000000001
 40
0.75
 40
0.75
 40
1.0
 40
1.0
 40
1.0
 40
1.0
 10
8.392332177128365
 20
-6.203432529773713
 30
0.0
 10
8.303075936625717
 20
-6.222444759546259
 30
0.0
 10
8.229639753907282
 20
-6.241982760733665
 30
0.0
 10
8.110515386757157
 20
-6.278721613130516
 30
0.0
 10
8.06609836432977
 20
-6.29562321570057
 30
0.0
 10
8.004687791471357
 20
-6.322936965109029
 30
0.0
 10
7.987230266638888
 20
-6.333562523223911
 30
0.0
 10
7.969675496850178
 20
-6.347245062128004
 30
0.0
 10
7.969538555503671
 20
-6.350449537904978
 30
0.0
 10
7.969538555503671
 20
-6.349949231219958
 30
0.0
  0
LINE
  5
B6
330
1F
100
AcDbEntity
  8
0
  6
Continuous
 62
     4
370
    15
100
AcDbLine
 10
8.533639576892902
 20
-6.164620831384478
 30
0.0
 11
8.392332177128367
 21
-6.203432529773713
 31
0.0
  0
LINE
  5
B7
330
1F
100
AcDbEntity
  8
0
  6
Continuous
 62
     4
370
    15
100
AcDbLine
 10
-40.29999999999914
 20
6.349999999999998
 30
0.0
 11
-40.29999999999914
 21
-6.349999999999997
 31
0.0
  0
LINE
  5
B8
330
1F
100
AcDbEntity
  8
0
  6
Continuous
 62
     1
370
    15
100
AcDbLine
 10
10.00000000000085
 20
-5.315965987230045
 30
0.0
 11
10.00000000000085
 21
-6.174599545471317
 31
0.0
  0
LINE
  5
B9
330
1F
100
AcDbEntity
  8
0
  6
Continuous
 62
     1
370
    15
100
AcDbLine
 10
10.00000000000085
 20
0.3498823984794711
 30
0.0
 11
10.00000000000085
 21
-1.803705078215945
 31
0.0
  0
LINE
  5
BA
330
1F
100
AcDbEntity
  8
0
  6
Continuous
 62
     1
370
    15
100
AcDbLine
 10
10.00000000000085
 20
5.665848385709543
 30
0.0
 11
10.00000000000085
 21
4.37089446725534
 31
0.0
  0
LINE
  5
BB
330
1F
100
AcDbEntity
  8
0
  6
Continuous
 62
     4
370
    15
100
AcDbLine
 10
-40.79999999999914
 20
5.849999999999997
 30
0.0
 11
-40.79999999999914
 21
-5.849999999999994
 31
0.0
  0
SPLINE
  5
BC
330
1F
100
AcDbEntity
  8
0
  6
Continuous
 62
     1
370
    15
100
AcDbSpline
210
0.0
220
0.0
230
1.0
 70
    24
 71
     3
 72
    14
 73
    10
 74
     0
 42
0.000000001
 43
0.00000001
 40
0.0
 40
0.0
 40
0.0
 40
0.0
 40
0.25
 40
0.25
 40
0.4999999999999999
 40
0.4999999999999999
 40
0.75
 40
0.75
 40
1.0
 40
1.0
 40
1.0
 40
1.0
 10
10.00000000000084
 20
3.925872305406016
 30
0.0
 10
10.00000000000084
 20
3.674157149964822
 30
0.0
 10
10.00000000000084
 20
3.389135429014291
 30
0.0
 10
10.00000000000085
 20
2.763437385568289
 30
0.0
 10
10.00000000000085
 20
2.42213381501202
 30
0.0
 10
10.00000000000085
 20
1.733092133707623
 30
0.0
 10
10.00000000000085
 20
1.386078405905132
 30
0.0
 10
10.00000000000085
 20
0.7788519773087224
 30
0.0
 10
10.00000000000085
 20
0.5212760141486626
 30
0.0
 10
10.00000000000085
 20
0.349882398479472
 30
0.0
  0
SPLINE
  5
BE
330
1F
100
AcDbEntity
  8
0
  6
Continuous
 62
     1
370
    15
100
AcDbSpline
210
0.0
220
0.0
230
1.0
 70
    24
 71
     3
 72
     8
 73
     4
 74
     0
 42
0.000000001
 43
0.00000001
 40
0.0
 40
0.0
 40
0.0
 40
0.0
 40
1.0
 40
1.0
 40
1.0
 40
1.0
 10
10.00000000000085
 20
-1.803705078215969
 30
0.0
 10
10.00000000000085
 20
-1.825902087095913
 30
0.0
 10
10.00000000000085
 20
-1.860447195608676
 30
0.0
 10
10.00000000000085
 20
-1.908928205366587
 30
0.0
  0
SPLINE
  5
BF
330
1F
100
AcDbEntity
  8
0
  6
Continuous
 62
     1
370
    15
100
AcDbSpline
210
0.0
220
0.0
230
1.0
 70
    24
 71
     3
 72
     8
 73
     4
 74
     0
 42
0.000000001
 43
0.00000001
 40
0.0
 40
0.0
 40
0.0
 40
0.0
 40
1.0
 40
1.0
 40
1.0
 40
1.0
 10
10.00000000000085
 20
4.3708944672554
 30
0.0
 10
10.00000000000085
 20
4.2264026743003
 30
0.0
 10
10.00000000000085
 20
4.078220146830366
 30
0.0
 10
10.00000000000085
 20
3.925872305405798
 30
0.0
  0
SPLINE
  5
C0
330
1F
100
AcDbEntity
  8
0
  6
Continuous
 62
     1
370
    15
100
AcDbSpline
210
0.0
220
0.0
230
1.0
 70
    24
 71
     3
 72
    14
 73
    10
 74
     0
 42
0.000000001
 43
0.00000001
 40
0.0
 40
0.0
 40
0.0
 40
0.0
 40
0.25
 40
0.25
 40
0.4999999999999999
 40
0.4999999999999999
 40
0.7499999999999998
 40
0.7499999999999998
 40
1.0
 40
1.0
 40
1.0
 40
1.0
 10
10.00000000000084
 20
-1.908928205366518
 30
0.0
 10
10.00000000000084
 20
-1.989030455539516
 30
0.0
 10
10.00000000000084
 20
-2.107101091791841
 30
0.0
 10
10.00000000000085
 20
-2.453702120337828
 30
0.0
 10
10.00000000000085
 20
-2.683386223731995
 30
0.0
 10
10.00000000000085
 20
-3.270577777254742
 30
0.0
 10
10.00000000000085
 20
-3.629229508669688
 30
0.0
 10
10.00000000000085
 20
-4.434350429024147
 30
0.0
 10
10.00000000000085
 20
-4.879656978922019
 30
0.0
 10
10.00000000000085
 20
-5.315965987230045
 30
0.0
  0
LINE
  5
C1
330
1F
100
AcDbEntity
  8
0
  6
Continuous
 62
     4
370
    15
100
AcDbLine
 10
10.00000000000084
 20
5.83480051077257
 30
0.0
 11
10.00000000000084
 21
5.736302716350467
 31
0.0
  0
SPLINE
  5
C2
330
1F
100
AcDbEntity
  8
0
  6
Continuous
 62
     1
370
    15
100
AcDbSpline
210
0.0
220
0.0
230
1.0
 70
    24
 71
     3
 72
     8
 73
     4
 74
     0
 42
0.000000001
 43
0.00000001
 40
0.0
 40
0.0
 40
0.0
 40
0.0
 40
1.0
 40
1.0
 40
1.0
 40
1.0
 10
10.00000000000085
 20
6.1745995454714
 30
0.0
 10
10.00000000000085
 20
6.052304761396247
 30
0.0
 10
10.00000000000085
 20
5.938667342439072
 30
0.0
 10
10.00000000000085
 20
5.834800510772417
 30
0.0
  0
SPLINE
  5
C3
330
1F
100
AcDbEntity
  8
0
  6
Continuous
 62
     1
370
    15
100
AcDbSpline
210
0.0
220
0.0
230
1.0
 70
     8
 71
     3
 72
    28
 73
    24
 74
     0
 42
0.000000001
 43
0.00000001
 40
0.0
 40
0.0
 40
0.0
 40
0.0
 40
0.0211440292658939
 40
0.0708028278512687
 40
0.1204058310734893
 40
0.1699461284280106
 40
0.2196099520150597
 40
0.2692064870300634
 40
0.3187484575283073
 40
0.3684166538550886
 40
0.4180070521381882
 40
0.4675510302093647
 40
0.5172229467130978
 40
0.5668075400714753
 40
0.6163538600359887
 40
0.666028843897912
 40
0.7156079644527555
 40
0.7651569605040981
 40
0.8148343586943632
 40
0.8644083388629747
 40
0.9139603450496312
 40
0.9636395043722253
 40
1.0
 40
1.0
 40
1.0
 40
1.0
 10
49.16346507153904
 20
-5.93737437371296
 30
0.0
 10
49.00720706347904
 20
-5.996573119908336
 30
0.0
 10
48.4839620042745
 20
-6.19480584949707
 30
0.0
 10
47.59224364516713
 20
-6.339784459982372
 30
0.0
 10
46.4916263323377
 20
-6.368979183089525
 30
0.0
 10
45.39236185428342
 20
-6.196292612351303
 30
0.0
 10
44.29036557057293
 20
-5.841436642880562
 30
0.0
 10
43.18985892191682
 20
-5.310492570917923
 30
0.0
 10
42.09056639905904
 20
-4.619603544786491
 30
0.0
 10
40.98847118808081
 20
-3.792233406650042
 30
0.0
 10
39.8881017304485
 20
-2.850043914121201
 30
0.0
 10
38.78876459851282
 20
-1.821305624130555
 30
0.0
 10
37.68658730596315
 20
-0.7407879713546525
 30
0.0
 10
36.58634700937856
 20
0.3638300931707251
 30
0.0
 10
35.48695796839586
 20
1.458404267295372
 30
0.0
 10
34.38471292022342
 20
2.506479928820345
 30
0.0
 10
33.28459456478835
 20
3.481507216453258
 30
0.0
 10
32.18514555798245
 20
4.352680887925071
 30
0.0
 10
31.0828493245069
 20
5.090930264545814
 30
0.0
 10
29.98283749405231
 20
5.680003851112374
 30
0.0
 10
28.88335097422804
 20
6.092182436101811
 30
0.0
 10
27.878767708674
 20
6.323007006406434
 30
0.0
 10
27.24280022074196
 20
6.328898184160343
 30
0.0
 10
26.97403934440302
 20
6.331387805290122
 30
0.0
  0
SPLINE
  5
C4
330
1F
100
AcDbEntity
  8
0
  6
Continuous
 62
     1
370
    15
100
AcDbSpline
210
0.0
220
0.0
230
1.0
 70
     8
 71
     3
 72
     9
 73
     5
 74
     0
 42
0.000000001
 43
0.00000001
 40
0.0
 40
0.0
 40
0.0
 40
0.0
 40
0.7601866871880326
 40
1.0
 40
1.0
 40
1.0
 40
1.0
 10
10.00000000000151
 20
-6.172758784148887
 30
0.0
 10
10.38077475184521
 20
-6.254402787069563
 30
0.0
 10
10.88167112146226
 20
-6.361802724869951
 30
0.0
 10
11.38329705313599
 20
-6.334357900068968
 30
0.0
 10
11.50359362960305
 20
-6.327776265713901
 30
0.0
  0
SPLINE
  5
C5
330
1F
100
AcDbEntity
  8
0
  6
Continuous
 62
     1
370
    15
100
AcDbSpline
210
0.0
220
0.0
230
1.0
 70
     8
 71
     3
 72
    28
 73
    24
 74
     0
 42
0.000000001
 43
0.00000001
 40
0.0
 40
0.0
 40
0.0
 40
0.0
 40
0.0346225779502689
 40
0.0841997712044499
 40
0.1338803891832149
 40
0.1834325967008075
 40
0.233014930674389
 40
0.2826931341683302
 40
0.332242665425646
 40
0.3818304725574755
 40
0.4315056084944188
 40
0.48105279770661
 40
0.5306464101394018
 40
0.5803178256582737
 40
0.629863007167414
 40
0.6794627567298556
 40
0.7291297992255807
 40
0.7786733074825554
 40
0.8282795256714439
 40
0.8779415428398051
 40
0.927483712386192
 40
0.977096730348603
 40
1.0
 40
1.0
 40
1.0
 40
1.0
 10
29.21494957773231
 20
5.940421860361573
 30
0.0
 10
29.47089645638511
 20
6.028001465452592
 30
0.0
 10
30.09334197889974
 20
6.240989150004331
 30
0.0
 10
31.08281120760484
 20
6.366978115218111
 30
0.0
 10
32.18515575071272
 20
6.340823041121323
 30
0.0
 10
33.28459183495409
 20
6.117910834819926
 30
0.0
 10
34.38471365350797
 20
5.71320512252128
 30
0.0
 10
35.48695777231384
 20
5.138061561856375
 30
0.0
 10
36.58634706194549
 20
4.407439932073966
 30
0.0
 10
37.68658729168697
 20
3.545062985393095
 30
0.0
 10
38.78876460291838
 20
2.578268323693165
 30
0.0
 10
39.88810172707824
 20
1.531592277832933
 30
0.0
 10
40.98847119717463
 20
0.4399692160109454
 30
0.0
 10
42.0905663660394
 20
-0.663081848564062
 30
0.0
 10
43.18985904459905
 20
-1.749110701764285
 30
0.0
 10
44.29036511192259
 20
-2.7814219495103
 30
0.0
 10
45.39236356670185
 20
-3.729131130673042
 30
0.0
 10
46.49161995609607
 20
-4.567579403799358
 30
0.0
 10
47.592267488387
 20
-5.267125872891368
 30
0.0
 10
48.69416414643507
 20
-5.811289926639983
 30
0.0
 10
49.79335700950621
 20
-6.171761631932547
 30
0.0
 10
50.69636061601067
 20
-6.347764470164364
 30
0.0
 10
51.23297937236141
 20
-6.331443269226943
 30
0.0
 10
51.40246300812267
 20
-6.326288442933362
 30
0.0
  0
SPLINE
  5
C6
330
1F
100
AcDbEntity
  8
0
  6
Continuous
 62
     1
370
    15
100
AcDbSpline
210
0.0
220
0.0
230
1.0
 70
     8
 71
     3
 72
    42
 73
    38
 74
     0
 42
0.000000001
 43
0.00000001
 40
0.0
 40
0.0
 40
0.0
 40
0.0
 40
0.1249999999999996
 40
0.1249999999999996
 40
0.1874999999999994
 40
0.1874999999999994
 40
0.2499999999999992
 40
0.2499999999999992
 40
0.312499999999999
 40
0.312499999999999
 40
0.3749999999999988
 40
0.3749999999999988
 40
0.4374999999999985
 40
0.4374999999999985
 40
0.4999999999999983
 40
0.4999999999999983
 40
0.562499999999998
 40
0.562499999999998
 40
0.5937499999999981
 40
0.5937499999999981
 40
0.6249999999999981
 40
0.6249999999999981
 40
0.6562499999999981
 40
0.6562499999999981
 40
0.6874999999999981
 40
0.6874999999999981
 40
0.7187499999999981
 40
0.7187499999999981
 40
0.7499999999999981
 40
0.7499999999999981
 40
0.7812499999999982
 40
0.7812499999999982
 40
0.8124999999999982
 40
0.8124999999999982
 40
0.8749999999999982
 40
0.8749999999999982
 40
1.0
 40
1.0
 40
1.0
 40
1.0
 10
57.75200000000084
 20
-2.912498881782111
 30
0.0
 10
58.02370208523616
 20
-3.154164910233789
 30
0.0
 10
58.28210267056657
 20
-3.373038093859194
 30
0.0
 10
58.65733844327507
 20
-3.663388329750529
 30
0.0
 10
58.77956766602077
 20
-3.753264091790649
 30
0.0
 10
59.01309952013852
 20
-3.915876968312841
 30
0.0
 10
59.12512651002032
 20
-3.989345169477828
 30
0.0
 10
59.33974443934432
 20
-4.121196845429917
 30
0.0
 10
59.44292598486243
 20
-4.179827368417993
 30
0.0
 10
59.63421135794762
 20
-4.282746890318715
 30
0.0
 10
59.7222822894359
 20
-4.327066322598624
 30
0.0
 10
59.8812278362924
 20
-4.407217998710744
 30
0.0
 10
59.95211160600884
 20
-4.442994398322167
 30
0.0
 10
60.07335927954678
 20
-4.514482958656751
 30
0.0
 10
60.12361129718236
 20
-4.550149162423472
 30
0.0
 10
60.1971863902911
 20
-4.632824618605402
 30
0.0
 10
60.2210678587702
 20
-4.680354609032445
 30
0.0
 10
60.2292400698598
 20
-4.772174842721175
 30
0.0
 10
60.22740051927604
 20
-4.806246667484271
 30
0.0
 10
60.21161162781797
 20
-4.884912145329502
 30
0.0
 10
60.19741604433086
 20
-4.930142106639796
 30
0.0
 10
60.15224796926719
 20
-5.032565307230136
 30
0.0
 10
60.12060244890959
 20
-5.091037600685945
 30
0.0
 10
60.0369763547863
 20
-5.217134190896996
 30
0.0
 10
59.98322534724862
 20
-5.286918588260221
 30
0.0
 10
59.85968095072649
 20
-5.423613838797431
 30
0.0
 10
59.78854067240962
 20
-5.491991094909667
 30
0.0
 10
59.64105400854871
 20
-5.615086734914255
 30
0.0
 10
59.56397864178127
 20
-5.6706968908404
 30
0.0
 10
59.41117757599039
 20
-5.766764343010415
 30
0.0
 10
59.33352394675786
 20
-5.80848343248655
 30
0.0
 10
59.18134958946058
 20
-5.878400610707843
 30
0.0
 10
59.10639903375942
 20
-5.906948508839809
 30
0.0
 10
58.88238075835579
 20
-5.97718169964614
 30
0.0
 10
58.73438301968042
 20
-6.003009138773177
 30
0.0
 10
58.30360444389147
 20
-6.028705217616907
 30
0.0
 10
58.02373644646529
 20
-5.978713102965363
 30
0.0
 10
57.75200000000084
 20
-5.875552639596775
 30
0.0
  0
SPLINE
  5
C7
330
1F
100
AcDbEntity
  8
0
  6
Continuous
 62
     1
370
    15
100
AcDbSpline
210
0.0
220
0.0
230
1.0
 70
     8
 71
     3
 72
    23
 73
    19
 74
     0
 42
0.000000001
 43
0.00000001
 40
0.0
 40
0.0
 40
0.0
 40
0.0
 40
0.0677901108653959
 40
0.135555526937077
 40
0.2034477921769531
 40
0.2664370567781724
 40
0.3293260579710053
 40
0.3923612649496298
 40
0.4553414778186773
 40
0.5182317536408386
 40
0.581274167531873
 40
0.6442457485699715
 40
0.7071377237904203
 40
0.7701865169786665
 40
0.833149886553578
 40
0.8960439858491569
 40
0.9590983302806044
 40
0.9999999999999999
 40
0.9999999999999999
 40
0.9999999999999999
 40
0.9999999999999999
 10
57.75200000000083
 20
-5.875552639596761
 30
0.0
 10
57.35706787586832
 20
-5.705975045030088
 30
0.0
 10
56.5673474947133
 20
-5.366881630153532
 30
0.0
 10
55.38294256346632
 20
-4.616167846187808
 30
0.0
 10
54.22446195273374
 20
-3.742111172086743
 30
0.0
 10
53.09515214602793
 20
-2.76696645038153
 30
0.0
 10
51.99594667594803
 20
-1.732503923036969
 30
0.0
 10
50.89418463412906
 20
-0.6484038609933622
 30
0.0
 10
49.79338334942322
 20
0.4559873240365007
 30
0.0
 10
48.69415708517666
 20
1.548341908578991
 30
0.0
 10
47.5922693369707
 20
2.591645403132938
 30
0.0
 10
46.49161962228965
 20
3.558534000567473
 30
0.0
 10
45.39236305749333
 20
4.419944255534939
 30
0.0
 10
44.29036748920407
 20
5.146334286110808
 30
0.0
 10
43.18985006465564
 20
5.721727602585787
 30
0.0
 10
42.0905999097239
 20
6.118253204456373
 30
0.0
 10
41.11703019272628
 20
6.331064189644802
 30
0.0
 10
40.51157876220559
 20
6.329090516670726
 30
0.0
 10
40.27336287210463
 20
6.328313971698517
 30
0.0
  0
SPLINE
  5
C8
330
1F
100
AcDbEntity
  8
0
  6
Continuous
 62
     1
370
    15
100
AcDbSpline
210
0.0
220
0.0
230
1.0
 70
     8
 71
     3
 72
    19
 73
    15
 74
     0
 42
0.000000001
 43
0.00000001
 40
0.0
 40
0.0
 40
0.0
 40
0.0
 40
0.0227110557056517
 40
0.1104469896300886
 40
0.1979707120733234
 40
0.2854988194066279
 40
0.3732344018923852
 40
0.4607513992219049
 40
0.5482871789543908
 40
0.6360212560804251
 40
0.7269539575588623
 40
0.8178920752696942
 40
0.9090344653154026
 40
1.0
 40
1.0
 40
1.0
 40
1.0
 10
22.56535455473249
 20
-5.942063464282643
 30
0.0
 10
22.47029263362056
 20
-5.979995429751097
 30
0.0
 10
22.00799342783537
 20
-6.164463798418812
 30
0.0
 10
21.17722446337894
 20
-6.315461274703384
 30
0.0
 10
20.07761722198214
 20
-6.379421921730995
 30
0.0
 10
18.97783061076816
 20
-6.237793172616309
 30
0.0
 10
17.87546895952257
 20
-5.913781255206471
 30
0.0
 10
16.77585171622306
 20
-5.410696338844728
 30
0.0
 10
15.67597479022381
 20
-4.745491949468633
 30
0.0
 10
14.55934791218545
 20
-3.929383133670767
 30
0.0
 10
13.43104837562179
 20
-2.977253180170915
 30
0.0
 10
12.28838052483195
 20
-1.916926136730736
 30
0.0
 10
11.14310632410763
 20
-0.7960404398374527
 30
0.0
 10
10.38078866469392
 20
-0.0318444962474564
 30
0.0
 10
10.00000000000085
 20
0.3498823984794699
 30
0.0
  0
SPLINE
  5
C9
330
1F
100
AcDbEntity
  8
0
  6
Continuous
 62
     1
370
    15
100
AcDbSpline
210
0.0
220
0.0
230
1.0
 70
    24
 71
     3
 72
    16
 73
    12
 74
     0
 42
0.000000001
 43
0.00000001
 40
0.0
 40
0.0
 40
0.0
 40
0.0
 40
0.25
 40
0.25
 40
0.4999999999999999
 40
0.4999999999999999
 40
0.7499999999999998
 40
0.7499999999999998
 40
0.8749999999999999
 40
0.8749999999999999
 40
1.0
 40
1.0
 40
1.0
 40
1.0
 10
10.00000000000084
 20
4.376597104161823
 30
0.0
 10
10.00000000000084
 20
4.131454794238215
 30
0.0
 10
10.00000000000084
 20
3.84434703130989
 30
0.0
 10
10.00000000000084
 20
3.183067282005552
 30
0.0
 10
10.00000000000084
 20
2.807364753973224
 30
0.0
 10
10.00000000000085
 20
2.016679791646074
 30
0.0
 10
10.00000000000085
 20
1.601974150627191
 30
0.0
 10
10.00000000000085
 20
1.049733879446804
 30
0.0
 10
10.00000000000085
 20
0.8779600247799921
 30
0.0
 10
10.00000000000085
 20
0.5777556944085733
 30
0.0
 10
10.00000000000085
 20
0.449509145074016
 30
0.0
 10
10.00000000000085
 20
0.349882398479472
 30
0.0
  0
SPLINE
  5
CA
330
1F
100
AcDbEntity
  8
0
  6
Continuous
 62
     1
370
    15
100
AcDbSpline
210
0.0
220
0.0
230
1.0
 70
     8
 71
     3
 72
    21
 73
    17
 74
     0
 42
0.000000001
 43
0.00000001
 40
0.0
 40
0.0
 40
0.0
 40
0.0
 40
0.0772121579907872
 40
0.1545744320022306
 40
0.2317633182811847
 40
0.3089476072256324
 40
0.3834168822947008
 40
0.4577178412016889
 40
0.5320028574786437
 40
0.6064734103071765
 40
0.6807678568301082
 40
0.7550585814288417
 40
0.8295294325608908
 40
0.9038178662945058
 40
0.9781147990113103
 40
1.0
 40
1.0
 40
1.0
 40
1.0
 10
10.00000000000151
 20
4.376597104167999
 30
0.0
 10
10.38078866451099
 20
4.086676809423364
 30
0.0
 10
11.14310632355715
 20
3.506272556359767
 30
0.0
 10
12.2883805270391
 20
2.486613792781772
 30
0.0
 10
13.43104836736786
 20
1.394697574425053
 30
0.0
 10
14.55934794254283
 20
0.2689237519427122
 30
0.0
 10
15.67597468145625
 20
-0.8470760461229242
 30
0.0
 10
16.77585212157489
 20
-1.926012187064771
 30
0.0
 10
17.87546744524963
 20
-2.947312529789619
 30
0.0
 10
18.97783627226817
 20
-3.877857961747778
 30
0.0
 10
20.07759615075885
 20
-4.694711750838404
 30
0.0
 10
21.1773031841971
 20
-5.369568890837028
 30
0.0
 10
22.27966922484727
 20
-5.886056119081427
 30
0.0
 10
23.37936152600581
 20
-6.21326515772933
 30
0.0
 10
24.2198241547205
 20
-6.361059882854055
 30
0.0
 10
24.69485143431
 20
-6.335915625891195
 30
0.0
 10
24.80293873793293
 20
-6.330194323023987
 30
0.0
  0
SPLINE
  5
CB
330
1F
100
AcDbEntity
  8
0
  6
Continuous
 62
     1
370
    15
100
AcDbSpline
210
0.0
220
0.0
230
1.0
 70
     8
 71
     3
 72
    21
 73
    17
 74
     0
 42
0.000000001
 43
0.00000001
 40
0.0
 40
0.0
 40
0.0
 40
0.0
 40
0.0443667574378986
 40
0.1165865224533009
 40
0.1889042694115921
 40
0.2610421442178537
 40
0.3332713278832711
 40
0.405581757708622
 40
0.4777176832839921
 40
0.5499567677664556
 40
0.6222589311739791
 40
0.6943933947337166
 40
0.7666428616651323
 40
0.8445161310770177
 40
0.9222439029213296
 40
1.0
 40
1.0
 40
1.0
 40
1.0
 10
42.51399383921795
 20
5.938077500715519
 30
0.0
 10
42.73920418550532
 20
6.017771620214327
 30
0.0
 10
43.33100968607408
 20
6.227191032154653
 30
0.0
 10
44.29033659204944
 20
6.360225023951962
 30
0.0
 10
45.39237131780425
 20
6.350972104839528
 30
0.0
 10
46.49161740823067
 20
6.143486263969914
 30
0.0
 10
47.59226993133215
 20
5.754005578144454
 30
0.0
 10
48.69415692627817
 20
5.192416685057774
 30
0.0
 10
49.79338339202312
 20
4.473759717078287
 30
0.0
 10
50.89418462269575
 20
3.621955653177584
 30
0.0
 10
51.99594667900408
 20
2.662604745276177
 30
0.0
 10
53.09515214521044
 20
1.621137420876604
 30
0.0
 10
54.22446195297194
 20
0.504374904153753
 30
0.0
 10
55.38294256340092
 20
-0.6556389827089777
 30
0.0
 10
56.56734749472965
 20
-1.830105201440731
 30
0.0
 10
57.35706787587377
 20
-2.551657172152708
 30
0.0
 10
57.75200000000084
 20
-2.912498881782262
 30
0.0
  0
SPLINE
  5
CC
330
1F
100
AcDbEntity
  8
0
  6
Continuous
 62
     1
370
    15
100
AcDbSpline
210
0.0
220
0.0
230
1.0
 70
     8
 71
     3
 72
    42
 73
    38
 74
     0
 42
0.000000001
 43
0.00000001
 40
0.0
 40
0.0
 40
0.0
 40
0.0
 40
0.1250000000000001
 40
0.1250000000000001
 40
0.1875000000000001
 40
0.1875000000000001
 40
0.2500000000000001
 40
0.2500000000000001
 40
0.3125000000000001
 40
0.3125000000000001
 40
0.3750000000000002
 40
0.3750000000000002
 40
0.4375000000000001
 40
0.4375000000000001
 40
0.5000000000000001
 40
0.5000000000000001
 40
0.5625
 40
0.5625
 40
0.59375
 40
0.59375
 40
0.625
 40
0.625
 40
0.6562500000000001
 40
0.6562500000000001
 40
0.6875
 40
0.6875
 40
0.7187499999999999
 40
0.7187499999999999
 40
0.7499999999999998
 40
0.7499999999999998
 40
0.7812499999999997
 40
0.7812499999999997
 40
0.8124999999999994
 40
0.8124999999999994
 40
0.874999999999999
 40
0.874999999999999
 40
1.0
 40
1.0
 40
1.0
 40
1.0
 10
57.75200000000084
 20
6.342954639459267
 30
0.0
 10
58.02370208523616
 20
6.355762101340073
 30
0.0
 10
58.2821026705666
 20
6.316091217397948
 30
0.0
 10
58.65733844327507
 20
6.181658541543375
 30
0.0
 10
58.77956766602075
 20
6.124182621880806
 30
0.0
 10
59.01309952013852
 20
5.987450328096213
 30
0.0
 10
59.12512651002033
 20
5.907943234672691
 30
0.0
 10
59.33974443934434
 20
5.727258281738478
 30
0.0
 10
59.44292598486243
 20
5.625315525270059
 30
0.0
 10
59.63421135794761
 20
5.404470547670846
 30
0.0
 10
59.7222822894359
 20
5.285848965798262
 30
0.0
 10
59.88122783629245
 20
5.035528717720496
 30
0.0
 10
59.95211160600886
 20
4.903793717043976
 30
0.0
 10
60.07335927954676
 20
4.631937278413851
 30
0.0
 10
60.12361129718235
 20
4.491833186429842
 30
0.0
 10
60.1971863902911
 20
4.216151532622993
 30
0.0
 10
60.2210678587702
 20
4.078778299645318
 30
0.0
 10
60.22924006985976
 20
3.891033269247625
 30
0.0
 10
60.22740051927607
 20
3.83137066710444
 30
0.0
 10
60.21161162781797
 20
3.720893079962277
 30
0.0
 10
60.19741604433086
 20
3.669526347807468
 30
0.0
 10
60.15224796926719
 20
3.58522761864426
 30
0.0
 10
60.12060244890958
 20
3.551612279930772
 30
0.0
 10
60.0369763547863
 20
3.513403358518741
 30
0.0
 10
59.98322534724863
 20
3.508805250649118
 30
0.0
 10
59.85968095072649
 20
3.532084117011684
 30
0.0
 10
59.78854067240962
 20
3.559898783803135
 30
0.0
 10
59.64105400854873
 20
3.63586679742357
 30
0.0
 10
59.56397864178128
 20
3.683951802952389
 30
0.0
 10
59.4111775759904
 20
3.787861992668324
 30
0.0
 10
59.33352394675788
 20
3.844989477639545
 30
0.0
 10
59.18134958946057
 20
3.960933947143508
 30
0.0
 10
59.10639903375942
 20
4.020114801376077
 30
0.0
 10
58.88238075835581
 20
4.198171503870947
 30
0.0
 10
58.73438301968041
 20
4.317421465797893
 30
0.0
 10
58.30360444389147
 20
4.653726915039961
 30
0.0
 10
58.02373644646529
 20
4.857136685143422
 30
0.0
 10
57.75200000000084
 20
5.023510215695851
 30
0.0
  0
SPLINE
  5
CD
330
1F
100
AcDbEntity
  8
0
  6
Continuous
 62
     1
370
    15
100
AcDbSpline
210
0.0
220
0.0
230
1.0
 70
     8
 71
     3
 72
    11
 73
     7
 74
     0
 42
0.000000001
 43
0.00000001
 40
0.0
 40
0.0
 40
0.0
 40
0.0
 40
0.2835304342316914
 40
0.5669575831095788
 40
0.850915275444043
 40
1.0
 40
1.0
 40
1.0
 40
1.0
 10
57.75200000000083
 20
5.023510215695866
 30
0.0
 10
57.35706444756931
 20
5.248797070769589
 30
0.0
 10
56.56733721106514
 20
5.699288712716501
 30
0.0
 10
55.38298371264565
 20
6.121617040974701
 30
0.0
 10
54.38380561112989
 20
6.339042338152953
 30
0.0
 10
53.78056006584789
 20
6.329769353896027
 30
0.0
 10
53.57287903403632
 20
6.326576917659222
 30
0.0
  0
SPLINE
  5
CE
330
1F
100
AcDbEntity
  8
0
  6
Continuous
 62
     1
370
    15
100
AcDbSpline
210
0.0
220
0.0
230
1.0
 70
     8
 71
     3
 72
    28
 73
    24
 74
     0
 42
0.000000001
 43
0.00000001
 40
0.0
 40
0.0
 40
0.0
 40
0.0
 40
0.0170024430634076
 40
0.0666768644554494
 40
0.1162554236258716
 40
0.1658038586338927
 40
0.2154806943269389
 40
0.2650541131693338
 40
0.314605558278585
 40
0.3642841550840189
 40
0.4138527662901123
 40
0.4634075553822095
 40
0.5130872599901991
 40
0.5626513965119567
 40
0.612209863287364
 40
0.661890022311823
 40
0.7114500173434759
 40
0.7610124953034595
 40
0.8106924553270222
 40
0.8602486422870688
 40
0.9098154647156684
 40
0.959494572334668
 40
1.0
 40
1.0
 40
1.0
 40
1.0
 10
35.86449234117939
 20
-5.939093275984417
 30
0.0
 10
35.73883067791594
 20
-5.988003340787107
 30
0.0
 10
35.24603528037126
 20
-6.17980929180216
 30
0.0
 10
34.38465890101162
 20
-6.328354080575676
 30
0.0
 10
33.2846089077785
 20
-6.374852260161265
 30
0.0
 10
32.18514211001621
 20
-6.217687292854237
 30
0.0
 10
31.08284872985285
 20
-5.878248890851061
 30
0.0
 10
29.98284329963862
 20
-5.361157696554872
 30
0.0
 10
28.88332832917611
 20
-4.682996942763244
 30
0.0
 10
27.78099105313739
 20
-3.866511765756721
 30
0.0
 10
26.68109394896676
 20
-2.932385171074074
 30
0.0
 10
25.58150428696619
 20
-1.909888968542883
 30
0.0
 10
24.4791426531041
 20
-0.8329016371504051
 30
0.0
 10
23.37934508687193
 20
0.2715822717384569
 30
0.0
 10
22.27967364643784
 20
1.368037325972196
 30
0.0
 10
21.17730198437291
 20
2.420883458553391
 30
0.0
 10
20.07759653529431
 20
3.403738468793354
 30
0.0
 10
18.97783593214928
 20
4.284418648257549
 30
0.0
 10
17.87546842171554
 20
5.034491344589552
 30
0.0
 10
16.77584856591612
 20
5.637180247618049
 30
0.0
 10
15.67598794716263
 20
6.064427549214964
 30
0.0
 10
14.64067625580306
 20
6.315578603259598
 30
0.0
 10
13.97409958089852
 20
6.327432747680582
 30
0.0
 10
13.67471373604586
 20
6.332756910940557
 30
0.0
  0
SPLINE
  5
CF
330
1F
100
AcDbEntity
  8
0
  6
Continuous
 62
     1
370
    15
100
AcDbSpline
210
0.0
220
0.0
230
1.0
 70
     8
 71
     3
 72
    28
 73
    24
 74
     0
 42
0.000000001
 43
0.00000001
 40
0.0
 40
0.0
 40
0.0
 40
0.0
 40
0.0387825375046004
 40
0.0883432773474414
 40
0.138027801625219
 40
0.1875948330459709
 40
0.2371593813102783
 40
0.2868441046072351
 40
0.3364071244748907
 40
0.3859758146097939
 40
0.4356600834485326
 40
0.4852194252949975
 40
0.5347925905253399
 40
0.5844757514597457
 40
0.6340317490161425
 40
0.683609722324479
 40
0.733291121984698
 40
0.7828441091633173
 40
0.8324272232719391
 40
0.8821062084093444
 40
0.9316565192855782
 40
0.9812451066385635
 40
1.0
 40
1.0
 40
1.0
 40
1.0
 10
15.91569628504216
 20
5.944018347860624
 30
0.0
 10
16.20246145642824
 20
6.038709370448782
 30
0.0
 10
16.85568779744169
 20
6.254407357457136
 30
0.0
 10
17.87543305821085
 20
6.372313824480088
 30
0.0
 10
18.97784539275927
 20
6.329345209332033
 30
0.0
 10
20.07759400319756
 20
6.091040350960685
 30
0.0
 10
21.1773026647252
 20
5.671247076788518
 30
0.0
 10
22.27967346442517
 20
5.08255194530521
 30
0.0
 10
23.37934513568875
 20
4.340183378850132
 30
0.0
 10
24.47914263963479
 20
3.467512355372475
 30
0.0
 10
25.58150429188939
 20
2.493255607656081
 30
0.0
 10
26.68109394273527
 20
1.441774190391396
 30
0.0
 10
27.78099107317382
 20
0.3472986640152333
 30
0.0
 10
28.88332825516949
 20
-0.755109437700984
 30
0.0
 10
29.98284357484689
 20
-1.837748642951007
 30
0.0
 10
31.08284770132864
 20
-2.864718896022093
 30
0.0
 10
32.18514595318096
 20
-3.803844422751939
 30
0.0
 10
33.28459460348795
 20
-4.631628548274256
 30
0.0
 10
34.38471236948418
 20
-5.318943584286262
 30
0.0
 10
35.48696013497935
 20
-5.849242016506499
 30
0.0
 10
36.58633891574374
 20
-6.193238630660382
 30
0.0
 10
37.45799958852168
 20
-6.354581741310205
 30
0.0
 10
37.96386511386766
 20
-6.333386188379958
 30
0.0
 10
38.10268528930963
 20
-6.327569681365856
 30
0.0
  0
SPLINE
  5
D0
330
1F
100
AcDbEntity
  8
0
  6
Continuous
 62
     1
370
    15
100
AcDbSpline
210
0.0
220
0.0
230
1.0
 70
     8
 71
     3
 72
     9
 73
     5
 74
     0
 42
0.000000001
 43
0.00000001
 40
0.0
 40
0.0
 40
0.0
 40
0.0
 40
0.3888795980238949
 40
1.0
 40
1.0
 40
1.0
 40
1.0
 10
55.8136392939154
 20
5.935242052501145
 30
0.0
 10
56.06486528547989
 20
6.024772216361415
 30
0.0
 10
56.71089041212861
 20
6.254998137996854
 30
0.0
 10
57.35709263673905
 20
6.309591513737868
 30
0.0
 10
57.75200000000083
 20
6.34295463946595
 30
0.0
  0
SPLINE
  5
D2
330
1F
100
AcDbEntity
  8
0
  6
Continuous
 62
     1
370
    15
100
AcDbSpline
210
0.0
220
0.0
230
1.0
 70
     8
 71
     3
 72
    28
 73
    24
 74
     0
 42
0.000000001
 43
0.00000001
 40
0.0
 40
0.0
 40
0.0
 40
0.0
 40
0.0193993578509345
 40
0.0728778985442675
 40
0.1224943598350731
 40
0.1720318439294854
 40
0.2216844938979103
 40
0.2712938251655008
 40
0.3208323132817433
 40
0.3704906401142002
 40
0.4200931721135526
 40
0.4696329988409043
 40
0.5192963506272984
 40
0.5688924144808811
 40
0.6184339143360608
 40
0.6681016388206468
 40
0.7176915660006236
 40
0.7672350734096639
 40
0.8169065180358603
 40
0.8664906403462611
 40
0.9160364896263908
 40
0.965711001581638
 40
1.0
 40
1.0
 40
1.0
 40
1.0
 10
55.8136392939154
 20
-5.935242052501128
 30
0.0
 10
55.67022542743212
 20
-5.991145833276014
 30
0.0
 10
55.13146010892414
 20
-6.201160520094979
 30
0.0
 10
54.22443179867008
 20
-6.342936496226946
 30
0.0
 10
53.09515995389834
 20
-6.365938149863511
 30
0.0
 10
51.99594457998663
 20
-6.185012770556019
 30
0.0
 10
50.8941851949401
 20
-5.822580411767763
 30
0.0
 10
49.79338320254838
 20
-5.284735598637986
 30
0.0
 10
48.69415711309929
 20
-4.587578145869407
 30
0.0
 10
47.59226937258345
 20
-3.754761157091761
 30
0.0
 10
46.49161945226871
 20
-2.808651450727528
 30
0.0
 10
45.39236370181928
 20
-1.776915225704135
 30
0.0
 10
44.2903650764502
 20
-0.6946319372145005
 30
0.0
 10
43.18985905141707
 20
0.4099229178549628
 30
0.0
 10
42.09056637416576
 20
1.503428136597322
 30
0.0
 10
40.98847115773836
 20
2.549118476681434
 30
0.0
 10
39.88810187633934
 20
3.520114648857769
 30
0.0
 10
38.78876404516983
 20
4.386439231258304
 30
0.0
 10
37.68658937791239
 20
5.11876036425064
 30
0.0
 10
36.58633929441811
 20
5.701013725005486
 30
0.0
 10
35.48698676953643
 20
6.10539223894118
 30
0.0
 10
34.49787900769736
 20
6.327085104289885
 30
0.0
 10
33.87716564419544
 20
6.328930362708586
 30
0.0
 10
33.62367886827734
 20
6.32968392890322
 30
0.0
  0
SPLINE
  5
D3
330
1F
100
AcDbEntity
  8
0
  6
Continuous
 62
     1
370
    15
100
AcDbSpline
210
0.0
220
0.0
230
1.0
 70
     8
 71
     3
 72
    13
 73
     9
 74
     0
 42
0.000000001
 43
0.00000001
 40
0.0
 40
0.0
 40
0.0
 40
0.0
 40
0.0404693085891684
 40
0.2268344852298709
 40
0.4199941961264752
 40
0.613165412211714
 40
0.8067705446384602
 40
0.9999999999999999
 40
0.9999999999999999
 40
0.9999999999999999
 40
0.9999999999999999
 10
15.91569628504217
 20
-5.944018347860612
 30
0.0
 10
15.83594270767211
 20
-5.976213109598103
 30
0.0
 10
15.38891600277753
 20
-6.156667939700554
 30
0.0
 10
14.55926103259356
 20
-6.311179017185455
 30
0.0
 10
13.43107199801322
 20
-6.382952052403563
 30
0.0
 10
12.28837420915775
 20
-6.229583807344278
 30
0.0
 10
11.14310790092506
 20
-5.892048867594098
 30
0.0
 10
10.38078918995932
 20
-5.507869247793125
 30
0.0
 10
10.00000000000085
 20
-5.315965987230049
 30
0.0
  0
SPLINE
  5
D4
330
1F
100
AcDbEntity
  8
0
  6
Continuous
 62
     1
370
    15
100
AcDbSpline
210
0.0
220
0.0
230
1.0
 70
    24
 71
     3
 72
    16
 73
    12
 74
     0
 42
0.000000001
 43
0.00000001
 40
0.0
 40
0.0
 40
0.0
 40
0.0
 40
0.2500000000000002
 40
0.2500000000000002
 40
0.5000000000000002
 40
0.5000000000000002
 40
0.7500000000000002
 40
0.7500000000000002
 40
0.8750000000000001
 40
0.8750000000000001
 40
1.0
 40
1.0
 40
1.0
 40
1.0
 10
10.00000000000084
 20
-1.796161679981414
 30
0.0
 10
10.00000000000084
 20
-1.840086710648617
 30
0.0
 10
10.00000000000084
 20
-1.920632622147309
 30
0.0
 10
10.00000000000084
 20
-2.20785161689904
 30
0.0
 10
10.00000000000085
 20
-2.416196061221521
 30
0.0
 10
10.00000000000085
 20
-3.004615993301873
 30
0.0
 10
10.00000000000085
 20
-3.387494032979224
 30
0.0
 10
10.00000000000085
 20
-4.064583288613227
 30
0.0
 10
10.00000000000085
 20
-4.306397961041571
 30
0.0
 10
10.00000000000085
 20
-4.805362440568683
 30
0.0
 10
10.00000000000085
 20
-5.062350665341285
 30
0.0
 10
10.00000000000085
 20
-5.315965987230043
 30
0.0
  0
SPLINE
  5
D5
330
1F
100
AcDbEntity
  8
0
  6
Continuous
 62
     1
370
    15
100
AcDbSpline
210
0.0
220
0.0
230
1.0
 70
     8
 71
     3
 72
    15
 73
    11
 74
     0
 42
0.000000001
 43
0.00000001
 40
0.0
 40
0.0
 40
0.0
 40
0.0
 40
0.1401885815799221
 40
0.2806497180599509
 40
0.4207960468605478
 40
0.5609340286103687
 40
0.6961425542477884
 40
0.831045480292695
 40
0.9659194604468356
 40
1.0
 40
1.0
 40
1.0
 40
1.0
 10
10.00000000000152
 20
-1.796161679980867
 30
0.0
 10
10.38078865067755
 20
-2.156177710986076
 30
0.0
 10
11.14310628202994
 20
-2.876909716831159
 30
0.0
 10
12.28838069336928
 20
-3.846897247500736
 30
0.0
 10
13.43104774524632
 20
-4.698918986988962
 30
0.0
 10
14.55935023061197
 20
-5.387744175841541
 30
0.0
 10
15.67596648351142
 20
-5.904047077357959
 30
0.0
 10
16.77588267344765
 20
-6.222718434666371
 30
0.0
 10
17.60080228801746
 20
-6.364181347281993
 30
0.0
 10
18.06039004744271
 20
-6.337409579915618
 30
0.0
 10
18.15309546213286
 20
-6.332009332096153
 30
0.0
  0
SPLINE
  5
D6
330
1F
100
AcDbEntity
  8
0
  6
Continuous
 62
     1
370
    15
100
AcDbSpline
210
0.0
220
0.0
230
1.0
 70
     8
 71
     3
 72
    27
 73
    23
 74
     0
 42
0.000000001
 43
0.00000001
 40
0.0
 40
0.0
 40
0.0
 40
0.0
 40
0.0329916875933791
 40
0.0832588729068252
 40
0.1336145834744369
 40
0.1838405943820845
 40
0.2341136645320692
 40
0.2844656037099893
 40
0.3346895794080329
 40
0.3849688707694653
 40
0.4353163770115973
 40
0.4855386565330694
 40
0.5358245051444215
 40
0.5861669172096483
 40
0.6363878396795167
 40
0.6866805812247474
 40
0.7370172382223639
 40
0.7872371428391565
 40
0.8375371126296715
 40
0.8917523652158919
 40
0.9458663226152495
 40
0.9999999999999999
 40
0.9999999999999999
 40
0.9999999999999999
 40
0.9999999999999999
 10
35.86449234117939
 20
5.939093275984431
 30
0.0
 10
36.1050618890887
 20
6.022826072543509
 30
0.0
 10
36.7121708573081
 20
6.234136823080694
 30
0.0
 10
37.68655361530649
 20
6.363779565446708
 30
0.0
 10
38.78877360703449
 20
6.346063360141872
 30
0.0
 10
39.88809931448645
 20
6.130860959292638
 30
0.0
 10
40.9884718457159
 20
5.733751142850204
 30
0.0
 10
42.09056619021582
 20
5.165384113211357
 30
0.0
 10
43.18985910076331
 20
4.440718654405934
 30
0.0
 10
44.29036506300782
 20
3.583591574334083
 30
0.0
 10
45.3923637061335
 20
2.620528856542861
 30
0.0
 10
46.49161944843086
 20
1.576377357215752
 30
0.0
 10
47.59226938364286
 20
0.4863090591878629
 30
0.0
 10
48.69415707269916
 20
-0.6170617527851289
 30
0.0
 10
49.79338335276837
 20
-1.704663181449884
 30
0.0
 10
50.89418463323126
 20
-2.739497529302561
 30
0.0
 10
51.99594667618802
 20
-3.69159668897599
 30
0.0
 10
53.09515214596372
 20
-4.534914340115468
 30
0.0
 10
54.22446195275246
 20
-5.260044783170471
 30
0.0
 10
55.38294256346117
 20
-5.827759579203109
 30
0.0
 10
56.56734749471457
 20
-6.22322268125924
 30
0.0
 10
57.35706787586875
 20
-6.303039139882673
 30
0.0
 10
57.75200000000083
 20
-6.342954639465935
 30
0.0
  0
SPLINE
  5
D7
330
1F
100
AcDbEntity
  8
0
  6
Continuous
 62
     1
370
    15
100
AcDbSpline
210
0.0
220
0.0
230
1.0
 70
     8
 71
     3
 72
    28
 73
    24
 74
     0
 42
0.000000001
 43
0.00000001
 40
0.0
 40
0.0
 40
0.0
 40
0.0
 40
0.0190732338359985
 40
0.0687411574493684
 40
0.1183312834462228
 40
0.1678749894860338
 40
0.2175466332559292
 40
0.2671309543599346
 40
0.3166770022802239
 40
0.3663517133914676
 40
0.4159305617219886
 40
0.4654792857144133
 40
0.5151564111407425
 40
0.564730119113256
 40
0.6142818532244668
 40
0.6639607397734552
 40
0.7135296400816272
 40
0.7630847181951875
 40
0.8127647125531926
 40
0.8623291381509309
 40
0.9118878939692509
 40
0.9615683427463758
 40
1.0
 40
1.0
 40
1.0
 40
1.0
 10
42.51399383921789
 20
-5.938077500715502
 30
0.0
 10
42.37303513676221
 20
-5.992219961425798
 30
0.0
 10
41.86501093684516
 20
-6.187352860670089
 30
0.0
 10
40.98843095568822
 20
-6.334250879045185
 30
0.0
 10
39.88811249139681
 20
-6.372078987619552
 30
0.0
 10
38.78876170795633
 20
-6.20715018056385
 30
0.0
 10
37.68658807926629
 20
-5.860002360965616
 30
0.0
 10
36.58634680461122
 20
-5.335964821163988
 30
0.0
 10
35.48695801560731
 20
-4.651411474805392
 30
0.0
 10
34.38471293677009
 20
-3.829484308768732
 30
0.0
 10
33.28459445175138
 20
-2.891289622692179
 30
0.0
 10
32.18514599384355
 20
-1.865631420012907
 30
0.0
 10
31.08284769083842
 20
-0.7868790704779759
 30
0.0
 10
29.98284357619486
 20
0.3177153300539521
 30
0.0
 10
28.88332826025472
 20
1.413272900193566
 30
0.0
 10
27.78099105143519
 20
2.463733579435679
 30
0.0
 10
26.68109402437386
 20
3.442714653491606
 30
0.0
 10
25.58150398676476
 20
4.318671393048646
 30
0.0
 10
24.47914378051703
 20
5.062846756854526
 30
0.0
 10
23.37934088942592
 20
5.658699180285297
 30
0.0
 10
22.27968932726024
 20
6.078625661487337
 30
0.0
 10
21.25969465181483
 20
6.318829553030582
 30
0.0
 10
20.60847958989215
 20
6.328992414801054
 30
0.0
 10
20.32444059473436
 20
6.333425127147555
 30
0.0
  0
SPLINE
  5
D8
330
1F
100
AcDbEntity
  8
0
  6
Continuous
 62
     1
370
    15
100
AcDbSpline
210
0.0
220
0.0
230
1.0
 70
     8
 71
     3
 72
    28
 73
    24
 74
     0
 42
0.000000001
 43
0.00000001
 40
0.0
 40
0.0
 40
0.0
 40
0.0
 40
0.0367015352473461
 40
0.0862698890870493
 40
0.1359538208464525
 40
0.18551282646114
 40
0.2350856553659214
 40
0.2847684792285082
 40
0.3343241405758168
 40
0.3839017775259722
 40
0.4335828401263214
 40
0.4831354911162761
 40
0.5327182688318395
 40
0.5823969169257562
 40
0.6319468916314827
 40
0.6815351425542765
 40
0.7312107230637419
 40
0.7807583557033835
 40
0.8303524119790947
 40
0.8800242720371925
 40
0.9295698969558148
 40
0.9791700904161008
 40
1.0
 40
1.0
 40
1.0
 40
1.0
 10
22.56535455473245
 20
5.942063464282654
 30
0.0
 10
22.83669920976697
 20
6.03329632918163
 30
0.0
 10
23.47451648733946
 20
6.247746462749208
 30
0.0
 10
24.47910560612796
 20
6.369822338981645
 30
0.0
 10
25.58151419682983
 20
6.335250508579446
 30
0.0
 10
26.68109129084207
 20
6.104636931096641
 30
0.0
 10
27.78099178584536
 20
5.69236971511652
 30
0.0
 10
28.88332806383222
 20
5.110450293683947
 30
0.0
 10
29.98284362886053
 20
4.373927307412741
 30
0.0
 10
31.08284767643285
 20
3.5063687838077
 30
0.0
 10
32.18514599865719
 20
2.535842878915484
 30
0.0
 10
33.28459444688502
 20
1.48672342157002
 30
0.0
 10
34.38471295144987
 20
0.3936310447772796
 30
0.0
 10
35.48695796170735
 20
-0.7090984818469119
 30
0.0
 10
36.58634700499005
 20
-1.793475514259075
 30
0.0
 10
37.68658733024841
 20
-2.823156609218017
 30
0.0
 10
38.7887645056868
 20
-3.766573627439475
 30
0.0
 10
39.88810207656618
 20
-4.599723469582501
 30
0.0
 10
40.98846989388981
 20
-5.293182871315301
 30
0.0
 10
42.09057123220204
 20
-5.830407630414601
 30
0.0
 10
43.18984092799489
 20
-6.182679199724102
 30
0.0
 10
44.07715619082561
 20
-6.35121719679327
 30
0.0
 10
44.59841121322027
 20
-6.332343075248349
 30
0.0
 10
44.75257391520896
 20
-6.3267609984337
 30
0.0
  0
SPLINE
  5
D9
330
1F
100
AcDbEntity
  8
0
  6
Continuous
 62
     1
370
    15
100
AcDbSpline
210
0.0
220
0.0
230
1.0
 70
     8
 71
     3
 72
    42
 73
    38
 74
     0
 42
0.000000001
 43
0.00000001
 40
0.0
 40
0.0
 40
0.0
 40
0.0
 40
0.1250000000000002
 40
0.1250000000000002
 40
0.1875000000000002
 40
0.1875000000000002
 40
0.2500000000000003
 40
0.2500000000000003
 40
0.3125000000000004
 40
0.3125000000000004
 40
0.3750000000000005
 40
0.3750000000000005
 40
0.4375000000000006
 40
0.4375000000000006
 40
0.5000000000000007
 40
0.5000000000000007
 40
0.5625000000000008
 40
0.5625000000000008
 40
0.5937500000000008
 40
0.5937500000000008
 40
0.6250000000000009
 40
0.6250000000000009
 40
0.6562500000000009
 40
0.6562500000000009
 40
0.687500000000001
 40
0.687500000000001
 40
0.718750000000001
 40
0.718750000000001
 40
0.750000000000001
 40
0.750000000000001
 40
0.7812500000000011
 40
0.7812500000000011
 40
0.8125000000000011
 40
0.8125000000000011
 40
0.8750000000000013
 40
0.8750000000000013
 40
1.0
 40
1.0
 40
1.0
 40
1.0
 10
57.75200000000084
 20
3.430455757677161
 30
0.0
 10
58.02370208523615
 20
3.201597191106288
 30
0.0
 10
58.28210267056659
 20
2.943053123538749
 30
0.0
 10
58.65733844327506
 20
2.518270211792845
 30
0.0
 10
58.77956766602072
 20
2.370918530090163
 30
0.0
 10
59.01309952013851
 20
2.07157335978338
 30
0.0
 10
59.12512651002033
 20
1.918598065194852
 30
0.0
 10
59.33974443934436
 20
1.606061436308549
 30
0.0
 10
59.44292598486242
 20
1.445488156852067
 30
0.0
 10
59.63421135794761
 20
1.121723657352132
 30
0.0
 10
59.7222822894359
 20
0.9587826431996308
 30
0.0
 10
59.88122783629245
 20
0.6283107190097411
 30
0.0
 10
59.95211160600888
 20
0.4607993187218039
 30
0.0
 10
60.07335927954676
 20
0.1174543197570972
 30
0.0
 10
60.12361129718234
 20
-0.058315975993636
 30
0.0
 10
60.1971863902911
 20
-0.416673085982416
 30
0.0
 10
60.22106785877022
 20
-0.6015763093871355
 30
0.0
 10
60.22924006985978
 20
-0.8811415734735574
 30
0.0
 10
60.22740051927605
 20
-0.9748760003798446
 30
0.0
 10
60.21161162781796
 20
-1.164019065367235
 30
0.0
 10
60.19741604433086
 20
-1.260615758832341
 30
0.0
 10
60.1522479692672
 20
-1.447337688585889
 30
0.0
 10
60.12060244890962
 20
-1.539425320755197
 30
0.0
 10
60.0369763547863
 20
-1.703730832378279
 30
0.0
 10
59.98322534724862
 20
-1.778113337611125
 30
0.0
 10
59.85968095072651
 20
-1.891529721785772
 30
0.0
 10
59.78854067240964
 20
-1.932092311106547
 30
0.0
 10
59.64105400854871
 20
-1.979219937490702
 30
0.0
 10
59.5639786417813
 20
-1.986745087888033
 30
0.0
 10
59.41117757599041
 20
-1.978902350342116
 30
0.0
 10
59.33352394675785
 20
-1.963493954847011
 30
0.0
 10
59.18134958946055
 20
-1.917466663564336
 30
0.0
 10
59.10639903375943
 20
-1.886833707463759
 30
0.0
 10
58.88238075835583
 20
-1.779010195775218
 30
0.0
 10
58.73438301968039
 20
-1.685587672975295
 30
0.0
 10
58.30360444389146
 20
-1.37497830257696
 30
0.0
 10
58.02373644646527
 20
-1.121576417821952
 30
0.0
 10
57.75200000000084
 20
-0.8520424239009331
 30
0.0
  0
SPLINE
  5
DA
330
1F
100
AcDbEntity
  8
0
  6
Continuous
 62
     1
370
    15
100
AcDbSpline
210
0.0
220
0.0
230
1.0
 70
     8
 71
     3
 72
    17
 73
    13
 74
     0
 42
0.000000001
 43
0.00000001
 40
0.0
 40
0.0
 40
0.0
 40
0.0
 40
0.1094187866237327
 40
0.218797713829481
 40
0.3283813859735531
 40
0.4300512138437543
 40
0.5315592083676407
 40
0.6333031909947245
 40
0.734958408628441
 40
0.8364684605083741
 40
0.9382240756818743
 40
1.0
 40
1.0
 40
1.0
 40
1.0
 10
57.75200000000083
 20
-0.8520424239009047
 30
0.0
 10
57.35706787461818
 20
-0.4576902282139461
 30
0.0
 10
56.56734749096334
 20
0.3308705073081206
 30
0.0
 10
55.38294257847143
 20
1.511597675349776
 30
0.0
 10
54.22446189806597
 20
2.609236994682123
 30
0.0
 10
53.09515233364485
 20
3.596769153803494
 30
0.0
 10
51.99594597454281
 20
4.453192019604266
 30
0.0
 10
50.89418725823141
 20
5.173649773405193
 30
0.0
 10
49.79337357214762
 20
5.742144243419311
 30
0.0
 10
48.69419355460649
 20
6.130763403082735
 30
0.0
 10
47.73622292927482
 20
6.334944765403772
 30
0.0
 10
47.14604250120009
 20
6.329380292683756
 30
0.0
 10
46.92309504059325
 20
6.327278248963682
 30
0.0
  0
SPLINE
  5
DB
330
1F
100
AcDbEntity
  8
0
  6
Continuous
 62
     1
370
    15
100
AcDbSpline
210
0.0
220
0.0
230
1.0
 70
     8
 71
     3
 72
    25
 73
    21
 74
     0
 42
0.000000001
 43
0.00000001
 40
0.0
 40
0.0
 40
0.0
 40
0.0
 40
0.0172434698986352
 40
0.0746142105399312
 40
0.1318579356111467
 40
0.1890856983773016
 40
0.246457718351292
 40
0.3036962758861642
 40
0.3609282857814434
 40
0.4183008305329252
 40
0.4755346053168755
 40
0.5327712474812764
 40
0.590143562418924
 40
0.6473729394963665
 40
0.7046145988190251
 40
0.7619859293673329
 40
0.8214489139346138
 40
0.8809154403008083
 40
0.940515545044185
 40
1.0
 40
1.0
 40
1.0
 40
1.0
 10
29.21494957773235
 20
-5.94042186036156
 30
0.0
 10
29.10458581981967
 20
-5.983927055341264
 30
0.0
 10
28.62703085453246
 20
-6.172178364206502
 30
0.0
 10
27.78092440104342
 20
-6.322091785895456
 30
0.0
 10
26.68111178464894
 20
-6.377299628217882
 30
0.0
 10
25.58149949477835
 20
-6.227902217928267
 30
0.0
 10
24.47914393487501
 20
-5.896175372728599
 30
0.0
 10
23.37934474504968
 20
-5.386069166901112
 30
0.0
 10
22.27967373372709
 20
-4.714356961936273
 30
0.0
 10
21.17730197805848
 20
-3.903313239243845
 30
0.0
 10
20.07759647360633
 20
-2.973327140595315
 30
0.0
 10
18.97783618552425
 20
-1.954075251989015
 30
0.0
 10
17.87546746845092
 20
-0.878849612918101
 30
0.0
 10
16.77585211536422
 20
0.2254252853001647
 30
0.0
 10
15.67597468312277
 20
1.322735549355549
 30
0.0
 10
14.55934794207765
 20
2.391542704362688
 30
0.0
 10
13.43104836749416
 20
3.403048730671636
 30
0.0
 10
12.28838052700495
 20
4.313366211522456
 30
0.0
 10
11.1431063235651
 20
5.095831528248601
 30
0.0
 10
10.38078866451319
 20
5.475965823232517
 30
0.0
 10
10.00000000000085
 20
5.665848385709546
 30
0.0
  0
LINE
  5
DC
330
1F
100
AcDbEntity
  8
0
  6
Continuous
 62
     1
370
    15
100
AcDbLine
 10
9.999999999999996
 20
6.172758784142577
 30
0.0
 11
10.00000000000073
 21
5.736302716350467
 31
0.0
  0
SPLINE
  5
DD
330
1F
100
AcDbEntity
  8
0
  6
Continuous
 62
     1
370
    15
100
AcDbSpline
210
0.0
220
0.0
230
1.0
 70
     8
 71
     3
 72
    27
 73
    23
 74
     0
 42
0.000000001
 43
0.00000001
 40
0.0
 40
0.0
 40
0.0
 40
0.0
 40
0.0532781432226424
 40
0.1066598699100738
 40
0.1599219551228334
 40
0.2131808680703352
 40
0.2645663597605116
 40
0.3158357094748209
 40
0.3670940584122012
 40
0.4184804317854378
 40
0.4697452878067912
 40
0.5210075756158883
 40
0.5723941548253284
 40
0.6236548618854466
 40
0.6749214334370569
 40
0.726307542621675
 40
0.7775644456769663
 40
0.8288356456099178
 40
0.8802206089410426
 40
0.9314740531539557
 40
0.9827502258564891
 40
1.0
 40
1.0
 40
1.0
 40
1.0
 10
10.00000000000151
 20
6.172758784148888
 30
0.0
 10
10.38078866451374
 20
6.242850223748968
 30
0.0
 10
11.14310632356542
 20
6.383169374855898
 30
0.0
 10
12.28838052700598
 20
6.333562702371069
 30
0.0
 10
13.43104836749174
 20
6.093423330725168
 30
0.0
 10
14.55934794208725
 20
5.657378601106265
 30
0.0
 10
15.67597468308854
 20
5.054424752992752
 30
0.0
 10
16.77585211549172
 20
4.306195646527801
 30
0.0
 10
17.87546746797454
 20
3.428501175588755
 30
0.0
 10
18.97783618730522
 20
2.450508517131054
 30
0.0
 10
20.07759646697777
 20
1.396748395628122
 30
0.0
 10
21.17730200282231
 20
0.3009757078089754
 30
0.0
 10
22.27967364115302
 20
-0.8011109981226473
 30
0.0
 10
23.37934508958787
 20
-1.881926604202161
 30
0.0
 10
24.47914264751207
 20
-2.906105765186772
 30
0.0
 10
25.5815043066429
 20
-3.840940163654689
 30
0.0
 10
26.68109387606092
 20
-4.663292160019816
 30
0.0
 10
27.78099132549908
 20
-5.344406183174958
 30
0.0
 10
28.88332731132717
 20
-5.867791865450147
 30
0.0
 10
29.98284708790376
 20
-6.20343555493003
 30
0.0
 10
30.83888938154841
 20
-6.357861422173947
 30
0.0
 10
31.32934415357737
 20
-6.334575844133174
 30
0.0
 10
31.4528044548865
 20
-6.328714254757302
 30
0.0
  0
SPLINE
  5
DE
330
1F
100
AcDbEntity
  8
0
  6
Continuous
 62
     1
370
    15
100
AcDbSpline
210
0.0
220
0.0
230
1.0
 70
     8
 71
     3
 72
    15
 73
    11
 74
     0
 42
0.000000001
 43
0.00000001
 40
0.0
 40
0.0
 40
0.0
 40
0.0
 40
0.0733587364982472
 40
0.201526423545248
 40
0.3298060261845388
 40
0.4577880931924905
 40
0.5859742009390007
 40
0.7241381449426406
 40
0.8620439449396053
 40
1.0
 40
1.0
 40
1.0
 40
1.0
 10
49.16346507153909
 20
5.937374373712976
 30
0.0
 10
49.37333200220192
 20
6.012840032802226
 30
0.0
 10
49.94986499575899
 20
6.220154459177392
 30
0.0
 10
50.89416397629761
 20
6.356305277939631
 30
0.0
 10
51.99595219765014
 20
6.355577435179798
 30
0.0
 10
53.09515066904309
 20
6.155683698309844
 30
0.0
 10
54.22446238309732
 20
5.764526933361113
 30
0.0
 10
55.38294244534099
 20
5.172091159820667
 30
0.0
 10
56.56734752423414
 20
4.393124836378193
 30
0.0
 10
57.35706788570979
 20
3.751384420214341
 30
0.0
 10
57.75200000000084
 20
3.430455757683696
 30
0.0
  0
LINE
  5
E2
330
1F
100
AcDbEntity
  8
0
  6
Continuous
 62
     1
370
    15
100
AcDbLine
 10
60.80000000000084
 20
-5.56900000000011
 30
0.0
 11
60.80000000000086
 21
6.345166205089908
 31
0.0
  0
LINE
  5
E3
330
1F
100
AcDbEntity
  8
0
  6
Continuous
 62
     1
370
    15
100
AcDbLine
 10
60.80000000000084
 20
-5.568999999999987
 30
0.0
 11
60.80000000000085
 21
0.0000000000000054
 31
0.0
  0
LINE
  5
E4
330
1F
100
AcDbEntity
  8
0
  6
Continuous
 62
     1
370
    15
100
AcDbLine
 10
9.999999999999998
 20
-6.172758784142577
 30
0.0
 11
10.00000000000085
 21
-5.315965987230045
 31
0.0
  0
LINE
  5
E5
330
1F
100
AcDbEntity
  8
0
  6
Continuous
 62
     1
370
    15
100
AcDbLine
 10
9.999999999999998
 20
-1.796161679980383
 30
0.0
 11
10.00000000000085
 21
0.3498823984794711
 31
0.0
  0
LINE
  5
E6
330
1F
100
AcDbEntity
  8
0
  6
Continuous
 62
     1
370
    15
100
AcDbLine
 10
9.999999999999998
 20
4.376597104162165
 30
0.0
 11
10.00000000000085
 21
5.665848385709543
 31
0.0
  0
LINE
  5
E7
330
1F
100
AcDbEntity
  8
중심선
100
AcDbLine
 10
-43.79999999999914
 20
0.0
 30
0.0
 11
63.80000000000084
 21
0.0
 31
0.0
  0
CIRCLE
  5
E8
330
1F
100
AcDbEntity
  8
외형선
100
AcDbCircle
 10
0.0
 20
0.0
 30
0.0
 40
3.000000000000821
  0
INSERT
  5
E9
330
1F
100
AcDbEntity
  8
0
  6
Continuous
 62
     7
100
AcDbBlockReference
 66
     1
  2
블럭10
 10
-16.62936049909263
 20
-51.78679627639981
 30
0.0
  0
ATTRIB
  5
EA
330
E9
100
AcDbEntity
  8
FORMAT
 62
     2
100
AcDbText
 10
-27.6803808512771
 20
-49.71142936356761
 30
0.0
 40
4.233333333333333
  1
GMG22923[ 6 FLUTE ]
 41
0.75
  7
SLDTEXTSTYLE0
 11
-27.6803808512771
 21
-51.82809603023428
 31
0.0
100
AcDbAttribute
  2
AUTOATTR0
 70
     0
 74
     1
  0
SEQEND
  5
EB
330
E9
100
AcDbEntity
  8
0
  6
Continuous
 62
     7
  0
HATCH
  5
EC
330
1F
100
AcDbEntity
  8
중심선
100
AcDbHatch
 10
0.0
 20
0.0
 30
0.0
210
0.0
220
0.0
230
1.0
  2
SOLID
 70
     1
 71
     0
 91
        1
 92
        0
 93
        4
 72
     1
 10
-10.91445119471178
 20
-35.53962197475587
 11
-14.36072643854907
 21
-35.53962197475587
 72
     1
 10
-14.36072643854907
 20
-35.53962197475587
 11
-16.48895629775309
 21
-38.07594755532847
 72
     1
 10
-16.48895629775309
 20
-38.07594755532847
 11
-13.04264796880266
 21
-38.07590812602598
 72
     1
 10
-13.04264796880266
 20
-38.07590812602598
 11
-10.91445119471178
 21
-35.53962197475587
 97
        0
 75
     0
 76
     1
 98
        1
 10
0.0004859200753264
 20
0.2622744311706929
  0
HATCH
  5
ED
330
1F
100
AcDbEntity
  8
중심선
100
AcDbHatch
 10
0.0
 20
0.0
 30
0.0
210
0.0
220
0.0
230
1.0
  2
SOLID
 70
     1
 71
     0
 91
        1
 92
        0
 93
        4
 72
     1
 10
-5.901687203675833
 20
-35.53962197475587
 11
-9.347962447513115
 21
-35.53962197475587
 72
     1
 10
-9.347962447513115
 20
-35.53962197475587
 11
-13.8791004558705
 21
-40.93962197475589
 72
     1
 10
-13.8791004558705
 20
-40.93962197475589
 11
-10.43282521203322
 21
-40.93962197475589
 72
     1
 10
-10.43282521203322
 20
-40.93962197475589
 11
-5.901687203675833
 21
-35.53962197475587
 97
        0
 75
     0
 76
     1
 98
        1
 10
0.0004859200753264
 20
0.2622744311706929
  0
HATCH
  5
EE
330
1F
100
AcDbEntity
  8
중심선
100
AcDbHatch
 10
0.0
 20
0.0
 30
0.0
210
0.0
220
0.0
230
1.0
  2
SOLID
 70
     1
 71
     0
 91
        1
 92
        0
 93
        4
 72
     1
 10
-0.8889232126399367
 20
-35.5396219747559
 11
-4.335198456477053
 21
-35.53962197475587
 72
     1
 10
-4.335198456477053
 20
-35.53962197475587
 11
-11.3836353583663
 21
-43.93962197475589
 72
     1
 10
-11.3836353583663
 20
-43.93962197475589
 11
-7.93736011452902
 21
-43.93962197475589
 72
     1
 10
-7.937360114529019
 20
-43.93962197475589
 11
-0.8889232126399369
 21
-35.5396219747559
 97
        0
 75
     0
 76
     1
 98
        1
 10
0.0004859200753264
 20
0.2622744311706929
  0
HATCH
  5
EF
330
1F
100
AcDbEntity
  8
중심선
100
AcDbHatch
 10
0.0
 20
0.0
 30
0.0
210
0.0
220
0.0
230
1.0
  2
SOLID
 70
     1
 71
     0
 91
        1
 92
        0
 93
        6
 72
     3
 10
3.910967218372263
 20
-39.73962197480715
 11
3.960054785062283
 21
1.540882976769353E-10
 40
0.3939339440162628
 50
17.09539180608436
 51
320.0019657685081
 73
     0
 72
     1
 10
5.593966874072858
 20
-38.32751597939418
 11
7.899268747773896
 21
-36.39318926934625
 72
     3
 10
3.910967218319416
 20
-39.73962197475602
 11
6.600054785286829
 21
-1.278976924368180E-13
 40
0.6363583540795982
 50
39.99873849337412
 51
368.4976242363724
 73
     1
 72
     1
 10
10.33629971022002
 20
-38.7796219746859
 11
2.591034525155337
 21
-38.77962197468587
 72
     1
 10
2.591034525155338
 20
-38.77962197468587
 11
2.591009480709404
 21
-40.69962197468579
 72
     1
 10
2.591009480709404
 20
-40.69962197468579
 11
7.032389250181442
 21
-40.69962197468576
 97
        0
 75
     0
 76
     1
 98
        1
 10
0.0004859200753264
 20
0.2622744311706929
  0
POINT
  5
F0
330
1F
100
AcDbEntity
  8
치수문자_일반주서
100
AcDbPoint
 10
0.0
 20
0.0
 30
0.0
  0
DIMENSION
  5
F1
330
1F
100
AcDbEntity
  8
치수문자_일반주서
100
AcDbDimension
  2
_D
 10
75.68733349318455
 20
6.345166205089961
 30
0.0
 11
75.68733349318457
 21
2.664610528859663
 31
0.0
 70
   160
  1
%%c<>
 71
     2
 42
12.70059014605453
 52
-270.0
  3
SLDDIMSTYLE0
100
AcDbAlignedDimension
 13
57.54970785708497
 23
-6.355423940964639
 33
0.0
 14
57.82728079365764
 24
6.345166205089894
 34
0.0
 50
90.0000000000002
100
AcDbRotatedDimension
1001
ACAD
1000
DSTYLE
1002
{
1070
   273
1070
     7
1002
}
  0
DIMENSION
  5
106
102
{ACAD_XDICTIONARY
360
1E4
102
}
330
1F
100
AcDbEntity
  8
치수문자_일반주서
100
AcDbDimension
  2
_D_1
 10
60.80000000000086
 20
39.00555141807179
 30
0.0
 11
10.00000000000085
 21
39.00555141807179
 31
0.0
 70
   160
  1
<>
 71
     2
 42
101.6
  3
SLDDIMSTYLE1
100
AcDbAlignedDimension
 13
-40.79999999999914
 23
5.849999999999997
 33
0.0
 14
60.80000000000086
 24
5.6315
 34
0.0
100
AcDbRotatedDimension
1001
ACAD
1000
DSTYLE
1002
{
1070
   273
1070
     7
1002
}
1001
ENABLE_CUSTOM_SPLIT
1070
     1
  0
DIMENSION
  5
11A
102
{ACAD_XDICTIONARY
360
1E1
102
}
330
1F
100
AcDbEntity
  8
치수문자_일반주서
100
AcDbDimension
  2
_D_2
 10
10.0
 20
20.88737939207129
 30
0.0
 11
34.84120226380338
 21
20.88737939207129
 31
0.0
 70
   160
  1
<>
 71
     2
 42
50.80000000000086
  3
SLDDIMSTYLE1
100
AcDbAlignedDimension
 13
60.80000000000086
 23
5.569
 33
0.0
 14
9.999999999999996
 24
6.172758784142577
 34
0.0
 50
0.000000000000012
100
AcDbRotatedDimension
1001
ACAD
1000
DSTYLE
1002
{
1070
   273
1070
     7
1002
}
1001
ENABLE_CUSTOM_SPLIT
1070
     1
  0
INSERT
  5
144
330
1F
100
AcDbEntity
  8
외형선
100
AcDbBlockReference
  2
SW_DOWELSYMBOL_0
 10
0.0
 20
0.0
 30
0.0
  0
DIMENSION
  5
16B
330
1F
100
AcDbEntity
  8
치수문자_일반주서
100
AcDbDimension
  2
*D8
 10
-46.82777618826907
 20
-6.349999999999996
 30
0.0
 11
-46.82777618826907
 21
0.0
 31
0.0
 70
   160
  1
{%%C<>}
 71
     5
 42
12.7
  3
SLDDIMSTYLE1
100
AcDbAlignedDimension
 13
-40.29999999999914
 23
6.349999999999998
 33
0.0
 14
-40.29999999999914
 24
-6.349999999999997
 34
0.0
 50
90.0
100
AcDbRotatedDimension
1001
ACAD
1000
DSTYLE
1002
{
1070
   273
1070
     7
1002
}
  0
LINE
  5
182
330
1F
100
AcDbEntity
  8
0
  6
Continuous
 62
     1
370
    15
100
AcDbLine
 10
57.75200000000083
 20
6.34295463946595
 30
0.0
 11
60.03816962884104
 21
6.349973740577919
 31
0.0
  0
LINE
  5
184
330
1F
100
AcDbEntity
  8
0
  6
Continuous
 62
     1
370
    15
100
AcDbLine
 10
57.75200000000083
 20
-6.342954639465935
 30
0.0
 11
60.03349061940755
 21
-6.349959374872101
 31
0.0
  0
ARC
  5
1F4
330
1F
100
AcDbEntity
  8
0
100
AcDbCircle
 10
60.03816962884104
 20
5.587973740577919
 30
0.0
 40
0.762
100
AcDbArc
 50
166.7889333130661
 51
166.7969834674782
  0
ARC
  5
1F5
102
{ACAD_REACTORS
102
}
330
1F
100
AcDbEntity
  8
0
  6
Continuous
 62
     1
370
    15
100
AcDbCircle
 10
60.03816962884104
 20
5.587973740577919
 30
0.0
 40
0.762
100
AcDbArc
 50
358.7910229749847
 51
90.35182306768006
1001
PE_URL
1000

  0
ARC
  5
1F7
330
1F
100
AcDbEntity
  8
0
100
AcDbCircle
 10
60.03816962884104
 20
5.587973740577919
 30
0.0
 40
0.762
100
AcDbArc
 50
96.43946804674712
 51
96.45704931461799
  0
DIMENSION
  5
1F8
102
{ACAD_REACTORS
102
}
102
{ACAD_XDICTIONARY
360
1F9
102
}
330
1F
100
AcDbEntity
  8
0
100
AcDbDimension
  2
*D13
 10
60.03816962884104
 20
5.587973740577919
 30
0.0
 11
81.94983887504326
 21
17.24997374057792
 31
0.0
 70
   164
 71
     5
 42
0.7619999999999988
  3
ISO-25
100
AcDbRadialDimension
 15
60.28839157367962
 25
6.307718819283704
 35
0.0
 40
0.0
1001
ACAD
1000
DSTYLE
1002
{
1070
     3
1000
R<> [0.03]
1070
   179
1070
     2
1070
   143
1040
0.0393700787401575
1070
    41
1040
3.302
1070
    44
1040
1.0
1070
    42
1040
1.0
1070
   147
1040
1.524
1070
    73
1070
     1
1070
    74
1070
     1
1070
   140
1040
3.5
1070
   284
1070
     0
1070
    78
1070
     0
1002
}
1001
ACAD_DSTYLE_DIMRADIAL_EXTENSION
1070
   387
1070
     1
1070
   388
1040
6.262084677512104
1070
   390
1040
1.57693679771038
  0
ARC
  5
216
102
{ACAD_REACTORS
102
}
330
1F
100
AcDbEntity
  8
0
  6
Continuous
 62
     1
370
    15
100
AcDbCircle
 10
60.03816962884105
 20
-5.587973740577909
 30
0.0
 40
0.762
100
AcDbArc
 50
269.64817693232
 51
1.20897702501534
1001
PE_URL
1000

  0
ENDSEC
  0
SECTION
  2
OBJECTS
  0
DICTIONARY
  5
C
330
0
100
AcDbDictionary
281
     1
  3
ACAD_DETAILVIEWSTYLE
350
1BC
  3
ACAD_GROUP
350
D
  3
ACAD_IMAGE_VARS
350
168
  3
ACAD_LAYOUT
350
1A
  3
ACAD_MLINESTYLE
350
17
  3
ACAD_PLOTSETTINGS
350
19
  3
ACAD_PLOTSTYLENAME
350
E
  3
ACAD_SCALELIST
350
47
  3
ACAD_SECTIONVIEWSTYLE
350
1BD
  3
AcDbVariableDictionary
350
1B7
  3
APPDATA
350
166
  3
DWGPROPS
350
217
  3
FX_DICT_DIMENSION_PALETTE
350
1D9
  3
FX_DICT_DIMENSION_PALETTE_RECENTLIST
350
205
  0
DICTIONARY
  5
1DC
330
1F
100
AcDbDictionary
280
     1
281
     1
  3
ACAD_SORTENTS
360
1F6
  3
DIM_BOUNDING_BOXES_V1
360
1DD
  0
DICTIONARY
  5
1E4
330
106
100
AcDbDictionary
280
     1
281
     1
  3
ACAD_CUSTOM_BREAKDATA
360
1E5
  0
DICTIONARY
  5
1E1
330
11A
100
AcDbDictionary
280
     1
281
     1
  3
ACAD_CUSTOM_BREAKDATA
360
1E2
  0
DICTIONARY
  5
1F9
330
1F8
100
AcDbDictionary
280
     1
281
     1
  0
DICTIONARY
  5
1BC
102
{ACAD_REACTORS
330
C
102
}
330
C
100
AcDbDictionary
281
     1
  0
DICTIONARY
  5
D
102
{ACAD_REACTORS
330
C
102
}
330
C
100
AcDbDictionary
281
     1
  0
RASTERVARIABLES
  5
168
102
{ACAD_REACTORS
330
C
102
}
330
C
100
AcDbRasterVariables
 90
        0
 70
     1
 71
     1
 72
     1
  0
DICTIONARY
  5
1A
102
{ACAD_REACTORS
330
C
102
}
330
C
100
AcDbDictionary
281
     1
  3
Layout1
350
1E
  3
Layout2
350
26
  3
Model
350
22
  0
DICTIONARY
  5
17
102
{ACAD_REACTORS
330
C
102
}
330
C
100
AcDbDictionary
281
     1
  3
Standard
350
18
  0
DICTIONARY
  5
19
102
{ACAD_REACTORS
330
C
102
}
330
C
100
AcDbDictionary
281
     1
  0
ACDBDICTIONARYWDFLT
  5
E
102
{ACAD_REACTORS
330
C
102
}
330
C
100
AcDbDictionary
281
     1
  3
Normal
350
F
100
AcDbDictionaryWithDefault
340
F
  0
DICTIONARY
  5
47
102
{ACAD_REACTORS
330
C
102
}
330
C
100
AcDbDictionary
281
     1
  3
A0
350
48
  3
A1
350
49
  3
A2
350
4A
  3
A3
350
4B
  3
A4
350
4C
  3
A5
350
4D
  3
A6
350
4E
  3
A7
350
4F
  3
A8
350
50
  3
A9
350
51
  3
B0
350
52
  3
B1
350
53
  3
B2
350
54
  3
B3
350
55
  3
B4
350
56
  3
B5
350
57
  3
B6
350
58
  3
B7
350
59
  3
B8
350
5A
  3
B9
350
5B
  3
C0
350
5C
  3
C1
350
5D
  3
C2
350
5E
  3
C3
350
5F
  3
C4
350
60
  3
C5
350
61
  3
C6
350
62
  3
C7
350
63
  3
C8
350
64
  3
C9
350
65
  3
D0
350
66
  3
D1
350
67
  3
D2
350
68
  0
DICTIONARY
  5
1BD
102
{ACAD_REACTORS
330
C
102
}
330
C
100
AcDbDictionary
281
     1
  0
DICTIONARY
  5
1B7
102
{ACAD_REACTORS
330
C
102
}
330
C
100
AcDbDictionary
281
     1
  0
DICTIONARY
  5
166
102
{ACAD_REACTORS
330
C
102
}
330
C
100
AcDbDictionary
281
     1
  0
XRECORD
  5
217
102
{ACAD_REACTORS
330
C
102
}
330
C
100
AcDbXrecord
280
     1
  1
DWGPROPS COOKIE
  2

  3

  4

  6

  7

  8
12018024
  9

300
=
301
=
302
=
303
=
304
=
305
=
306
=
307
=
308
=
309
=
 40
0.0
 41
2458236.369844144
 42
2459683.275611239
  1

 90
        0
  0
DICTIONARY
  5
1D9
102
{ACAD_REACTORS
330
C
102
}
330
C
100
AcDbDictionary
281
     1
1001
FX_DIMP_FAV_VERSION
1071
        1
  0
DICTIONARY
  5
205
102
{ACAD_REACTORS
330
C
102
}
330
C
100
AcDbDictionary
281
     1
  3
0
350
207
1001
FX_DIMP_RECENT_VERSION
1071
        1
  0
SORTENTSTABLE
  5
1F6
102
{ACAD_REACTORS
330
1DC
102
}
330
1DC
100
AcDbSortentsTable
330
1F
  0
DICTIONARY
  5
1DD
102
{ACAD_REACTORS
330
1DC
102
}
330
1DC
100
AcDbDictionary
281
     1
  0
BREAKDATA
  5
1E5
102
{ACAD_REACTORS
330
1E4
102
}
330
1E4
100
AcDbBreakData
 70
     0
330
106
 90
        0
  0
BREAKDATA
  5
1E2
102
{ACAD_REACTORS
330
1E1
102
}
330
1E1
100
AcDbBreakData
 70
     0
330
11A
 90
        0
  0
LAYOUT
  5
1E
102
{ACAD_REACTORS
330
1A
102
}
330
1A
100
AcDbPlotSettings
  1

  2
none_device
  4

  6

 40
0.0
 41
0.0
 42
0.0
 43
0.0
 44
0.0
 45
0.0
 46
0.0
 47
0.0
 48
0.0
 49
0.0
140
0.0
141
0.0
142
1.0
143
1.0
 70
   688
 72
     1
 73
     0
 74
     5
  7

 75
    16
147
1.0
148
0.0
149
0.0
100
AcDbLayout
  1
Layout1
 70
     1
 71
     1
 10
0.0
 20
0.0
 11
420.0
 21
297.0
 12
0.0
 22
0.0
 32
0.0
 14
1.000000000000000E+20
 24
1.000000000000000E+20
 34
1.000000000000000E+20
 15
-1.000000000000000E+20
 25
-1.000000000000000E+20
 35
-1.000000000000000E+20
146
0.0
 13
0.0
 23
0.0
 33
0.0
 16
1.0
 26
0.0
 36
0.0
 17
0.0
 27
1.0
 37
0.0
 76
     0
330
1B
  0
LAYOUT
  5
26
102
{ACAD_REACTORS
330
1A
102
}
330
1A
100
AcDbPlotSettings
  1

  2
none_device
  4

  6

 40
0.0
 41
0.0
 42
0.0
 43
0.0
 44
0.0
 45
0.0
 46
0.0
 47
0.0
 48
0.0
 49
0.0
140
0.0
141
0.0
142
1.0
143
1.0
 70
   688
 72
     1
 73
     0
 74
     5
  7

 75
    16
147
1.0
148
0.0
149
0.0
100
AcDbLayout
  1
Layout2
 70
     1
 71
     2
 10
0.0
 20
0.0
 11
0.0
 21
0.0
 12
0.0
 22
0.0
 32
0.0
 14
0.0
 24
0.0
 34
0.0
 15
0.0
 25
0.0
 35
0.0
146
0.0
 13
0.0
 23
0.0
 33
0.0
 16
1.0
 26
0.0
 36
0.0
 17
0.0
 27
1.0
 37
0.0
 76
     0
330
23
  0
LAYOUT
  5
22
102
{ACAD_REACTORS
330
1A
102
}
330
1A
100
AcDbPlotSettings
  1

  2
none_device
  4
ANSI_A_(11.00_x_8.50_Inches)
  6

 40
6.35
 41
19.05
 42
6.35000508
 43
19.05000254
 44
279.4
 45
215.9
 46
118.2346955137777
 47
90.0266438071882
 48
0.0
 49
0.0
140
0.0
141
0.0
142
0.0750837051803466
143
1.0
 70
  1696
 72
     0
 73
     0
 74
     0
  7

 75
     0
147
0.0235690232323232
148
0.0
149
0.0
100
AcDbLayout
  1
Model
 70
     1
 71
     0
 10
0.0
 20
0.0
 11
420.0
 21
297.0
 12
0.0
 22
0.0
 32
0.0
 14
-51.20277618826907
 24
-49.71142936356762
 34
0.0
 15
98.2831722083766
 25
43.38055141807179
 35
0.0
146
0.0
 13
0.0
 23
0.0
 33
0.0
 16
1.0
 26
0.0
 36
0.0
 17
0.0
 27
1.0
 37
0.0
 76
     0
330
1F
331
29
  0
MLINESTYLE
  5
18
102
{ACAD_REACTORS
330
17
102
}
330
17
100
AcDbMlineStyle
  2
Standard
 70
     0
  3

 62
   256
 51
90.0
 52
90.0
 71
     2
 49
0.5
 62
   256
  6
BYLAYER
 49
-0.5
 62
   256
  6
BYLAYER
  0
ACDBPLACEHOLDER
  5
F
102
{ACAD_REACTORS
330
E
102
}
330
E
  0
SCALE
  5
48
102
{ACAD_REACTORS
330
47
102
}
330
47
100
AcDbScale
 70
     0
300
1:1
140
1.0
141
1.0
290
     1
  0
SCALE
  5
49
102
{ACAD_REACTORS
330
47
102
}
330
47
100
AcDbScale
 70
     0
300
1:2
140
1.0
141
2.0
290
     0
  0
SCALE
  5
4A
102
{ACAD_REACTORS
330
47
102
}
330
47
100
AcDbScale
 70
     0
300
1:4
140
1.0
141
4.0
290
     0
  0
SCALE
  5
4B
102
{ACAD_REACTORS
330
47
102
}
330
47
100
AcDbScale
 70
     0
300
1:5
140
1.0
141
5.0
290
     0
  0
SCALE
  5
4C
102
{ACAD_REACTORS
330
47
102
}
330
47
100
AcDbScale
 70
     0
300
1:8
140
1.0
141
8.0
290
     0
  0
SCALE
  5
4D
102
{ACAD_REACTORS
330
47
102
}
330
47
100
AcDbScale
 70
     0
300
1:10
140
1.0
141
10.0
290
     0
  0
SCALE
  5
4E
102
{ACAD_REACTORS
330
47
102
}
330
47
100
AcDbScale
 70
     0
300
1:16
140
1.0
141
16.0
290
     0
  0
SCALE
  5
4F
102
{ACAD_REACTORS
330
47
102
}
330
47
100
AcDbScale
 70
     0
300
1:20
140
1.0
141
20.0
290
     0
  0
SCALE
  5
50
102
{ACAD_REACTORS
330
47
102
}
330
47
100
AcDbScale
 70
     0
300
1:30
140
1.0
141
30.0
290
     0
  0
SCALE
  5
51
102
{ACAD_REACTORS
330
47
102
}
330
47
100
AcDbScale
 70
     0
300
1:40
140
1.0
141
40.0
290
     0
  0
SCALE
  5
52
102
{ACAD_REACTORS
330
47
102
}
330
47
100
AcDbScale
 70
     0
300
1:50
140
1.0
141
50.0
290
     0
  0
SCALE
  5
53
102
{ACAD_REACTORS
330
47
102
}
330
47
100
AcDbScale
 70
     0
300
1:100
140
1.0
141
100.0
290
     0
  0
SCALE
  5
54
102
{ACAD_REACTORS
330
47
102
}
330
47
100
AcDbScale
 70
     0
300
2:1
140
2.0
141
1.0
290
     0
  0
SCALE
  5
55
102
{ACAD_REACTORS
330
47
102
}
330
47
100
AcDbScale
 70
     0
300
4:1
140
4.0
141
1.0
290
     0
  0
SCALE
  5
56
102
{ACAD_REACTORS
330
47
102
}
330
47
100
AcDbScale
 70
     0
300
8:1
140
8.0
141
1.0
290
     0
  0
SCALE
  5
57
102
{ACAD_REACTORS
330
47
102
}
330
47
100
AcDbScale
 70
     0
300
10:1
140
10.0
141
1.0
290
     0
  0
SCALE
  5
58
102
{ACAD_REACTORS
330
47
102
}
330
47
100
AcDbScale
 70
     0
300
100:1
140
100.0
141
1.0
290
     0
  0
SCALE
  5
59
102
{ACAD_REACTORS
330
47
102
}
330
47
100
AcDbScale
 70
     0
300
1/128" = 1'-0"
140
0.0078125
141
12.0
290
     0
  0
SCALE
  5
5A
102
{ACAD_REACTORS
330
47
102
}
330
47
100
AcDbScale
 70
     0
300
1/64" = 1'-0"
140
0.015625
141
12.0
290
     0
  0
SCALE
  5
5B
102
{ACAD_REACTORS
330
47
102
}
330
47
100
AcDbScale
 70
     0
300
1/32" = 1'-0"
140
0.03125
141
12.0
290
     0
  0
SCALE
  5
5C
102
{ACAD_REACTORS
330
47
102
}
330
47
100
AcDbScale
 70
     0
300
1/16" = 1'-0"
140
0.0625
141
12.0
290
     0
  0
SCALE
  5
5D
102
{ACAD_REACTORS
330
47
102
}
330
47
100
AcDbScale
 70
     0
300
3/32" = 1'-0"
140
0.09375
141
12.0
290
     0
  0
SCALE
  5
5E
102
{ACAD_REACTORS
330
47
102
}
330
47
100
AcDbScale
 70
     0
300
1/8" = 1'-0"
140
0.125
141
12.0
290
     0
  0
SCALE
  5
5F
102
{ACAD_REACTORS
330
47
102
}
330
47
100
AcDbScale
 70
     0
300
3/16" = 1'-0"
140
0.1875
141
12.0
290
     0
  0
SCALE
  5
60
102
{ACAD_REACTORS
330
47
102
}
330
47
100
AcDbScale
 70
     0
300
1/4" = 1'-0"
140
0.25
141
12.0
290
     0
  0
SCALE
  5
61
102
{ACAD_REACTORS
330
47
102
}
330
47
100
AcDbScale
 70
     0
300
3/8" = 1'-0"
140
0.375
141
12.0
290
     0
  0
SCALE
  5
62
102
{ACAD_REACTORS
330
47
102
}
330
47
100
AcDbScale
 70
     0
300
1/2" = 1'-0"
140
0.5
141
12.0
290
     0
  0
SCALE
  5
63
102
{ACAD_REACTORS
330
47
102
}
330
47
100
AcDbScale
 70
     0
300
3/4" = 1'-0"
140
0.75
141
12.0
290
     0
  0
SCALE
  5
64
102
{ACAD_REACTORS
330
47
102
}
330
47
100
AcDbScale
 70
     0
300
1" = 1'-0"
140
1.0
141
12.0
290
     0
  0
SCALE
  5
65
102
{ACAD_REACTORS
330
47
102
}
330
47
100
AcDbScale
 70
     0
300
1-1/2" = 1'-0"
140
1.5
141
12.0
290
     0
  0
SCALE
  5
66
102
{ACAD_REACTORS
330
47
102
}
330
47
100
AcDbScale
 70
     0
300
3" = 1'-0"
140
3.0
141
12.0
290
     0
  0
SCALE
  5
67
102
{ACAD_REACTORS
330
47
102
}
330
47
100
AcDbScale
 70
     0
300
6" = 1'-0"
140
6.0
141
12.0
290
     0
  0
SCALE
  5
68
102
{ACAD_REACTORS
330
47
102
}
330
47
100
AcDbScale
 70
     0
300
1'-0" = 1'-0"
140
12.0
141
12.0
290
     0
  0
XRECORD
  5
207
102
{ACAD_REACTORS
330
205
102
}
330
205
100
AcDbXrecord
280
     1
  2

  2

  2

 40
0.0
 40
0.0
 90
        0
 40
0.7619999999999982
 90
        2
 90
        2
 90
        0
 90
        5
  2

  2
R
  2
[0.03]
  2

290
     0
290
     0
  2
0
  2

  0
ENDSEC
  0
EOF
