  0
SECTION
  2
HEADER
  9
$ACADVER
  1
AC1015
  9
$ACADMAINTVER
 70
     6
  9
$DWGCODEPAGE
  3
ANSI_949
  9
$INSBASE
 10
0.0
 20
0.0
 30
0.0
  9
$EXTMIN
 10
-64.52500000000005
 20
-49.71142936356762
 30
0.0
  9
$EXTMAX
 10
62.17468170051914
 20
43.38055141807178
 30
0.0
  9
$LIMMIN
 10
0.0
 20
0.0
  9
$LIMMAX
 10
420.0
 20
297.0
  9
$ORTHOMODE
 70
     0
  9
$REGENMODE
 70
     1
  9
$FILLMODE
 70
     1
  9
$QTEXTMODE
 70
     0
  9
$MIRRTEXT
 70
     1
  9
$LTSCALE
 40
1.0
  9
$ATTMODE
 70
     1
  9
$TEXTSIZE
 40
3.5
  9
$TRACEWID
 40
1.0
  9
$TEXTSTYLE
  7
Standard
  9
$CLAYER
  8
0
  9
$CELTYPE
  6
ByLayer
  9
$CECOLOR
 62
   256
  9
$CELTSCALE
 40
1.0
  9
$DISPSILH
 70
     0
  9
$DIMSCALE
 40
1.0
  9
$DIMASZ
 40
3.302
  9
$DIMEXO
 40
1.0
  9
$DIMDLI
 40
3.75
  9
$DIMRND
 40
0.0
  9
$DIMDLE
 40
0.0
  9
$DIMEXE
 40
1.0
  9
$DIMTP
 40
0.0
  9
$DIMTM
 40
0.0
  9
$DIMTXT
 40
3.5
  9
$DIMCEN
 40
2.5
  9
$DIMTSZ
 40
0.0
  9
$DIMTOL
 70
     0
  9
$DIMLIM
 70
     0
  9
$DIMTIH
 70
     1
  9
$DIMTOH
 70
     1
  9
$DIMSE1
 70
     0
  9
$DIMSE2
 70
     0
  9
$DIMTAD
 70
     1
  9
$DIMZIN
 70
     0
  9
$DIMBLK
  1

  9
$DIMASO
 70
     1
  9
$DIMSHO
 70
     1
  9
$DIMPOST
  1

  9
$DIMAPOST
  1

  9
$DIMALT
 70
     0
  9
$DIMALTD
 70
     3
  9
$DIMALTF
 40
0.0393700787401575
  9
$DIMLFAC
 40
1.0
  9
$DIMTOFL
 70
     1
  9
$DIMTVP
 40
0.0
  9
$DIMTIX
 70
     0
  9
$DIMSOXD
 70
     0
  9
$DIMSAH
 70
     0
  9
$DIMBLK1
  1

  9
$DIMBLK2
  1

  9
$DIMSTYLE
  2
ISO-25
  9
$DIMCLRD
 70
     0
  9
$DIMCLRE
 70
     0
  9
$DIMCLRT
 70
     0
  9
$DIMTFAC
 40
1.0
  9
$DIMGAP
 40
1.524
  9
$DIMJUST
 70
     0
  9
$DIMSD1
 70
     0
  9
$DIMSD2
 70
     0
  9
$DIMTOLJ
 70
     0
  9
$DIMTZIN
 70
     0
  9
$DIMALTZ
 70
     0
  9
$DIMALTTZ
 70
     0
  9
$DIMUPT
 70
     0
  9
$DIMDEC
 70
     2
  9
$DIMTDEC
 70
     2
  9
$DIMALTU
 70
     2
  9
$DIMALTTD
 70
     3
  9
$DIMTXSTY
  7
Standard
  9
$DIMAUNIT
 70
     0
  9
$DIMADEC
 70
     2
  9
$DIMALTRND
 40
0.0
  9
$DIMAZIN
 70
     0
  9
$DIMDSEP
 70
    44
  9
$DIMATFIT
 70
     3
  9
$DIMFRAC
 70
     0
  9
$DIMLDRBLK
  1

  9
$DIMLUNIT
 70
     2
  9
$DIMLWD
 70
    -2
  9
$DIMLWE
 70
    -2
  9
$DIMTMOVE
 70
     0
  9
$LUNITS
 70
     2
  9
$LUPREC
 70
     2
  9
$SKETCHINC
 40
1.0
  9
$FILLETRAD
 40
10.0
  9
$AUNITS
 70
     0
  9
$AUPREC
 70
     2
  9
$MENU
  1
.
  9
$ELEVATION
 40
0.0
  9
$PELEVATION
 40
0.0
  9
$THICKNESS
 40
0.0
  9
$LIMCHECK
 70
     0
  9
$CHAMFERA
 40
0.0
  9
$CHAMFERB
 40
0.0
  9
$CHAMFERC
 40
0.0
  9
$CHAMFERD
 40
0.0
  9
$SKPOLY
 70
     0
  9
$TDCREATE
 40
2458236.744142673
  9
$TDUCREATE
 40
2458236.369142673
  9
$TDUPDATE
 40
2458241.570375232
  9
$TDUUPDATE
 40
2458241.195375232
  9
$TDINDWG
 40
0.001894375
  9
$TDUSRTIMER
 40
2458241.195186759
  9
$USRTIMER
 70
     1
  9
$ANGBASE
 50
0.0
  9
$ANGDIR
 70
     0
  9
$PDMODE
 70
     0
  9
$PDSIZE
 40
-1.0
  9
$PLINEWID
 40
0.0
  9
$SPLFRAME
 70
     0
  9
$SPLINETYPE
 70
     6
  9
$SPLINESEGS
 70
     8
  9
$HANDSEED
  5
1B1
  9
$SURFTAB1
 70
     6
  9
$SURFTAB2
 70
     6
  9
$SURFTYPE
 70
     6
  9
$SURFU
 70
     6
  9
$SURFV
 70
     6
  9
$UCSBASE
  2

  9
$UCSNAME
  2

  9
$UCSORG
 10
0.0
 20
0.0
 30
0.0
  9
$UCSXDIR
 10
1.0
 20
0.0
 30
0.0
  9
$UCSYDIR
 10
0.0
 20
1.0
 30
0.0
  9
$UCSORTHOREF
  2

  9
$UCSORTHOVIEW
 70
     0
  9
$UCSORGTOP
 10
0.0
 20
0.0
 30
0.0
  9
$UCSORGBOTTOM
 10
0.0
 20
0.0
 30
0.0
  9
$UCSORGLEFT
 10
0.0
 20
0.0
 30
0.0
  9
$UCSORGRIGHT
 10
0.0
 20
0.0
 30
0.0
  9
$UCSORGFRONT
 10
0.0
 20
0.0
 30
0.0
  9
$UCSORGBACK
 10
0.0
 20
0.0
 30
0.0
  9
$PUCSBASE
  2

  9
$PUCSNAME
  2

  9
$PUCSORG
 10
0.0
 20
0.0
 30
0.0
  9
$PUCSXDIR
 10
1.0
 20
0.0
 30
0.0
  9
$PUCSYDIR
 10
0.0
 20
1.0
 30
0.0
  9
$PUCSORTHOREF
  2

  9
$PUCSORTHOVIEW
 70
     0
  9
$PUCSORGTOP
 10
0.0
 20
0.0
 30
0.0
  9
$PUCSORGBOTTOM
 10
0.0
 20
0.0
 30
0.0
  9
$PUCSORGLEFT
 10
0.0
 20
0.0
 30
0.0
  9
$PUCSORGRIGHT
 10
0.0
 20
0.0
 30
0.0
  9
$PUCSORGFRONT
 10
0.0
 20
0.0
 30
0.0
  9
$PUCSORGBACK
 10
0.0
 20
0.0
 30
0.0
  9
$USERI1
 70
     0
  9
$USERI2
 70
     0
  9
$USERI3
 70
     0
  9
$USERI4
 70
     0
  9
$USERI5
 70
     0
  9
$USERR1
 40
0.0
  9
$USERR2
 40
0.0
  9
$USERR3
 40
0.0
  9
$USERR4
 40
0.0
  9
$USERR5
 40
0.0
  9
$WORLDVIEW
 70
     1
  9
$SHADEDGE
 70
     3
  9
$SHADEDIF
 70
    70
  9
$TILEMODE
 70
     1
  9
$MAXACTVP
 70
    64
  9
$PINSBASE
 10
0.0
 20
0.0
 30
0.0
  9
$PLIMCHECK
 70
     0
  9
$PEXTMIN
 10
1.000000000000000E+20
 20
1.000000000000000E+20
 30
1.000000000000000E+20
  9
$PEXTMAX
 10
-1.000000000000000E+20
 20
-1.000000000000000E+20
 30
-1.000000000000000E+20
  9
$PLIMMIN
 10
0.0
 20
0.0
  9
$PLIMMAX
 10
0.0
 20
0.0
  9
$UNITMODE
 70
     0
  9
$VISRETAIN
 70
     1
  9
$PLINEGEN
 70
     0
  9
$PSLTSCALE
 70
     1
  9
$TREEDEPTH
 70
  3020
  9
$CMLSTYLE
  2
Standard
  9
$CMLJUST
 70
     0
  9
$CMLSCALE
 40
20.0
  9
$PROXYGRAPHICS
 70
     1
  9
$MEASUREMENT
 70
     1
  9
$CELWEIGHT
370
    -1
  9
$ENDCAPS
280
     0
  9
$JOINSTYLE
280
     0
  9
$LWDISPLAY
290
     1
  9
$INSUNITS
 70
     4
  9
$HYPERLINKBASE
  1

  9
$STYLESHEET
  1

  9
$XEDIT
290
     1
  9
$CEPSNTYPE
380
     0
  9
$PSTYLEMODE
290
     1
  9
$FINGERPRINTGUID
  2
{C1907FFE-601C-4198-B146-D76799073883}
  9
$VERSIONGUID
  2
{FAEB1C32-E019-11D5-929B-00C0DF256EC4}
  9
$EXTNAMES
290
     1
  9
$PSVPSCALE
 40
0.0
  9
$OLESTARTUP
290
     0
  0
ENDSEC
  0
SECTION
  2
CLASSES
  0
CLASS
  1
ACDBDICTIONARYWDFLT
  2
AcDbDictionaryWithDefault
  3
ObjectDBX Classes
 90
        0
280
     0
281
     0
  0
CLASS
  1
VISUALSTYLE
  2
AcDbVisualStyle
  3
ObjectDBX Classes
 90
     4095
280
     0
281
     0
  0
CLASS
  1
MATERIAL
  2
AcDbMaterial
  3
ObjectDBX Classes
 90
     1153
280
     0
281
     0
  0
CLASS
  1
SCALE
  2
AcDbScale
  3
ObjectDBX Classes
 90
     1153
280
     0
281
     0
  0
CLASS
  1
SUN
  2
AcDbSun
  3
SCENEOE
 90
     1153
280
     0
281
     0
  0
CLASS
  1
ACDBPLACEHOLDER
  2
AcDbPlaceHolder
  3
ObjectDBX Classes
 90
        0
280
     0
281
     0
  0
CLASS
  1
LAYOUT
  2
AcDbLayout
  3
ObjectDBX Classes
 90
        0
280
     0
281
     0
  0
CLASS
  1
TABLESTYLE
  2
AcDbTableStyle
  3
ObjectDBX Classes
 90
     4095
280
     0
281
     0
  0
CLASS
  1
MLEADERSTYLE
  2
AcDbMLeaderStyle
  3
ACDB_MLEADERSTYLE_CLASS
 90
     4095
280
     0
281
     0
  0
CLASS
  1
RASTERVARIABLES
  2
AcDbRasterVariables
  3
ISM
 90
        0
280
     0
281
     0
  0
CLASS
  1
DIMASSOC
  2
AcDbDimAssoc
  3
"AcDbDimAssoc|Product Desc:     AcDim ARX App For Dimension|Company:          Autodesk, Inc.|WEB Address:      www.autodesk.com"
 90
        0
280
     0
281
     0
  0
ENDSEC
  0
SECTION
  2
TABLES
  0
TABLE
  2
VPORT
  5
8
330
0
100
AcDbSymbolTable
 70
     1
  0
VPORT
  5
29
330
8
100
AcDbSymbolTableRecord
100
AcDbViewportTableRecord
  2
*Active
 70
     0
 10
0.0
 20
0.0
 11
1.0
 21
1.0
 12
-6.757792341527628
 22
-35.4555367273642
 13
0.0
 23
0.0
 14
10.0
 24
10.0
 15
10.0
 25
10.0
 16
0.0
 26
0.0
 36
1.0
 17
0.0
 27
0.0
 37
0.0
 40
167.2353121525977
 41
1.321695760598504
 42
50.0
 43
0.0
 44
0.0
 50
0.0
 51
0.0
 71
    16
 72
  2000
 73
     1
 74
     3
 75
     0
 76
     0
 77
     0
 78
     0
281
     0
 65
     1
110
0.0
120
0.0
130
0.0
111
1.0
121
0.0
131
0.0
112
0.0
122
1.0
132
0.0
 79
     0
146
0.0
  0
ENDTAB
  0
TABLE
  2
LTYPE
  5
5
330
0
100
AcDbSymbolTable
 70
     6
  0
LTYPE
  5
14
330
5
100
AcDbSymbolTableRecord
100
AcDbLinetypeTableRecord
  2
ByBlock
 70
     0
  3

 72
    65
 73
     0
 40
0.0
  0
LTYPE
  5
15
330
5
100
AcDbSymbolTableRecord
100
AcDbLinetypeTableRecord
  2
ByLayer
 70
     0
  3

 72
    65
 73
     0
 40
0.0
  0
LTYPE
  5
16
330
5
100
AcDbSymbolTableRecord
100
AcDbLinetypeTableRecord
  2
Continuous
 70
     0
  3
Solid line
 72
    65
 73
     0
 40
0.0
  0
LTYPE
  5
6A
330
5
100
AcDbSymbolTableRecord
100
AcDbLinetypeTableRecord
  2
HIDDEN
 70
     0
  3
Hidden __ __ __ __ __ __ __ __ __ __ __ __ __ __
 72
    65
 73
     2
 40
1.905
 49
1.27
 74
     0
 49
-0.635
 74
     0
  0
LTYPE
  5
6B
330
5
100
AcDbSymbolTableRecord
100
AcDbLinetypeTableRecord
  2
PHANTOM
 70
     0
  3
Phantom ______  __  __  ______  __  __  ______
 72
    65
 73
     6
 40
12.7
 49
6.35
 74
     0
 49
-1.27
 74
     0
 49
1.27
 74
     0
 49
-1.27
 74
     0
 49
1.27
 74
     0
 49
-1.27
 74
     0
  0
LTYPE
  5
6C
330
5
100
AcDbSymbolTableRecord
100
AcDbLinetypeTableRecord
  2
CENTER
 70
     0
  3
Center ____ _ ____ _ ____ _ ____ _ ____ _ ____
 72
    65
 73
     4
 40
10.16
 49
6.35
 74
     0
 49
-1.27
 74
     0
 49
1.27
 74
     0
 49
-1.27
 74
     0
  0
LTYPE
  5
6D
330
5
100
AcDbSymbolTableRecord
100
AcDbLinetypeTableRecord
  2
CENTERX2
 70
     0
  3
Center (2x) ________  __  ________  __  _____
 72
    65
 73
     4
 40
20.32
 49
12.7
 74
     0
 49
-2.54
 74
     0
 49
2.54
 74
     0
 49
-2.54
 74
     0
  0
LTYPE
  5
6E
330
5
100
AcDbSymbolTableRecord
100
AcDbLinetypeTableRecord
  2
DOT2
 70
     0
  3
Dot (.5x) ........................................
 72
    65
 73
     2
 40
0.635
 49
0.0
 74
     0
 49
-0.635
 74
     0
  0
ENDTAB
  0
TABLE
  2
LAYER
  5
2
330
0
100
AcDbSymbolTable
 70
    17
  0
LAYER
  5
10
330
2
100
AcDbSymbolTableRecord
100
AcDbLayerTableRecord
  2
0
 70
     0
 62
     7
  6
Continuous
370
    -3
390
F
  0
LAYER
  5
6F
330
2
100
AcDbSymbolTableRecord
100
AcDbLayerTableRecord
  2
FORMAT
 70
     0
 62
     2
  6
Continuous
370
    -3
390
F
  0
LAYER
  5
70
330
2
100
AcDbSymbolTableRecord
100
AcDbLayerTableRecord
  2
외형선
 70
     0
 62
   100
  6
Continuous
370
    30
390
F
  0
LAYER
  5
71
330
2
100
AcDbSymbolTableRecord
100
AcDbLayerTableRecord
  2
숨은선
 70
     0
 62
     2
  6
HIDDEN
370
    15
390
F
  0
LAYER
  5
72
330
2
100
AcDbSymbolTableRecord
100
AcDbLayerTableRecord
  2
중심선
 70
     0
 62
     1
  6
CENTERX2
370
    -3
390
F
  0
LAYER
  5
73
330
2
100
AcDbSymbolTableRecord
100
AcDbLayerTableRecord
  2
파단선
 70
     0
 62
     4
  6
Continuous
370
    -3
390
F
  0
LAYER
  5
74
330
2
100
AcDbSymbolTableRecord
100
AcDbLayerTableRecord
  2
해칭선
 70
     0
 62
     4
  6
Continuous
370
    -3
390
F
  0
LAYER
  5
75
330
2
100
AcDbSymbolTableRecord
100
AcDbLayerTableRecord
  2
가는실선
 70
     0
 62
     4
  6
Continuous
370
    -3
390
F
  0
LAYER
  5
76
330
2
100
AcDbSymbolTableRecord
100
AcDbLayerTableRecord
  2
치수_보조선
 70
     0
 62
     4
  6
Continuous
370
    -3
390
F
  0
LAYER
  5
77
330
2
100
AcDbSymbolTableRecord
100
AcDbLayerTableRecord
  2
치수문자_일반주서
 70
     0
 62
     7
  6
Continuous
370
    15
390
F
  0
LAYER
  5
78
330
2
100
AcDbSymbolTableRecord
100
AcDbLayerTableRecord
  2
개별주서
 70
     0
 62
   100
  6
Continuous
370
    30
390
F
  0
LAYER
  5
79
330
2
100
AcDbSymbolTableRecord
100
AcDbLayerTableRecord
  2
중간선
 70
     0
 62
     2
  6
Continuous
370
    15
390
F
  0
LAYER
  5
7A
330
2
100
AcDbSymbolTableRecord
100
AcDbLayerTableRecord
  2
윤곽선
 70
     0
 62
     3
  6
Continuous
370
    40
390
F
  0
LAYER
  5
7B
330
2
100
AcDbSymbolTableRecord
100
AcDbLayerTableRecord
  2
중심마크
 70
     0
 62
   100
  6
Continuous
370
    30
390
F
  0
LAYER
  5
7C
330
2
100
AcDbSymbolTableRecord
100
AcDbLayerTableRecord
  2
가상선
 70
     0
 62
     4
  6
PHANTOM
370
    -3
390
F
  0
LAYER
  5
7D
330
2
100
AcDbSymbolTableRecord
100
AcDbLayerTableRecord
  2
특수지정선
 70
     0
 62
     5
  6
CENTERX2
370
    60
390
F
  0
LAYER
  5
178
330
2
100
AcDbSymbolTableRecord
100
AcDbLayerTableRecord
  2
Defpoints
 70
     0
 62
     7
  6
Continuous
290
     0
370
    -3
390
F
  0
ENDTAB
  0
TABLE
  2
STYLE
  5
3
330
0
100
AcDbSymbolTable
 70
     2
  0
STYLE
  5
11
330
3
100
AcDbSymbolTableRecord
100
AcDbTextStyleTableRecord
  2
Standard
 70
     0
 40
0.0
 41
1.0
 50
0.0
 71
     0
 42
3.5
  3
txt
  4

  0
STYLE
  5
93
330
3
100
AcDbSymbolTableRecord
100
AcDbTextStyleTableRecord
  2
SLDTEXTSTYLE0
 70
     0
 40
0.0
 41
0.75
 50
0.0
 71
     0
 42
3.5
  3
TXT
  4

  0
ENDTAB
  0
TABLE
  2
VIEW
  5
6
330
0
100
AcDbSymbolTable
 70
     0
  0
ENDTAB
  0
TABLE
  2
UCS
  5
7
330
0
100
AcDbSymbolTable
 70
     0
  0
ENDTAB
  0
TABLE
  2
APPID
  5
9
330
0
100
AcDbSymbolTable
 70
     2
  0
APPID
  5
12
330
9
100
AcDbSymbolTableRecord
100
AcDbRegAppTableRecord
  2
ACAD
 70
     0
  0
APPID
  5
17E
330
9
100
AcDbSymbolTableRecord
100
AcDbRegAppTableRecord
  2
ACAD_DSTYLE_DIMRADIAL_EXTENSION
 70
     0
  0
ENDTAB
  0
TABLE
  2
DIMSTYLE
  5
A
330
0
100
AcDbSymbolTable
 70
     5
100
AcDbDimStyleTable
  0
DIMSTYLE
105
27
330
A
100
AcDbSymbolTableRecord
100
AcDbDimStyleTableRecord
  2
ISO-25
 70
     0
 41
2.5
 42
0.625
 43
3.75
 44
1.25
 73
     0
 74
     0
 77
     1
 78
     8
140
2.5
141
2.5
143
0.03937007874016
147
0.625
171
     3
172
     1
178
     0
271
     2
272
     2
274
     3
278
    44
283
     0
284
     8
340
11
  0
DIMSTYLE
105
FC
102
{ACAD_REACTORS
330
FB
102
}
330
A
100
AcDbSymbolTableRecord
100
AcDbDimStyleTableRecord
  2
SLDDIMSTYLE0
 70
     0
 41
3.302
 44
0.0
 45
0.000000001
 73
     0
 74
     0
 77
     1
 78
    12
 79
     3
140
3.5
143
0.0393700787401575
147
0.875
148
0.000000001
170
     1
172
     1
173
     1
178
     0
271
     2
272
     2
276
     2
284
    12
289
     0
340
93
  0
DIMSTYLE
105
111
102
{ACAD_REACTORS
330
110
102
}
330
A
100
AcDbSymbolTableRecord
100
AcDbDimStyleTableRecord
  2
SLDDIMSTYLE1
 70
     0
 41
3.302
 44
0.0
 45
0.000000001
 73
     0
 74
     0
 77
     1
 78
     4
 79
     1
140
3.5
143
0.0393700787401575
147
0.875
148
0.000000001
170
     1
173
     1
178
     0
271
     2
272
     2
276
     2
284
    12
340
93
  0
DIMSTYLE
105
125
102
{ACAD_REACTORS
330
124
330
17F
102
}
330
A
100
AcDbSymbolTableRecord
100
AcDbDimStyleTableRecord
  2
SLDDIMSTYLE2
 70
     0
 41
3.302
 44
0.0
 45
0.000000001
 73
     0
 74
     0
 77
     1
 78
    12
 79
     3
140
3.5
143
0.0393700787401575
147
0.875
148
0.000000001
170
     1
173
     1
178
     0
271
     2
272
     2
276
     2
284
    12
340
93
  0
DIMSTYLE
105
139
102
{ACAD_REACTORS
330
138
102
}
330
A
100
AcDbSymbolTableRecord
100
AcDbDimStyleTableRecord
  2
SLDDIMSTYLE3
 70
     0
 41
3.302
 44
0.0
 45
0.000000001
 73
     0
 74
     0
 77
     1
 78
     4
 79
     1
140
3.5
143
0.0393700787401575
147
0.875
148
0.000000001
170
     1
172
     1
173
     1
178
     0
271
     2
272
     2
276
     2
284
    12
289
     0
340
93
  0
ENDTAB
  0
TABLE
  2
BLOCK_RECORD
  5
1
330
0
100
AcDbSymbolTable
 70
     8
  0
BLOCK_RECORD
  5
1F
330
1
100
AcDbSymbolTableRecord
100
AcDbBlockTableRecord
  2
*Model_Space
340
22
  0
BLOCK_RECORD
  5
1B
330
1
100
AcDbSymbolTableRecord
100
AcDbBlockTableRecord
  2
*Paper_Space
340
1E
  0
BLOCK_RECORD
  5
23
330
1
100
AcDbSymbolTableRecord
100
AcDbBlockTableRecord
  2
*Paper_Space0
340
26
  0
BLOCK_RECORD
  5
7E
330
1
100
AcDbSymbolTableRecord
100
AcDbBlockTableRecord
  2
블럭10
340
0
102
{BLKREFS
331
F3
102
}
  0
BLOCK_RECORD
  5
FD
330
1
100
AcDbSymbolTableRecord
100
AcDbBlockTableRecord
  2
_D
340
0
  0
BLOCK_RECORD
  5
112
330
1
100
AcDbSymbolTableRecord
100
AcDbBlockTableRecord
  2
_D_1
340
0
  0
BLOCK_RECORD
  5
126
330
1
100
AcDbSymbolTableRecord
100
AcDbBlockTableRecord
  2
_D_2
340
0
  0
BLOCK_RECORD
  5
13A
330
1
100
AcDbSymbolTableRecord
100
AcDbBlockTableRecord
  2
_D_3
340
0
  0
BLOCK_RECORD
  5
14D
330
1
100
AcDbSymbolTableRecord
100
AcDbBlockTableRecord
  2
SW_DOWELSYMBOL_0
340
0
102
{BLKREFS
331
153
102
}
  0
BLOCK_RECORD
  5
182
330
1
100
AcDbSymbolTableRecord
100
AcDbBlockTableRecord
  2
*D7
340
0
  0
ENDTAB
  0
ENDSEC
  0
SECTION
  2
BLOCKS
  0
BLOCK
  5
20
330
1F
100
AcDbEntity
  8
0
100
AcDbBlockBegin
  2
*Model_Space
 70
     0
 10
0.0
 20
0.0
 30
0.0
  3
*Model_Space
  1
*Model_Space
  0
ENDBLK
  5
21
330
1F
100
AcDbEntity
  8
0
100
AcDbBlockEnd
  0
BLOCK
  5
1C
330
1B
100
AcDbEntity
 67
     1
  8
0
100
AcDbBlockBegin
  2
*Paper_Space
 70
     0
 10
0.0
 20
0.0
 30
0.0
  3
*Paper_Space
  1
*Paper_Space
  0
ENDBLK
  5
1D
330
1B
100
AcDbEntity
 67
     1
  8
0
100
AcDbBlockEnd
  0
BLOCK
  5
24
330
23
100
AcDbEntity
  8
0
100
AcDbBlockBegin
  2
*Paper_Space0
 70
     0
 10
0.0
 20
0.0
 30
0.0
  3
*Paper_Space0
  1
*Paper_Space0
  0
ENDBLK
  5
25
330
23
100
AcDbEntity
  8
0
100
AcDbBlockEnd
  0
BLOCK
  5
7F
330
7E
100
AcDbEntity
  8
0
100
AcDbBlockBegin
  2
블럭10
 70
     2
 10
0.0
 20
0.0
 30
0.0
  3
블럭10
  1
블럭10
  0
ELLIPSE
  5
81
330
7E
100
AcDbEntity
  8
중심선
100
AcDbEllipse
 10
20.54032771741204
 20
12.0471743016438
 30
0.0
 11
6.600054785286829
 21
-1.261213355974178E-13
 31
0.0
210
0.0
220
0.0
230
1.0
 40
0.636358354079598
 41
0.9219305317359503
 42
6.513795318482858
  0
ELLIPSE
  5
82
330
7E
100
AcDbEntity
  8
중심선
100
AcDbEllipse
 10
20.54032771746488
 20
12.04717430159265
 30
0.0
 11
3.960054785062283
 21
1.540847449632565E-10
 31
0.0
210
0.0
220
0.0
230
1.0
 40
0.3939339440162632
 41
1.131841032648279
 42
5.62031148352944
  0
LINE
  5
83
330
7E
100
AcDbEntity
  8
중심선
100
AcDbLine
 10
2.268634060543552
 20
16.24717430164393
 30
0.0
 11
5.714909304380834
 21
16.24717430164393
 31
0.0
  0
LINE
  5
84
330
7E
100
AcDbEntity
  8
중심선
100
AcDbLine
 10
5.245725140726316
 20
7.84717430164391
 30
0.0
 11
8.692000384563599
 21
7.84717430164391
 31
0.0
  0
LINE
  5
85
330
7E
100
AcDbEntity
  8
중심선
100
AcDbLine
 10
15.74043728645272
 20
16.24717430164393
 30
0.0
 11
8.692000384563599
 21
7.84717430164391
 31
0.0
  0
LINE
  5
86
330
7E
100
AcDbEntity
  8
중심선
100
AcDbLine
 10
0.1404042013395286
 20
13.71084872107135
 30
0.0
 11
3.58671253028996
 21
13.71088815037384
 31
0.0
  0
LINE
  5
87
330
7E
100
AcDbEntity
  8
중심선
100
AcDbLine
 10
2.750260043222114
 20
10.84717430164391
 30
0.0
 11
6.196535287059397
 21
10.84717430164391
 31
0.0
  0
LINE
  5
88
330
7E
100
AcDbEntity
  8
중심선
100
AcDbLine
 10
12.29416204261559
 20
16.24717430164393
 30
0.0
 11
5.245725140726316
 21
7.84717430164391
 31
0.0
  0
LINE
  5
89
330
7E
100
AcDbEntity
  8
중심선
100
AcDbLine
 10
10.72767329541681
 20
16.24717430164393
 30
0.0
 11
6.196535287059397
 21
10.84717430164391
 31
0.0
  0
LINE
  5
8A
330
7E
100
AcDbEntity
  8
중심선
100
AcDbLine
 10
7.28139805157953
 20
16.24717430164393
 30
0.0
 11
2.750260043222114
 21
10.84717430164391
 31
0.0
  0
LINE
  5
8B
330
7E
100
AcDbEntity
  8
중심선
100
AcDbLine
 10
5.714909304380834
 20
16.24717430164393
 30
0.0
 11
3.58671253028996
 21
13.71088815037384
 31
0.0
  0
LINE
  5
8C
330
7E
100
AcDbEntity
  8
중심선
100
AcDbLine
 10
2.268634060543552
 20
16.24717430164393
 30
0.0
 11
0.1404042013395286
 21
13.71084872107135
 31
0.0
  0
LINE
  5
8D
330
7E
100
AcDbEntity
  8
중심선
100
AcDbLine
 10
7.28139805157953
 20
16.24717430164393
 30
0.0
 11
10.72767329541681
 21
16.24717430164393
 31
0.0
  0
LINE
  5
8E
330
7E
100
AcDbEntity
  8
중심선
100
AcDbLine
 10
12.29416204261559
 20
16.24717430164393
 30
0.0
 11
15.74043728645272
 21
16.24717430164393
 31
0.0
  0
LINE
  5
8F
330
7E
100
AcDbEntity
  8
중심선
100
AcDbLine
 10
19.22036997980202
 20
11.08717430171403
 30
0.0
 11
23.66174974927406
 21
11.08717430171406
 31
0.0
  0
LINE
  5
90
330
7E
100
AcDbEntity
  8
중심선
100
AcDbLine
 10
19.22039502424796
 20
13.00717430171391
 30
0.0
 11
19.22036997980202
 21
11.08717430171403
 31
0.0
  0
LINE
  5
91
330
7E
100
AcDbEntity
  8
중심선
100
AcDbLine
 10
19.22039502424796
 20
13.00717430171391
 30
0.0
 11
26.96566020931264
 21
13.00717430171391
 31
0.0
  0
LINE
  5
92
330
7E
100
AcDbEntity
  8
중심선
100
AcDbLine
 10
22.22332737316547
 20
13.45928029700563
 30
0.0
 11
24.52862924686651
 21
15.39360700705356
 31
0.0
  0
ATTDEF
  5
94
330
7E
100
AcDbEntity
  8
FORMAT
 62
     2
100
AcDbText
 10
-11.05102035218446
 20
2.075366912832191
 30
0.0
 40
4.233333333333333
  1
GMG22920[ 6 FLUTE ]
 41
0.75
  7
SLDTEXTSTYLE0
 11
-11.05102035218446
 21
-0.0412997538344756
 31
0.0
100
AcDbAttributeDefinition
  3

  2
AUTOATTR0
 70
     0
 74
     1
  0
ENDBLK
  5
80
330
7E
100
AcDbEntity
  8
0
100
AcDbBlockEnd
  0
BLOCK
  5
FE
330
FD
100
AcDbEntity
  8
0
100
AcDbBlockBegin
  2
_D
 70
     0
 10
0.0
 20
0.0
 30
0.0
  3
_D
  1
_D
  0
LINE
  5
100
330
FD
100
AcDbEntity
  8
치수문자_일반주서
 62
     0
370
    -2
100
AcDbLine
 10
40.28849999999999
 20
-6.349999999999993
 30
0.0
 11
59.53201278241475
 21
-6.34999999999992
 31
0.0
  0
LINE
  5
101
330
FD
100
AcDbEntity
  8
치수문자_일반주서
 62
     0
370
    -2
100
AcDbLine
 10
40.28849999999999
 20
6.350000000000005
 30
0.0
 11
59.5320127824147
 21
6.350000000000078
 31
0.0
  0
LINE
  5
102
330
FD
100
AcDbEntity
  8
치수문자_일반주서
 62
     0
370
    -2
100
AcDbLine
 10
59.53201278241473
 20
-3.04799999999992
 30
0.0
 11
59.53201278241472
 21
3.048000000000078
 31
0.0
  0
SOLID
  5
103
330
FD
100
AcDbEntity
  8
치수문자_일반주서
 62
     0
100
AcDbTrace
 10
58.9816794490814
 20
-3.047999999999921
 30
0.0
 11
60.08234611574807
 21
-3.047999999999918
 31
0.0
 12
59.53201278241475
 22
-6.34999999999992
 32
0.0
 13
59.53201278241475
 23
-6.34999999999992
 33
0.0
  0
SOLID
  5
104
330
FD
100
AcDbEntity
  8
치수문자_일반주서
 62
     0
100
AcDbTrace
 10
60.08234611574805
 20
3.04800000000008
 30
0.0
 11
58.98167944908138
 21
3.048000000000076
 31
0.0
 12
59.5320127824147
 22
6.350000000000078
 32
0.0
 13
59.5320127824147
 23
6.350000000000078
 33
0.0
  0
MTEXT
  5
105
330
FD
100
AcDbEntity
  8
치수문자_일반주서
 62
     0
100
AcDbMText
 10
55.15701278241472
 20
2.703419368888233
 30
0.0
 40
3.5
 41
0.0
 71
     2
 72
     1
  1
\A1;%%c12.7 [1/2]
  7
SLDTEXTSTYLE0
 11
-3.356894814614647E-15
 21
1.0
 31
0.0
 73
     1
 44
1.0
  0
POINT
  5
106
330
FD
100
AcDbEntity
  8
Defpoints
 62
     0
100
AcDbPoint
 10
40.22599999999999
 20
-6.349999999999993
 30
0.0
  0
POINT
  5
107
330
FD
100
AcDbEntity
  8
Defpoints
 62
     0
100
AcDbPoint
 10
40.22599999999999
 20
6.350000000000005
 30
0.0
  0
POINT
  5
108
330
FD
100
AcDbEntity
  8
Defpoints
 62
     0
100
AcDbPoint
 10
59.5320127824147
 20
6.350000000000077
 30
0.0
  0
ENDBLK
  5
FF
330
FD
100
AcDbEntity
  8
0
100
AcDbBlockEnd
  0
BLOCK
  5
113
330
112
100
AcDbEntity
  8
0
100
AcDbBlockBegin
  2
_D_1
 70
     0
 10
0.0
 20
0.0
 30
0.0
  3
_D_1
  1
_D_1
  0
LINE
  5
115
330
112
100
AcDbEntity
  8
치수문자_일반주서
 62
     0
370
    -2
100
AcDbLine
 10
-47.15000000000001
 20
5.912499999999999
 30
0.0
 11
-47.14999999999999
 21
39.00555141807178
 31
0.0
  0
LINE
  5
116
330
112
100
AcDbEntity
  8
치수문자_일반주서
 62
     0
370
    -2
100
AcDbLine
 10
41.75000000000001
 20
5.650500000000005
 30
0.0
 11
41.75000000000001
 21
39.00555141807178
 31
0.0
  0
LINE
  5
117
330
112
100
AcDbEntity
  8
치수문자_일반주서
 62
     0
370
    -2
100
AcDbLine
 10
-43.84799999999999
 20
39.00555141807178
 30
0.0
 11
38.44800000000001
 21
39.00555141807178
 31
0.0
  0
SOLID
  5
118
330
112
100
AcDbEntity
  8
치수문자_일반주서
 62
     0
100
AcDbTrace
 10
-43.84799999999999
 20
39.55588475140512
 30
0.0
 11
-43.84799999999999
 21
38.45521808473845
 31
0.0
 12
-47.14999999999999
 22
39.00555141807178
 32
0.0
 13
-47.14999999999999
 23
39.00555141807178
 33
0.0
  0
SOLID
  5
119
330
112
100
AcDbEntity
  8
치수문자_일반주서
 62
     0
100
AcDbTrace
 10
38.44800000000001
 20
38.45521808473845
 30
0.0
 11
38.44800000000001
 21
39.55588475140512
 31
0.0
 12
41.75000000000001
 22
39.00555141807178
 32
0.0
 13
41.75000000000001
 23
39.00555141807178
 33
0.0
  0
MTEXT
  5
11A
330
112
100
AcDbEntity
  8
치수문자_일반주서
 62
     0
100
AcDbMText
 10
-2.699999999999999
 20
43.38055141807178
 30
0.0
 40
3.5
 41
0.0
 71
     2
 72
     1
  1
\A1;88.90 [3 1/2]
  7
SLDTEXTSTYLE0
 73
     1
 44
1.0
  0
POINT
  5
11B
330
112
100
AcDbEntity
  8
Defpoints
 62
     0
100
AcDbPoint
 10
-47.15000000000001
 20
5.849999999999999
 30
0.0
  0
POINT
  5
11C
330
112
100
AcDbEntity
  8
Defpoints
 62
     0
100
AcDbPoint
 10
41.75000000000001
 20
5.588000000000005
 30
0.0
  0
POINT
  5
11D
330
112
100
AcDbEntity
  8
Defpoints
 62
     0
100
AcDbPoint
 10
41.75000000000001
 20
39.00555141807178
 30
0.0
  0
ENDBLK
  5
114
330
112
100
AcDbEntity
  8
0
100
AcDbBlockEnd
  0
BLOCK
  5
127
330
126
100
AcDbEntity
  8
0
100
AcDbBlockBegin
  2
_D_2
 70
     0
 10
0.0
 20
0.0
 30
0.0
  3
_D_2
  1
_D_2
  0
LINE
  5
129
330
126
100
AcDbEntity
  8
치수문자_일반주서
 62
     0
370
    -2
100
AcDbLine
 10
41.75000000000001
 20
4.888500000000005
 30
0.0
 11
41.75000000000001
 21
23.21499453033794
 31
0.0
  0
LINE
  5
12A
330
126
100
AcDbEntity
  8
치수문자_일반주서
 62
     0
370
    -2
100
AcDbLine
 10
9.999999999999991
 20
-5.951567544348812
 30
0.0
 11
9.999999999999991
 21
23.21499453033794
 31
0.0
  0
LINE
  5
12B
330
126
100
AcDbEntity
  8
치수문자_일반주서
 62
     0
370
    -2
100
AcDbLine
 10
38.44800000000001
 20
23.21499453033794
 30
0.0
 11
13.30199999999999
 21
23.21499453033794
 31
0.0
  0
SOLID
  5
12C
330
126
100
AcDbEntity
  8
치수문자_일반주서
 62
     0
100
AcDbTrace
 10
38.44800000000001
 20
22.66466119700461
 30
0.0
 11
38.44800000000001
 21
23.76532786367128
 31
0.0
 12
41.75000000000001
 22
23.21499453033794
 32
0.0
 13
41.75000000000001
 23
23.21499453033794
 33
0.0
  0
SOLID
  5
12D
330
126
100
AcDbEntity
  8
치수문자_일반주서
 62
     0
100
AcDbTrace
 10
13.30199999999999
 20
23.76532786367128
 30
0.0
 11
13.30199999999999
 21
22.66466119700461
 31
0.0
 12
9.999999999999991
 22
23.21499453033794
 32
0.0
 13
9.999999999999991
 23
23.21499453033794
 33
0.0
  0
MTEXT
  5
12E
330
126
100
AcDbEntity
  8
치수문자_일반주서
 62
     0
100
AcDbMText
 10
25.52575141487685
 20
27.58999453033794
 30
0.0
 40
3.5
 41
0.0
 71
     2
 72
     1
  1
\A1;31.75 [1 1/4]
  7
SLDTEXTSTYLE0
 73
     1
 44
1.0
  0
POINT
  5
12F
330
126
100
AcDbEntity
  8
Defpoints
 62
     0
100
AcDbPoint
 10
41.75000000000001
 20
4.826000000000005
 30
0.0
  0
POINT
  5
130
330
126
100
AcDbEntity
  8
Defpoints
 62
     0
100
AcDbPoint
 10
9.999999999999991
 20
-6.014067544348812
 30
0.0
  0
POINT
  5
131
330
126
100
AcDbEntity
  8
Defpoints
 62
     0
100
AcDbPoint
 10
9.999999999999991
 20
23.21499453033794
 30
0.0
  0
ENDBLK
  5
128
330
126
100
AcDbEntity
  8
0
100
AcDbBlockEnd
  0
BLOCK
  5
13B
330
13A
100
AcDbEntity
  8
0
100
AcDbBlockBegin
  2
_D_3
 70
     0
 10
0.0
 20
0.0
 30
0.0
  3
_D_3
  1
_D_3
  0
LINE
  5
13D
330
13A
100
AcDbEntity
  8
치수문자_일반주서
 62
     0
370
    -2
100
AcDbLine
 10
-46.71250000000001
 20
6.350000000000001
 30
0.0
 11
-60.15000000000003
 21
6.349999999999952
 31
0.0
  0
LINE
  5
13E
330
13A
100
AcDbEntity
  8
치수문자_일반주서
 62
     0
370
    -2
100
AcDbLine
 10
-46.71250000000001
 20
-6.349999999999997
 30
0.0
 11
-60.14999999999999
 21
-6.350000000000047
 31
0.0
  0
LINE
  5
13F
330
13A
100
AcDbEntity
  8
치수문자_일반주서
 62
     0
370
    -2
100
AcDbLine
 10
-60.15000000000002
 20
3.047999999999952
 30
0.0
 11
-60.15000000000001
 21
-3.048000000000047
 31
0.0
  0
SOLID
  5
140
330
13A
100
AcDbEntity
  8
치수문자_일반주서
 62
     0
100
AcDbTrace
 10
-59.59966666666669
 20
3.047999999999953
 30
0.0
 11
-60.70033333333335
 21
3.04799999999995
 31
0.0
 12
-60.15000000000003
 22
6.349999999999952
 32
0.0
 13
-60.15000000000003
 23
6.349999999999952
 33
0.0
  0
SOLID
  5
141
330
13A
100
AcDbEntity
  8
치수문자_일반주서
 62
     0
100
AcDbTrace
 10
-60.70033333333334
 20
-3.048000000000048
 30
0.0
 11
-59.59966666666667
 21
-3.048000000000045
 31
0.0
 12
-60.14999999999999
 22
-6.350000000000047
 32
0.0
 13
-60.14999999999999
 23
-6.350000000000047
 33
0.0
  0
MTEXT
  5
142
330
13A
100
AcDbEntity
  8
치수문자_일반주서
 62
     0
100
AcDbMText
 10
-64.525
 20
-0.0000000000000146
 30
0.0
 40
3.5
 41
0.0
 71
     2
 72
     1
  1
\A1;%%c12.70 [1/2]
  7
SLDTEXTSTYLE0
 11
-3.356894814614647E-15
 21
1.0
 31
0.0
 73
     1
 44
1.0
  0
POINT
  5
143
330
13A
100
AcDbEntity
  8
Defpoints
 62
     0
100
AcDbPoint
 10
-46.65000000000001
 20
6.350000000000001
 30
0.0
  0
POINT
  5
144
330
13A
100
AcDbEntity
  8
Defpoints
 62
     0
100
AcDbPoint
 10
-46.65000000000001
 20
-6.349999999999997
 30
0.0
  0
POINT
  5
145
330
13A
100
AcDbEntity
  8
Defpoints
 62
     0
100
AcDbPoint
 10
-60.15
 20
-6.350000000000048
 30
0.0
  0
ENDBLK
  5
13C
330
13A
100
AcDbEntity
  8
0
100
AcDbBlockEnd
  0
BLOCK
  5
14E
330
14D
100
AcDbEntity
  8
0
100
AcDbBlockBegin
  2
SW_DOWELSYMBOL_0
 70
     0
 10
0.0
 20
0.0
 30
0.0
  3
SW_DOWELSYMBOL_0
  1
SW_DOWELSYMBOL_0
  0
CIRCLE
  5
150
330
14D
100
AcDbEntity
  8
외형선
 62
     0
100
AcDbCircle
 10
0.0
 20
0.0
 30
0.0
 40
3.000000000000004
  0
HATCH
  5
151
330
14D
100
AcDbEntity
  8
0
  6
Continuous
 62
     0
370
    30
100
AcDbHatch
 10
0.0
 20
0.0
 30
0.0
210
0.0
220
0.0
230
1.0
  2
SOLID
 70
     1
 71
     0
 91
        1
 92
        0
 93
        3
 72
     2
 10
0.0
 20
0.0
 40
3.000000000000004
 50
0.0
 51
90.0
 73
     1
 72
     1
 10
0.0
 20
3.000000000000004
 11
0.0
 21
0.0
 72
     1
 10
0.0
 20
0.0
 11
3.000000000000004
 21
0.0
 97
        0
 75
     0
 76
     1
 98
        1
 10
0.0
 20
0.0
  0
HATCH
  5
152
330
14D
100
AcDbEntity
  8
0
  6
Continuous
 62
     0
370
    30
100
AcDbHatch
 10
0.0
 20
0.0
 30
0.0
210
0.0
220
0.0
230
1.0
  2
SOLID
 70
     1
 71
     0
 91
        1
 92
        0
 93
        3
 72
     2
 10
0.0
 20
0.0
 40
3.000000000000004
 50
180.0
 51
270.0000000000007
 73
     1
 72
     1
 10
0.0
 20
-3.000000000000004
 11
0.0
 21
0.0
 72
     1
 10
0.0
 20
0.0
 11
-3.000000000000004
 21
0.0
 97
        0
 75
     0
 76
     1
 98
        1
 10
0.0
 20
0.0
  0
ENDBLK
  5
14F
330
14D
100
AcDbEntity
  8
0
100
AcDbBlockEnd
  0
BLOCK
  5
183
330
182
100
AcDbEntity
  8
0
100
AcDbBlockBegin
  2
*D7
 70
     1
 10
0.0
 20
0.0
 30
0.0
  3
*D7
  1
*D7
  0
LINE
  5
185
330
182
100
AcDbEntity
  8
치수문자_일반주서
 62
     0
370
    -2
100
AcDbLine
 10
43.01305710649432
 20
8.765871658460398
 30
0.0
 11
62.17468170051914
 21
35.85334736613112
 31
0.0
  0
MTEXT
  5
186
330
182
100
AcDbEntity
  8
치수문자_일반주서
 62
     0
100
AcDbMText
 10
51.94655020562087
 20
25.93992459076893
 30
0.0
 40
3.5
 41
0.0
 71
     5
 72
     1
  1
\A1;R1.52 [R0.06]
  7
SLDTEXTSTYLE0
 11
0.5775087249263005
 21
0.8163845127352666
 31
0.0
 73
     1
 44
1.0
  0
SOLID
  5
187
330
182
100
AcDbEntity
  8
치수문자_일반주서
 62
     0
100
AcDbTrace
 10
42.56377349631901
 20
9.083693960078172
 30
0.0
 11
43.46234071666962
 21
8.448049356842624
 31
0.0
 12
41.10612329678767
 22
6.070169997408549
 32
0.0
 13
41.10612329678767
 23
6.070169997408549
 33
0.0
  0
LINE
  5
188
330
182
100
AcDbEntity
  8
치수문자_일반주서
 62
     0
100
AcDbLine
 10
40.13599999999999
 20
4.826000000000005
 30
0.0
 11
40.316
 21
4.826000000000005
 31
0.0
  0
LINE
  5
189
330
182
100
AcDbEntity
  8
치수문자_일반주서
 62
     0
100
AcDbLine
 10
40.22599999999999
 20
4.736000000000005
 30
0.0
 11
40.22599999999999
 21
4.916000000000005
 31
0.0
  0
POINT
  5
18A
330
182
100
AcDbEntity
  8
Defpoints
 62
     0
100
AcDbPoint
 10
41.10612329678767
 20
6.070169997408549
 30
0.0
  0
POINT
  5
18B
330
182
100
AcDbEntity
  8
Defpoints
 62
     0
100
AcDbPoint
 10
40.22599999999999
 20
4.826000000000005
 30
0.0
  0
ENDBLK
  5
184
330
182
100
AcDbEntity
  8
0
100
AcDbBlockEnd
  0
ENDSEC
  0
SECTION
  2
ENTITIES
  0
LINE
  5
95
330
1F
100
AcDbEntity
  8
0
  6
Continuous
 62
     4
370
    15
100
AcDbLine
 10
8.097270301605084
 20
6.350000000000005
 30
0.0
 11
-46.65000000000001
 21
6.350000000000001
 31
0.0
  0
LINE
  5
96
330
1F
100
AcDbEntity
  8
0
  6
Continuous
 62
     4
370
    15
100
AcDbLine
 10
-46.65000000000001
 20
-6.349999999999997
 30
0.0
 11
8.097270301605098
 21
-6.349999999999994
 31
0.0
  0
LINE
  5
97
330
1F
100
AcDbEntity
  8
0
  6
Continuous
 62
     4
370
    15
100
AcDbLine
 10
-46.65000000000001
 20
6.349999999999998
 30
0.0
 11
-47.15000000000001
 21
5.849999999999999
 31
0.0
  0
LINE
  5
98
330
1F
100
AcDbEntity
  8
0
  6
Continuous
 62
     4
370
    15
100
AcDbLine
 10
-47.15000000000001
 20
-5.849999999999997
 30
0.0
 11
-46.65000000000001
 21
-6.349999999999994
 31
0.0
  0
LINE
  5
99
330
1F
100
AcDbEntity
  8
0
  6
Continuous
 62
     1
370
    15
100
AcDbLine
 10
7.970376235597087
 20
-6.280844186446926
 30
0.0
 11
7.970376224053132
 21
-6.28070535315394
 31
0.0
  0
LINE
  5
9A
330
1F
100
AcDbEntity
  8
0
  6
Continuous
 62
     1
370
    15
100
AcDbLine
 10
39.00174487869126
 20
-6.349999999999994
 30
0.0
 11
40.22599999999999
 21
-6.349999999999994
 31
0.0
  0
LINE
  5
9B
330
1F
100
AcDbEntity
  8
0
  6
Continuous
 62
     1
370
    15
100
AcDbLine
 10
21.22473802695538
 20
6.350000000000005
 30
0.0
 11
19.05192204434375
 21
6.350000000000005
 31
0.0
  0
LINE
  5
9C
330
1F
100
AcDbEntity
  8
0
  6
Continuous
 62
     1
370
    15
100
AcDbLine
 10
25.70340550578121
 20
-6.349999999999994
 30
0.0
 11
27.87321375738287
 21
-6.349999999999994
 31
0.0
  0
LINE
  5
9D
330
1F
100
AcDbEntity
  8
0
  6
Continuous
 62
     1
370
    15
100
AcDbLine
 10
27.8732137573829
 20
6.350000000000005
 30
0.0
 11
25.70340550578125
 21
6.350000000000005
 31
0.0
  0
LINE
  5
9E
330
1F
100
AcDbEntity
  8
0
  6
Continuous
 62
     1
370
    15
100
AcDbLine
 10
32.3513847642764
 20
-6.349999999999994
 30
0.0
 11
34.52343222929203
 21
-6.349999999999994
 31
0.0
  0
LINE
  5
9F
330
1F
100
AcDbEntity
  8
0
  6
Continuous
 62
     1
370
    15
100
AcDbLine
 10
14.57377096210656
 20
6.350000000000005
 30
0.0
 11
12.40251837069716
 21
6.350000000000005
 31
0.0
  0
LINE
  5
A0
330
1F
100
AcDbEntity
  8
0
  6
Continuous
 62
     1
370
    15
100
AcDbLine
 10
19.05192204434375
 20
-6.349999999999994
 30
0.0
 11
21.22473802695535
 21
-6.349999999999994
 31
0.0
  0
LINE
  5
A1
330
1F
100
AcDbEntity
  8
0
  6
Continuous
 62
     1
370
    15
100
AcDbLine
 10
40.22599999999999
 20
6.350000000000005
 30
0.0
 11
39.00174487869126
 21
6.350000000000005
 31
0.0
  0
LINE
  5
A2
330
1F
100
AcDbEntity
  8
0
  6
Continuous
 62
     1
370
    15
100
AcDbLine
 10
12.40251837069721
 20
-6.349999999999994
 30
0.0
 11
14.57377096210655
 21
-6.349999999999994
 31
0.0
  0
LINE
  5
A3
330
1F
100
AcDbEntity
  8
0
  6
Continuous
 62
     1
370
    15
100
AcDbLine
 10
34.52343222929203
 20
6.350000000000005
 30
0.0
 11
32.35138476427643
 21
6.350000000000005
 31
0.0
  0
SPLINE
  5
A6
330
1F
100
AcDbEntity
  8
0
  6
Continuous
 62
     4
370
    15
100
AcDbSpline
210
0.0
220
0.0
230
1.0
 70
     8
 71
     3
 72
    20
 73
    16
 74
     0
 42
0.000000001
 43
0.00000001
 40
0.0
 40
0.0
 40
0.0
 40
0.0
 40
0.1250000000000001
 40
0.1250000000000001
 40
0.2500000000000001
 40
0.2500000000000001
 40
0.3750000000000002
 40
0.3750000000000002
 40
0.5000000000000002
 40
0.5000000000000002
 40
0.7500000000000002
 40
0.7500000000000002
 40
0.8750000000000001
 40
0.8750000000000001
 40
1.0
 40
1.0
 40
1.0
 40
1.0
 10
7.970376223537983
 20
-2.34474025788115
 30
0.0
 10
7.970376223537984
 20
-2.218549995456833
 30
0.0
 10
7.970574704376943
 20
-2.091005479590369
 30
0.0
 10
7.992550938187218
 20
-1.835102359492236
 30
0.0
 10
8.014164132650246
 20
-1.705648848541055
 30
0.0
 10
8.091360364277635
 20
-1.451954061224597
 30
0.0
 10
8.145642639295469
 20
-1.330748497943008
 30
0.0
 10
8.29368158515019
 20
-1.103628604052399
 30
0.0
 10
8.38334682559394
 20
-1.003813187734173
 30
0.0
 10
8.702187530413427
 20
-0.7497028549628464
 30
0.0
 10
8.972368724363672
 20
-0.6544975381944356
 30
0.0
 10
9.381754190779862
 20
-0.656176875949412
 30
0.0
 10
9.517245167301494
 20
-0.680082177246885
 30
0.0
 10
9.774100578642168
 20
-0.7722969085585873
 30
0.0
 10
9.893738590921037
 20
-0.8399360496976613
 30
0.0
 10
9.999999999999856
 20
-0.9262503012289145
 30
0.0
  0
SPLINE
  5
A7
330
1F
100
AcDbEntity
  8
0
  6
Continuous
 62
     4
370
    15
100
AcDbSpline
210
0.0
220
0.0
230
1.0
 70
     8
 71
     3
 72
    14
 73
    10
 74
     0
 42
0.000000001
 43
0.00000001
 40
0.0
 40
0.0
 40
0.0
 40
0.0
 40
0.25
 40
0.25
 40
0.5
 40
0.5
 40
0.75
 40
0.75
 40
1.0
 40
1.0
 40
1.0
 40
1.0
 10
8.39015925086294
 20
-3.568875868801741
 30
0.0
 10
8.30150265142728
 20
-3.495283856552463
 30
0.0
 10
8.228580541900042
 20
-3.41166480016558
 30
0.0
 10
8.110315485923413
 20
-3.225089480158446
 30
0.0
 10
8.066195901752385
 20
-3.122997569686933
 30
0.0
 10
8.005212551946315
 20
-2.911156257174387
 30
0.0
 10
7.98786794645495
 20
-2.799796051497635
 30
0.0
 10
7.970467864698372
 20
-2.574966198543416
 30
0.0
 10
7.970376223537981
 20
-2.460613557004753
 30
0.0
 10
7.970376223537983
 20
-2.344740257881151
 30
0.0
  0
SPLINE
  5
A8
330
1F
100
AcDbEntity
  8
0
  6
Continuous
 62
     4
370
    15
100
AcDbSpline
210
0.0
220
0.0
230
1.0
 70
     8
 71
     3
 72
    10
 73
     6
 74
     0
 42
0.000000001
 43
0.00000001
 40
0.0
 40
0.0
 40
0.0
 40
0.0
 40
0.5
 40
0.5
 40
1.0
 40
1.0
 40
1.0
 40
1.0
 10
9.999999999999991
 20
-4.772003652656108
 30
0.0
 10
9.732802537947506
 20
-4.595253522383095
 30
0.0
 10
9.462925626698317
 20
-4.405121413064343
 30
0.0
 10
8.924281858482132
 20
-4.002468838553403
 30
0.0
 10
8.656992520525948
 20
-3.790368655289736
 30
0.0
 10
8.390159250862942
 20
-3.568875868801741
 30
0.0
  0
SPLINE
  5
A9
330
1F
100
AcDbEntity
  8
0
  6
Continuous
 62
     4
370
    15
100
AcDbSpline
210
0.0
220
0.0
230
1.0
 70
     8
 71
     3
 72
    20
 73
    16
 74
     0
 42
0.000000001
 43
0.00000001
 40
0.0
 40
0.0
 40
0.0
 40
0.0
 40
0.125
 40
0.125
 40
0.2500000000000001
 40
0.2500000000000001
 40
0.3750000000000001
 40
0.3750000000000001
 40
0.5
 40
0.5
 40
0.7499999999999999
 40
0.7499999999999999
 40
0.875
 40
0.875
 40
1.0
 40
1.0
 40
1.0
 40
1.0
 10
7.970376223537983
 20
-6.28299825494461
 30
0.0
 10
7.970376223537984
 20
-6.26332489809616
 30
0.0
 10
7.970574704376945
 20
-6.239366737301328
 30
0.0
 10
7.992550938187222
 20
-6.183455723030942
 30
0.0
 10
8.014164132650253
 20
-6.15120241583138
 30
0.0
 10
8.091360364277643
 20
-6.080751525436854
 30
0.0
 10
8.14564263929548
 20
-6.043454496333158
 30
0.0
 10
8.293681585150205
 20
-5.968309363307323
 30
0.0
 10
8.383346825593948
 20
-5.932527227221488
 30
0.0
 10
8.70218753041344
 20
-5.837663782231418
 30
0.0
 10
8.97236872436368
 20
-5.797221408842458
 30
0.0
 10
9.381754190779867
 20
-5.79791011405793
 30
0.0
 10
9.517245167301496
 20
-5.80782004535432
 30
0.0
 10
9.77410057864217
 20
-5.844734228937301
 30
0.0
 10
9.89373859092104
 20
-5.8714324756824
 30
0.0
 10
9.999999999999856
 20
-5.90356817343944
 30
0.0
  0
SPLINE
  5
AA
330
1F
100
AcDbEntity
  8
0
  6
Continuous
 62
     4
370
    15
100
AcDbSpline
210
0.0
220
0.0
230
1.0
 70
     8
 71
     3
 72
    14
 73
    10
 74
     0
 42
0.000000001
 43
0.00000001
 40
0.0
 40
0.0
 40
0.0
 40
0.0
 40
0.2500000000000001
 40
0.2500000000000001
 40
0.5000000000000001
 40
0.5000000000000001
 40
0.7500000000000002
 40
0.7500000000000002
 40
1.0
 40
1.0
 40
1.0
 40
1.0
 10
8.390159250862942
 20
-6.332978224957105
 30
0.0
 10
8.30150265142728
 20
-6.339488544578054
 30
0.0
 10
8.22858054190004
 20
-6.344933765266885
 30
0.0
 10
8.110315485923412
 20
-6.350682812328499
 30
0.0
 10
8.066195901752387
 20
-6.350852333119321
 30
0.0
 10
8.005212551946318
 20
-6.343995020620978
 30
0.0
 10
7.987867946454957
 20
-6.336929249855731
 30
0.0
 10
7.970467864698377
 20
-6.315463067664788
 30
0.0
 10
7.970376223537976
 20
-6.301063173101298
 30
0.0
 10
7.970376223537979
 20
-6.282998254944611
 30
0.0
  0
SPLINE
  5
AB
330
1F
100
AcDbEntity
  8
0
  6
Continuous
 62
     4
370
    15
100
AcDbSpline
210
0.0
220
0.0
230
1.0
 70
     8
 71
     3
 72
    10
 73
     6
 74
     0
 42
0.000000001
 43
0.00000001
 40
0.0
 40
0.0
 40
0.0
 40
0.0
 40
0.5
 40
0.5
 40
1.0
 40
1.0
 40
1.0
 40
1.0
 10
9.999999999999991
 20
-6.014067544348811
 30
0.0
 10
9.732802537947508
 20
-6.100052386010739
 30
0.0
 10
9.462925626698318
 20
-6.170201128793311
 30
0.0
 10
8.924281858482132
 20
-6.276883365991782
 30
0.0
 10
8.656992520525948
 20
-6.313383858806511
 30
0.0
 10
8.390159250862942
 20
-6.332978224957105
 30
0.0
  0
SPLINE
  5
AC
330
1F
100
AcDbEntity
  8
0
  6
Continuous
 62
     4
370
    15
100
AcDbSpline
210
0.0
220
0.0
230
1.0
 70
     8
 71
     3
 72
    10
 73
     6
 74
     0
 42
0.000000001
 43
0.00000001
 40
0.0
 40
0.0
 40
0.0
 40
0.0
 40
0.4036730919152877
 40
0.8203169061205845
 40
1.0
 40
1.0
 40
1.0
 40
1.0
 10
8.39015925086294
 20
6.332978224957112
 30
0.0
 10
8.340610269456915
 20
6.336589016377788
 30
0.0
 10
8.239920211232905
 20
6.343926620261172
 30
0.0
 10
8.145270384547342
 20
6.349938453757358
 30
0.0
 10
8.108384595734933
 20
6.349333215811868
 30
0.0
 10
8.097270301605084
 20
6.34915084767603
 30
0.0
  0
SPLINE
  5
AD
330
1F
100
AcDbEntity
  8
0
  6
Continuous
 62
     4
370
    15
100
AcDbSpline
210
0.0
220
0.0
230
1.0
 70
     8
 71
     3
 72
    10
 73
     6
 74
     0
 42
0.000000001
 43
0.00000001
 40
0.0
 40
0.0
 40
0.0
 40
0.0
 40
0.5
 40
0.5
 40
1.0
 40
1.0
 40
1.0
 40
1.0
 10
9.999999999999991
 20
6.014067544348807
 30
0.0
 10
9.732802537947506
 20
6.100052386010735
 30
0.0
 10
9.462925626698317
 20
6.17020112879331
 30
0.0
 10
8.924281858482132
 20
6.276883365991783
 30
0.0
 10
8.656992520525948
 20
6.313383858806517
 30
0.0
 10
8.39015925086294
 20
6.332978224957112
 30
0.0
  0
SPLINE
  5
AE
330
1F
100
AcDbEntity
  8
0
  6
Continuous
 62
     4
370
    15
100
AcDbSpline
210
0.0
220
0.0
230
1.0
 70
     8
 71
     3
 72
    20
 73
    16
 74
     0
 42
0.000000001
 43
0.00000001
 40
0.0
 40
0.0
 40
0.0
 40
0.0
 40
0.1249999999999998
 40
0.1249999999999998
 40
0.2499999999999996
 40
0.2499999999999996
 40
0.3749999999999994
 40
0.3749999999999994
 40
0.4999999999999992
 40
0.4999999999999992
 40
0.7499999999999996
 40
0.7499999999999996
 40
0.8749999999999998
 40
0.8749999999999998
 40
1.0
 40
1.0
 40
1.0
 40
1.0
 10
7.970376223537983
 20
3.938257997063416
 30
0.0
 10
7.970376223537983
 20
4.044774902639283
 30
0.0
 10
7.970574704376943
 20
4.148361257710917
 30
0.0
 10
7.992550938187218
 20
4.348353363538663
 30
0.0
 10
8.01416413265025
 20
4.445553567290284
 30
0.0
 10
8.09136036427764
 20
4.628797464212211
 30
0.0
 10
8.14564263929547
 20
4.712705998390107
 30
0.0
 10
8.293681585150196
 20
4.86468075925488
 30
0.0
 10
8.383346825593945
 20
4.92871403948727
 30
0.0
 10
8.702187530413436
 20
5.087960927268527
 30
0.0
 10
8.972368724363676
 20
5.142723870647979
 30
0.0
 10
9.381754190779864
 20
5.141733238108475
 30
0.0
 10
9.517245167301496
 20
5.127737868107388
 30
0.0
 10
9.774100578642166
 20
5.072437320378669
 30
0.0
 10
9.893738590921037
 20
5.031496425984693
 30
0.0
 10
9.999999999999854
 20
4.977317872210478
 30
0.0
  0
SPLINE
  5
AF
330
1F
100
AcDbEntity
  8
0
  6
Continuous
 62
     4
370
    15
100
AcDbSpline
210
0.0
220
0.0
230
1.0
 70
     8
 71
     3
 72
    14
 73
    10
 74
     0
 42
0.000000001
 43
0.00000001
 40
0.0
 40
0.0
 40
0.0
 40
0.0
 40
0.25
 40
0.25
 40
0.5
 40
0.5
 40
0.75
 40
0.75
 40
1.0
 40
1.0
 40
1.0
 40
1.0
 10
8.390159250862942
 20
2.764102356155305
 30
0.0
 10
8.301502651427278
 20
2.844204688025532
 30
0.0
 10
8.22858054190004
 20
2.933268965101248
 30
0.0
 10
8.110315485923412
 20
3.125593332169994
 30
0.0
 10
8.066195901752382
 20
3.227854763432334
 30
0.0
 10
8.005212551946313
 20
3.432838763446536
 30
0.0
 10
7.987867946454957
 20
3.537133198358044
 30
0.0
 10
7.970467864698379
 20
3.740496869121323
 30
0.0
 10
7.970376223537976
 20
3.8404496160965
 30
0.0
 10
7.970376223537979
 20
3.938257997063416
 30
0.0
  0
SPLINE
  5
B0
330
1F
100
AcDbEntity
  8
0
  6
Continuous
 62
     4
370
    15
100
AcDbSpline
210
0.0
220
0.0
230
1.0
 70
     8
 71
     3
 72
    10
 73
     6
 74
     0
 42
0.000000001
 43
0.00000001
 40
0.0
 40
0.0
 40
0.0
 40
0.0
 40
0.5
 40
0.5
 40
1.0
 40
1.0
 40
1.0
 40
1.0
 10
9.999999999999991
 20
1.24206389169264
 30
0.0
 10
9.732802537947506
 20
1.50479886362758
 30
0.0
 10
9.462925626698317
 20
1.765079715728906
 30
0.0
 10
8.924281858482132
 20
2.274414527438317
 30
0.0
 10
8.656992520525948
 20
2.523015203516714
 30
0.0
 10
8.39015925086294
 20
2.764102356155304
 30
0.0
  0
LINE
  5
B1
330
1F
100
AcDbEntity
  8
0
  6
Continuous
 62
     4
370
    15
100
AcDbLine
 10
-46.65000000000001
 20
6.349999999999998
 30
0.0
 11
-46.65000000000001
 21
-6.349999999999997
 31
0.0
  0
LINE
  5
B2
330
1F
100
AcDbEntity
  8
0
  6
Continuous
 62
     4
370
    15
100
AcDbLine
 10
9.999999999999996
 20
-4.772003652656115
 30
0.0
 11
9.999999999999993
 21
-5.903568173439316
 31
0.0
  0
LINE
  5
B3
330
1F
100
AcDbEntity
  8
0
  6
Continuous
 62
     4
370
    15
100
AcDbLine
 10
9.999999999999996
 20
1.242063891692636
 30
0.0
 11
9.999999999999993
 21
-0.9262503012285823
 31
0.0
  0
LINE
  5
B4
330
1F
100
AcDbEntity
  8
0
  6
Continuous
 62
     1
370
    15
100
AcDbLine
 10
9.999999999999996
 20
6.014067544348809
 30
0.0
 11
9.999999999999991
 21
4.977317872210687
 31
0.0
  0
SPLINE
  5
B5
330
1F
100
AcDbEntity
  8
0
  6
Continuous
 62
     1
370
    15
100
AcDbSpline
210
0.0
220
0.0
230
1.0
 70
    24
 71
     3
 72
     8
 73
     4
 74
     0
 42
0.000000001
 43
0.00000001
 40
0.0
 40
0.0
 40
0.0
 40
0.0
 40
1.0
 40
1.0
 40
1.0
 40
1.0
 10
9.999999999999993
 20
-0.9262503012286003
 30
0.0
 10
9.999999999999993
 20
-0.9712384494344763
 30
0.0
 10
9.999999999999993
 20
-1.028833675969258
 30
0.0
 10
9.999999999999993
 20
-1.100755961752421
 30
0.0
  0
LINE
  5
B6
330
1F
100
AcDbEntity
  8
0
  6
Continuous
 62
     4
370
    15
100
AcDbLine
 10
-47.15000000000001
 20
5.849999999999999
 30
0.0
 11
-47.15000000000001
 21
-5.849999999999997
 31
0.0
  0
SPLINE
  5
B8
330
1F
100
AcDbEntity
  8
0
  6
Continuous
 62
     1
370
    15
100
AcDbSpline
210
0.0
220
0.0
230
1.0
 70
    24
 71
     3
 72
    14
 73
    10
 74
     0
 42
0.000000001
 43
0.00000001
 40
0.0
 40
0.0
 40
0.0
 40
0.0
 40
0.25
 40
0.25
 40
0.5
 40
0.5
 40
0.75
 40
0.75
 40
1.0
 40
1.0
 40
1.0
 40
1.0
 10
9.999999999999995
 20
4.502238552934738
 30
0.0
 10
9.999999999999995
 20
4.245746069048691
 30
0.0
 10
9.999999999999995
 20
3.960100617078344
 30
0.0
 10
9.999999999999995
 20
3.348151760276227
 30
0.0
 10
9.999999999999995
 20
3.021386277847578
 30
0.0
 10
9.999999999999995
 20
2.382508122089289
 30
0.0
 10
9.999999999999995
 20
2.071354582237288
 30
0.0
 10
9.999999999999995
 20
1.555798342405142
 30
0.0
 10
9.999999999999995
 20
1.353968346346127
 30
0.0
 10
9.999999999999995
 20
1.242063891692636
 30
0.0
  0
SPLINE
  5
B9
330
1F
100
AcDbEntity
  8
0
  6
Continuous
 62
     4
370
    15
100
AcDbSpline
210
0.0
220
0.0
230
1.0
 70
    24
 71
     3
 72
    14
 73
    10
 74
     0
 42
0.000000001
 43
0.00000001
 40
0.0
 40
0.0
 40
0.0
 40
0.0
 40
0.25
 40
0.25
 40
0.5
 40
0.5
 40
0.75
 40
0.75
 40
1.0
 40
1.0
 40
1.0
 40
1.0
 10
9.999999999999995
 20
-1.100755961752435
 30
0.0
 10
9.999999999999995
 20
-1.215625691448515
 30
0.0
 10
9.999999999999995
 20
-1.37034509517278
 30
0.0
 10
9.999999999999995
 20
-1.788456984229166
 30
0.0
 10
9.999999999999996
 20
-2.052978854179302
 30
0.0
 10
9.999999999999995
 20
-2.697784582666003
 30
0.0
 10
9.999999999999995
 20
-3.078954236250397
 30
0.0
 10
9.999999999999995
 20
-3.905732027446843
 30
0.0
 10
9.999999999999995
 20
-4.349876765405905
 30
0.0
 10
9.999999999999995
 20
-4.772003652656115
 30
0.0
  0
SPLINE
  5
BA
330
1F
100
AcDbEntity
  8
0
  6
Continuous
 62
     1
370
    15
100
AcDbSpline
210
0.0
220
0.0
230
1.0
 70
    24
 71
     3
 72
     8
 73
     4
 74
     0
 42
0.000000001
 43
0.00000001
 40
0.0
 40
0.0
 40
0.0
 40
0.0
 40
1.0
 40
1.0
 40
1.0
 40
1.0
 10
9.999999999999993
 20
4.977317872210782
 30
0.0
 10
9.999999999999993
 20
4.821100329419386
 30
0.0
 10
9.999999999999993
 20
4.662833739987908
 30
0.0
 10
9.999999999999993
 20
4.502238552934761
 30
0.0
  0
LINE
  5
BB
330
1F
100
AcDbEntity
  8
0
  6
Continuous
 62
     4
370
    15
100
AcDbLine
 10
9.999999999999993
 20
-5.96235216682991
 30
0.0
 11
9.999999999999996
 21
-6.014067544348812
 31
0.0
  0
SPLINE
  5
BC
330
1F
100
AcDbEntity
  8
0
  6
Continuous
 62
     1
370
    15
100
AcDbSpline
210
0.0
220
0.0
230
1.0
 70
     8
 71
     3
 72
    27
 73
    23
 74
     0
 42
0.000000001
 43
0.00000001
 40
0.0
 40
0.0
 40
0.0
 40
0.0
 40
0.0363428618975866
 40
0.0906780994480132
 40
0.1451147762950796
 40
0.1994973041310697
 40
0.2538167607704983
 40
0.3081794565291798
 40
0.362625407568609
 40
0.416973481825505
 40
0.4712960914974777
 40
0.525699478482118
 40
0.5801195646366035
 40
0.6344464581477599
 40
0.6887855631190501
 40
0.7432264186855287
 40
0.791058642987489
 40
0.8388515229165943
 40
0.8867784436559106
 40
0.9345796842375057
 40
0.9823984649554718
 40
1.0
 40
1.0
 40
1.0
 40
1.0
 10
16.81473329905602
 20
5.935454355722552
 30
0.0
 10
17.08343396177466
 20
6.028507640371838
 30
0.0
 10
17.75386177465327
 20
6.260682393784765
 30
0.0
 10
18.82637832736325
 20
6.379085689355462
 30
0.0
 10
20.03434447877013
 20
6.313691576278321
 30
0.0
 10
21.24098223533316
 20
6.012771526753049
 30
0.0
 10
22.44619884919671
 20
5.497472303676081
 30
0.0
 10
23.65238480542332
 20
4.783593079492333
 30
0.0
 10
24.86054221970214
 20
3.898852320552053
 30
0.0
 10
26.06639915287841
 20
2.872515513828711
 30
0.0
 10
27.271687334872
 20
1.742744822827224
 30
0.0
 10
28.47882677758969
 20
0.5509996524728495
 30
0.0
 10
29.68636069604534
 20
-0.6602332498859915
 30
0.0
 10
30.89175899455913
 20
-1.848882139046789
 30
0.0
 10
32.09738233930099
 20
-2.970961636692697
 30
0.0
 10
33.25710255767297
 20
-3.943991704211176
 30
0.0
 10
34.36656402562858
 20
-4.753694699138453
 30
0.0
 10
35.42679699151382
 20
-5.395426851472427
 30
0.0
 10
36.49005439581403
 20
-5.888139639379496
 30
0.0
 10
37.5504796546192
 20
-6.206536013296651
 30
0.0
 10
38.3872594359587
 20
-6.355016132013066
 30
0.0
 10
38.87146728370305
 20
-6.334804247280977
 30
0.0
 10
39.00174487869126
 20
-6.329366178184531
 30
0.0
  0
SPLINE
  5
BD
330
1F
100
AcDbEntity
  8
0
  6
Continuous
 62
     1
370
    15
100
AcDbSpline
210
0.0
220
0.0
230
1.0
 70
     8
 71
     3
 72
    25
 73
    21
 74
     0
 42
0.000000001
 43
0.00000001
 40
0.0213618639307613
 40
0.0213618639307613
 40
0.0213618639307613
 40
0.0213618639307613
 40
0.0555104217516448
 40
0.111133866438559
 40
0.1666120813673033
 40
0.2221309058250936
 40
0.27774986414706
 40
0.333224293478077
 40
0.3887522527948554
 40
0.4498694997591536
 40
0.5108725178747281
 40
0.5718618269694385
 40
0.6329557574507598
 40
0.6940309408481689
 40
0.7550154407521605
 40
0.8160285281077893
 40
0.8771514954318334
 40
0.9381809974070766
 40
0.9991619576042307
 40
1.0
 40
1.0
 40
1.0
 40
1.0
 10
40.56608792586764
 20
-6.311569319378598
 30
0.0
 10
40.34124403596027
 20
-6.290140281285276
 30
0.0
 10
39.75000552016334
 20
-6.218730248469561
 30
0.0
 10
38.79168605794698
 20
-5.936555174110269
 30
0.0
 10
37.69533939084936
 20
-5.448630717695902
 30
0.0
 10
36.5981782853879
 20
-4.79476413819593
 30
0.0
 10
35.49903743871889
 20
-4.000572724453507
 30
0.0
 10
34.40276727158952
 20
-3.084603866472837
 30
0.0
 10
33.26913515730683
 20
-2.044487495356901
 30
0.0
 10
32.09739262134296
 20
-0.9028281193997083
 30
0.0
 10
30.89175624937106
 20
0.308347916939354
 30
0.0
 10
29.68636140736517
 20
1.508379303915122
 30
0.0
 10
28.47882668262644
 20
2.65301867004622
 30
0.0
 10
27.27168700343527
 20
3.702416024170049
 30
0.0
 10
26.06640057126104
 20
4.619721582356861
 30
0.0
 10
24.86053686993909
 20
5.368645879682201
 30
0.0
 10
23.65240481109492
 20
5.930967586169218
 30
0.0
 10
22.44612434015267
 20
6.252998198271045
 30
0.0
 10
21.6375700150704
 20
6.386958239211698
 30
0.0
 10
21.23025968391244
 20
6.348967614936825
 30
0.0
 10
21.22473802695539
 20
6.348452599287127
 30
0.0
  0
SPLINE
  5
BE
330
1F
100
AcDbEntity
  8
0
  6
Continuous
 62
     1
370
    15
100
AcDbSpline
210
0.0
220
0.0
230
1.0
 70
     8
 71
     3
 72
    21
 73
    17
 74
     0
 42
0.000000001
 43
0.00000001
 40
0.0
 40
0.0
 40
0.0
 40
0.0
 40
0.0680658963790254
 40
0.1360910474616885
 40
0.2043010121119601
 40
0.2723326739001859
 40
0.3403888674536327
 40
0.4085901144385604
 40
0.4853503741681247
 40
0.5621185220026211
 40
0.6390299894814542
 40
0.7158649519246089
 40
0.7926108035225732
 40
0.869417745993582
 40
0.9463423166187792
 40
1.0
 40
1.0
 40
1.0
 40
1.0
 10
10.00000000000162
 20
4.982660781466768
 30
0.0
 10
10.35625041016571
 20
4.748207210401986
 30
0.0
 10
11.06853797349865
 20
4.279440415799519
 30
0.0
 10
12.13653423362141
 20
3.415822445538263
 30
0.0
 10
13.20761308600847
 20
2.468614633690556
 30
0.0
 10
14.27580774707192
 20
1.4460576091776
 30
0.0
 10
15.34448429403424
 20
0.3837229441348519
 30
0.0
 10
16.46100578096557
 20
-0.733186669744986
 30
0.0
 10
17.62079142771661
 20
-1.876274455779733
 30
0.0
 10
18.82641401694725
 20
-2.996158288947767
 30
0.0
 10
20.03433529114989
 20
-4.007158050277517
 30
0.0
 10
21.24098330456335
 20
-4.874237242219291
 30
0.0
 10
22.44620373845653
 20
-5.568289295942229
 30
0.0
 10
23.65236414448287
 20
-6.053393979522155
 30
0.0
 10
24.73939179186756
 20
-6.321656295036441
 30
0.0
 10
25.42264801438291
 20
-6.32467458051101
 30
0.0
 10
25.70340550578121
 20
-6.325914827186033
 30
0.0
  0
LINE
  5
BF
330
1F
100
AcDbEntity
  8
0
  6
Continuous
 62
     1
370
    15
100
AcDbLine
 10
9.999999999999996
 20
4.982660781460565
 30
0.0
 11
9.999999999999995
 21
6.01406754434881
 31
0.0
  0
SPLINE
  5
C0
330
1F
100
AcDbEntity
  8
0
  6
Continuous
 62
     1
370
    15
100
AcDbSpline
210
0.0
220
0.0
230
1.0
 70
     8
 71
     3
 72
    25
 73
    21
 74
     0
 42
0.000000001
 43
0.00000001
 40
0.0
 40
0.0
 40
0.0
 40
0.0
 40
0.0212490639717788
 40
0.0812780569019194
 40
0.1412886295314057
 40
0.2012100993851767
 40
0.2611596583783876
 40
0.3212171820056497
 40
0.3811828694927556
 40
0.4411008613408548
 40
0.501088424934977
 40
0.5611357185080972
 40
0.6210711177559575
 40
0.681000358502776
 40
0.734247298575593
 40
0.7873809906989246
 40
0.8404955300722647
 40
0.8937492763110199
 40
0.9468587325639739
 40
1.0
 40
1.0
 40
1.0
 40
1.0
 10
30.11401805100238
 20
-5.934660208852073
 30
0.0
 10
29.97162061197037
 20
-5.990435357208119
 30
0.0
 10
29.42694781284366
 20
-6.203776316029481
 30
0.0
 10
28.47878887670412
 20
-6.35032671195942
 30
0.0
 10
27.27169746879134
 20
-6.362147978547227
 30
0.0
 10
26.06639645021281
 20
-6.130580352614249
 30
0.0
 10
24.86054289966506
 20
-5.681962826672404
 30
0.0
 10
23.65238479477499
 20
-5.028727131269933
 30
0.0
 10
22.44619821392753
 20
-4.193990274595768
 30
0.0
 10
21.24098478623125
 20
-3.208082612733028
 30
0.0
 10
20.03433489347031
 20
-2.106993778374843
 30
0.0
 10
18.82641412335939
 20
-0.9310814677002484
 30
0.0
 10
17.62079139911712
 20
0.2797621108745143
 30
0.0
 10
16.46100578768378
 20
1.435540169613893
 30
0.0
 10
15.34448429232854
 20
2.496749452463057
 30
0.0
 10
14.2758077475277
 20
3.445777267088438
 30
0.0
 10
13.20761308588508
 20
4.298398656708125
 30
0.0
 10
12.13653423365294
 20
5.024001649288788
 30
0.0
 10
11.06853797348913
 20
5.621875712852564
 30
0.0
 10
10.35625041016146
 20
5.883310842856692
 30
0.0
 10
9.999999999999995
 20
6.014067544348809
 30
0.0
  0
SPLINE
  5
C1
330
1F
100
AcDbEntity
  8
0
  6
Continuous
 62
     1
370
    15
100
AcDbSpline
210
0.0
220
0.0
230
1.0
 70
     8
 71
     3
 72
    23
 73
    19
 74
     0
 42
0.000000001
 43
0.00000001
 40
0.0
 40
0.0
 40
0.0
 40
0.0
 40
0.0110072308113786
 40
0.0809450114930621
 40
0.1507570659302782
 40
0.2205364101930643
 40
0.290419515816788
 40
0.3603240721242801
 40
0.4301089191324416
 40
0.4999094521999768
 40
0.5698406875635441
 40
0.6312828985798455
 40
0.6926745703353341
 40
0.7542384223284336
 40
0.8156408336424944
 40
0.8770657758920458
 40
0.9386203372825622
 40
1.0
 40
1.0
 40
1.0
 40
1.0
 10
23.46194821228376
 20
5.944978043431083
 30
0.0
 10
23.52531477340749
 20
5.97134099349636
 30
0.0
 10
23.99130000678099
 20
6.165208945626419
 30
0.0
 10
24.86061772936588
 20
6.31961518170765
 30
0.0
 10
26.06637894706779
 20
6.381198663954222
 30
0.0
 10
27.27169275686369
 20
6.193083034990782
 30
0.0
 10
28.47882532326033
 20
5.787556477756016
 30
0.0
 10
29.68636108511021
 20
5.172635504905331
 30
0.0
 10
30.89175889008415
 20
4.371269168470502
 30
0.0
 10
32.09738236840703
 20
3.412278738978931
 30
0.0
 10
33.25710254759014
 20
2.375241361960462
 30
0.0
 10
34.36656403877114
 20
1.308063225884981
 30
0.0
 10
35.42679694798426
 20
0.2494566878741051
 30
0.0
 10
36.49005455711058
 20
-0.8124519050126024
 30
0.0
 10
37.55047905476844
 20
-1.855556293716743
 30
0.0
 10
38.61133223708099
 20
-2.843858136327833
 30
0.0
 10
39.6743200368488
 20
-3.759999839959367
 30
0.0
 10
40.38125189033986
 20
-4.279933331491921
 30
0.0
 10
40.73421494067311
 20
-4.539530222246632
 30
0.0
  0
SPLINE
  5
C2
330
1F
100
AcDbEntity
  8
0
  6
Continuous
 62
     1
370
    15
100
AcDbSpline
210
0.0
220
0.0
230
1.0
 70
     8
 71
     3
 72
    19
 73
    15
 74
     0
 42
0.000000001
 43
0.00000001
 40
0.0
 40
0.0
 40
0.0
 40
0.0
 40
0.0836522451528389
 40
0.1674748118775687
 40
0.2510785224857253
 40
0.3347434302199722
 40
0.4185592361511678
 40
0.5021572419972427
 40
0.5858359156413747
 40
0.6779374483769387
 40
0.7698668422716252
 40
0.8617755771560225
 40
0.9538419727751939
 40
1.0
 40
1.0
 40
1.0
 40
1.0
 10
40.98799999999999
 20
-3.013188195143043
 30
0.0
 10
40.62256301768608
 20
-2.682419857000875
 30
0.0
 10
39.89094499889522
 20
-2.020209714234183
 30
0.0
 10
38.79168605857765
 20
-0.9454509061231975
 30
0.0
 10
37.69533938849067
 20
0.1539496270985398
 30
0.0
 10
36.59817829420823
 20
1.249618596793933
 30
0.0
 10
35.49903740577081
 20
2.305687998145208
 30
0.0
 10
34.40276739424048
 20
3.295919378921305
 30
0.0
 10
33.26913467954022
 20
4.216258016595445
 30
0.0
 10
32.09739460368993
 20
5.024963385089427
 30
0.0
 10
30.89174889071986
 20
5.682187243464488
 30
0.0
 10
29.68638887867228
 20
6.12274640737327
 30
0.0
 10
28.67946724588676
 20
6.343219629588972
 30
0.0
 10
28.07505005177303
 20
6.326827649296735
 30
0.0
 10
27.8732137573829
 20
6.321353786884941
 30
0.0
  0
LINE
  5
C3
330
1F
100
AcDbEntity
  8
0
  6
Continuous
 62
     1
370
    15
100
AcDbLine
 10
10.16496721316256
 20
-5.94822220750657
 30
0.0
 11
9.999999999999995
 21
-6.014067544348813
 31
0.0
  0
ELLIPSE
  5
C5
330
1F
100
AcDbEntity
  8
0
  6
Continuous
 62
     1
370
    15
100
AcDbEllipse
 10
43.17814800674211
 20
0.0000000000000082
 30
0.0
 11
8.946581166440987
 21
5.944558288824132
 31
0.0
210
0.0
220
0.0
230
1.0
 40
0.2495534463455961
 41
4.275205021681391
 42
4.304151547257827
  0
SPLINE
  5
C6
330
1F
100
AcDbEntity
  8
0
  6
Continuous
 62
     1
370
    15
100
AcDbSpline
210
0.0
220
0.0
230
1.0
 70
     8
 71
     3
 72
    27
 73
    23
 74
     0
 42
0.000000001
 43
0.00000001
 40
0.0
 40
0.0
 40
0.0
 40
0.0
 40
0.0407387948051429
 40
0.0888865576672021
 40
0.1371651303795193
 40
0.1853175014769518
 40
0.2334872359994653
 40
0.2817596384045211
 40
0.336090054785339
 40
0.3904260543159135
 40
0.4448634945656803
 40
0.4992467850450023
 40
0.5535670034432723
 40
0.6079304615671668
 40
0.6623771761393548
 40
0.7167260125564165
 40
0.7710493840314477
 40
0.8254535339519419
 40
0.8798743832764653
 40
0.9342020386507552
 40
0.988541905656429
 40
1.0
 40
1.0
 40
1.0
 40
1.0
 10
10.16496721316252
 20
5.948222207506582
 30
0.0
 10
10.46621268785013
 20
6.045136836474628
 30
0.0
 10
11.12348969827419
 20
6.25659149039277
 30
0.0
 10
12.13652900427461
 20
6.371623829439026
 30
0.0
 10
13.2076144845655
 20
6.329941617666599
 30
0.0
 10
14.27580737315411
 20
6.104423327248096
 30
0.0
 10
15.34448439248433
 20
5.707180109662801
 30
0.0
 10
16.46100575710854
 20
5.125594519864999
 30
0.0
 10
17.62079140744897
 20
4.35036141299938
 30
0.0
 10
18.8264141221069
 20
3.388103918794366
 30
0.0
 10
20.0343348901233
 20
2.305240408879904
 30
0.0
 10
21.24098480084508
 20
1.138531727257977
 30
0.0
 10
22.44619815886482
 20
-0.0695172383941104
 30
0.0
 10
23.65238500074962
 20
-1.275006006622843
 30
0.0
 10
24.86054213020851
 20
-2.433184653228247
 30
0.0
 10
26.06639931541025
 20
-3.505300663461675
 30
0.0
 10
27.27168677398641
 20
-4.451464253412078
 30
0.0
 10
28.47882886231255
 20
-5.235438143357918
 30
0.0
 10
29.68635292239696
 20
-5.836214574711609
 30
0.0
 10
30.89178795238257
 20
-6.207908266577161
 30
0.0
 10
31.77959700800319
 20
-6.370679730863881
 30
0.0
 10
32.26658108128839
 20
-6.336851421035782
 30
0.0
 10
32.3513847642764
 20
-6.330960539957618
 30
0.0
  0
SPLINE
  5
C7
330
1F
100
AcDbEntity
  8
0
  6
Continuous
 62
     1
370
    15
100
AcDbSpline
210
0.0
220
0.0
230
1.0
 70
     8
 71
     3
 72
    27
 73
    23
 74
     0
 42
0.000000001
 43
0.00000001
 40
0.0
 40
0.0
 40
0.0
 40
0.0
 40
0.0077382200394046
 40
0.0572626852340927
 40
0.1066584583209483
 40
0.1561018958013253
 40
0.2105221701357894
 40
0.2648407323416284
 40
0.3191470877038456
 40
0.3735466004781421
 40
0.4279294203956734
 40
0.4822314935382023
 40
0.5365590216388305
 40
0.590984389519914
 40
0.6453265335947047
 40
0.6996254548966856
 40
0.7539874235513168
 40
0.8084035207461232
 40
0.8627182169931674
 40
0.9170273322794167
 40
0.965280808729611
 40
1.0
 40
1.0
 40
1.0
 40
1.0
 10
36.77021393914082
 20
-5.945298667662647
 30
0.0
 10
36.71298281247164
 20
-5.968814175316955
 30
0.0
 10
36.28947353315903
 20
-6.142828497224508
 30
0.0
 10
35.49894534317846
 20
-6.295937176657405
 30
0.0
 10
34.40279186933397
 20
-6.38331142023198
 30
0.0
 10
33.26912782010304
 20
-6.25979422961265
 30
0.0
 10
32.09739466399218
 20
-5.928557693143107
 30
0.0
 10
30.8917556958572
 20
-5.371782404622985
 30
0.0
 10
29.68636158129624
 20
-4.621834049469235
 30
0.0
 10
28.47882654121904
 20
-3.706295735475813
 30
0.0
 10
27.27168739461213
 20
-2.657245456345038
 30
0.0
 10
26.06639914984429
 20
-1.511832660104789
 30
0.0
 10
24.86054217204406
 20
-0.3119053282776955
 30
0.0
 10
23.65238499937288
 20
0.8975635823261227
 30
0.0
 10
22.44619812265894
 20
2.076266004036206
 30
0.0
 10
21.24098494699666
 20
3.180192820364868
 30
0.0
 10
20.03433434074969
 20
4.169457989109558
 30
0.0
 10
18.82641617377629
 20
5.007472729790458
 30
0.0
 10
17.62078376678879
 20
5.668323335555902
 30
0.0
 10
16.46103292720047
 20
6.100478154557218
 30
0.0
 10
15.44391085328293
 20
6.325637663982705
 30
0.0
 10
14.8304629166118
 20
6.330067212596147
 30
0.0
 10
14.57377096210655
 20
6.331920718693715
 30
0.0
  0
SPLINE
  5
C9
330
1F
100
AcDbEntity
  8
0
  6
Continuous
 62
     1
370
    15
100
AcDbSpline
210
0.0
220
0.0
230
1.0
 70
     8
 71
     3
 72
    11
 73
     7
 74
     0
 42
0.000000001
 43
0.00000001
 40
0.0
 40
0.0
 40
0.0
 40
0.0
 40
0.0568355735443639
 40
0.3905941473191379
 40
0.7367829226050446
 40
0.9999999999999999
 40
0.9999999999999999
 40
0.9999999999999999
 40
0.9999999999999999
 10
40.26228083470706
 20
-4.182484449031723
 30
0.0
 10
40.25457250486671
 20
-4.181898941670163
 30
0.0
 10
40.20159813804877
 20
-4.17787512816084
 30
0.0
 10
40.07737017329333
 20
-4.200158345125701
 30
0.0
 10
39.90669449979777
 20
-4.248886986828077
 30
0.0
 10
39.78630954098082
 20
-4.303107956421742
 30
0.0
 10
39.7343123754093
 20
-4.326527300176288
 30
0.0
  0
SPLINE
  5
CA
330
1F
100
AcDbEntity
  8
0
  6
Continuous
 62
     1
370
    15
100
AcDbSpline
210
0.0
220
0.0
230
1.0
 70
     8
 71
     3
 72
     8
 73
     4
 74
     0
 42
0.000000001
 43
0.00000001
 40
0.0
 40
0.0
 40
0.0
 40
0.0
 40
1.0
 40
1.0
 40
1.0
 40
1.0
 10
41.75000000000001
 20
-4.890946043346224
 30
0.0
 10
41.07874095407208
 20
-4.75995593041372
 30
0.0
 10
40.40684198551624
 20
-4.57153871927812
 30
0.0
 10
39.73431237540928
 20
-4.326527300176285
 30
0.0
  0
SPLINE
  5
CD
330
1F
100
AcDbEntity
  8
0
  6
Continuous
 62
     1
370
    15
100
AcDbSpline
210
0.0
220
0.0
230
1.0
 70
     8
 71
     3
 72
    19
 73
    15
 74
     0
 42
0.000000001
 43
0.00000001
 40
0.0
 40
0.0
 40
0.0
 40
0.0
 40
0.0754686415634001
 40
0.1649879190157034
 40
0.2546111387438237
 40
0.3443235968525576
 40
0.4338688814823529
 40
0.5234049651268271
 40
0.6029574910851198
 40
0.6823408212092699
 40
0.761695536550321
 40
0.8412582311247206
 40
0.9206053521314135
 40
1.0
 40
1.0
 40
1.0
 40
1.0
 10
23.46194821228371
 20
-5.944978043431067
 30
0.0
 10
23.12324432279741
 20
-6.05305620559965
 30
0.0
 10
22.38277717337982
 20
-6.289334356336682
 30
0.0
 10
21.24100984092415
 20
-6.384598320975142
 30
0.0
 10
20.03432816879215
 20
-6.277354602990212
 30
0.0
 10
18.82641592276607
 20
-5.938626611887988
 30
0.0
 10
17.62079091550567
 20
-5.387373050603377
 30
0.0
 10
16.46100590128871
 20
-4.669400380012366
 30
0.0
 10
15.34448426349006
 20
-3.836279261814971
 30
0.0
 10
14.27580775524409
 20
-2.927203996611871
 30
0.0
 10
13.20761308381229
 20
-1.934478710895569
 30
0.0
 10
12.13653423420461
 20
-0.8907902884278753
 30
0.0
 10
11.06853797335127
 20
0.1839478659817229
 30
0.0
 10
10.35625041011549
 20
0.8892881574554649
 30
0.0
 10
9.999999999999995
 20
1.242063891692636
 30
0.0
  0
SPLINE
  5
CE
330
1F
100
AcDbEntity
  8
0
  6
Continuous
 62
     1
370
    15
100
AcDbSpline
210
0.0
220
0.0
230
1.0
 70
    24
 71
     3
 72
    16
 73
    12
 74
     0
 42
0.000000001
 43
0.00000001
 40
0.0
 40
0.0
 40
0.0
 40
0.0
 40
0.2499999999999997
 40
0.2499999999999997
 40
0.4999999999999997
 40
0.4999999999999997
 40
0.7499999999999996
 40
0.7499999999999996
 40
0.8749999999999998
 40
0.8749999999999998
 40
1.0
 40
1.0
 40
1.0
 40
1.0
 10
9.999999999999995
 20
4.982660781460339
 30
0.0
 10
9.999999999999995
 20
4.72714796535635
 30
0.0
 10
9.999999999999995
 20
4.432641486983103
 30
0.0
 10
9.999999999999995
 20
3.770910552602507
 30
0.0
 10
9.999999999999995
 20
3.402318707866339
 30
0.0
 10
9.999999999999995
 20
2.651058510312662
 30
0.0
 10
9.999999999999995
 20
2.269143909701214
 30
0.0
 10
9.999999999999995
 20
1.787848929863945
 30
0.0
 10
9.999999999999995
 20
1.643233051994455
 30
0.0
 10
9.999999999999995
 20
1.402946644632619
 30
0.0
 10
9.999999999999995
 20
1.30744684053291
 30
0.0
 10
9.999999999999995
 20
1.242063891692635
 30
0.0
  0
SPLINE
  5
CF
330
1F
100
AcDbEntity
  8
0
  6
Continuous
 62
     1
370
    15
100
AcDbSpline
210
0.0
220
0.0
230
1.0
 70
     8
 71
     3
 72
    16
 73
    12
 74
     0
 42
0.000000001
 43
0.00000001
 40
0.0
 40
0.0
 40
0.0
 40
0.0
 40
0.2500000000000034
 40
0.2500000000000034
 40
0.3750000000000029
 40
0.3750000000000029
 40
0.5000000000000023
 40
0.5000000000000023
 40
0.7500000000000012
 40
0.7500000000000012
 40
1.0
 40
1.0
 40
1.0
 40
1.0
 10
41.75000000000001
 20
-2.757773773396428
 30
0.0
 10
41.75000000000001
 20
-2.874246662056261
 30
0.0
 10
41.73885806745172
 20
-2.989927505341891
 30
0.0
 10
41.68156074101925
 20
-3.13126294362035
 30
0.0
 10
41.65548374251441
 20
-3.171857702470237
 30
0.0
 10
41.58941844023595
 20
-3.230737965473518
 30
0.0
 10
41.55060212113418
 20
-3.248054285289869
 30
0.0
 10
41.42620258394921
 20
-3.267924239269242
 30
0.0
 10
41.33548624968466
 20
-3.240643486125516
 30
0.0
 10
41.15838332064742
 20
-3.150105841795898
 30
0.0
 10
41.07193297942946
 20
-3.08686339753044
 30
0.0
 10
40.98799999999999
 20
-3.013188195143051
 30
0.0
  0
LINE
  5
D0
330
1F
100
AcDbEntity
  8
0
  6
Continuous
 62
     4
370
    15
100
AcDbLine
 10
9.999999999999996
 20
-5.96235216682991
 30
0.0
 11
9.999999999999996
 21
-6.014067544348813
 31
0.0
  0
SPLINE
  5
D1
330
1F
100
AcDbEntity
  8
0
  6
Continuous
 62
     1
370
    15
100
AcDbSpline
210
0.0
220
0.0
230
1.0
 70
     8
 71
     3
 72
    10
 73
     6
 74
     0
 42
0.000000001
 43
0.00000001
 40
0.0
 40
0.0
 40
0.0
 40
0.0
 40
0.444749066509719
 40
0.8892318993622652
 40
0.9999999999999999
 40
0.9999999999999999
 40
0.9999999999999999
 40
0.9999999999999999
 10
10.00000000000162
 20
-5.900390914204611
 30
0.0
 10
10.35626188703058
 20
-6.013267687423165
 30
0.0
 10
11.06857239722301
 20
-6.23895366408125
 30
0.0
 10
11.86848716719566
 20
-6.36321407985186
 30
0.0
 10
12.31370165666652
 20
-6.338172141192143
 30
0.0
 10
12.40251837069721
 20
-6.333176475603276
 30
0.0
  0
SPLINE
  5
D2
330
1F
100
AcDbEntity
  8
0
  6
Continuous
 62
     1
370
    15
100
AcDbSpline
210
0.0
220
0.0
230
1.0
 70
     8
 71
     3
 72
    17
 73
    13
 74
     0
 42
0.000000001
 43
0.00000001
 40
0.0
 40
0.0
 40
0.0
 40
0.0
 40
0.0732440269712794
 40
0.1867535432852641
 40
0.3004756074660304
 40
0.4003928336994421
 40
0.5002278730669715
 40
0.6003429116641797
 40
0.700195415684848
 40
0.800084559477124
 40
0.9001844897111265
 40
0.9999999999999999
 40
0.9999999999999999
 40
0.9999999999999999
 40
0.9999999999999999
 10
30.11401805100243
 20
5.934660208852085
 30
0.0
 10
30.37324956535868
 20
6.025365680955248
 30
0.0
 10
31.03422365210866
 20
6.256641445151977
 30
0.0
 10
32.09735843766182
 20
6.377761787142753
 30
0.0
 10
33.25710810392619
 20
6.320548421815748
 30
0.0
 10
34.36656263351279
 20
6.061287264957727
 30
0.0
 10
35.42679732559826
 20
5.645531086723399
 30
0.0
 10
36.49005445610907
 20
5.073564930721324
 30
0.0
 10
37.55047908180134
 20
4.358800014065884
 30
0.0
 10
38.61133222985298
 20
3.521712898977569
 30
0.0
 10
39.67432003865085
 20
2.591770010284907
 30
0.0
 10
40.38125189093962
 20
1.913962124801854
 30
0.0
 10
40.73421494067257
 20
1.575540341119909
 30
0.0
  0
SPLINE
  5
D3
330
1F
100
AcDbEntity
  8
0
  6
Continuous
 62
     1
370
    15
100
AcDbSpline
210
0.0
220
0.0
230
1.0
 70
     8
 71
     3
 72
    18
 73
    14
 74
     0
 42
0.000000001
 43
0.00000001
 40
0.0
 40
0.0
 40
0.0
 40
0.0
 40
0.2500000000000021
 40
0.2500000000000021
 40
0.5000000000000042
 40
0.5000000000000042
 40
0.6250000000000031
 40
0.6250000000000031
 40
0.7500000000000021
 40
0.7500000000000021
 40
0.875000000000001
 40
0.875000000000001
 40
1.0
 40
1.0
 40
1.0
 40
1.0
 10
40.73421494067153
 20
1.575540341120909
 30
0.0
 10
40.71348221109813
 20
1.472586984498512
 30
0.0
 10
40.68162067092499
 20
1.365060505393097
 30
0.0
 10
40.58850602772132
 20
1.137929776992046
 30
0.0
 10
40.52628158146428
 20
1.016509106011148
 30
0.0
 10
40.40346233675589
 20
0.8274274070418411
 30
0.0
 10
40.35801397810187
 20
0.7638248927352015
 30
0.0
 10
40.25655049034332
 20
0.6352715849283792
 30
0.0
 10
40.20005837039439
 20
0.5699278375492038
 30
0.0
 10
40.08005176222419
 20
0.4435322046573773
 30
0.0
 10
40.01607561416913
 20
0.381823480935147
 30
0.0
 10
39.87955917971288
 20
0.2616160251716067
 30
0.0
 10
39.80721474251899
 20
0.2034504637760705
 30
0.0
 10
39.73431237540927
 20
0.1498605553956939
 30
0.0
  0
SPLINE
  5
D4
330
1F
100
AcDbEntity
  8
0
  6
Continuous
 62
     1
370
    15
100
AcDbSpline
210
0.0
220
0.0
230
1.0
 70
     8
 71
     3
 72
     8
 73
     4
 74
     0
 42
0.000000001
 43
0.00000001
 40
0.0
 40
0.0
 40
0.0
 40
0.0
 40
1.0
 40
1.0
 40
1.0
 40
1.0
 10
41.75000000000001
 20
-1.253084803316235
 30
0.0
 10
41.07874095407208
 20
-0.7913582633688383
 30
0.0
 10
40.40684198551625
 20
-0.3236810420228189
 30
0.0
 10
39.7343123754093
 20
0.1498605553956843
 30
0.0
  0
LINE
  5
D5
330
1F
100
AcDbEntity
  8
0
  6
Continuous
 62
     1
370
    15
100
AcDbLine
 10
41.75000000000001
 20
-2.757773773396436
 30
0.0
 11
41.75000000000001
 21
-1.253084803316235
 31
0.0
  0
LINE
  5
D6
330
1F
100
AcDbEntity
  8
0
  6
Continuous
 62
     1
370
    15
100
AcDbLine
 10
41.75000000000001
 20
-0.8660254037844344
 30
0.0
 11
41.75000000000001
 21
1.882871829652994
 31
0.0
  0
LINE
  5
D7
330
1F
100
AcDbEntity
  8
0
  6
Continuous
 62
     1
370
    15
100
AcDbLine
 10
39.7343123754093
 20
0.1498605553956824
 30
0.0
 11
41.75000000000001
 21
-0.8660254037844344
 31
0.0
  0
ELLIPSE
  5
D8
330
1F
100
AcDbEntity
  8
0
  6
Continuous
 62
     1
370
    15
100
AcDbEllipse
 10
43.17814800674211
 20
0.0000000000000061
 30
0.0
 11
8.946581166440986
 21
5.944558288824137
 31
0.0
210
0.0
220
0.0
230
1.0
 40
0.2495534463455928
 41
1.650392266133875
 42
1.679338791710555
  0
SPLINE
  5
D9
330
1F
100
AcDbEntity
  8
0
  6
Continuous
 62
     1
370
    15
100
AcDbSpline
210
0.0
220
0.0
230
1.0
 70
     8
 71
     3
 72
    14
 73
    10
 74
     0
 42
0.000000001
 43
0.00000001
 40
0.0
 40
0.0
 40
0.0
 40
0.0
 40
0.2500000000000001
 40
0.2500000000000001
 40
0.5000000000000001
 40
0.5000000000000001
 40
0.7500000000000002
 40
0.7500000000000002
 40
1.0
 40
1.0
 40
1.0
 40
1.0
 10
41.75000000000001
 20
1.882871829652994
 30
0.0
 10
41.75000000000001
 20
1.936493689321
 30
0.0
 10
41.72714099931225
 20
1.976621088030179
 30
0.0
 10
41.63793632293623
 20
2.017314620245716
 30
0.0
 10
41.57376195725725
 20
2.017673182442894
 30
0.0
 10
41.42494867074598
 20
1.985905491126619
 30
0.0
 10
41.3402884856979
 20
1.953954568934741
 30
0.0
 10
41.16532307219163
 20
1.86763293947555
 30
0.0
 10
41.07633146134914
 20
1.814178553804832
 30
0.0
 10
40.98799999999999
 20
1.752918165859175
 30
0.0
  0
SPLINE
  5
DA
330
1F
100
AcDbEntity
  8
0
  6
Continuous
 62
     1
370
    15
100
AcDbSpline
210
0.0
220
0.0
230
1.0
 70
     8
 71
     3
 72
    16
 73
    12
 74
     0
 42
0.000000001
 43
0.00000001
 40
0.0
 40
0.0
 40
0.0
 40
0.0
 40
0.1180680611233241
 40
0.2360654448825452
 40
0.3543834088553183
 40
0.4723920861759734
 40
0.5904433166415906
 40
0.7087461588294551
 40
0.841895584896298
 40
0.975058693780893
 40
1.0
 40
1.0
 40
1.0
 40
1.0
 10
10.00000000000162
 20
-0.9177301327377985
 30
0.0
 10
10.35625041410403
 20
-1.26775149481915
 30
0.0
 10
11.06853798531125
 20
-1.967584690790941
 30
0.0
 10
12.13653418635056
 20
-2.956709477482155
 30
0.0
 10
13.20761326361929
 20
-3.861033163800625
 30
0.0
 10
14.27580708587927
 20
-4.658633837654389
 30
0.0
 10
15.34448676511396
 20
-5.32267706831695
 30
0.0
 10
16.4609960465107
 20
-5.8617920789687
 30
0.0
 10
17.62083286688436
 20
-6.213839453903129
 30
0.0
 10
18.49915144604638
 20
-6.372704290842999
 30
0.0
 10
18.97660304392451
 20
-6.338053881963976
 30
0.0
 10
19.05192204434376
 20
-6.33258770660194
 30
0.0
  0
SPLINE
  5
DB
330
1F
100
AcDbEntity
  8
0
  6
Continuous
 62
     1
370
    15
100
AcDbSpline
210
0.0
220
0.0
230
1.0
 70
     8
 71
     3
 72
    11
 73
     7
 74
     0
 42
0.000000001
 43
0.00000001
 40
0.0
 40
0.0
 40
0.0
 40
0.0
 40
0.1968905576329497
 40
0.4644712377375886
 40
0.7326165675858602
 40
0.9999999999999999
 40
0.9999999999999999
 40
0.9999999999999999
 40
0.9999999999999999
 10
36.77021393914082
 20
5.945298667662661
 30
0.0
 10
37.03029732421432
 20
6.032859189420263
 30
0.0
 10
37.64384249993203
 20
6.239417311895187
 30
0.0
 10
38.61129380492145
 20
6.362029400490383
 30
0.0
 10
39.67432962145664
 20
6.352653099668597
 30
0.0
 10
40.38125508217711
 20
6.194189593391348
 30
0.0
 10
40.73421494067257
 20
6.115070563366165
 30
0.0
  0
LINE
  5
DC
330
1F
100
AcDbEntity
  8
0
  6
Continuous
 62
     1
370
    15
100
AcDbLine
 10
9.999999999999996
 20
-0.9177301327384415
 30
0.0
 11
9.999999999999995
 21
1.242063891692634
 31
0.0
  0
ELLIPSE
  5
DD
330
1F
100
AcDbEntity
  8
0
  6
Continuous
 62
     1
370
    15
100
AcDbEllipse
 10
43.17814800674211
 20
0.0000000000000051
 30
0.0
 11
9.068739842812391
 21
0.0
 31
0.0
210
0.0
220
0.0
230
1.0
 40
0.7002075382097125
 41
1.817198241123999
 42
1.843659538604438
  0
SPLINE
  5
DE
330
1F
100
AcDbEntity
  8
0
  6
Continuous
 62
     1
370
    15
100
AcDbSpline
210
0.0
220
0.0
230
1.0
 70
     8
 71
     3
 72
    16
 73
    12
 74
     0
 42
0.000000001
 43
0.00000001
 40
0.0
 40
0.0
 40
0.0
 40
0.0
 40
0.2499999999999969
 40
0.2499999999999969
 40
0.3749999999999977
 40
0.3749999999999977
 40
0.4999999999999984
 40
0.4999999999999984
 40
0.7499999999999992
 40
0.7499999999999992
 40
1.0
 40
1.0
 40
1.0
 40
1.0
 10
41.75000000000001
 20
2.830070331078558
 30
0.0
 10
41.74999999999999
 20
2.791958861235709
 30
0.0
 10
41.73885806745169
 20
2.765638864190147
 30
0.0
 10
41.68156074101923
 20
2.773372925181895
 30
0.0
 10
41.65548374251443
 20
2.784321919278796
 30
0.0
 10
41.58941844023597
 20
2.824416323721409
 30
0.0
 10
41.5506021211342
 20
2.852762883218398
 30
0.0
 10
41.42620258394921
 20
2.951149472904417
 30
0.0
 10
41.33548624968466
 20
3.03125926514332
 30
0.0
 10
41.15838332064742
 20
3.186911062133136
 30
0.0
 10
41.07193297942948
 20
3.262875079268245
 30
0.0
 10
40.98799999999999
 20
3.334108090694967
 30
0.0
  0
SPLINE
  5
DF
330
1F
100
AcDbEntity
  8
0
  6
Continuous
 62
     1
370
    15
100
AcDbSpline
210
0.0
220
0.0
230
1.0
 70
     8
 71
     3
 72
    13
 73
     9
 74
     0
 42
0.000000001
 43
0.00000001
 40
0.0
 40
0.0
 40
0.0
 40
0.0
 40
0.169692825728387
 40
0.3397311574113828
 40
0.5093255283521243
 40
0.6790440407696884
 40
0.8490686578398021
 40
1.0
 40
1.0
 40
1.0
 40
1.0
 10
40.98799999999999
 20
3.33410809069498
 30
0.0
 10
40.62256305588821
 20
3.635891381021386
 30
0.0
 10
39.89094511357936
 20
4.240072412658567
 30
0.0
 10
38.79168559925149
 20
4.990893772094796
 30
0.0
 10
37.6953411063571
 20
5.603367593247977
 30
0.0
 10
36.59817187019104
 20
6.041438793840035
 30
0.0
 10
35.53931070021868
 20
6.307157241885836
 30
0.0
 10
34.84835705909101
 20
6.330000113650333
 30
0.0
 10
34.52343222929203
 20
6.340742102372015
 30
0.0
  0
SPLINE
  5
E0
330
1F
100
AcDbEntity
  8
0
  6
Continuous
 62
     1
370
    15
100
AcDbSpline
210
0.0
220
0.0
230
1.0
 70
     8
 71
     3
 72
    14
 73
    10
 74
     0
 42
0.000000001
 43
0.00000001
 40
0.0
 40
0.0
 40
0.0
 40
0.0
 40
0.0585545344126423
 40
0.2156991946783235
 40
0.3725096327234728
 40
0.5292635463488817
 40
0.6864282932642858
 40
0.8431672053661315
 40
1.0
 40
1.0
 40
1.0
 40
1.0
 10
16.81473329905602
 20
-5.935454355722539
 30
0.0
 10
16.68177959116771
 20
-5.988061862636694
 30
0.0
 10
16.19201380259687
 20
-6.181853803589561
 30
0.0
 10
15.34443230052523
 20
-6.325049353585741
 30
0.0
 10
14.27582165909767
 20
-6.375116320140937
 30
0.0
 10
13.20760934893284
 20
-6.232303844704074
 30
0.0
 10
12.13653522823708
 20
-5.91494457996133
 30
0.0
 10
11.06853772495067
 20
-5.437889702818905
 30
0.0
 10
10.35625032729877
 20
-4.994009968179632
 30
0.0
 10
9.999999999999995
 20
-4.772003652656115
 30
0.0
  0
SPLINE
  5
E1
330
1F
100
AcDbEntity
  8
0
  6
Continuous
 62
     1
370
    15
100
AcDbSpline
210
0.0
220
0.0
230
1.0
 70
     8
 71
     3
 72
    18
 73
    14
 74
     0
 42
0.000000001
 43
0.00000001
 40
0.0
 40
0.0
 40
0.0
 40
0.0
 40
0.2500000000000006
 40
0.2500000000000006
 40
0.5000000000000011
 40
0.5000000000000011
 40
0.6250000000000008
 40
0.6250000000000008
 40
0.7500000000000006
 40
0.7500000000000006
 40
0.8750000000000002
 40
0.8750000000000002
 40
1.0
 40
1.0
 40
1.0
 40
1.0
 10
40.73421494067153
 20
6.115070563366412
 30
0.0
 10
40.71348221109812
 20
5.934308401548482
 30
0.0
 10
40.68162067092499
 20
5.75789696097215
 30
0.0
 10
40.5885060277213
 20
5.416564480855969
 30
0.0
 10
40.5262815814643
 20
5.24918863818505
 30
0.0
 10
40.40346233675591
 20
5.019979810065475
 30
0.0
 10
40.35801397810189
 20
4.947894325041422
 30
0.0
 10
40.25655049034332
 20
4.813842123312957
 30
0.0
 10
40.20005837039439
 20
4.751667990977036
 30
0.0
 10
40.08005176222419
 20
4.644420143392003
 30
0.0
 10
40.01607561416913
 20
4.598592650476278
 30
0.0
 10
39.87955917971288
 20
4.523744192447082
 30
0.0
 10
39.80721474251899
 20
4.495152043679429
 30
0.0
 10
39.73431237540928
 20
4.476387855571976
 30
0.0
  0
SPLINE
  5
E2
330
1F
100
AcDbEntity
  8
0
  6
Continuous
 62
     1
370
    15
100
AcDbSpline
210
0.0
220
0.0
230
1.0
 70
     8
 71
     3
 72
     8
 73
     4
 74
     0
 42
0.000000001
 43
0.00000001
 40
0.0
 40
0.0
 40
0.0
 40
0.0
 40
1.0
 40
1.0
 40
1.0
 40
1.0
 10
41.75000000000001
 20
3.637861240030001
 30
0.0
 10
41.07874095407208
 20
3.968597667044892
 30
0.0
 10
40.40684198551624
 20
4.247857677255304
 30
0.0
 10
39.7343123754093
 20
4.47638785557197
 30
0.0
  0
LINE
  5
E3
330
1F
100
AcDbEntity
  8
0
  6
Continuous
 62
     1
370
    15
100
AcDbLine
 10
41.75000000000001
 20
2.830070331078557
 30
0.0
 11
41.75000000000001
 21
3.637861240030002
 31
0.0
  0
SPLINE
  5
E4
330
1F
100
AcDbEntity
  8
0
  6
Continuous
 62
     1
370
    15
100
AcDbSpline
210
0.0
220
0.0
230
1.0
 70
    24
 71
     3
 72
    16
 73
    12
 74
     0
 42
0.000000001
 43
0.00000001
 40
0.0
 40
0.0
 40
0.0
 40
0.0
 40
0.2500000000000001
 40
0.2500000000000001
 40
0.5000000000000001
 40
0.5000000000000001
 40
0.75
 40
0.75
 40
0.875
 40
0.875
 40
1.0
 40
1.0
 40
1.0
 40
1.0
 10
9.999999999999995
 20
-0.9177301327385134
 30
0.0
 10
9.999999999999995
 20
-0.9976202942536314
 30
0.0
 10
9.999999999999995
 20
-1.117622743055579
 30
0.0
 10
9.999999999999995
 20
-1.486404971765565
 30
0.0
 10
9.999999999999995
 20
-1.736952698727597
 30
0.0
 10
9.999999999999995
 20
-2.400457806785977
 30
0.0
 10
9.999999999999995
 20
-2.815915903222615
 30
0.0
 10
9.999999999999995
 20
-3.521073435929583
 30
0.0
 10
9.999999999999995
 20
-3.768760508320179
 30
0.0
 10
9.999999999999995
 20
-4.270994965729511
 30
0.0
 10
9.999999999999995
 20
-4.525365565203329
 30
0.0
 10
9.999999999999995
 20
-4.772003652656122
 30
0.0
  0
LINE
  5
E6
330
1F
100
AcDbEntity
  8
0
  6
Continuous
 62
     1
370
    15
100
AcDbLine
 10
9.999999999999996
 20
-5.900390914199052
 30
0.0
 11
9.999999999999996
 21
-4.772003652656117
 31
0.0
  0
LINE
  5
E7
330
1F
100
AcDbEntity
  8
0
  6
Continuous
 62
     1
370
    15
100
AcDbLine
 10
41.75000000000001
 20
1.882871829652994
 30
0.0
 11
41.75000000000001
 21
2.830070331078557
 31
0.0
  0
LINE
  5
E8
330
1F
100
AcDbEntity
  8
0
  6
Continuous
 62
     1
370
    15
100
AcDbLine
 10
41.75000000000001
 20
-3.614922637221889
 30
0.0
 11
41.75000000000001
 21
-2.757773773396436
 31
0.0
  0
SPLINE
  5
E9
330
1F
100
AcDbEntity
  8
0
  6
Continuous
 62
     1
370
    15
100
AcDbSpline
210
0.0
220
0.0
230
1.0
 70
     8
 71
     3
 72
    14
 73
    10
 74
     0
 42
0.000000001
 43
0.00000001
 40
0.0
 40
0.0
 40
0.0
 40
0.0
 40
0.25
 40
0.25
 40
0.5
 40
0.5
 40
0.75
 40
0.75
 40
1.0
 40
1.0
 40
1.0
 40
1.0
 10
41.75000000000001
 20
-3.614922637221889
 30
0.0
 10
41.75000000000001
 20
-3.668544496889894
 30
0.0
 10
41.72714099931225
 20
-3.736395178070181
 30
0.0
 10
41.63793632293623
 20
-3.885275698627656
 30
0.0
 10
41.57376195725725
 20
-3.963464612703461
 30
0.0
 10
41.42494867074596
 20
-4.112176935966942
 30
0.0
 10
41.3402884856979
 20
-4.182901465611432
 30
0.0
 10
41.16532307219163
 20
-4.308777020428287
 30
0.0
 10
41.07633146134914
 20
-4.363251218278986
 30
0.0
 10
40.98799999999999
 20
-4.409118787828798
 30
0.0
  0
LINE
  5
EA
330
1F
100
AcDbEntity
  8
0
  6
Continuous
 62
     1
370
    15
100
AcDbLine
 10
41.75000000000001
 20
-0.8660254037844344
 30
0.0
 11
41.75000000000001
 21
-1.253084803316235
 31
0.0
  0
LINE
  5
EB
330
1F
100
AcDbEntity
  8
0
  6
Continuous
 62
     1
370
    15
100
AcDbLine
 10
41.75000000000001
 20
-3.614922637221889
 30
0.0
 11
41.75000000000001
 21
-4.890946043346228
 31
0.0
  0
LINE
  5
ED
330
1F
100
AcDbEntity
  8
0
  6
Continuous
 62
     1
370
    15
100
AcDbLine
 10
41.75000000000001
 20
3.637861240030001
 30
0.0
 11
41.75000000000001
 21
4.826000000000005
 31
0.0
  0
LINE
  5
EF
330
1F
100
AcDbEntity
  8
0
  6
Continuous
 62
     8
370
    15
100
AcDbLine
 10
40.98799999999999
 20
-6.349999999999994
 30
0.0
 11
40.98799999999999
 21
-6.347296285838003
 31
0.0
  0
LINE
  5
F1
330
1F
100
AcDbEntity
  8
중심선
100
AcDbLine
 10
-50.15
 20
0.0
 30
0.0
 11
44.75000000000001
 21
0.0
 31
0.0
  0
CIRCLE
  5
F2
330
1F
100
AcDbEntity
  8
외형선
100
AcDbCircle
 10
0.0
 20
0.0
 30
0.0
 40
3.000000000000004
  0
INSERT
  5
F3
330
1F
100
AcDbEntity
  8
0
  6
Continuous
 62
     7
100
AcDbBlockReference
 66
     1
  2
블럭10
 10
-16.62936049909349
 20
-51.78679627639981
 30
0.0
  0
ATTRIB
  5
F4
330
F3
100
AcDbEntity
  8
FORMAT
 62
     2
100
AcDbText
 10
-27.68038085127795
 20
-49.71142936356762
 30
0.0
 40
4.233333333333333
  1
GMG22920[ 6 FLUTE ]
 41
0.75
  7
SLDTEXTSTYLE0
 11
-27.68038085127795
 21
-51.82809603023428
 31
0.0
100
AcDbAttribute
  2
AUTOATTR0
 70
     0
 74
     1
  0
SEQEND
  5
F5
330
F3
100
AcDbEntity
  8
0
  6
Continuous
 62
     7
  0
HATCH
  5
F6
330
1F
100
AcDbEntity
  8
중심선
100
AcDbHatch
 10
0.0
 20
0.0
 30
0.0
210
0.0
220
0.0
230
1.0
  2
SOLID
 70
     1
 71
     0
 91
        1
 92
        0
 93
        4
 72
     1
 10
-10.91445119471264
 20
-35.53962197475587
 11
-14.36072643854992
 21
-35.53962197475587
 72
     1
 10
-14.36072643854992
 20
-35.53962197475587
 11
-16.48895629775394
 21
-38.07594755532846
 72
     1
 10
-16.48895629775395
 20
-38.07594755532846
 11
-13.04264796880351
 21
-38.07590812602597
 72
     1
 10
-13.04264796880351
 20
-38.07590812602597
 11
-10.91445119471264
 21
-35.53962197475587
 97
        0
 75
     0
 76
     1
 98
        1
 10
0.0004859200744729
 20
0.2622744311706926
  0
HATCH
  5
F7
330
1F
100
AcDbEntity
  8
중심선
100
AcDbHatch
 10
0.0
 20
0.0
 30
0.0
210
0.0
220
0.0
230
1.0
  2
SOLID
 70
     1
 71
     0
 91
        1
 92
        0
 93
        4
 72
     1
 10
-5.901687203676686
 20
-35.53962197475587
 11
-9.347962447513968
 21
-35.53962197475587
 72
     1
 10
-9.347962447513968
 20
-35.53962197475587
 11
-13.87910045587136
 21
-40.93962197475589
 72
     1
 10
-13.87910045587136
 20
-40.93962197475589
 11
-10.43282521203408
 21
-40.93962197475589
 72
     1
 10
-10.43282521203408
 20
-40.93962197475589
 11
-5.901687203676686
 21
-35.53962197475587
 97
        0
 75
     0
 76
     1
 98
        1
 10
0.0004859200744729
 20
0.2622744311706926
  0
HATCH
  5
F8
330
1F
100
AcDbEntity
  8
중심선
100
AcDbHatch
 10
0.0
 20
0.0
 30
0.0
210
0.0
220
0.0
230
1.0
  2
SOLID
 70
     1
 71
     0
 91
        1
 92
        0
 93
        4
 72
     1
 10
-0.8889232126407902
 20
-35.5396219747559
 11
-4.335198456477906
 21
-35.53962197475587
 72
     1
 10
-4.335198456477906
 20
-35.53962197475587
 11
-11.38363535836716
 21
-43.93962197475589
 72
     1
 10
-11.38363535836716
 20
-43.93962197475589
 11
-7.937360114529873
 21
-43.93962197475589
 72
     1
 10
-7.937360114529873
 20
-43.93962197475589
 11
-0.8889232126407904
 21
-35.5396219747559
 97
        0
 75
     0
 76
     1
 98
        1
 10
0.0004859200744729
 20
0.2622744311706926
  0
HATCH
  5
F9
330
1F
100
AcDbEntity
  8
중심선
100
AcDbHatch
 10
0.0
 20
0.0
 30
0.0
210
0.0
220
0.0
230
1.0
  2
SOLID
 70
     1
 71
     0
 91
        1
 92
        0
 93
        6
 72
     3
 10
3.910967218371409
 20
-39.73962197480716
 11
3.960054785062284
 21
1.540882976769353E-10
 40
0.3939339440162627
 50
17.09539180608438
 51
320.0019657685079
 73
     0
 72
     1
 10
5.593966874072004
 20
-38.32751597939418
 11
7.899268747773043
 21
-36.39318926934625
 72
     3
 10
3.910967218318563
 20
-39.73962197475601
 11
6.600054785286829
 21
-1.278976924368180E-13
 40
0.636358354079598
 50
39.99873849337411
 51
368.4976242363725
 73
     1
 72
     1
 10
10.33629971021917
 20
-38.7796219746859
 11
2.591034525154485
 21
-38.77962197468587
 72
     1
 10
2.591034525154485
 20
-38.77962197468587
 11
2.591009480708551
 21
-40.6996219746858
 72
     1
 10
2.591009480708551
 20
-40.6996219746858
 11
7.032389250180588
 21
-40.69962197468576
 97
        0
 75
     0
 76
     1
 98
        1
 10
0.0004859200744729
 20
0.2622744311706926
  0
POINT
  5
FA
330
1F
100
AcDbEntity
  8
치수문자_일반주서
100
AcDbPoint
 10
0.0
 20
0.0
 30
0.0
  0
DIMENSION
  5
FB
330
1F
100
AcDbEntity
  8
치수문자_일반주서
100
AcDbDimension
  2
_D
 10
59.5320127824147
 20
6.350000000000078
 30
0.0
 11
59.53201278241472
 21
2.703419368888248
 31
0.0
 70
   160
  1
%%c<>
 71
     2
 42
12.7
 52
-270.0
  3
SLDDIMSTYLE0
100
AcDbAlignedDimension
 13
40.22599999999999
 23
-6.349999999999993
 33
0.0
 14
40.22599999999999
 24
6.350000000000005
 34
0.0
 50
90.0000000000002
100
AcDbRotatedDimension
1001
ACAD
1000
DSTYLE
1002
{
1070
   273
1070
     7
1002
}
  0
DIMENSION
  5
110
330
1F
100
AcDbEntity
  8
치수문자_일반주서
100
AcDbDimension
  2
_D_1
 10
41.75000000000001
 20
39.00555141807178
 30
0.0
 11
-2.699999999999999
 21
39.00555141807178
 31
0.0
 70
   160
  1
<>
 71
     2
 42
88.9
  3
SLDDIMSTYLE1
100
AcDbAlignedDimension
 13
-47.15000000000001
 23
5.849999999999999
 33
0.0
 14
41.75000000000001
 24
5.588000000000005
 34
0.0
100
AcDbRotatedDimension
1001
ACAD
1000
DSTYLE
1002
{
1070
   273
1070
     7
1002
}
  0
DIMENSION
  5
124
330
1F
100
AcDbEntity
  8
치수문자_일반주서
100
AcDbDimension
  2
_D_2
 10
9.999999999999991
 20
23.21499453033794
 30
0.0
 11
25.52575141487685
 21
23.21499453033794
 31
0.0
 70
   160
  1
<>
 71
     2
 42
31.75000000000001
  3
SLDDIMSTYLE2
100
AcDbAlignedDimension
 13
41.75000000000001
 23
4.826000000000005
 33
0.0
 14
9.999999999999991
 24
-6.014067544348812
 34
0.0
100
AcDbRotatedDimension
1001
ACAD
1000
DSTYLE
1002
{
1070
   273
1070
     7
1002
}
  0
DIMENSION
  5
138
330
1F
100
AcDbEntity
  8
치수문자_일반주서
100
AcDbDimension
  2
_D_3
 10
-60.14999999999999
 20
-6.350000000000047
 30
0.0
 11
-60.15000000000001
 21
-0.0000000000000001
 31
0.0
 70
   160
  1
%%c<>
 71
     2
 42
12.7
 52
-270.0
  3
SLDDIMSTYLE3
100
AcDbAlignedDimension
 13
-46.65000000000001
 23
6.350000000000001
 33
0.0
 14
-46.65000000000001
 24
-6.349999999999997
 34
0.0
 50
90.0000000000002
100
AcDbRotatedDimension
1001
ACAD
1000
DSTYLE
1002
{
1070
   273
1070
     7
1002
}
  0
INSERT
  5
153
330
1F
100
AcDbEntity
  8
외형선
100
AcDbBlockReference
  2
SW_DOWELSYMBOL_0
 10
0.0
 20
0.0
 30
0.0
  0
ARC
  5
179
330
1F
100
AcDbEntity
  8
0
  6
Continuous
 62
     1
370
    15
100
AcDbCircle
 10
40.22599999999999
 20
4.826000000000005
 30
0.0
 40
1.524
100
AcDbArc
 50
0.0
 51
90.0
  0
ARC
  5
17C
330
1F
100
AcDbEntity
  8
0
  6
Continuous
 62
     1
370
    15
100
AcDbCircle
 10
40.22599999999999
 20
-4.825999999999994
 30
0.0
 40
1.524
100
AcDbArc
 50
270.0
 51
0.0
  0
DIMENSION
  5
17F
330
1F
100
AcDbEntity
  8
치수문자_일반주서
100
AcDbDimension
  2
*D7
 10
40.22599999999999
 20
4.826000000000005
 30
0.0
 11
54.08955955155094
 21
24.42396418783739
 31
0.0
 70
   164
  1
<>
 71
     5
 42
1.523999999999997
  3
SLDDIMSTYLE2
100
AcDbRadialDimension
 15
41.10612329678767
 25
6.070169997408549
 35
0.0
 40
0.0
1001
ACAD
1000
DSTYLE
1002
{
1070
   273
1070
     2
1002
}
1001
ACAD_DSTYLE_DIMRADIAL_EXTENSION
1070
   387
1070
     1
1070
   388
1040
0.0
1070
   390
1040
1.570796326794897
  0
ENDSEC
  0
SECTION
  2
OBJECTS
  0
DICTIONARY
  5
C
330
0
100
AcDbDictionary
281
     1
  3
ACAD_GROUP
350
D
  3
ACAD_IMAGE_VARS
350
177
  3
ACAD_LAYOUT
350
1A
  3
ACAD_MLINESTYLE
350
17
  3
ACAD_PLOTSETTINGS
350
19
  3
ACAD_PLOTSTYLENAME
350
E
  3
ACAD_SCALELIST
350
47
  3
APPDATA
350
175
  3
DWGPROPS
350
1B0
  0
DICTIONARY
  5
D
102
{ACAD_REACTORS
330
C
102
}
330
C
100
AcDbDictionary
281
     1
  0
RASTERVARIABLES
  5
177
102
{ACAD_REACTORS
330
C
102
}
330
C
100
AcDbRasterVariables
 90
        0
 70
     1
 71
     1
 72
     1
  0
DICTIONARY
  5
1A
102
{ACAD_REACTORS
330
C
102
}
330
C
100
AcDbDictionary
281
     1
  3
Layout1
350
1E
  3
Layout2
350
26
  3
Model
350
22
  0
DICTIONARY
  5
17
102
{ACAD_REACTORS
330
C
102
}
330
C
100
AcDbDictionary
281
     1
  3
Standard
350
18
  0
DICTIONARY
  5
19
102
{ACAD_REACTORS
330
C
102
}
330
C
100
AcDbDictionary
281
     1
  0
ACDBDICTIONARYWDFLT
  5
E
102
{ACAD_REACTORS
330
C
102
}
330
C
100
AcDbDictionary
281
     1
  3
Normal
350
F
100
AcDbDictionaryWithDefault
340
F
  0
DICTIONARY
  5
47
102
{ACAD_REACTORS
330
C
102
}
330
C
100
AcDbDictionary
281
     1
  3
A0
350
48
  3
A1
350
49
  3
A2
350
4A
  3
A3
350
4B
  3
A4
350
4C
  3
A5
350
4D
  3
A6
350
4E
  3
A7
350
4F
  3
A8
350
50
  3
A9
350
51
  3
B0
350
52
  3
B1
350
53
  3
B2
350
54
  3
B3
350
55
  3
B4
350
56
  3
B5
350
57
  3
B6
350
58
  3
B7
350
59
  3
B8
350
5A
  3
B9
350
5B
  3
C0
350
5C
  3
C1
350
5D
  3
C2
350
5E
  3
C3
350
5F
  3
C4
350
60
  3
C5
350
61
  3
C6
350
62
  3
C7
350
63
  3
C8
350
64
  3
C9
350
65
  3
D0
350
66
  3
D1
350
67
  3
D2
350
68
  0
DICTIONARY
  5
175
102
{ACAD_REACTORS
330
C
102
}
330
C
100
AcDbDictionary
281
     1
  0
XRECORD
  5
1B0
102
{ACAD_REACTORS
330
C
102
}
330
C
100
AcDbXrecord
280
     1
  1
DWGPROPS COOKIE
  2

  3

  4

  6

  7

  8
12016016
  9

300
=
301
=
302
=
303
=
304
=
305
=
306
=
307
=
308
=
309
=
 40
0.0
 41
2458236.369142673
 42
2458241.195375232
  1

 90
        0
  0
LAYOUT
  5
1E
102
{ACAD_REACTORS
330
1A
102
}
330
1A
100
AcDbPlotSettings
  1

  2
none_device
  4

  6

 40
0.0
 41
0.0
 42
0.0
 43
0.0
 44
0.0
 45
0.0
 46
0.0
 47
0.0
 48
0.0
 49
0.0
140
0.0
141
0.0
142
1.0
143
1.0
 70
   688
 72
     1
 73
     0
 74
     5
  7

 75
    16
147
1.0
148
0.0
149
0.0
100
AcDbLayout
  1
Layout1
 70
     1
 71
     1
 10
0.0
 20
0.0
 11
420.0
 21
297.0
 12
0.0
 22
0.0
 32
0.0
 14
1.000000000000000E+20
 24
1.000000000000000E+20
 34
1.000000000000000E+20
 15
-1.000000000000000E+20
 25
-1.000000000000000E+20
 35
-1.000000000000000E+20
146
0.0
 13
0.0
 23
0.0
 33
0.0
 16
1.0
 26
0.0
 36
0.0
 17
0.0
 27
1.0
 37
0.0
 76
     0
330
1B
  0
LAYOUT
  5
26
102
{ACAD_REACTORS
330
1A
102
}
330
1A
100
AcDbPlotSettings
  1

  2
none_device
  4

  6

 40
0.0
 41
0.0
 42
0.0
 43
0.0
 44
0.0
 45
0.0
 46
0.0
 47
0.0
 48
0.0
 49
0.0
140
0.0
141
0.0
142
1.0
143
1.0
 70
   688
 72
     1
 73
     0
 74
     5
  7

 75
    16
147
1.0
148
0.0
149
0.0
100
AcDbLayout
  1
Layout2
 70
     1
 71
     2
 10
0.0
 20
0.0
 11
0.0
 21
0.0
 12
0.0
 22
0.0
 32
0.0
 14
0.0
 24
0.0
 34
0.0
 15
0.0
 25
0.0
 35
0.0
146
0.0
 13
0.0
 23
0.0
 33
0.0
 16
1.0
 26
0.0
 36
0.0
 17
0.0
 27
1.0
 37
0.0
 76
     0
330
23
  0
LAYOUT
  5
22
102
{ACAD_REACTORS
330
1A
102
}
330
1A
100
AcDbPlotSettings
  1

  2
none_device
  4
ANSI_A_(11.00_x_8.50_Inches)
  6

 40
6.35
 41
19.05
 42
6.35000508
 43
19.05000254
 44
279.4
 45
215.9
 46
136.5397229855028
 47
90.07822858501036
 48
0.0
 49
0.0
140
0.0
141
0.0
142
0.0785215014555152
143
1.0
 70
  1696
 72
     0
 73
     0
 74
     0
  7

 75
     0
147
0.0235690232323232
148
0.0
149
0.0
100
AcDbLayout
  1
Model
 70
     1
 71
     0
 10
0.0
 20
0.0
 11
420.0
 21
297.0
 12
0.0
 22
0.0
 32
0.0
 14
-64.52500000000005
 24
-49.71142936356762
 34
0.0
 15
62.17468170051914
 25
43.38055141807178
 35
0.0
146
0.0
 13
0.0
 23
0.0
 33
0.0
 16
1.0
 26
0.0
 36
0.0
 17
0.0
 27
1.0
 37
0.0
 76
     0
330
1F
331
29
  0
MLINESTYLE
  5
18
102
{ACAD_REACTORS
330
17
102
}
330
17
100
AcDbMlineStyle
  2
Standard
 70
     0
  3

 62
   256
 51
90.0
 52
90.0
 71
     2
 49
0.5
 62
   256
  6
BYLAYER
 49
-0.5
 62
   256
  6
BYLAYER
  0
ACDBPLACEHOLDER
  5
F
102
{ACAD_REACTORS
330
E
102
}
330
E
  0
SCALE
  5
48
102
{ACAD_REACTORS
330
47
102
}
330
47
100
AcDbScale
 70
     0
300
1:1
140
1.0
141
1.0
290
     1
  0
SCALE
  5
49
102
{ACAD_REACTORS
330
47
102
}
330
47
100
AcDbScale
 70
     0
300
1:2
140
1.0
141
2.0
290
     0
  0
SCALE
  5
4A
102
{ACAD_REACTORS
330
47
102
}
330
47
100
AcDbScale
 70
     0
300
1:4
140
1.0
141
4.0
290
     0
  0
SCALE
  5
4B
102
{ACAD_REACTORS
330
47
102
}
330
47
100
AcDbScale
 70
     0
300
1:5
140
1.0
141
5.0
290
     0
  0
SCALE
  5
4C
102
{ACAD_REACTORS
330
47
102
}
330
47
100
AcDbScale
 70
     0
300
1:8
140
1.0
141
8.0
290
     0
  0
SCALE
  5
4D
102
{ACAD_REACTORS
330
47
102
}
330
47
100
AcDbScale
 70
     0
300
1:10
140
1.0
141
10.0
290
     0
  0
SCALE
  5
4E
102
{ACAD_REACTORS
330
47
102
}
330
47
100
AcDbScale
 70
     0
300
1:16
140
1.0
141
16.0
290
     0
  0
SCALE
  5
4F
102
{ACAD_REACTORS
330
47
102
}
330
47
100
AcDbScale
 70
     0
300
1:20
140
1.0
141
20.0
290
     0
  0
SCALE
  5
50
102
{ACAD_REACTORS
330
47
102
}
330
47
100
AcDbScale
 70
     0
300
1:30
140
1.0
141
30.0
290
     0
  0
SCALE
  5
51
102
{ACAD_REACTORS
330
47
102
}
330
47
100
AcDbScale
 70
     0
300
1:40
140
1.0
141
40.0
290
     0
  0
SCALE
  5
52
102
{ACAD_REACTORS
330
47
102
}
330
47
100
AcDbScale
 70
     0
300
1:50
140
1.0
141
50.0
290
     0
  0
SCALE
  5
53
102
{ACAD_REACTORS
330
47
102
}
330
47
100
AcDbScale
 70
     0
300
1:100
140
1.0
141
100.0
290
     0
  0
SCALE
  5
54
102
{ACAD_REACTORS
330
47
102
}
330
47
100
AcDbScale
 70
     0
300
2:1
140
2.0
141
1.0
290
     0
  0
SCALE
  5
55
102
{ACAD_REACTORS
330
47
102
}
330
47
100
AcDbScale
 70
     0
300
4:1
140
4.0
141
1.0
290
     0
  0
SCALE
  5
56
102
{ACAD_REACTORS
330
47
102
}
330
47
100
AcDbScale
 70
     0
300
8:1
140
8.0
141
1.0
290
     0
  0
SCALE
  5
57
102
{ACAD_REACTORS
330
47
102
}
330
47
100
AcDbScale
 70
     0
300
10:1
140
10.0
141
1.0
290
     0
  0
SCALE
  5
58
102
{ACAD_REACTORS
330
47
102
}
330
47
100
AcDbScale
 70
     0
300
100:1
140
100.0
141
1.0
290
     0
  0
SCALE
  5
59
102
{ACAD_REACTORS
330
47
102
}
330
47
100
AcDbScale
 70
     0
300
1/128" = 1'-0"
140
0.0078125
141
12.0
290
     0
  0
SCALE
  5
5A
102
{ACAD_REACTORS
330
47
102
}
330
47
100
AcDbScale
 70
     0
300
1/64" = 1'-0"
140
0.015625
141
12.0
290
     0
  0
SCALE
  5
5B
102
{ACAD_REACTORS
330
47
102
}
330
47
100
AcDbScale
 70
     0
300
1/32" = 1'-0"
140
0.03125
141
12.0
290
     0
  0
SCALE
  5
5C
102
{ACAD_REACTORS
330
47
102
}
330
47
100
AcDbScale
 70
     0
300
1/16" = 1'-0"
140
0.0625
141
12.0
290
     0
  0
SCALE
  5
5D
102
{ACAD_REACTORS
330
47
102
}
330
47
100
AcDbScale
 70
     0
300
3/32" = 1'-0"
140
0.09375
141
12.0
290
     0
  0
SCALE
  5
5E
102
{ACAD_REACTORS
330
47
102
}
330
47
100
AcDbScale
 70
     0
300
1/8" = 1'-0"
140
0.125
141
12.0
290
     0
  0
SCALE
  5
5F
102
{ACAD_REACTORS
330
47
102
}
330
47
100
AcDbScale
 70
     0
300
3/16" = 1'-0"
140
0.1875
141
12.0
290
     0
  0
SCALE
  5
60
102
{ACAD_REACTORS
330
47
102
}
330
47
100
AcDbScale
 70
     0
300
1/4" = 1'-0"
140
0.25
141
12.0
290
     0
  0
SCALE
  5
61
102
{ACAD_REACTORS
330
47
102
}
330
47
100
AcDbScale
 70
     0
300
3/8" = 1'-0"
140
0.375
141
12.0
290
     0
  0
SCALE
  5
62
102
{ACAD_REACTORS
330
47
102
}
330
47
100
AcDbScale
 70
     0
300
1/2" = 1'-0"
140
0.5
141
12.0
290
     0
  0
SCALE
  5
63
102
{ACAD_REACTORS
330
47
102
}
330
47
100
AcDbScale
 70
     0
300
3/4" = 1'-0"
140
0.75
141
12.0
290
     0
  0
SCALE
  5
64
102
{ACAD_REACTORS
330
47
102
}
330
47
100
AcDbScale
 70
     0
300
1" = 1'-0"
140
1.0
141
12.0
290
     0
  0
SCALE
  5
65
102
{ACAD_REACTORS
330
47
102
}
330
47
100
AcDbScale
 70
     0
300
1-1/2" = 1'-0"
140
1.5
141
12.0
290
     0
  0
SCALE
  5
66
102
{ACAD_REACTORS
330
47
102
}
330
47
100
AcDbScale
 70
     0
300
3" = 1'-0"
140
3.0
141
12.0
290
     0
  0
SCALE
  5
67
102
{ACAD_REACTORS
330
47
102
}
330
47
100
AcDbScale
 70
     0
300
6" = 1'-0"
140
6.0
141
12.0
290
     0
  0
SCALE
  5
68
102
{ACAD_REACTORS
330
47
102
}
330
47
100
AcDbScale
 70
     0
300
1'-0" = 1'-0"
140
12.0
141
12.0
290
     0
  0
ENDSEC
  0
EOF
