  0
SECTION
  2
HEADER
  9
$ACADVER
  1
AC1015
  9
$ACADMAINTVER
 70
     6
  9
$DWGCODEPAGE
  3
ANSI_949
  9
$INSBASE
 10
0.0
 20
0.0
 30
0.0
  9
$EXTMIN
 10
-58.17499999999917
 20
-49.71142936356763
 30
0.0
  9
$EXTMAX
 10
60.41269833342595
 20
43.38055141807178
 30
0.0
  9
$LIMMIN
 10
0.0
 20
0.0
  9
$LIMMAX
 10
420.0
 20
297.0
  9
$ORTHOMODE
 70
     0
  9
$REGENMODE
 70
     1
  9
$FILLMODE
 70
     1
  9
$QTEXTMODE
 70
     0
  9
$MIRRTEXT
 70
     1
  9
$LTSCALE
 40
1.0
  9
$ATTMODE
 70
     1
  9
$TEXTSIZE
 40
3.5
  9
$TRACEWID
 40
1.0
  9
$TEXTSTYLE
  7
Standard
  9
$CLAYER
  8
0
  9
$CELTYPE
  6
ByLayer
  9
$CECOLOR
 62
   256
  9
$CELTSCALE
 40
1.0
  9
$DISPSILH
 70
     0
  9
$DIMSCALE
 40
1.0
  9
$DIMASZ
 40
3.302
  9
$DIMEXO
 40
1.0
  9
$DIMDLI
 40
3.75
  9
$DIMRND
 40
0.0
  9
$DIMDLE
 40
0.0
  9
$DIMEXE
 40
1.0
  9
$DIMTP
 40
0.0
  9
$DIMTM
 40
0.0
  9
$DIMTXT
 40
3.5
  9
$DIMCEN
 40
2.5
  9
$DIMTSZ
 40
0.0
  9
$DIMTOL
 70
     0
  9
$DIMLIM
 70
     0
  9
$DIMTIH
 70
     1
  9
$DIMTOH
 70
     1
  9
$DIMSE1
 70
     0
  9
$DIMSE2
 70
     0
  9
$DIMTAD
 70
     1
  9
$DIMZIN
 70
     0
  9
$DIMBLK
  1

  9
$DIMASO
 70
     1
  9
$DIMSHO
 70
     1
  9
$DIMPOST
  1

  9
$DIMAPOST
  1

  9
$DIMALT
 70
     0
  9
$DIMALTD
 70
     3
  9
$DIMALTF
 40
0.0393700787401575
  9
$DIMLFAC
 40
1.0
  9
$DIMTOFL
 70
     1
  9
$DIMTVP
 40
0.0
  9
$DIMTIX
 70
     0
  9
$DIMSOXD
 70
     0
  9
$DIMSAH
 70
     0
  9
$DIMBLK1
  1

  9
$DIMBLK2
  1

  9
$DIMSTYLE
  2
ISO-25
  9
$DIMCLRD
 70
     0
  9
$DIMCLRE
 70
     0
  9
$DIMCLRT
 70
     0
  9
$DIMTFAC
 40
1.0
  9
$DIMGAP
 40
1.524
  9
$DIMJUST
 70
     0
  9
$DIMSD1
 70
     0
  9
$DIMSD2
 70
     0
  9
$DIMTOLJ
 70
     0
  9
$DIMTZIN
 70
     0
  9
$DIMALTZ
 70
     0
  9
$DIMALTTZ
 70
     0
  9
$DIMUPT
 70
     0
  9
$DIMDEC
 70
     2
  9
$DIMTDEC
 70
     2
  9
$DIMALTU
 70
     2
  9
$DIMALTTD
 70
     3
  9
$DIMTXSTY
  7
Standard
  9
$DIMAUNIT
 70
     0
  9
$DIMADEC
 70
     2
  9
$DIMALTRND
 40
0.0
  9
$DIMAZIN
 70
     0
  9
$DIMDSEP
 70
    44
  9
$DIMATFIT
 70
     3
  9
$DIMFRAC
 70
     0
  9
$DIMLDRBLK
  1

  9
$DIMLUNIT
 70
     2
  9
$DIMLWD
 70
    -2
  9
$DIMLWE
 70
    -2
  9
$DIMTMOVE
 70
     0
  9
$LUNITS
 70
     2
  9
$LUPREC
 70
     2
  9
$SKETCHINC
 40
1.0
  9
$FILLETRAD
 40
10.0
  9
$AUNITS
 70
     0
  9
$AUPREC
 70
     2
  9
$MENU
  1
.
  9
$ELEVATION
 40
0.0
  9
$PELEVATION
 40
0.0
  9
$THICKNESS
 40
0.0
  9
$LIMCHECK
 70
     0
  9
$CHAMFERA
 40
0.0
  9
$CHAMFERB
 40
0.0
  9
$CHAMFERC
 40
0.0
  9
$CHAMFERD
 40
0.0
  9
$SKPOLY
 70
     0
  9
$TDCREATE
 40
2458236.743833032
  9
$TDUCREATE
 40
2458236.368833032
  9
$TDUPDATE
 40
2458241.594957153
  9
$TDUUPDATE
 40
2458241.219957153
  9
$TDINDWG
 40
0.0057340625
  9
$TDUSRTIMER
 40
2458241.211359931
  9
$USRTIMER
 70
     1
  9
$ANGBASE
 50
0.0
  9
$ANGDIR
 70
     0
  9
$PDMODE
 70
     0
  9
$PDSIZE
 40
-1.0
  9
$PLINEWID
 40
0.0
  9
$SPLFRAME
 70
     0
  9
$SPLINETYPE
 70
     6
  9
$SPLINESEGS
 70
     8
  9
$HANDSEED
  5
176
  9
$SURFTAB1
 70
     6
  9
$SURFTAB2
 70
     6
  9
$SURFTYPE
 70
     6
  9
$SURFU
 70
     6
  9
$SURFV
 70
     6
  9
$UCSBASE
  2

  9
$UCSNAME
  2

  9
$UCSORG
 10
0.0
 20
0.0
 30
0.0
  9
$UCSXDIR
 10
1.0
 20
0.0
 30
0.0
  9
$UCSYDIR
 10
0.0
 20
1.0
 30
0.0
  9
$UCSORTHOREF
  2

  9
$UCSORTHOVIEW
 70
     0
  9
$UCSORGTOP
 10
0.0
 20
0.0
 30
0.0
  9
$UCSORGBOTTOM
 10
0.0
 20
0.0
 30
0.0
  9
$UCSORGLEFT
 10
0.0
 20
0.0
 30
0.0
  9
$UCSORGRIGHT
 10
0.0
 20
0.0
 30
0.0
  9
$UCSORGFRONT
 10
0.0
 20
0.0
 30
0.0
  9
$UCSORGBACK
 10
0.0
 20
0.0
 30
0.0
  9
$PUCSBASE
  2

  9
$PUCSNAME
  2

  9
$PUCSORG
 10
0.0
 20
0.0
 30
0.0
  9
$PUCSXDIR
 10
1.0
 20
0.0
 30
0.0
  9
$PUCSYDIR
 10
0.0
 20
1.0
 30
0.0
  9
$PUCSORTHOREF
  2

  9
$PUCSORTHOVIEW
 70
     0
  9
$PUCSORGTOP
 10
0.0
 20
0.0
 30
0.0
  9
$PUCSORGBOTTOM
 10
0.0
 20
0.0
 30
0.0
  9
$PUCSORGLEFT
 10
0.0
 20
0.0
 30
0.0
  9
$PUCSORGRIGHT
 10
0.0
 20
0.0
 30
0.0
  9
$PUCSORGFRONT
 10
0.0
 20
0.0
 30
0.0
  9
$PUCSORGBACK
 10
0.0
 20
0.0
 30
0.0
  9
$USERI1
 70
     0
  9
$USERI2
 70
     0
  9
$USERI3
 70
     0
  9
$USERI4
 70
     0
  9
$USERI5
 70
     0
  9
$USERR1
 40
0.0
  9
$USERR2
 40
0.0
  9
$USERR3
 40
0.0
  9
$USERR4
 40
0.0
  9
$USERR5
 40
0.0
  9
$WORLDVIEW
 70
     1
  9
$SHADEDGE
 70
     3
  9
$SHADEDIF
 70
    70
  9
$TILEMODE
 70
     1
  9
$MAXACTVP
 70
    64
  9
$PINSBASE
 10
0.0
 20
0.0
 30
0.0
  9
$PLIMCHECK
 70
     0
  9
$PEXTMIN
 10
1.000000000000000E+20
 20
1.000000000000000E+20
 30
1.000000000000000E+20
  9
$PEXTMAX
 10
-1.000000000000000E+20
 20
-1.000000000000000E+20
 30
-1.000000000000000E+20
  9
$PLIMMIN
 10
0.0
 20
0.0
  9
$PLIMMAX
 10
0.0
 20
0.0
  9
$UNITMODE
 70
     0
  9
$VISRETAIN
 70
     1
  9
$PLINEGEN
 70
     0
  9
$PSLTSCALE
 70
     1
  9
$TREEDEPTH
 70
  3020
  9
$CMLSTYLE
  2
Standard
  9
$CMLJUST
 70
     0
  9
$CMLSCALE
 40
20.0
  9
$PROXYGRAPHICS
 70
     1
  9
$MEASUREMENT
 70
     1
  9
$CELWEIGHT
370
    -1
  9
$ENDCAPS
280
     0
  9
$JOINSTYLE
280
     0
  9
$LWDISPLAY
290
     1
  9
$INSUNITS
 70
     4
  9
$HYPERLINKBASE
  1

  9
$STYLESHEET
  1

  9
$XEDIT
290
     1
  9
$CEPSNTYPE
380
     0
  9
$PSTYLEMODE
290
     1
  9
$FINGERPRINTGUID
  2
{1F38D52A-C3DA-4D4E-92D2-E8A59DEA5707}
  9
$VERSIONGUID
  2
{FAEB1C32-E019-11D5-929B-00C0DF256EC4}
  9
$EXTNAMES
290
     1
  9
$PSVPSCALE
 40
0.0
  9
$OLESTARTUP
290
     0
  0
ENDSEC
  0
SECTION
  2
CLASSES
  0
CLASS
  1
ACDBDICTIONARYWDFLT
  2
AcDbDictionaryWithDefault
  3
ObjectDBX Classes
 90
        0
280
     0
281
     0
  0
CLASS
  1
VISUALSTYLE
  2
AcDbVisualStyle
  3
ObjectDBX Classes
 90
     4095
280
     0
281
     0
  0
CLASS
  1
MATERIAL
  2
AcDbMaterial
  3
ObjectDBX Classes
 90
     1153
280
     0
281
     0
  0
CLASS
  1
SCALE
  2
AcDbScale
  3
ObjectDBX Classes
 90
     1153
280
     0
281
     0
  0
CLASS
  1
SUN
  2
AcDbSun
  3
SCENEOE
 90
     1153
280
     0
281
     0
  0
CLASS
  1
ACDBPLACEHOLDER
  2
AcDbPlaceHolder
  3
ObjectDBX Classes
 90
        0
280
     0
281
     0
  0
CLASS
  1
LAYOUT
  2
AcDbLayout
  3
ObjectDBX Classes
 90
        0
280
     0
281
     0
  0
CLASS
  1
TABLESTYLE
  2
AcDbTableStyle
  3
ObjectDBX Classes
 90
     4095
280
     0
281
     0
  0
CLASS
  1
MLEADERSTYLE
  2
AcDbMLeaderStyle
  3
ACDB_MLEADERSTYLE_CLASS
 90
     4095
280
     0
281
     0
  0
CLASS
  1
RASTERVARIABLES
  2
AcDbRasterVariables
  3
ISM
 90
        0
280
     0
281
     0
  0
CLASS
  1
DIMASSOC
  2
AcDbDimAssoc
  3
"AcDbDimAssoc|Product Desc:     AcDim ARX App For Dimension|Company:          Autodesk, Inc.|WEB Address:      www.autodesk.com"
 90
        0
280
     0
281
     0
  0
ENDSEC
  0
SECTION
  2
TABLES
  0
TABLE
  2
VPORT
  5
8
330
0
100
AcDbSymbolTable
 70
     1
  0
VPORT
  5
29
330
8
100
AcDbSymbolTableRecord
100
AcDbViewportTableRecord
  2
*Active
 70
     0
 10
0.0
 20
0.0
 11
1.0
 21
1.0
 12
13.67264615001247
 22
0.5449654639862445
 13
0.0
 23
0.0
 14
10.0
 24
10.0
 15
10.0
 25
10.0
 16
0.0
 26
0.0
 36
1.0
 17
0.0
 27
0.0
 37
0.0
 40
202.4591010696011
 41
1.321695760598504
 42
50.0
 43
0.0
 44
0.0
 50
0.0
 51
0.0
 71
    16
 72
  2000
 73
     1
 74
     3
 75
     0
 76
     0
 77
     0
 78
     0
281
     0
 65
     1
110
0.0
120
0.0
130
0.0
111
1.0
121
0.0
131
0.0
112
0.0
122
1.0
132
0.0
 79
     0
146
0.0
  0
ENDTAB
  0
TABLE
  2
LTYPE
  5
5
330
0
100
AcDbSymbolTable
 70
     6
  0
LTYPE
  5
14
330
5
100
AcDbSymbolTableRecord
100
AcDbLinetypeTableRecord
  2
ByBlock
 70
     0
  3

 72
    65
 73
     0
 40
0.0
  0
LTYPE
  5
15
330
5
100
AcDbSymbolTableRecord
100
AcDbLinetypeTableRecord
  2
ByLayer
 70
     0
  3

 72
    65
 73
     0
 40
0.0
  0
LTYPE
  5
16
330
5
100
AcDbSymbolTableRecord
100
AcDbLinetypeTableRecord
  2
Continuous
 70
     0
  3
Solid line
 72
    65
 73
     0
 40
0.0
  0
LTYPE
  5
6A
330
5
100
AcDbSymbolTableRecord
100
AcDbLinetypeTableRecord
  2
HIDDEN
 70
     0
  3
Hidden __ __ __ __ __ __ __ __ __ __ __ __ __ __
 72
    65
 73
     2
 40
1.905
 49
1.27
 74
     0
 49
-0.635
 74
     0
  0
LTYPE
  5
6B
330
5
100
AcDbSymbolTableRecord
100
AcDbLinetypeTableRecord
  2
PHANTOM
 70
     0
  3
Phantom ______  __  __  ______  __  __  ______
 72
    65
 73
     6
 40
12.7
 49
6.35
 74
     0
 49
-1.27
 74
     0
 49
1.27
 74
     0
 49
-1.27
 74
     0
 49
1.27
 74
     0
 49
-1.27
 74
     0
  0
LTYPE
  5
6C
330
5
100
AcDbSymbolTableRecord
100
AcDbLinetypeTableRecord
  2
CENTER
 70
     0
  3
Center ____ _ ____ _ ____ _ ____ _ ____ _ ____
 72
    65
 73
     4
 40
10.16
 49
6.35
 74
     0
 49
-1.27
 74
     0
 49
1.27
 74
     0
 49
-1.27
 74
     0
  0
LTYPE
  5
6D
330
5
100
AcDbSymbolTableRecord
100
AcDbLinetypeTableRecord
  2
CENTERX2
 70
     0
  3
Center (2x) ________  __  ________  __  _____
 72
    65
 73
     4
 40
20.32
 49
12.7
 74
     0
 49
-2.54
 74
     0
 49
2.54
 74
     0
 49
-2.54
 74
     0
  0
LTYPE
  5
6E
330
5
100
AcDbSymbolTableRecord
100
AcDbLinetypeTableRecord
  2
DOT2
 70
     0
  3
Dot (.5x) ........................................
 72
    65
 73
     2
 40
0.635
 49
0.0
 74
     0
 49
-0.635
 74
     0
  0
ENDTAB
  0
TABLE
  2
LAYER
  5
2
330
0
100
AcDbSymbolTable
 70
    17
  0
LAYER
  5
10
330
2
100
AcDbSymbolTableRecord
100
AcDbLayerTableRecord
  2
0
 70
     0
 62
     7
  6
Continuous
370
    -3
390
F
  0
LAYER
  5
6F
330
2
100
AcDbSymbolTableRecord
100
AcDbLayerTableRecord
  2
FORMAT
 70
     0
 62
     2
  6
Continuous
370
    -3
390
F
  0
LAYER
  5
70
330
2
100
AcDbSymbolTableRecord
100
AcDbLayerTableRecord
  2
외형선
 70
     0
 62
   100
  6
Continuous
370
    30
390
F
  0
LAYER
  5
71
330
2
100
AcDbSymbolTableRecord
100
AcDbLayerTableRecord
  2
숨은선
 70
     0
 62
     2
  6
HIDDEN
370
    15
390
F
  0
LAYER
  5
72
330
2
100
AcDbSymbolTableRecord
100
AcDbLayerTableRecord
  2
중심선
 70
     0
 62
     1
  6
CENTERX2
370
    -3
390
F
  0
LAYER
  5
73
330
2
100
AcDbSymbolTableRecord
100
AcDbLayerTableRecord
  2
파단선
 70
     0
 62
     4
  6
Continuous
370
    -3
390
F
  0
LAYER
  5
74
330
2
100
AcDbSymbolTableRecord
100
AcDbLayerTableRecord
  2
해칭선
 70
     0
 62
     4
  6
Continuous
370
    -3
390
F
  0
LAYER
  5
75
330
2
100
AcDbSymbolTableRecord
100
AcDbLayerTableRecord
  2
가는실선
 70
     0
 62
     4
  6
Continuous
370
    -3
390
F
  0
LAYER
  5
76
330
2
100
AcDbSymbolTableRecord
100
AcDbLayerTableRecord
  2
치수_보조선
 70
     0
 62
     4
  6
Continuous
370
    -3
390
F
  0
LAYER
  5
77
330
2
100
AcDbSymbolTableRecord
100
AcDbLayerTableRecord
  2
치수문자_일반주서
 70
     0
 62
     7
  6
Continuous
370
    15
390
F
  0
LAYER
  5
78
330
2
100
AcDbSymbolTableRecord
100
AcDbLayerTableRecord
  2
개별주서
 70
     0
 62
   100
  6
Continuous
370
    30
390
F
  0
LAYER
  5
79
330
2
100
AcDbSymbolTableRecord
100
AcDbLayerTableRecord
  2
중간선
 70
     0
 62
     2
  6
Continuous
370
    15
390
F
  0
LAYER
  5
7A
330
2
100
AcDbSymbolTableRecord
100
AcDbLayerTableRecord
  2
윤곽선
 70
     0
 62
     3
  6
Continuous
370
    40
390
F
  0
LAYER
  5
7B
330
2
100
AcDbSymbolTableRecord
100
AcDbLayerTableRecord
  2
중심마크
 70
     0
 62
   100
  6
Continuous
370
    30
390
F
  0
LAYER
  5
7C
330
2
100
AcDbSymbolTableRecord
100
AcDbLayerTableRecord
  2
가상선
 70
     0
 62
     4
  6
PHANTOM
370
    -3
390
F
  0
LAYER
  5
7D
330
2
100
AcDbSymbolTableRecord
100
AcDbLayerTableRecord
  2
특수지정선
 70
     0
 62
     5
  6
CENTERX2
370
    60
390
F
  0
LAYER
  5
160
330
2
100
AcDbSymbolTableRecord
100
AcDbLayerTableRecord
  2
Defpoints
 70
     0
 62
     7
  6
Continuous
290
     0
370
    -3
390
F
  0
ENDTAB
  0
TABLE
  2
STYLE
  5
3
330
0
100
AcDbSymbolTable
 70
     2
  0
STYLE
  5
11
330
3
100
AcDbSymbolTableRecord
100
AcDbTextStyleTableRecord
  2
Standard
 70
     0
 40
0.0
 41
1.0
 50
0.0
 71
     0
 42
3.5
  3
txt
  4

  0
STYLE
  5
93
330
3
100
AcDbSymbolTableRecord
100
AcDbTextStyleTableRecord
  2
SLDTEXTSTYLE0
 70
     0
 40
0.0
 41
0.75
 50
0.0
 71
     0
 42
3.5
  3
TXT
  4

  0
ENDTAB
  0
TABLE
  2
VIEW
  5
6
330
0
100
AcDbSymbolTable
 70
     0
  0
ENDTAB
  0
TABLE
  2
UCS
  5
7
330
0
100
AcDbSymbolTable
 70
     0
  0
ENDTAB
  0
TABLE
  2
APPID
  5
9
330
0
100
AcDbSymbolTable
 70
     2
  0
APPID
  5
12
330
9
100
AcDbSymbolTableRecord
100
AcDbRegAppTableRecord
  2
ACAD
 70
     0
  0
APPID
  5
162
330
9
100
AcDbSymbolTableRecord
100
AcDbRegAppTableRecord
  2
ACAD_DSTYLE_DIMRADIAL_EXTENSION
 70
     0
  0
ENDTAB
  0
TABLE
  2
DIMSTYLE
  5
A
330
0
100
AcDbSymbolTable
 70
     4
100
AcDbDimStyleTable
  0
DIMSTYLE
105
27
330
A
100
AcDbSymbolTableRecord
100
AcDbDimStyleTableRecord
  2
ISO-25
 70
     0
 41
2.5
 42
0.625
 43
3.75
 44
1.25
 73
     0
 74
     0
 77
     1
 78
     8
140
2.5
141
2.5
143
0.03937007874016
147
0.625
171
     3
172
     1
178
     0
271
     2
272
     2
274
     3
278
    44
283
     0
284
     8
340
11
  0
DIMSTYLE
105
E3
102
{ACAD_REACTORS
330
E2
102
}
330
A
100
AcDbSymbolTableRecord
100
AcDbDimStyleTableRecord
  2
SLDDIMSTYLE0
 70
     0
 41
3.302
 44
0.0
 45
0.000000001
 73
     0
 74
     0
 77
     1
 78
    12
 79
     3
140
3.5
143
0.0393700787401575
147
0.875
148
0.000000001
170
     1
172
     1
173
     1
178
     0
271
     2
272
     2
276
     2
284
    12
289
     0
340
93
  0
DIMSTYLE
105
F8
102
{ACAD_REACTORS
330
F7
102
}
330
A
100
AcDbSymbolTableRecord
100
AcDbDimStyleTableRecord
  2
SLDDIMSTYLE1
 70
     0
 41
3.302
 44
0.0
 45
0.000000001
 73
     0
 74
     0
 77
     1
 78
     4
 79
     1
140
3.5
143
0.0393700787401575
147
0.875
148
0.000000001
170
     1
173
     1
178
     0
271
     2
272
     2
276
     2
284
    12
340
93
  0
DIMSTYLE
105
10C
102
{ACAD_REACTORS
330
10B
330
121
330
168
102
}
330
A
100
AcDbSymbolTableRecord
100
AcDbDimStyleTableRecord
  2
SLDDIMSTYLE2
 70
     0
 41
3.302
 44
0.0
 45
0.000000001
 73
     0
 74
     0
 77
     1
 78
     4
 79
     1
140
3.5
143
0.0393700787401575
147
0.875
148
0.000000001
170
     1
172
     1
173
     1
178
     0
271
     2
272
     2
276
     2
284
    12
289
     0
340
93
  0
ENDTAB
  0
TABLE
  2
BLOCK_RECORD
  5
1
330
0
100
AcDbSymbolTable
 70
     8
  0
BLOCK_RECORD
  5
1F
330
1
100
AcDbSymbolTableRecord
100
AcDbBlockTableRecord
  2
*Model_Space
340
22
  0
BLOCK_RECORD
  5
1B
330
1
100
AcDbSymbolTableRecord
100
AcDbBlockTableRecord
  2
*Paper_Space
340
1E
  0
BLOCK_RECORD
  5
23
330
1
100
AcDbSymbolTableRecord
100
AcDbBlockTableRecord
  2
*Paper_Space0
340
26
  0
BLOCK_RECORD
  5
7E
330
1
100
AcDbSymbolTableRecord
100
AcDbBlockTableRecord
  2
블럭10
340
0
102
{BLKREFS
331
DA
102
}
  0
BLOCK_RECORD
  5
E4
330
1
100
AcDbSymbolTableRecord
100
AcDbBlockTableRecord
  2
_D
340
0
  0
BLOCK_RECORD
  5
F9
330
1
100
AcDbSymbolTableRecord
100
AcDbBlockTableRecord
  2
_D_1
340
0
  0
BLOCK_RECORD
  5
10D
330
1
100
AcDbSymbolTableRecord
100
AcDbBlockTableRecord
  2
_D_2
340
0
  0
BLOCK_RECORD
  5
122
330
1
100
AcDbSymbolTableRecord
100
AcDbBlockTableRecord
  2
_D_3
340
0
  0
BLOCK_RECORD
  5
135
330
1
100
AcDbSymbolTableRecord
100
AcDbBlockTableRecord
  2
SW_DOWELSYMBOL_0
340
0
102
{BLKREFS
331
13B
102
}
  0
BLOCK_RECORD
  5
16B
330
1
100
AcDbSymbolTableRecord
100
AcDbBlockTableRecord
  2
*D7
340
0
  0
ENDTAB
  0
ENDSEC
  0
SECTION
  2
BLOCKS
  0
BLOCK
  5
20
330
1F
100
AcDbEntity
  8
0
100
AcDbBlockBegin
  2
*Model_Space
 70
     0
 10
0.0
 20
0.0
 30
0.0
  3
*Model_Space
  1
*Model_Space
  0
ENDBLK
  5
21
330
1F
100
AcDbEntity
  8
0
100
AcDbBlockEnd
  0
BLOCK
  5
1C
330
1B
100
AcDbEntity
 67
     1
  8
0
100
AcDbBlockBegin
  2
*Paper_Space
 70
     0
 10
0.0
 20
0.0
 30
0.0
  3
*Paper_Space
  1
*Paper_Space
  0
ENDBLK
  5
1D
330
1B
100
AcDbEntity
 67
     1
  8
0
100
AcDbBlockEnd
  0
BLOCK
  5
24
330
23
100
AcDbEntity
  8
0
100
AcDbBlockBegin
  2
*Paper_Space0
 70
     0
 10
0.0
 20
0.0
 30
0.0
  3
*Paper_Space0
  1
*Paper_Space0
  0
ENDBLK
  5
25
330
23
100
AcDbEntity
  8
0
100
AcDbBlockEnd
  0
BLOCK
  5
7F
330
7E
100
AcDbEntity
  8
0
100
AcDbBlockBegin
  2
블럭10
 70
     2
 10
0.0
 20
0.0
 30
0.0
  3
블럭10
  1
블럭10
  0
ELLIPSE
  5
81
330
7E
100
AcDbEntity
  8
중심선
100
AcDbEllipse
 10
20.54032771741204
 20
12.0471743016438
 30
0.0
 11
6.600054785286829
 21
-1.261213355974178E-13
 31
0.0
210
0.0
220
0.0
230
1.0
 40
0.636358354079598
 41
0.9219305317359503
 42
6.513795318482858
  0
ELLIPSE
  5
82
330
7E
100
AcDbEntity
  8
중심선
100
AcDbEllipse
 10
20.54032771746488
 20
12.04717430159265
 30
0.0
 11
3.960054785062283
 21
1.540847449632565E-10
 31
0.0
210
0.0
220
0.0
230
1.0
 40
0.3939339440162632
 41
1.131841032648279
 42
5.62031148352944
  0
LINE
  5
83
330
7E
100
AcDbEntity
  8
중심선
100
AcDbLine
 10
2.268634060543552
 20
16.24717430164393
 30
0.0
 11
5.714909304380834
 21
16.24717430164393
 31
0.0
  0
LINE
  5
84
330
7E
100
AcDbEntity
  8
중심선
100
AcDbLine
 10
5.245725140726316
 20
7.84717430164391
 30
0.0
 11
8.692000384563599
 21
7.84717430164391
 31
0.0
  0
LINE
  5
85
330
7E
100
AcDbEntity
  8
중심선
100
AcDbLine
 10
15.74043728645272
 20
16.24717430164393
 30
0.0
 11
8.692000384563599
 21
7.84717430164391
 31
0.0
  0
LINE
  5
86
330
7E
100
AcDbEntity
  8
중심선
100
AcDbLine
 10
0.1404042013395286
 20
13.71084872107135
 30
0.0
 11
3.58671253028996
 21
13.71088815037384
 31
0.0
  0
LINE
  5
87
330
7E
100
AcDbEntity
  8
중심선
100
AcDbLine
 10
2.750260043222114
 20
10.84717430164391
 30
0.0
 11
6.196535287059397
 21
10.84717430164391
 31
0.0
  0
LINE
  5
88
330
7E
100
AcDbEntity
  8
중심선
100
AcDbLine
 10
12.29416204261559
 20
16.24717430164393
 30
0.0
 11
5.245725140726316
 21
7.84717430164391
 31
0.0
  0
LINE
  5
89
330
7E
100
AcDbEntity
  8
중심선
100
AcDbLine
 10
10.72767329541681
 20
16.24717430164393
 30
0.0
 11
6.196535287059397
 21
10.84717430164391
 31
0.0
  0
LINE
  5
8A
330
7E
100
AcDbEntity
  8
중심선
100
AcDbLine
 10
7.28139805157953
 20
16.24717430164393
 30
0.0
 11
2.750260043222114
 21
10.84717430164391
 31
0.0
  0
LINE
  5
8B
330
7E
100
AcDbEntity
  8
중심선
100
AcDbLine
 10
5.714909304380834
 20
16.24717430164393
 30
0.0
 11
3.58671253028996
 21
13.71088815037384
 31
0.0
  0
LINE
  5
8C
330
7E
100
AcDbEntity
  8
중심선
100
AcDbLine
 10
2.268634060543552
 20
16.24717430164393
 30
0.0
 11
0.1404042013395286
 21
13.71084872107135
 31
0.0
  0
LINE
  5
8D
330
7E
100
AcDbEntity
  8
중심선
100
AcDbLine
 10
7.28139805157953
 20
16.24717430164393
 30
0.0
 11
10.72767329541681
 21
16.24717430164393
 31
0.0
  0
LINE
  5
8E
330
7E
100
AcDbEntity
  8
중심선
100
AcDbLine
 10
12.29416204261559
 20
16.24717430164393
 30
0.0
 11
15.74043728645272
 21
16.24717430164393
 31
0.0
  0
LINE
  5
8F
330
7E
100
AcDbEntity
  8
중심선
100
AcDbLine
 10
19.22036997980202
 20
11.08717430171403
 30
0.0
 11
23.66174974927406
 21
11.08717430171406
 31
0.0
  0
LINE
  5
90
330
7E
100
AcDbEntity
  8
중심선
100
AcDbLine
 10
19.22039502424796
 20
13.00717430171391
 30
0.0
 11
19.22036997980202
 21
11.08717430171403
 31
0.0
  0
LINE
  5
91
330
7E
100
AcDbEntity
  8
중심선
100
AcDbLine
 10
19.22039502424796
 20
13.00717430171391
 30
0.0
 11
26.96566020931264
 21
13.00717430171391
 31
0.0
  0
LINE
  5
92
330
7E
100
AcDbEntity
  8
중심선
100
AcDbLine
 10
22.22332737316547
 20
13.45928029700563
 30
0.0
 11
24.52862924686651
 21
15.39360700705356
 31
0.0
  0
ATTDEF
  5
94
330
7E
100
AcDbEntity
  8
FORMAT
 62
     2
100
AcDbText
 10
-11.05102035218446
 20
2.075366912832191
 30
0.0
 40
4.233333333333333
  1
GMG22918[ 6 FLUTE ]
 41
0.75
  7
SLDTEXTSTYLE0
 11
-11.05102035218446
 21
-0.0412997538344756
 31
0.0
100
AcDbAttributeDefinition
  3

  2
AUTOATTR0
 70
     0
 74
     1
  0
ENDBLK
  5
80
330
7E
100
AcDbEntity
  8
0
100
AcDbBlockEnd
  0
BLOCK
  5
E5
330
E4
100
AcDbEntity
  8
0
100
AcDbBlockBegin
  2
_D
 70
     0
 10
0.0
 20
0.0
 30
0.0
  3
_D
  1
_D
  0
LINE
  5
E7
330
E4
100
AcDbEntity
  8
치수문자_일반주서
 62
     0
370
    -2
100
AcDbLine
 10
33.55750000000089
 20
-6.350000000000001
 30
0.0
 11
52.1402457157739
 21
-6.349999999999932
 31
0.0
  0
LINE
  5
E8
330
E4
100
AcDbEntity
  8
치수문자_일반주서
 62
     0
370
    -2
100
AcDbLine
 10
33.55750000000089
 20
6.349999999999998
 30
0.0
 11
52.14024571577386
 21
6.350000000000067
 31
0.0
  0
LINE
  5
E9
330
E4
100
AcDbEntity
  8
치수문자_일반주서
 62
     0
370
    -2
100
AcDbLine
 10
52.14024571577389
 20
-3.047999999999933
 30
0.0
 11
52.14024571577387
 21
3.048000000000068
 31
0.0
  0
SOLID
  5
EA
330
E4
100
AcDbEntity
  8
치수문자_일반주서
 62
     0
100
AcDbTrace
 10
51.58991238244055
 20
-3.047999999999934
 30
0.0
 11
52.69057904910722
 21
-3.047999999999931
 31
0.0
 12
52.1402457157739
 22
-6.349999999999932
 32
0.0
 13
52.1402457157739
 23
-6.349999999999932
 33
0.0
  0
SOLID
  5
EB
330
E4
100
AcDbEntity
  8
치수문자_일반주서
 62
     0
100
AcDbTrace
 10
52.69057904910721
 20
3.048000000000069
 30
0.0
 11
51.58991238244054
 21
3.048000000000066
 31
0.0
 12
52.14024571577386
 22
6.350000000000067
 32
0.0
 13
52.14024571577386
 23
6.350000000000067
 33
0.0
  0
MTEXT
  5
EC
330
E4
100
AcDbEntity
  8
치수문자_일반주서
 62
     0
100
AcDbMText
 10
47.76524571577387
 20
2.678446215346453
 30
0.0
 40
3.5
 41
0.0
 71
     2
 72
     1
  1
\A1;%%c12.7 [1/2]
  7
SLDTEXTSTYLE0
 11
-3.356894814614647E-15
 21
1.0
 31
0.0
 73
     1
 44
1.0
  0
POINT
  5
ED
330
E4
100
AcDbEntity
  8
Defpoints
 62
     0
100
AcDbPoint
 10
33.49500000000089
 20
-6.350000000000001
 30
0.0
  0
POINT
  5
EE
330
E4
100
AcDbEntity
  8
Defpoints
 62
     0
100
AcDbPoint
 10
33.49500000000089
 20
6.349999999999998
 30
0.0
  0
POINT
  5
EF
330
E4
100
AcDbEntity
  8
Defpoints
 62
     0
100
AcDbPoint
 10
52.14024571577386
 20
6.350000000000067
 30
0.0
  0
ENDBLK
  5
E6
330
E4
100
AcDbEntity
  8
0
100
AcDbBlockEnd
  0
BLOCK
  5
FA
330
F9
100
AcDbEntity
  8
0
100
AcDbBlockBegin
  2
_D_1
 70
     0
 10
0.0
 20
0.0
 30
0.0
  3
_D_1
  1
_D_1
  0
LINE
  5
FC
330
F9
100
AcDbEntity
  8
치수문자_일반주서
 62
     0
370
    -2
100
AcDbLine
 10
-40.79999999999912
 20
5.912499999999992
 30
0.0
 11
-40.79999999999912
 21
39.00555141807178
 31
0.0
  0
LINE
  5
FD
330
F9
100
AcDbEntity
  8
치수문자_일반주서
 62
     0
370
    -2
100
AcDbLine
 10
35.40000000000089
 20
4.126499999999999
 30
0.0
 11
35.40000000000089
 21
39.00555141807178
 31
0.0
  0
LINE
  5
FE
330
F9
100
AcDbEntity
  8
치수문자_일반주서
 62
     0
370
    -2
100
AcDbLine
 10
-37.49799999999912
 20
39.00555141807178
 30
0.0
 11
32.09800000000089
 21
39.00555141807178
 31
0.0
  0
SOLID
  5
FF
330
F9
100
AcDbEntity
  8
치수문자_일반주서
 62
     0
100
AcDbTrace
 10
-37.49799999999912
 20
39.55588475140512
 30
0.0
 11
-37.49799999999912
 21
38.45521808473845
 31
0.0
 12
-40.79999999999912
 22
39.00555141807178
 32
0.0
 13
-40.79999999999912
 23
39.00555141807178
 33
0.0
  0
SOLID
  5
100
330
F9
100
AcDbEntity
  8
치수문자_일반주서
 62
     0
100
AcDbTrace
 10
32.09800000000089
 20
38.45521808473845
 30
0.0
 11
32.09800000000089
 21
39.55588475140512
 31
0.0
 12
35.40000000000089
 22
39.00555141807178
 32
0.0
 13
35.40000000000089
 23
39.00555141807178
 33
0.0
  0
MTEXT
  5
101
330
F9
100
AcDbEntity
  8
치수문자_일반주서
 62
     0
100
AcDbMText
 10
-2.699999999999109
 20
43.38055141807178
 30
0.0
 40
3.5
 41
0.0
 71
     2
 72
     1
  1
\A1;76.20 [3]
  7
SLDTEXTSTYLE0
 73
     1
 44
1.0
  0
POINT
  5
102
330
F9
100
AcDbEntity
  8
Defpoints
 62
     0
100
AcDbPoint
 10
-40.79999999999912
 20
5.849999999999992
 30
0.0
  0
POINT
  5
103
330
F9
100
AcDbEntity
  8
Defpoints
 62
     0
100
AcDbPoint
 10
35.40000000000089
 20
4.063999999999999
 30
0.0
  0
POINT
  5
104
330
F9
100
AcDbEntity
  8
Defpoints
 62
     0
100
AcDbPoint
 10
35.40000000000089
 20
39.00555141807178
 30
0.0
  0
ENDBLK
  5
FB
330
F9
100
AcDbEntity
  8
0
100
AcDbBlockEnd
  0
BLOCK
  5
10E
330
10D
100
AcDbEntity
  8
0
100
AcDbBlockBegin
  2
_D_2
 70
     0
 10
0.0
 20
0.0
 30
0.0
  3
_D_2
  1
_D_2
  0
LINE
  5
110
330
10D
100
AcDbEntity
  8
치수문자_일반주서
 62
     0
370
    -2
100
AcDbLine
 10
35.40000000000089
 20
4.126499999999999
 30
0.0
 11
35.40000000000089
 21
21.69099453033794
 31
0.0
  0
LINE
  5
111
330
10D
100
AcDbEntity
  8
치수문자_일반주서
 62
     0
370
    -2
100
AcDbLine
 10
10.00000000000089
 20
-6.041069204389226
 30
0.0
 11
10.00000000000089
 21
21.69099453033794
 31
0.0
  0
LINE
  5
112
330
10D
100
AcDbEntity
  8
치수문자_일반주서
 62
     0
370
    -2
100
AcDbLine
 10
32.09800000000089
 20
21.69099453033794
 30
0.0
 11
13.30200000000089
 21
21.69099453033794
 31
0.0
  0
SOLID
  5
113
330
10D
100
AcDbEntity
  8
치수문자_일반주서
 62
     0
100
AcDbTrace
 10
32.09800000000089
 20
21.1406611970046
 30
0.0
 11
32.09800000000089
 21
22.24132786367127
 31
0.0
 12
35.40000000000089
 22
21.69099453033794
 32
0.0
 13
35.40000000000089
 23
21.69099453033794
 33
0.0
  0
SOLID
  5
114
330
10D
100
AcDbEntity
  8
치수문자_일반주서
 62
     0
100
AcDbTrace
 10
13.30200000000089
 20
22.24132786367127
 30
0.0
 11
13.30200000000089
 21
21.1406611970046
 31
0.0
 12
10.00000000000089
 22
21.69099453033794
 32
0.0
 13
10.00000000000089
 23
21.69099453033794
 33
0.0
  0
MTEXT
  5
115
330
10D
100
AcDbEntity
  8
치수문자_일반주서
 62
     0
100
AcDbMText
 10
22.42060113190237
 20
26.06599453033794
 30
0.0
 40
3.5
 41
0.0
 71
     2
 72
     1
  1
\A1;25.40 [1]
  7
SLDTEXTSTYLE0
 73
     1
 44
1.0
  0
POINT
  5
116
330
10D
100
AcDbEntity
  8
Defpoints
 62
     0
100
AcDbPoint
 10
35.40000000000089
 20
4.063999999999999
 30
0.0
  0
POINT
  5
117
330
10D
100
AcDbEntity
  8
Defpoints
 62
     0
100
AcDbPoint
 10
10.00000000000089
 20
-6.103569204389226
 30
0.0
  0
POINT
  5
118
330
10D
100
AcDbEntity
  8
Defpoints
 62
     0
100
AcDbPoint
 10
10.00000000000089
 20
21.69099453033794
 30
0.0
  0
ENDBLK
  5
10F
330
10D
100
AcDbEntity
  8
0
100
AcDbBlockEnd
  0
BLOCK
  5
123
330
122
100
AcDbEntity
  8
0
100
AcDbBlockBegin
  2
_D_3
 70
     0
 10
0.0
 20
0.0
 30
0.0
  3
_D_3
  1
_D_3
  0
LINE
  5
125
330
122
100
AcDbEntity
  8
치수문자_일반주서
 62
     0
370
    -2
100
AcDbLine
 10
-40.36249999999912
 20
6.349999999999995
 30
0.0
 11
-53.79999999999915
 21
6.349999999999945
 31
0.0
  0
LINE
  5
126
330
122
100
AcDbEntity
  8
치수문자_일반주서
 62
     0
370
    -2
100
AcDbLine
 10
-40.36249999999912
 20
-6.350000000000004
 30
0.0
 11
-53.79999999999911
 21
-6.350000000000055
 31
0.0
  0
LINE
  5
127
330
122
100
AcDbEntity
  8
치수문자_일반주서
 62
     0
370
    -2
100
AcDbLine
 10
-53.79999999999914
 20
3.047999999999945
 30
0.0
 11
-53.79999999999912
 21
-3.048000000000055
 31
0.0
  0
SOLID
  5
128
330
122
100
AcDbEntity
  8
치수문자_일반주서
 62
     0
100
AcDbTrace
 10
-53.2496666666658
 20
3.047999999999947
 30
0.0
 11
-54.35033333333247
 21
3.047999999999943
 31
0.0
 12
-53.79999999999915
 22
6.349999999999945
 32
0.0
 13
-53.79999999999915
 23
6.349999999999945
 33
0.0
  0
SOLID
  5
129
330
122
100
AcDbEntity
  8
치수문자_일반주서
 62
     0
100
AcDbTrace
 10
-54.35033333333246
 20
-3.048000000000057
 30
0.0
 11
-53.24966666666579
 21
-3.048000000000053
 31
0.0
 12
-53.79999999999911
 22
-6.350000000000055
 32
0.0
 13
-53.79999999999911
 23
-6.350000000000055
 33
0.0
  0
MTEXT
  5
12A
330
122
100
AcDbEntity
  8
치수문자_일반주서
 62
     0
100
AcDbMText
 10
-58.17499999999913
 20
-0.0000000000000204
 30
0.0
 40
3.5
 41
0.0
 71
     2
 72
     1
  1
\A1;%%c12.70 [1/2]
  7
SLDTEXTSTYLE0
 11
-3.356894814614647E-15
 21
1.0
 31
0.0
 73
     1
 44
1.0
  0
POINT
  5
12B
330
122
100
AcDbEntity
  8
Defpoints
 62
     0
100
AcDbPoint
 10
-40.29999999999912
 20
6.349999999999995
 30
0.0
  0
POINT
  5
12C
330
122
100
AcDbEntity
  8
Defpoints
 62
     0
100
AcDbPoint
 10
-40.29999999999912
 20
-6.350000000000004
 30
0.0
  0
POINT
  5
12D
330
122
100
AcDbEntity
  8
Defpoints
 62
     0
100
AcDbPoint
 10
-53.79999999999911
 20
-6.350000000000055
 30
0.0
  0
ENDBLK
  5
124
330
122
100
AcDbEntity
  8
0
100
AcDbBlockEnd
  0
BLOCK
  5
136
330
135
100
AcDbEntity
  8
0
100
AcDbBlockBegin
  2
SW_DOWELSYMBOL_0
 70
     0
 10
0.0
 20
0.0
 30
0.0
  3
SW_DOWELSYMBOL_0
  1
SW_DOWELSYMBOL_0
  0
CIRCLE
  5
138
330
135
100
AcDbEntity
  8
외형선
 62
     0
100
AcDbCircle
 10
0.0
 20
0.0
 30
0.0
 40
3.000000000000004
  0
HATCH
  5
139
330
135
100
AcDbEntity
  8
0
  6
Continuous
 62
     0
370
    30
100
AcDbHatch
 10
0.0
 20
0.0
 30
0.0
210
0.0
220
0.0
230
1.0
  2
SOLID
 70
     1
 71
     0
 91
        1
 92
        0
 93
        3
 72
     2
 10
0.0
 20
0.0
 40
3.000000000000004
 50
0.0
 51
90.0
 73
     1
 72
     1
 10
0.0
 20
3.000000000000004
 11
0.0
 21
0.0
 72
     1
 10
0.0
 20
0.0
 11
3.000000000000006
 21
0.0
 97
        0
 75
     0
 76
     1
 98
        1
 10
0.0
 20
0.0
  0
HATCH
  5
13A
330
135
100
AcDbEntity
  8
0
  6
Continuous
 62
     0
370
    30
100
AcDbHatch
 10
0.0
 20
0.0
 30
0.0
210
0.0
220
0.0
230
1.0
  2
SOLID
 70
     1
 71
     0
 91
        1
 92
        0
 93
        3
 72
     2
 10
0.0
 20
0.0
 40
3.000000000000004
 50
180.0
 51
270.0000000000008
 73
     1
 72
     1
 10
0.0
 20
-3.000000000000004
 11
0.0
 21
0.0
 72
     1
 10
0.0
 20
0.0
 11
-3.000000000000006
 21
0.0
 97
        0
 75
     0
 76
     1
 98
        1
 10
0.0
 20
0.0
  0
ENDBLK
  5
137
330
135
100
AcDbEntity
  8
0
100
AcDbBlockEnd
  0
BLOCK
  5
16C
330
16B
100
AcDbEntity
  8
0
100
AcDbBlockBegin
  2
*D7
 70
     1
 10
0.0
 20
0.0
 30
0.0
  3
*D7
  1
*D7
  0
LINE
  5
16E
330
16B
100
AcDbEntity
  8
치수문자_일반주서
 62
     0
370
    -2
100
AcDbLine
 10
37.26137076113052
 20
8.265409950803846
 30
0.0
 11
60.41269833342595
 21
31.78629201806151
 31
0.0
  0
MTEXT
  5
16F
330
16B
100
AcDbEntity
  8
치수문자_일반주서
 62
     0
100
AcDbMText
 10
48.72110244103577
 20
23.65012520014012
 30
0.0
 40
3.5
 41
0.0
 71
     5
 72
     1
  1
\A1;R1.52 [R0.06]
  7
SLDTEXTSTYLE0
 11
0.701485860159477
 21
0.7126833714885725
 31
0.0
 73
     1
 44
1.0
  0
LINE
  5
170
330
16B
100
AcDbEntity
  8
치수문자_일반주서
 62
     0
370
    -2
100
AcDbLine
 10
33.87600000000089
 20
4.825999999999999
 30
0.0
 11
34.94506445088393
 21
5.912129458148581
 31
0.0
  0
SOLID
  5
171
330
16B
100
AcDbEntity
  8
치수문자_일반주서
 62
     0
100
AcDbTrace
 10
36.86915734568797
 20
8.651461002511612
 30
0.0
 11
37.65358417657307
 21
7.879358899096081
 31
0.0
 12
34.94506445088393
 22
5.912129458148581
 32
0.0
 13
34.94506445088393
 23
5.912129458148581
 33
0.0
  0
POINT
  5
172
330
16B
100
AcDbEntity
  8
Defpoints
 62
     0
100
AcDbPoint
 10
34.94506445088393
 20
5.912129458148581
 30
0.0
  0
POINT
  5
173
330
16B
100
AcDbEntity
  8
Defpoints
 62
     0
100
AcDbPoint
 10
33.87600000000089
 20
4.825999999999999
 30
0.0
  0
ENDBLK
  5
16D
330
16B
100
AcDbEntity
  8
0
100
AcDbBlockEnd
  0
ENDSEC
  0
SECTION
  2
ENTITIES
  0
LINE
  5
95
330
1F
100
AcDbEntity
  8
0
  6
Continuous
 62
     4
370
    15
100
AcDbLine
 10
8.252415162207651
 20
6.349999999999998
 30
0.0
 11
-40.29999999999912
 21
6.349999999999995
 31
0.0
  0
LINE
  5
96
330
1F
100
AcDbEntity
  8
0
  6
Continuous
 62
     4
370
    15
100
AcDbLine
 10
-40.29999999999912
 20
-6.350000000000004
 30
0.0
 11
8.252415162207665
 21
-6.350000000000001
 31
0.0
  0
LINE
  5
97
330
1F
100
AcDbEntity
  8
0
  6
Continuous
 62
     4
370
    15
100
AcDbLine
 10
-40.29999999999912
 20
6.349999999999993
 30
0.0
 11
-40.79999999999912
 21
5.849999999999992
 31
0.0
  0
LINE
  5
98
330
1F
100
AcDbEntity
  8
0
  6
Continuous
 62
     4
370
    15
100
AcDbLine
 10
-40.79999999999912
 20
-5.850000000000003
 30
0.0
 11
-40.29999999999912
 21
-6.350000000000002
 31
0.0
  0
LINE
  5
99
330
1F
100
AcDbEntity
  8
0
  6
Continuous
 62
     1
370
    15
100
AcDbLine
 10
19.35223107915821
 20
-6.350000000000001
 30
0.0
 11
21.52467124182776
 21
-6.350000000000001
 31
0.0
  0
LINE
  5
9A
330
1F
100
AcDbEntity
  8
0
  6
Continuous
 62
     1
370
    15
100
AcDbLine
 10
21.5246712418278
 20
6.349999999999998
 30
0.0
 11
19.35223107915825
 21
6.349999999999998
 31
0.0
  0
LINE
  5
9B
330
1F
100
AcDbEntity
  8
0
  6
Continuous
 62
     1
370
    15
100
AcDbLine
 10
26.0028274166051
 20
-6.350000000000001
 30
0.0
 11
28.17388388905279
 21
-6.350000000000001
 31
0.0
  0
LINE
  5
9C
330
1F
100
AcDbEntity
  8
0
  6
Continuous
 62
     1
370
    15
100
AcDbLine
 10
32.65270633828518
 20
-6.350000000000001
 30
0.0
 11
33.87600000000089
 21
-6.350000000000001
 31
0.0
  0
LINE
  5
9D
330
1F
100
AcDbEntity
  8
0
  6
Continuous
 62
     1
370
    15
100
AcDbLine
 10
14.87439467215509
 20
6.349999999999998
 30
0.0
 11
12.70311061298003
 21
6.349999999999998
 31
0.0
  0
LINE
  5
A0
330
1F
100
AcDbEntity
  8
0
  6
Continuous
 62
     1
370
    15
100
AcDbLine
 10
28.17388388905279
 20
6.349999999999998
 30
0.0
 11
26.00282741660514
 21
6.349999999999998
 31
0.0
  0
LINE
  5
A1
330
1F
100
AcDbEntity
  8
0
  6
Continuous
 62
     1
370
    15
100
AcDbLine
 10
12.70311061298003
 20
-6.350000000000001
 30
0.0
 11
14.87439467215505
 21
-6.350000000000001
 31
0.0
  0
LINE
  5
A2
330
1F
100
AcDbEntity
  8
0
  6
Continuous
 62
     1
370
    15
100
AcDbLine
 10
33.11400000000089
 20
6.349999999999998
 30
0.0
 11
32.65270633828518
 21
6.349999999999998
 31
0.0
  0
SPLINE
  5
A3
330
1F
100
AcDbEntity
  8
0
  6
Continuous
 62
     4
370
    15
100
AcDbSpline
210
0.0
220
0.0
230
1.0
 70
     8
 71
     3
 72
    20
 73
    16
 74
     0
 42
0.000000001
 43
0.00000001
 40
0.0
 40
0.0
 40
0.0
 40
0.0
 40
0.125
 40
0.125
 40
0.2499999999999999
 40
0.2499999999999999
 40
0.375
 40
0.375
 40
0.5000000000000001
 40
0.5000000000000001
 40
0.75
 40
0.75
 40
0.875
 40
0.875
 40
1.0
 40
1.0
 40
1.0
 40
1.0
 10
7.970000044475543
 20
-6.232640075383084
 30
0.0
 10
7.970000044475541
 20
-6.206640961283494
 30
0.0
 10
7.970201844147427
 20
-6.176400391560703
 30
0.0
 10
7.992136341894692
 20
-6.108095515430182
 30
0.0
 10
8.013711133697745
 20
-6.069679759950316
 30
0.0
 10
8.090826551468677
 20
-5.987344031766415
 30
0.0
 10
8.145069972140899
 20
-5.944463041521056
 30
0.0
 10
8.293068964248677
 20
-5.858986452386684
 30
0.0
 10
8.382729155418106
 20
-5.818735294637197
 30
0.0
 10
8.701638204522272
 20
-5.712584946161975
 30
0.0
 10
8.971948269341372
 20
-5.668040570940025
 30
0.0
 10
9.381564560863916
 20
-5.668819049159145
 30
0.0
 10
9.51710765230767
 20
-5.679771692556803
 30
0.0
 10
9.774084654533516
 20
-5.720737795298525
 30
0.0
 10
9.89373163735867
 20
-5.750406582959847
 30
0.0
 10
10.00000000000078
 20
-5.786383870832412
 30
0.0
  0
SPLINE
  5
A4
330
1F
100
AcDbEntity
  8
0
  6
Continuous
 62
     4
370
    15
100
AcDbSpline
210
0.0
220
0.0
230
1.0
 70
     8
 71
     3
 72
    14
 73
    10
 74
     0
 42
0.000000001
 43
0.00000001
 40
0.0
 40
0.0
 40
0.0
 40
0.0
 40
0.25
 40
0.25
 40
0.5
 40
0.5
 40
0.75
 40
0.75
 40
1.0
 40
1.0
 40
1.0
 40
1.0
 10
8.391770228259126
 20
-6.347815191851001
 30
0.0
 10
8.302817918126705
 20
-6.350146869230366
 30
0.0
 10
8.229621417354384
 20
-6.350904843001854
 30
0.0
 10
8.110858678788558
 20
-6.346368708174072
 30
0.0
 10
8.066536529098373
 20
-6.340991754051308
 30
0.0
 10
8.005220909610944
 20
-6.322809816374743
 30
0.0
 10
7.987750786804296
 20
-6.309880220905402
 30
0.0
 10
7.970150311415618
 20
-6.276764450082718
 30
0.0
 10
7.970000044475543
 20
-6.256528989844047
 30
0.0
 10
7.970000044475543
 20
-6.232640075383085
 30
0.0
  0
SPLINE
  5
A5
330
1F
100
AcDbEntity
  8
0
  6
Continuous
 62
     4
370
    15
100
AcDbSpline
210
0.0
220
0.0
230
1.0
 70
     8
 71
     3
 72
    10
 73
     6
 74
     0
 42
0.000000001
 43
0.00000001
 40
0.0
 40
0.0
 40
0.0
 40
0.0
 40
0.5
 40
0.5
 40
1.0
 40
1.0
 40
1.0
 40
1.0
 10
10.00000000000084
 20
-6.10356920438924
 30
0.0
 10
9.731470540153841
 20
-6.177563194770123
 30
0.0
 10
9.461464687759062
 20
-6.235292782910542
 30
0.0
 10
8.924981081566392
 20
-6.316872841884562
 30
0.0
 10
8.660086549925811
 20
-6.340781905173985
 30
0.0
 10
8.391770228259087
 20
-6.347815191851015
 30
0.0
  0
LINE
  5
A6
330
1F
100
AcDbEntity
  8
0
  6
Continuous
 62
     4
370
    15
100
AcDbLine
 10
8.391770228259121
 20
6.347815191851011
 30
0.0
 11
8.252415162207651
 21
6.34993792278287
 31
0.0
  0
SPLINE
  5
A7
330
1F
100
AcDbEntity
  8
0
  6
Continuous
 62
     4
370
    15
100
AcDbSpline
210
0.0
220
0.0
230
1.0
 70
     8
 71
     3
 72
    10
 73
     6
 74
     0
 42
0.000000001
 43
0.00000001
 40
0.0
 40
0.0
 40
0.0
 40
0.0
 40
0.5
 40
0.5
 40
1.0
 40
1.0
 40
1.0
 40
1.0
 10
10.00000000000083
 20
6.103569204389236
 30
0.0
 10
9.731470540153841
 20
6.177563194770118
 30
0.0
 10
9.46146468775906
 20
6.235292782910538
 30
0.0
 10
8.92498108156639
 20
6.316872841884558
 30
0.0
 10
8.66008654992581
 20
6.340781905173982
 30
0.0
 10
8.391770228259087
 20
6.347815191851011
 30
0.0
  0
LINE
  5
A8
330
1F
100
AcDbEntity
  8
0
  6
Continuous
 62
     1
370
    15
100
AcDbLine
 10
10.00000000000089
 20
6.103569204389222
 30
0.0
 11
10.00000000000089
 21
5.158185594243639
 31
0.0
  0
SPLINE
  5
A9
330
1F
100
AcDbEntity
  8
0
  6
Continuous
 62
     4
370
    15
100
AcDbSpline
210
0.0
220
0.0
230
1.0
 70
     8
 71
     3
 72
    20
 73
    16
 74
     0
 42
0.000000001
 43
0.00000001
 40
0.0
 40
0.0
 40
0.0
 40
0.0
 40
0.1250000000000001
 40
0.1250000000000001
 40
0.2500000000000002
 40
0.2500000000000002
 40
0.3750000000000003
 40
0.3750000000000003
 40
0.5000000000000001
 40
0.5000000000000001
 40
0.7500000000000001
 40
0.7500000000000001
 40
0.8750000000000001
 40
0.8750000000000001
 40
1.0
 40
1.0
 40
1.0
 40
1.0
 10
7.970000044475541
 20
4.168709351608435
 30
0.0
 10
7.970000044475541
 20
4.2711920963447
 30
0.0
 10
7.970201844147123
 20
4.370590587251572
 30
0.0
 10
7.992136341895172
 20
4.561974594327953
 30
0.0
 10
8.01371113369775
 20
4.654714875824864
 30
0.0
 10
8.0908265514687
 20
4.829029713280459
 30
0.0
 10
8.145069972140936
 20
4.908581725906904
 30
0.0
 10
8.293068964248837
 20
5.052260540111661
 30
0.0
 10
8.382729155418135
 20
5.112574781130687
 30
0.0
 10
8.701638204522341
 20
5.262260658604871
 30
0.0
 10
8.971948269341471
 20
5.313307090019284
 30
0.0
 10
9.381564560863744
 20
5.312360934426666
 30
0.0
 10
9.517107652307699
 20
5.299284284169242
 30
0.0
 10
9.774084654533505
 20
5.247493704620893
 30
0.0
 10
9.893731637358671
 20
5.209130387753287
 30
0.0
 10
10.00000000000077
 20
5.158185594243474
 30
0.0
  0
SPLINE
  5
AA
330
1F
100
AcDbEntity
  8
0
  6
Continuous
 62
     4
370
    15
100
AcDbSpline
210
0.0
220
0.0
230
1.0
 70
     8
 71
     3
 72
    14
 73
    10
 74
     0
 42
0.000000001
 43
0.00000001
 40
0.0
 40
0.0
 40
0.0
 40
0.0
 40
0.25
 40
0.25
 40
0.5
 40
0.5
 40
0.75
 40
0.75
 40
1.0
 40
1.0
 40
1.0
 40
1.0
 10
8.391770228259126
 20
3.029662257771608
 30
0.0
 10
8.302817918126706
 20
3.107785819743772
 30
0.0
 10
8.22962141735436
 20
3.194619376879592
 30
0.0
 10
8.110858678788547
 20
3.381906132439187
 30
0.0
 10
8.066536529098364
 20
3.481352122419099
 30
0.0
 10
8.005220909610939
 20
3.680366316652885
 30
0.0
 10
7.987750786804292
 20
3.781441520329266
 30
0.0
 10
7.970150311415614
 20
3.978094286905755
 30
0.0
 10
7.970000044475543
 20
4.074544546094252
 30
0.0
 10
7.970000044475543
 20
4.168709351608436
 30
0.0
  0
SPLINE
  5
AB
330
1F
100
AcDbEntity
  8
0
  6
Continuous
 62
     4
370
    15
100
AcDbSpline
210
0.0
220
0.0
230
1.0
 70
     8
 71
     3
 72
    10
 73
     6
 74
     0
 42
0.000000001
 43
0.00000001
 40
0.0
 40
0.0
 40
0.0
 40
0.0
 40
0.5
 40
0.5
 40
1.0
 40
1.0
 40
1.0
 40
1.0
 10
10.00000000000084
 20
1.534646762239509
 30
0.0
 10
9.731470540153836
 20
1.794906648795848
 30
0.0
 10
9.46146468775905
 20
2.051516908771817
 30
0.0
 10
8.924981081566367
 20
2.551289597756185
 30
0.0
 10
8.660086549925781
 20
2.794009841857247
 30
0.0
 10
8.39177022825905
 20
3.029662257771674
 30
0.0
  0
LINE
  5
AC
330
1F
100
AcDbEntity
  8
0
  6
Continuous
 62
     1
370
    15
100
AcDbLine
 10
10.00000000000089
 20
1.534646762239459
 30
0.0
 11
10.00000000000089
 21
-0.628198276588701
 31
0.0
  0
SPLINE
  5
AD
330
1F
100
AcDbEntity
  8
0
  6
Continuous
 62
     4
370
    15
100
AcDbSpline
210
0.0
220
0.0
230
1.0
 70
     8
 71
     3
 72
    20
 73
    16
 74
     0
 42
0.000000001
 43
0.00000001
 40
0.0
 40
0.0
 40
0.0
 40
0.0
 40
0.125
 40
0.125
 40
0.2499999999999999
 40
0.2499999999999999
 40
0.3749999999999999
 40
0.3749999999999999
 40
0.4999999999999999
 40
0.4999999999999999
 40
0.75
 40
0.75
 40
0.875
 40
0.875
 40
1.0
 40
1.0
 40
1.0
 40
1.0
 10
7.970000044475543
 20
-2.06393072377466
 30
0.0
 10
7.970000044475541
 20
-1.935448864938814
 30
0.0
 10
7.97020184414743
 20
-1.80580980430918
 30
0.0
 10
7.992136341894697
 20
-1.54612092110224
 30
0.0
 10
8.013711133697743
 20
-1.414964884125494
 30
0.0
 10
8.090826551468677
 20
-1.15831431848602
 30
0.0
 10
8.1450699721409
 20
-1.035881315614242
 30
0.0
 10
8.293068964248677
 20
-0.8067259122751892
 30
0.0
 10
8.38272915541811
 20
-0.7061605135065644
 30
0.0
 10
8.701638204522274
 20
-0.4503242875571647
 30
0.0
 10
8.971948269341377
 20
-0.354733480920769
 30
0.0
 10
9.381564560863918
 20
-0.3564581147325226
 30
0.0
 10
9.517107652307672
 20
-0.3804874083875889
 30
0.0
 10
9.774084654533516
 20
-0.4732440906776726
 30
0.0
 10
9.89373163735867
 20
-0.5412761952065975
 30
0.0
 10
10.00000000000078
 20
-0.6281982765889779
 30
0.0
  0
SPLINE
  5
AE
330
1F
100
AcDbEntity
  8
0
  6
Continuous
 62
     4
370
    15
100
AcDbSpline
210
0.0
220
0.0
230
1.0
 70
     8
 71
     3
 72
    14
 73
    10
 74
     0
 42
0.000000001
 43
0.00000001
 40
0.0
 40
0.0
 40
0.0
 40
0.0
 40
0.2500000000000001
 40
0.2500000000000001
 40
0.5000000000000001
 40
0.5000000000000001
 40
0.75
 40
0.75
 40
1.0
 40
1.0
 40
1.0
 40
1.0
 10
8.391770228259126
 20
-3.318152934079399
 30
0.0
 10
8.302817918126705
 20
-3.242361049486602
 30
0.0
 10
8.229621417354359
 20
-3.156285466122272
 30
0.0
 10
8.110858678788546
 20
-2.964462575734896
 30
0.0
 10
8.066536529098366
 20
-2.859639631632219
 30
0.0
 10
8.005220909610943
 20
-2.642443499721865
 30
0.0
 10
7.987750786804292
 20
-2.528438700576146
 30
0.0
 10
7.970150311415616
 20
-2.298670163176972
 30
0.0
 10
7.970000044475543
 20
-2.181984443749806
 30
0.0
 10
7.970000044475543
 20
-2.06393072377466
 30
0.0
  0
SPLINE
  5
AF
330
1F
100
AcDbEntity
  8
0
  6
Continuous
 62
     4
370
    15
100
AcDbSpline
210
0.0
220
0.0
230
1.0
 70
     8
 71
     3
 72
    10
 73
     6
 74
     0
 42
0.000000001
 43
0.00000001
 40
0.0
 40
0.0
 40
0.0
 40
0.0
 40
0.5
 40
0.5
 40
1.0
 40
1.0
 40
1.0
 40
1.0
 10
10.00000000000084
 20
-4.568922442149723
 30
0.0
 10
9.731470540153836
 20
-4.382656545974272
 30
0.0
 10
9.46146468775905
 20
-4.183775874138727
 30
0.0
 10
8.924981081566367
 20
-3.765583244128385
 30
0.0
 10
8.660086549925781
 20
-3.546772063316746
 30
0.0
 10
8.391770228259052
 20
-3.318152934079351
 30
0.0
  0
LINE
  5
B0
330
1F
100
AcDbEntity
  8
0
  6
Continuous
 62
     4
370
    15
100
AcDbLine
 10
10.00000000000089
 20
-4.568922442149759
 30
0.0
 11
10.00000000000089
 21
-5.786383870832298
 31
0.0
  0
LINE
  5
B1
330
1F
100
AcDbEntity
  8
0
  6
Continuous
 62
     4
370
    15
100
AcDbLine
 10
-40.29999999999912
 20
6.349999999999993
 30
0.0
 11
-40.29999999999912
 21
-6.349999999999995
 31
0.0
  0
SPLINE
  5
B3
330
1F
100
AcDbEntity
  8
0
  6
Continuous
 62
     1
370
    15
100
AcDbSpline
210
0.0
220
0.0
230
1.0
 70
    24
 71
     3
 72
     8
 73
     4
 74
     0
 42
0.000000001
 43
0.00000001
 40
0.0
 40
0.0
 40
0.0
 40
0.0
 40
1.0
 40
1.0
 40
1.0
 40
1.0
 10
10.00000000000089
 20
-0.6281982765887106
 30
0.0
 10
10.00000000000089
 20
-0.6794518335059855
 30
0.0
 10
10.00000000000089
 20
-0.7425667733287838
 30
0.0
 10
10.00000000000089
 20
-0.8191039274513591
 30
0.0
  0
LINE
  5
B4
330
1F
100
AcDbEntity
  8
0
  6
Continuous
 62
     4
370
    15
100
AcDbLine
 10
-40.79999999999912
 20
5.849999999999992
 30
0.0
 11
-40.79999999999912
 21
-5.850000000000003
 31
0.0
  0
LINE
  5
B5
330
1F
100
AcDbEntity
  8
0
  6
Continuous
 62
     4
370
    15
100
AcDbLine
 10
8.493859485000927
 20
2.990484452270928
 30
0.0
 11
8.418264353741304
 21
3.019494863785416
 31
0.0
  0
SPLINE
  5
B6
330
1F
100
AcDbEntity
  8
0
  6
Continuous
 62
     1
370
    15
100
AcDbSpline
210
0.0
220
0.0
230
1.0
 70
    24
 71
     3
 72
    14
 73
    10
 74
     0
 42
0.000000001
 43
0.00000001
 40
0.0
 40
0.0
 40
0.0
 40
0.0
 40
0.2500000000000001
 40
0.2500000000000001
 40
0.5000000000000001
 40
0.5000000000000001
 40
0.7500000000000001
 40
0.7500000000000001
 40
1.0
 40
1.0
 40
1.0
 40
1.0
 10
10.00000000000089
 20
4.690211241353516
 30
0.0
 10
10.00000000000089
 20
4.433129547934016
 30
0.0
 10
10.00000000000089
 20
4.148079852637392
 30
0.0
 10
10.00000000000089
 20
3.541573066976229
 30
0.0
 10
10.00000000000089
 20
3.219689663937585
 30
0.0
 10
10.00000000000089
 20
2.59685690819258
 30
0.0
 10
10.00000000000089
 20
2.296943820631801
 30
0.0
 10
10.00000000000089
 20
1.810601558951791
 30
0.0
 10
10.00000000000089
 20
1.626773473413806
 30
0.0
 10
10.00000000000089
 20
1.534646762239459
 30
0.0
  0
SPLINE
  5
B7
330
1F
100
AcDbEntity
  8
0
  6
Continuous
 62
     1
370
    15
100
AcDbSpline
210
0.0
220
0.0
230
1.0
 70
    24
 71
     3
 72
    14
 73
    10
 74
     0
 42
0.000000001
 43
0.00000001
 40
0.0
 40
0.0
 40
0.0
 40
0.0
 40
0.25
 40
0.25
 40
0.5
 40
0.5
 40
0.75
 40
0.75
 40
1.0
 40
1.0
 40
1.0
 40
1.0
 10
10.00000000000089
 20
-0.8191039274506738
 30
0.0
 10
10.00000000000089
 20
-0.9440458816498573
 30
0.0
 10
10.00000000000089
 20
-1.109355385230165
 30
0.0
 10
10.00000000000089
 20
-1.54828589039626
 30
0.0
 10
10.00000000000089
 20
-1.82304338177011
 30
0.0
 10
10.00000000000089
 20
-2.485144407021805
 30
0.0
 10
10.00000000000089
 20
-2.873318434785546
 30
0.0
 10
10.00000000000089
 20
-3.707175927466857
 30
0.0
 10
10.00000000000089
 20
-4.151280680928831
 30
0.0
 10
10.00000000000089
 20
-4.568922442149762
 30
0.0
  0
SPLINE
  5
B8
330
1F
100
AcDbEntity
  8
0
  6
Continuous
 62
     1
370
    15
100
AcDbSpline
210
0.0
220
0.0
230
1.0
 70
    24
 71
     3
 72
     8
 73
     4
 74
     0
 42
0.000000001
 43
0.00000001
 40
0.0
 40
0.0
 40
0.0
 40
0.0
 40
1.0
 40
1.0
 40
1.0
 40
1.0
 10
10.00000000000089
 20
5.158185594243717
 30
0.0
 10
10.00000000000089
 20
5.003626062684494
 30
0.0
 10
10.00000000000089
 20
4.847694780947209
 30
0.0
 10
10.00000000000089
 20
4.69021124135211
 30
0.0
  0
SPLINE
  5
B9
330
1F
100
AcDbEntity
  8
0
  6
Continuous
 62
     4
370
    15
100
AcDbSpline
210
0.0
220
0.0
230
1.0
 70
    24
 71
     3
 72
     9
 73
     5
 74
     0
 42
0.000000001
 43
0.00000001
 40
0.0
 40
0.0
 40
0.0
 40
0.0
 40
0.0542777262422931
 40
1.0
 40
1.0
 40
1.0
 40
1.0
 10
10.00000000000089
 20
-5.836500485935241
 30
0.0
 10
10.00000000000089
 20
-5.840604139758509
 30
0.0
 10
10.00000000000089
 20
-5.916208887918898
 30
0.0
 10
10.00000000000089
 20
-6.012502340996601
 30
0.0
 10
10.00000000000089
 20
-6.103569204389226
 30
0.0
  0
SPLINE
  5
BA
330
1F
100
AcDbEntity
  8
0
  6
Continuous
 62
     1
370
    15
100
AcDbSpline
210
0.0
220
0.0
230
1.0
 70
     8
 71
     3
 72
    26
 73
    22
 74
     0
 42
0.000000001
 43
0.00000001
 40
0.0
 40
0.0
 40
0.0
 40
0.0
 40
0.0355962236098494
 40
0.091548529512331
 40
0.1476194424387896
 40
0.2035635018243202
 40
0.2595075645852887
 40
0.3155784789923422
 40
0.3715430423116755
 40
0.4274734217335243
 40
0.4835293425057397
 40
0.539521208884292
 40
0.5954447421464465
 40
0.6514706951452041
 40
0.7074966333585617
 40
0.7634201652690885
 40
0.8107841301472732
 40
0.8580935803693549
 40
0.9053668436622982
 40
0.9527615906318705
 40
1.0
 40
1.0
 40
1.0
 40
1.0
 10
30.41186961515109
 20
-5.936951194271768
 30
0.0
 10
30.16978026726884
 20
-6.021929132838713
 30
0.0
 10
29.54716018115701
 20
-6.240480555654258
 30
0.0
 10
28.54323966014972
 20
-6.368646150563865
 30
0.0
 10
27.39867027351538
 20
-6.338439579810469
 30
0.0
 10
26.25666877243529
 20
-6.095416121554657
 30
0.0
 10
25.11465456834043
 20
-5.657186028892635
 30
0.0
 10
23.9700395570509
 20
-5.036838843049402
 30
0.0
 10
22.82760984255803
 20
-4.252896069927938
 30
0.0
 10
21.68588209012927
 20
-3.330890870800356
 30
0.0
 10
20.54157589594041
 20
-2.303180804234096
 30
0.0
 10
19.39859660280935
 20
-1.200021671432197
 30
0.0
 10
18.25701043853002
 20
-0.0570874788363096
 30
0.0
 10
17.11334925378712
 20
1.086106027247658
 30
0.0
 10
15.96959181452491
 20
2.194122326570648
 30
0.0
 10
14.88692858971542
 20
3.179873578896395
 30
0.0
 10
13.86139844805641
 20
4.022706185892389
 30
0.0
 10
12.89580762055162
 20
4.72609517139478
 30
0.0
 10
11.93102725644342
 20
5.318194485865801
 30
0.0
 10
10.96383620256893
 20
5.795982749987486
 30
0.0
 10
10.32092469603993
 20
6.001153369497779
 30
0.0
 10
10.00000000000083
 20
6.103569204389239
 30
0.0
  0
SPLINE
  5
BB
330
1F
100
AcDbEntity
  8
0
  6
Continuous
 62
     1
370
    15
100
AcDbSpline
210
0.0
220
0.0
230
1.0
 70
     8
 71
     3
 72
    28
 73
    24
 74
     0
 42
0.000000001
 43
0.00000001
 40
0.0
 40
0.0
 40
0.0
 40
0.0
 40
0.0225383199021971
 40
0.0661393719466716
 40
0.1096286644303102
 40
0.1531512472737792
 40
0.196723981167943
 40
0.2481711347292273
 40
0.2997124975188524
 40
0.3512538739103856
 40
0.4027010287151071
 40
0.4542110469372942
 40
0.5057799923429851
 40
0.5572334453090901
 40
0.6087183459352966
 40
0.6603010848158914
 40
0.7117671258433163
 40
0.763233163765489
 40
0.8148159012840026
 40
0.8662895256337386
 40
0.9177317416193982
 40
0.969289574112003
 40
1.0
 40
1.0
 40
1.0
 40
1.0
 10
10.46369780834985
 20
5.942062188488624
 30
0.0
 10
10.63016670229125
 20
6.002755598378219
 30
0.0
 10
11.11867463641049
 20
6.180862219848636
 30
0.0
 10
11.93107560362606
 20
6.322889043715658
 30
0.0
 10
12.89579467462129
 20
6.372783712608789
 30
0.0
 10
13.86140190328503
 20
6.26825067440001
 30
0.0
 10
14.88692747545763
 20
6.006356717367273
 30
0.0
 10
15.96959213440276
 20
5.557293335653799
 30
0.0
 10
17.1133491679489
 20
4.90536194996653
 30
0.0
 10
18.25701046169113
 20
4.095102021737466
 30
0.0
 10
19.39859659582265
 20
3.151256665701625
 30
0.0
 10
20.54157590072274
 20
2.106326026447103
 30
0.0
 10
21.68588207799719
 20
0.9945903362085372
 30
0.0
 10
22.82760988620712
 20
-0.1514273392216846
 30
0.0
 10
23.97003939430695
 20
-1.292046938660998
 30
0.0
 10
25.11465517629267
 20
-2.389048176760463
 30
0.0
 10
26.25666650941509
 20
-3.411018073718078
 30
0.0
 10
27.39867872790621
 20
-4.322736613970217
 30
0.0
 10
28.54320805640294
 20
-5.092514721261495
 30
0.0
 10
29.68548192138413
 20
-5.701569739950351
 30
0.0
 10
30.82691702213536
 20
-6.117285806630366
 30
0.0
 10
31.81717989134596
 20
-6.334899517669588
 30
0.0
 10
32.42558939855181
 20
-6.327886639205508
 30
0.0
 10
32.65270633828518
 20
-6.325268758523795
 30
0.0
  0
SPLINE
  5
BC
330
1F
100
AcDbEntity
  8
0
  6
Continuous
 62
     1
370
    15
100
AcDbSpline
210
0.0
220
0.0
230
1.0
 70
     8
 71
     3
 72
    38
 73
    34
 74
     0
 42
0.000000001
 43
0.00000001
 40
0.0
 40
0.0
 40
0.0
 40
0.0
 40
0.1250000000000002
 40
0.1250000000000002
 40
0.1875000000000005
 40
0.1875000000000005
 40
0.2500000000000007
 40
0.2500000000000007
 40
0.3125000000000007
 40
0.3125000000000007
 40
0.3750000000000008
 40
0.3750000000000008
 40
0.5000000000000006
 40
0.5000000000000006
 40
0.5625000000000006
 40
0.5625000000000006
 40
0.6250000000000006
 40
0.6250000000000006
 40
0.6562500000000006
 40
0.6562500000000006
 40
0.6875000000000004
 40
0.6875000000000004
 40
0.7187500000000004
 40
0.7187500000000004
 40
0.7500000000000003
 40
0.7500000000000003
 40
0.8125000000000003
 40
0.8125000000000003
 40
0.8750000000000002
 40
0.8750000000000002
 40
0.9375000000000001
 40
0.9375000000000001
 40
1.0
 40
1.0
 40
1.0
 40
1.0
 10
33.11400000000089
 20
-3.565862921728001
 30
0.0
 10
33.3600730522494
 20
-3.769000800438901
 30
0.0
 10
33.59039201725591
 20
-3.945114967426586
 30
0.0
 10
33.92133798775887
 20
-4.166301540906622
 30
0.0
 10
34.02839620092883
 20
-4.231962167337844
 30
0.0
 10
34.23098571340925
 20
-4.34548597070829
 30
0.0
 10
34.3272639261702
 20
-4.393832152796842
 30
0.0
 10
34.50855814168553
 20
-4.475841411328371
 30
0.0
 10
34.59376646048463
 20
-4.509493034571186
 30
0.0
 10
34.7469021898974
 20
-4.564488828985656
 30
0.0
 10
34.81539481671475
 20
-4.586102198242342
 30
0.0
 10
34.99478793980647
 20
-4.643535540147398
 30
0.0
 10
35.07902063272154
 20
-4.671317286239539
 30
0.0
 10
35.14614581078525
 20
-4.755220906467058
 30
0.0
 10
35.15923818289474
 20
-4.790555210426265
 30
0.0
 10
35.16371936027736
 20
-4.887686909296391
 30
0.0
 10
35.15546178492647
 20
-4.949137299964416
 30
0.0
 10
35.11749245555664
 20
-5.069867126339264
 30
0.0
 10
35.10061137130764
 20
-5.114506682878045
 30
0.0
 10
35.05409170971271
 20
-5.215544162810961
 30
0.0
 10
35.02437439482184
 20
-5.271865464871174
 30
0.0
 10
34.94905510211729
 20
-5.392866440091483
 30
0.0
 10
34.9029714643593
 20
-5.457978834672885
 30
0.0
 10
34.79708100500536
 20
-5.586862596038517
 30
0.0
 10
34.73643359193331
 20
-5.651489111293283
 30
0.0
 10
34.54555877514586
 20
-5.82845279681576
 30
0.0
 10
34.40703220156696
 20
-5.92393531865592
 30
0.0
 10
34.13773387668864
 20
-6.064083240614011
 30
0.0
 10
34.00345633919209
 20
-6.111528100781075
 30
0.0
 10
33.74210167479759
 20
-6.169556184410914
 30
0.0
 10
33.61502082732049
 20
-6.180494407239629
 30
0.0
 10
33.36197694661134
 20
-6.172825335331573
 30
0.0
 10
33.23679059441849
 20
-6.153818169694759
 30
0.0
 10
33.11400000000089
 20
-6.121231968026365
 30
0.0
  0
SPLINE
  5
BD
330
1F
100
AcDbEntity
  8
0
  6
Continuous
 62
     1
370
    15
100
AcDbSpline
210
0.0
220
0.0
230
1.0
 70
     8
 71
     3
 72
    23
 73
    19
 74
     0
 42
0.000000001
 43
0.00000001
 40
0.0
 40
0.0
 40
0.0
 40
0.0
 40
0.0626512665771864
 40
0.1253746613452578
 40
0.1879574012514735
 40
0.2505783514377521
 40
0.3133320447598213
 40
0.3759437655726385
 40
0.4385554901631934
 40
0.5013091851423213
 40
0.5639438536388233
 40
0.6265402640491388
 40
0.6892771783854467
 40
0.7519424040410096
 40
0.8145311523359168
 40
0.8772345272064489
 40
0.9399378855293913
 40
1.0
 40
1.0
 40
1.0
 40
1.0
 10
33.11400000000088
 20
-6.121231968026368
 30
0.0
 10
32.73316722421119
 20
-6.00073571829367
 30
0.0
 10
31.9710632333049
 20
-5.759604495750888
 30
0.0
 10
30.82693679460038
 20
-5.159923333466844
 30
0.0
 10
29.68547662515643
 20
-4.406579035011025
 30
0.0
 10
28.54320947929477
 20
-3.507160301302329
 30
0.0
 10
27.39867834745575
 20
-2.497196159704059
 30
0.0
 10
26.25666661054255
 20
-1.404156480458347
 30
0.0
 10
25.11465515177464
 20
-0.2657325122957267
 30
0.0
 10
23.97003939096182
 20
0.8789877058052099
 30
0.0
 10
22.82760992397527
 20
1.99730536102398
 30
0.0
 10
21.68588193020796
 20
3.051424003249605
 30
0.0
 10
20.54157645523197
 20
4.005153500258444
 30
0.0
 10
19.39859452972746
 20
4.830300176811937
 30
0.0
 10
18.25701816833134
 20
5.501007919844156
 30
0.0
 10
17.11332034645556
 20
5.988729893272271
 30
0.0
 10
15.98506970718252
 20
6.295345386652191
 30
0.0
 10
15.23927117734618
 20
6.329378911764749
 30
0.0
 10
14.87439467215509
 20
6.346029566339153
 30
0.0
  0
SPLINE
  5
BE
330
1F
100
AcDbEntity
  8
0
  6
Continuous
 62
     1
370
    15
100
AcDbSpline
210
0.0
220
0.0
230
1.0
 70
     8
 71
     3
 72
    38
 73
    34
 74
     0
 42
0.000000001
 43
0.00000001
 40
0.0
 40
0.0
 40
0.0
 40
0.0
 40
0.0625
 40
0.0625
 40
0.125
 40
0.125
 40
0.1875
 40
0.1875
 40
0.25
 40
0.25
 40
0.3125
 40
0.3125
 40
0.375
 40
0.375
 40
0.4375
 40
0.4375
 40
0.5
 40
0.5
 40
0.5625
 40
0.5625
 40
0.625
 40
0.625
 40
0.6875
 40
0.6875
 40
0.75
 40
0.75
 40
0.8125
 40
0.8125
 40
0.875
 40
0.875
 40
0.9375
 40
0.9375
 40
1.0
 40
1.0
 40
1.0
 40
1.0
 10
33.11400000000088
 20
-3.565862921729068
 30
0.0
 10
32.7795046837013
 20
-3.289730820424036
 30
0.0
 10
32.44373155045097
 20
-2.998394399998889
 30
0.0
 10
31.78201332747135
 20
-2.396361883979738
 30
0.0
 10
31.44729281480698
 20
-2.083032086571655
 30
0.0
 10
30.77798175250922
 20
-1.441713761326676
 30
0.0
 10
30.44754351060691
 20
-1.115120656191098
 30
0.0
 10
29.78153912796039
 20
-0.4537827816530814
 30
0.0
 10
29.44522780482508
 20
-0.118767422762457
 30
0.0
 10
28.77843598925572
 20
0.5475574811783813
 30
0.0
 10
28.44852769103521
 20
0.8786794234857725
 30
0.0
 10
27.77947363938812
 20
1.533982256397008
 30
0.0
 10
27.44374856471901
 20
1.856982471596605
 30
0.0
 10
26.78228015961457
 20
2.481902425513821
 30
0.0
 10
26.44726670887172
 20
2.786738313561346
 30
0.0
 10
25.77799903421118
 20
3.37056566308291
 30
0.0
 10
25.44768268133265
 20
3.648495717382207
 30
0.0
 10
24.78151291189543
 20
4.173573235470671
 30
0.0
 10
24.44519751343702
 20
4.420695525257313
 30
0.0
 10
23.77855527919271
 20
4.874934238528875
 30
0.0
 10
23.44855689592435
 20
5.082152816459988
 30
0.0
 10
22.77944342931403
 20
5.45476629496897
 30
0.0
 10
22.44376843889917
 20
5.619309149514198
 30
0.0
 10
21.78255370536016
 20
5.899325431664443
 30
0.0
 10
21.44723946185618
 20
6.016184896663111
 30
0.0
 10
20.77801918318328
 20
6.198880684344815
 30
0.0
 10
20.44781677153423
 20
6.264589681846902
 30
0.0
 10
19.78148556195937
 20
6.34429180011222
 30
0.0
 10
19.44516812582846
 20
6.35805623379347
 30
0.0
 10
18.77867942894915
 20
6.332890013961523
 30
0.0
 10
18.44858300652103
 20
6.294202301560253
 30
0.0
 10
17.77941413021844
 20
6.16477724883819
 30
0.0
 10
17.44379125119624
 20
6.074029107288072
 30
0.0
 10
17.11331264207765
 20
5.959230727498618
 30
0.0
  0
SPLINE
  5
BF
330
1F
100
AcDbEntity
  8
0
  6
Continuous
 62
     1
370
    15
100
AcDbSpline
210
0.0
220
0.0
230
1.0
 70
     8
 71
     3
 72
    20
 73
    16
 74
     0
 42
0.000000001
 43
0.00000001
 40
0.0
 40
0.0
 40
0.0
 40
0.0
 40
0.0678945894164022
 40
0.1508485747885453
 40
0.2339887587069803
 40
0.3170339393858545
 40
0.3999777707730431
 40
0.4830735075365197
 40
0.5661692223708072
 40
0.649113051753309
 40
0.7193616302590502
 40
0.789529354530801
 40
0.8596434076130938
 40
0.9299376410417064
 40
1.0
 40
1.0
 40
1.0
 40
1.0
 10
23.76174172088945
 20
-5.944885624081775
 30
0.0
 10
23.45027248400521
 20
-6.045868126017262
 30
0.0
 10
22.75824840847389
 20
-6.270231608092756
 30
0.0
 10
21.68591273567467
 20
-6.378831999240181
 30
0.0
 10
20.54156768686567
 20
-6.309218545841327
 30
0.0
 10
19.39859879824558
 20
-6.030266830432947
 30
0.0
 10
18.25700984935003
 20
-5.557433418214058
 30
0.0
 10
17.11334941185176
 20
-4.905332947523205
 30
0.0
 10
15.96959177202405
 20
-4.095235627933627
 30
0.0
 10
14.88692859917345
 20
-3.199453036819777
 30
0.0
 10
13.86139844570502
 20
-2.270928106357724
 30
0.0
 10
12.89580762118057
 20
-1.342141252748756
 30
0.0
 10
11.93102725627525
 20
-0.3818338549288187
 30
0.0
 10
10.96383620261085
 20
0.5865039315568962
 30
0.0
 10
10.32092469605389
 20
1.218947425642976
 30
0.0
 10
10.00000000000084
 20
1.534646762239509
 30
0.0
  0
SPLINE
  5
C0
330
1F
100
AcDbEntity
  8
0
  6
Continuous
 62
     1
370
    15
100
AcDbSpline
210
0.0
220
0.0
230
1.0
 70
    24
 71
     3
 72
    16
 73
    12
 74
     0
 42
0.000000001
 43
0.00000001
 40
0.0
 40
0.0
 40
0.0
 40
0.0
 40
0.25
 40
0.25
 40
0.4999999999999999
 40
0.4999999999999999
 40
0.75
 40
0.75
 40
0.875
 40
0.875
 40
1.0
 40
1.0
 40
1.0
 40
1.0
 10
10.00000000000089
 20
5.162929578724153
 30
0.0
 10
10.00000000000089
 20
4.905092485422274
 30
0.0
 10
10.00000000000089
 20
4.609428923300451
 30
0.0
 10
10.00000000000089
 20
3.950502496018415
 30
0.0
 10
10.00000000000089
 20
3.585932867767847
 30
0.0
 10
10.00000000000089
 20
2.851201894542872
 30
0.0
 10
10.00000000000089
 20
2.48195031534567
 30
0.0
 10
10.00000000000089
 20
2.026511748926504
 30
0.0
 10
10.00000000000089
 20
1.891616786855274
 30
0.0
 10
10.00000000000089
 20
1.672425567217266
 30
0.0
 10
10.00000000000089
 20
1.588294861370783
 30
0.0
 10
10.00000000000089
 20
1.534646762239459
 30
0.0
  0
SPLINE
  5
C1
330
1F
100
AcDbEntity
  8
0
  6
Continuous
 62
     1
370
    15
100
AcDbSpline
210
0.0
220
0.0
230
1.0
 70
     8
 71
     3
 72
    22
 73
    18
 74
     0
 42
0.000000001
 43
0.00000001
 40
0.0
 40
0.0
 40
0.0
 40
0.0
 40
0.0602533292187271
 40
0.1207060694907686
 40
0.181003855435166
 40
0.2413477983730767
 40
0.3017612756066032
 40
0.3730926143275985
 40
0.444554573887887
 40
0.5160165523071842
 40
0.5873478927522019
 40
0.6587663931548459
 40
0.7302665959374159
 40
0.8016066687660908
 40
0.8729903436901082
 40
0.9445096710881798
 40
1.0
 40
1.0
 40
1.0
 40
1.0
 10
10.00000000000102
 20
5.162929578731061
 30
0.0
 10
10.32092469603961
 20
4.964044455566279
 30
0.0
 10
10.96383620256759
 20
4.565615990140563
 30
0.0
 10
11.93102725644945
 20
3.833080311731957
 30
0.0
 10
12.89580762052953
 20
3.018086611560852
 30
0.0
 10
13.86139844813932
 20
2.131990854590542
 30
0.0
 10
14.88692858938209
 20
1.141616198980856
 30
0.0
 10
15.96959181602283
 20
0.0569388863765162
 30
0.0
 10
17.11334924821622
 20
-1.086095204033768
 30
0.0
 10
18.25701045929533
 20
-2.194259917769452
 30
0.0
 10
19.39859652543242
 20
-3.232950518185407
 30
0.0
 10
20.5415761852647
 20
-4.166348141632332
 30
0.0
 10
21.685881010044
 20
-4.963937099298761
 30
0.0
 10
22.82761386431747
 20
-5.604305324732101
 30
0.0
 10
23.97002452428399
 20
-6.056590014602055
 30
0.0
 10
25.02994028330334
 20
-6.316162556551494
 30
0.0
 10
25.70701464185113
 20
-6.327359694455748
 30
0.0
 10
26.0028274166051
 20
-6.332251707261941
 30
0.0
  0
SPLINE
  5
C2
330
1F
100
AcDbEntity
  8
0
  6
Continuous
 62
     1
370
    15
100
AcDbSpline
210
0.0
220
0.0
230
1.0
 70
     8
 71
     3
 72
    38
 73
    34
 74
     0
 42
0.000000001
 43
0.00000001
 40
0.0
 40
0.0
 40
0.0
 40
0.0
 40
0.1250000000000006
 40
0.1250000000000006
 40
0.1875000000000008
 40
0.1875000000000008
 40
0.2500000000000011
 40
0.2500000000000011
 40
0.3125000000000014
 40
0.3125000000000014
 40
0.3750000000000017
 40
0.3750000000000017
 40
0.5000000000000019
 40
0.5000000000000019
 40
0.5625000000000018
 40
0.5625000000000018
 40
0.6250000000000019
 40
0.6250000000000019
 40
0.6562500000000018
 40
0.6562500000000018
 40
0.6875000000000017
 40
0.6875000000000017
 40
0.7187500000000017
 40
0.7187500000000017
 40
0.7500000000000016
 40
0.7500000000000016
 40
0.8125000000000011
 40
0.8125000000000011
 40
0.8750000000000008
 40
0.8750000000000008
 40
0.9375000000000003
 40
0.9375000000000003
 40
1.0
 40
1.0
 40
1.0
 40
1.0
 10
33.11400000000089
 20
2.767380750136931
 30
0.0
 10
33.3600730522494
 20
2.546419701607777
 30
0.0
 10
33.59039201725592
 20
2.300074101817892
 30
0.0
 10
33.92133798775887
 20
1.901570881146952
 30
0.0
 10
34.02839620092884
 20
1.764733989200606
 30
0.0
 10
34.23098571340926
 20
1.489018383182111
 30
0.0
 10
34.32726392617021
 20
1.349249901758857
 30
0.0
 10
34.50855814168553
 20
1.064758891351512
 30
0.0
 10
34.59376646048467
 20
0.9194810087650717
 30
0.0
 10
34.74690218989744
 20
0.6291575070432962
 30
0.0
 10
34.81539481671476
 20
0.4832844981917463
 30
0.0
 10
34.99478793980648
 20
0.0390357335748293
 30
0.0
 10
35.07902063272154
 20
-0.2675735697258974
 30
0.0
 10
35.14614581078525
 20
-0.7463182579253292
 30
0.0
 10
35.15923818289476
 20
-0.9104015680176264
 30
0.0
 10
35.16371936027738
 20
-1.247585991606076
 30
0.0
 10
35.15546178492644
 20
-1.419922843345214
 30
0.0
 10
35.11749245555662
 20
-1.67673125200281
 30
0.0
 10
35.10061137130764
 20
-1.761251104834463
 30
0.0
 10
35.05409170971273
 20
-1.927086613556531
 30
0.0
 10
35.02437439482185
 20
-2.00788050304715
 30
0.0
 10
34.94905510211731
 20
-2.154155139420126
 30
0.0
 10
34.90297146435928
 20
-2.219777817953554
 30
0.0
 10
34.79708100500534
 20
-2.323450932974088
 30
0.0
 10
34.73643359193332
 20
-2.36216170596327
 30
0.0
 10
34.54555877514585
 20
-2.434414126574654
 30
0.0
 10
34.40703220156695
 20
-2.426772981512835
 30
0.0
 10
34.13773387668864
 20
-2.354388356569042
 30
0.0
 10
34.00345633919209
 20
-2.289369521788739
 30
0.0
 10
33.74210167479759
 20
-2.1303403103598
 30
0.0
 10
33.61502082732049
 20
-2.036349099829209
 30
0.0
 10
33.36197694661133
 20
-1.829404844474651
 30
0.0
 10
33.2367905944185
 20
-1.716386345361637
 30
0.0
 10
33.11400000000089
 20
-1.597822630456676
 30
0.0
  0
SPLINE
  5
C3
330
1F
100
AcDbEntity
  8
0
  6
Continuous
 62
     1
370
    15
100
AcDbSpline
210
0.0
220
0.0
230
1.0
 70
     8
 71
     3
 72
    18
 73
    14
 74
     0
 42
0.000000001
 43
0.00000001
 40
0.0
 40
0.0
 40
0.0
 40
0.0
 40
0.0986015461878052
 40
0.1973166088539444
 40
0.2958103066919563
 40
0.3943641404681593
 40
0.4931268874738919
 40
0.5916661959173546
 40
0.6902055103062799
 40
0.7889682599199176
 40
0.8875436837879574
 40
0.9860588964797794
 40
1.0
 40
1.0
 40
1.0
 40
1.0
 10
33.11400000000089
 20
-1.597822630456671
 30
0.0
 10
32.7331672236945
 20
-1.224098696576887
 30
0.0
 10
31.97106323175423
 20
-0.4762205736490842
 30
0.0
 10
30.82693680080559
 20
0.6726071961783153
 30
0.0
 10
29.68547660194011
 20
1.798260765907187
 30
0.0
 10
28.54320956611194
 20
2.866336974548974
 30
0.0
 10
27.39867802299245
 20
3.839886334146417
 30
0.0
 10
26.25666781832248
 20
4.691843744172925
 30
0.0
 10
25.11465063964071
 20
5.390471541379177
 30
0.0
 10
23.9700562595368
 20
5.919174903027123
 30
0.0
 10
22.82754712343697
 20
6.237821737826646
 30
0.0
 10
22.01329374296978
 20
6.37385044136563
 30
0.0
 10
21.57856424759611
 20
6.341539796113683
 30
0.0
 10
21.52467124182781
 20
6.337534275877601
 30
0.0
  0
SPLINE
  5
C4
330
1F
100
AcDbEntity
  8
0
  6
Continuous
 62
     1
370
    15
100
AcDbSpline
210
0.0
220
0.0
230
1.0
 70
     8
 71
     3
 72
    16
 73
    12
 74
     0
 42
0.000000001
 43
0.00000001
 40
0.0
 40
0.0
 40
0.0
 40
0.0
 40
0.0222385594051328
 40
0.1446343682671298
 40
0.2667532758159906
 40
0.3888721759966918
 40
0.511267981626735
 40
0.6334048829248283
 40
0.7554672582824693
 40
0.8778039691289282
 40
1.0
 40
1.0
 40
1.0
 40
1.0
 10
23.7617417208895
 20
5.944885624081776
 30
0.0
 10
23.831041907781
 20
5.973285126499226
 30
0.0
 10
24.28175405011211
 20
6.157988821393269
 30
0.0
 10
25.11474075911047
 20
6.311143125723357
 30
0.0
 10
26.25664369570372
 20
6.382158686647259
 30
0.0
 10
27.39868450339873
 20
6.229496425278733
 30
0.0
 10
28.543207832139
 20
5.880730086420113
 30
0.0
 10
29.68547706563268
 20
5.340742874108467
 30
0.0
 10
30.82693667687106
 20
4.62632164749061
 30
0.0
 10
31.97106326272522
 20
3.770478106383341
 30
0.0
 10
32.7331672340142
 20
3.101618270271608
 30
0.0
 10
33.11400000000089
 20
2.767380750142951
 30
0.0
  0
SPLINE
  5
C5
330
1F
100
AcDbEntity
  8
0
  6
Continuous
 62
     1
370
    15
100
AcDbSpline
210
0.0
220
0.0
230
1.0
 70
     8
 71
     3
 72
    16
 73
    12
 74
     0
 42
0.000000001
 43
0.00000001
 40
0.0
 40
0.0
 40
0.0
 40
0.0
 40
0.1030912878273519
 40
0.2065237608233865
 40
0.3096911125157788
 40
0.4129374371705822
 40
0.5163027325142446
 40
0.638348097750443
 40
0.760616950563418
 40
0.8828858356434814
 40
0.9999999999999999
 40
0.9999999999999999
 40
0.9999999999999999
 40
0.9999999999999999
 10
10.00000000000102
 20
-0.6200963335654938
 30
0.0
 10
10.32092469716568
 20
-0.9389833962569841
 30
0.0
 10
10.96383620594952
 20
-1.577812892453232
 30
0.0
 10
11.93102724288399
 20
-2.492575782854235
 30
0.0
 10
12.89580767126525
 20
-3.353946086067863
 30
0.0
 10
13.86139825845745
 20
-4.136497962556549
 30
0.0
 10
14.88692935234183
 20
-4.864513517669683
 30
0.0
 10
15.96958838756565
 20
-5.50110652634471
 30
0.0
 10
17.1133619989666
 20
-5.988723218003729
 30
0.0
 10
18.2415794365794
 20
-6.295354626707621
 30
0.0
 10
18.98736696808187
 20
-6.32937989133519
 30
0.0
 10
19.35223107915821
 20
-6.346026184559565
 30
0.0
  0
LINE
  5
C6
330
1F
100
AcDbEntity
  8
0
  6
Continuous
 62
     1
370
    15
100
AcDbLine
 10
9.999999999999634
 20
-0.6200963335663088
 30
0.0
 11
10.00000000000089
 21
1.534646762239459
 31
0.0
  0
LINE
  5
C8
330
1F
100
AcDbEntity
  8
0
  6
Continuous
 62
     1
370
    15
100
AcDbLine
 10
9.999999999999632
 20
5.162929578724615
 30
0.0
 11
10.00000000000089
 21
6.103569204389222
 31
0.0
  0
SPLINE
  5
CA
330
1F
100
AcDbEntity
  8
0
  6
Continuous
 62
     1
370
    15
100
AcDbSpline
210
0.0
220
0.0
230
1.0
 70
     8
 71
     3
 72
    38
 73
    34
 74
     0
 42
0.000000001
 43
0.00000001
 40
0.0
 40
0.0
 40
0.0
 40
0.0
 40
0.125
 40
0.125
 40
0.1875
 40
0.1875
 40
0.2499999999999999
 40
0.2499999999999999
 40
0.3124999999999999
 40
0.3124999999999999
 40
0.3749999999999999
 40
0.3749999999999999
 40
0.4999999999999994
 40
0.4999999999999994
 40
0.5624999999999992
 40
0.5624999999999992
 40
0.624999999999999
 40
0.624999999999999
 40
0.656249999999999
 40
0.656249999999999
 40
0.687499999999999
 40
0.687499999999999
 40
0.718749999999999
 40
0.718749999999999
 40
0.749999999999999
 40
0.749999999999999
 40
0.8124999999999992
 40
0.8124999999999992
 40
0.8749999999999994
 40
0.8749999999999994
 40
0.9374999999999998
 40
0.9374999999999998
 40
1.0
 40
1.0
 40
1.0
 40
1.0
 10
33.11400000000089
 20
6.333243671864919
 30
0.0
 10
33.36007305224939
 20
6.315420502046665
 30
0.0
 10
33.59039201725591
 20
6.245189069244467
 30
0.0
 10
33.92133798775888
 20
6.067872422053566
 30
0.0
 10
34.02839620092883
 20
5.996696156538439
 30
0.0
 10
34.23098571340924
 20
5.834504353890388
 30
0.0
 10
34.32726392617021
 20
5.743082054555692
 30
0.0
 10
34.50855814168555
 20
5.540600302679879
 30
0.0
 10
34.59376646048464
 20
5.428974043336258
 30
0.0
 10
34.7469021898974
 20
5.19364633602895
 30
0.0
 10
34.81539481671475
 20
5.069386696434084
 30
0.0
 10
34.99478793980648
 20
4.682571273722226
 30
0.0
 10
35.07902063272155
 20
4.403743716513643
 30
0.0
 10
35.14614581078526
 20
4.008902648541734
 30
0.0
 10
35.15923818289475
 20
3.880153642408642
 30
0.0
 10
35.16371936027736
 20
3.64010091769032
 30
0.0
 10
35.15546178492644
 20
3.529214456619205
 30
0.0
 10
35.11749245555662
 20
3.393135874336458
 30
0.0
 10
35.10061137130763
 20
3.353255578043591
 30
0.0
 10
35.05409170971271
 20
3.288457549254439
 30
0.0
 10
35.02437439482185
 20
3.263984961824034
 30
0.0
 10
34.94905510211729
 20
3.238711300671368
 30
0.0
 10
34.90297146435928
 20
3.238201016719339
 30
0.0
 10
34.79708100500534
 20
3.263411663064436
 30
0.0
 10
34.73643359193331
 20
3.289327405330015
 30
0.0
 10
34.54555877514586
 20
3.394038670241109
 30
0.0
 10
34.40703220156695
 20
3.497162337143089
 30
0.0
 10
34.13773387668863
 20
3.709694884044974
 30
0.0
 10
34.00345633919209
 20
3.822158578992343
 30
0.0
 10
33.7421016747976
 20
4.039215874051127
 30
0.0
 10
33.61502082732049
 20
4.144145307410425
 30
0.0
 10
33.36197694661132
 20
4.343420490856924
 30
0.0
 10
33.23679059441849
 20
4.437431824333126
 30
0.0
 10
33.11400000000089
 20
4.523409337569692
 30
0.0
  0
LINE
  5
CB
330
1F
100
AcDbEntity
  8
0
  6
Continuous
 62
     1
370
    15
100
AcDbLine
 10
35.40000000000089
 20
-0.0000000000000017
 30
0.0
 11
35.40000000000089
 21
4.825999999999999
 31
0.0
  0
LINE
  5
CC
330
1F
100
AcDbEntity
  8
0
  6
Continuous
 62
     1
370
    15
100
AcDbLine
 10
35.40000000000089
 20
-4.826000000000002
 30
0.0
 11
35.40000000000089
 21
-0.0000000000000017
 31
0.0
  0
SPLINE
  5
CD
330
1F
100
AcDbEntity
  8
0
  6
Continuous
 62
     1
370
    15
100
AcDbSpline
210
0.0
220
0.0
230
1.0
 70
     8
 71
     3
 72
    22
 73
    18
 74
     0
 42
0.000000001
 43
0.00000001
 40
0.0
 40
0.0
 40
0.0
 40
0.0
 40
0.1249999999999999
 40
0.1249999999999999
 40
0.2499999999999999
 40
0.2499999999999999
 40
0.3749999999999998
 40
0.3749999999999998
 40
0.4999999999999998
 40
0.4999999999999998
 40
0.6249999999999998
 40
0.6249999999999998
 40
0.7499999999999998
 40
0.7499999999999998
 40
0.8749999999999998
 40
0.8749999999999998
 40
1.0
 40
1.0
 40
1.0
 40
1.0
 10
17.11331264207761
 20
-5.959230810968196
 30
0.0
 10
16.81940791401676
 20
-6.061324508331717
 30
0.0
 10
16.52143733461253
 20
-6.144422188147635
 30
0.0
 10
15.9260462117368
 20
-6.26968837653529
 30
0.0
 10
15.63035439491708
 20
-6.311816597133537
 30
0.0
 10
15.04057375168719
 20
-6.354739915804632
 30
0.0
 10
14.74217503673308
 20
-6.355553192394539
 30
0.0
 10
14.14708384136947
 20
-6.315489426795329
 30
0.0
 10
13.85298816872885
 20
-6.274818031221915
 30
0.0
 10
13.26152689971468
 20
-6.152778786105867
 30
0.0
 10
12.9628511792384
 20
-6.071176993987786
 30
0.0
 10
12.36835933515698
 20
-5.868998115438694
 30
0.0
 10
12.07517453300091
 20
-5.748892621857801
 30
0.0
 10
11.48232599370613
 20
-5.471136166611822
 30
0.0
 10
11.18352486846193
 20
-5.313460321542795
 30
0.0
 10
10.58993079434836
 20
-4.965093129207782
 30
0.0
 10
10.29697007014422
 20
-4.774916213872434
 30
0.0
 10
10.00000000000084
 20
-4.568922442149726
 30
0.0
  0
SPLINE
  5
CE
330
1F
100
AcDbEntity
  8
0
  6
Continuous
 62
     1
370
    15
100
AcDbSpline
210
0.0
220
0.0
230
1.0
 70
    24
 71
     3
 72
    16
 73
    12
 74
     0
 42
0.000000001
 43
0.00000001
 40
0.0
 40
0.0
 40
0.0
 40
0.0
 40
0.2500000000000001
 40
0.2500000000000001
 40
0.5000000000000001
 40
0.5000000000000001
 40
0.7500000000000002
 40
0.7500000000000002
 40
0.8750000000000001
 40
0.8750000000000001
 40
1.0
 40
1.0
 40
1.0
 40
1.0
 10
10.00000000000089
 20
-0.6200963335678463
 30
0.0
 10
10.00000000000089
 20
-0.7116477564225675
 30
0.0
 10
10.00000000000089
 20
-0.8442990086874104
 30
0.0
 10
10.00000000000089
 20
-1.238689300757499
 30
0.0
 10
10.00000000000089
 20
-1.50222066702139
 30
0.0
 10
10.00000000000089
 20
-2.187852916001782
 30
0.0
 10
10.00000000000089
 20
-2.612342484710287
 30
0.0
 10
10.00000000000089
 20
-3.323730050141571
 30
0.0
 10
10.00000000000089
 20
-3.572273269549363
 30
0.0
 10
10.00000000000089
 20
-4.073357450431632
 30
0.0
 10
10.00000000000089
 20
-4.325717335598641
 30
0.0
 10
10.00000000000089
 20
-4.568922442149762
 30
0.0
  0
SPLINE
  5
CF
330
1F
100
AcDbEntity
  8
0
  6
Continuous
 62
     1
370
    15
100
AcDbSpline
210
0.0
220
0.0
230
1.0
 70
     8
 71
     3
 72
    12
 73
     8
 74
     0
 42
0.000000001
 43
0.00000001
 40
0.0
 40
0.0
 40
0.0
 40
0.0
 40
0.2313244442204207
 40
0.462915204105004
 40
0.693986630390711
 40
0.9251991387691187
 40
1.0
 40
1.0
 40
1.0
 40
1.0
 10
33.11400000000088
 20
4.523409337569701
 30
0.0
 10
32.73316707219501
 20
4.776435608327446
 30
0.0
 10
31.97106277708134
 20
5.282779450053663
 30
0.0
 10
30.82693862023838
 20
5.834949403289641
 30
0.0
 10
29.68546979465641
 20
6.195789750168657
 30
0.0
 10
28.80148015975604
 20
6.359510979637577
 30
0.0
 10
28.29715854044993
 20
6.333789734726342
 30
0.0
 10
28.17388388905279
 20
6.327502521609651
 30
0.0
  0
LINE
  5
D0
330
1F
100
AcDbEntity
  8
0
  6
Continuous
 62
     1
370
    15
100
AcDbLine
 10
10.46369780834988
 20
-5.94206218848862
 30
0.0
 11
10.00000000000084
 21
-6.103569204389244
 31
0.0
  0
SPLINE
  5
D1
330
1F
100
AcDbEntity
  8
0
  6
Continuous
 62
     1
370
    15
100
AcDbSpline
210
0.0
220
0.0
230
1.0
 70
     8
 71
     3
 72
    10
 73
     6
 74
     0
 42
0.000000001
 43
0.00000001
 40
0.0
 40
0.0
 40
0.0
 40
0.0
 40
0.3566129745065827
 40
0.7144061753972354
 40
1.0
 40
1.0
 40
1.0
 40
1.0
 10
9.999999999999151
 20
-5.783025912295746
 30
0.0
 10
10.32092413558841
 20
-5.902183527471458
 30
0.0
 10
10.96383451936289
 20
-6.140893115211275
 30
0.0
 10
11.86667732374407
 20
-6.322856685541723
 30
0.0
 10
12.445968410239
 20
-6.333541370412147
 30
0.0
 10
12.70311061298003
 20
-6.338284207764952
 30
0.0
  0
SPLINE
  5
D2
330
1F
100
AcDbEntity
  8
0
  6
Continuous
 62
     1
370
    15
100
AcDbSpline
210
0.0
220
0.0
230
1.0
 70
     8
 71
     3
 72
    10
 73
     6
 74
     0
 42
0.000000001
 43
0.00000001
 40
0.0
 40
0.0
 40
0.0
 40
0.0
 40
0.1535525641617005
 40
0.5770197631860878
 40
1.0
 40
1.0
 40
1.0
 40
1.0
 10
30.41186961515109
 20
5.936951194271767
 30
0.0
 10
30.5500524939523
 20
5.990438779676549
 30
0.0
 10
31.06931605973864
 20
6.191434406367365
 30
0.0
 10
31.9711058801593
 20
6.349677680942795
 30
0.0
 10
32.7331814343761
 20
6.338719573491544
 30
0.0
 10
33.11400000000088
 20
6.333243671872005
 30
0.0
  0
SPLINE
  5
D3
330
1F
100
AcDbEntity
  8
0
  6
Continuous
 62
     1
370
    15
100
AcDbSpline
210
0.0
220
0.0
230
1.0
 70
    24
 71
     3
 72
     9
 73
     5
 74
     0
 42
0.000000001
 43
0.00000001
 40
0.0
 40
0.0
 40
0.0
 40
0.0
 40
0.054236233943202
 40
1.0
 40
1.0
 40
1.0
 40
1.0
 10
10.00000000000089
 20
-5.836510485935242
 30
0.0
 10
10.00000000000089
 20
-5.840610838365401
 30
0.0
 10
10.00000000000089
 20
-5.916212555742262
 30
0.0
 10
10.00000000000089
 20
-6.012502070387019
 30
0.0
 10
10.00000000000089
 20
-6.103569204389226
 30
0.0
  0
LINE
  5
D4
330
1F
100
AcDbEntity
  8
0
  6
Continuous
 62
     1
370
    15
100
AcDbLine
 10
10.00000000000089
 20
-5.783025912288821
 30
0.0
 11
10.00000000000089
 21
-4.568922442149759
 31
0.0
  0
LINE
  5
D7
330
1F
100
AcDbEntity
  8
0
  6
Continuous
 62
     8
370
    15
100
AcDbLine
 10
33.11400000000089
 20
6.333243671872004
 30
0.0
 11
33.11400000000089
 21
6.349999999999997
 31
0.0
  0
LINE
  5
D8
330
1F
100
AcDbEntity
  8
중심선
100
AcDbLine
 10
-43.79999999999909
 20
0.0
 30
0.0
 11
38.40000000000089
 21
0.0
 31
0.0
  0
CIRCLE
  5
D9
330
1F
100
AcDbEntity
  8
외형선
100
AcDbCircle
 10
0.0
 20
0.0
 30
0.0
 40
3.000000000000004
  0
INSERT
  5
DA
330
1F
100
AcDbEntity
  8
0
  6
Continuous
 62
     7
100
AcDbBlockReference
 66
     1
  2
블럭10
 10
-16.62936049909259
 20
-51.78679627639982
 30
0.0
  0
ATTRIB
  5
DB
330
DA
100
AcDbEntity
  8
FORMAT
 62
     2
100
AcDbText
 10
-27.68038085127705
 20
-49.71142936356762
 30
0.0
 40
4.233333333333333
  1
GMG22918[ 6 FLUTE ]
 41
0.75
  7
SLDTEXTSTYLE0
 11
-27.68038085127705
 21
-51.82809603023429
 31
0.0
100
AcDbAttribute
  2
AUTOATTR0
 70
     0
 74
     1
  0
SEQEND
  5
DC
330
DA
100
AcDbEntity
  8
0
  6
Continuous
 62
     7
  0
HATCH
  5
DD
330
1F
100
AcDbEntity
  8
중심선
100
AcDbHatch
 10
0.0
 20
0.0
 30
0.0
210
0.0
220
0.0
230
1.0
  2
SOLID
 70
     1
 71
     0
 91
        1
 92
        0
 93
        4
 72
     1
 10
-10.91445119471174
 20
-35.53962197475588
 11
-14.36072643854902
 21
-35.53962197475588
 72
     1
 10
-14.36072643854902
 20
-35.53962197475588
 11
-16.48895629775305
 21
-38.07594755532848
 72
     1
 10
-16.48895629775305
 20
-38.07594755532848
 11
-13.04264796880261
 21
-38.07590812602599
 72
     1
 10
-13.04264796880261
 20
-38.07590812602599
 11
-10.91445119471174
 21
-35.53962197475588
 97
        0
 75
     0
 76
     1
 98
        1
 10
0.00048592007537
 20
0.2622744311706858
  0
HATCH
  5
DE
330
1F
100
AcDbEntity
  8
중심선
100
AcDbHatch
 10
0.0
 20
0.0
 30
0.0
210
0.0
220
0.0
230
1.0
  2
SOLID
 70
     1
 71
     0
 91
        1
 92
        0
 93
        4
 72
     1
 10
-5.901687203675789
 20
-35.53962197475588
 11
-9.347962447513071
 21
-35.53962197475588
 72
     1
 10
-9.347962447513071
 20
-35.53962197475588
 11
-13.87910045587046
 21
-40.93962197475589
 72
     1
 10
-13.87910045587046
 20
-40.93962197475589
 11
-10.43282521203318
 21
-40.93962197475589
 72
     1
 10
-10.43282521203318
 20
-40.93962197475589
 11
-5.901687203675789
 21
-35.53962197475588
 97
        0
 75
     0
 76
     1
 98
        1
 10
0.00048592007537
 20
0.2622744311706858
  0
HATCH
  5
DF
330
1F
100
AcDbEntity
  8
중심선
100
AcDbHatch
 10
0.0
 20
0.0
 30
0.0
210
0.0
220
0.0
230
1.0
  2
SOLID
 70
     1
 71
     0
 91
        1
 92
        0
 93
        4
 72
     1
 10
-0.8889232126398932
 20
-35.53962197475591
 11
-4.335198456477009
 21
-35.53962197475588
 72
     1
 10
-4.335198456477009
 20
-35.53962197475588
 11
-11.38363535836626
 21
-43.9396219747559
 72
     1
 10
-11.38363535836626
 20
-43.9396219747559
 11
-7.937360114528976
 21
-43.9396219747559
 72
     1
 10
-7.937360114528976
 20
-43.9396219747559
 11
-0.8889232126398934
 21
-35.53962197475591
 97
        0
 75
     0
 76
     1
 98
        1
 10
0.00048592007537
 20
0.2622744311706858
  0
HATCH
  5
E0
330
1F
100
AcDbEntity
  8
중심선
100
AcDbHatch
 10
0.0
 20
0.0
 30
0.0
210
0.0
220
0.0
230
1.0
  2
SOLID
 70
     1
 71
     0
 91
        1
 92
        0
 93
        6
 72
     3
 10
3.910967218372306
 20
-39.73962197480716
 11
3.960054785062283
 21
1.540882976769353E-10
 40
0.3939339440162628
 50
17.09539180608437
 51
320.0019657685081
 73
     0
 72
     1
 10
5.593966874072901
 20
-38.32751597939419
 11
7.89926874777394
 21
-36.39318926934626
 72
     3
 10
3.91096721831946
 20
-39.73962197475603
 11
6.600054785286829
 21
-1.278976924368180E-13
 40
0.636358354079598
 50
39.9987384933741
 51
368.4976242363725
 73
     1
 72
     1
 10
10.33629971022007
 20
-38.7796219746859
 11
2.591034525155382
 21
-38.77962197468587
 72
     1
 10
2.591034525155382
 20
-38.77962197468587
 11
2.591009480709448
 21
-40.6996219746858
 72
     1
 10
2.591009480709448
 20
-40.6996219746858
 11
7.032389250181485
 21
-40.69962197468577
 97
        0
 75
     0
 76
     1
 98
        1
 10
0.00048592007537
 20
0.2622744311706858
  0
POINT
  5
E1
330
1F
100
AcDbEntity
  8
치수문자_일반주서
100
AcDbPoint
 10
0.0
 20
0.0
 30
0.0
  0
DIMENSION
  5
E2
330
1F
100
AcDbEntity
  8
치수문자_일반주서
100
AcDbDimension
  2
_D
 10
52.14024571577386
 20
6.350000000000067
 30
0.0
 11
52.14024571577387
 21
2.678446215346467
 31
0.0
 70
   160
  1
%%c<>
 71
     2
 42
12.7
 52
-270.0
  3
SLDDIMSTYLE0
100
AcDbAlignedDimension
 13
33.49500000000089
 23
-6.350000000000001
 33
0.0
 14
33.49500000000089
 24
6.349999999999998
 34
0.0
 50
90.0000000000002
100
AcDbRotatedDimension
1001
ACAD
1000
DSTYLE
1002
{
1070
   273
1070
     7
1002
}
  0
DIMENSION
  5
F7
330
1F
100
AcDbEntity
  8
치수문자_일반주서
100
AcDbDimension
  2
_D_1
 10
35.40000000000089
 20
39.00555141807178
 30
0.0
 11
-2.699999999999109
 21
39.00555141807178
 31
0.0
 70
   160
  1
<>
 71
     2
 42
76.2
  3
SLDDIMSTYLE1
100
AcDbAlignedDimension
 13
-40.79999999999912
 23
5.849999999999992
 33
0.0
 14
35.40000000000089
 24
4.063999999999999
 34
0.0
100
AcDbRotatedDimension
1001
ACAD
1000
DSTYLE
1002
{
1070
   273
1070
     7
1002
}
  0
DIMENSION
  5
10B
330
1F
100
AcDbEntity
  8
치수문자_일반주서
100
AcDbDimension
  2
_D_2
 10
10.00000000000089
 20
21.69099453033794
 30
0.0
 11
22.42060113190237
 21
21.69099453033794
 31
0.0
 70
   160
  1
<>
 71
     2
 42
25.4
  3
SLDDIMSTYLE2
100
AcDbAlignedDimension
 13
35.40000000000089
 23
4.063999999999999
 33
0.0
 14
10.00000000000089
 24
-6.103569204389226
 34
0.0
100
AcDbRotatedDimension
1001
ACAD
1000
DSTYLE
1002
{
1070
   273
1070
     7
1002
}
  0
DIMENSION
  5
121
330
1F
100
AcDbEntity
  8
치수문자_일반주서
100
AcDbDimension
  2
_D_3
 10
-53.79999999999911
 20
-6.350000000000055
 30
0.0
 11
-53.79999999999913
 21
-0.0000000000000059
 31
0.0
 70
   160
  1
%%c<>
 71
     2
 42
12.7
 52
-270.0
  3
SLDDIMSTYLE2
100
AcDbAlignedDimension
 13
-40.29999999999912
 23
6.349999999999995
 33
0.0
 14
-40.29999999999912
 24
-6.350000000000004
 34
0.0
 50
90.0000000000002
100
AcDbRotatedDimension
1001
ACAD
1000
DSTYLE
1002
{
1070
   273
1070
     7
1002
}
  0
INSERT
  5
13B
330
1F
100
AcDbEntity
  8
외형선
100
AcDbBlockReference
  2
SW_DOWELSYMBOL_0
 10
0.0
 20
0.0
 30
0.0
  0
ARC
  5
164
102
{ACAD_REACTORS
102
}
330
1F
100
AcDbEntity
  8
0
  6
Continuous
 62
     1
370
    15
100
AcDbCircle
 10
33.87600000000089
 20
4.825999999999999
 30
0.0
 40
1.524
100
AcDbArc
 50
0.0
 51
90.0
  0
LINE
  5
165
330
1F
100
AcDbEntity
  8
0
  6
Continuous
 62
     1
370
    15
100
AcDbLine
 10
33.11400000000089
 20
6.349999999999998
 30
0.0
 11
33.87600000000089
 21
6.349999999999998
 31
0.0
  0
ARC
  5
166
330
1F
100
AcDbEntity
  8
0
  6
Continuous
 62
     1
370
    15
100
AcDbCircle
 10
33.87600000000089
 20
-4.826000000000002
 30
0.0
 40
1.524
100
AcDbArc
 50
270.0
 51
0.0
  0
DIMENSION
  5
168
102
{ACAD_REACTORS
102
}
102
{ACAD_XDICTIONARY
360
169
102
}
330
1F
100
AcDbEntity
  8
치수문자_일반주서
100
AcDbDimension
  2
*D7
 10
33.87600000000089
 20
4.825999999999999
 30
0.0
 11
50.59189629119327
 21
21.80872481722149
 31
0.0
 70
   164
  1
<>
 71
     5
 42
1.523999999999996
  3
SLDDIMSTYLE2
100
AcDbRadialDimension
 15
34.94506445088393
 25
5.912129458148581
 35
0.0
 40
0.0
1001
ACAD
1000
DSTYLE
1002
{
1070
   273
1070
     2
1002
}
1001
ACAD_DSTYLE_DIMRADIAL_EXTENSION
1070
   387
1070
     1
1070
   388
1040
0.0
1070
   390
1040
1.570796326794897
  0
ENDSEC
  0
SECTION
  2
OBJECTS
  0
DICTIONARY
  5
C
330
0
100
AcDbDictionary
281
     1
  3
ACAD_GROUP
350
D
  3
ACAD_IMAGE_VARS
350
15F
  3
ACAD_LAYOUT
350
1A
  3
ACAD_MLINESTYLE
350
17
  3
ACAD_PLOTSETTINGS
350
19
  3
ACAD_PLOTSTYLENAME
350
E
  3
ACAD_SCALELIST
350
47
  3
APPDATA
350
15D
  3
DWGPROPS
350
175
  0
DICTIONARY
  5
169
330
168
100
AcDbDictionary
280
     1
281
     1
  0
DICTIONARY
  5
D
102
{ACAD_REACTORS
330
C
102
}
330
C
100
AcDbDictionary
281
     1
  0
RASTERVARIABLES
  5
15F
102
{ACAD_REACTORS
330
C
102
}
330
C
100
AcDbRasterVariables
 90
        0
 70
     1
 71
     1
 72
     1
  0
DICTIONARY
  5
1A
102
{ACAD_REACTORS
330
C
102
}
330
C
100
AcDbDictionary
281
     1
  3
Layout1
350
1E
  3
Layout2
350
26
  3
Model
350
22
  0
DICTIONARY
  5
17
102
{ACAD_REACTORS
330
C
102
}
330
C
100
AcDbDictionary
281
     1
  3
Standard
350
18
  0
DICTIONARY
  5
19
102
{ACAD_REACTORS
330
C
102
}
330
C
100
AcDbDictionary
281
     1
  0
ACDBDICTIONARYWDFLT
  5
E
102
{ACAD_REACTORS
330
C
102
}
330
C
100
AcDbDictionary
281
     1
  3
Normal
350
F
100
AcDbDictionaryWithDefault
340
F
  0
DICTIONARY
  5
47
102
{ACAD_REACTORS
330
C
102
}
330
C
100
AcDbDictionary
281
     1
  3
A0
350
48
  3
A1
350
49
  3
A2
350
4A
  3
A3
350
4B
  3
A4
350
4C
  3
A5
350
4D
  3
A6
350
4E
  3
A7
350
4F
  3
A8
350
50
  3
A9
350
51
  3
B0
350
52
  3
B1
350
53
  3
B2
350
54
  3
B3
350
55
  3
B4
350
56
  3
B5
350
57
  3
B6
350
58
  3
B7
350
59
  3
B8
350
5A
  3
B9
350
5B
  3
C0
350
5C
  3
C1
350
5D
  3
C2
350
5E
  3
C3
350
5F
  3
C4
350
60
  3
C5
350
61
  3
C6
350
62
  3
C7
350
63
  3
C8
350
64
  3
C9
350
65
  3
D0
350
66
  3
D1
350
67
  3
D2
350
68
  0
DICTIONARY
  5
15D
102
{ACAD_REACTORS
330
C
102
}
330
C
100
AcDbDictionary
281
     1
  0
XRECORD
  5
175
102
{ACAD_REACTORS
330
C
102
}
330
C
100
AcDbXrecord
280
     1
  1
DWGPROPS COOKIE
  2

  3

  4

  6

  7

  8
12016016
  9

300
=
301
=
302
=
303
=
304
=
305
=
306
=
307
=
308
=
309
=
 40
0.0
 41
2458236.368833032
 42
2458241.219957153
  1

 90
        0
  0
LAYOUT
  5
1E
102
{ACAD_REACTORS
330
1A
102
}
330
1A
100
AcDbPlotSettings
  1

  2
none_device
  4

  6

 40
0.0
 41
0.0
 42
0.0
 43
0.0
 44
0.0
 45
0.0
 46
0.0
 47
0.0
 48
0.0
 49
0.0
140
0.0
141
0.0
142
1.0
143
1.0
 70
   688
 72
     1
 73
     0
 74
     5
  7

 75
    16
147
1.0
148
0.0
149
0.0
100
AcDbLayout
  1
Layout1
 70
     1
 71
     1
 10
0.0
 20
0.0
 11
420.0
 21
297.0
 12
0.0
 22
0.0
 32
0.0
 14
1.000000000000000E+20
 24
1.000000000000000E+20
 34
1.000000000000000E+20
 15
-1.000000000000000E+20
 25
-1.000000000000000E+20
 35
-1.000000000000000E+20
146
0.0
 13
0.0
 23
0.0
 33
0.0
 16
1.0
 26
0.0
 36
0.0
 17
0.0
 27
1.0
 37
0.0
 76
     0
330
1B
  0
LAYOUT
  5
26
102
{ACAD_REACTORS
330
1A
102
}
330
1A
100
AcDbPlotSettings
  1

  2
none_device
  4

  6

 40
0.0
 41
0.0
 42
0.0
 43
0.0
 44
0.0
 45
0.0
 46
0.0
 47
0.0
 48
0.0
 49
0.0
140
0.0
141
0.0
142
1.0
143
1.0
 70
   688
 72
     1
 73
     0
 74
     5
  7

 75
    16
147
1.0
148
0.0
149
0.0
100
AcDbLayout
  1
Layout2
 70
     1
 71
     2
 10
0.0
 20
0.0
 11
0.0
 21
0.0
 12
0.0
 22
0.0
 32
0.0
 14
0.0
 24
0.0
 34
0.0
 15
0.0
 25
0.0
 35
0.0
146
0.0
 13
0.0
 23
0.0
 33
0.0
 16
1.0
 26
0.0
 36
0.0
 17
0.0
 27
1.0
 37
0.0
 76
     0
330
23
  0
LAYOUT
  5
22
102
{ACAD_REACTORS
330
1A
102
}
330
1A
100
AcDbPlotSettings
  1

  2
none_device
  4
ANSI_A_(11.00_x_8.50_Inches)
  6

 40
6.35
 41
19.05
 42
6.35000508
 43
19.05000254
 44
279.4
 45
215.9
 46
130.0565626932801
 47
90.13476376292553
 48
0.0
 49
0.0
140
0.0
141
0.0
142
0.0822892103079729
143
1.0
 70
  1696
 72
     0
 73
     0
 74
     0
  7

 75
     0
147
0.0235690232323232
148
0.0
149
0.0
100
AcDbLayout
  1
Model
 70
     1
 71
     0
 10
0.0
 20
0.0
 11
420.0
 21
297.0
 12
0.0
 22
0.0
 32
0.0
 14
-58.17499999999917
 24
-49.71142936356763
 34
0.0
 15
60.41269833342595
 25
43.38055141807178
 35
0.0
146
0.0
 13
0.0
 23
0.0
 33
0.0
 16
1.0
 26
0.0
 36
0.0
 17
0.0
 27
1.0
 37
0.0
 76
     0
330
1F
331
29
  0
MLINESTYLE
  5
18
102
{ACAD_REACTORS
330
17
102
}
330
17
100
AcDbMlineStyle
  2
Standard
 70
     0
  3

 62
   256
 51
90.0
 52
90.0
 71
     2
 49
0.5
 62
   256
  6
BYLAYER
 49
-0.5
 62
   256
  6
BYLAYER
  0
ACDBPLACEHOLDER
  5
F
102
{ACAD_REACTORS
330
E
102
}
330
E
  0
SCALE
  5
48
102
{ACAD_REACTORS
330
47
102
}
330
47
100
AcDbScale
 70
     0
300
1:1
140
1.0
141
1.0
290
     1
  0
SCALE
  5
49
102
{ACAD_REACTORS
330
47
102
}
330
47
100
AcDbScale
 70
     0
300
1:2
140
1.0
141
2.0
290
     0
  0
SCALE
  5
4A
102
{ACAD_REACTORS
330
47
102
}
330
47
100
AcDbScale
 70
     0
300
1:4
140
1.0
141
4.0
290
     0
  0
SCALE
  5
4B
102
{ACAD_REACTORS
330
47
102
}
330
47
100
AcDbScale
 70
     0
300
1:5
140
1.0
141
5.0
290
     0
  0
SCALE
  5
4C
102
{ACAD_REACTORS
330
47
102
}
330
47
100
AcDbScale
 70
     0
300
1:8
140
1.0
141
8.0
290
     0
  0
SCALE
  5
4D
102
{ACAD_REACTORS
330
47
102
}
330
47
100
AcDbScale
 70
     0
300
1:10
140
1.0
141
10.0
290
     0
  0
SCALE
  5
4E
102
{ACAD_REACTORS
330
47
102
}
330
47
100
AcDbScale
 70
     0
300
1:16
140
1.0
141
16.0
290
     0
  0
SCALE
  5
4F
102
{ACAD_REACTORS
330
47
102
}
330
47
100
AcDbScale
 70
     0
300
1:20
140
1.0
141
20.0
290
     0
  0
SCALE
  5
50
102
{ACAD_REACTORS
330
47
102
}
330
47
100
AcDbScale
 70
     0
300
1:30
140
1.0
141
30.0
290
     0
  0
SCALE
  5
51
102
{ACAD_REACTORS
330
47
102
}
330
47
100
AcDbScale
 70
     0
300
1:40
140
1.0
141
40.0
290
     0
  0
SCALE
  5
52
102
{ACAD_REACTORS
330
47
102
}
330
47
100
AcDbScale
 70
     0
300
1:50
140
1.0
141
50.0
290
     0
  0
SCALE
  5
53
102
{ACAD_REACTORS
330
47
102
}
330
47
100
AcDbScale
 70
     0
300
1:100
140
1.0
141
100.0
290
     0
  0
SCALE
  5
54
102
{ACAD_REACTORS
330
47
102
}
330
47
100
AcDbScale
 70
     0
300
2:1
140
2.0
141
1.0
290
     0
  0
SCALE
  5
55
102
{ACAD_REACTORS
330
47
102
}
330
47
100
AcDbScale
 70
     0
300
4:1
140
4.0
141
1.0
290
     0
  0
SCALE
  5
56
102
{ACAD_REACTORS
330
47
102
}
330
47
100
AcDbScale
 70
     0
300
8:1
140
8.0
141
1.0
290
     0
  0
SCALE
  5
57
102
{ACAD_REACTORS
330
47
102
}
330
47
100
AcDbScale
 70
     0
300
10:1
140
10.0
141
1.0
290
     0
  0
SCALE
  5
58
102
{ACAD_REACTORS
330
47
102
}
330
47
100
AcDbScale
 70
     0
300
100:1
140
100.0
141
1.0
290
     0
  0
SCALE
  5
59
102
{ACAD_REACTORS
330
47
102
}
330
47
100
AcDbScale
 70
     0
300
1/128" = 1'-0"
140
0.0078125
141
12.0
290
     0
  0
SCALE
  5
5A
102
{ACAD_REACTORS
330
47
102
}
330
47
100
AcDbScale
 70
     0
300
1/64" = 1'-0"
140
0.015625
141
12.0
290
     0
  0
SCALE
  5
5B
102
{ACAD_REACTORS
330
47
102
}
330
47
100
AcDbScale
 70
     0
300
1/32" = 1'-0"
140
0.03125
141
12.0
290
     0
  0
SCALE
  5
5C
102
{ACAD_REACTORS
330
47
102
}
330
47
100
AcDbScale
 70
     0
300
1/16" = 1'-0"
140
0.0625
141
12.0
290
     0
  0
SCALE
  5
5D
102
{ACAD_REACTORS
330
47
102
}
330
47
100
AcDbScale
 70
     0
300
3/32" = 1'-0"
140
0.09375
141
12.0
290
     0
  0
SCALE
  5
5E
102
{ACAD_REACTORS
330
47
102
}
330
47
100
AcDbScale
 70
     0
300
1/8" = 1'-0"
140
0.125
141
12.0
290
     0
  0
SCALE
  5
5F
102
{ACAD_REACTORS
330
47
102
}
330
47
100
AcDbScale
 70
     0
300
3/16" = 1'-0"
140
0.1875
141
12.0
290
     0
  0
SCALE
  5
60
102
{ACAD_REACTORS
330
47
102
}
330
47
100
AcDbScale
 70
     0
300
1/4" = 1'-0"
140
0.25
141
12.0
290
     0
  0
SCALE
  5
61
102
{ACAD_REACTORS
330
47
102
}
330
47
100
AcDbScale
 70
     0
300
3/8" = 1'-0"
140
0.375
141
12.0
290
     0
  0
SCALE
  5
62
102
{ACAD_REACTORS
330
47
102
}
330
47
100
AcDbScale
 70
     0
300
1/2" = 1'-0"
140
0.5
141
12.0
290
     0
  0
SCALE
  5
63
102
{ACAD_REACTORS
330
47
102
}
330
47
100
AcDbScale
 70
     0
300
3/4" = 1'-0"
140
0.75
141
12.0
290
     0
  0
SCALE
  5
64
102
{ACAD_REACTORS
330
47
102
}
330
47
100
AcDbScale
 70
     0
300
1" = 1'-0"
140
1.0
141
12.0
290
     0
  0
SCALE
  5
65
102
{ACAD_REACTORS
330
47
102
}
330
47
100
AcDbScale
 70
     0
300
1-1/2" = 1'-0"
140
1.5
141
12.0
290
     0
  0
SCALE
  5
66
102
{ACAD_REACTORS
330
47
102
}
330
47
100
AcDbScale
 70
     0
300
3" = 1'-0"
140
3.0
141
12.0
290
     0
  0
SCALE
  5
67
102
{ACAD_REACTORS
330
47
102
}
330
47
100
AcDbScale
 70
     0
300
6" = 1'-0"
140
6.0
141
12.0
290
     0
  0
SCALE
  5
68
102
{ACAD_REACTORS
330
47
102
}
330
47
100
AcDbScale
 70
     0
300
1'-0" = 1'-0"
140
12.0
141
12.0
290
     0
  0
ENDSEC
  0
EOF
