  0
SECTION
  2
HEADER
  9
$ACADVER
  1
AC1015
  9
$ACADMAINTVER
 70
     6
  9
$DWGCODEPAGE
  3
ANSI_949
  9
$INSBASE
 10
0.0
 20
0.0
 30
0.0
  9
$EXTMIN
 10
-58.17548592007454
 20
-49.97370379473832
 30
0.0
  9
$EXTMAX
 10
56.07537244419913
 20
43.11827698690109
 30
0.0
  9
$LIMMIN
 10
0.0
 20
0.0
  9
$LIMMAX
 10
420.0
 20
297.0
  9
$ORTHOMODE
 70
     0
  9
$REGENMODE
 70
     1
  9
$FILLMODE
 70
     1
  9
$QTEXTMODE
 70
     0
  9
$MIRRTEXT
 70
     1
  9
$LTSCALE
 40
1.0
  9
$ATTMODE
 70
     1
  9
$TEXTSIZE
 40
3.5
  9
$TRACEWID
 40
1.0
  9
$TEXTSTYLE
  7
Standard
  9
$CLAYER
  8
0
  9
$CELTYPE
  6
ByLayer
  9
$CECOLOR
 62
   256
  9
$CELTSCALE
 40
1.0
  9
$DISPSILH
 70
     0
  9
$DIMSCALE
 40
1.0
  9
$DIMASZ
 40
3.302
  9
$DIMEXO
 40
1.0
  9
$DIMDLI
 40
3.75
  9
$DIMRND
 40
0.0
  9
$DIMDLE
 40
0.0
  9
$DIMEXE
 40
1.0
  9
$DIMTP
 40
0.0
  9
$DIMTM
 40
0.0
  9
$DIMTXT
 40
3.5
  9
$DIMCEN
 40
2.5
  9
$DIMTSZ
 40
0.0
  9
$DIMTOL
 70
     0
  9
$DIMLIM
 70
     0
  9
$DIMTIH
 70
     1
  9
$DIMTOH
 70
     1
  9
$DIMSE1
 70
     0
  9
$DIMSE2
 70
     0
  9
$DIMTAD
 70
     1
  9
$DIMZIN
 70
     0
  9
$DIMBLK
  1

  9
$DIMASO
 70
     1
  9
$DIMSHO
 70
     1
  9
$DIMPOST
  1

  9
$DIMAPOST
  1

  9
$DIMALT
 70
     0
  9
$DIMALTD
 70
     3
  9
$DIMALTF
 40
0.0393700787401575
  9
$DIMLFAC
 40
1.0
  9
$DIMTOFL
 70
     1
  9
$DIMTVP
 40
0.0
  9
$DIMTIX
 70
     0
  9
$DIMSOXD
 70
     0
  9
$DIMSAH
 70
     0
  9
$DIMBLK1
  1

  9
$DIMBLK2
  1

  9
$DIMSTYLE
  2
ISO-25
  9
$DIMCLRD
 70
     0
  9
$DIMCLRE
 70
     0
  9
$DIMCLRT
 70
     0
  9
$DIMTFAC
 40
1.0
  9
$DIMGAP
 40
1.524
  9
$DIMJUST
 70
     0
  9
$DIMSD1
 70
     0
  9
$DIMSD2
 70
     0
  9
$DIMTOLJ
 70
     0
  9
$DIMTZIN
 70
     0
  9
$DIMALTZ
 70
     0
  9
$DIMALTTZ
 70
     0
  9
$DIMUPT
 70
     0
  9
$DIMDEC
 70
     2
  9
$DIMTDEC
 70
     2
  9
$DIMALTU
 70
     2
  9
$DIMALTTD
 70
     3
  9
$DIMTXSTY
  7
Standard
  9
$DIMAUNIT
 70
     0
  9
$DIMADEC
 70
     2
  9
$DIMALTRND
 40
0.0
  9
$DIMAZIN
 70
     0
  9
$DIMDSEP
 70
    44
  9
$DIMATFIT
 70
     3
  9
$DIMFRAC
 70
     0
  9
$DIMLDRBLK
  1

  9
$DIMLUNIT
 70
     2
  9
$DIMLWD
 70
    -2
  9
$DIMLWE
 70
    -2
  9
$DIMTMOVE
 70
     0
  9
$LUNITS
 70
     2
  9
$LUPREC
 70
     2
  9
$SKETCHINC
 40
1.0
  9
$FILLETRAD
 40
10.0
  9
$AUNITS
 70
     0
  9
$AUPREC
 70
     2
  9
$MENU
  1
.
  9
$ELEVATION
 40
0.0
  9
$PELEVATION
 40
0.0
  9
$THICKNESS
 40
0.0
  9
$LIMCHECK
 70
     0
  9
$CHAMFERA
 40
0.0
  9
$CHAMFERB
 40
0.0
  9
$CHAMFERC
 40
0.0
  9
$CHAMFERD
 40
0.0
  9
$SKPOLY
 70
     0
  9
$TDCREATE
 40
2458236.743525
  9
$TDUCREATE
 40
2458236.368525
  9
$TDUPDATE
 40
2458241.598035139
  9
$TDUUPDATE
 40
2458241.223035139
  9
$TDINDWG
 40
0.0018675116
  9
$TDUSRTIMER
 40
2458241.219974213
  9
$USRTIMER
 70
     1
  9
$ANGBASE
 50
0.0
  9
$ANGDIR
 70
     0
  9
$PDMODE
 70
     0
  9
$PDSIZE
 40
-1.0
  9
$PLINEWID
 40
0.0
  9
$SPLFRAME
 70
     0
  9
$SPLINETYPE
 70
     6
  9
$SPLINESEGS
 70
     8
  9
$HANDSEED
  5
173
  9
$SURFTAB1
 70
     6
  9
$SURFTAB2
 70
     6
  9
$SURFTYPE
 70
     6
  9
$SURFU
 70
     6
  9
$SURFV
 70
     6
  9
$UCSBASE
  2

  9
$UCSNAME
  2

  9
$UCSORG
 10
0.0
 20
0.0
 30
0.0
  9
$UCSXDIR
 10
1.0
 20
0.0
 30
0.0
  9
$UCSYDIR
 10
0.0
 20
1.0
 30
0.0
  9
$UCSORTHOREF
  2

  9
$UCSORTHOVIEW
 70
     0
  9
$UCSORGTOP
 10
0.0
 20
0.0
 30
0.0
  9
$UCSORGBOTTOM
 10
0.0
 20
0.0
 30
0.0
  9
$UCSORGLEFT
 10
0.0
 20
0.0
 30
0.0
  9
$UCSORGRIGHT
 10
0.0
 20
0.0
 30
0.0
  9
$UCSORGFRONT
 10
0.0
 20
0.0
 30
0.0
  9
$UCSORGBACK
 10
0.0
 20
0.0
 30
0.0
  9
$PUCSBASE
  2

  9
$PUCSNAME
  2

  9
$PUCSORG
 10
0.0
 20
0.0
 30
0.0
  9
$PUCSXDIR
 10
1.0
 20
0.0
 30
0.0
  9
$PUCSYDIR
 10
0.0
 20
1.0
 30
0.0
  9
$PUCSORTHOREF
  2

  9
$PUCSORTHOVIEW
 70
     0
  9
$PUCSORGTOP
 10
0.0
 20
0.0
 30
0.0
  9
$PUCSORGBOTTOM
 10
0.0
 20
0.0
 30
0.0
  9
$PUCSORGLEFT
 10
0.0
 20
0.0
 30
0.0
  9
$PUCSORGRIGHT
 10
0.0
 20
0.0
 30
0.0
  9
$PUCSORGFRONT
 10
0.0
 20
0.0
 30
0.0
  9
$PUCSORGBACK
 10
0.0
 20
0.0
 30
0.0
  9
$USERI1
 70
     0
  9
$USERI2
 70
     0
  9
$USERI3
 70
     0
  9
$USERI4
 70
     0
  9
$USERI5
 70
     0
  9
$USERR1
 40
0.0
  9
$USERR2
 40
0.0
  9
$USERR3
 40
0.0
  9
$USERR4
 40
0.0
  9
$USERR5
 40
0.0
  9
$WORLDVIEW
 70
     1
  9
$SHADEDGE
 70
     3
  9
$SHADEDIF
 70
    70
  9
$TILEMODE
 70
     1
  9
$MAXACTVP
 70
    64
  9
$PINSBASE
 10
0.0
 20
0.0
 30
0.0
  9
$PLIMCHECK
 70
     0
  9
$PEXTMIN
 10
1.000000000000000E+20
 20
1.000000000000000E+20
 30
1.000000000000000E+20
  9
$PEXTMAX
 10
-1.000000000000000E+20
 20
-1.000000000000000E+20
 30
-1.000000000000000E+20
  9
$PLIMMIN
 10
0.0
 20
0.0
  9
$PLIMMAX
 10
0.0
 20
0.0
  9
$UNITMODE
 70
     0
  9
$VISRETAIN
 70
     1
  9
$PLINEGEN
 70
     0
  9
$PSLTSCALE
 70
     1
  9
$TREEDEPTH
 70
  3020
  9
$CMLSTYLE
  2
Standard
  9
$CMLJUST
 70
     0
  9
$CMLSCALE
 40
20.0
  9
$PROXYGRAPHICS
 70
     1
  9
$MEASUREMENT
 70
     1
  9
$CELWEIGHT
370
    -1
  9
$ENDCAPS
280
     0
  9
$JOINSTYLE
280
     0
  9
$LWDISPLAY
290
     1
  9
$INSUNITS
 70
     4
  9
$HYPERLINKBASE
  1

  9
$STYLESHEET
  1

  9
$XEDIT
290
     1
  9
$CEPSNTYPE
380
     0
  9
$PSTYLEMODE
290
     1
  9
$FINGERPRINTGUID
  2
{C05AF330-21A3-4E4C-93D7-0B2BE1C2C465}
  9
$VERSIONGUID
  2
{FAEB1C32-E019-11D5-929B-00C0DF256EC4}
  9
$EXTNAMES
290
     1
  9
$PSVPSCALE
 40
0.0
  9
$OLESTARTUP
290
     0
  0
ENDSEC
  0
SECTION
  2
CLASSES
  0
CLASS
  1
ACDBDICTIONARYWDFLT
  2
AcDbDictionaryWithDefault
  3
ObjectDBX Classes
 90
        0
280
     0
281
     0
  0
CLASS
  1
VISUALSTYLE
  2
AcDbVisualStyle
  3
ObjectDBX Classes
 90
     4095
280
     0
281
     0
  0
CLASS
  1
MATERIAL
  2
AcDbMaterial
  3
ObjectDBX Classes
 90
     1153
280
     0
281
     0
  0
CLASS
  1
SCALE
  2
AcDbScale
  3
ObjectDBX Classes
 90
     1153
280
     0
281
     0
  0
CLASS
  1
SUN
  2
AcDbSun
  3
SCENEOE
 90
     1153
280
     0
281
     0
  0
CLASS
  1
ACDBPLACEHOLDER
  2
AcDbPlaceHolder
  3
ObjectDBX Classes
 90
        0
280
     0
281
     0
  0
CLASS
  1
LAYOUT
  2
AcDbLayout
  3
ObjectDBX Classes
 90
        0
280
     0
281
     0
  0
CLASS
  1
TABLESTYLE
  2
AcDbTableStyle
  3
ObjectDBX Classes
 90
     4095
280
     0
281
     0
  0
CLASS
  1
MLEADERSTYLE
  2
AcDbMLeaderStyle
  3
ACDB_MLEADERSTYLE_CLASS
 90
     4095
280
     0
281
     0
  0
CLASS
  1
RASTERVARIABLES
  2
AcDbRasterVariables
  3
ISM
 90
        0
280
     0
281
     0
  0
CLASS
  1
DIMASSOC
  2
AcDbDimAssoc
  3
"AcDbDimAssoc|Product Desc:     AcDim ARX App For Dimension|Company:          Autodesk, Inc.|WEB Address:      www.autodesk.com"
 90
        0
280
     0
281
     0
  0
ENDSEC
  0
SECTION
  2
TABLES
  0
TABLE
  2
VPORT
  5
8
330
0
100
AcDbSymbolTable
 70
     1
  0
VPORT
  5
29
330
8
100
AcDbSymbolTableRecord
100
AcDbViewportTableRecord
  2
*Active
 70
     0
 10
0.0
 20
0.0
 11
1.0
 21
1.0
 12
44.05078854247601
 22
15.32550755639791
 13
0.0
 23
0.0
 14
10.0
 24
10.0
 15
10.0
 25
10.0
 16
0.0
 26
0.0
 36
1.0
 17
0.0
 27
0.0
 37
0.0
 40
42.45875087263166
 41
1.321695760598504
 42
50.0
 43
0.0
 44
0.0
 50
0.0
 51
0.0
 71
    16
 72
  2000
 73
     1
 74
     3
 75
     0
 76
     0
 77
     0
 78
     0
281
     0
 65
     1
110
0.0
120
0.0
130
0.0
111
1.0
121
0.0
131
0.0
112
0.0
122
1.0
132
0.0
 79
     0
146
0.0
  0
ENDTAB
  0
TABLE
  2
LTYPE
  5
5
330
0
100
AcDbSymbolTable
 70
     6
  0
LTYPE
  5
14
330
5
100
AcDbSymbolTableRecord
100
AcDbLinetypeTableRecord
  2
ByBlock
 70
     0
  3

 72
    65
 73
     0
 40
0.0
  0
LTYPE
  5
15
330
5
100
AcDbSymbolTableRecord
100
AcDbLinetypeTableRecord
  2
ByLayer
 70
     0
  3

 72
    65
 73
     0
 40
0.0
  0
LTYPE
  5
16
330
5
100
AcDbSymbolTableRecord
100
AcDbLinetypeTableRecord
  2
Continuous
 70
     0
  3
Solid line
 72
    65
 73
     0
 40
0.0
  0
LTYPE
  5
6A
330
5
100
AcDbSymbolTableRecord
100
AcDbLinetypeTableRecord
  2
HIDDEN
 70
     0
  3
Hidden __ __ __ __ __ __ __ __ __ __ __ __ __ __
 72
    65
 73
     2
 40
1.905
 49
1.27
 74
     0
 49
-0.635
 74
     0
  0
LTYPE
  5
6B
330
5
100
AcDbSymbolTableRecord
100
AcDbLinetypeTableRecord
  2
PHANTOM
 70
     0
  3
Phantom ______  __  __  ______  __  __  ______
 72
    65
 73
     6
 40
12.7
 49
6.35
 74
     0
 49
-1.27
 74
     0
 49
1.27
 74
     0
 49
-1.27
 74
     0
 49
1.27
 74
     0
 49
-1.27
 74
     0
  0
LTYPE
  5
6C
330
5
100
AcDbSymbolTableRecord
100
AcDbLinetypeTableRecord
  2
CENTER
 70
     0
  3
Center ____ _ ____ _ ____ _ ____ _ ____ _ ____
 72
    65
 73
     4
 40
10.16
 49
6.35
 74
     0
 49
-1.27
 74
     0
 49
1.27
 74
     0
 49
-1.27
 74
     0
  0
LTYPE
  5
6D
330
5
100
AcDbSymbolTableRecord
100
AcDbLinetypeTableRecord
  2
CENTERX2
 70
     0
  3
Center (2x) ________  __  ________  __  _____
 72
    65
 73
     4
 40
20.32
 49
12.7
 74
     0
 49
-2.54
 74
     0
 49
2.54
 74
     0
 49
-2.54
 74
     0
  0
LTYPE
  5
6E
330
5
100
AcDbSymbolTableRecord
100
AcDbLinetypeTableRecord
  2
DOT2
 70
     0
  3
Dot (.5x) ........................................
 72
    65
 73
     2
 40
0.635
 49
0.0
 74
     0
 49
-0.635
 74
     0
  0
ENDTAB
  0
TABLE
  2
LAYER
  5
2
330
0
100
AcDbSymbolTable
 70
    17
  0
LAYER
  5
10
330
2
100
AcDbSymbolTableRecord
100
AcDbLayerTableRecord
  2
0
 70
     0
 62
     7
  6
Continuous
370
    -3
390
F
  0
LAYER
  5
6F
330
2
100
AcDbSymbolTableRecord
100
AcDbLayerTableRecord
  2
FORMAT
 70
     0
 62
     2
  6
Continuous
370
    -3
390
F
  0
LAYER
  5
70
330
2
100
AcDbSymbolTableRecord
100
AcDbLayerTableRecord
  2
외형선
 70
     0
 62
   100
  6
Continuous
370
    30
390
F
  0
LAYER
  5
71
330
2
100
AcDbSymbolTableRecord
100
AcDbLayerTableRecord
  2
숨은선
 70
     0
 62
     2
  6
HIDDEN
370
    15
390
F
  0
LAYER
  5
72
330
2
100
AcDbSymbolTableRecord
100
AcDbLayerTableRecord
  2
중심선
 70
     0
 62
     1
  6
CENTERX2
370
    -3
390
F
  0
LAYER
  5
73
330
2
100
AcDbSymbolTableRecord
100
AcDbLayerTableRecord
  2
파단선
 70
     0
 62
     4
  6
Continuous
370
    -3
390
F
  0
LAYER
  5
74
330
2
100
AcDbSymbolTableRecord
100
AcDbLayerTableRecord
  2
해칭선
 70
     0
 62
     4
  6
Continuous
370
    -3
390
F
  0
LAYER
  5
75
330
2
100
AcDbSymbolTableRecord
100
AcDbLayerTableRecord
  2
가는실선
 70
     0
 62
     4
  6
Continuous
370
    -3
390
F
  0
LAYER
  5
76
330
2
100
AcDbSymbolTableRecord
100
AcDbLayerTableRecord
  2
치수_보조선
 70
     0
 62
     4
  6
Continuous
370
    -3
390
F
  0
LAYER
  5
77
330
2
100
AcDbSymbolTableRecord
100
AcDbLayerTableRecord
  2
치수문자_일반주서
 70
     0
 62
     7
  6
Continuous
370
    15
390
F
  0
LAYER
  5
78
330
2
100
AcDbSymbolTableRecord
100
AcDbLayerTableRecord
  2
개별주서
 70
     0
 62
   100
  6
Continuous
370
    30
390
F
  0
LAYER
  5
79
330
2
100
AcDbSymbolTableRecord
100
AcDbLayerTableRecord
  2
중간선
 70
     0
 62
     2
  6
Continuous
370
    15
390
F
  0
LAYER
  5
7A
330
2
100
AcDbSymbolTableRecord
100
AcDbLayerTableRecord
  2
윤곽선
 70
     0
 62
     3
  6
Continuous
370
    40
390
F
  0
LAYER
  5
7B
330
2
100
AcDbSymbolTableRecord
100
AcDbLayerTableRecord
  2
중심마크
 70
     0
 62
   100
  6
Continuous
370
    30
390
F
  0
LAYER
  5
7C
330
2
100
AcDbSymbolTableRecord
100
AcDbLayerTableRecord
  2
가상선
 70
     0
 62
     4
  6
PHANTOM
370
    -3
390
F
  0
LAYER
  5
7D
330
2
100
AcDbSymbolTableRecord
100
AcDbLayerTableRecord
  2
특수지정선
 70
     0
 62
     5
  6
CENTERX2
370
    60
390
F
  0
LAYER
  5
161
330
2
100
AcDbSymbolTableRecord
100
AcDbLayerTableRecord
  2
Defpoints
 70
     0
 62
     7
  6
Continuous
290
     0
370
    -3
390
F
  0
ENDTAB
  0
TABLE
  2
STYLE
  5
3
330
0
100
AcDbSymbolTable
 70
     2
  0
STYLE
  5
11
330
3
100
AcDbSymbolTableRecord
100
AcDbTextStyleTableRecord
  2
Standard
 70
     0
 40
0.0
 41
1.0
 50
0.0
 71
     0
 42
3.5
  3
txt
  4

  0
STYLE
  5
93
330
3
100
AcDbSymbolTableRecord
100
AcDbTextStyleTableRecord
  2
SLDTEXTSTYLE0
 70
     0
 40
0.0
 41
0.75
 50
0.0
 71
     0
 42
3.5
  3
TXT
  4

  0
ENDTAB
  0
TABLE
  2
VIEW
  5
6
330
0
100
AcDbSymbolTable
 70
     0
  0
ENDTAB
  0
TABLE
  2
UCS
  5
7
330
0
100
AcDbSymbolTable
 70
     0
  0
ENDTAB
  0
TABLE
  2
APPID
  5
9
330
0
100
AcDbSymbolTable
 70
     2
  0
APPID
  5
12
330
9
100
AcDbSymbolTableRecord
100
AcDbRegAppTableRecord
  2
ACAD
 70
     0
  0
APPID
  5
164
330
9
100
AcDbSymbolTableRecord
100
AcDbRegAppTableRecord
  2
ACAD_DSTYLE_DIMRADIAL_EXTENSION
 70
     0
  0
ENDTAB
  0
TABLE
  2
DIMSTYLE
  5
A
330
0
100
AcDbSymbolTable
 70
     4
100
AcDbDimStyleTable
  0
DIMSTYLE
105
27
330
A
100
AcDbSymbolTableRecord
100
AcDbDimStyleTableRecord
  2
ISO-25
 70
     0
 41
2.5
 42
0.625
 43
3.75
 44
1.25
 73
     0
 74
     0
 77
     1
 78
     8
140
2.5
141
2.5
143
0.03937007874016
147
0.625
171
     3
172
     1
178
     0
271
     2
272
     2
274
     3
278
    44
283
     0
284
     8
340
11
  0
DIMSTYLE
105
E3
102
{ACAD_REACTORS
330
E2
102
}
330
A
100
AcDbSymbolTableRecord
100
AcDbDimStyleTableRecord
  2
SLDDIMSTYLE0
 70
     0
 41
3.302
 44
0.0
 45
0.000000001
 73
     0
 74
     0
 77
     1
 78
    12
 79
     3
140
3.5
143
0.0393700787401575
147
0.875
148
0.000000001
170
     1
172
     1
173
     1
178
     0
271
     2
272
     2
276
     2
284
    12
289
     0
340
93
  0
DIMSTYLE
105
F8
102
{ACAD_REACTORS
330
F7
102
}
330
A
100
AcDbSymbolTableRecord
100
AcDbDimStyleTableRecord
  2
SLDDIMSTYLE1
 70
     0
 41
3.302
 44
0.0
 45
0.000000001
 73
     0
 74
     0
 77
     1
 78
     4
 79
     1
140
3.5
143
0.0393700787401575
147
0.875
148
0.000000001
170
     1
173
     1
178
     0
271
     2
272
     2
276
     2
284
    12
340
93
  0
DIMSTYLE
105
10C
102
{ACAD_REACTORS
330
10B
330
121
330
165
102
}
330
A
100
AcDbSymbolTableRecord
100
AcDbDimStyleTableRecord
  2
SLDDIMSTYLE2
 70
     0
 41
3.302
 44
0.0
 45
0.000000001
 73
     0
 74
     0
 77
     1
 78
     4
 79
     1
140
3.5
143
0.0393700787401575
147
0.875
148
0.000000001
170
     1
172
     1
173
     1
178
     0
271
     2
272
     2
276
     2
284
    12
289
     0
340
93
  0
ENDTAB
  0
TABLE
  2
BLOCK_RECORD
  5
1
330
0
100
AcDbSymbolTable
 70
     8
  0
BLOCK_RECORD
  5
1F
330
1
100
AcDbSymbolTableRecord
100
AcDbBlockTableRecord
  2
*Model_Space
340
22
  0
BLOCK_RECORD
  5
1B
330
1
100
AcDbSymbolTableRecord
100
AcDbBlockTableRecord
  2
*Paper_Space
340
1E
  0
BLOCK_RECORD
  5
23
330
1
100
AcDbSymbolTableRecord
100
AcDbBlockTableRecord
  2
*Paper_Space0
340
26
  0
BLOCK_RECORD
  5
7E
330
1
100
AcDbSymbolTableRecord
100
AcDbBlockTableRecord
  2
블럭10
340
0
102
{BLKREFS
331
DA
102
}
  0
BLOCK_RECORD
  5
E4
330
1
100
AcDbSymbolTableRecord
100
AcDbBlockTableRecord
  2
_D
340
0
  0
BLOCK_RECORD
  5
F9
330
1
100
AcDbSymbolTableRecord
100
AcDbBlockTableRecord
  2
_D_1
340
0
  0
BLOCK_RECORD
  5
10D
330
1
100
AcDbSymbolTableRecord
100
AcDbBlockTableRecord
  2
_D_2
340
0
  0
BLOCK_RECORD
  5
122
330
1
100
AcDbSymbolTableRecord
100
AcDbBlockTableRecord
  2
_D_3
340
0
  0
BLOCK_RECORD
  5
135
330
1
100
AcDbSymbolTableRecord
100
AcDbBlockTableRecord
  2
SW_DOWELSYMBOL_0
340
0
102
{BLKREFS
331
13B
102
}
  0
BLOCK_RECORD
  5
168
330
1
100
AcDbSymbolTableRecord
100
AcDbBlockTableRecord
  2
*D7
340
0
  0
ENDTAB
  0
ENDSEC
  0
SECTION
  2
BLOCKS
  0
BLOCK
  5
20
330
1F
100
AcDbEntity
  8
0
100
AcDbBlockBegin
  2
*Model_Space
 70
     0
 10
0.0
 20
0.0
 30
0.0
  3
*Model_Space
  1
*Model_Space
  0
ENDBLK
  5
21
330
1F
100
AcDbEntity
  8
0
100
AcDbBlockEnd
  0
BLOCK
  5
1C
330
1B
100
AcDbEntity
 67
     1
  8
0
100
AcDbBlockBegin
  2
*Paper_Space
 70
     0
 10
0.0
 20
0.0
 30
0.0
  3
*Paper_Space
  1
*Paper_Space
  0
ENDBLK
  5
1D
330
1B
100
AcDbEntity
 67
     1
  8
0
100
AcDbBlockEnd
  0
BLOCK
  5
24
330
23
100
AcDbEntity
  8
0
100
AcDbBlockBegin
  2
*Paper_Space0
 70
     0
 10
0.0
 20
0.0
 30
0.0
  3
*Paper_Space0
  1
*Paper_Space0
  0
ENDBLK
  5
25
330
23
100
AcDbEntity
  8
0
100
AcDbBlockEnd
  0
BLOCK
  5
7F
330
7E
100
AcDbEntity
  8
0
100
AcDbBlockBegin
  2
블럭10
 70
     2
 10
0.0
 20
0.0
 30
0.0
  3
블럭10
  1
블럭10
  0
ELLIPSE
  5
81
330
7E
100
AcDbEntity
  8
중심선
100
AcDbEllipse
 10
20.54032771741204
 20
12.0471743016438
 30
0.0
 11
6.600054785286829
 21
-1.261213355974178E-13
 31
0.0
210
0.0
220
0.0
230
1.0
 40
0.636358354079598
 41
0.9219305317359503
 42
6.513795318482858
  0
ELLIPSE
  5
82
330
7E
100
AcDbEntity
  8
중심선
100
AcDbEllipse
 10
20.54032771746488
 20
12.04717430159265
 30
0.0
 11
3.960054785062283
 21
1.540847449632565E-10
 31
0.0
210
0.0
220
0.0
230
1.0
 40
0.3939339440162632
 41
1.131841032648279
 42
5.62031148352944
  0
LINE
  5
83
330
7E
100
AcDbEntity
  8
중심선
100
AcDbLine
 10
2.268634060543552
 20
16.24717430164393
 30
0.0
 11
5.714909304380834
 21
16.24717430164393
 31
0.0
  0
LINE
  5
84
330
7E
100
AcDbEntity
  8
중심선
100
AcDbLine
 10
5.245725140726316
 20
7.84717430164391
 30
0.0
 11
8.692000384563599
 21
7.84717430164391
 31
0.0
  0
LINE
  5
85
330
7E
100
AcDbEntity
  8
중심선
100
AcDbLine
 10
15.74043728645272
 20
16.24717430164393
 30
0.0
 11
8.692000384563599
 21
7.84717430164391
 31
0.0
  0
LINE
  5
86
330
7E
100
AcDbEntity
  8
중심선
100
AcDbLine
 10
0.1404042013395286
 20
13.71084872107135
 30
0.0
 11
3.58671253028996
 21
13.71088815037384
 31
0.0
  0
LINE
  5
87
330
7E
100
AcDbEntity
  8
중심선
100
AcDbLine
 10
2.750260043222114
 20
10.84717430164391
 30
0.0
 11
6.196535287059397
 21
10.84717430164391
 31
0.0
  0
LINE
  5
88
330
7E
100
AcDbEntity
  8
중심선
100
AcDbLine
 10
12.29416204261559
 20
16.24717430164393
 30
0.0
 11
5.245725140726316
 21
7.84717430164391
 31
0.0
  0
LINE
  5
89
330
7E
100
AcDbEntity
  8
중심선
100
AcDbLine
 10
10.72767329541681
 20
16.24717430164393
 30
0.0
 11
6.196535287059397
 21
10.84717430164391
 31
0.0
  0
LINE
  5
8A
330
7E
100
AcDbEntity
  8
중심선
100
AcDbLine
 10
7.28139805157953
 20
16.24717430164393
 30
0.0
 11
2.750260043222114
 21
10.84717430164391
 31
0.0
  0
LINE
  5
8B
330
7E
100
AcDbEntity
  8
중심선
100
AcDbLine
 10
5.714909304380834
 20
16.24717430164393
 30
0.0
 11
3.58671253028996
 21
13.71088815037384
 31
0.0
  0
LINE
  5
8C
330
7E
100
AcDbEntity
  8
중심선
100
AcDbLine
 10
2.268634060543552
 20
16.24717430164393
 30
0.0
 11
0.1404042013395286
 21
13.71084872107135
 31
0.0
  0
LINE
  5
8D
330
7E
100
AcDbEntity
  8
중심선
100
AcDbLine
 10
7.28139805157953
 20
16.24717430164393
 30
0.0
 11
10.72767329541681
 21
16.24717430164393
 31
0.0
  0
LINE
  5
8E
330
7E
100
AcDbEntity
  8
중심선
100
AcDbLine
 10
12.29416204261559
 20
16.24717430164393
 30
0.0
 11
15.74043728645272
 21
16.24717430164393
 31
0.0
  0
LINE
  5
8F
330
7E
100
AcDbEntity
  8
중심선
100
AcDbLine
 10
19.22036997980202
 20
11.08717430171403
 30
0.0
 11
23.66174974927406
 21
11.08717430171406
 31
0.0
  0
LINE
  5
90
330
7E
100
AcDbEntity
  8
중심선
100
AcDbLine
 10
19.22039502424796
 20
13.00717430171391
 30
0.0
 11
19.22036997980202
 21
11.08717430171403
 31
0.0
  0
LINE
  5
91
330
7E
100
AcDbEntity
  8
중심선
100
AcDbLine
 10
19.22039502424796
 20
13.00717430171391
 30
0.0
 11
26.96566020931264
 21
13.00717430171391
 31
0.0
  0
LINE
  5
92
330
7E
100
AcDbEntity
  8
중심선
100
AcDbLine
 10
22.22332737316547
 20
13.45928029700563
 30
0.0
 11
24.52862924686651
 21
15.39360700705356
 31
0.0
  0
ATTDEF
  5
94
330
7E
100
AcDbEntity
  8
FORMAT
 62
     2
100
AcDbText
 10
-11.05102035218446
 20
2.075366912832191
 30
0.0
 40
4.233333333333333
  1
GMG22917[ 6 FLUTE ]
 41
0.75
  7
SLDTEXTSTYLE0
 11
-11.05102035218446
 21
-0.0412997538344756
 31
0.0
100
AcDbAttributeDefinition
  3

  2
AUTOATTR0
 70
     0
 74
     1
  0
ENDBLK
  5
80
330
7E
100
AcDbEntity
  8
0
100
AcDbBlockEnd
  0
BLOCK
  5
E5
330
E4
100
AcDbEntity
  8
0
100
AcDbBlockBegin
  2
_D
 70
     0
 10
0.0
 20
0.0
 30
0.0
  3
_D
  1
_D
  0
LINE
  5
E7
330
E4
100
AcDbEntity
  8
치수문자_일반주서
 62
     0
370
    -2
100
AcDbLine
 10
33.93801407992552
 20
-6.612274431170686
 30
0.0
 11
52.45825979569853
 21
-6.612274431170617
 31
0.0
  0
LINE
  5
E8
330
E4
100
AcDbEntity
  8
치수문자_일반주서
 62
     0
370
    -2
100
AcDbLine
 10
33.87551407992552
 20
6.087725568829312
 30
0.0
 11
52.45825979569849
 21
6.087725568829383
 31
0.0
  0
LINE
  5
E9
330
E4
100
AcDbEntity
  8
치수문자_일반주서
 62
     0
370
    -2
100
AcDbLine
 10
52.45825979569852
 20
-3.310274431170617
 30
0.0
 11
52.4582597956985
 21
2.785725568829383
 31
0.0
  0
SOLID
  5
EA
330
E4
100
AcDbEntity
  8
치수문자_일반주서
 62
     0
100
AcDbTrace
 10
51.90792646236518
 20
-3.310274431170619
 30
0.0
 11
53.00859312903185
 21
-3.310274431170615
 31
0.0
 12
52.45825979569853
 22
-6.612274431170617
 32
0.0
 13
52.45825979569853
 23
-6.612274431170617
 33
0.0
  0
SOLID
  5
EB
330
E4
100
AcDbEntity
  8
치수문자_일반주서
 62
     0
100
AcDbTrace
 10
53.00859312903184
 20
2.785725568829385
 30
0.0
 11
51.90792646236517
 21
2.785725568829381
 31
0.0
 12
52.45825979569849
 22
6.087725568829383
 32
0.0
 13
52.45825979569849
 23
6.087725568829383
 33
0.0
  0
MTEXT
  5
EC
330
E4
100
AcDbEntity
  8
치수문자_일반주서
 62
     0
100
AcDbMText
 10
48.0832597956985
 20
2.416171784175767
 30
0.0
 40
3.5
 41
0.0
 71
     2
 72
     1
  1
\A1;%%c12.7 [1/2]
  7
SLDTEXTSTYLE0
 11
-3.356894814614647E-15
 21
1.0
 31
0.0
 73
     1
 44
1.0
  0
POINT
  5
ED
330
E4
100
AcDbEntity
  8
Defpoints
 62
     0
100
AcDbPoint
 10
33.87551407992552
 20
-6.612274431170686
 30
0.0
  0
POINT
  5
EE
330
E4
100
AcDbEntity
  8
Defpoints
 62
     0
100
AcDbPoint
 10
33.81301407992552
 20
6.087725568829312
 30
0.0
  0
POINT
  5
EF
330
E4
100
AcDbEntity
  8
Defpoints
 62
     0
100
AcDbPoint
 10
52.45825979569849
 20
6.087725568829382
 30
0.0
  0
ENDBLK
  5
E6
330
E4
100
AcDbEntity
  8
0
100
AcDbBlockEnd
  0
BLOCK
  5
FA
330
F9
100
AcDbEntity
  8
0
100
AcDbBlockBegin
  2
_D_1
 70
     0
 10
0.0
 20
0.0
 30
0.0
  3
_D_1
  1
_D_1
  0
LINE
  5
FC
330
F9
100
AcDbEntity
  8
치수문자_일반주서
 62
     0
370
    -2
100
AcDbLine
 10
-40.80048592007449
 20
5.650225568829308
 30
0.0
 11
-40.80048592007449
 21
38.74327698690109
 31
0.0
  0
LINE
  5
FD
330
F9
100
AcDbEntity
  8
치수문자_일반주서
 62
     0
370
    -2
100
AcDbLine
 10
35.39951407992552
 20
4.626225568829313
 30
0.0
 11
35.39951407992552
 21
38.74327698690109
 31
0.0
  0
LINE
  5
FE
330
F9
100
AcDbEntity
  8
치수문자_일반주서
 62
     0
370
    -2
100
AcDbLine
 10
-37.49848592007449
 20
38.74327698690109
 30
0.0
 11
32.09751407992552
 21
38.74327698690109
 31
0.0
  0
SOLID
  5
FF
330
F9
100
AcDbEntity
  8
치수문자_일반주서
 62
     0
100
AcDbTrace
 10
-37.49848592007449
 20
39.29361032023443
 30
0.0
 11
-37.49848592007449
 21
38.19294365356776
 31
0.0
 12
-40.80048592007449
 22
38.74327698690109
 32
0.0
 13
-40.80048592007449
 23
38.74327698690109
 33
0.0
  0
SOLID
  5
100
330
F9
100
AcDbEntity
  8
치수문자_일반주서
 62
     0
100
AcDbTrace
 10
32.09751407992552
 20
38.19294365356776
 30
0.0
 11
32.09751407992552
 21
39.29361032023443
 31
0.0
 12
35.39951407992552
 22
38.74327698690109
 32
0.0
 13
35.39951407992552
 23
38.74327698690109
 33
0.0
  0
MTEXT
  5
101
330
F9
100
AcDbEntity
  8
치수문자_일반주서
 62
     0
100
AcDbMText
 10
-2.700485920074479
 20
43.11827698690109
 30
0.0
 40
3.5
 41
0.0
 71
     2
 72
     1
  1
\A1;76.20 [3]
  7
SLDTEXTSTYLE0
 73
     1
 44
1.0
  0
POINT
  5
102
330
F9
100
AcDbEntity
  8
Defpoints
 62
     0
100
AcDbPoint
 10
-40.80048592007449
 20
5.587725568829308
 30
0.0
  0
POINT
  5
103
330
F9
100
AcDbEntity
  8
Defpoints
 62
     0
100
AcDbPoint
 10
35.39951407992552
 20
4.563725568829313
 30
0.0
  0
POINT
  5
104
330
F9
100
AcDbEntity
  8
Defpoints
 62
     0
100
AcDbPoint
 10
35.39951407992552
 20
38.74327698690109
 30
0.0
  0
ENDBLK
  5
FB
330
F9
100
AcDbEntity
  8
0
100
AcDbBlockEnd
  0
BLOCK
  5
10E
330
10D
100
AcDbEntity
  8
0
100
AcDbBlockBegin
  2
_D_2
 70
     0
 10
0.0
 20
0.0
 30
0.0
  3
_D_2
  1
_D_2
  0
LINE
  5
110
330
10D
100
AcDbEntity
  8
치수문자_일반주서
 62
     0
370
    -2
100
AcDbLine
 10
35.39951407992552
 20
4.626225568829313
 30
0.0
 11
35.39951407992552
 21
22.19072009916725
 31
0.0
  0
LINE
  5
111
330
10D
100
AcDbEntity
  8
치수문자_일반주서
 62
     0
370
    -2
100
AcDbLine
 10
9.999514079925467
 20
-6.303343635559929
 30
0.0
 11
9.999514079925467
 21
22.19072009916725
 31
0.0
  0
LINE
  5
112
330
10D
100
AcDbEntity
  8
치수문자_일반주서
 62
     0
370
    -2
100
AcDbLine
 10
32.09751407992552
 20
22.19072009916725
 30
0.0
 11
13.30151407992547
 21
22.19072009916725
 31
0.0
  0
SOLID
  5
113
330
10D
100
AcDbEntity
  8
치수문자_일반주서
 62
     0
100
AcDbTrace
 10
32.09751407992552
 20
21.64038676583391
 30
0.0
 11
32.09751407992552
 21
22.74105343250058
 31
0.0
 12
35.39951407992552
 22
22.19072009916725
 32
0.0
 13
35.39951407992552
 23
22.19072009916725
 33
0.0
  0
SOLID
  5
114
330
10D
100
AcDbEntity
  8
치수문자_일반주서
 62
     0
100
AcDbTrace
 10
13.30151407992547
 20
22.74105343250058
 30
0.0
 11
13.30151407992547
 21
21.64038676583391
 31
0.0
 12
9.999514079925467
 22
22.19072009916725
 32
0.0
 13
9.999514079925467
 23
22.19072009916725
 33
0.0
  0
MTEXT
  5
115
330
10D
100
AcDbEntity
  8
치수문자_일반주서
 62
     0
100
AcDbMText
 10
22.420115211827
 20
26.56572009916725
 30
0.0
 40
3.5
 41
0.0
 71
     2
 72
     1
  1
\A1;25.40 [1]
  7
SLDTEXTSTYLE0
 73
     1
 44
1.0
  0
POINT
  5
116
330
10D
100
AcDbEntity
  8
Defpoints
 62
     0
100
AcDbPoint
 10
35.39951407992552
 20
4.563725568829313
 30
0.0
  0
POINT
  5
117
330
10D
100
AcDbEntity
  8
Defpoints
 62
     0
100
AcDbPoint
 10
9.999514079925467
 20
-6.365843635559929
 30
0.0
  0
POINT
  5
118
330
10D
100
AcDbEntity
  8
Defpoints
 62
     0
100
AcDbPoint
 10
9.999514079925467
 20
22.19072009916725
 30
0.0
  0
ENDBLK
  5
10F
330
10D
100
AcDbEntity
  8
0
100
AcDbBlockEnd
  0
BLOCK
  5
123
330
122
100
AcDbEntity
  8
0
100
AcDbBlockBegin
  2
_D_3
 70
     0
 10
0.0
 20
0.0
 30
0.0
  3
_D_3
  1
_D_3
  0
LINE
  5
125
330
122
100
AcDbEntity
  8
치수문자_일반주서
 62
     0
370
    -2
100
AcDbLine
 10
-40.36298592007449
 20
6.08772556882931
 30
0.0
 11
-53.80048592007452
 21
6.087725568829261
 31
0.0
  0
LINE
  5
126
330
122
100
AcDbEntity
  8
치수문자_일반주서
 62
     0
370
    -2
100
AcDbLine
 10
-40.36298592007449
 20
-6.61227443117069
 30
0.0
 11
-53.80048592007448
 21
-6.612274431170738
 31
0.0
  0
LINE
  5
127
330
122
100
AcDbEntity
  8
치수문자_일반주서
 62
     0
370
    -2
100
AcDbLine
 10
-53.80048592007451
 20
2.785725568829261
 30
0.0
 11
-53.80048592007449
 21
-3.310274431170739
 31
0.0
  0
SOLID
  5
128
330
122
100
AcDbEntity
  8
치수문자_일반주서
 62
     0
100
AcDbTrace
 10
-53.25015258674117
 20
2.785725568829263
 30
0.0
 11
-54.35081925340784
 21
2.785725568829259
 31
0.0
 12
-53.80048592007452
 22
6.087725568829261
 32
0.0
 13
-53.80048592007452
 23
6.087725568829261
 33
0.0
  0
SOLID
  5
129
330
122
100
AcDbEntity
  8
치수문자_일반주서
 62
     0
100
AcDbTrace
 10
-54.35081925340783
 20
-3.310274431170741
 30
0.0
 11
-53.25015258674116
 21
-3.310274431170737
 31
0.0
 12
-53.80048592007448
 22
-6.612274431170738
 32
0.0
 13
-53.80048592007448
 23
-6.612274431170738
 33
0.0
  0
MTEXT
  5
12A
330
122
100
AcDbEntity
  8
치수문자_일반주서
 62
     0
100
AcDbMText
 10
-58.1754859200745
 20
-0.2622744311707063
 30
0.0
 40
3.5
 41
0.0
 71
     2
 72
     1
  1
\A1;%%c12.70 [1/2]
  7
SLDTEXTSTYLE0
 11
-3.356894814614647E-15
 21
1.0
 31
0.0
 73
     1
 44
1.0
  0
POINT
  5
12B
330
122
100
AcDbEntity
  8
Defpoints
 62
     0
100
AcDbPoint
 10
-40.30048592007449
 20
6.08772556882931
 30
0.0
  0
POINT
  5
12C
330
122
100
AcDbEntity
  8
Defpoints
 62
     0
100
AcDbPoint
 10
-40.30048592007449
 20
-6.61227443117069
 30
0.0
  0
POINT
  5
12D
330
122
100
AcDbEntity
  8
Defpoints
 62
     0
100
AcDbPoint
 10
-53.8004859200745
 20
-6.612274431170737
 30
0.0
  0
ENDBLK
  5
124
330
122
100
AcDbEntity
  8
0
100
AcDbBlockEnd
  0
BLOCK
  5
136
330
135
100
AcDbEntity
  8
0
100
AcDbBlockBegin
  2
SW_DOWELSYMBOL_0
 70
     0
 10
0.0
 20
0.0
 30
0.0
  3
SW_DOWELSYMBOL_0
  1
SW_DOWELSYMBOL_0
  0
CIRCLE
  5
138
330
135
100
AcDbEntity
  8
외형선
 62
     0
100
AcDbCircle
 10
0.0
 20
0.0
 30
0.0
 40
3.000000000000004
  0
HATCH
  5
139
330
135
100
AcDbEntity
  8
0
  6
Continuous
 62
     0
370
    30
100
AcDbHatch
 10
0.0
 20
0.0
 30
0.0
210
0.0
220
0.0
230
1.0
  2
SOLID
 70
     1
 71
     0
 91
        1
 92
        0
 93
        3
 72
     2
 10
0.0
 20
0.0
 40
3.000000000000004
 50
0.0
 51
90.0
 73
     1
 72
     1
 10
0.0
 20
3.000000000000004
 11
0.0
 21
0.0
 72
     1
 10
0.0
 20
0.0
 11
3.000000000000006
 21
0.0
 97
        0
 75
     0
 76
     1
 98
        1
 10
0.0
 20
0.0
  0
HATCH
  5
13A
330
135
100
AcDbEntity
  8
0
  6
Continuous
 62
     0
370
    30
100
AcDbHatch
 10
0.0
 20
0.0
 30
0.0
210
0.0
220
0.0
230
1.0
  2
SOLID
 70
     1
 71
     0
 91
        1
 92
        0
 93
        3
 72
     2
 10
0.0
 20
0.0
 40
3.000000000000004
 50
180.0
 51
270.0000000000008
 73
     1
 72
     1
 10
0.0
 20
-3.000000000000004
 11
0.0
 21
0.0
 72
     1
 10
0.0
 20
0.0
 11
-3.000000000000006
 21
0.0
 97
        0
 75
     0
 76
     1
 98
        1
 10
0.0
 20
0.0
  0
ENDBLK
  5
137
330
135
100
AcDbEntity
  8
0
100
AcDbBlockEnd
  0
BLOCK
  5
169
330
168
100
AcDbEntity
  8
0
100
AcDbBlockBegin
  2
*D7
 70
     1
 10
0.0
 20
0.0
 30
0.0
  3
*D7
  1
*D7
  0
LINE
  5
16B
330
168
100
AcDbEntity
  8
치수문자_일반주서
 62
     0
370
    -2
100
AcDbLine
 10
37.1969103689594
 20
8.482557308988989
 30
0.0
 11
56.07537244419913
 21
31.767786149816
 31
0.0
  0
MTEXT
  5
16C
330
168
100
AcDbEntity
  8
치수문자_일반주서
 62
     0
100
AcDbMText
 10
45.77055954767135
 20
23.2257090506817
 30
0.0
 40
3.5
 41
0.0
 71
     5
 72
     1
  1
\A1;R.76 [R0.03]
  7
SLDTEXTSTYLE0
 11
0.6297727089158185
 21
0.7767794636219677
 31
0.0
 73
     1
 44
1.0
  0
LINE
  5
16D
330
168
100
AcDbEntity
  8
치수문자_일반주서
 62
     0
370
    -2
100
AcDbLine
 10
34.63751407992552
 20
5.325725568829313
 30
0.0
 11
35.11740088411937
 21
5.917631520109252
 31
0.0
  0
SOLID
  5
16E
330
168
100
AcDbEntity
  8
치수문자_일반주서
 62
     0
100
AcDbTrace
 10
36.76942273747945
 20
8.829142223128994
 30
0.0
 11
37.62439800043936
 21
8.135972394848984
 31
0.0
 12
35.11740088411937
 22
5.917631520109252
 32
0.0
 13
35.11740088411937
 23
5.917631520109252
 33
0.0
  0
POINT
  5
16F
330
168
100
AcDbEntity
  8
Defpoints
 62
     0
100
AcDbPoint
 10
35.11740088411937
 20
5.917631520109252
 30
0.0
  0
POINT
  5
170
330
168
100
AcDbEntity
  8
Defpoints
 62
     0
100
AcDbPoint
 10
34.63751407992552
 20
5.325725568829313
 30
0.0
  0
ENDBLK
  5
16A
330
168
100
AcDbEntity
  8
0
100
AcDbBlockEnd
  0
ENDSEC
  0
SECTION
  2
ENTITIES
  0
LINE
  5
95
330
1F
100
AcDbEntity
  8
0
  6
Continuous
 62
     4
370
    15
100
AcDbLine
 10
8.251929242132281
 20
6.087725568829312
 30
0.0
 11
-40.30048592007449
 21
6.08772556882931
 31
0.0
  0
LINE
  5
96
330
1F
100
AcDbEntity
  8
0
  6
Continuous
 62
     4
370
    15
100
AcDbLine
 10
-40.30048592007449
 20
-6.61227443117069
 30
0.0
 11
8.251929242132295
 21
-6.612274431170687
 31
0.0
  0
LINE
  5
97
330
1F
100
AcDbEntity
  8
0
  6
Continuous
 62
     4
370
    15
100
AcDbLine
 10
-40.30048592007449
 20
6.087725568829307
 30
0.0
 11
-40.80048592007449
 21
5.587725568829308
 31
0.0
  0
LINE
  5
98
330
1F
100
AcDbEntity
  8
0
  6
Continuous
 62
     4
370
    15
100
AcDbLine
 10
-40.80048592007449
 20
-6.11227443117069
 30
0.0
 11
-40.30048592007449
 21
-6.612274431170687
 31
0.0
  0
LINE
  5
99
330
1F
100
AcDbEntity
  8
0
  6
Continuous
 62
     1
370
    15
100
AcDbLine
 10
21.52418532175243
 20
6.087725568829312
 30
0.0
 11
19.35174515908288
 21
6.087725568829312
 31
0.0
  0
LINE
  5
9A
330
1F
100
AcDbEntity
  8
0
  6
Continuous
 62
     1
370
    15
100
AcDbLine
 10
19.35174515908284
 20
-6.612274431170687
 30
0.0
 11
21.52418532175239
 21
-6.612274431170687
 31
0.0
  0
LINE
  5
9B
330
1F
100
AcDbEntity
  8
0
  6
Continuous
 62
     1
370
    15
100
AcDbLine
 10
32.6516739712529
 20
-6.612274431170687
 30
0.0
 11
34.63751407992552
 21
-6.612274431170688
 31
0.0
  0
LINE
  5
9C
330
1F
100
AcDbEntity
  8
0
  6
Continuous
 62
     1
370
    15
100
AcDbLine
 10
14.87390875207972
 20
6.087725568829312
 30
0.0
 11
12.70262469290465
 21
6.087725568829312
 31
0.0
  0
LINE
  5
9D
330
1F
100
AcDbEntity
  8
0
  6
Continuous
 62
     1
370
    15
100
AcDbLine
 10
26.00234149652973
 20
-6.612274431170687
 30
0.0
 11
28.17339796897742
 21
-6.612274431170687
 31
0.0
  0
LINE
  5
A0
330
1F
100
AcDbEntity
  8
0
  6
Continuous
 62
     1
370
    15
100
AcDbLine
 10
28.17339796897742
 20
6.087725568829312
 30
0.0
 11
26.00234149652977
 21
6.087725568829312
 31
0.0
  0
LINE
  5
A1
330
1F
100
AcDbEntity
  8
0
  6
Continuous
 62
     1
370
    15
100
AcDbLine
 10
12.70262469290466
 20
-6.612274431170687
 30
0.0
 11
14.87390875207968
 21
-6.612274431170687
 31
0.0
  0
LINE
  5
A2
330
1F
100
AcDbEntity
  8
0
  6
Continuous
 62
     1
370
    15
100
AcDbLine
 10
34.63751407992552
 20
6.087725568829312
 30
0.0
 11
32.6516739712529
 21
6.087725568829312
 31
0.0
  0
SPLINE
  5
A3
330
1F
100
AcDbEntity
  8
0
  6
Continuous
 62
     4
370
    15
100
AcDbSpline
210
0.0
220
0.0
230
1.0
 70
     8
 71
     3
 72
    20
 73
    16
 74
     0
 42
0.000000001
 43
0.00000001
 40
0.0
 40
0.0
 40
0.0
 40
0.0
 40
0.125
 40
0.125
 40
0.2499999999999999
 40
0.2499999999999999
 40
0.375
 40
0.375
 40
0.5000000000000001
 40
0.5000000000000001
 40
0.75
 40
0.75
 40
0.875
 40
0.875
 40
1.0
 40
1.0
 40
1.0
 40
1.0
 10
7.969514124400173
 20
-6.494914506553769
 30
0.0
 10
7.969514124400171
 20
-6.468915392454179
 30
0.0
 10
7.969715924072057
 20
-6.438674822731389
 30
0.0
 10
7.991650421819322
 20
-6.370369946600867
 30
0.0
 10
8.013225213622375
 20
-6.331954191121001
 30
0.0
 10
8.090340631393307
 20
-6.2496184629371
 30
0.0
 10
8.144584052065529
 20
-6.206737472691741
 30
0.0
 10
8.292583044173307
 20
-6.12126088355737
 30
0.0
 10
8.382243235342736
 20
-6.081009725807882
 30
0.0
 10
8.701152284446902
 20
-5.974859377332661
 30
0.0
 10
8.971462349266002
 20
-5.930315002110711
 30
0.0
 10
9.381078640788546
 20
-5.931093480329831
 30
0.0
 10
9.5166217322323
 20
-5.942046123727488
 30
0.0
 10
9.773598734458146
 20
-5.98301222646921
 30
0.0
 10
9.8932457172833
 20
-6.012681014130532
 30
0.0
 10
9.999514079925408
 20
-6.048658302003098
 30
0.0
  0
SPLINE
  5
A4
330
1F
100
AcDbEntity
  8
0
  6
Continuous
 62
     4
370
    15
100
AcDbSpline
210
0.0
220
0.0
230
1.0
 70
     8
 71
     3
 72
    14
 73
    10
 74
     0
 42
0.000000001
 43
0.00000001
 40
0.0
 40
0.0
 40
0.0
 40
0.0
 40
0.25
 40
0.25
 40
0.5
 40
0.5
 40
0.75
 40
0.75
 40
1.0
 40
1.0
 40
1.0
 40
1.0
 10
8.391284308183756
 20
-6.610089623021686
 30
0.0
 10
8.302331998051335
 20
-6.612421300401052
 30
0.0
 10
8.229135497279014
 20
-6.613179274172539
 30
0.0
 10
8.110372758713188
 20
-6.608643139344758
 30
0.0
 10
8.066050609023003
 20
-6.603266185221994
 30
0.0
 10
8.004734989535574
 20
-6.585084247545429
 30
0.0
 10
7.987264866728926
 20
-6.572154652076088
 30
0.0
 10
7.969664391340248
 20
-6.539038881253403
 30
0.0
 10
7.969514124400173
 20
-6.518803421014733
 30
0.0
 10
7.969514124400173
 20
-6.49491450655377
 30
0.0
  0
SPLINE
  5
A5
330
1F
100
AcDbEntity
  8
0
  6
Continuous
 62
     4
370
    15
100
AcDbSpline
210
0.0
220
0.0
230
1.0
 70
     8
 71
     3
 72
    10
 73
     6
 74
     0
 42
0.000000001
 43
0.00000001
 40
0.0
 40
0.0
 40
0.0
 40
0.0
 40
0.5
 40
0.5
 40
1.0
 40
1.0
 40
1.0
 40
1.0
 10
9.999514079925467
 20
-6.365843635559925
 30
0.0
 10
9.730984620078472
 20
-6.439837625940808
 30
0.0
 10
9.460978767683692
 20
-6.497567214081228
 30
0.0
 10
8.924495161491022
 20
-6.579147273055248
 30
0.0
 10
8.659600629850441
 20
-6.603056336344671
 30
0.0
 10
8.391284308183717
 20
-6.6100896230217
 30
0.0
  0
LINE
  5
A6
330
1F
100
AcDbEntity
  8
0
  6
Continuous
 62
     4
370
    15
100
AcDbLine
 10
8.391284308183751
 20
6.085540760680326
 30
0.0
 11
8.251929242132281
 21
6.087663491612185
 31
0.0
  0
SPLINE
  5
A7
330
1F
100
AcDbEntity
  8
0
  6
Continuous
 62
     4
370
    15
100
AcDbSpline
210
0.0
220
0.0
230
1.0
 70
     8
 71
     3
 72
    10
 73
     6
 74
     0
 42
0.000000001
 43
0.00000001
 40
0.0
 40
0.0
 40
0.0
 40
0.0
 40
0.5
 40
0.5
 40
1.0
 40
1.0
 40
1.0
 40
1.0
 10
9.999514079925465
 20
5.84129477321855
 30
0.0
 10
9.730984620078472
 20
5.915288763599433
 30
0.0
 10
9.46097876768369
 20
5.973018351739853
 30
0.0
 10
8.92449516149102
 20
6.054598410713872
 30
0.0
 10
8.65960062985044
 20
6.078507474003296
 30
0.0
 10
8.391284308183717
 20
6.085540760680326
 30
0.0
  0
SPLINE
  5
A8
330
1F
100
AcDbEntity
  8
0
  6
Continuous
 62
     4
370
    15
100
AcDbSpline
210
0.0
220
0.0
230
1.0
 70
     8
 71
     3
 72
    20
 73
    16
 74
     0
 42
0.000000001
 43
0.00000001
 40
0.0
 40
0.0
 40
0.0
 40
0.0
 40
0.1250000000000001
 40
0.1250000000000001
 40
0.2500000000000002
 40
0.2500000000000002
 40
0.3750000000000003
 40
0.3750000000000003
 40
0.5000000000000001
 40
0.5000000000000001
 40
0.7500000000000001
 40
0.7500000000000001
 40
0.8750000000000001
 40
0.8750000000000001
 40
1.0
 40
1.0
 40
1.0
 40
1.0
 10
7.969514124400171
 20
3.90643492043775
 30
0.0
 10
7.969514124400171
 20
4.008917665174015
 30
0.0
 10
7.969715924071753
 20
4.108316156080886
 30
0.0
 10
7.991650421819802
 20
4.299700163157268
 30
0.0
 10
8.01322521362238
 20
4.392440444654178
 30
0.0
 10
8.09034063139333
 20
4.566755282109773
 30
0.0
 10
8.144584052065566
 20
4.646307294736219
 30
0.0
 10
8.292583044173467
 20
4.789986108940975
 30
0.0
 10
8.382243235342765
 20
4.850300349960001
 30
0.0
 10
8.701152284446971
 20
4.999986227434185
 30
0.0
 10
8.971462349266101
 20
5.051032658848598
 30
0.0
 10
9.381078640788374
 20
5.05008650325598
 30
0.0
 10
9.516621732232329
 20
5.037009852998557
 30
0.0
 10
9.773598734458135
 20
4.985219273450207
 30
0.0
 10
9.893245717283301
 20
4.946855956582602
 30
0.0
 10
9.999514079925405
 20
4.895911163072788
 30
0.0
  0
SPLINE
  5
A9
330
1F
100
AcDbEntity
  8
0
  6
Continuous
 62
     4
370
    15
100
AcDbSpline
210
0.0
220
0.0
230
1.0
 70
     8
 71
     3
 72
    14
 73
    10
 74
     0
 42
0.000000001
 43
0.00000001
 40
0.0
 40
0.0
 40
0.0
 40
0.0
 40
0.25
 40
0.25
 40
0.5
 40
0.5
 40
0.75
 40
0.75
 40
1.0
 40
1.0
 40
1.0
 40
1.0
 10
8.391284308183756
 20
2.767387826600922
 30
0.0
 10
8.302331998051336
 20
2.845511388573086
 30
0.0
 10
8.22913549727899
 20
2.932344945708906
 30
0.0
 10
8.110372758713178
 20
3.119631701268501
 30
0.0
 10
8.066050609022994
 20
3.219077691248413
 30
0.0
 10
8.004734989535569
 20
3.418091885482199
 30
0.0
 10
7.987264866728922
 20
3.51916708915858
 30
0.0
 10
7.969664391340245
 20
3.715819855735069
 30
0.0
 10
7.969514124400173
 20
3.812270114923566
 30
0.0
 10
7.969514124400173
 20
3.90643492043775
 30
0.0
  0
SPLINE
  5
AA
330
1F
100
AcDbEntity
  8
0
  6
Continuous
 62
     4
370
    15
100
AcDbSpline
210
0.0
220
0.0
230
1.0
 70
     8
 71
     3
 72
    10
 73
     6
 74
     0
 42
0.000000001
 43
0.00000001
 40
0.0
 40
0.0
 40
0.0
 40
0.0
 40
0.5
 40
0.5
 40
1.0
 40
1.0
 40
1.0
 40
1.0
 10
9.999514079925467
 20
1.272372331068823
 30
0.0
 10
9.730984620078466
 20
1.532632217625163
 30
0.0
 10
9.46097876768368
 20
1.789242477601131
 30
0.0
 10
8.924495161490997
 20
2.289015166585499
 30
0.0
 10
8.659600629850411
 20
2.531735410686561
 30
0.0
 10
8.39128430818368
 20
2.767387826600988
 30
0.0
  0
SPLINE
  5
AB
330
1F
100
AcDbEntity
  8
0
  6
Continuous
 62
     4
370
    15
100
AcDbSpline
210
0.0
220
0.0
230
1.0
 70
     8
 71
     3
 72
    20
 73
    16
 74
     0
 42
0.000000001
 43
0.00000001
 40
0.0
 40
0.0
 40
0.0
 40
0.0
 40
0.125
 40
0.125
 40
0.2499999999999999
 40
0.2499999999999999
 40
0.3749999999999999
 40
0.3749999999999999
 40
0.4999999999999999
 40
0.4999999999999999
 40
0.75
 40
0.75
 40
0.875
 40
0.875
 40
1.0
 40
1.0
 40
1.0
 40
1.0
 10
7.969514124400173
 20
-2.326205154945346
 30
0.0
 10
7.969514124400171
 20
-2.1977232961095
 30
0.0
 10
7.969715924072061
 20
-2.068084235479866
 30
0.0
 10
7.991650421819327
 20
-1.808395352272926
 30
0.0
 10
8.013225213622373
 20
-1.677239315296179
 30
0.0
 10
8.090340631393307
 20
-1.420588749656706
 30
0.0
 10
8.14458405206553
 20
-1.298155746784927
 30
0.0
 10
8.292583044173307
 20
-1.069000343445875
 30
0.0
 10
8.38224323534274
 20
-0.9684349446772502
 30
0.0
 10
8.701152284446904
 20
-0.7125987187278505
 30
0.0
 10
8.971462349266007
 20
-0.6170079120914548
 30
0.0
 10
9.381078640788548
 20
-0.6187325459032085
 30
0.0
 10
9.516621732232302
 20
-0.6427618395582747
 30
0.0
 10
9.773598734458146
 20
-0.7355185218483584
 30
0.0
 10
9.8932457172833
 20
-0.8035506263772834
 30
0.0
 10
9.999514079925406
 20
-0.8904727077596637
 30
0.0
  0
SPLINE
  5
AC
330
1F
100
AcDbEntity
  8
0
  6
Continuous
 62
     4
370
    15
100
AcDbSpline
210
0.0
220
0.0
230
1.0
 70
     8
 71
     3
 72
    14
 73
    10
 74
     0
 42
0.000000001
 43
0.00000001
 40
0.0
 40
0.0
 40
0.0
 40
0.0
 40
0.2500000000000001
 40
0.2500000000000001
 40
0.5000000000000001
 40
0.5000000000000001
 40
0.75
 40
0.75
 40
1.0
 40
1.0
 40
1.0
 40
1.0
 10
8.391284308183756
 20
-3.580427365250085
 30
0.0
 10
8.302331998051335
 20
-3.504635480657288
 30
0.0
 10
8.229135497278989
 20
-3.418559897292958
 30
0.0
 10
8.110372758713176
 20
-3.226737006905582
 30
0.0
 10
8.066050609022996
 20
-3.121914062802905
 30
0.0
 10
8.004734989535573
 20
-2.904717930892551
 30
0.0
 10
7.987264866728922
 20
-2.790713131746831
 30
0.0
 10
7.969664391340246
 20
-2.560944594347658
 30
0.0
 10
7.969514124400173
 20
-2.444258874920492
 30
0.0
 10
7.969514124400173
 20
-2.326205154945346
 30
0.0
  0
SPLINE
  5
AD
330
1F
100
AcDbEntity
  8
0
  6
Continuous
 62
     4
370
    15
100
AcDbSpline
210
0.0
220
0.0
230
1.0
 70
     8
 71
     3
 72
    10
 73
     6
 74
     0
 42
0.000000001
 43
0.00000001
 40
0.0
 40
0.0
 40
0.0
 40
0.0
 40
0.5
 40
0.5
 40
1.0
 40
1.0
 40
1.0
 40
1.0
 10
9.999514079925467
 20
-4.831196873320408
 30
0.0
 10
9.730984620078466
 20
-4.644930977144957
 30
0.0
 10
9.46097876768368
 20
-4.446050305309412
 30
0.0
 10
8.924495161490997
 20
-4.027857675299071
 30
0.0
 10
8.659600629850411
 20
-3.809046494487432
 30
0.0
 10
8.391284308183682
 20
-3.580427365250037
 30
0.0
  0
LINE
  5
AE
330
1F
100
AcDbEntity
  8
0
  6
Continuous
 62
     4
370
    15
100
AcDbLine
 10
-40.30048592007449
 20
6.087725568829307
 30
0.0
 11
-40.30048592007449
 21
-6.61227443117068
 31
0.0
  0
LINE
  5
AF
330
1F
100
AcDbEntity
  8
0
  6
Continuous
 62
     1
370
    15
100
AcDbLine
 10
9.999514079925518
 20
5.841294773218537
 30
0.0
 11
9.999514079925518
 21
4.895911163072953
 31
0.0
  0
LINE
  5
B0
330
1F
100
AcDbEntity
  8
0
  6
Continuous
 62
     4
370
    15
100
AcDbLine
 10
9.999514079925518
 20
-4.831196873320445
 30
0.0
 11
9.99951407992552
 21
-6.048658302002983
 31
0.0
  0
LINE
  5
B1
330
1F
100
AcDbEntity
  8
0
  6
Continuous
 62
     1
370
    15
100
AcDbLine
 10
9.999514079925518
 20
1.272372331068773
 30
0.0
 11
9.99951407992552
 21
-0.8904727077593868
 31
0.0
  0
SPLINE
  5
B3
330
1F
100
AcDbEntity
  8
0
  6
Continuous
 62
     1
370
    15
100
AcDbSpline
210
0.0
220
0.0
230
1.0
 70
    24
 71
     3
 72
     8
 73
     4
 74
     0
 42
0.000000001
 43
0.00000001
 40
0.0
 40
0.0
 40
0.0
 40
0.0
 40
1.0
 40
1.0
 40
1.0
 40
1.0
 10
9.99951407992552
 20
-0.8904727077593965
 30
0.0
 10
9.99951407992552
 20
-0.9417262646766713
 30
0.0
 10
9.99951407992552
 20
-1.00484120449947
 30
0.0
 10
9.99951407992552
 20
-1.081378358622045
 30
0.0
  0
LINE
  5
B4
330
1F
100
AcDbEntity
  8
0
  6
Continuous
 62
     4
370
    15
100
AcDbLine
 10
-40.80048592007449
 20
5.587725568829308
 30
0.0
 11
-40.80048592007449
 21
-6.11227443117069
 31
0.0
  0
LINE
  5
B5
330
1F
100
AcDbEntity
  8
0
  6
Continuous
 62
     1
370
    15
100
AcDbLine
 10
8.493373564925557
 20
2.728210021100242
 30
0.0
 11
8.417778433665934
 21
2.75722043261473
 31
0.0
  0
SPLINE
  5
B6
330
1F
100
AcDbEntity
  8
0
  6
Continuous
 62
     1
370
    15
100
AcDbSpline
210
0.0
220
0.0
230
1.0
 70
    24
 71
     3
 72
    14
 73
    10
 74
     0
 42
0.000000001
 43
0.00000001
 40
0.0
 40
0.0
 40
0.0
 40
0.0
 40
0.2500000000000001
 40
0.2500000000000001
 40
0.5000000000000001
 40
0.5000000000000001
 40
0.7500000000000001
 40
0.7500000000000001
 40
1.0
 40
1.0
 40
1.0
 40
1.0
 10
9.999514079925518
 20
4.42793681018283
 30
0.0
 10
9.999514079925518
 20
4.17085511676333
 30
0.0
 10
9.999514079925518
 20
3.885805421466706
 30
0.0
 10
9.999514079925518
 20
3.279298635805543
 30
0.0
 10
9.999514079925518
 20
2.957415232766899
 30
0.0
 10
9.999514079925518
 20
2.334582477021894
 30
0.0
 10
9.999514079925518
 20
2.034669389461115
 30
0.0
 10
9.999514079925518
 20
1.548327127781105
 30
0.0
 10
9.999514079925518
 20
1.36449904224312
 30
0.0
 10
9.999514079925518
 20
1.272372331068773
 30
0.0
  0
SPLINE
  5
B7
330
1F
100
AcDbEntity
  8
0
  6
Continuous
 62
     1
370
    15
100
AcDbSpline
210
0.0
220
0.0
230
1.0
 70
    24
 71
     3
 72
    14
 73
    10
 74
     0
 42
0.000000001
 43
0.00000001
 40
0.0
 40
0.0
 40
0.0
 40
0.0
 40
0.25
 40
0.25
 40
0.5
 40
0.5
 40
0.75
 40
0.75
 40
1.0
 40
1.0
 40
1.0
 40
1.0
 10
9.999514079925518
 20
-1.08137835862136
 30
0.0
 10
9.999514079925518
 20
-1.206320312820543
 30
0.0
 10
9.999514079925518
 20
-1.371629816400851
 30
0.0
 10
9.999514079925518
 20
-1.810560321566945
 30
0.0
 10
9.999514079925518
 20
-2.085317812940796
 30
0.0
 10
9.999514079925518
 20
-2.747418838192491
 30
0.0
 10
9.999514079925518
 20
-3.135592865956232
 30
0.0
 10
9.999514079925518
 20
-3.969450358637542
 30
0.0
 10
9.999514079925518
 20
-4.413555112099516
 30
0.0
 10
9.999514079925518
 20
-4.831196873320447
 30
0.0
  0
SPLINE
  5
B8
330
1F
100
AcDbEntity
  8
0
  6
Continuous
 62
     1
370
    15
100
AcDbSpline
210
0.0
220
0.0
230
1.0
 70
    24
 71
     3
 72
     8
 73
     4
 74
     0
 42
0.000000001
 43
0.00000001
 40
0.0
 40
0.0
 40
0.0
 40
0.0
 40
1.0
 40
1.0
 40
1.0
 40
1.0
 10
9.99951407992552
 20
4.895911163073031
 30
0.0
 10
9.99951407992552
 20
4.741351631513808
 30
0.0
 10
9.99951407992552
 20
4.585420349776523
 30
0.0
 10
9.99951407992552
 20
4.427936810181425
 30
0.0
  0
SPLINE
  5
B9
330
1F
100
AcDbEntity
  8
0
  6
Continuous
 62
     4
370
    15
100
AcDbSpline
210
0.0
220
0.0
230
1.0
 70
    24
 71
     3
 72
     9
 73
     5
 74
     0
 42
0.000000001
 43
0.00000001
 40
0.0
 40
0.0
 40
0.0
 40
0.0
 40
0.0542777262422982
 40
1.0
 40
1.0
 40
1.0
 40
1.0
 10
9.999514079925518
 20
-6.098774917105926
 30
0.0
 10
9.999514079925518
 20
-6.102878570929192
 30
0.0
 10
9.999514079925518
 20
-6.178483319089583
 30
0.0
 10
9.999514079925518
 20
-6.274776772167285
 30
0.0
 10
9.999514079925518
 20
-6.365843635559911
 30
0.0
  0
SPLINE
  5
BA
330
1F
100
AcDbEntity
  8
0
  6
Continuous
 62
     1
370
    15
100
AcDbSpline
210
0.0
220
0.0
230
1.0
 70
     8
 71
     3
 72
    26
 73
    22
 74
     0
 42
0.000000001
 43
0.00000001
 40
0.0
 40
0.0
 40
0.0
 40
0.0
 40
0.0393143231671444
 40
0.0915482684961679
 40
0.1476191975329142
 40
0.203563272992285
 40
0.2595073518270947
 40
0.3155782823444362
 40
0.3715428617435008
 40
0.4274732572352593
 40
0.4835291941134549
 40
0.5395210765795833
 40
0.5954446259096803
 40
0.6514705950058077
 40
0.7074965493165309
 40
0.7634200972949999
 40
0.8107840757817931
 40
0.8580935395968201
 40
0.9053668164723115
 40
0.9527615770593365
 40
1.0
 40
1.0
 40
1.0
 40
1.0
 10
30.41113109451054
 20
-6.205884534369619
 30
0.0
 10
30.1437435152665
 20
-6.295410360236724
 30
0.0
 10
29.52109843517438
 20
-6.503882328811083
 30
0.0
 10
28.51751359730181
 20
-6.631332420606658
 30
0.0
 10
27.39815744595966
 20
-6.600416609151974
 30
0.0
 10
26.2561900547848
 20
-6.357770159374018
 30
0.0
 10
25.11416671338464
 20
-5.919439074301128
 30
0.0
 10
23.96955415483371
 20
-5.299118997980412
 30
0.0
 10
22.82712378393857
 20
-4.515168969804534
 30
0.0
 10
21.68539620726135
 20
-3.593165713215972
 30
0.0
 10
20.54108996589822
 20
-2.565455125243897
 30
0.0
 10
19.39811068539951
 20
-1.462296132064328
 30
0.0
 10
18.25652451773931
 20
-0.3193619021005499
 30
0.0
 10
17.11286333390366
 20
0.8238315939558377
 30
0.0
 10
15.96910589439794
 20
1.931847895970299
 30
0.0
 10
14.88644266965153
 20
2.917599147598788
 30
0.0
 10
13.86091252797818
 20
3.760431754753257
 30
0.0
 10
12.89532170047702
 20
4.463820740215656
 30
0.0
 10
11.93054133636784
 20
5.055920054697371
 30
0.0
 10
10.96335028249361
 20
5.533708318816238
 30
0.0
 10
10.32043877596458
 20
5.738878938326904
 30
0.0
 10
9.999514079925465
 20
5.841294773218554
 30
0.0
  0
SPLINE
  5
BB
330
1F
100
AcDbEntity
  8
0
  6
Continuous
 62
     1
370
    15
100
AcDbSpline
210
0.0
220
0.0
230
1.0
 70
     8
 71
     3
 72
    28
 73
    24
 74
     0
 42
0.000000001
 43
0.00000001
 40
0.0
 40
0.0
 40
0.0
 40
0.0
 40
0.0225381958864334
 40
0.0661390080187144
 40
0.1096280612051099
 40
0.1531504045681575
 40
0.1967228987059468
 40
0.248169769182331
 40
0.2997108483686753
 40
0.351251941156853
 40
0.4026988128766676
 40
0.4542085476680456
 40
0.5057772093186841
 40
0.557230379165227
 40
0.6087149964988325
 40
0.6602974515484771
 40
0.7117632093870747
 40
0.7632289641204373
 40
0.8148114178080083
 40
0.862864038161199
 40
0.9109055763379605
 40
0.9590698784513835
 40
1.0
 40
1.0
 40
1.0
 40
1.0
 10
10.46321188827448
 20
5.679787757317938
 30
0.0
 10
10.62968078221589
 20
5.740481167207524
 30
0.0
 10
11.11818871633514
 20
5.918587788677915
 30
0.0
 10
11.9305896835505
 20
6.060614612545271
 30
0.0
 10
12.89530875454661
 20
6.110509281437015
 30
0.0
 10
13.8609159832071
 20
6.005976243233395
 30
0.0
 10
14.88644155539254
 20
5.744082286180217
 30
0.0
 10
15.96910621428118
 20
5.295018904556673
 30
0.0
 10
17.11286324804538
 20
4.643087518522263
 30
0.0
 10
18.25652454097522
 20
3.832827591586552
 30
0.0
 10
19.39811067813413
 20
2.88898223073101
 30
0.0
 10
20.5410899717226
 20
1.844051609484938
 30
0.0
 10
21.68539619123917
 20
0.7323158519955933
 30
0.0
 10
22.82712384207268
 20
-0.413701572886483
 30
0.0
 10
23.96955393794681
 20
-1.554322108080705
 30
0.0
 10
25.11416752363192
 20
-2.651319849601458
 30
0.0
 10
26.25618703873879
 20
-3.673302772532292
 30
0.0
 10
27.39816871357343
 20
-4.584972686335223
 30
0.0
 10
28.51747265918442
 20
-5.337887557106966
 30
0.0
 10
29.60899138284198
 20
-5.924528247358141
 30
0.0
 10
30.67489995767923
 20
-6.333128907146431
 30
0.0
 10
31.69096307039727
 20
-6.575543306359488
 30
0.0
 10
32.34925404060524
 20
-6.592995083610298
 30
0.0
 10
32.6516739712529
 20
-6.601012458152442
 30
0.0
  0
SPLINE
  5
BC
330
1F
100
AcDbEntity
  8
0
  6
Continuous
 62
     1
370
    15
100
AcDbSpline
210
0.0
220
0.0
230
1.0
 70
     8
 71
     3
 72
    34
 73
    30
 74
     0
 42
0.000000001
 43
0.00000001
 40
0.0
 40
0.0
 40
0.0
 40
0.0
 40
0.1250000000000002
 40
0.1250000000000002
 40
0.1875000000000001
 40
0.1875000000000001
 40
0.25
 40
0.25
 40
0.3749999999999996
 40
0.3749999999999996
 40
0.4999999999999992
 40
0.4999999999999992
 40
0.6249999999999989
 40
0.6249999999999989
 40
0.6874999999999988
 40
0.6874999999999988
 40
0.7187499999999986
 40
0.7187499999999986
 40
0.7499999999999983
 40
0.7499999999999983
 40
0.7812499999999982
 40
0.7812499999999982
 40
0.812499999999998
 40
0.812499999999998
 40
0.8749999999999987
 40
0.8749999999999987
 40
0.9374999999999993
 40
0.9374999999999993
 40
1.0
 40
1.0
 40
1.0
 40
1.0
 10
33.87551407992552
 20
-4.432368381323008
 30
0.0
 10
34.09102601402734
 20
-4.595399538517442
 30
0.0
 10
34.29165233107695
 20
-4.725207710280969
 30
0.0
 10
34.57072961387178
 20
-4.86889658710057
 30
0.0
 10
34.65794700791354
 20
-4.907253254891723
 30
0.0
 10
34.82035613099888
 20
-4.967167959062586
 30
0.0
 10
34.89599017324649
 20
-4.988751825418193
 30
0.0
 10
35.09811541823084
 20
-5.03194817575613
 30
0.0
 10
35.19861639292744
 20
-5.031046613387467
 30
0.0
 10
35.32861499469681
 20
-5.032046111167991
 30
0.0
 10
35.35729433634538
 20
-5.036637413483581
 30
0.0
 10
35.382362118538
 20
-5.121621501221843
 30
0.0
 10
35.38312731302479
 20
-5.200248285788502
 30
0.0
 10
35.35834170827533
 20
-5.391147064904027
 30
0.0
 10
35.34534284692153
 20
-5.465724801111965
 30
0.0
 10
35.30422122952537
 20
-5.603416961641185
 30
0.0
 10
35.28704996555972
 20
-5.652689865950475
 30
0.0
 10
35.24129091864203
 20
-5.759969382730086
 30
0.0
 10
35.21263507438854
 20
-5.817799566604137
 30
0.0
 10
35.14141347673892
 20
-5.937051884661786
 30
0.0
 10
35.09852817380165
 20
-5.99863849809867
 30
0.0
 10
35.00239325924244
 20
-6.115375563725946
 30
0.0
 10
34.9486011695725
 20
-6.171190322905701
 30
0.0
 10
34.78147756504797
 20
-6.319723595045143
 30
0.0
 10
34.66309491357944
 20
-6.39402884619786
 30
0.0
 10
34.43155583794069
 20
-6.498537964082685
 30
0.0
 10
34.31735459419986
 20
-6.529837094579929
 30
0.0
 10
34.09228561008755
 20
-6.559615962523578
 30
0.0
 10
33.98310790826348
 20
-6.557891367761897
 30
0.0
 10
33.87551407992552
 20
-6.541863630959229
 30
0.0
  0
SPLINE
  5
BD
330
1F
100
AcDbEntity
  8
0
  6
Continuous
 62
     1
370
    15
100
AcDbSpline
210
0.0
220
0.0
230
1.0
 70
     8
 71
     3
 72
    24
 73
    20
 74
     0
 42
0.000000001
 43
0.00000001
 40
0.0
 40
0.0
 40
0.0
 40
0.0
 40
0.0561311809434618
 40
0.1122176436719525
 40
0.1684600446899889
 40
0.2245590918493943
 40
0.280671079883753
 40
0.3409049235914595
 40
0.4010024956395971
 40
0.4611000713137788
 40
0.5213339166120055
 40
0.5814535148887098
 40
0.6415363913174733
 40
0.7017541297929231
 40
0.761903058218111
 40
0.8219785802006649
 40
0.8821641259742571
 40
0.9423496558647214
 40
1.0
 40
1.0
 40
1.0
 40
1.0
 10
33.87551407992552
 20
-6.54186363095924
 30
0.0
 10
33.5199723463916
 20
-6.472009185488706
 30
0.0
 10
32.80917212994142
 20
-6.332355945721488
 30
0.0
 10
31.74359653742602
 20
-5.903709974225245
 30
0.0
 10
30.67489363278138
 20
-5.330590348747557
 30
0.0
 10
29.60899307222393
 20
-4.609658892522184
 30
0.0
 10
28.51747216922527
 20
-3.747259144989181
 30
0.0
 10
27.3981688486192
 20
-2.759420362240841
 30
0.0
 10
26.25618700188148
 20
-1.66644435651343
 30
0.0
 10
25.11416753618252
 20
-0.528003331593469
 30
0.0
 10
23.96955392468048
 20
0.6167123079401926
 30
0.0
 10
22.82712388249507
 20
1.735031188475816
 30
0.0
 10
21.68539604273712
 20
2.78914950262316
 30
0.0
 10
20.54109052642278
 20
3.742879087692964
 30
0.0
 10
19.39810861198782
 20
4.568025740665571
 30
0.0
 10
18.25653224762931
 20
5.238733490008407
 30
0.0
 10
17.11283442654766
 20
5.726455461744817
 30
0.0
 10
15.98458378706733
 20
6.03307095556633
 30
0.0
 10
15.23878525725773
 20
6.067104480621929
 30
0.0
 10
14.87390875207972
 20
6.083755135168468
 30
0.0
  0
SPLINE
  5
BE
330
1F
100
AcDbEntity
  8
0
  6
Continuous
 62
     1
370
    15
100
AcDbSpline
210
0.0
220
0.0
230
1.0
 70
     8
 71
     3
 72
    46
 73
    42
 74
     0
 42
0.000000001
 43
0.00000001
 40
0.0
 40
0.0
 40
0.0
 40
0.0
 40
0.0624999999999999
 40
0.0624999999999999
 40
0.09375
 40
0.09375
 40
0.1250000000000001
 40
0.1250000000000001
 40
0.1875000000000003
 40
0.1875000000000003
 40
0.2187500000000005
 40
0.2187500000000005
 40
0.2500000000000006
 40
0.2500000000000006
 40
0.3125000000000006
 40
0.3125000000000006
 40
0.3750000000000004
 40
0.3750000000000004
 40
0.4375000000000004
 40
0.4375000000000004
 40
0.5000000000000003
 40
0.5000000000000003
 40
0.5625000000000002
 40
0.5625000000000002
 40
0.6250000000000002
 40
0.6250000000000002
 40
0.6875000000000001
 40
0.6875000000000001
 40
0.7187500000000001
 40
0.7187500000000001
 40
0.75
 40
0.75
 40
0.7812500000000001
 40
0.7812500000000001
 40
0.8125000000000002
 40
0.8125000000000002
 40
0.8750000000000001
 40
0.8750000000000001
 40
0.9375000000000001
 40
0.9375000000000001
 40
1.0
 40
1.0
 40
1.0
 40
1.0
 10
33.87551407992553
 20
-4.432368381324983
 30
0.0
 10
33.52788851455002
 20
-4.169395481797062
 30
0.0
 10
33.17907378565791
 20
-3.887224247856271
 30
0.0
 10
32.65301932330301
 20
-3.440402565801435
 30
0.0
 10
32.47780146398356
 20
-3.28770960191197
 30
0.0
 10
32.12941415540062
 20
-2.97642201401954
 30
0.0
 10
31.95674434523792
 20
-2.817992959452126
 30
0.0
 10
31.43345848812089
 20
-2.332965096899048
 30
0.0
 10
31.08092945250973
 20
-1.997561366631086
 30
0.0
 10
30.5573642120709
 20
-1.486585709374383
 30
0.0
 10
30.38462589729275
 20
-1.315264659619477
 30
0.0
 10
30.03645667419424
 20
-0.9697482483844883
 30
0.0
 10
29.86130198938823
 20
-0.7956383917568667
 30
0.0
 10
29.33529624048237
 20
-0.2719002855080154
 30
0.0
 10
28.98595004673875
 20
0.0784427399787378
 30
0.0
 10
28.29119830317819
 20
0.7715865989434583
 30
0.0
 10
27.938921796959
 20
1.116649485623085
 30
0.0
 10
27.23884855217921
 20
1.789672699292573
 30
0.0
 10
26.89364007983356
 20
2.116874626403197
 30
0.0
 10
26.19322693712386
 20
2.749879162338683
 30
0.0
 10
25.84107229446697
 20
3.054617481302028
 30
0.0
 10
25.14713167830993
 20
3.628468682009467
 30
0.0
 10
24.7968905088022
 20
3.899945368020268
 30
0.0
 10
24.0956887182489
 20
4.402771756766159
 30
0.0
 10
23.7498601827784
 20
4.633023292489757
 30
0.0
 10
23.05123399877545
 20
5.048725286791059
 30
0.0
 10
22.69872458843144
 20
5.233887320001042
 30
0.0
 10
22.17590004302718
 20
5.47203791831968
 30
0.0
 10
22.00325497133457
 20
5.544791911882413
 30
0.0
 10
21.65454862714897
 20
5.677470689498187
 30
0.0
 10
21.47924250555965
 20
5.737263909653159
 30
0.0
 10
21.12850850429585
 20
5.843069758708292
 30
0.0
 10
20.95308265981297
 20
5.889081752397384
 30
0.0
 10
20.60390147882296
 20
5.966915876436636
 30
0.0
 10
20.4310817625828
 20
5.998702734889259
 30
0.0
 10
19.90909119249518
 20
6.072959032069304
 30
0.0
 10
19.55666597565986
 20
6.094025280321121
 30
0.0
 10
18.8572533797484
 20
6.078146786245792
 30
0.0
 10
18.51185372888922
 20
6.041515751284417
 30
0.0
 10
17.81098293980335
 20
5.911094971969907
 30
0.0
 10
17.45908052976602
 20
5.817234508080336
 30
0.0
 10
17.11282672200228
 20
5.696956296327932
 30
0.0
  0
SPLINE
  5
BF
330
1F
100
AcDbEntity
  8
0
  6
Continuous
 62
     1
370
    15
100
AcDbSpline
210
0.0
220
0.0
230
1.0
 70
     8
 71
     3
 72
    20
 73
    16
 74
     0
 42
0.000000001
 43
0.00000001
 40
0.0
 40
0.0
 40
0.0
 40
0.0
 40
0.0678945894164022
 40
0.1508485747885453
 40
0.2339887587069803
 40
0.3170339393858545
 40
0.3999777707730431
 40
0.4830735075365197
 40
0.5661692223708072
 40
0.649113051753309
 40
0.7193616302590502
 40
0.789529354530801
 40
0.8596434076130938
 40
0.9299376410417064
 40
1.0
 40
1.0
 40
1.0
 40
1.0
 10
23.76125580081408
 20
-6.20716005525246
 30
0.0
 10
23.44978656392984
 20
-6.308142557187947
 30
0.0
 10
22.75776248839852
 20
-6.532506039263442
 30
0.0
 10
21.6854268155993
 20
-6.641106430410867
 30
0.0
 10
20.5410817667903
 20
-6.571492977012013
 30
0.0
 10
19.39811287817021
 20
-6.292541261603633
 30
0.0
 10
18.25652392927466
 20
-5.819707849384743
 30
0.0
 10
17.11286349177639
 20
-5.167607378693891
 30
0.0
 10
15.96910585194868
 20
-4.357510059104313
 30
0.0
 10
14.88644267909808
 20
-3.461727467990463
 30
0.0
 10
13.86091252562965
 20
-2.53320253752841
 30
0.0
 10
12.8953217011052
 20
-1.604415683919441
 30
0.0
 10
11.93054133619988
 20
-0.6441082860995045
 30
0.0
 10
10.96335028253548
 20
0.3242295003862103
 30
0.0
 10
10.32043877597852
 20
0.9566729944722902
 30
0.0
 10
9.999514079925467
 20
1.272372331068823
 30
0.0
  0
SPLINE
  5
C0
330
1F
100
AcDbEntity
  8
0
  6
Continuous
 62
     1
370
    15
100
AcDbSpline
210
0.0
220
0.0
230
1.0
 70
    24
 71
     3
 72
    16
 73
    12
 74
     0
 42
0.000000001
 43
0.00000001
 40
0.0
 40
0.0
 40
0.0
 40
0.0
 40
0.25
 40
0.25
 40
0.4999999999999999
 40
0.4999999999999999
 40
0.75
 40
0.75
 40
0.875
 40
0.875
 40
1.0
 40
1.0
 40
1.0
 40
1.0
 10
9.999514079925518
 20
4.900655147553468
 30
0.0
 10
9.999514079925518
 20
4.642818054251588
 30
0.0
 10
9.999514079925518
 20
4.347154492129765
 30
0.0
 10
9.999514079925518
 20
3.688228064847729
 30
0.0
 10
9.999514079925518
 20
3.323658436597162
 30
0.0
 10
9.999514079925518
 20
2.588927463372186
 30
0.0
 10
9.999514079925518
 20
2.219675884174984
 30
0.0
 10
9.999514079925518
 20
1.764237317755818
 30
0.0
 10
9.999514079925518
 20
1.629342355684588
 30
0.0
 10
9.999514079925518
 20
1.41015113604658
 30
0.0
 10
9.999514079925518
 20
1.326020430200098
 30
0.0
 10
9.999514079925518
 20
1.272372331068773
 30
0.0
  0
SPLINE
  5
C1
330
1F
100
AcDbEntity
  8
0
  6
Continuous
 62
     1
370
    15
100
AcDbSpline
210
0.0
220
0.0
230
1.0
 70
     8
 71
     3
 72
    22
 73
    18
 74
     0
 42
0.000000001
 43
0.00000001
 40
0.0
 40
0.0
 40
0.0
 40
0.0
 40
0.0602533292187271
 40
0.1207060694907686
 40
0.181003855435166
 40
0.2413477983730767
 40
0.3017612756066032
 40
0.3730926143275985
 40
0.444554573887887
 40
0.5160165523071842
 40
0.5873478927522019
 40
0.6587663931548459
 40
0.7302665959374159
 40
0.8016066687660908
 40
0.8729903436901082
 40
0.9445096710881798
 40
1.0
 40
1.0
 40
1.0
 40
1.0
 10
9.999514079925646
 20
4.900655147560375
 30
0.0
 10
10.32043877596424
 20
4.701770024395594
 30
0.0
 10
10.96335028249222
 20
4.303341558969877
 30
0.0
 10
11.93054133637408
 20
3.570805880561271
 30
0.0
 10
12.89532170045416
 20
2.755812180390166
 30
0.0
 10
13.86091252806395
 20
1.869716423419856
 30
0.0
 10
14.88644266930672
 20
0.8793417678101706
 30
0.0
 10
15.96910589594746
 20
-0.2053355447941697
 30
0.0
 10
17.11286332814085
 20
-1.348369635204454
 30
0.0
 10
18.25652453921996
 20
-2.456534348940138
 30
0.0
 10
19.39811060535705
 20
-3.495224949356093
 30
0.0
 10
20.54109026518933
 20
-4.428622572803017
 30
0.0
 10
21.68539508996863
 20
-5.226211530469446
 30
0.0
 10
22.8271279442421
 20
-5.866579755902786
 30
0.0
 10
23.96953860420862
 20
-6.318864445772741
 30
0.0
 10
25.02945436322797
 20
-6.57843698772218
 30
0.0
 10
25.70652872177576
 20
-6.589634125626433
 30
0.0
 10
26.00234149652973
 20
-6.594526138432626
 30
0.0
  0
SPLINE
  5
C2
330
1F
100
AcDbEntity
  8
0
  6
Continuous
 62
     1
370
    15
100
AcDbSpline
210
0.0
220
0.0
230
1.0
 70
     8
 71
     3
 72
    34
 73
    30
 74
     0
 42
0.000000001
 43
0.00000001
 40
0.0
 40
0.0
 40
0.0
 40
0.0
 40
0.1250000000000005
 40
0.1250000000000005
 40
0.1875000000000007
 40
0.1875000000000007
 40
0.2500000000000009
 40
0.2500000000000009
 40
0.3750000000000016
 40
0.3750000000000016
 40
0.5000000000000021
 40
0.5000000000000021
 40
0.6250000000000027
 40
0.6250000000000027
 40
0.6875000000000029
 40
0.6875000000000029
 40
0.718750000000003
 40
0.718750000000003
 40
0.7500000000000032
 40
0.7500000000000032
 40
0.7812500000000033
 40
0.7812500000000033
 40
0.8125000000000034
 40
0.8125000000000034
 40
0.8750000000000023
 40
0.8750000000000023
 40
0.9375000000000012
 40
0.9375000000000012
 40
1.0
 40
1.0
 40
1.0
 40
1.0
 10
33.87551407992552
 20
1.799920127010815
 30
0.0
 10
34.09102601402734
 20
1.595457421356203
 30
0.0
 10
34.29165233107695
 20
1.369484958666078
 30
0.0
 10
34.5707296138718
 20
1.01121983252266
 30
0.0
 10
34.65794700791354
 20
0.8908289420714893
 30
0.0
 10
34.82035613099889
 20
0.6472696144326007
 30
0.0
 10
34.8959901732465
 20
0.5232258853160752
 30
0.0
 10
35.09811541823084
 20
0.1506162778433905
 30
0.0
 10
35.19861639292743
 20
-0.0967511549501367
 30
0.0
 10
35.32861499469681
 20
-0.6105628935722082
 30
0.0
 10
35.35729433634538
 20
-0.8730042903138708
 30
0.0
 10
35.382362118538
 20
-1.435102946026796
 30
0.0
 10
35.38312731302479
 20
-1.730865236162664
 30
0.0
 10
35.35834170827534
 20
-2.184583332888362
 30
0.0
 10
35.3453428469215
 20
-2.335444882667705
 30
0.0
 10
35.30422122952535
 20
-2.559411827882293
 30
0.0
 10
35.28704996555972
 20
-2.631899000717218
 30
0.0
 10
35.24129091864203
 20
-2.770497962275063
 30
0.0
 10
35.21263507438856
 20
-2.836043715317665
 30
0.0
 10
35.14141347673893
 20
-2.949508113170412
 30
0.0
 10
35.09852817380162
 20
-2.997291401454164
 30
0.0
 10
35.00239325924243
 20
-3.066739776133819
 30
0.0
 10
34.94860116957253
 20
-3.088931257072614
 30
0.0
 10
34.78147756504799
 20
-3.120150160199903
 30
0.0
 10
34.66309491357944
 20
-3.096295570307489
 30
0.0
 10
34.43155583794069
 20
-3.005151498398432
 30
0.0
 10
34.31735459419986
 20
-2.937677252708057
 30
0.0
 10
34.09228561008755
 20
-2.777517027424654
 30
0.0
 10
33.98310790826348
 20
-2.685847591068482
 30
0.0
 10
33.87551407992552
 20
-2.585402262165752
 30
0.0
  0
SPLINE
  5
C3
330
1F
100
AcDbEntity
  8
0
  6
Continuous
 62
     1
370
    15
100
AcDbSpline
210
0.0
220
0.0
230
1.0
 70
     8
 71
     3
 72
    19
 73
    15
 74
     0
 42
0.000000001
 43
0.00000001
 40
0.0
 40
0.0
 40
0.0
 40
0.0
 40
0.0863505017863114
 40
0.1726322104306141
 40
0.2591538097973934
 40
0.3454548779475167
 40
0.4317758539461296
 40
0.524437767364941
 40
0.6168900446067607
 40
0.7093423274267763
 40
0.8020042432923956
 40
0.8944904050144138
 40
0.9869200749622893
 40
1.0
 40
1.0
 40
1.0
 40
1.0
 10
33.87551407992553
 20
-2.585402262165764
 30
0.0
 10
33.51997234651639
 20
-2.248241061607019
 30
0.0
 10
32.80917213031566
 20
-1.574187267826719
 30
0.0
 10
31.74359653592875
 20
-0.5063837867351287
 30
0.0
 10
30.67489363840771
 20
0.5601198884744818
 30
0.0
 10
29.60899305127839
 20
1.607822332241322
 30
0.0
 10
28.51747224985106
 20
2.62557843227241
 30
0.0
 10
27.39816852332372
 20
3.577621827922576
 30
0.0
 10
26.25618820999625
 20
4.429566656307792
 30
0.0
 10
25.11416302353989
 20
5.128197824086898
 30
0.0
 10
23.9695707949577
 20
5.656900280132333
 30
0.0
 10
22.82706107567261
 20
5.975547360401859
 30
0.0
 10
22.01280782627837
 20
6.111576008770605
 30
0.0
 10
21.57807832789398
 20
6.0792653647859
 30
0.0
 10
21.52418532175244
 20
6.075259844706916
 30
0.0
  0
SPLINE
  5
C4
330
1F
100
AcDbEntity
  8
0
  6
Continuous
 62
     1
370
    15
100
AcDbSpline
210
0.0
220
0.0
230
1.0
 70
     8
 71
     3
 72
    17
 73
    13
 74
     0
 42
0.000000001
 43
0.00000001
 40
0.0
 40
0.0
 40
0.0
 40
0.0
 40
0.0205609013778936
 40
0.1337232744090442
 40
0.2466296353268612
 40
0.3595359894323663
 40
0.4726983594753789
 40
0.5781169275582391
 40
0.6835111833941954
 40
0.7891747606182452
 40
0.8945453738649151
 40
1.0
 40
1.0
 40
1.0
 40
1.0
 10
23.76125580081413
 20
5.68261119291109
 30
0.0
 10
23.83055599597283
 20
5.711010705167502
 30
0.0
 10
24.28126819207185
 20
5.895714464051848
 30
0.0
 10
25.11425306538494
 20
6.048866583694911
 30
0.0
 10
26.2561641041915
 20
6.119891787230577
 30
0.0
 10
27.39817501402243
 20
5.967193943795134
 30
0.0
 10
28.51747064110529
 20
5.626278360936056
 30
0.0
 10
29.6089934692099
 20
5.115747138728873
 30
0.0
 10
30.67489352614398
 20
4.465585834346013
 30
0.0
 10
31.74359656580443
 20
3.683356009014832
 30
0.0
 10
32.80917212284844
 20
2.791524323221998
 30
0.0
 10
33.51997234402666
 20
2.130542658469438
 30
0.0
 10
33.87551407992554
 20
1.799920127016215
 30
0.0
  0
SPLINE
  5
C6
330
1F
100
AcDbEntity
  8
0
  6
Continuous
 62
     1
370
    15
100
AcDbSpline
210
0.0
220
0.0
230
1.0
 70
     8
 71
     3
 72
    16
 73
    12
 74
     0
 42
0.000000001
 43
0.00000001
 40
0.0
 40
0.0
 40
0.0
 40
0.0
 40
0.1030912878273519
 40
0.2065237608233865
 40
0.3096911125157788
 40
0.4129374371705822
 40
0.5163027325142446
 40
0.638348097750443
 40
0.760616950563418
 40
0.8828858356434814
 40
0.9999999999999999
 40
0.9999999999999999
 40
0.9999999999999999
 40
0.9999999999999999
 10
9.999514079925646
 20
-0.8823707647361796
 30
0.0
 10
10.32043877709031
 20
-1.20125782742767
 30
0.0
 10
10.96335028587415
 20
-1.840087323623918
 30
0.0
 10
11.93054132280862
 20
-2.754850214024921
 30
0.0
 10
12.89532175118988
 20
-3.616220517238549
 30
0.0
 10
13.86091233838208
 20
-4.398772393727235
 30
0.0
 10
14.88644343226646
 20
-5.126787948840368
 30
0.0
 10
15.96910246749028
 20
-5.763380957515396
 30
0.0
 10
17.11287607889123
 20
-6.250997649174415
 30
0.0
 10
18.24109351650403
 20
-6.557629057878307
 30
0.0
 10
18.9868810480065
 20
-6.591654322505875
 30
0.0
 10
19.35174515908284
 20
-6.608300615730251
 30
0.0
  0
LINE
  5
C7
330
1F
100
AcDbEntity
  8
0
  6
Continuous
 62
     1
370
    15
100
AcDbLine
 10
9.999514079924264
 20
-0.8823707647369946
 30
0.0
 11
9.999514079925518
 21
1.272372331068773
 31
0.0
  0
LINE
  5
C8
330
1F
100
AcDbEntity
  8
0
  6
Continuous
 62
     1
370
    15
100
AcDbLine
 10
9.999514079924262
 20
4.90065514755393
 30
0.0
 11
9.999514079925518
 21
5.841294773218537
 31
0.0
  0
SPLINE
  5
C9
330
1F
100
AcDbEntity
  8
0
  6
Continuous
 62
     1
370
    15
100
AcDbSpline
210
0.0
220
0.0
230
1.0
 70
     8
 71
     3
 72
    22
 73
    18
 74
     0
 42
0.000000001
 43
0.00000001
 40
0.0
 40
0.0
 40
0.0
 40
0.0
 40
0.1249999999999999
 40
0.1249999999999999
 40
0.2499999999999999
 40
0.2499999999999999
 40
0.3749999999999998
 40
0.3749999999999998
 40
0.4999999999999998
 40
0.4999999999999998
 40
0.6249999999999998
 40
0.6249999999999998
 40
0.7499999999999998
 40
0.7499999999999998
 40
0.8749999999999998
 40
0.8749999999999998
 40
1.0
 40
1.0
 40
1.0
 40
1.0
 10
17.11282672200224
 20
-6.221505242138881
 30
0.0
 10
16.81892199394139
 20
-6.323598939502403
 30
0.0
 10
16.52095141453716
 20
-6.40669661931832
 30
0.0
 10
15.92556029166143
 20
-6.531962807705975
 30
0.0
 10
15.62986847484171
 20
-6.574091028304222
 30
0.0
 10
15.04008783161182
 20
-6.617014346975318
 30
0.0
 10
14.74168911665771
 20
-6.617827623565224
 30
0.0
 10
14.1465979212941
 20
-6.577763857966015
 30
0.0
 10
13.85250224865348
 20
-6.5370924623926
 30
0.0
 10
13.26104097963931
 20
-6.415053217276553
 30
0.0
 10
12.96236525916303
 20
-6.333451425158471
 30
0.0
 10
12.36787341508161
 20
-6.131272546609379
 30
0.0
 10
12.07468861292554
 20
-6.011167053028487
 30
0.0
 10
11.48184007363076
 20
-5.733410597782507
 30
0.0
 10
11.18303894838656
 20
-5.575734752713481
 30
0.0
 10
10.58944487427299
 20
-5.227367560378467
 30
0.0
 10
10.29648415006885
 20
-5.037190645043119
 30
0.0
 10
9.999514079925467
 20
-4.831196873320412
 30
0.0
  0
SPLINE
  5
CA
330
1F
100
AcDbEntity
  8
0
  6
Continuous
 62
     1
370
    15
100
AcDbSpline
210
0.0
220
0.0
230
1.0
 70
    24
 71
     3
 72
    16
 73
    12
 74
     0
 42
0.000000001
 43
0.00000001
 40
0.0
 40
0.0
 40
0.0
 40
0.0
 40
0.2500000000000001
 40
0.2500000000000001
 40
0.5000000000000001
 40
0.5000000000000001
 40
0.7500000000000002
 40
0.7500000000000002
 40
0.8750000000000001
 40
0.8750000000000001
 40
1.0
 40
1.0
 40
1.0
 40
1.0
 10
9.999514079925518
 20
-0.8823707647385322
 30
0.0
 10
9.999514079925518
 20
-0.9739221875932533
 30
0.0
 10
9.999514079925518
 20
-1.106573439858096
 30
0.0
 10
9.999514079925518
 20
-1.500963731928185
 30
0.0
 10
9.999514079925518
 20
-1.764495098192076
 30
0.0
 10
9.999514079925518
 20
-2.450127347172468
 30
0.0
 10
9.999514079925518
 20
-2.874616915880973
 30
0.0
 10
9.999514079925518
 20
-3.586004481312257
 30
0.0
 10
9.999514079925518
 20
-3.834547700720049
 30
0.0
 10
9.999514079925518
 20
-4.335631881602318
 30
0.0
 10
9.999514079925518
 20
-4.587991766769327
 30
0.0
 10
9.999514079925518
 20
-4.831196873320447
 30
0.0
  0
SPLINE
  5
CC
330
1F
100
AcDbEntity
  8
0
  6
Continuous
 62
     1
370
    15
100
AcDbSpline
210
0.0
220
0.0
230
1.0
 70
     8
 71
     3
 72
    34
 73
    30
 74
     0
 42
0.000000001
 43
0.00000001
 40
0.0
 40
0.0
 40
0.0
 40
0.0
 40
0.1250000000000004
 40
0.1250000000000004
 40
0.1875000000000005
 40
0.1875000000000005
 40
0.2500000000000007
 40
0.2500000000000007
 40
0.3750000000000009
 40
0.3750000000000009
 40
0.5000000000000011
 40
0.5000000000000011
 40
0.6250000000000014
 40
0.6250000000000014
 40
0.6875000000000017
 40
0.6875000000000017
 40
0.7187500000000018
 40
0.7187500000000018
 40
0.7500000000000018
 40
0.7500000000000018
 40
0.7812500000000019
 40
0.7812500000000019
 40
0.812500000000002
 40
0.812500000000002
 40
0.8750000000000013
 40
0.8750000000000013
 40
0.9375000000000007
 40
0.9375000000000007
 40
1.0
 40
1.0
 40
1.0
 40
1.0
 10
33.87551407992552
 20
5.970014077163127
 30
0.0
 10
34.09102601402733
 20
5.928582528702949
 30
0.0
 10
34.29165233107695
 20
5.832418237776351
 30
0.0
 10
34.57072961387178
 20
5.617841988452537
 30
0.0
 10
34.65794700791354
 20
5.53580776579252
 30
0.0
 10
34.82035613099887
 20
5.352163142324495
 30
0.0
 10
34.89599017324649
 20
5.24970327956358
 30
0.0
 10
35.09811541823084
 20
4.920290022428831
 30
0.0
 10
35.19861639292743
 20
4.672021027266635
 30
0.0
 10
35.32861499469679
 20
4.159208786425093
 30
0.0
 10
35.35729433634538
 20
3.901358691999028
 30
0.0
 10
35.38236211853799
 20
3.424244124024365
 30
0.0
 10
35.38312731302477
 20
3.207108618455157
 30
0.0
 10
35.35834170827533
 20
2.944289300844986
 30
0.0
 10
35.34534284692152
 20
2.868005487273578
 30
0.0
 10
35.30422122952537
 20
2.781730702588211
 30
0.0
 10
35.28704996555971
 20
2.758516434062574
 30
0.0
 10
35.24129091864203
 20
2.727196989284341
 30
0.0
 10
35.21263507438854
 20
2.719481420115799
 30
0.0
 10
35.14141347673892
 20
2.725269340320697
 30
0.0
 10
35.09852817380162
 20
2.739072665473827
 30
0.0
 10
35.00239325924243
 20
2.786361356421453
 30
0.0
 10
34.94860116957251
 20
2.819984634662415
 30
0.0
 10
34.78147756504798
 20
2.937299003674572
 30
0.0
 10
34.66309491357944
 20
3.035458844719698
 30
0.0
 10
34.43155583794069
 20
3.23111203451358
 30
0.0
 10
34.31735459419986
 20
3.329885410701197
 30
0.0
 10
34.09228561008755
 20
3.519824503928251
 30
0.0
 10
33.98310790826347
 20
3.609769345522738
 30
0.0
 10
33.87551407992552
 20
3.694186937622799
 30
0.0
  0
LINE
  5
CD
330
1F
100
AcDbEntity
  8
0
  6
Continuous
 62
     1
370
    15
100
AcDbLine
 10
35.39951407992552
 20
-0.2622744311706875
 30
0.0
 11
35.39951407992552
 21
5.325725568829313
 31
0.0
  0
LINE
  5
CE
330
1F
100
AcDbEntity
  8
0
  6
Continuous
 62
     1
370
    15
100
AcDbLine
 10
35.39951407992552
 20
-5.850274431170688
 30
0.0
 11
35.39951407992552
 21
-0.2622744311706875
 31
0.0
  0
SPLINE
  5
CF
330
1F
100
AcDbEntity
  8
0
  6
Continuous
 62
     1
370
    15
100
AcDbSpline
210
0.0
220
0.0
230
1.0
 70
     8
 71
     3
 72
    13
 73
     9
 74
     0
 42
0.000000001
 43
0.00000001
 40
0.0
 40
0.0
 40
0.0
 40
0.0
 40
0.1870313371747
 40
0.3739136714707588
 40
0.5613155983768479
 40
0.7482398644994244
 40
0.9352072501342945
 40
1.0
 40
1.0
 40
1.0
 40
1.0
 10
33.87551407992552
 20
3.694186937622799
 30
0.0
 10
33.51997244241524
 20
3.961543205036672
 30
0.0
 10
32.80917241793582
 20
4.496042744255931
 30
0.0
 10
31.74359538518586
 20
5.134457630812268
 30
0.0
 10
30.67489796254881
 20
5.630668348664745
 30
0.0
 10
29.60897695351631
 20
5.946895561617826
 30
0.0
 10
28.77569371300111
 20
6.096276041922385
 30
0.0
 10
28.29667720379643
 20
6.071583054324321
 30
0.0
 10
28.17339796897742
 20
6.065228090438967
 30
0.0
  0
LINE
  5
D0
330
1F
100
AcDbEntity
  8
0
  6
Continuous
 62
     1
370
    15
100
AcDbLine
 10
10.46321188827451
 20
-6.204336619659306
 30
0.0
 11
9.999514079925467
 21
-6.365843635559929
 31
0.0
  0
SPLINE
  5
D1
330
1F
100
AcDbEntity
  8
0
  6
Continuous
 62
     1
370
    15
100
AcDbSpline
210
0.0
220
0.0
230
1.0
 70
     8
 71
     3
 72
    10
 73
     6
 74
     0
 42
0.000000001
 43
0.00000001
 40
0.0
 40
0.0
 40
0.0
 40
0.0
 40
0.3566129745065827
 40
0.7144061753972354
 40
1.0
 40
1.0
 40
1.0
 40
1.0
 10
9.999514079923781
 20
-6.045300343466431
 30
0.0
 10
10.32043821551304
 20
-6.164457958642144
 30
0.0
 10
10.96334859928752
 20
-6.403167546381961
 30
0.0
 10
11.8661914036687
 20
-6.585131116712408
 30
0.0
 10
12.44548249016363
 20
-6.595815801582833
 30
0.0
 10
12.70262469290466
 20
-6.600558638935637
 30
0.0
  0
SPLINE
  5
D2
330
1F
100
AcDbEntity
  8
0
  6
Continuous
 62
     1
370
    15
100
AcDbSpline
210
0.0
220
0.0
230
1.0
 70
     8
 71
     3
 72
    11
 73
     7
 74
     0
 42
0.000000001
 43
0.00000001
 40
0.0
 40
0.0
 40
0.0
 40
0.0
 40
0.0760499749470668
 40
0.3845217429872678
 40
0.6921382388660601
 40
1.0
 40
1.0
 40
1.0
 40
1.0
 10
30.41113109451054
 20
5.681335672028244
 30
0.0
 10
30.49889763029714
 20
5.716354458060604
 30
0.0
 10
30.942660318452
 20
5.893415458433489
 30
0.0
 10
31.74367830876006
 20
6.041742095472821
 30
0.0
 10
32.8091516917661
 20
6.125670163672408
 30
0.0
 10
33.51996553185685
 20
6.02191322155924
 30
0.0
 10
33.87551407992553
 20
5.970014077170503
 30
0.0
  0
SPLINE
  5
D3
330
1F
100
AcDbEntity
  8
0
  6
Continuous
 62
     1
370
    15
100
AcDbSpline
210
0.0
220
0.0
230
1.0
 70
    24
 71
     3
 72
     9
 73
     5
 74
     0
 42
0.000000001
 43
0.00000001
 40
0.0
 40
0.0
 40
0.0
 40
0.0
 40
0.0542362339432089
 40
1.0
 40
1.0
 40
1.0
 40
1.0
 10
9.999514079925518
 20
-6.098784917105926
 30
0.0
 10
9.999514079925518
 20
-6.102885269536086
 30
0.0
 10
9.999514079925518
 20
-6.178486986912951
 30
0.0
 10
9.999514079925518
 20
-6.274776501557706
 30
0.0
 10
9.999514079925518
 20
-6.365843635559911
 30
0.0
  0
LINE
  5
D4
330
1F
100
AcDbEntity
  8
0
  6
Continuous
 62
     1
370
    15
100
AcDbLine
 10
9.99951407992552
 20
-6.045300343459506
 30
0.0
 11
9.999514079925518
 21
-4.831196873320445
 31
0.0
  0
LINE
  5
D8
330
1F
100
AcDbEntity
  8
중심선
100
AcDbLine
 10
-43.80048592007446
 20
-0.2622744311706864
 30
0.0
 11
38.39951407992552
 21
-0.2622744311706864
 31
0.0
  0
CIRCLE
  5
D9
330
1F
100
AcDbEntity
  8
외형선
100
AcDbCircle
 10
-0.0004859200752207
 20
-0.2622744311706864
 30
0.0
 40
3.000000000000004
  0
INSERT
  5
DA
330
1F
100
AcDbEntity
  8
0
  6
Continuous
 62
     7
100
AcDbBlockReference
 66
     1
  2
블럭10
 10
-16.62984641916796
 20
-52.04907070757051
 30
0.0
  0
ATTRIB
  5
DB
330
DA
100
AcDbEntity
  8
FORMAT
 62
     2
100
AcDbText
 10
-27.68086677135242
 20
-49.97370379473831
 30
0.0
 40
4.233333333333333
  1
GMG22917[ 6 FLUTE ]
 41
0.75
  7
SLDTEXTSTYLE0
 11
-27.68086677135242
 21
-52.09037046140498
 31
0.0
100
AcDbAttribute
  2
AUTOATTR0
 70
     0
 74
     1
  0
SEQEND
  5
DC
330
DA
100
AcDbEntity
  8
0
  6
Continuous
 62
     7
  0
HATCH
  5
DD
330
1F
100
AcDbEntity
  8
중심선
100
AcDbHatch
 10
0.0
 20
0.0
 30
0.0
210
0.0
220
0.0
230
1.0
  2
SOLID
 70
     1
 71
     0
 91
        1
 92
        0
 93
        4
 72
     1
 10
-10.91493711478711
 20
-35.80189640592657
 11
-14.36121235862439
 21
-35.80189640592657
 72
     1
 10
-14.36121235862439
 20
-35.80189640592657
 11
-16.48944221782842
 21
-38.33822198649916
 72
     1
 10
-16.48944221782842
 20
-38.33822198649916
 11
-13.04313388887798
 21
-38.33818255719667
 72
     1
 10
-13.04313388887798
 20
-38.33818255719667
 11
-10.91493711478711
 21
-35.80189640592657
 97
        0
 75
     0
 76
     1
 98
        1
 10
0.0
 20
0.0
  0
HATCH
  5
DE
330
1F
100
AcDbEntity
  8
중심선
100
AcDbHatch
 10
0.0
 20
0.0
 30
0.0
210
0.0
220
0.0
230
1.0
  2
SOLID
 70
     1
 71
     0
 91
        1
 92
        0
 93
        4
 72
     1
 10
-5.902173123751159
 20
-35.80189640592657
 11
-9.348448367588441
 21
-35.80189640592657
 72
     1
 10
-9.348448367588441
 20
-35.80189640592657
 11
-13.87958637594583
 21
-41.20189640592658
 72
     1
 10
-13.87958637594583
 20
-41.20189640592658
 11
-10.43331113210855
 21
-41.20189640592658
 72
     1
 10
-10.43331113210855
 20
-41.20189640592658
 11
-5.902173123751159
 21
-35.80189640592657
 97
        0
 75
     0
 76
     1
 98
        1
 10
0.0
 20
0.0
  0
HATCH
  5
DF
330
1F
100
AcDbEntity
  8
중심선
100
AcDbHatch
 10
0.0
 20
0.0
 30
0.0
210
0.0
220
0.0
230
1.0
  2
SOLID
 70
     1
 71
     0
 91
        1
 92
        0
 93
        4
 72
     1
 10
-0.8894091327152631
 20
-35.8018964059266
 11
-4.335684376552379
 21
-35.80189640592657
 72
     1
 10
-4.335684376552379
 20
-35.80189640592657
 11
-11.38412127844163
 21
-44.20189640592659
 72
     1
 10
-11.38412127844163
 20
-44.20189640592659
 11
-7.937846034604346
 21
-44.20189640592659
 72
     1
 10
-7.937846034604346
 20
-44.20189640592659
 11
-0.8894091327152633
 21
-35.8018964059266
 97
        0
 75
     0
 76
     1
 98
        1
 10
0.0
 20
0.0
  0
HATCH
  5
E0
330
1F
100
AcDbEntity
  8
중심선
100
AcDbHatch
 10
0.0
 20
0.0
 30
0.0
210
0.0
220
0.0
230
1.0
  2
SOLID
 70
     1
 71
     0
 91
        1
 92
        0
 93
        6
 72
     3
 10
3.910481298296936
 20
-40.00189640597785
 11
3.960054785062284
 21
1.540850780301639E-10
 40
0.3939339440162633
 50
17.09539180608434
 51
320.0019657685079
 73
     0
 72
     1
 10
5.593480953997531
 20
-38.58979041056487
 11
7.89878282769857
 21
-36.65546370051695
 72
     3
 10
3.91048129824409
 20
-40.00189640592671
 11
6.600054785286829
 21
-1.249000902703301E-13
 40
0.6363583540795982
 50
39.99873849337408
 51
368.4976242363725
 73
     1
 72
     1
 10
10.3358137901447
 20
-39.04189640585659
 11
2.590548605080012
 21
-39.04189640585656
 72
     1
 10
2.590548605080012
 20
-39.04189640585656
 11
2.590523560634078
 21
-40.96189640585649
 72
     1
 10
2.590523560634078
 20
-40.96189640585649
 11
7.031903330106115
 21
-40.96189640585646
 97
        0
 75
     0
 76
     1
 98
        1
 10
0.0
 20
0.0
  0
DIMENSION
  5
E2
330
1F
100
AcDbEntity
  8
치수문자_일반주서
100
AcDbDimension
  2
_D
 10
52.45825979569849
 20
6.087725568829383
 30
0.0
 11
52.4582597956985
 21
2.416171784175782
 31
0.0
 70
   160
  1
%%c<>
 71
     2
 42
12.7
 52
-270.0
  3
SLDDIMSTYLE0
100
AcDbAlignedDimension
 13
33.87551407992552
 23
-6.612274431170686
 33
0.0
 14
33.81301407992552
 24
6.087725568829312
 34
0.0
 50
90.0000000000002
100
AcDbRotatedDimension
1001
ACAD
1000
DSTYLE
1002
{
1070
   273
1070
     7
1002
}
  0
DIMENSION
  5
F7
330
1F
100
AcDbEntity
  8
치수문자_일반주서
100
AcDbDimension
  2
_D_1
 10
35.39951407992552
 20
38.74327698690109
 30
0.0
 11
-2.700485920074479
 21
38.74327698690109
 31
0.0
 70
   160
  1
<>
 71
     2
 42
76.2
  3
SLDDIMSTYLE1
100
AcDbAlignedDimension
 13
-40.80048592007449
 23
5.587725568829308
 33
0.0
 14
35.39951407992552
 24
4.563725568829313
 34
0.0
100
AcDbRotatedDimension
1001
ACAD
1000
DSTYLE
1002
{
1070
   273
1070
     7
1002
}
  0
DIMENSION
  5
10B
330
1F
100
AcDbEntity
  8
치수문자_일반주서
100
AcDbDimension
  2
_D_2
 10
9.999514079925467
 20
22.19072009916725
 30
0.0
 11
22.420115211827
 21
22.19072009916725
 31
0.0
 70
   160
  1
<>
 71
     2
 42
25.40000000000005
  3
SLDDIMSTYLE2
100
AcDbAlignedDimension
 13
35.39951407992552
 23
4.563725568829313
 33
0.0
 14
9.999514079925467
 24
-6.365843635559929
 34
0.0
100
AcDbRotatedDimension
1001
ACAD
1000
DSTYLE
1002
{
1070
   273
1070
     7
1002
}
  0
DIMENSION
  5
121
330
1F
100
AcDbEntity
  8
치수문자_일반주서
100
AcDbDimension
  2
_D_3
 10
-53.80048592007448
 20
-6.612274431170738
 30
0.0
 11
-53.8004859200745
 21
-0.2622744311706917
 31
0.0
 70
   160
  1
%%c<>
 71
     2
 42
12.7
  3
SLDDIMSTYLE2
100
AcDbAlignedDimension
 13
-40.30048592007449
 23
6.08772556882931
 33
0.0
 14
-40.30048592007449
 24
-6.61227443117069
 34
0.0
 50
90.0000000000002
100
AcDbRotatedDimension
1001
ACAD
1000
DSTYLE
1002
{
1070
   273
1070
     7
1002
}
  0
INSERT
  5
13B
330
1F
100
AcDbEntity
  8
외형선
100
AcDbBlockReference
  2
SW_DOWELSYMBOL_0
 10
-0.0004859200752207
 20
-0.2622744311706864
 30
0.0
  0
ARC
  5
162
102
{ACAD_REACTORS
102
}
330
1F
100
AcDbEntity
  8
0
  6
Continuous
 62
     1
370
    15
100
AcDbCircle
 10
34.63751407992552
 20
5.325725568829313
 30
0.0
 40
0.7619999999999998
100
AcDbArc
 50
0.0
 51
90.0
  0
ARC
  5
163
330
1F
100
AcDbEntity
  8
0
  6
Continuous
 62
     1
370
    15
100
AcDbCircle
 10
34.63751407992552
 20
-5.850274431170688
 30
0.0
 40
0.7619999999999998
100
AcDbArc
 50
270.0
 51
0.0
  0
DIMENSION
  5
165
102
{ACAD_REACTORS
102
}
102
{ACAD_XDICTIONARY
360
166
102
}
330
1F
100
AcDbEntity
  8
치수문자_일반주서
100
AcDbDimension
  2
*D7
 10
34.63751407992552
 20
5.325725568829313
 30
0.0
 11
47.80960563967901
 21
21.57255568977768
 31
0.0
 70
   164
  1
<>
 71
     5
 42
0.7619999999999995
  3
SLDDIMSTYLE2
100
AcDbRadialDimension
 15
35.11740088411937
 25
5.917631520109252
 35
0.0
 40
0.0
1001
ACAD
1000
DSTYLE
1002
{
1070
   273
1070
     2
1002
}
1001
ACAD_DSTYLE_DIMRADIAL_EXTENSION
1070
   387
1070
     1
1070
   388
1040
0.0
1070
   390
1040
1.570796326794897
  0
ENDSEC
  0
SECTION
  2
OBJECTS
  0
DICTIONARY
  5
C
330
0
100
AcDbDictionary
281
     1
  3
ACAD_GROUP
350
D
  3
ACAD_IMAGE_VARS
350
15F
  3
ACAD_LAYOUT
350
1A
  3
ACAD_MLINESTYLE
350
17
  3
ACAD_PLOTSETTINGS
350
19
  3
ACAD_PLOTSTYLENAME
350
E
  3
ACAD_SCALELIST
350
47
  3
APPDATA
350
15D
  3
DWGPROPS
350
172
  0
DICTIONARY
  5
166
330
165
100
AcDbDictionary
280
     1
281
     1
  0
DICTIONARY
  5
D
102
{ACAD_REACTORS
330
C
102
}
330
C
100
AcDbDictionary
281
     1
  0
RASTERVARIABLES
  5
15F
102
{ACAD_REACTORS
330
C
102
}
330
C
100
AcDbRasterVariables
 90
        0
 70
     1
 71
     1
 72
     1
  0
DICTIONARY
  5
1A
102
{ACAD_REACTORS
330
C
102
}
330
C
100
AcDbDictionary
281
     1
  3
Layout1
350
1E
  3
Layout2
350
26
  3
Model
350
22
  0
DICTIONARY
  5
17
102
{ACAD_REACTORS
330
C
102
}
330
C
100
AcDbDictionary
281
     1
  3
Standard
350
18
  0
DICTIONARY
  5
19
102
{ACAD_REACTORS
330
C
102
}
330
C
100
AcDbDictionary
281
     1
  0
ACDBDICTIONARYWDFLT
  5
E
102
{ACAD_REACTORS
330
C
102
}
330
C
100
AcDbDictionary
281
     1
  3
Normal
350
F
100
AcDbDictionaryWithDefault
340
F
  0
DICTIONARY
  5
47
102
{ACAD_REACTORS
330
C
102
}
330
C
100
AcDbDictionary
281
     1
  3
A0
350
48
  3
A1
350
49
  3
A2
350
4A
  3
A3
350
4B
  3
A4
350
4C
  3
A5
350
4D
  3
A6
350
4E
  3
A7
350
4F
  3
A8
350
50
  3
A9
350
51
  3
B0
350
52
  3
B1
350
53
  3
B2
350
54
  3
B3
350
55
  3
B4
350
56
  3
B5
350
57
  3
B6
350
58
  3
B7
350
59
  3
B8
350
5A
  3
B9
350
5B
  3
C0
350
5C
  3
C1
350
5D
  3
C2
350
5E
  3
C3
350
5F
  3
C4
350
60
  3
C5
350
61
  3
C6
350
62
  3
C7
350
63
  3
C8
350
64
  3
C9
350
65
  3
D0
350
66
  3
D1
350
67
  3
D2
350
68
  0
DICTIONARY
  5
15D
102
{ACAD_REACTORS
330
C
102
}
330
C
100
AcDbDictionary
281
     1
  0
XRECORD
  5
172
102
{ACAD_REACTORS
330
C
102
}
330
C
100
AcDbXrecord
280
     1
  1
DWGPROPS COOKIE
  2

  3

  4

  6

  7

  8
12016016
  9

300
=
301
=
302
=
303
=
304
=
305
=
306
=
307
=
308
=
309
=
 40
0.0
 41
2458236.368525
 42
2458241.223035139
  1

 90
        0
  0
LAYOUT
  5
1E
102
{ACAD_REACTORS
330
1A
102
}
330
1A
100
AcDbPlotSettings
  1

  2
none_device
  4

  6

 40
0.0
 41
0.0
 42
0.0
 43
0.0
 44
0.0
 45
0.0
 46
0.0
 47
0.0
 48
0.0
 49
0.0
140
0.0
141
0.0
142
1.0
143
1.0
 70
   688
 72
     1
 73
     0
 74
     5
  7

 75
    16
147
1.0
148
0.0
149
0.0
100
AcDbLayout
  1
Layout1
 70
     1
 71
     1
 10
0.0
 20
0.0
 11
420.0
 21
297.0
 12
0.0
 22
0.0
 32
0.0
 14
1.000000000000000E+20
 24
1.000000000000000E+20
 34
1.000000000000000E+20
 15
-1.000000000000000E+20
 25
-1.000000000000000E+20
 35
-1.000000000000000E+20
146
0.0
 13
0.0
 23
0.0
 33
0.0
 16
1.0
 26
0.0
 36
0.0
 17
0.0
 27
1.0
 37
0.0
 76
     0
330
1B
  0
LAYOUT
  5
26
102
{ACAD_REACTORS
330
1A
102
}
330
1A
100
AcDbPlotSettings
  1

  2
none_device
  4

  6

 40
0.0
 41
0.0
 42
0.0
 43
0.0
 44
0.0
 45
0.0
 46
0.0
 47
0.0
 48
0.0
 49
0.0
140
0.0
141
0.0
142
1.0
143
1.0
 70
   688
 72
     1
 73
     0
 74
     5
  7

 75
    16
147
1.0
148
0.0
149
0.0
100
AcDbLayout
  1
Layout2
 70
     1
 71
     2
 10
0.0
 20
0.0
 11
0.0
 21
0.0
 12
0.0
 22
0.0
 32
0.0
 14
0.0
 24
0.0
 34
0.0
 15
0.0
 25
0.0
 35
0.0
146
0.0
 13
0.0
 23
0.0
 33
0.0
 16
1.0
 26
0.0
 36
0.0
 17
0.0
 27
1.0
 37
0.0
 76
     0
330
23
  0
LAYOUT
  5
22
102
{ACAD_REACTORS
330
1A
102
}
330
1A
100
AcDbPlotSettings
  1

  2
none_device
  4
ANSI_A_(11.00_x_8.50_Inches)
  6

 40
6.35
 41
19.05
 42
6.35000508
 43
19.05000254
 44
279.4
 45
215.9
 46
130.0565626932801
 47
90.13476376292553
 48
0.0
 49
0.0
140
0.0
141
0.0
142
0.0822892103079729
143
1.0
 70
  1696
 72
     0
 73
     0
 74
     0
  7

 75
     0
147
0.0235690232323232
148
0.0
149
0.0
100
AcDbLayout
  1
Model
 70
     1
 71
     0
 10
0.0
 20
0.0
 11
420.0
 21
297.0
 12
0.0
 22
0.0
 32
0.0
 14
-58.17548592007454
 24
-49.97370379473832
 34
0.0
 15
56.07537244419913
 25
43.11827698690109
 35
0.0
146
0.0
 13
0.0
 23
0.0
 33
0.0
 16
1.0
 26
0.0
 36
0.0
 17
0.0
 27
1.0
 37
0.0
 76
     0
330
1F
331
29
  0
MLINESTYLE
  5
18
102
{ACAD_REACTORS
330
17
102
}
330
17
100
AcDbMlineStyle
  2
Standard
 70
     0
  3

 62
   256
 51
90.0
 52
90.0
 71
     2
 49
0.5
 62
   256
  6
BYLAYER
 49
-0.5
 62
   256
  6
BYLAYER
  0
ACDBPLACEHOLDER
  5
F
102
{ACAD_REACTORS
330
E
102
}
330
E
  0
SCALE
  5
48
102
{ACAD_REACTORS
330
47
102
}
330
47
100
AcDbScale
 70
     0
300
1:1
140
1.0
141
1.0
290
     1
  0
SCALE
  5
49
102
{ACAD_REACTORS
330
47
102
}
330
47
100
AcDbScale
 70
     0
300
1:2
140
1.0
141
2.0
290
     0
  0
SCALE
  5
4A
102
{ACAD_REACTORS
330
47
102
}
330
47
100
AcDbScale
 70
     0
300
1:4
140
1.0
141
4.0
290
     0
  0
SCALE
  5
4B
102
{ACAD_REACTORS
330
47
102
}
330
47
100
AcDbScale
 70
     0
300
1:5
140
1.0
141
5.0
290
     0
  0
SCALE
  5
4C
102
{ACAD_REACTORS
330
47
102
}
330
47
100
AcDbScale
 70
     0
300
1:8
140
1.0
141
8.0
290
     0
  0
SCALE
  5
4D
102
{ACAD_REACTORS
330
47
102
}
330
47
100
AcDbScale
 70
     0
300
1:10
140
1.0
141
10.0
290
     0
  0
SCALE
  5
4E
102
{ACAD_REACTORS
330
47
102
}
330
47
100
AcDbScale
 70
     0
300
1:16
140
1.0
141
16.0
290
     0
  0
SCALE
  5
4F
102
{ACAD_REACTORS
330
47
102
}
330
47
100
AcDbScale
 70
     0
300
1:20
140
1.0
141
20.0
290
     0
  0
SCALE
  5
50
102
{ACAD_REACTORS
330
47
102
}
330
47
100
AcDbScale
 70
     0
300
1:30
140
1.0
141
30.0
290
     0
  0
SCALE
  5
51
102
{ACAD_REACTORS
330
47
102
}
330
47
100
AcDbScale
 70
     0
300
1:40
140
1.0
141
40.0
290
     0
  0
SCALE
  5
52
102
{ACAD_REACTORS
330
47
102
}
330
47
100
AcDbScale
 70
     0
300
1:50
140
1.0
141
50.0
290
     0
  0
SCALE
  5
53
102
{ACAD_REACTORS
330
47
102
}
330
47
100
AcDbScale
 70
     0
300
1:100
140
1.0
141
100.0
290
     0
  0
SCALE
  5
54
102
{ACAD_REACTORS
330
47
102
}
330
47
100
AcDbScale
 70
     0
300
2:1
140
2.0
141
1.0
290
     0
  0
SCALE
  5
55
102
{ACAD_REACTORS
330
47
102
}
330
47
100
AcDbScale
 70
     0
300
4:1
140
4.0
141
1.0
290
     0
  0
SCALE
  5
56
102
{ACAD_REACTORS
330
47
102
}
330
47
100
AcDbScale
 70
     0
300
8:1
140
8.0
141
1.0
290
     0
  0
SCALE
  5
57
102
{ACAD_REACTORS
330
47
102
}
330
47
100
AcDbScale
 70
     0
300
10:1
140
10.0
141
1.0
290
     0
  0
SCALE
  5
58
102
{ACAD_REACTORS
330
47
102
}
330
47
100
AcDbScale
 70
     0
300
100:1
140
100.0
141
1.0
290
     0
  0
SCALE
  5
59
102
{ACAD_REACTORS
330
47
102
}
330
47
100
AcDbScale
 70
     0
300
1/128" = 1'-0"
140
0.0078125
141
12.0
290
     0
  0
SCALE
  5
5A
102
{ACAD_REACTORS
330
47
102
}
330
47
100
AcDbScale
 70
     0
300
1/64" = 1'-0"
140
0.015625
141
12.0
290
     0
  0
SCALE
  5
5B
102
{ACAD_REACTORS
330
47
102
}
330
47
100
AcDbScale
 70
     0
300
1/32" = 1'-0"
140
0.03125
141
12.0
290
     0
  0
SCALE
  5
5C
102
{ACAD_REACTORS
330
47
102
}
330
47
100
AcDbScale
 70
     0
300
1/16" = 1'-0"
140
0.0625
141
12.0
290
     0
  0
SCALE
  5
5D
102
{ACAD_REACTORS
330
47
102
}
330
47
100
AcDbScale
 70
     0
300
3/32" = 1'-0"
140
0.09375
141
12.0
290
     0
  0
SCALE
  5
5E
102
{ACAD_REACTORS
330
47
102
}
330
47
100
AcDbScale
 70
     0
300
1/8" = 1'-0"
140
0.125
141
12.0
290
     0
  0
SCALE
  5
5F
102
{ACAD_REACTORS
330
47
102
}
330
47
100
AcDbScale
 70
     0
300
3/16" = 1'-0"
140
0.1875
141
12.0
290
     0
  0
SCALE
  5
60
102
{ACAD_REACTORS
330
47
102
}
330
47
100
AcDbScale
 70
     0
300
1/4" = 1'-0"
140
0.25
141
12.0
290
     0
  0
SCALE
  5
61
102
{ACAD_REACTORS
330
47
102
}
330
47
100
AcDbScale
 70
     0
300
3/8" = 1'-0"
140
0.375
141
12.0
290
     0
  0
SCALE
  5
62
102
{ACAD_REACTORS
330
47
102
}
330
47
100
AcDbScale
 70
     0
300
1/2" = 1'-0"
140
0.5
141
12.0
290
     0
  0
SCALE
  5
63
102
{ACAD_REACTORS
330
47
102
}
330
47
100
AcDbScale
 70
     0
300
3/4" = 1'-0"
140
0.75
141
12.0
290
     0
  0
SCALE
  5
64
102
{ACAD_REACTORS
330
47
102
}
330
47
100
AcDbScale
 70
     0
300
1" = 1'-0"
140
1.0
141
12.0
290
     0
  0
SCALE
  5
65
102
{ACAD_REACTORS
330
47
102
}
330
47
100
AcDbScale
 70
     0
300
1-1/2" = 1'-0"
140
1.5
141
12.0
290
     0
  0
SCALE
  5
66
102
{ACAD_REACTORS
330
47
102
}
330
47
100
AcDbScale
 70
     0
300
3" = 1'-0"
140
3.0
141
12.0
290
     0
  0
SCALE
  5
67
102
{ACAD_REACTORS
330
47
102
}
330
47
100
AcDbScale
 70
     0
300
6" = 1'-0"
140
6.0
141
12.0
290
     0
  0
SCALE
  5
68
102
{ACAD_REACTORS
330
47
102
}
330
47
100
AcDbScale
 70
     0
300
1'-0" = 1'-0"
140
12.0
141
12.0
290
     0
  0
ENDSEC
  0
EOF
