  0
SECTION
  2
HEADER
  9
$ACADVER
  1
AC1015
  9
$ACADMAINTVER
 70
     6
  9
$DWGCODEPAGE
  3
ANSI_949
  9
$INSBASE
 10
0.0
 20
0.0
 30
0.0
  9
$EXTMIN
 10
-58.17548592007454
 20
-49.97370379473832
 30
0.0
  9
$EXTMAX
 10
58.88897489198095
 20
41.5307769869011
 30
0.0
  9
$LIMMIN
 10
0.0
 20
0.0
  9
$LIMMAX
 10
420.0
 20
297.0
  9
$ORTHOMODE
 70
     0
  9
$REGENMODE
 70
     1
  9
$FILLMODE
 70
     1
  9
$QTEXTMODE
 70
     0
  9
$MIRRTEXT
 70
     1
  9
$LTSCALE
 40
1.0
  9
$ATTMODE
 70
     1
  9
$TEXTSIZE
 40
3.5
  9
$TRACEWID
 40
1.0
  9
$TEXTSTYLE
  7
Standard
  9
$CLAYER
  8
0
  9
$CELTYPE
  6
ByLayer
  9
$CECOLOR
 62
   256
  9
$CELTSCALE
 40
1.0
  9
$DISPSILH
 70
     0
  9
$DIMSCALE
 40
1.0
  9
$DIMASZ
 40
3.302
  9
$DIMEXO
 40
1.0
  9
$DIMDLI
 40
3.75
  9
$DIMRND
 40
0.0
  9
$DIMDLE
 40
0.0
  9
$DIMEXE
 40
1.0
  9
$DIMTP
 40
0.0
  9
$DIMTM
 40
0.0
  9
$DIMTXT
 40
3.5
  9
$DIMCEN
 40
2.5
  9
$DIMTSZ
 40
0.0
  9
$DIMTOL
 70
     0
  9
$DIMLIM
 70
     0
  9
$DIMTIH
 70
     1
  9
$DIMTOH
 70
     1
  9
$DIMSE1
 70
     0
  9
$DIMSE2
 70
     0
  9
$DIMTAD
 70
     1
  9
$DIMZIN
 70
     0
  9
$DIMBLK
  1

  9
$DIMASO
 70
     1
  9
$DIMSHO
 70
     1
  9
$DIMPOST
  1

  9
$DIMAPOST
  1

  9
$DIMALT
 70
     0
  9
$DIMALTD
 70
     3
  9
$DIMALTF
 40
0.0393700787401575
  9
$DIMLFAC
 40
1.0
  9
$DIMTOFL
 70
     1
  9
$DIMTVP
 40
0.0
  9
$DIMTIX
 70
     0
  9
$DIMSOXD
 70
     0
  9
$DIMSAH
 70
     0
  9
$DIMBLK1
  1

  9
$DIMBLK2
  1

  9
$DIMSTYLE
  2
ISO-25
  9
$DIMCLRD
 70
     0
  9
$DIMCLRE
 70
     0
  9
$DIMCLRT
 70
     0
  9
$DIMTFAC
 40
1.0
  9
$DIMGAP
 40
1.524
  9
$DIMJUST
 70
     0
  9
$DIMSD1
 70
     0
  9
$DIMSD2
 70
     0
  9
$DIMTOLJ
 70
     0
  9
$DIMTZIN
 70
     0
  9
$DIMALTZ
 70
     0
  9
$DIMALTTZ
 70
     0
  9
$DIMUPT
 70
     0
  9
$DIMDEC
 70
     2
  9
$DIMTDEC
 70
     2
  9
$DIMALTU
 70
     2
  9
$DIMALTTD
 70
     3
  9
$DIMTXSTY
  7
Standard
  9
$DIMAUNIT
 70
     0
  9
$DIMADEC
 70
     2
  9
$DIMALTRND
 40
0.0
  9
$DIMAZIN
 70
     0
  9
$DIMDSEP
 70
    44
  9
$DIMATFIT
 70
     3
  9
$DIMFRAC
 70
     0
  9
$DIMLDRBLK
  1

  9
$DIMLUNIT
 70
     2
  9
$DIMLWD
 70
    -2
  9
$DIMLWE
 70
    -2
  9
$DIMTMOVE
 70
     0
  9
$LUNITS
 70
     2
  9
$LUPREC
 70
     2
  9
$SKETCHINC
 40
1.0
  9
$FILLETRAD
 40
10.0
  9
$AUNITS
 70
     0
  9
$AUPREC
 70
     2
  9
$MENU
  1
.
  9
$ELEVATION
 40
0.0
  9
$PELEVATION
 40
0.0
  9
$THICKNESS
 40
0.0
  9
$LIMCHECK
 70
     0
  9
$CHAMFERA
 40
0.0
  9
$CHAMFERB
 40
0.0
  9
$CHAMFERC
 40
0.0
  9
$CHAMFERD
 40
0.0
  9
$SKPOLY
 70
     0
  9
$TDCREATE
 40
2458236.741997025
  9
$TDUCREATE
 40
2458236.366997025
  9
$TDUPDATE
 40
2458241.663795023
  9
$TDUUPDATE
 40
2458241.288795023
  9
$TDINDWG
 40
0.0016556366
  9
$TDUSRTIMER
 40
2458241.287139607
  9
$USRTIMER
 70
     1
  9
$ANGBASE
 50
0.0
  9
$ANGDIR
 70
     0
  9
$PDMODE
 70
     0
  9
$PDSIZE
 40
-1.0
  9
$PLINEWID
 40
0.0
  9
$SPLFRAME
 70
     0
  9
$SPLINETYPE
 70
     6
  9
$SPLINESEGS
 70
     8
  9
$HANDSEED
  5
18B
  9
$SURFTAB1
 70
     6
  9
$SURFTAB2
 70
     6
  9
$SURFTYPE
 70
     6
  9
$SURFU
 70
     6
  9
$SURFV
 70
     6
  9
$UCSBASE
  2

  9
$UCSNAME
  2

  9
$UCSORG
 10
0.0
 20
0.0
 30
0.0
  9
$UCSXDIR
 10
1.0
 20
0.0
 30
0.0
  9
$UCSYDIR
 10
0.0
 20
1.0
 30
0.0
  9
$UCSORTHOREF
  2

  9
$UCSORTHOVIEW
 70
     0
  9
$UCSORGTOP
 10
0.0
 20
0.0
 30
0.0
  9
$UCSORGBOTTOM
 10
0.0
 20
0.0
 30
0.0
  9
$UCSORGLEFT
 10
0.0
 20
0.0
 30
0.0
  9
$UCSORGRIGHT
 10
0.0
 20
0.0
 30
0.0
  9
$UCSORGFRONT
 10
0.0
 20
0.0
 30
0.0
  9
$UCSORGBACK
 10
0.0
 20
0.0
 30
0.0
  9
$PUCSBASE
  2

  9
$PUCSNAME
  2

  9
$PUCSORG
 10
0.0
 20
0.0
 30
0.0
  9
$PUCSXDIR
 10
1.0
 20
0.0
 30
0.0
  9
$PUCSYDIR
 10
0.0
 20
1.0
 30
0.0
  9
$PUCSORTHOREF
  2

  9
$PUCSORTHOVIEW
 70
     0
  9
$PUCSORGTOP
 10
0.0
 20
0.0
 30
0.0
  9
$PUCSORGBOTTOM
 10
0.0
 20
0.0
 30
0.0
  9
$PUCSORGLEFT
 10
0.0
 20
0.0
 30
0.0
  9
$PUCSORGRIGHT
 10
0.0
 20
0.0
 30
0.0
  9
$PUCSORGFRONT
 10
0.0
 20
0.0
 30
0.0
  9
$PUCSORGBACK
 10
0.0
 20
0.0
 30
0.0
  9
$USERI1
 70
     0
  9
$USERI2
 70
     0
  9
$USERI3
 70
     0
  9
$USERI4
 70
     0
  9
$USERI5
 70
     0
  9
$USERR1
 40
0.0
  9
$USERR2
 40
0.0
  9
$USERR3
 40
0.0
  9
$USERR4
 40
0.0
  9
$USERR5
 40
0.0
  9
$WORLDVIEW
 70
     1
  9
$SHADEDGE
 70
     3
  9
$SHADEDIF
 70
    70
  9
$TILEMODE
 70
     1
  9
$MAXACTVP
 70
    64
  9
$PINSBASE
 10
0.0
 20
0.0
 30
0.0
  9
$PLIMCHECK
 70
     0
  9
$PEXTMIN
 10
1.000000000000000E+20
 20
1.000000000000000E+20
 30
1.000000000000000E+20
  9
$PEXTMAX
 10
-1.000000000000000E+20
 20
-1.000000000000000E+20
 30
-1.000000000000000E+20
  9
$PLIMMIN
 10
0.0
 20
0.0
  9
$PLIMMAX
 10
0.0
 20
0.0
  9
$UNITMODE
 70
     0
  9
$VISRETAIN
 70
     1
  9
$PLINEGEN
 70
     0
  9
$PSLTSCALE
 70
     1
  9
$TREEDEPTH
 70
  3020
  9
$CMLSTYLE
  2
Standard
  9
$CMLJUST
 70
     0
  9
$CMLSCALE
 40
20.0
  9
$PROXYGRAPHICS
 70
     1
  9
$MEASUREMENT
 70
     1
  9
$CELWEIGHT
370
    -1
  9
$ENDCAPS
280
     0
  9
$JOINSTYLE
280
     0
  9
$LWDISPLAY
290
     1
  9
$INSUNITS
 70
     4
  9
$HYPERLINKBASE
  1

  9
$STYLESHEET
  1

  9
$XEDIT
290
     1
  9
$CEPSNTYPE
380
     0
  9
$PSTYLEMODE
290
     1
  9
$FINGERPRINTGUID
  2
{06F541A8-45ED-43D3-8109-479F98555341}
  9
$VERSIONGUID
  2
{FAEB1C32-E019-11D5-929B-00C0DF256EC4}
  9
$EXTNAMES
290
     1
  9
$PSVPSCALE
 40
0.0
  9
$OLESTARTUP
290
     0
  0
ENDSEC
  0
SECTION
  2
CLASSES
  0
CLASS
  1
ACDBDICTIONARYWDFLT
  2
AcDbDictionaryWithDefault
  3
ObjectDBX Classes
 90
        0
280
     0
281
     0
  0
CLASS
  1
VISUALSTYLE
  2
AcDbVisualStyle
  3
ObjectDBX Classes
 90
     4095
280
     0
281
     0
  0
CLASS
  1
MATERIAL
  2
AcDbMaterial
  3
ObjectDBX Classes
 90
     1153
280
     0
281
     0
  0
CLASS
  1
SCALE
  2
AcDbScale
  3
ObjectDBX Classes
 90
     1153
280
     0
281
     0
  0
CLASS
  1
SUN
  2
AcDbSun
  3
SCENEOE
 90
     1153
280
     0
281
     0
  0
CLASS
  1
ACDBPLACEHOLDER
  2
AcDbPlaceHolder
  3
ObjectDBX Classes
 90
        0
280
     0
281
     0
  0
CLASS
  1
LAYOUT
  2
AcDbLayout
  3
ObjectDBX Classes
 90
        0
280
     0
281
     0
  0
CLASS
  1
TABLESTYLE
  2
AcDbTableStyle
  3
ObjectDBX Classes
 90
     4095
280
     0
281
     0
  0
CLASS
  1
MLEADERSTYLE
  2
AcDbMLeaderStyle
  3
ACDB_MLEADERSTYLE_CLASS
 90
     4095
280
     0
281
     0
  0
CLASS
  1
RASTERVARIABLES
  2
AcDbRasterVariables
  3
ISM
 90
        0
280
     0
281
     0
  0
CLASS
  1
DIMASSOC
  2
AcDbDimAssoc
  3
"AcDbDimAssoc|Product Desc:     AcDim ARX App For Dimension|Company:          Autodesk, Inc.|WEB Address:      www.autodesk.com"
 90
        0
280
     0
281
     0
  0
ENDSEC
  0
SECTION
  2
TABLES
  0
TABLE
  2
VPORT
  5
8
330
0
100
AcDbSymbolTable
 70
     1
  0
VPORT
  5
29
330
8
100
AcDbSymbolTableRecord
100
AcDbViewportTableRecord
  2
*Active
 70
     0
 10
0.0
 20
0.0
 11
1.0
 21
1.0
 12
50.12026197315326
 22
39.51670281070692
 13
0.0
 23
0.0
 14
10.0
 24
10.0
 15
10.0
 25
10.0
 16
0.0
 26
0.0
 36
1.0
 17
0.0
 27
0.0
 37
0.0
 40
311.6762607914836
 41
1.321695760598504
 42
50.0
 43
0.0
 44
0.0
 50
0.0
 51
0.0
 71
    16
 72
  2000
 73
     1
 74
     3
 75
     0
 76
     0
 77
     0
 78
     0
281
     0
 65
     1
110
0.0
120
0.0
130
0.0
111
1.0
121
0.0
131
0.0
112
0.0
122
1.0
132
0.0
 79
     0
146
0.0
  0
ENDTAB
  0
TABLE
  2
LTYPE
  5
5
330
0
100
AcDbSymbolTable
 70
     6
  0
LTYPE
  5
14
330
5
100
AcDbSymbolTableRecord
100
AcDbLinetypeTableRecord
  2
ByBlock
 70
     0
  3

 72
    65
 73
     0
 40
0.0
  0
LTYPE
  5
15
330
5
100
AcDbSymbolTableRecord
100
AcDbLinetypeTableRecord
  2
ByLayer
 70
     0
  3

 72
    65
 73
     0
 40
0.0
  0
LTYPE
  5
16
330
5
100
AcDbSymbolTableRecord
100
AcDbLinetypeTableRecord
  2
Continuous
 70
     0
  3
Solid line
 72
    65
 73
     0
 40
0.0
  0
LTYPE
  5
6A
330
5
100
AcDbSymbolTableRecord
100
AcDbLinetypeTableRecord
  2
HIDDEN
 70
     0
  3
Hidden __ __ __ __ __ __ __ __ __ __ __ __ __ __
 72
    65
 73
     2
 40
1.905
 49
1.27
 74
     0
 49
-0.635
 74
     0
  0
LTYPE
  5
6B
330
5
100
AcDbSymbolTableRecord
100
AcDbLinetypeTableRecord
  2
PHANTOM
 70
     0
  3
Phantom ______  __  __  ______  __  __  ______
 72
    65
 73
     6
 40
12.7
 49
6.35
 74
     0
 49
-1.27
 74
     0
 49
1.27
 74
     0
 49
-1.27
 74
     0
 49
1.27
 74
     0
 49
-1.27
 74
     0
  0
LTYPE
  5
6C
330
5
100
AcDbSymbolTableRecord
100
AcDbLinetypeTableRecord
  2
CENTER
 70
     0
  3
Center ____ _ ____ _ ____ _ ____ _ ____ _ ____
 72
    65
 73
     4
 40
10.16
 49
6.35
 74
     0
 49
-1.27
 74
     0
 49
1.27
 74
     0
 49
-1.27
 74
     0
  0
LTYPE
  5
6D
330
5
100
AcDbSymbolTableRecord
100
AcDbLinetypeTableRecord
  2
CENTERX2
 70
     0
  3
Center (2x) ________  __  ________  __  _____
 72
    65
 73
     4
 40
20.32
 49
12.7
 74
     0
 49
-2.54
 74
     0
 49
2.54
 74
     0
 49
-2.54
 74
     0
  0
LTYPE
  5
6E
330
5
100
AcDbSymbolTableRecord
100
AcDbLinetypeTableRecord
  2
DOT2
 70
     0
  3
Dot (.5x) ........................................
 72
    65
 73
     2
 40
0.635
 49
0.0
 74
     0
 49
-0.635
 74
     0
  0
ENDTAB
  0
TABLE
  2
LAYER
  5
2
330
0
100
AcDbSymbolTable
 70
    17
  0
LAYER
  5
10
330
2
100
AcDbSymbolTableRecord
100
AcDbLayerTableRecord
  2
0
 70
     0
 62
     7
  6
Continuous
370
    -3
390
F
  0
LAYER
  5
6F
330
2
100
AcDbSymbolTableRecord
100
AcDbLayerTableRecord
  2
FORMAT
 70
     0
 62
     2
  6
Continuous
370
    -3
390
F
  0
LAYER
  5
70
330
2
100
AcDbSymbolTableRecord
100
AcDbLayerTableRecord
  2
외형선
 70
     0
 62
   100
  6
Continuous
370
    30
390
F
  0
LAYER
  5
71
330
2
100
AcDbSymbolTableRecord
100
AcDbLayerTableRecord
  2
숨은선
 70
     0
 62
     2
  6
HIDDEN
370
    15
390
F
  0
LAYER
  5
72
330
2
100
AcDbSymbolTableRecord
100
AcDbLayerTableRecord
  2
중심선
 70
     0
 62
     1
  6
CENTERX2
370
    -3
390
F
  0
LAYER
  5
73
330
2
100
AcDbSymbolTableRecord
100
AcDbLayerTableRecord
  2
파단선
 70
     0
 62
     4
  6
Continuous
370
    -3
390
F
  0
LAYER
  5
74
330
2
100
AcDbSymbolTableRecord
100
AcDbLayerTableRecord
  2
해칭선
 70
     0
 62
     4
  6
Continuous
370
    -3
390
F
  0
LAYER
  5
75
330
2
100
AcDbSymbolTableRecord
100
AcDbLayerTableRecord
  2
가는실선
 70
     0
 62
     4
  6
Continuous
370
    -3
390
F
  0
LAYER
  5
76
330
2
100
AcDbSymbolTableRecord
100
AcDbLayerTableRecord
  2
치수_보조선
 70
     0
 62
     4
  6
Continuous
370
    -3
390
F
  0
LAYER
  5
77
330
2
100
AcDbSymbolTableRecord
100
AcDbLayerTableRecord
  2
치수문자_일반주서
 70
     0
 62
     7
  6
Continuous
370
    15
390
F
  0
LAYER
  5
78
330
2
100
AcDbSymbolTableRecord
100
AcDbLayerTableRecord
  2
개별주서
 70
     0
 62
   100
  6
Continuous
370
    30
390
F
  0
LAYER
  5
79
330
2
100
AcDbSymbolTableRecord
100
AcDbLayerTableRecord
  2
중간선
 70
     0
 62
     2
  6
Continuous
370
    15
390
F
  0
LAYER
  5
7A
330
2
100
AcDbSymbolTableRecord
100
AcDbLayerTableRecord
  2
윤곽선
 70
     0
 62
     3
  6
Continuous
370
    40
390
F
  0
LAYER
  5
7B
330
2
100
AcDbSymbolTableRecord
100
AcDbLayerTableRecord
  2
중심마크
 70
     0
 62
   100
  6
Continuous
370
    30
390
F
  0
LAYER
  5
7C
330
2
100
AcDbSymbolTableRecord
100
AcDbLayerTableRecord
  2
가상선
 70
     0
 62
     4
  6
PHANTOM
370
    -3
390
F
  0
LAYER
  5
7D
330
2
100
AcDbSymbolTableRecord
100
AcDbLayerTableRecord
  2
특수지정선
 70
     0
 62
     5
  6
CENTERX2
370
    60
390
F
  0
LAYER
  5
177
330
2
100
AcDbSymbolTableRecord
100
AcDbLayerTableRecord
  2
Defpoints
 70
     0
 62
     7
  6
Continuous
290
     0
370
    -3
390
F
  0
ENDTAB
  0
TABLE
  2
STYLE
  5
3
330
0
100
AcDbSymbolTable
 70
     2
  0
STYLE
  5
11
330
3
100
AcDbSymbolTableRecord
100
AcDbTextStyleTableRecord
  2
Standard
 70
     0
 40
0.0
 41
1.0
 50
0.0
 71
     0
 42
3.5
  3
txt
  4

  0
STYLE
  5
93
330
3
100
AcDbSymbolTableRecord
100
AcDbTextStyleTableRecord
  2
SLDTEXTSTYLE0
 70
     0
 40
0.0
 41
0.75
 50
0.0
 71
     0
 42
3.5
  3
TXT
  4

  0
ENDTAB
  0
TABLE
  2
VIEW
  5
6
330
0
100
AcDbSymbolTable
 70
     0
  0
ENDTAB
  0
TABLE
  2
UCS
  5
7
330
0
100
AcDbSymbolTable
 70
     0
  0
ENDTAB
  0
TABLE
  2
APPID
  5
9
330
0
100
AcDbSymbolTable
 70
     2
  0
APPID
  5
12
330
9
100
AcDbSymbolTableRecord
100
AcDbRegAppTableRecord
  2
ACAD
 70
     0
  0
APPID
  5
17B
330
9
100
AcDbSymbolTableRecord
100
AcDbRegAppTableRecord
  2
ACAD_DSTYLE_DIMRADIAL_EXTENSION
 70
     0
  0
ENDTAB
  0
TABLE
  2
DIMSTYLE
  5
A
330
0
100
AcDbSymbolTable
 70
     4
100
AcDbDimStyleTable
  0
DIMSTYLE
105
27
330
A
100
AcDbSymbolTableRecord
100
AcDbDimStyleTableRecord
  2
ISO-25
 70
     0
 41
2.5
 42
0.625
 43
3.75
 44
1.25
 73
     0
 74
     0
 77
     1
 78
     8
140
2.5
141
2.5
143
0.03937007874016
147
0.625
171
     3
172
     1
178
     0
271
     2
272
     2
274
     3
278
    44
283
     0
284
     8
340
11
  0
DIMSTYLE
105
FA
102
{ACAD_REACTORS
330
F9
330
138
102
}
330
A
100
AcDbSymbolTableRecord
100
AcDbDimStyleTableRecord
  2
SLDDIMSTYLE0
 70
     0
 41
3.302
 44
0.0
 45
0.000000001
 73
     0
 74
     0
 77
     1
 78
    12
 79
     3
140
3.5
143
0.0393700787401575
147
0.875
148
0.000000001
170
     1
172
     1
173
     1
178
     0
271
     2
272
     2
276
     2
284
    12
289
     0
340
93
  0
DIMSTYLE
105
10F
102
{ACAD_REACTORS
330
10E
102
}
330
A
100
AcDbSymbolTableRecord
100
AcDbDimStyleTableRecord
  2
SLDDIMSTYLE1
 70
     0
 41
3.302
 44
0.0
 45
0.000000001
 73
     0
 74
     0
 77
     1
 78
     4
 79
     1
140
3.5
143
0.0393700787401575
147
0.875
148
0.000000001
170
     1
173
     1
178
     0
271
     2
272
     2
276
     2
284
    12
340
93
  0
DIMSTYLE
105
123
102
{ACAD_REACTORS
330
122
330
17C
102
}
330
A
100
AcDbSymbolTableRecord
100
AcDbDimStyleTableRecord
  2
SLDDIMSTYLE2
 70
     0
 41
3.302
 44
0.0
 45
0.000000001
 73
     0
 74
     0
 77
     1
 78
     4
 79
     1
140
3.5
143
0.0393700787401575
147
0.875
148
0.000000001
170
     1
172
     1
173
     1
178
     0
271
     2
272
     2
276
     2
284
    12
289
     0
340
93
  0
ENDTAB
  0
TABLE
  2
BLOCK_RECORD
  5
1
330
0
100
AcDbSymbolTable
 70
     8
  0
BLOCK_RECORD
  5
1F
330
1
100
AcDbSymbolTableRecord
100
AcDbBlockTableRecord
  2
*Model_Space
340
22
  0
BLOCK_RECORD
  5
1B
330
1
100
AcDbSymbolTableRecord
100
AcDbBlockTableRecord
  2
*Paper_Space
340
1E
  0
BLOCK_RECORD
  5
23
330
1
100
AcDbSymbolTableRecord
100
AcDbBlockTableRecord
  2
*Paper_Space0
340
26
  0
BLOCK_RECORD
  5
7E
330
1
100
AcDbSymbolTableRecord
100
AcDbBlockTableRecord
  2
블럭10
340
0
102
{BLKREFS
331
F1
102
}
  0
BLOCK_RECORD
  5
FB
330
1
100
AcDbSymbolTableRecord
100
AcDbBlockTableRecord
  2
_D
340
0
  0
BLOCK_RECORD
  5
110
330
1
100
AcDbSymbolTableRecord
100
AcDbBlockTableRecord
  2
_D_1
340
0
  0
BLOCK_RECORD
  5
124
330
1
100
AcDbSymbolTableRecord
100
AcDbBlockTableRecord
  2
_D_2
340
0
  0
BLOCK_RECORD
  5
139
330
1
100
AcDbSymbolTableRecord
100
AcDbBlockTableRecord
  2
_D_3
340
0
  0
BLOCK_RECORD
  5
14C
330
1
100
AcDbSymbolTableRecord
100
AcDbBlockTableRecord
  2
SW_DOWELSYMBOL_0
340
0
102
{BLKREFS
331
152
102
}
  0
BLOCK_RECORD
  5
17F
330
1
100
AcDbSymbolTableRecord
100
AcDbBlockTableRecord
  2
*D7
340
0
  0
ENDTAB
  0
ENDSEC
  0
SECTION
  2
BLOCKS
  0
BLOCK
  5
20
330
1F
100
AcDbEntity
  8
0
100
AcDbBlockBegin
  2
*Model_Space
 70
     0
 10
0.0
 20
0.0
 30
0.0
  3
*Model_Space
  1
*Model_Space
  0
ENDBLK
  5
21
330
1F
100
AcDbEntity
  8
0
100
AcDbBlockEnd
  0
BLOCK
  5
1C
330
1B
100
AcDbEntity
 67
     1
  8
0
100
AcDbBlockBegin
  2
*Paper_Space
 70
     0
 10
0.0
 20
0.0
 30
0.0
  3
*Paper_Space
  1
*Paper_Space
  0
ENDBLK
  5
1D
330
1B
100
AcDbEntity
 67
     1
  8
0
100
AcDbBlockEnd
  0
BLOCK
  5
24
330
23
100
AcDbEntity
  8
0
100
AcDbBlockBegin
  2
*Paper_Space0
 70
     0
 10
0.0
 20
0.0
 30
0.0
  3
*Paper_Space0
  1
*Paper_Space0
  0
ENDBLK
  5
25
330
23
100
AcDbEntity
  8
0
100
AcDbBlockEnd
  0
BLOCK
  5
7F
330
7E
100
AcDbEntity
  8
0
100
AcDbBlockBegin
  2
블럭10
 70
     2
 10
0.0
 20
0.0
 30
0.0
  3
블럭10
  1
블럭10
  0
ELLIPSE
  5
81
330
7E
100
AcDbEntity
  8
중심선
100
AcDbEllipse
 10
20.54032771741204
 20
12.0471743016438
 30
0.0
 11
6.600054785286829
 21
-1.261213355974178E-13
 31
0.0
210
0.0
220
0.0
230
1.0
 40
0.636358354079598
 41
0.9219305317359503
 42
6.513795318482858
  0
ELLIPSE
  5
82
330
7E
100
AcDbEntity
  8
중심선
100
AcDbEllipse
 10
20.54032771746488
 20
12.04717430159265
 30
0.0
 11
3.960054785062283
 21
1.540847449632565E-10
 31
0.0
210
0.0
220
0.0
230
1.0
 40
0.3939339440162632
 41
1.131841032648279
 42
5.62031148352944
  0
LINE
  5
83
330
7E
100
AcDbEntity
  8
중심선
100
AcDbLine
 10
2.268634060543552
 20
16.24717430164393
 30
0.0
 11
5.714909304380834
 21
16.24717430164393
 31
0.0
  0
LINE
  5
84
330
7E
100
AcDbEntity
  8
중심선
100
AcDbLine
 10
5.245725140726316
 20
7.84717430164391
 30
0.0
 11
8.692000384563599
 21
7.84717430164391
 31
0.0
  0
LINE
  5
85
330
7E
100
AcDbEntity
  8
중심선
100
AcDbLine
 10
15.74043728645272
 20
16.24717430164393
 30
0.0
 11
8.692000384563599
 21
7.84717430164391
 31
0.0
  0
LINE
  5
86
330
7E
100
AcDbEntity
  8
중심선
100
AcDbLine
 10
0.1404042013395286
 20
13.71084872107135
 30
0.0
 11
3.58671253028996
 21
13.71088815037384
 31
0.0
  0
LINE
  5
87
330
7E
100
AcDbEntity
  8
중심선
100
AcDbLine
 10
2.750260043222114
 20
10.84717430164391
 30
0.0
 11
6.196535287059397
 21
10.84717430164391
 31
0.0
  0
LINE
  5
88
330
7E
100
AcDbEntity
  8
중심선
100
AcDbLine
 10
12.29416204261559
 20
16.24717430164393
 30
0.0
 11
5.245725140726316
 21
7.84717430164391
 31
0.0
  0
LINE
  5
89
330
7E
100
AcDbEntity
  8
중심선
100
AcDbLine
 10
10.72767329541681
 20
16.24717430164393
 30
0.0
 11
6.196535287059397
 21
10.84717430164391
 31
0.0
  0
LINE
  5
8A
330
7E
100
AcDbEntity
  8
중심선
100
AcDbLine
 10
7.28139805157953
 20
16.24717430164393
 30
0.0
 11
2.750260043222114
 21
10.84717430164391
 31
0.0
  0
LINE
  5
8B
330
7E
100
AcDbEntity
  8
중심선
100
AcDbLine
 10
5.714909304380834
 20
16.24717430164393
 30
0.0
 11
3.58671253028996
 21
13.71088815037384
 31
0.0
  0
LINE
  5
8C
330
7E
100
AcDbEntity
  8
중심선
100
AcDbLine
 10
2.268634060543552
 20
16.24717430164393
 30
0.0
 11
0.1404042013395286
 21
13.71084872107135
 31
0.0
  0
LINE
  5
8D
330
7E
100
AcDbEntity
  8
중심선
100
AcDbLine
 10
7.28139805157953
 20
16.24717430164393
 30
0.0
 11
10.72767329541681
 21
16.24717430164393
 31
0.0
  0
LINE
  5
8E
330
7E
100
AcDbEntity
  8
중심선
100
AcDbLine
 10
12.29416204261559
 20
16.24717430164393
 30
0.0
 11
15.74043728645272
 21
16.24717430164393
 31
0.0
  0
LINE
  5
8F
330
7E
100
AcDbEntity
  8
중심선
100
AcDbLine
 10
19.22036997980202
 20
11.08717430171403
 30
0.0
 11
23.66174974927406
 21
11.08717430171406
 31
0.0
  0
LINE
  5
90
330
7E
100
AcDbEntity
  8
중심선
100
AcDbLine
 10
19.22039502424796
 20
13.00717430171391
 30
0.0
 11
19.22036997980202
 21
11.08717430171403
 31
0.0
  0
LINE
  5
91
330
7E
100
AcDbEntity
  8
중심선
100
AcDbLine
 10
19.22039502424796
 20
13.00717430171391
 30
0.0
 11
26.96566020931264
 21
13.00717430171391
 31
0.0
  0
LINE
  5
92
330
7E
100
AcDbEntity
  8
중심선
100
AcDbLine
 10
22.22332737316547
 20
13.45928029700563
 30
0.0
 11
24.52862924686651
 21
15.39360700705356
 31
0.0
  0
ATTDEF
  5
94
330
7E
100
AcDbEntity
  8
FORMAT
 62
     2
100
AcDbText
 10
-11.05102035218446
 20
2.075366912832191
 30
0.0
 40
4.233333333333333
  1
GMG22910[ 6 FLUTE ]
 41
0.75
  7
SLDTEXTSTYLE0
 11
-11.05102035218446
 21
-0.0412997538344756
 31
0.0
100
AcDbAttributeDefinition
  3

  2
AUTOATTR0
 70
     0
 74
     1
  0
ENDBLK
  5
80
330
7E
100
AcDbEntity
  8
0
100
AcDbBlockEnd
  0
BLOCK
  5
FC
330
FB
100
AcDbEntity
  8
0
100
AcDbBlockBegin
  2
_D
 70
     0
 10
0.0
 20
0.0
 30
0.0
  3
_D
  1
_D
  0
LINE
  5
FE
330
FB
100
AcDbEntity
  8
치수문자_일반주서
 62
     0
370
    -2
100
AcDbLine
 10
33.93801407992552
 20
-5.024774431170687
 30
0.0
 11
53.55047555699394
 21
-5.024774431170614
 31
0.0
  0
LINE
  5
FF
330
FB
100
AcDbEntity
  8
치수문자_일반주서
 62
     0
370
    -2
100
AcDbLine
 10
33.93801407992552
 20
4.500225568829313
 30
0.0
 11
53.55047555699391
 21
4.500225568829387
 31
0.0
  0
LINE
  5
100
330
FB
100
AcDbEntity
  8
치수문자_일반주서
 62
     0
370
    -2
100
AcDbLine
 10
53.55047555699393
 20
-1.722774431170614
 30
0.0
 11
53.55047555699392
 21
1.198225568829387
 31
0.0
  0
SOLID
  5
101
330
FB
100
AcDbEntity
  8
치수문자_일반주서
 62
     0
100
AcDbTrace
 10
53.0001422236606
 20
-1.722774431170616
 30
0.0
 11
54.10080889032727
 21
-1.722774431170612
 31
0.0
 12
53.55047555699394
 22
-5.024774431170614
 32
0.0
 13
53.55047555699394
 23
-5.024774431170614
 33
0.0
  0
SOLID
  5
102
330
FB
100
AcDbEntity
  8
치수문자_일반주서
 62
     0
100
AcDbTrace
 10
54.10080889032726
 20
1.198225568829389
 30
0.0
 11
53.00014222366059
 21
1.198225568829385
 31
0.0
 12
53.55047555699391
 22
4.500225568829387
 32
0.0
 13
53.55047555699391
 23
4.500225568829387
 33
0.0
  0
MTEXT
  5
103
330
FB
100
AcDbEntity
  8
치수문자_일반주서
 62
     0
100
AcDbMText
 10
49.17547555699392
 20
0.8286717841757663
 30
0.0
 40
3.5
 41
0.0
 71
     2
 72
     1
  1
\A1;%%c9.53 [3/8]
  7
SLDTEXTSTYLE0
 11
-3.729883127349607E-15
 21
1.0
 31
0.0
 73
     1
 44
1.0
  0
POINT
  5
104
330
FB
100
AcDbEntity
  8
Defpoints
 62
     0
100
AcDbPoint
 10
33.87551407992552
 20
-5.024774431170687
 30
0.0
  0
POINT
  5
105
330
FB
100
AcDbEntity
  8
Defpoints
 62
     0
100
AcDbPoint
 10
33.87551407992552
 20
4.500225568829313
 30
0.0
  0
POINT
  5
106
330
FB
100
AcDbEntity
  8
Defpoints
 62
     0
100
AcDbPoint
 10
53.55047555699391
 20
4.500225568829387
 30
0.0
  0
ENDBLK
  5
FD
330
FB
100
AcDbEntity
  8
0
100
AcDbBlockEnd
  0
BLOCK
  5
111
330
110
100
AcDbEntity
  8
0
100
AcDbBlockBegin
  2
_D_1
 70
     0
 10
0.0
 20
0.0
 30
0.0
  3
_D_1
  1
_D_1
  0
LINE
  5
113
330
110
100
AcDbEntity
  8
치수문자_일반주서
 62
     0
370
    -2
100
AcDbLine
 10
-40.80048592007449
 20
4.062725568829306
 30
0.0
 11
-40.80048592007449
 21
37.1557769869011
 31
0.0
  0
LINE
  5
114
330
110
100
AcDbEntity
  8
치수문자_일반주서
 62
     0
370
    -2
100
AcDbLine
 10
35.39951407992552
 20
4.181725568829313
 30
0.0
 11
35.39951407992552
 21
37.1557769869011
 31
0.0
  0
LINE
  5
115
330
110
100
AcDbEntity
  8
치수문자_일반주서
 62
     0
370
    -2
100
AcDbLine
 10
-37.49848592007449
 20
37.1557769869011
 30
0.0
 11
32.09751407992552
 21
37.1557769869011
 31
0.0
  0
SOLID
  5
116
330
110
100
AcDbEntity
  8
치수문자_일반주서
 62
     0
100
AcDbTrace
 10
-37.49848592007449
 20
37.70611032023443
 30
0.0
 11
-37.49848592007449
 21
36.60544365356776
 31
0.0
 12
-40.80048592007449
 22
37.1557769869011
 32
0.0
 13
-40.80048592007449
 23
37.1557769869011
 33
0.0
  0
SOLID
  5
117
330
110
100
AcDbEntity
  8
치수문자_일반주서
 62
     0
100
AcDbTrace
 10
32.09751407992552
 20
36.60544365356776
 30
0.0
 11
32.09751407992552
 21
37.70611032023443
 31
0.0
 12
35.39951407992552
 22
37.1557769869011
 32
0.0
 13
35.39951407992552
 23
37.1557769869011
 33
0.0
  0
MTEXT
  5
118
330
110
100
AcDbEntity
  8
치수문자_일반주서
 62
     0
100
AcDbMText
 10
-2.700485920074479
 20
41.5307769869011
 30
0.0
 40
3.5
 41
0.0
 71
     2
 72
     1
  1
\A1;76.20 [3]
  7
SLDTEXTSTYLE0
 73
     1
 44
1.0
  0
POINT
  5
119
330
110
100
AcDbEntity
  8
Defpoints
 62
     0
100
AcDbPoint
 10
-40.80048592007449
 20
4.000225568829306
 30
0.0
  0
POINT
  5
11A
330
110
100
AcDbEntity
  8
Defpoints
 62
     0
100
AcDbPoint
 10
35.39951407992552
 20
4.119225568829313
 30
0.0
  0
POINT
  5
11B
330
110
100
AcDbEntity
  8
Defpoints
 62
     0
100
AcDbPoint
 10
35.39951407992552
 20
37.1557769869011
 30
0.0
  0
ENDBLK
  5
112
330
110
100
AcDbEntity
  8
0
100
AcDbBlockEnd
  0
BLOCK
  5
125
330
124
100
AcDbEntity
  8
0
100
AcDbBlockBegin
  2
_D_2
 70
     0
 10
0.0
 20
0.0
 30
0.0
  3
_D_2
  1
_D_2
  0
LINE
  5
127
330
124
100
AcDbEntity
  8
치수문자_일반주서
 62
     0
370
    -2
100
AcDbLine
 10
35.39951407992552
 20
3.038725568829313
 30
0.0
 11
35.39951407992552
 21
21.74622009916725
 31
0.0
  0
LINE
  5
128
330
124
100
AcDbEntity
  8
치수문자_일반주서
 62
     0
370
    -2
100
AcDbLine
 10
9.999514079925522
 20
-4.962178452118588
 30
0.0
 11
9.999514079925522
 21
21.74622009916725
 31
0.0
  0
LINE
  5
129
330
124
100
AcDbEntity
  8
치수문자_일반주서
 62
     0
370
    -2
100
AcDbLine
 10
32.09751407992552
 20
21.74622009916725
 30
0.0
 11
13.30151407992552
 21
21.74622009916725
 31
0.0
  0
SOLID
  5
12A
330
124
100
AcDbEntity
  8
치수문자_일반주서
 62
     0
100
AcDbTrace
 10
32.09751407992552
 20
21.19588676583391
 30
0.0
 11
32.09751407992552
 21
22.29655343250058
 31
0.0
 12
35.39951407992552
 22
21.74622009916725
 32
0.0
 13
35.39951407992552
 23
21.74622009916725
 33
0.0
  0
SOLID
  5
12B
330
124
100
AcDbEntity
  8
치수문자_일반주서
 62
     0
100
AcDbTrace
 10
13.30151407992552
 20
22.29655343250058
 30
0.0
 11
13.30151407992552
 21
21.19588676583391
 31
0.0
 12
9.999514079925522
 22
21.74622009916725
 32
0.0
 13
9.999514079925522
 23
21.74622009916725
 33
0.0
  0
MTEXT
  5
12C
330
124
100
AcDbEntity
  8
치수문자_일반주서
 62
     0
100
AcDbMText
 10
22.420115211827
 20
26.12122009916725
 30
0.0
 40
3.5
 41
0.0
 71
     2
 72
     1
  1
\A1;25.40 [1]
  7
SLDTEXTSTYLE0
 73
     1
 44
1.0
  0
POINT
  5
12D
330
124
100
AcDbEntity
  8
Defpoints
 62
     0
100
AcDbPoint
 10
35.39951407992552
 20
2.976225568829313
 30
0.0
  0
POINT
  5
12E
330
124
100
AcDbEntity
  8
Defpoints
 62
     0
100
AcDbPoint
 10
9.999514079925522
 20
-5.024678452118588
 30
0.0
  0
POINT
  5
12F
330
124
100
AcDbEntity
  8
Defpoints
 62
     0
100
AcDbPoint
 10
9.999514079925522
 20
21.74622009916725
 30
0.0
  0
ENDBLK
  5
126
330
124
100
AcDbEntity
  8
0
100
AcDbBlockEnd
  0
BLOCK
  5
13A
330
139
100
AcDbEntity
  8
0
100
AcDbBlockBegin
  2
_D_3
 70
     0
 10
0.0
 20
0.0
 30
0.0
  3
_D_3
  1
_D_3
  0
LINE
  5
13C
330
139
100
AcDbEntity
  8
치수문자_일반주서
 62
     0
370
    -2
100
AcDbLine
 10
-40.36298592007449
 20
4.50022556882931
 30
0.0
 11
-53.80048592007451
 21
4.500225568829263
 31
0.0
  0
LINE
  5
13D
330
139
100
AcDbEntity
  8
치수문자_일반주서
 62
     0
370
    -2
100
AcDbLine
 10
-40.36298592007449
 20
-5.02477443117069
 30
0.0
 11
-53.80048592007448
 21
-5.024774431170737
 31
0.0
  0
LINE
  5
13E
330
139
100
AcDbEntity
  8
치수문자_일반주서
 62
     0
370
    -2
100
AcDbLine
 10
-53.8004859200745
 20
1.198225568829264
 30
0.0
 11
-53.80048592007449
 21
-1.722774431170738
 31
0.0
  0
SOLID
  5
13F
330
139
100
AcDbEntity
  8
치수문자_일반주서
 62
     0
100
AcDbTrace
 10
-53.25015258674117
 20
1.198225568829266
 30
0.0
 11
-54.35081925340783
 21
1.198225568829262
 31
0.0
 12
-53.80048592007451
 22
4.500225568829263
 32
0.0
 13
-53.80048592007451
 23
4.500225568829263
 33
0.0
  0
SOLID
  5
140
330
139
100
AcDbEntity
  8
치수문자_일반주서
 62
     0
100
AcDbTrace
 10
-54.35081925340783
 20
-1.72277443117074
 30
0.0
 11
-53.25015258674116
 21
-1.722774431170736
 31
0.0
 12
-53.80048592007448
 22
-5.024774431170737
 32
0.0
 13
-53.80048592007448
 23
-5.024774431170737
 33
0.0
  0
MTEXT
  5
141
330
139
100
AcDbEntity
  8
치수문자_일반주서
 62
     0
100
AcDbMText
 10
-58.1754859200745
 20
-0.262274431170707
 30
0.0
 40
3.5
 41
0.0
 71
     2
 72
     1
  1
\A1;%%c9.53 [3/8]
  7
SLDTEXTSTYLE0
 11
-3.729883127349607E-15
 21
1.0
 31
0.0
 73
     1
 44
1.0
  0
POINT
  5
142
330
139
100
AcDbEntity
  8
Defpoints
 62
     0
100
AcDbPoint
 10
-40.30048592007449
 20
4.50022556882931
 30
0.0
  0
POINT
  5
143
330
139
100
AcDbEntity
  8
Defpoints
 62
     0
100
AcDbPoint
 10
-40.30048592007449
 20
-5.02477443117069
 30
0.0
  0
POINT
  5
144
330
139
100
AcDbEntity
  8
Defpoints
 62
     0
100
AcDbPoint
 10
-53.80048592007448
 20
-5.024774431170737
 30
0.0
  0
ENDBLK
  5
13B
330
139
100
AcDbEntity
  8
0
100
AcDbBlockEnd
  0
BLOCK
  5
14D
330
14C
100
AcDbEntity
  8
0
100
AcDbBlockBegin
  2
SW_DOWELSYMBOL_0
 70
     0
 10
0.0
 20
0.0
 30
0.0
  3
SW_DOWELSYMBOL_0
  1
SW_DOWELSYMBOL_0
  0
CIRCLE
  5
14F
330
14C
100
AcDbEntity
  8
외형선
 62
     0
100
AcDbCircle
 10
0.0
 20
0.0
 30
0.0
 40
3.000000000000001
  0
HATCH
  5
150
330
14C
100
AcDbEntity
  8
0
  6
Continuous
 62
     0
370
    30
100
AcDbHatch
 10
0.0
 20
0.0
 30
0.0
210
0.0
220
0.0
230
1.0
  2
SOLID
 70
     1
 71
     0
 91
        1
 92
        0
 93
        3
 72
     2
 10
0.0
 20
0.0
 40
3.000000000000001
 50
0.0
 51
90.0
 73
     1
 72
     1
 10
0.0
 20
3.000000000000001
 11
0.0
 21
0.0
 72
     1
 10
0.0
 20
0.0
 11
3.000000000000001
 21
0.0
 97
        0
 75
     0
 76
     1
 98
        1
 10
0.0
 20
0.0
  0
HATCH
  5
151
330
14C
100
AcDbEntity
  8
0
  6
Continuous
 62
     0
370
    30
100
AcDbHatch
 10
0.0
 20
0.0
 30
0.0
210
0.0
220
0.0
230
1.0
  2
SOLID
 70
     1
 71
     0
 91
        1
 92
        0
 93
        3
 72
     2
 10
0.0
 20
0.0
 40
3.000000000000001
 50
180.0
 51
270.0000000000008
 73
     1
 72
     1
 10
0.0
 20
-3.000000000000001
 11
0.0
 21
0.0
 72
     1
 10
0.0
 20
0.0
 11
-3.000000000000001
 21
0.0
 97
        0
 75
     0
 76
     1
 98
        1
 10
0.0
 20
0.0
  0
ENDBLK
  5
14E
330
14C
100
AcDbEntity
  8
0
100
AcDbBlockEnd
  0
BLOCK
  5
180
330
17F
100
AcDbEntity
  8
0
100
AcDbBlockBegin
  2
*D7
 70
     1
 10
0.0
 20
0.0
 30
0.0
  3
*D7
  1
*D7
  0
LINE
  5
182
330
17F
100
AcDbEntity
  8
치수문자_일반주서
 62
     0
370
    -2
100
AcDbLine
 10
36.81346399046267
 20
6.804897182218834
 30
0.0
 11
58.88897489198095
 21
35.57321676335866
 31
0.0
  0
MTEXT
  5
183
330
17F
100
AcDbEntity
  8
치수문자_일반주서
 62
     0
100
AcDbMText
 10
47.61774728167891
 20
25.1967365210383
 30
0.0
 40
3.5
 41
0.0
 71
     5
 72
     1
  1
\A1;R1.52 [R0.060]
  7
SLDTEXTSTYLE0
 11
0.6087753648025599
 21
0.7933426467860594
 31
0.0
 73
     1
 44
1.0
  0
LINE
  5
184
330
17F
100
AcDbEntity
  8
치수문자_일반주서
 62
     0
370
    -2
100
AcDbLine
 10
33.87551407992552
 20
2.976225568829313
 30
0.0
 11
34.80328773588462
 21
4.185279762531267
 31
0.0
  0
SOLID
  5
185
330
17F
100
AcDbEntity
  8
치수문자_일반주서
 62
     0
100
AcDbTrace
 10
36.3768610871814
 20
7.139926557981843
 30
0.0
 11
37.25006689374393
 21
6.469867806455825
 31
0.0
 12
34.80328773588462
 22
4.185279762531267
 32
0.0
 13
34.80328773588462
 23
4.185279762531267
 33
0.0
  0
POINT
  5
186
330
17F
100
AcDbEntity
  8
Defpoints
 62
     0
100
AcDbPoint
 10
34.80328773588462
 20
4.185279762531267
 30
0.0
  0
POINT
  5
187
330
17F
100
AcDbEntity
  8
Defpoints
 62
     0
100
AcDbPoint
 10
33.87551407992552
 20
2.976225568829313
 30
0.0
  0
ENDBLK
  5
181
330
17F
100
AcDbEntity
  8
0
100
AcDbBlockEnd
  0
ENDSEC
  0
SECTION
  2
ENTITIES
  0
LINE
  5
95
330
1F
100
AcDbEntity
  8
0
  6
Continuous
 62
     4
370
    15
100
AcDbLine
 10
9.99951407992552
 20
4.500225568829313
 30
0.0
 11
-40.30048592007449
 21
4.50022556882931
 31
0.0
  0
LINE
  5
96
330
1F
100
AcDbEntity
  8
0
  6
Continuous
 62
     4
370
    15
100
AcDbLine
 10
-40.30048592007449
 20
-5.02477443117069
 30
0.0
 11
9.99951407992552
 21
-5.024774431170687
 31
0.0
  0
LINE
  5
97
330
1F
100
AcDbEntity
  8
0
  6
Continuous
 62
     4
370
    15
100
AcDbLine
 10
-40.30048592007449
 20
4.500225568829308
 30
0.0
 11
-40.80048592007449
 21
4.000225568829306
 31
0.0
  0
LINE
  5
98
330
1F
100
AcDbEntity
  8
0
  6
Continuous
 62
     4
370
    15
100
AcDbLine
 10
-40.80048592007449
 20
-4.524774431170687
 30
0.0
 11
-40.30048592007449
 21
-5.024774431170687
 31
0.0
  0
LINE
  5
99
330
1F
100
AcDbEntity
  8
0
  6
Continuous
 62
     1
370
    15
100
AcDbLine
 10
28.35101764810666
 20
-5.024774431170687
 30
0.0
 11
29.9797279810267
 21
-5.024774431170687
 31
0.0
  0
LINE
  5
9A
330
1F
100
AcDbEntity
  8
0
  6
Continuous
 62
     1
370
    15
100
AcDbLine
 10
15.01733113898855
 20
4.500225568829313
 30
0.0
 11
13.3901823040596
 21
4.500225568829313
 31
0.0
  0
LINE
  5
9B
330
1F
100
AcDbEntity
  8
0
  6
Continuous
 62
     1
370
    15
100
AcDbLine
 10
23.36445078047939
 20
-5.024774431170687
 30
0.0
 11
24.99134046119026
 21
-5.024774431170687
 31
0.0
  0
LINE
  5
9C
330
1F
100
AcDbEntity
  8
0
  6
Continuous
 62
     1
370
    15
100
AcDbLine
 10
10.02970918381853
 20
4.500225568829313
 30
0.0
 11
9.999514079925522
 21
4.500225568829313
 31
0.0
  0
LINE
  5
9D
330
1F
100
AcDbEntity
  8
0
  6
Continuous
 62
     1
370
    15
100
AcDbLine
 10
9.999514079925522
 20
-5.024774431170687
 30
0.0
 11
10.02970918381856
 21
-5.024774431170687
 31
0.0
  0
LINE
  5
9E
330
1F
100
AcDbEntity
  8
0
  6
Continuous
 62
     1
370
    15
100
AcDbLine
 10
24.99134046119029
 20
4.500225568829313
 30
0.0
 11
23.36445078047943
 21
4.500225568829313
 31
0.0
  0
LINE
  5
9F
330
1F
100
AcDbEntity
  8
0
  6
Continuous
 62
     1
370
    15
100
AcDbLine
 10
33.33802079072673
 20
-5.024774431170687
 30
0.0
 11
33.87551407992552
 21
-5.024774431170687
 31
0.0
  0
LINE
  5
A0
330
1F
100
AcDbEntity
  8
0
  6
Continuous
 62
     1
370
    15
100
AcDbLine
 10
20.00580311458876
 20
4.500225568829313
 30
0.0
 11
18.3758814757828
 21
4.500225568829313
 31
0.0
  0
LINE
  5
A1
330
1F
100
AcDbEntity
  8
0
  6
Continuous
 62
     1
370
    15
100
AcDbLine
 10
18.37588147578279
 20
-5.024774431170687
 30
0.0
 11
20.00580311458873
 21
-5.024774431170687
 31
0.0
  0
LINE
  5
A2
330
1F
100
AcDbEntity
  8
0
  6
Continuous
 62
     1
370
    15
100
AcDbLine
 10
33.87551407992552
 20
4.500225568829313
 30
0.0
 11
33.33802079072674
 21
4.500225568829313
 31
0.0
  0
LINE
  5
A3
330
1F
100
AcDbEntity
  8
0
  6
Continuous
 62
     1
370
    15
100
AcDbLine
 10
13.39018230405964
 20
-5.024774431170687
 30
0.0
 11
15.01733113898854
 21
-5.024774431170687
 31
0.0
  0
LINE
  5
A4
330
1F
100
AcDbEntity
  8
0
  6
Continuous
 62
     1
370
    15
100
AcDbLine
 10
29.9797279810267
 20
4.500225568829313
 30
0.0
 11
28.35101764810669
 21
4.500225568829313
 31
0.0
  0
SPLINE
  5
A5
330
1F
100
AcDbEntity
  8
0
  6
Continuous
 62
     4
370
    15
100
AcDbSpline
210
0.0
220
0.0
230
1.0
 70
     8
 71
     3
 72
    12
 73
     8
 74
     0
 42
0.000000001
 43
0.00000001
 40
0.0
 40
0.0
 40
0.0
 40
0.0
 40
0.5
 40
0.5
 40
0.75
 40
0.75
 40
1.0
 40
1.0
 40
1.0
 40
1.0
 10
8.796308747025375
 20
-1.507393348151852
 30
0.0
 10
8.662285966824951
 20
-1.378453154329284
 30
0.0
 10
8.574460041622157
 20
-1.211595027439602
 30
0.0
 10
8.505369685948212
 20
-0.9431662336572949
 30
0.0
 10
8.492290242286844
 20
-0.850071519817163
 30
0.0
 10
8.479153478251083
 20
-0.6642018179853338
 30
0.0
 10
8.479063819975442
 20
-0.5706455952168314
 30
0.0
 10
8.47906381997545
 20
-0.4768290944065442
 30
0.0
  0
SPLINE
  5
A6
330
1F
100
AcDbEntity
  8
0
  6
Continuous
 62
     4
370
    15
100
AcDbSpline
210
0.0
220
0.0
230
1.0
 70
     8
 71
     3
 72
    14
 73
    10
 74
     0
 42
0.000000001
 43
0.00000001
 40
0.0
 40
0.0
 40
0.0
 40
0.0
 40
0.2499999999999999
 40
0.2499999999999999
 40
0.4999999999999999
 40
0.4999999999999999
 40
0.7499999999999998
 40
0.7499999999999998
 40
1.0
 40
1.0
 40
1.0
 40
1.0
 10
8.479063819975453
 20
-0.4768290944076203
 30
0.0
 10
8.479063819975465
 20
-0.2736772806424699
 30
0.0
 10
8.483213317323113
 20
-0.0692999889286243
 30
0.0
 10
8.59904151683504
 20
0.3216306598890679
 30
0.0
 10
8.709211824607067
 20
0.4994863295062474
 30
0.0
 10
9.027314431479601
 20
0.7515063310900498
 30
0.0
 10
9.229632054500296
 20
0.8211409297731228
 30
0.0
 10
9.638234355485757
 20
0.8200860494652503
 30
0.0
 10
9.840078662569223
 20
0.7498249783447302
 30
0.0
 10
9.999514079925426
 20
0.6217876029814086
 30
0.0
  0
SPLINE
  5
A7
330
1F
100
AcDbEntity
  8
0
  6
Continuous
 62
     1
370
    15
100
AcDbSpline
210
0.0
220
0.0
230
1.0
 70
    24
 71
     3
 72
     8
 73
     4
 74
     0
 42
0.000000001
 43
0.00000001
 40
0.0
 40
0.0
 40
0.0
 40
0.0
 40
1.0
 40
1.0
 40
1.0
 40
1.0
 10
9.99951407992552
 20
0.6217876029816458
 30
0.0
 10
9.99951407992552
 20
0.5519834017155723
 30
0.0
 10
9.99951407992552
 20
0.4744590827080973
 30
0.0
 10
9.99951407992552
 20
0.3881824272449053
 30
0.0
  0
SPLINE
  5
A8
330
1F
100
AcDbEntity
  8
0
  6
Continuous
 62
     4
370
    15
100
AcDbSpline
210
0.0
220
0.0
230
1.0
 70
     8
 71
     3
 72
    10
 73
     6
 74
     0
 42
0.000000001
 43
0.00000001
 40
0.0
 40
0.0
 40
0.0
 40
0.0
 40
0.4999999999999998
 40
0.4999999999999998
 40
1.0
 40
1.0
 40
1.0
 40
1.0
 10
9.999514079925522
 20
-2.617291647498523
 30
0.0
 10
9.798215438861776
 20
-2.442705782712432
 30
0.0
 10
9.599588400635632
 20
-2.262629761335876
 30
0.0
 10
9.199881039345897
 20
-1.892115503506608
 30
0.0
 10
8.997936882310999
 20
-1.701375078757168
 30
0.0
 10
8.796308747025375
 20
-1.507393348151852
 30
0.0
  0
LINE
  5
A9
330
1F
100
AcDbEntity
  8
0
  6
Continuous
 62
     4
370
    15
100
AcDbLine
 10
9.999514079925522
 20
-2.61729164749853
 30
0.0
 11
9.99951407992552
 21
-3.87300548795575
 31
0.0
  0
SPLINE
  5
AA
330
1F
100
AcDbEntity
  8
0
  6
Continuous
 62
     4
370
    15
100
AcDbSpline
210
0.0
220
0.0
230
1.0
 70
     8
 71
     3
 72
    14
 73
    10
 74
     0
 42
0.000000001
 43
0.00000001
 40
0.0
 40
0.0
 40
0.0
 40
0.0
 40
0.25
 40
0.25
 40
0.5
 40
0.5
 40
0.75
 40
0.75
 40
1.0
 40
1.0
 40
1.0
 40
1.0
 10
8.479063819975453
 20
-4.489810178218705
 30
0.0
 10
8.479063819975465
 20
-4.396168331155981
 30
0.0
 10
8.483213317323113
 20
-4.290344429509083
 30
0.0
 10
8.59904151683504
 20
-4.067173450146134
 30
0.0
 10
8.709211824607072
 20
-3.954253328304809
 30
0.0
 10
9.027314431479608
 20
-3.786832761239233
 30
0.0
 10
9.229632054500302
 20
-3.736872674588811
 30
0.0
 10
9.63823435548576
 20
-3.737613423968509
 30
0.0
 10
9.840078662569224
 20
-3.788039422822466
 30
0.0
 10
9.999514079925428
 20
-3.873005487955897
 30
0.0
  0
SPLINE
  5
AB
330
1F
100
AcDbEntity
  8
0
  6
Continuous
 62
     4
370
    15
100
AcDbSpline
210
0.0
220
0.0
230
1.0
 70
     8
 71
     3
 72
    12
 73
     8
 74
     0
 42
0.000000001
 43
0.00000001
 40
0.0
 40
0.0
 40
0.0
 40
0.0
 40
0.4999999999999997
 40
0.4999999999999997
 40
0.7499999999999998
 40
0.7499999999999998
 40
1.0
 40
1.0
 40
1.0
 40
1.0
 10
8.796308747025375
 20
-4.865827967706572
 30
0.0
 10
8.662285966824951
 20
-4.831603935849697
 30
0.0
 10
8.574460041622158
 20
-4.78166102685673
 30
0.0
 10
8.505369685948212
 20
-4.685551492908024
 30
0.0
 10
8.492290242286844
 20
-4.649884493336017
 30
0.0
 10
8.479153478251083
 20
-4.573766537832832
 30
0.0
 10
8.479063819975448
 20
-4.53305444100203
 30
0.0
 10
8.479063819975453
 20
-4.48981017821147
 30
0.0
  0
SPLINE
  5
AC
330
1F
100
AcDbEntity
  8
0
  6
Continuous
 62
     4
370
    15
100
AcDbSpline
210
0.0
220
0.0
230
1.0
 70
     8
 71
     3
 72
    10
 73
     6
 74
     0
 42
0.000000001
 43
0.00000001
 40
0.0
 40
0.0
 40
0.0
 40
0.0
 40
0.5
 40
0.5
 40
1.0
 40
1.0
 40
1.0
 40
1.0
 10
9.999514079925522
 20
-5.024678452118588
 30
0.0
 10
9.798215438861776
 20
-5.023403241992809
 30
0.0
 10
9.599588400635632
 20
-5.00946464175396
 30
0.0
 10
9.199881039345897
 20
-4.956483904827687
 30
0.0
 10
8.997936882310999
 20
-4.917315690278355
 30
0.0
 10
8.796308747025375
 20
-4.865827967706573
 30
0.0
  0
LINE
  5
AD
330
1F
100
AcDbEntity
  8
0
  6
Continuous
 62
     1
370
    15
100
AcDbLine
 10
9.999514079925522
 20
-5.024678452118595
 30
0.0
 11
9.99951407992552
 21
-5.024774431170687
 31
0.0
  0
LINE
  5
AE
330
1F
100
AcDbEntity
  8
0
  6
Continuous
 62
     1
370
    15
100
AcDbLine
 10
9.99951407992552
 20
4.500225568829313
 30
0.0
 11
9.99951407992552
 21
4.232518659766667
 31
0.0
  0
SPLINE
  5
AF
330
1F
100
AcDbEntity
  8
0
  6
Continuous
 62
     4
370
    15
100
AcDbSpline
210
0.0
220
0.0
230
1.0
 70
     8
 71
     3
 72
    14
 73
    10
 74
     0
 42
0.000000001
 43
0.00000001
 40
0.0
 40
0.0
 40
0.0
 40
0.0
 40
0.25
 40
0.25
 40
0.5
 40
0.5
 40
0.75
 40
0.75
 40
1.0
 40
1.0
 40
1.0
 40
1.0
 10
8.479063819975451
 20
3.75070665264036
 30
0.0
 10
8.479063819975465
 20
3.860216619342789
 30
0.0
 10
8.483213317323113
 20
3.95877000940974
 30
0.0
 10
8.599041516835038
 20
4.126529678864487
 30
0.0
 10
8.709211824607065
 20
4.191465226640342
 30
0.0
 10
9.0273144314796
 20
4.276064661158573
 30
0.0
 10
9.229632054500295
 20
4.295739173191221
 30
0.0
 10
9.638234355485757
 20
4.295425042263046
 30
0.0
 10
9.840078662569226
 20
4.275589969996487
 30
0.0
 10
9.999514079925426
 20
4.232518659766592
 30
0.0
  0
SPLINE
  5
B0
330
1F
100
AcDbEntity
  8
0
  6
Continuous
 62
     4
370
    15
100
AcDbSpline
210
0.0
220
0.0
230
1.0
 70
     8
 71
     3
 72
    12
 73
     8
 74
     0
 42
0.000000001
 43
0.00000001
 40
0.0
 40
0.0
 40
0.0
 40
0.0
 40
0.5000000000000008
 40
0.5000000000000008
 40
0.7500000000000007
 40
0.7500000000000007
 40
1.0
 40
1.0
 40
1.0
 40
1.0
 10
8.796308747025375
 20
3.096160188383991
 30
0.0
 10
8.662285966824951
 20
3.190876350349684
 30
0.0
 10
8.574460041622158
 20
3.3077915682464
 30
0.0
 10
8.505369685948212
 20
3.480110828080003
 30
0.0
 10
8.492290242286845
 20
3.537538542348127
 30
0.0
 10
8.479153478251085
 20
3.647290288676776
 30
0.0
 10
8.479063819975446
 20
3.700134414614475
 30
0.0
 10
8.479063819975451
 20
3.750706652634202
 30
0.0
  0
SPLINE
  5
B1
330
1F
100
AcDbEntity
  8
0
  6
Continuous
 62
     4
370
    15
100
AcDbSpline
210
0.0
220
0.0
230
1.0
 70
     8
 71
     3
 72
    10
 73
     6
 74
     0
 42
0.000000001
 43
0.00000001
 40
0.0
 40
0.0
 40
0.0
 40
0.0
 40
0.5
 40
0.5
 40
1.0
 40
1.0
 40
1.0
 40
1.0
 10
9.999514079925522
 20
2.145112373449329
 30
0.0
 10
9.798215438861776
 20
2.318423028109642
 30
0.0
 10
9.599588400635632
 20
2.484560449247348
 30
0.0
 10
9.199881039345897
 20
2.802093970150347
 30
0.0
 10
8.997936882310999
 20
2.953666180350456
 30
0.0
 10
8.796308747025375
 20
3.096160188383991
 30
0.0
  0
LINE
  5
B2
330
1F
100
AcDbEntity
  8
0
  6
Continuous
 62
     4
370
    15
100
AcDbLine
 10
9.999514079925522
 20
2.145112373449329
 30
0.0
 11
9.99951407992552
 21
0.6217876029816307
 31
0.0
  0
LINE
  5
B3
330
1F
100
AcDbEntity
  8
0
  6
Continuous
 62
     4
370
    15
100
AcDbLine
 10
-40.30048592007449
 20
4.500225568829308
 30
0.0
 11
-40.30048592007449
 21
-5.02477443117069
 31
0.0
  0
LINE
  5
B4
330
1F
100
AcDbEntity
  8
0
  6
Continuous
 62
     4
370
    15
100
AcDbLine
 10
-40.80048592007449
 20
4.000225568829306
 30
0.0
 11
-40.80048592007449
 21
-4.524774431170695
 31
0.0
  0
SPLINE
  5
B5
330
1F
100
AcDbEntity
  8
0
  6
Continuous
 62
     4
370
    15
100
AcDbSpline
210
0.0
220
0.0
230
1.0
 70
    24
 71
     3
 72
    14
 73
    10
 74
     0
 42
0.000000001
 43
0.00000001
 40
0.0
 40
0.0
 40
0.0
 40
0.0
 40
0.25
 40
0.25
 40
0.5
 40
0.5
 40
0.75
 40
0.75
 40
1.0
 40
1.0
 40
1.0
 40
1.0
 10
9.999514079925522
 20
0.3881824272448521
 30
0.0
 10
9.999514079925522
 20
0.2504021966590994
 30
0.0
 10
9.999514079925522
 20
0.0817642810680757
 30
0.0
 10
9.999514079925522
 20
-0.3286641812866576
 30
0.0
 10
9.999514079925522
 20
-0.5712261678746521
 30
0.0
 10
9.999514079925522
 20
-1.117862569582478
 30
0.0
 10
9.999514079925522
 20
-1.422167844121853
 30
0.0
 10
9.999514079925522
 20
-2.037102057931933
 30
0.0
 10
9.999514079925522
 20
-2.346172472435565
 30
0.0
 10
9.999514079925522
 20
-2.617291647498532
 30
0.0
  0
SPLINE
  5
B6
330
1F
100
AcDbEntity
  8
0
  6
Continuous
 62
     1
370
    15
100
AcDbSpline
210
0.0
220
0.0
230
1.0
 70
    24
 71
     3
 72
    14
 73
    10
 74
     0
 42
0.000000001
 43
0.00000001
 40
0.0
 40
0.0
 40
0.0
 40
0.0
 40
0.24415662099101
 40
0.3923005474637168
 40
0.5404444739364234
 40
0.6885884004091297
 40
0.8367323268818365
 40
0.9848762533545432
 40
1.0
 40
1.0
 40
1.0
 40
1.0
 10
9.999514079925522
 20
3.877912519355329
 30
0.0
 10
9.999514079925524
 20
3.669506388696301
 30
0.0
 10
9.999514079925524
 20
3.334648219294692
 30
0.0
 10
9.999514079925524
 20
2.942367825230572
 30
0.0
 10
9.999514079925522
 20
2.662346448253677
 30
0.0
 10
9.999514079925524
 20
2.434767697044406
 30
0.0
 10
9.999514079925522
 20
2.271927336917702
 30
0.0
 10
9.999514079925524
 20
2.185446546808368
 30
0.0
 10
9.999514079925522
 20
2.172899750318899
 30
0.0
 10
9.999514079925524
 20
2.171737520419404
 30
0.0
  0
SPLINE
  5
B7
330
1F
100
AcDbEntity
  8
0
  6
Continuous
 62
     4
370
    15
100
AcDbSpline
210
0.0
220
0.0
230
1.0
 70
    24
 71
     3
 72
    15
 73
    11
 74
     0
 42
0.000000001
 43
0.00000001
 40
0.0
 40
0.0
 40
0.0
 40
0.0
 40
0.0281577439234916
 40
0.178043781513874
 40
0.3279298191042563
 40
0.4778158566946385
 40
0.6277018942850208
 40
0.7775879318754032
 40
0.9274739694657854
 40
0.9999999999999999
 40
0.9999999999999999
 40
0.9999999999999999
 40
0.9999999999999999
 10
9.999514079925524
 20
-3.686885596779988
 30
0.0
 10
9.999514079925524
 20
-3.683670007945128
 30
0.0
 10
9.999514079925524
 20
-3.663337569468953
 30
0.0
 10
9.999514079925524
 20
-3.719350579353311
 30
0.0
 10
9.999514079925524
 20
-3.822125943955351
 30
0.0
 10
9.999514079925524
 20
-4.000190812278985
 30
0.0
 10
9.999514079925524
 20
-4.232601466535597
 30
0.0
 10
9.999514079925522
 20
-4.518986818341532
 30
0.0
 10
9.999514079925524
 20
-4.790409552552411
 30
0.0
 10
9.999514079925524
 20
-4.967071132343984
 30
0.0
 10
9.999514079925522
 20
-5.024678452118595
 30
0.0
  0
SPLINE
  5
B8
330
1F
100
AcDbEntity
  8
0
  6
Continuous
 62
     1
370
    15
100
AcDbSpline
210
0.0
220
0.0
230
1.0
 70
    24
 71
     3
 72
     8
 73
     4
 74
     0
 42
0.000000001
 43
0.00000001
 40
0.0
 40
0.0
 40
0.0
 40
0.0
 40
1.0
 40
1.0
 40
1.0
 40
1.0
 10
9.99951407992552
 20
4.232518659766745
 30
0.0
 10
9.99951407992552
 20
4.112407344123501
 30
0.0
 10
9.99951407992552
 20
3.994123835000135
 30
0.0
 10
9.99951407992552
 20
3.877912519355396
 30
0.0
  0
SPLINE
  5
B9
330
1F
100
AcDbEntity
  8
0
  6
Continuous
 62
     1
370
    15
100
AcDbSpline
210
0.0
220
0.0
230
1.0
 70
     8
 71
     3
 72
    26
 73
    22
 74
     0
 42
0.000000001
 43
0.00000001
 40
0.0
 40
0.0
 40
0.0
 40
0.0
 40
0.0163326188447122
 40
0.0708243358853602
 40
0.125231040425866
 40
0.1797910730997007
 40
0.2375671219106825
 40
0.2952543009374372
 40
0.3530211797306493
 40
0.4108667722563037
 40
0.4685701029744629
 40
0.526283868613607
 40
0.5841397507905077
 40
0.641887673051445
 40
0.699576713654898
 40
0.7573753876448197
 40
0.8151952748413467
 40
0.872888101152935
 40
0.9306214252056869
 40
0.9884812437711878
 40
1.0
 40
1.0
 40
1.0
 40
1.0
 10
31.66150045888745
 20
-4.714004837672915
 30
0.0
 10
31.57082958396506
 20
-4.7501425533442
 30
0.0
 10
31.17764680283366
 20
-4.906849186687409
 30
0.0
 10
30.48278547365414
 20
-5.019474022062753
 30
0.0
 10
29.57733076948941
 20
-5.038391503120955
 30
0.0
 10
28.65109341907598
 20
-4.86980730048802
 30
0.0
 10
27.70768030044486
 20
-4.52255064424686
 30
0.0
 10
26.74754758189991
 20
-3.994192937412964
 30
0.0
 10
25.78608158787207
 20
-3.31473181582626
 30
0.0
 10
24.8232507876798
 20
-2.512288182755544
 30
0.0
 10
23.86283888470498
 20
-1.616943749007923
 30
0.0
 10
22.90225155065299
 20
-0.6665268869831564
 30
0.0
 10
21.939242821114
 20
0.2983948542397359
 30
0.0
 10
20.97809292925572
 20
1.242141625129587
 30
0.0
 10
20.01793122089366
 20
2.124968034224475
 30
0.0
 10
19.05591543336934
 20
2.910189600020369
 30
0.0
 10
18.09354388638263
 20
3.565421736295128
 30
0.0
 10
17.13327164338997
 20
4.070064123870763
 30
0.0
 10
16.17251585749375
 20
4.383407767617369
 30
0.0
 10
15.46577013257643
 20
4.515658455951955
 30
0.0
 10
15.08118317693966
 20
4.490764788159441
 30
0.0
 10
15.01733113898855
 20
4.486631752971085
 30
0.0
  0
SPLINE
  5
BA
330
1F
100
AcDbEntity
  8
0
  6
Continuous
 62
     1
370
    15
100
AcDbSpline
210
0.0
220
0.0
230
1.0
 70
     8
 71
     3
 72
    26
 73
    22
 74
     0
 42
0.000000001
 43
0.00000001
 40
0.0
 40
0.0
 40
0.0
 40
0.0
 40
0.0261968028345318
 40
0.083898782667614
 40
0.1417278435450658
 40
0.1995356878502333
 40
0.2572338813745412
 40
0.3149909658984744
 40
0.3728560274672494
 40
0.430578949950113
 40
0.4882914358563913
 40
0.5461462061413682
 40
0.6039222502052125
 40
0.6616185818574652
 40
0.7194037973939905
 40
0.7720069583945932
 40
0.8244529748360517
 40
0.8770363314078208
 40
0.9295906121183662
 40
0.9820400558001723
 40
1.0
 40
1.0
 40
1.0
 40
1.0
 10
16.69760445574438
 20
4.184608202407212
 30
0.0
 10
16.84290313574872
 20
4.239795482094078
 30
0.0
 10
17.30824169070807
 20
4.416540164019988
 30
0.0
 10
18.09349303475052
 20
4.517874136819251
 30
0.0
 10
19.05592906693274
 20
4.485736864041796
 30
0.0
 10
20.01792757625827
 20
4.250730966230872
 30
0.0
 10
20.97809390591895
 20
3.834768106643281
 30
0.0
 10
21.93924255942683
 20
3.25163631533817
 30
0.0
 10
22.90225161806377
 20
2.527222232660867
 30
0.0
 10
23.86283887623257
 20
1.688019018327209
 30
0.0
 10
24.82325075422162
 20
0.7694101249497015
 30
0.0
 10
25.78608173053256
 20
-0.1893143741427317
 30
0.0
 10
26.74754704597198
 20
-1.152162439051202
 30
0.0
 10
27.70768230011285
 20
-2.079385060137494
 30
0.0
 10
28.64018177177316
 20
-2.906341714850727
 30
0.0
 10
29.54457875451497
 20
-3.609474763021922
 30
0.0
 10
30.4172510049924
 20
-4.178903747593584
 30
0.0
 10
31.29218755431447
 20
-4.617889811570138
 30
0.0
 10
32.16669815106886
 20
-4.900202908501637
 30
0.0
 10
32.84735010636324
 20
-5.031021985550861
 30
0.0
 10
33.23829820706461
 20
-5.011664682228471
 30
0.0
 10
33.33802079072674
 20
-5.006727043967595
 30
0.0
  0
SPLINE
  5
BB
330
1F
100
AcDbEntity
  8
0
  6
Continuous
 62
     1
370
    15
100
AcDbSpline
210
0.0
220
0.0
230
1.0
 70
     8
 71
     3
 72
    26
 73
    22
 74
     0
 42
0.000000001
 43
0.00000001
 40
0.0
 40
0.0
 40
0.0
 40
0.0
 40
0.0016549727571454
 40
0.0537568262379642
 40
0.106036267143376
 40
0.1581788747318698
 40
0.2103054101788555
 40
0.268173585341693
 40
0.3259152477223892
 40
0.3836164065129002
 40
0.4414446445395421
 40
0.4992516662957909
 40
0.5569490388314031
 40
0.6147053015286794
 40
0.67256953973439
 40
0.7302916408766892
 40
0.788003305590905
 40
0.8458572526592526
 40
0.9036324746266644
 40
0.961327985316714
 40
0.9999999999999999
 40
0.9999999999999999
 40
0.9999999999999999
 40
0.9999999999999999
 10
11.71025734106698
 20
4.204873337101205
 30
0.0
 10
11.71943758934491
 20
4.208782790260267
 30
0.0
 10
12.01763042023408
 20
4.335769650466746
 30
0.0
 10
12.60439609780158
 20
4.45150704231932
 30
0.0
 10
13.47443938933514
 20
4.52874441216282
 30
0.0
 10
14.34197370931244
 20
4.430523773130241
 30
0.0
 10
15.24033144007171
 20
4.171937451249556
 30
0.0
 10
16.17243219886926
 20
3.737791246717351
 30
0.0
 10
17.1332940198547
 20
3.126211007913301
 30
0.0
 10
18.09353787743409
 20
2.376523757930023
 30
0.0
 10
19.05591704504837
 20
1.520876893037683
 30
0.0
 10
20.01793078761843
 20
0.5926006104291293
 30
0.0
 10
20.9780930544062
 20
-0.3714310953943677
 30
0.0
 10
21.93924275374959
 20
-1.330677550742302
 30
0.0
 10
22.90225169476229
 20
-2.245027647074792
 30
0.0
 10
23.8628383770685
 20
-3.080794340530325
 30
0.0
 10
24.82325267625065
 20
-3.801381020140323
 30
0.0
 10
25.78607452633632
 20
-4.379106184566415
 30
0.0
 10
26.74757387796248
 20
-4.782967656481173
 30
0.0
 10
27.60168036631028
 20
-5.003734769831386
 30
0.0
 10
28.13642581557959
 20
-5.003434326629666
 30
0.0
 10
28.35101764810666
 20
-5.003313759624721
 30
0.0
  0
SPLINE
  5
BC
330
1F
100
AcDbEntity
  8
0
  6
Continuous
 62
     1
370
    15
100
AcDbSpline
210
0.0
220
0.0
230
1.0
 70
     8
 71
     3
 72
    22
 73
    18
 74
     0
 42
0.000000001
 43
0.00000001
 40
0.0
 40
0.0
 40
0.0
 40
0.0
 40
0.0650498353320949
 40
0.1300375915980053
 40
0.1949128544624213
 40
0.2600092424899973
 40
0.3249352508321955
 40
0.3898412467499698
 40
0.4618965158884326
 40
0.5337942560821689
 40
0.6056415627330527
 40
0.6776471036558064
 40
0.749626226878866
 40
0.8214688190279534
 40
0.8933847389852251
 40
0.9654351059731611
 40
1.0
 40
1.0
 40
1.0
 40
1.0
 10
9.999514079926778
 20
4.234612373950145
 30
0.0
 10
10.28944308133939
 20
4.124814906667029
 30
0.0
 10
10.8690243959674
 20
3.905324755213679
 30
0.0
 10
11.73761719793089
 20
3.398350102506094
 30
0.0
 10
12.60449254371282
 20
2.779159469561821
 30
0.0
 10
13.47441359136914
 20
2.059049482832382
 30
0.0
 10
14.34198058701786
 20
1.260640884660483
 30
0.0
 10
15.24032937327374
 20
0.381020816071921
 30
0.0
 10
16.17243276186786
 20
-0.5519164954799667
 30
0.0
 10
17.13329391958798
 20
-1.50618655777728
 30
0.0
 10
18.0935377165341
 20
-2.410001241929488
 30
0.0
 10
19.05591779098834
 20
-3.225541987717643
 30
0.0
 10
20.01792796881725
 20
-3.920393906185607
 30
0.0
 10
20.97810356698693
 20
-4.470102800271071
 30
0.0
 10
21.93920343936907
 20
-4.838068657986594
 30
0.0
 10
22.73590760174674
 20
-5.020807499038381
 30
0.0
 10
23.21056563736007
 20
-5.005540628677895
 30
0.0
 10
23.36445078047939
 20
-5.000591076886631
 30
0.0
  0
LINE
  5
BD
330
1F
100
AcDbEntity
  8
0
  6
Continuous
 62
     1
370
    15
100
AcDbLine
 10
9.999514079925522
 20
4.234612373944892
 30
0.0
 11
9.999514079925522
 21
4.500225568829313
 31
0.0
  0
SPLINE
  5
BE
330
1F
100
AcDbEntity
  8
0
  6
Continuous
 62
     1
370
    15
100
AcDbSpline
210
0.0
220
0.0
230
1.0
 70
     8
 71
     3
 72
    25
 73
    21
 74
     0
 42
0.000000001
 43
0.00000001
 40
0.0
 40
0.0
 40
0.0
 40
0.0
 40
0.0532144698447123
 40
0.1110661351167235
 40
0.1687755236463095
 40
0.2264953481923593
 40
0.2843573041958451
 40
0.3421112889495189
 40
0.3998063858641938
 40
0.4576111276748703
 40
0.5154370849191571
 40
0.5731359679393986
 40
0.6308753529523378
 40
0.6887412457576737
 40
0.7408657253010793
 40
0.793006276352098
 40
0.845283655323242
 40
0.8973834538739537
 40
0.9495735932309654
 40
1.0
 40
1.0
 40
1.0
 40
1.0
 10
26.67196416053152
 20
-4.725096033351216
 30
0.0
 10
26.37681995797372
 20
-4.814850819776967
 30
0.0
 10
25.76081220715221
 20
-5.002181770656029
 30
0.0
 10
24.82323643375278
 20
-5.051599107681545
 30
0.0
 10
23.86284272525587
 20
-4.923738598780287
 30
0.0
 10
22.90225052625722
 20
-4.601965182247131
 30
0.0
 10
21.93924306673206
 20
-4.106039705904704
 30
0.0
 10
20.97809296996951
 20
-3.452958563777503
 30
0.0
 10
20.01793081304162
 20
-2.669932574219412
 30
0.0
 10
19.0559170278989
 20
-1.789974893072819
 30
0.0
 10
18.09353792054525
 20
-0.8483628339320615
 30
0.0
 10
17.13329386487476
 20
0.1184461836397322
 30
0.0
 10
16.17243277679539
 20
1.069555884959435
 30
0.0
 10
15.24032936907526
 20
1.935864180113869
 30
0.0
 10
14.34198059017777
 20
2.694808553482851
 30
0.0
 10
13.47441358265398
 20
3.329022745335481
 30
0.0
 10
12.60449257545134
 20
3.843603349279959
 30
0.0
 10
11.73761708007106
 20
4.220641411368398
 30
0.0
 10
10.87908851881113
 20
4.457622332267413
 30
0.0
 10
10.30957275830739
 20
4.484412113704332
 30
0.0
 10
10.02970918381852
 20
4.497576778341672
 30
0.0
  0
SPLINE
  5
BF
330
1F
100
AcDbEntity
  8
0
  6
Continuous
 62
     1
370
    15
100
AcDbSpline
210
0.0
220
0.0
230
1.0
 70
     8
 71
     3
 72
    22
 73
    18
 74
     0
 42
0.000000001
 43
0.00000001
 40
0.0
 40
0.0
 40
0.0
 40
0.0
 40
0.0195090169604324
 40
0.0929844274602458
 40
0.166279353788743
 40
0.2395610280489275
 40
0.3130233709690801
 40
0.3863857495712487
 40
0.4596469116188189
 40
0.5330209358963198
 40
0.5998149346119924
 40
0.6664093956329328
 40
0.7331782472477674
 40
0.7999101791604338
 40
0.8665089919937566
 40
0.9333260362069458
 40
1.0
 40
1.0
 40
1.0
 40
1.0
 10
21.68327719210878
 20
4.189397206356714
 30
0.0
 10
21.76848269234084
 20
4.224037255789684
 30
0.0
 10
22.17459155326454
 20
4.389139637434642
 30
0.0
 10
22.90231455396911
 20
4.501221941008252
 30
0.0
 10
23.86282203513507
 20
4.50879798998958
 30
0.0
 10
24.8232552779916
 20
4.308221059672515
 30
0.0
 10
25.78608052283932
 20
3.926431832936532
 30
0.0
 10
26.74754735427044
 20
3.37315752199621
 30
0.0
 10
27.70768227185364
 20
2.672039513502042
 30
0.0
 10
28.64018158077798
 20
1.876779486039963
 30
0.0
 10
29.54457946102971
 20
1.030858942445376
 30
0.0
 10
30.41724834715168
 20
0.1656589005458434
 30
0.0
 10
31.29219750837399
 20
-0.710980045292096
 30
0.0
 10
32.16666105720483
 20
-1.573720037561674
 30
0.0
 10
33.03935263457004
 20
-2.392108149645499
 30
0.0
 10
33.91498329866064
 20
-3.144416441055199
 30
0.0
 10
34.49769518371775
 20
-3.561894628353578
 30
0.0
 10
34.78873884056289
 20
-3.770409988002522
 30
0.0
  0
SPLINE
  5
C0
330
1F
100
AcDbEntity
  8
0
  6
Continuous
 62
     1
370
    15
100
AcDbSpline
210
0.0
220
0.0
230
1.0
 70
     8
 71
     3
 72
    18
 73
    14
 74
     0
 42
0.000000001
 43
0.00000001
 40
0.0
 40
0.0
 40
0.0
 40
0.0
 40
0.0905659193030605
 40
0.1810183508265247
 40
0.271329707521538
 40
0.3618955994008414
 40
0.4523480646427892
 40
0.5426594150395484
 40
0.6332252794873184
 40
0.7291295073352699
 40
0.8248862175143825
 40
0.9207752237697944
 40
0.9999999999999999
 40
0.9999999999999999
 40
0.9999999999999999
 40
0.9999999999999999
 10
35.0185140799255
 20
-2.687420503170905
 30
0.0
 10
34.71560968813481
 20
-2.418633625928118
 30
0.0
 10
34.11018047279631
 20
-1.881396687168785
 30
0.0
 10
33.20314925227486
 20
-0.9937408161757693
 30
0.0
 10
32.29771947725386
 20
-0.0843537828352698
 30
0.0
 10
31.38968587579664
 20
0.8177325299305896
 30
0.0
 10
30.4828045432841
 20
1.6814935311933
 30
0.0
 10
29.5773252947189
 20
2.476353503529559
 30
0.0
 10
28.65109637027944
 20
3.183682944860927
 30
0.0
 10
27.7076739505861
 20
3.77459389072145
 30
0.0
 10
26.74756983299761
 20
4.207578826521869
 30
0.0
 10
25.84213855820733
 20
4.463417849973645
 30
0.0
 10
25.25635843248646
 20
4.479122797546387
 30
0.0
 10
24.99134046119029
 20
4.486228011879015
 30
0.0
  0
SPLINE
  5
C1
330
1F
100
AcDbEntity
  8
0
  6
Continuous
 62
     1
370
    15
100
AcDbSpline
210
0.0
220
0.0
230
1.0
 70
     8
 71
     3
 72
     9
 73
     5
 74
     0
 42
0.000000001
 43
0.00000001
 40
0.0
 40
0.0
 40
0.0
 40
0.0
 40
0.4917063586342342
 40
1.0
 40
1.0
 40
1.0
 40
1.0
 10
11.71025734106702
 20
-4.729422199442583
 30
0.0
 10
11.42996368777972
 20
-4.815670848471251
 30
0.0
 10
10.8599209206578
 20
-4.991077669054648
 30
0.0
 10
10.2894704346681
 20
-5.013355017538005
 30
0.0
 10
9.999514079925525
 20
-5.024678452118584
 30
0.0
  0
ELLIPSE
  5
C3
330
1F
100
AcDbEntity
  8
0
  6
Continuous
 62
     1
370
    15
100
AcDbEllipse
 10
36.82766208666763
 20
-0.262274431170685
 30
0.0
 11
6.709935874830742
 21
4.458418716618098
 31
0.0
210
0.0
220
0.0
230
1.0
 40
0.2495534463455958
 41
4.243613418047563
 42
4.278837090061492
  0
LINE
  5
C5
330
1F
100
AcDbEntity
  8
0
  6
Continuous
 62
     1
370
    15
100
AcDbLine
 10
35.0185140799255
 20
4.499954163414849
 30
0.0
 11
34.96772984122094
 21
4.495675742170633
 31
0.0
  0
SPLINE
  5
C6
330
1F
100
AcDbEntity
  8
0
  6
Continuous
 62
     1
370
    15
100
AcDbSpline
210
0.0
220
0.0
230
1.0
 70
     8
 71
     3
 72
    20
 73
    16
 74
     0
 42
0.000000001
 43
0.00000001
 40
0.0
 40
0.0
 40
0.0
 40
0.0
 40
0.0603775005504565
 40
0.1425533719145466
 40
0.2248854119194986
 40
0.3072476693404274
 40
0.3894289333035537
 40
0.4716678847777493
 40
0.5540870229338378
 40
0.6283285920608249
 40
0.7025930520435839
 40
0.7770523977993902
 40
0.8512588134698579
 40
0.925593902717015
 40
1.0
 40
1.0
 40
1.0
 40
1.0
 10
21.68327719210875
 20
-4.713946068698087
 30
0.0
 10
21.44810470410073
 20
-4.792844308293982
 30
0.0
 10
20.89285430715757
 20
-4.979125787155755
 30
0.0
 10
20.01795978508115
 20
-5.053319497996884
 30
0.0
 10
19.0559092549012
 20
-4.963305801740851
 30
0.0
 10
18.09353999850643
 20
-4.676452188127666
 30
0.0
 10
17.13329330811855
 20
-4.211460498742425
 30
0.0
 10
16.1724329267293
 20
-3.585478617758266
 30
0.0
 10
15.24032933391478
 20
-2.850722397882079
 30
0.0
 10
14.34198059709737
 20
-2.046065770838304
 30
0.0
 10
13.4744135886594
 20
-1.210056663454224
 30
0.0
 10
12.60449254443593
 20
-0.3448409726759047
 30
0.0
 10
11.73761719773697
 20
0.5251145108528585
 30
0.0
 10
10.86902439601472
 20
1.37259519789496
 30
0.0
 10
10.28944308135434
 20
1.887524706976939
 30
0.0
 10
9.999514079925525
 20
2.145112373449326
 30
0.0
  0
SPLINE
  5
C7
330
1F
100
AcDbEntity
  8
0
  6
Continuous
 62
     1
370
    15
100
AcDbSpline
210
0.0
220
0.0
230
1.0
 70
    24
 71
     3
 72
    16
 73
    12
 74
     0
 42
0.000000001
 43
0.00000001
 40
0.0
 40
0.0
 40
0.0
 40
0.0
 40
0.068194784488484
 40
0.188621362824768
 40
0.3125403200910789
 40
0.4329668984273769
 40
0.5568858556937026
 40
0.67731243403
 40
0.801231391296326
 40
0.9216579696326237
 40
1.0
 40
1.0
 40
1.0
 40
1.0
 10
9.999514079925522
 20
4.234612373944892
 30
0.0
 10
9.999514079925522
 20
4.160737418730283
 30
0.0
 10
9.999514079925522
 20
3.956405154383128
 30
0.0
 10
9.999514079925522
 20
3.627953797913115
 30
0.0
 10
9.999514079925522
 20
3.269421033806742
 30
0.0
 10
9.999514079925522
 20
2.943287396478779
 30
0.0
 10
9.999514079925524
 20
2.664831692295617
 30
0.0
 10
9.999514079925522
 20
2.4359869877214
 30
0.0
 10
9.999514079925522
 20
2.270912149687842
 30
0.0
 10
9.999514079925522
 20
2.171943952496049
 30
0.0
 10
9.999514079925522
 20
2.157966122982677
 30
0.0
 10
9.999514079925522
 20
2.152456945495606
 30
0.0
  0
SPLINE
  5
C9
330
1F
100
AcDbEntity
  8
0
  6
Continuous
 62
     1
370
    15
100
AcDbSpline
210
0.0
220
0.0
230
1.0
 70
     8
 71
     3
 72
    24
 73
    20
 74
     0
 42
0.000000001
 43
0.00000001
 40
0.0462226247975472
 40
0.0462226247975472
 40
0.0462226247975472
 40
0.0462226247975472
 40
0.0573000665798354
 40
0.1179161974991189
 40
0.1784377880049856
 40
0.2391299536716814
 40
0.2997461071871957
 40
0.360267693472327
 40
0.4209598407559526
 40
0.485229458863855
 40
0.5494002189291749
 40
0.6136596363820962
 40
0.6780066143662068
 40
0.7421953414448431
 40
0.8063956762467575
 40
0.8707541003572418
 40
0.9349924307141254
 40
0.9991652615825886
 40
1.0
 40
1.0
 40
1.0
 40
1.0
 10
34.27569986990293
 20
-4.971293840597223
 30
0.0
 10
34.22042306603539
 20
-4.964596178967493
 30
0.0
 10
33.86268325100609
 20
-4.914760241743938
 30
0.0
 10
33.20314987507751
 20
-4.726851653902601
 30
0.0
 10
32.29771930297805
 20
-4.320386007829361
 30
0.0
 10
31.38968594860043
 20
-3.76477313750781
 30
0.0
 10
30.48280442659102
 20
-3.083091877052478
 30
0.0
 10
29.57732568866066
 20
-2.297839796304868
 30
0.0
 10
28.65109486999006
 20
-1.42418427090041
 30
0.0
 10
27.70767991055254
 20
-0.4864534222270135
 30
0.0
 10
26.74754765847926
 20
0.4790660232073675
 30
0.0
 10
25.78608167197459
 20
1.413942620949973
 30
0.0
 10
24.8232503743236
 20
2.279612795324224
 30
0.0
 10
23.86284044966068
 20
3.044091703589409
 30
0.0
 10
22.90224569532906
 20
3.67230381177357
 30
0.0
 10
21.93926471801264
 20
4.146038428415266
 30
0.0
 10
20.97801141996104
 20
4.418212790171533
 30
0.0
 10
20.33429945677949
 20
4.531547233183974
 30
0.0
 10
20.00996773952933
 20
4.499398165352958
 30
0.0
 10
20.00580311458876
 20
4.498985350933078
 30
0.0
  0
SPLINE
  5
CA
330
1F
100
AcDbEntity
  8
0
  6
Continuous
 62
     1
370
    15
100
AcDbSpline
210
0.0
220
0.0
230
1.0
 70
     8
 71
     3
 72
    10
 73
     6
 74
     0
 42
0.000000001
 43
0.00000001
 40
0.0
 40
0.0
 40
0.0
 40
0.0
 40
0.213829381131294
 40
0.5145457170233333
 40
1.0
 40
1.0
 40
1.0
 40
1.0
 10
34.40269020543578
 20
-3.484636904956194
 30
0.0
 10
34.37445526448899
 20
-3.487014228792844
 30
0.0
 10
34.30651245953992
 20
-3.492734872942184
 30
0.0
 10
34.1501909149089
 20
-3.537710005666404
 30
0.0
 10
34.01433742114005
 20
-3.607360137293285
 30
0.0
 10
33.93044893838
 20
-3.650368555436427
 30
0.0
  0
SPLINE
  5
CB
330
1F
100
AcDbEntity
  8
0
  6
Continuous
 62
     1
370
    15
100
AcDbSpline
210
0.0
220
0.0
230
1.0
 70
     8
 71
     3
 72
     8
 73
     4
 74
     0
 42
0.000000001
 43
0.00000001
 40
0.0521834034766447
 40
0.0521834034766447
 40
0.0521834034766447
 40
0.0521834034766447
 40
1.0
 40
1.0
 40
1.0
 40
1.0
 10
35.32315150924168
 20
-3.977137604855348
 30
0.0
 10
34.86071977035913
 20
-3.904739202521451
 30
0.0
 10
34.39642634286515
 20
-3.794615811872883
 30
0.0
 10
33.93044893838
 20
-3.650368555436426
 30
0.0
  0
LINE
  5
CD
330
1F
100
AcDbEntity
  8
0
  6
Continuous
 62
     1
370
    15
100
AcDbLine
 10
35.39951407992552
 20
-1.128299834955127
 30
0.0
 11
35.39951407992552
 21
1.004629034580837
 31
0.0
  0
LINE
  5
CE
330
1F
100
AcDbEntity
  8
0
  6
Continuous
 62
     1
370
    15
100
AcDbLine
 10
33.93044893838
 20
-0.3879060198568702
 30
0.0
 11
35.39951407992552
 21
-1.128299834955127
 31
0.0
  0
SPLINE
  5
CF
330
1F
100
AcDbEntity
  8
0
  6
Continuous
 62
     1
370
    15
100
AcDbSpline
210
0.0
220
0.0
230
1.0
 70
     8
 71
     3
 72
    16
 73
    12
 74
     0
 42
0.000000001
 43
0.00000001
 40
0.0
 40
0.0
 40
0.0
 40
0.0
 40
0.2500000000000011
 40
0.2500000000000011
 40
0.5000000000000021
 40
0.5000000000000021
 40
0.7500000000000031
 40
0.7500000000000031
 40
0.8750000000000016
 40
0.8750000000000016
 40
1.0
 40
1.0
 40
1.0
 40
1.0
 10
34.78873884056289
 20
0.7730651421112109
 30
0.0
 10
34.77450426772415
 20
0.6894043653006877
 30
0.0
 10
34.75032852454954
 20
0.601506904876641
 30
0.0
 10
34.67455892719497
 20
0.4140270558274241
 30
0.0
 10
34.62168717037073
 20
0.3123027650499585
 30
0.0
 10
34.47952088446392
 20
0.1028485613736681
 30
0.0
 10
34.38840493392409
 20
-0.0065959179444528
 30
0.0
 10
34.2296779185416
 20
-0.1601382195162378
 30
0.0
 10
34.17191185641828
 20
-0.2107197813065087
 30
0.0
 10
34.05343627869348
 20
-0.3044351660948534
 30
0.0
 10
33.99266167611243
 20
-0.3478033273993624
 30
0.0
 10
33.93044893838
 20
-0.38790601985687
 30
0.0
  0
ELLIPSE
  5
D0
330
1F
100
AcDbEntity
  8
0
  6
Continuous
 62
     1
370
    15
100
AcDbEllipse
 10
36.82766208666763
 20
-0.2622744311706867
 30
0.0
 11
6.70993587483075
 21
4.458418716618108
 31
0.0
210
0.0
220
0.0
230
1.0
 40
0.2495534463455922
 41
1.675706723330211
 42
1.710930395344142
  0
SPLINE
  5
D1
330
1F
100
AcDbEntity
  8
0
  6
Continuous
 62
     1
370
    15
100
AcDbSpline
210
0.0
220
0.0
230
1.0
 70
     8
 71
     3
 72
    12
 73
     8
 74
     0
 42
0.000000001
 43
0.00000001
 40
0.0
 40
0.0
 40
0.0
 40
0.0
 40
0.2500000000000001
 40
0.2500000000000001
 40
0.5000000000000001
 40
0.5000000000000001
 40
1.0
 40
1.0
 40
1.0
 40
1.0
 10
35.39951407992552
 20
1.004629034580837
 30
0.0
 10
35.39951407992552
 20
1.031549188920214
 30
0.0
 10
35.38815925420977
 20
1.051600139120106
 30
0.0
 10
35.34445142759125
 20
1.071701683036973
 30
0.0
 10
35.31213646600872
 20
1.071877226025053
 30
0.0
 10
35.19925293118749
 20
1.046602788681748
 30
0.0
 10
35.10639596340296
 20
0.9979109489236272
 30
0.0
 10
35.01851407992533
 20
0.936129822547802
 30
0.0
  0
SPLINE
  5
D2
330
1F
100
AcDbEntity
  8
0
  6
Continuous
 62
     1
370
    15
100
AcDbSpline
210
0.0
220
0.0
230
1.0
 70
     8
 71
     3
 72
    14
 73
    10
 74
     0
 42
0.000000001
 43
0.00000001
 40
0.0
 40
0.0
 40
0.0
 40
0.0
 40
0.25
 40
0.25
 40
0.5
 40
0.5
 40
0.75
 40
0.75
 40
1.0
 40
1.0
 40
1.0
 40
1.0
 10
35.39951407992552
 20
-2.58984180149857
 30
0.0
 10
35.39951407992552
 20
-2.645161508610984
 30
0.0
 10
35.39180629211915
 20
-2.698659245326249
 30
0.0
 10
35.34877904121875
 20
-2.779921830122215
 30
0.0
 10
35.3132786555634
 20
-2.80321683526551
 30
0.0
 10
35.23147509082988
 20
-2.810145752330433
 30
0.0
 10
35.18757936006535
 20
-2.796400133547293
 30
0.0
 10
35.10202983226085
 20
-2.752947410858963
 30
0.0
 10
35.05948874320713
 20
-2.722634168130165
 30
0.0
 10
35.01851407992555
 20
-2.687420503170948
 30
0.0
  0
SPLINE
  5
D3
330
1F
100
AcDbEntity
  8
0
  6
Continuous
 62
     1
370
    15
100
AcDbSpline
210
0.0
220
0.0
230
1.0
 70
    24
 71
     3
 72
    15
 73
    11
 74
     0
 42
0.000000001
 43
0.00000001
 40
0.0
 40
0.0
 40
0.0
 40
0.0
 40
0.0427970220358221
 40
0.1883157796976177
 40
0.3380545911897455
 40
0.4835733488515406
 40
0.6333121603436681
 40
0.7788309180054633
 40
0.9285697294975918
 40
1.0
 40
1.0
 40
1.0
 40
1.0
 10
9.999514079925522
 20
-3.685210032577957
 30
0.0
 10
9.999514079925522
 20
-3.682319575309132
 30
0.0
 10
9.999514079925522
 20
-3.669600963397161
 30
0.0
 10
9.999514079925522
 20
-3.715218641635686
 30
0.0
 10
9.999514079925524
 20
-3.821881520654172
 30
0.0
 10
9.999514079925522
 20
-3.998545004028614
 30
0.0
 10
9.999514079925522
 20
-4.230379091665851
 30
0.0
 10
9.999514079925522
 20
-4.517163194839575
 30
0.0
 10
9.999514079925522
 20
-4.788738185558143
 30
0.0
 10
9.999514079925522
 20
-4.967079975160244
 30
0.0
 10
9.999514079925522
 20
-5.024678452118595
 30
0.0
  0
SPLINE
  5
D4
330
1F
100
AcDbEntity
  8
0
  6
Continuous
 62
     1
370
    15
100
AcDbSpline
210
0.0
220
0.0
230
1.0
 70
     8
 71
     3
 72
    11
 73
     7
 74
     0
 42
0.000000001
 43
0.00000001
 40
0.0
 40
0.0
 40
0.0
 40
0.0
 40
0.2564186088227622
 40
0.5125925094505417
 40
0.768322974651226
 40
1.0
 40
1.0
 40
1.0
 40
1.0
 10
9.99951407992678
 20
-3.868864174883
 30
0.0
 10
10.2894450169461
 20
-4.046595315067774
 30
0.0
 10
10.8690302009403
 20
-4.401887981123032
 30
0.0
 10
11.73759402061667
 20
-4.761912387737683
 30
0.0
 10
12.57646034779465
 20
-4.988338466014914
 30
0.0
 10
13.12801467547015
 20
-5.008331283677448
 30
0.0
 10
13.39018230405964
 20
-5.01783437219005
 30
0.0
  0
SPLINE
  5
D5
330
1F
100
AcDbEntity
  8
0
  6
Continuous
 62
     1
370
    15
100
AcDbSpline
210
0.0
220
0.0
230
1.0
 70
     8
 71
     3
 72
    17
 73
    13
 74
     0
 42
0.000000001
 43
0.00000001
 40
0.0
 40
0.0
 40
0.0
 40
0.0
 40
0.0093453417403629
 40
0.127622437491037
 40
0.2460817446126896
 40
0.3539178744373055
 40
0.461431858961928
 40
0.5692273898392909
 40
0.6769633153947291
 40
0.7844843257392462
 40
0.8923576615600572
 40
1.0
 40
1.0
 40
1.0
 40
1.0
 10
26.67196416053155
 20
4.200547171009845
 30
0.0
 10
26.69725421177965
 20
4.211404065433697
 30
0.0
 10
27.04262178358444
 20
4.359668662753927
 30
0.0
 10
27.70761081943822
 20
4.477154373693851
 30
0.0
 10
28.64019883781044
 20
4.523783262492469
 30
0.0
 10
29.54457503704139
 20
4.377175844256485
 30
0.0
 10
30.41724953453352
 20
4.083015683402383
 30
0.0
 10
31.29219719004945
 20
3.642604307808718
 30
0.0
 10
32.16666114225222
 20
3.071592115839336
 30
0.0
 10
33.0393526118253
 20
2.386030934847682
 30
0.0
 10
33.91498330434035
 20
1.616874798078608
 30
0.0
 10
34.49769518560964
 20
1.054133972209089
 30
0.0
 10
34.78873884056289
 20
0.7730651421112373
 30
0.0
  0
SPLINE
  5
D6
330
1F
100
AcDbEntity
  8
0
  6
Continuous
 62
     1
370
    15
100
AcDbSpline
210
0.0
220
0.0
230
1.0
 70
     8
 71
     3
 72
     8
 73
     4
 74
     0
 42
0.000000001
 43
0.00000001
 40
0.0
 40
0.0
 40
0.0
 40
0.0
 40
1.0
 40
1.0
 40
1.0
 40
1.0
 10
35.39951407992552
 20
-1.403377277108758
 30
0.0
 10
34.91183934831814
 20
-1.070158135557879
 30
0.0
 10
34.42208139786043
 20
-0.7314855980948881
 30
0.0
 10
33.93044893838
 20
-0.3879060198568723
 30
0.0
  0
LINE
  5
D7
330
1F
100
AcDbEntity
  8
0
  6
Continuous
 62
     1
370
    15
100
AcDbLine
 10
35.39951407992552
 20
-2.589841801498573
 30
0.0
 11
35.39951407992552
 21
-1.403377277108758
 31
0.0
  0
SPLINE
  5
D8
330
1F
100
AcDbEntity
  8
0
  6
Continuous
 62
     1
370
    15
100
AcDbSpline
210
0.0
220
0.0
230
1.0
 70
     8
 71
     3
 72
    14
 73
    10
 74
     0
 42
0.000000001
 43
0.00000001
 40
0.0
 40
0.0
 40
0.0
 40
0.0
 40
0.25
 40
0.25
 40
0.5
 40
0.5
 40
0.75
 40
0.75
 40
1.0
 40
1.0
 40
1.0
 40
1.0
 10
35.39951407992552
 20
1.788748143759246
 30
0.0
 10
35.39951407992552
 20
1.77640512400704
 30
0.0
 10
35.39180629211915
 20
1.771436211820183
 30
0.0
 10
35.34877904121876
 20
1.791824810164381
 30
0.0
 10
35.31327865556339
 20
1.818241104473268
 30
0.0
 10
35.23147509082987
 20
1.886394793128359
 30
0.0
 10
35.18757936006534
 20
1.925427547417614
 30
0.0
 10
35.10202983226085
 20
2.001363351309324
 30
0.0
 10
35.05948874320713
 20
2.039157617830846
 30
0.0
 10
35.01851407992555
 20
2.074808091414599
 30
0.0
  0
SPLINE
  5
D9
330
1F
100
AcDbEntity
  8
0
  6
Continuous
 62
     1
370
    15
100
AcDbSpline
210
0.0
220
0.0
230
1.0
 70
     8
 71
     3
 72
    13
 73
     9
 74
     0
 42
0.000000001
 43
0.00000001
 40
0.0
 40
0.0
 40
0.0
 40
0.0
 40
0.1802171490323174
 40
0.3602084686991703
 40
0.5399190635240598
 40
0.7201361579858346
 40
0.9001275447491082
 40
0.9999999999999999
 40
0.9999999999999999
 40
0.9999999999999999
 40
0.9999999999999999
 10
35.0185140799255
 20
2.074808091414642
 30
0.0
 10
34.71560980598504
 20
2.330171672016051
 30
0.0
 10
34.11018082619932
 20
2.840578838170233
 30
0.0
 10
33.20314784164636
 20
3.470769546389025
 30
0.0
 10
32.29772476440241
 20
3.975046303483645
 30
0.0
 10
31.38966608454498
 20
4.315129508513643
 30
0.0
 10
30.61696546175216
 20
4.490885696859694
 30
0.0
 10
30.1473244742677
 20
4.482096155346846
 30
0.0
 10
29.9797279810267
 20
4.478959511880864
 30
0.0
  0
SPLINE
  5
DA
330
1F
100
AcDbEntity
  8
0
  6
Continuous
 62
     1
370
    15
100
AcDbSpline
210
0.0
220
0.0
230
1.0
 70
     8
 71
     3
 72
    15
 73
    11
 74
     0
 42
0.000000001
 43
0.00000001
 40
0.0
 40
0.0
 40
0.0
 40
0.0
 40
0.0783736185399174
 40
0.2221461621224724
 40
0.3516536948599827
 40
0.4812011585726615
 40
0.6110885824441807
 40
0.7405347932366602
 40
0.8702054631514548
 40
1.0
 40
1.0
 40
1.0
 40
1.0
 10
16.69760445574438
 20
-4.709157064748585
 30
0.0
 10
16.52270881146086
 20
-4.773150041779352
 30
0.0
 10
16.02697572074317
 20
-4.95453498374086
 30
0.0
 10
15.2402952355651
 20
-5.043924375107601
 30
0.0
 10
14.34198932960184
 20
-5.004410045356785
 30
0.0
 10
13.47441124145179
 20
-4.801026022933237
 30
0.0
 10
12.60449317143071
 20
-4.450764422434103
 30
0.0
 10
11.7376170304606
 20
-3.957944983242265
 30
0.0
 10
10.86902443791064
 20
-3.349457480134239
 30
0.0
 10
10.28944309532409
 20
-2.861424586244004
 30
0.0
 10
9.999514079925525
 20
-2.617291647498522
 30
0.0
  0
SPLINE
  5
DB
330
1F
100
AcDbEntity
  8
0
  6
Continuous
 62
     1
370
    15
100
AcDbSpline
210
0.0
220
0.0
230
1.0
 70
    24
 71
     3
 72
    14
 73
    10
 74
     0
 42
0.000000001
 43
0.00000001
 40
0.0
 40
0.0
 40
0.0
 40
0.0
 40
0.2500000000000001
 40
0.2500000000000001
 40
0.5000000000000002
 40
0.5000000000000002
 40
0.7500000000000001
 40
0.7500000000000001
 40
1.0
 40
1.0
 40
1.0
 40
1.0
 10
9.999514079925522
 20
0.6280226302356459
 30
0.0
 10
9.999514079925522
 20
0.5103601150108259
 30
0.0
 10
9.999514079925522
 20
0.3589046434299606
 30
0.0
 10
9.999514079925522
 20
-0.0376395939949476
 30
0.0
 10
9.999514079925522
 20
-0.2841183249676493
 30
0.0
 10
9.999514079925522
 20
-0.8731812106510728
 30
0.0
 10
9.999514079925522
 20
-1.216970360420154
 30
0.0
 10
9.999514079925522
 20
-1.931967444682812
 30
0.0
 10
9.999514079925522
 20
-2.300476319011415
 30
0.0
 10
9.999514079925522
 20
-2.617291647498532
 30
0.0
  0
SPLINE
  5
DC
330
1F
100
AcDbEntity
  8
0
  6
Continuous
 62
     1
370
    15
100
AcDbSpline
210
0.0
220
0.0
230
1.0
 70
     8
 71
     3
 72
    17
 73
    13
 74
     0
 42
0.000000001
 43
0.00000001
 40
0.0
 40
0.0
 40
0.0
 40
0.0
 40
0.1037830131340665
 40
0.2074669829345368
 40
0.3109714764287999
 40
0.4148287615265366
 40
0.5184142163108671
 40
0.6219677425023545
 40
0.7369274945939354
 40
0.8516359189387803
 40
0.9662638796665614
 40
1.0
 40
1.0
 40
1.0
 40
1.0
 10
9.999514079926778
 20
0.6280226302378575
 30
0.0
 10
10.28944308024371
 20
0.3406917656507106
 30
0.0
 10
10.86902439268138
 20
-0.2336957548085501
 30
0.0
 10
11.73761721105085
 20
-1.103655664045712
 30
0.0
 10
12.60449249453584
 20
-1.945619280916839
 30
0.0
 10
13.47441377546728
 20
-2.728990662380456
 30
0.0
 10
14.34197990210282
 20
-3.433089344737944
 30
0.0
 10
15.24033204770381
 20
-4.052375563224392
 30
0.0
 10
16.17242155955956
 20
-4.554476006157826
 30
0.0
 10
17.13333546883617
 20
-4.885648846167427
 30
0.0
 10
17.86706496695907
 20
-5.036028152449434
 30
0.0
 10
18.28161746707852
 20
-5.010464739202547
 30
0.0
 10
18.3758814757828
 20
-5.004651941527654
 30
0.0
  0
SPLINE
  5
DD
330
1F
100
AcDbEntity
  8
0
  6
Continuous
 62
     1
370
    15
100
AcDbSpline
210
0.0
220
0.0
230
1.0
 70
     8
 71
     3
 72
    10
 73
     6
 74
     0
 42
0.000000001
 43
0.00000001
 40
0.0
 40
0.0
 40
0.0
 40
0.0
 40
0.1615799660550496
 40
0.4406435320181533
 40
0.5553055898417252
 40
0.5553055898417252
 40
0.5553055898417252
 40
0.5553055898417252
 10
31.66150045888745
 20
4.189455975331543
 30
0.0
 10
31.83002180293005
 20
4.249950833827445
 30
0.0
 10
32.28959511558985
 20
4.414925915623726
 30
0.0
 10
32.86732680571281
 20
4.489399387614324
 30
0.0
 10
33.2780752424507
 20
4.501216857673355
 30
0.0
 10
33.39772506063961
 20
4.500225568829312
 30
0.0
  0
SPLINE
  5
DE
330
1F
100
AcDbEntity
  8
0
  6
Continuous
 62
     1
370
    15
100
AcDbSpline
210
0.0
220
0.0
230
1.0
 70
     8
 71
     3
 72
    16
 73
    12
 74
     0
 42
0.000000001
 43
0.00000001
 40
0.0438546029699877
 40
0.0438546029699877
 40
0.0438546029699877
 40
0.0438546029699877
 40
0.2500000000000009
 40
0.2500000000000009
 40
0.5000000000000019
 40
0.5000000000000019
 40
0.7500000000000029
 40
0.7500000000000029
 40
0.8750000000000014
 40
0.8750000000000014
 40
1.0
 40
1.0
 40
1.0
 40
1.0
 10
34.78030976565503
 20
4.202570042085196
 30
0.0
 10
34.76560067694086
 20
4.079906099388126
 30
0.0
 10
34.74368283333118
 20
3.959840508827523
 30
0.0
 10
34.67455892719495
 20
3.701601358064757
 30
0.0
 10
34.62168717037074
 20
3.562275380520493
 30
0.0
 10
34.47952088446393
 20
3.31578553843671
 30
0.0
 10
34.38840493392408
 20
3.207401551953156
 30
0.0
 10
34.2296779185416
 20
3.092820284513137
 30
0.0
 10
34.17191185641828
 20
3.061715554095236
 30
0.0
 10
34.05343627869348
 20
3.017971376599125
 30
0.0
 10
33.99266167611245
 20
3.004942190073511
 30
0.0
 10
33.93044893838002
 20
3.000188104408868
 30
0.0
  0
SPLINE
  5
DF
330
1F
100
AcDbEntity
  8
0
  6
Continuous
 62
     1
370
    15
100
AcDbSpline
210
0.0
220
0.0
230
1.0
 70
     8
 71
     3
 72
     8
 73
     4
 74
     0
 42
0.000000001
 43
0.00000001
 40
0.0
 40
0.0
 40
0.0
 40
0.0
 40
1.0
 40
1.0
 40
1.0
 40
1.0
 10
35.39951407992552
 20
2.323100232324773
 30
0.0
 10
34.91183934831814
 20
2.584329201898582
 30
0.0
 10
34.42208139786043
 20
2.808797522402367
 30
0.0
 10
33.93044893838
 20
3.00018810440887
 30
0.0
  0
LINE
  5
E0
330
1F
100
AcDbEntity
  8
0
  6
Continuous
 62
     1
370
    15
100
AcDbLine
 10
35.39951407992552
 20
1.788748143759247
 30
0.0
 11
35.39951407992552
 21
2.323100232324773
 31
0.0
  0
LINE
  5
E3
330
1F
100
AcDbEntity
  8
0
  6
Continuous
 62
     1
370
    15
100
AcDbLine
 10
9.999514079925522
 20
0.6280226302356653
 30
0.0
 11
9.999514079925522
 21
2.145112373449329
 31
0.0
  0
LINE
  5
E5
330
1F
100
AcDbEntity
  8
0
  6
Continuous
 62
     1
370
    15
100
AcDbLine
 10
9.999514079925522
 20
-3.86886417487994
 30
0.0
 11
9.999514079925522
 21
-2.61729164749853
 31
0.0
  0
LINE
  5
E6
330
1F
100
AcDbEntity
  8
0
  6
Continuous
 62
     1
370
    15
100
AcDbLine
 10
35.39951407992552
 20
1.004629034580837
 30
0.0
 11
35.39951407992552
 21
1.788748143759247
 31
0.0
  0
SPLINE
  5
E7
330
1F
100
AcDbEntity
  8
0
  6
Continuous
 62
     1
370
    15
100
AcDbSpline
210
0.0
220
0.0
230
1.0
 70
     8
 71
     3
 72
    12
 73
     8
 74
     0
 42
0.000000001
 43
0.00000001
 40
0.0
 40
0.0
 40
0.0
 40
0.0
 40
0.2499999999999999
 40
0.2499999999999999
 40
0.4999999999999998
 40
0.4999999999999998
 40
1.0
 40
1.0
 40
1.0
 40
1.0
 10
35.39951407992552
 20
-3.261228704491112
 30
0.0
 10
35.39951407992552
 20
-3.28814885883049
 30
0.0
 10
35.38815925420977
 20
-3.321970885247918
 30
0.0
 10
35.34445142759125
 20
-3.395081064148197
 30
0.0
 10
35.31213646600872
 20
-3.434448032003558
 30
0.0
 10
35.19925293118749
 20
-3.546078184888524
 30
0.0
 10
35.10639596340296
 20
-3.610002814348104
 30
0.0
 10
35.01851407992533
 20
-3.654804399658667
 30
0.0
  0
LINE
  5
E8
330
1F
100
AcDbEntity
  8
0
  6
Continuous
 62
     1
370
    15
100
AcDbLine
 10
35.39951407992552
 20
-3.261228704491111
 30
0.0
 11
35.39951407992552
 21
-2.589841801498573
 31
0.0
  0
LINE
  5
E9
330
1F
100
AcDbEntity
  8
0
  6
Continuous
 62
     1
370
    15
100
AcDbLine
 10
35.39951407992552
 20
-1.128299834955127
 30
0.0
 11
35.39951407992552
 21
-1.403377277108757
 31
0.0
  0
LINE
  5
EB
330
1F
100
AcDbEntity
  8
0
  6
Continuous
 62
     1
370
    15
100
AcDbLine
 10
35.39951407992552
 20
2.323100232324773
 30
0.0
 11
35.39951407992552
 21
2.976225568829313
 31
0.0
  0
LINE
  5
EC
330
1F
100
AcDbEntity
  8
0
  6
Continuous
 62
     1
370
    15
100
AcDbLine
 10
35.39951407992552
 20
-3.261228704491111
 30
0.0
 11
35.39951407992552
 21
-3.500774431170697
 31
0.0
  0
LINE
  5
EF
330
1F
100
AcDbEntity
  8
중심선
100
AcDbLine
 10
-43.80048592007449
 20
-0.2622744311706917
 30
0.0
 11
38.39951407992552
 21
-0.2622744311706917
 31
0.0
  0
CIRCLE
  5
F0
330
1F
100
AcDbEntity
  8
외형선
100
AcDbCircle
 10
-0.0004859200744764
 20
-0.2622744311706917
 30
0.0
 40
3.000000000000001
  0
INSERT
  5
F1
330
1F
100
AcDbEntity
  8
0
  6
Continuous
 62
     7
100
AcDbBlockReference
 66
     1
  2
블럭10
 10
-16.62984641916796
 20
-52.04907070757051
 30
0.0
  0
ATTRIB
  5
F2
330
F1
100
AcDbEntity
  8
FORMAT
 62
     2
100
AcDbText
 10
-27.68086677135242
 20
-49.97370379473831
 30
0.0
 40
4.233333333333333
  1
GMG22910[ 6 FLUTE ]
 41
0.75
  7
SLDTEXTSTYLE0
 11
-27.68086677135242
 21
-52.09037046140498
 31
0.0
100
AcDbAttribute
  2
AUTOATTR0
 70
     0
 74
     1
  0
SEQEND
  5
F3
330
F1
100
AcDbEntity
  8
0
  6
Continuous
 62
     7
  0
HATCH
  5
F4
330
1F
100
AcDbEntity
  8
중심선
100
AcDbHatch
 10
0.0
 20
0.0
 30
0.0
210
0.0
220
0.0
230
1.0
  2
SOLID
 70
     1
 71
     0
 91
        1
 92
        0
 93
        4
 72
     1
 10
-10.91493711478711
 20
-35.80189640592657
 11
-14.36121235862439
 21
-35.80189640592657
 72
     1
 10
-14.36121235862439
 20
-35.80189640592657
 11
-16.48944221782842
 21
-38.33822198649916
 72
     1
 10
-16.48944221782842
 20
-38.33822198649916
 11
-13.04313388887798
 21
-38.33818255719667
 72
     1
 10
-13.04313388887798
 20
-38.33818255719667
 11
-10.91493711478711
 21
-35.80189640592657
 97
        0
 75
     0
 76
     1
 98
        1
 10
0.0
 20
0.0
  0
HATCH
  5
F5
330
1F
100
AcDbEntity
  8
중심선
100
AcDbHatch
 10
0.0
 20
0.0
 30
0.0
210
0.0
220
0.0
230
1.0
  2
SOLID
 70
     1
 71
     0
 91
        1
 92
        0
 93
        4
 72
     1
 10
-5.902173123751159
 20
-35.80189640592657
 11
-9.348448367588441
 21
-35.80189640592657
 72
     1
 10
-9.348448367588441
 20
-35.80189640592657
 11
-13.87958637594583
 21
-41.20189640592658
 72
     1
 10
-13.87958637594583
 20
-41.20189640592658
 11
-10.43331113210855
 21
-41.20189640592658
 72
     1
 10
-10.43331113210855
 20
-41.20189640592658
 11
-5.902173123751159
 21
-35.80189640592657
 97
        0
 75
     0
 76
     1
 98
        1
 10
0.0
 20
0.0
  0
HATCH
  5
F6
330
1F
100
AcDbEntity
  8
중심선
100
AcDbHatch
 10
0.0
 20
0.0
 30
0.0
210
0.0
220
0.0
230
1.0
  2
SOLID
 70
     1
 71
     0
 91
        1
 92
        0
 93
        4
 72
     1
 10
-0.8894091327152631
 20
-35.8018964059266
 11
-4.335684376552379
 21
-35.80189640592657
 72
     1
 10
-4.335684376552379
 20
-35.80189640592657
 11
-11.38412127844163
 21
-44.20189640592659
 72
     1
 10
-11.38412127844163
 20
-44.20189640592659
 11
-7.937846034604346
 21
-44.20189640592659
 72
     1
 10
-7.937846034604346
 20
-44.20189640592659
 11
-0.8894091327152633
 21
-35.8018964059266
 97
        0
 75
     0
 76
     1
 98
        1
 10
0.0
 20
0.0
  0
HATCH
  5
F7
330
1F
100
AcDbEntity
  8
중심선
100
AcDbHatch
 10
0.0
 20
0.0
 30
0.0
210
0.0
220
0.0
230
1.0
  2
SOLID
 70
     1
 71
     0
 91
        1
 92
        0
 93
        6
 72
     3
 10
3.910481298296936
 20
-40.00189640597785
 11
3.960054785062284
 21
1.540850780301639E-10
 40
0.3939339440162633
 50
17.09539180608434
 51
320.0019657685079
 73
     0
 72
     1
 10
5.593480953997531
 20
-38.58979041056487
 11
7.89878282769857
 21
-36.65546370051695
 72
     3
 10
3.91048129824409
 20
-40.00189640592671
 11
6.600054785286829
 21
-1.249000902703301E-13
 40
0.6363583540795982
 50
39.99873849337408
 51
368.4976242363725
 73
     1
 72
     1
 10
10.3358137901447
 20
-39.04189640585659
 11
2.590548605080012
 21
-39.04189640585656
 72
     1
 10
2.590548605080012
 20
-39.04189640585656
 11
2.590523560634078
 21
-40.96189640585649
 72
     1
 10
2.590523560634078
 20
-40.96189640585649
 11
7.031903330106115
 21
-40.96189640585646
 97
        0
 75
     0
 76
     1
 98
        1
 10
0.0
 20
0.0
  0
POINT
  5
F8
330
1F
100
AcDbEntity
  8
치수문자_일반주서
100
AcDbPoint
 10
-0.0004859200744764
 20
-0.2622744311706917
 30
0.0
  0
DIMENSION
  5
F9
330
1F
100
AcDbEntity
  8
치수문자_일반주서
100
AcDbDimension
  2
_D
 10
53.55047555699391
 20
4.500225568829387
 30
0.0
 11
53.55047555699392
 21
0.8286717841757826
 31
0.0
 70
   160
  1
%%c<>
 71
     2
 42
9.525
 52
-270.0
  3
SLDDIMSTYLE0
100
AcDbAlignedDimension
 13
33.87551407992552
 23
-5.024774431170687
 33
0.0
 14
33.87551407992552
 24
4.500225568829313
 34
0.0
 50
90.0000000000002
100
AcDbRotatedDimension
1001
ACAD
1000
DSTYLE
1002
{
1070
   171
1070
     3
1070
   273
1070
     7
1002
}
  0
DIMENSION
  5
10E
330
1F
100
AcDbEntity
  8
치수문자_일반주서
100
AcDbDimension
  2
_D_1
 10
35.39951407992552
 20
37.1557769869011
 30
0.0
 11
-2.700485920074479
 21
37.1557769869011
 31
0.0
 70
   160
  1
<>
 71
     2
 42
76.2
  3
SLDDIMSTYLE1
100
AcDbAlignedDimension
 13
-40.80048592007449
 23
4.000225568829306
 33
0.0
 14
35.39951407992552
 24
4.119225568829313
 34
0.0
100
AcDbRotatedDimension
1001
ACAD
1000
DSTYLE
1002
{
1070
   171
1070
     3
1070
   273
1070
     7
1002
}
  0
DIMENSION
  5
122
330
1F
100
AcDbEntity
  8
치수문자_일반주서
100
AcDbDimension
  2
_D_2
 10
9.999514079925522
 20
21.74622009916725
 30
0.0
 11
22.420115211827
 21
21.74622009916725
 31
0.0
 70
   160
  1
<>
 71
     2
 42
25.4
  3
SLDDIMSTYLE2
100
AcDbAlignedDimension
 13
35.39951407992552
 23
2.976225568829313
 33
0.0
 14
9.999514079925522
 24
-5.024678452118588
 34
0.0
100
AcDbRotatedDimension
1001
ACAD
1000
DSTYLE
1002
{
1070
   171
1070
     3
1070
   273
1070
     7
1002
}
  0
DIMENSION
  5
138
330
1F
100
AcDbEntity
  8
치수문자_일반주서
100
AcDbDimension
  2
_D_3
 10
-53.80048592007448
 20
-5.024774431170737
 30
0.0
 11
-53.8004859200745
 21
-0.2622744311706908
 31
0.0
 70
   160
  1
%%c<>
 71
     2
 42
9.525
  3
SLDDIMSTYLE0
100
AcDbAlignedDimension
 13
-40.30048592007449
 23
4.50022556882931
 33
0.0
 14
-40.30048592007449
 24
-5.02477443117069
 34
0.0
 50
90.0000000000002
100
AcDbRotatedDimension
1001
ACAD
1000
DSTYLE
1002
{
1070
   171
1070
     3
1070
   273
1070
     7
1002
}
  0
INSERT
  5
152
330
1F
100
AcDbEntity
  8
외형선
100
AcDbBlockReference
  2
SW_DOWELSYMBOL_0
 10
-0.0004859200744764
 20
-0.2622744311706917
 30
0.0
  0
ARC
  5
178
102
{ACAD_REACTORS
102
}
330
1F
100
AcDbEntity
  8
0
  6
Continuous
 62
     1
370
    15
100
AcDbCircle
 10
33.87551407992552
 20
2.976225568829313
 30
0.0
 40
1.524
100
AcDbArc
 50
0.0
 51
90.0
  0
ARC
  5
17A
330
1F
100
AcDbEntity
  8
0
  6
Continuous
 62
     1
370
    15
100
AcDbCircle
 10
33.87551407992552
 20
-3.500774431170697
 30
0.0
 40
1.524
100
AcDbArc
 50
270.0
 51
0.0
  0
DIMENSION
  5
17C
102
{ACAD_REACTORS
102
}
102
{ACAD_XDICTIONARY
360
17D
102
}
330
1F
100
AcDbEntity
  8
치수문자_일반주서
100
AcDbDimension
  2
*D7
 10
33.87551407992552
 20
2.976225568829313
 30
0.0
 11
49.70027172949231
 21
23.59870118843158
 31
0.0
 70
   164
  1
<>
 71
     5
 42
1.523999999999999
  3
SLDDIMSTYLE2
100
AcDbRadialDimension
 15
34.80328773588462
 25
4.185279762531267
 35
0.0
 40
0.0
1001
ACAD
1000
DSTYLE
1002
{
1070
   171
1070
     3
1070
   273
1070
     2
1002
}
1001
ACAD_DSTYLE_DIMRADIAL_EXTENSION
1070
   387
1070
     1
1070
   388
1040
0.0
1070
   390
1040
1.570796326794897
  0
ENDSEC
  0
SECTION
  2
OBJECTS
  0
DICTIONARY
  5
C
330
0
100
AcDbDictionary
281
     1
  3
ACAD_GROUP
350
D
  3
ACAD_IMAGE_VARS
350
176
  3
ACAD_LAYOUT
350
1A
  3
ACAD_MLINESTYLE
350
17
  3
ACAD_PLOTSETTINGS
350
19
  3
ACAD_PLOTSTYLENAME
350
E
  3
ACAD_SCALELIST
350
47
  3
APPDATA
350
174
  3
DWGPROPS
350
18A
  0
DICTIONARY
  5
17D
330
17C
100
AcDbDictionary
280
     1
281
     1
  0
DICTIONARY
  5
D
102
{ACAD_REACTORS
330
C
102
}
330
C
100
AcDbDictionary
281
     1
  0
RASTERVARIABLES
  5
176
102
{ACAD_REACTORS
330
C
102
}
330
C
100
AcDbRasterVariables
 90
        0
 70
     1
 71
     1
 72
     1
  0
DICTIONARY
  5
1A
102
{ACAD_REACTORS
330
C
102
}
330
C
100
AcDbDictionary
281
     1
  3
Layout1
350
1E
  3
Layout2
350
26
  3
Model
350
22
  0
DICTIONARY
  5
17
102
{ACAD_REACTORS
330
C
102
}
330
C
100
AcDbDictionary
281
     1
  3
Standard
350
18
  0
DICTIONARY
  5
19
102
{ACAD_REACTORS
330
C
102
}
330
C
100
AcDbDictionary
281
     1
  0
ACDBDICTIONARYWDFLT
  5
E
102
{ACAD_REACTORS
330
C
102
}
330
C
100
AcDbDictionary
281
     1
  3
Normal
350
F
100
AcDbDictionaryWithDefault
340
F
  0
DICTIONARY
  5
47
102
{ACAD_REACTORS
330
C
102
}
330
C
100
AcDbDictionary
281
     1
  3
A0
350
48
  3
A1
350
49
  3
A2
350
4A
  3
A3
350
4B
  3
A4
350
4C
  3
A5
350
4D
  3
A6
350
4E
  3
A7
350
4F
  3
A8
350
50
  3
A9
350
51
  3
B0
350
52
  3
B1
350
53
  3
B2
350
54
  3
B3
350
55
  3
B4
350
56
  3
B5
350
57
  3
B6
350
58
  3
B7
350
59
  3
B8
350
5A
  3
B9
350
5B
  3
C0
350
5C
  3
C1
350
5D
  3
C2
350
5E
  3
C3
350
5F
  3
C4
350
60
  3
C5
350
61
  3
C6
350
62
  3
C7
350
63
  3
C8
350
64
  3
C9
350
65
  3
D0
350
66
  3
D1
350
67
  3
D2
350
68
  0
DICTIONARY
  5
174
102
{ACAD_REACTORS
330
C
102
}
330
C
100
AcDbDictionary
281
     1
  0
XRECORD
  5
18A
102
{ACAD_REACTORS
330
C
102
}
330
C
100
AcDbXrecord
280
     1
  1
DWGPROPS COOKIE
  2

  3

  4

  6

  7

  8
12016016
  9

300
=
301
=
302
=
303
=
304
=
305
=
306
=
307
=
308
=
309
=
 40
0.0
 41
2458236.366997025
 42
2458241.288795023
  1

 90
        0
  0
LAYOUT
  5
1E
102
{ACAD_REACTORS
330
1A
102
}
330
1A
100
AcDbPlotSettings
  1

  2
none_device
  4

  6

 40
0.0
 41
0.0
 42
0.0
 43
0.0
 44
0.0
 45
0.0
 46
0.0
 47
0.0
 48
0.0
 49
0.0
140
0.0
141
0.0
142
1.0
143
1.0
 70
   688
 72
     1
 73
     0
 74
     5
  7

 75
    16
147
1.0
148
0.0
149
0.0
100
AcDbLayout
  1
Layout1
 70
     1
 71
     1
 10
0.0
 20
0.0
 11
420.0
 21
297.0
 12
0.0
 22
0.0
 32
0.0
 14
1.000000000000000E+20
 24
1.000000000000000E+20
 34
1.000000000000000E+20
 15
-1.000000000000000E+20
 25
-1.000000000000000E+20
 35
-1.000000000000000E+20
146
0.0
 13
0.0
 23
0.0
 33
0.0
 16
1.0
 26
0.0
 36
0.0
 17
0.0
 27
1.0
 37
0.0
 76
     0
330
1B
  0
LAYOUT
  5
26
102
{ACAD_REACTORS
330
1A
102
}
330
1A
100
AcDbPlotSettings
  1

  2
none_device
  4

  6

 40
0.0
 41
0.0
 42
0.0
 43
0.0
 44
0.0
 45
0.0
 46
0.0
 47
0.0
 48
0.0
 49
0.0
140
0.0
141
0.0
142
1.0
143
1.0
 70
   688
 72
     1
 73
     0
 74
     5
  7

 75
    16
147
1.0
148
0.0
149
0.0
100
AcDbLayout
  1
Layout2
 70
     1
 71
     2
 10
0.0
 20
0.0
 11
0.0
 21
0.0
 12
0.0
 22
0.0
 32
0.0
 14
0.0
 24
0.0
 34
0.0
 15
0.0
 25
0.0
 35
0.0
146
0.0
 13
0.0
 23
0.0
 33
0.0
 16
1.0
 26
0.0
 36
0.0
 17
0.0
 27
1.0
 37
0.0
 76
     0
330
23
  0
LAYOUT
  5
22
102
{ACAD_REACTORS
330
1A
102
}
330
1A
100
AcDbPlotSettings
  1

  2
none_device
  4
ANSI_A_(11.00_x_8.50_Inches)
  6

 40
6.35
 41
19.05
 42
6.35000508
 43
19.05000254
 44
279.4
 45
215.9
 46
130.0565626932801
 47
91.79381710424715
 48
0.0
 49
0.0
140
0.0
141
0.0
142
0.0822892103079729
143
1.0
 70
  1696
 72
     0
 73
     0
 74
     0
  7

 75
     0
147
0.0235690232323232
148
0.0
149
0.0
100
AcDbLayout
  1
Model
 70
     1
 71
     0
 10
0.0
 20
0.0
 11
420.0
 21
297.0
 12
0.0
 22
0.0
 32
0.0
 14
-58.17548592007454
 24
-49.97370379473832
 34
0.0
 15
58.88897489198095
 25
41.5307769869011
 35
0.0
146
0.0
 13
0.0
 23
0.0
 33
0.0
 16
1.0
 26
0.0
 36
0.0
 17
0.0
 27
1.0
 37
0.0
 76
     0
330
1F
331
29
  0
MLINESTYLE
  5
18
102
{ACAD_REACTORS
330
17
102
}
330
17
100
AcDbMlineStyle
  2
Standard
 70
     0
  3

 62
   256
 51
90.0
 52
90.0
 71
     2
 49
0.5
 62
   256
  6
BYLAYER
 49
-0.5
 62
   256
  6
BYLAYER
  0
ACDBPLACEHOLDER
  5
F
102
{ACAD_REACTORS
330
E
102
}
330
E
  0
SCALE
  5
48
102
{ACAD_REACTORS
330
47
102
}
330
47
100
AcDbScale
 70
     0
300
1:1
140
1.0
141
1.0
290
     1
  0
SCALE
  5
49
102
{ACAD_REACTORS
330
47
102
}
330
47
100
AcDbScale
 70
     0
300
1:2
140
1.0
141
2.0
290
     0
  0
SCALE
  5
4A
102
{ACAD_REACTORS
330
47
102
}
330
47
100
AcDbScale
 70
     0
300
1:4
140
1.0
141
4.0
290
     0
  0
SCALE
  5
4B
102
{ACAD_REACTORS
330
47
102
}
330
47
100
AcDbScale
 70
     0
300
1:5
140
1.0
141
5.0
290
     0
  0
SCALE
  5
4C
102
{ACAD_REACTORS
330
47
102
}
330
47
100
AcDbScale
 70
     0
300
1:8
140
1.0
141
8.0
290
     0
  0
SCALE
  5
4D
102
{ACAD_REACTORS
330
47
102
}
330
47
100
AcDbScale
 70
     0
300
1:10
140
1.0
141
10.0
290
     0
  0
SCALE
  5
4E
102
{ACAD_REACTORS
330
47
102
}
330
47
100
AcDbScale
 70
     0
300
1:16
140
1.0
141
16.0
290
     0
  0
SCALE
  5
4F
102
{ACAD_REACTORS
330
47
102
}
330
47
100
AcDbScale
 70
     0
300
1:20
140
1.0
141
20.0
290
     0
  0
SCALE
  5
50
102
{ACAD_REACTORS
330
47
102
}
330
47
100
AcDbScale
 70
     0
300
1:30
140
1.0
141
30.0
290
     0
  0
SCALE
  5
51
102
{ACAD_REACTORS
330
47
102
}
330
47
100
AcDbScale
 70
     0
300
1:40
140
1.0
141
40.0
290
     0
  0
SCALE
  5
52
102
{ACAD_REACTORS
330
47
102
}
330
47
100
AcDbScale
 70
     0
300
1:50
140
1.0
141
50.0
290
     0
  0
SCALE
  5
53
102
{ACAD_REACTORS
330
47
102
}
330
47
100
AcDbScale
 70
     0
300
1:100
140
1.0
141
100.0
290
     0
  0
SCALE
  5
54
102
{ACAD_REACTORS
330
47
102
}
330
47
100
AcDbScale
 70
     0
300
2:1
140
2.0
141
1.0
290
     0
  0
SCALE
  5
55
102
{ACAD_REACTORS
330
47
102
}
330
47
100
AcDbScale
 70
     0
300
4:1
140
4.0
141
1.0
290
     0
  0
SCALE
  5
56
102
{ACAD_REACTORS
330
47
102
}
330
47
100
AcDbScale
 70
     0
300
8:1
140
8.0
141
1.0
290
     0
  0
SCALE
  5
57
102
{ACAD_REACTORS
330
47
102
}
330
47
100
AcDbScale
 70
     0
300
10:1
140
10.0
141
1.0
290
     0
  0
SCALE
  5
58
102
{ACAD_REACTORS
330
47
102
}
330
47
100
AcDbScale
 70
     0
300
100:1
140
100.0
141
1.0
290
     0
  0
SCALE
  5
59
102
{ACAD_REACTORS
330
47
102
}
330
47
100
AcDbScale
 70
     0
300
1/128" = 1'-0"
140
0.0078125
141
12.0
290
     0
  0
SCALE
  5
5A
102
{ACAD_REACTORS
330
47
102
}
330
47
100
AcDbScale
 70
     0
300
1/64" = 1'-0"
140
0.015625
141
12.0
290
     0
  0
SCALE
  5
5B
102
{ACAD_REACTORS
330
47
102
}
330
47
100
AcDbScale
 70
     0
300
1/32" = 1'-0"
140
0.03125
141
12.0
290
     0
  0
SCALE
  5
5C
102
{ACAD_REACTORS
330
47
102
}
330
47
100
AcDbScale
 70
     0
300
1/16" = 1'-0"
140
0.0625
141
12.0
290
     0
  0
SCALE
  5
5D
102
{ACAD_REACTORS
330
47
102
}
330
47
100
AcDbScale
 70
     0
300
3/32" = 1'-0"
140
0.09375
141
12.0
290
     0
  0
SCALE
  5
5E
102
{ACAD_REACTORS
330
47
102
}
330
47
100
AcDbScale
 70
     0
300
1/8" = 1'-0"
140
0.125
141
12.0
290
     0
  0
SCALE
  5
5F
102
{ACAD_REACTORS
330
47
102
}
330
47
100
AcDbScale
 70
     0
300
3/16" = 1'-0"
140
0.1875
141
12.0
290
     0
  0
SCALE
  5
60
102
{ACAD_REACTORS
330
47
102
}
330
47
100
AcDbScale
 70
     0
300
1/4" = 1'-0"
140
0.25
141
12.0
290
     0
  0
SCALE
  5
61
102
{ACAD_REACTORS
330
47
102
}
330
47
100
AcDbScale
 70
     0
300
3/8" = 1'-0"
140
0.375
141
12.0
290
     0
  0
SCALE
  5
62
102
{ACAD_REACTORS
330
47
102
}
330
47
100
AcDbScale
 70
     0
300
1/2" = 1'-0"
140
0.5
141
12.0
290
     0
  0
SCALE
  5
63
102
{ACAD_REACTORS
330
47
102
}
330
47
100
AcDbScale
 70
     0
300
3/4" = 1'-0"
140
0.75
141
12.0
290
     0
  0
SCALE
  5
64
102
{ACAD_REACTORS
330
47
102
}
330
47
100
AcDbScale
 70
     0
300
1" = 1'-0"
140
1.0
141
12.0
290
     0
  0
SCALE
  5
65
102
{ACAD_REACTORS
330
47
102
}
330
47
100
AcDbScale
 70
     0
300
1-1/2" = 1'-0"
140
1.5
141
12.0
290
     0
  0
SCALE
  5
66
102
{ACAD_REACTORS
330
47
102
}
330
47
100
AcDbScale
 70
     0
300
3" = 1'-0"
140
3.0
141
12.0
290
     0
  0
SCALE
  5
67
102
{ACAD_REACTORS
330
47
102
}
330
47
100
AcDbScale
 70
     0
300
6" = 1'-0"
140
6.0
141
12.0
290
     0
  0
SCALE
  5
68
102
{ACAD_REACTORS
330
47
102
}
330
47
100
AcDbScale
 70
     0
300
1'-0" = 1'-0"
140
12.0
141
12.0
290
     0
  0
ENDSEC
  0
EOF
