  0
SECTION
  2
HEADER
  9
$ACADVER
  1
AC1015
  9
$ACADMAINTVER
 70
     6
  9
$DWGCODEPAGE
  3
ANSI_949
  9
$INSBASE
 10
0.0
 20
0.0
 30
0.0
  9
$EXTMIN
 10
-58.17500000000008
 20
-49.71142936356762
 30
0.0
  9
$EXTMAX
 10
57.73275916080972
 20
41.79305141807178
 30
0.0
  9
$LIMMIN
 10
0.0
 20
0.0
  9
$LIMMAX
 10
420.0
 20
297.0
  9
$ORTHOMODE
 70
     0
  9
$REGENMODE
 70
     1
  9
$FILLMODE
 70
     1
  9
$QTEXTMODE
 70
     0
  9
$MIRRTEXT
 70
     1
  9
$LTSCALE
 40
1.0
  9
$ATTMODE
 70
     1
  9
$TEXTSIZE
 40
3.5
  9
$TRACEWID
 40
1.0
  9
$TEXTSTYLE
  7
Standard
  9
$CLAYER
  8
0
  9
$CELTYPE
  6
ByLayer
  9
$CECOLOR
 62
   256
  9
$CELTSCALE
 40
1.0
  9
$DISPSILH
 70
     0
  9
$DIMSCALE
 40
1.0
  9
$DIMASZ
 40
3.302
  9
$DIMEXO
 40
1.0
  9
$DIMDLI
 40
3.75
  9
$DIMRND
 40
0.0
  9
$DIMDLE
 40
0.0
  9
$DIMEXE
 40
1.0
  9
$DIMTP
 40
0.0
  9
$DIMTM
 40
0.0
  9
$DIMTXT
 40
3.5
  9
$DIMCEN
 40
2.5
  9
$DIMTSZ
 40
0.0
  9
$DIMTOL
 70
     0
  9
$DIMLIM
 70
     0
  9
$DIMTIH
 70
     1
  9
$DIMTOH
 70
     1
  9
$DIMSE1
 70
     0
  9
$DIMSE2
 70
     0
  9
$DIMTAD
 70
     1
  9
$DIMZIN
 70
     0
  9
$DIMBLK
  1

  9
$DIMASO
 70
     1
  9
$DIMSHO
 70
     1
  9
$DIMPOST
  1

  9
$DIMAPOST
  1

  9
$DIMALT
 70
     0
  9
$DIMALTD
 70
     3
  9
$DIMALTF
 40
0.0393700787401575
  9
$DIMLFAC
 40
1.0
  9
$DIMTOFL
 70
     1
  9
$DIMTVP
 40
0.0
  9
$DIMTIX
 70
     0
  9
$DIMSOXD
 70
     0
  9
$DIMSAH
 70
     0
  9
$DIMBLK1
  1

  9
$DIMBLK2
  1

  9
$DIMSTYLE
  2
ISO-25
  9
$DIMCLRD
 70
     0
  9
$DIMCLRE
 70
     0
  9
$DIMCLRT
 70
     0
  9
$DIMTFAC
 40
1.0
  9
$DIMGAP
 40
1.524
  9
$DIMJUST
 70
     0
  9
$DIMSD1
 70
     0
  9
$DIMSD2
 70
     0
  9
$DIMTOLJ
 70
     0
  9
$DIMTZIN
 70
     0
  9
$DIMALTZ
 70
     0
  9
$DIMALTTZ
 70
     0
  9
$DIMUPT
 70
     0
  9
$DIMDEC
 70
     2
  9
$DIMTDEC
 70
     2
  9
$DIMALTU
 70
     2
  9
$DIMALTTD
 70
     3
  9
$DIMTXSTY
  7
Standard
  9
$DIMAUNIT
 70
     0
  9
$DIMADEC
 70
     2
  9
$DIMALTRND
 40
0.0
  9
$DIMAZIN
 70
     0
  9
$DIMDSEP
 70
    44
  9
$DIMATFIT
 70
     3
  9
$DIMFRAC
 70
     0
  9
$DIMLDRBLK
  1

  9
$DIMLUNIT
 70
     2
  9
$DIMLWD
 70
    -2
  9
$DIMLWE
 70
    -2
  9
$DIMTMOVE
 70
     0
  9
$LUNITS
 70
     2
  9
$LUPREC
 70
     2
  9
$SKETCHINC
 40
1.0
  9
$FILLETRAD
 40
10.0
  9
$AUNITS
 70
     0
  9
$AUPREC
 70
     2
  9
$MENU
  1
.
  9
$ELEVATION
 40
0.0
  9
$PELEVATION
 40
0.0
  9
$THICKNESS
 40
0.0
  9
$LIMCHECK
 70
     0
  9
$CHAMFERA
 40
0.0
  9
$CHAMFERB
 40
0.0
  9
$CHAMFERC
 40
0.0
  9
$CHAMFERD
 40
0.0
  9
$SKPOLY
 70
     0
  9
$TDCREATE
 40
2458236.741823148
  9
$TDUCREATE
 40
2458236.366823148
  9
$TDUPDATE
 40
2458241.665840845
  9
$TDUUPDATE
 40
2458241.290840845
  9
$TDINDWG
 40
0.0002296759
  9
$TDUSRTIMER
 40
2458241.288806343
  9
$USRTIMER
 70
     1
  9
$ANGBASE
 50
0.0
  9
$ANGDIR
 70
     0
  9
$PDMODE
 70
     0
  9
$PDSIZE
 40
-1.0
  9
$PLINEWID
 40
0.0
  9
$SPLFRAME
 70
     0
  9
$SPLINETYPE
 70
     6
  9
$SPLINESEGS
 70
     8
  9
$HANDSEED
  5
175
  9
$SURFTAB1
 70
     6
  9
$SURFTAB2
 70
     6
  9
$SURFTYPE
 70
     6
  9
$SURFU
 70
     6
  9
$SURFV
 70
     6
  9
$UCSBASE
  2

  9
$UCSNAME
  2

  9
$UCSORG
 10
0.0
 20
0.0
 30
0.0
  9
$UCSXDIR
 10
1.0
 20
0.0
 30
0.0
  9
$UCSYDIR
 10
0.0
 20
1.0
 30
0.0
  9
$UCSORTHOREF
  2

  9
$UCSORTHOVIEW
 70
     0
  9
$UCSORGTOP
 10
0.0
 20
0.0
 30
0.0
  9
$UCSORGBOTTOM
 10
0.0
 20
0.0
 30
0.0
  9
$UCSORGLEFT
 10
0.0
 20
0.0
 30
0.0
  9
$UCSORGRIGHT
 10
0.0
 20
0.0
 30
0.0
  9
$UCSORGFRONT
 10
0.0
 20
0.0
 30
0.0
  9
$UCSORGBACK
 10
0.0
 20
0.0
 30
0.0
  9
$PUCSBASE
  2

  9
$PUCSNAME
  2

  9
$PUCSORG
 10
0.0
 20
0.0
 30
0.0
  9
$PUCSXDIR
 10
1.0
 20
0.0
 30
0.0
  9
$PUCSYDIR
 10
0.0
 20
1.0
 30
0.0
  9
$PUCSORTHOREF
  2

  9
$PUCSORTHOVIEW
 70
     0
  9
$PUCSORGTOP
 10
0.0
 20
0.0
 30
0.0
  9
$PUCSORGBOTTOM
 10
0.0
 20
0.0
 30
0.0
  9
$PUCSORGLEFT
 10
0.0
 20
0.0
 30
0.0
  9
$PUCSORGRIGHT
 10
0.0
 20
0.0
 30
0.0
  9
$PUCSORGFRONT
 10
0.0
 20
0.0
 30
0.0
  9
$PUCSORGBACK
 10
0.0
 20
0.0
 30
0.0
  9
$USERI1
 70
     0
  9
$USERI2
 70
     0
  9
$USERI3
 70
     0
  9
$USERI4
 70
     0
  9
$USERI5
 70
     0
  9
$USERR1
 40
0.0
  9
$USERR2
 40
0.0
  9
$USERR3
 40
0.0
  9
$USERR4
 40
0.0
  9
$USERR5
 40
0.0
  9
$WORLDVIEW
 70
     1
  9
$SHADEDGE
 70
     3
  9
$SHADEDIF
 70
    70
  9
$TILEMODE
 70
     1
  9
$MAXACTVP
 70
    64
  9
$PINSBASE
 10
0.0
 20
0.0
 30
0.0
  9
$PLIMCHECK
 70
     0
  9
$PEXTMIN
 10
1.000000000000000E+20
 20
1.000000000000000E+20
 30
1.000000000000000E+20
  9
$PEXTMAX
 10
-1.000000000000000E+20
 20
-1.000000000000000E+20
 30
-1.000000000000000E+20
  9
$PLIMMIN
 10
0.0
 20
0.0
  9
$PLIMMAX
 10
0.0
 20
0.0
  9
$UNITMODE
 70
     0
  9
$VISRETAIN
 70
     1
  9
$PLINEGEN
 70
     0
  9
$PSLTSCALE
 70
     1
  9
$TREEDEPTH
 70
  3020
  9
$CMLSTYLE
  2
Standard
  9
$CMLJUST
 70
     0
  9
$CMLSCALE
 40
20.0
  9
$PROXYGRAPHICS
 70
     1
  9
$MEASUREMENT
 70
     1
  9
$CELWEIGHT
370
    -1
  9
$ENDCAPS
280
     0
  9
$JOINSTYLE
280
     0
  9
$LWDISPLAY
290
     1
  9
$INSUNITS
 70
     4
  9
$HYPERLINKBASE
  1

  9
$STYLESHEET
  1

  9
$XEDIT
290
     1
  9
$CEPSNTYPE
380
     0
  9
$PSTYLEMODE
290
     1
  9
$FINGERPRINTGUID
  2
{54B2EE88-B2FB-48FD-92C9-D410B9529CAF}
  9
$VERSIONGUID
  2
{FAEB1C32-E019-11D5-929B-00C0DF256EC4}
  9
$EXTNAMES
290
     1
  9
$PSVPSCALE
 40
0.0
  9
$OLESTARTUP
290
     0
  0
ENDSEC
  0
SECTION
  2
CLASSES
  0
CLASS
  1
ACDBDICTIONARYWDFLT
  2
AcDbDictionaryWithDefault
  3
ObjectDBX Classes
 90
        0
280
     0
281
     0
  0
CLASS
  1
VISUALSTYLE
  2
AcDbVisualStyle
  3
ObjectDBX Classes
 90
     4095
280
     0
281
     0
  0
CLASS
  1
MATERIAL
  2
AcDbMaterial
  3
ObjectDBX Classes
 90
     1153
280
     0
281
     0
  0
CLASS
  1
SCALE
  2
AcDbScale
  3
ObjectDBX Classes
 90
     1153
280
     0
281
     0
  0
CLASS
  1
SUN
  2
AcDbSun
  3
SCENEOE
 90
     1153
280
     0
281
     0
  0
CLASS
  1
ACDBPLACEHOLDER
  2
AcDbPlaceHolder
  3
ObjectDBX Classes
 90
        0
280
     0
281
     0
  0
CLASS
  1
LAYOUT
  2
AcDbLayout
  3
ObjectDBX Classes
 90
        0
280
     0
281
     0
  0
CLASS
  1
TABLESTYLE
  2
AcDbTableStyle
  3
ObjectDBX Classes
 90
     4095
280
     0
281
     0
  0
CLASS
  1
MLEADERSTYLE
  2
AcDbMLeaderStyle
  3
ACDB_MLEADERSTYLE_CLASS
 90
     4095
280
     0
281
     0
  0
CLASS
  1
RASTERVARIABLES
  2
AcDbRasterVariables
  3
ISM
 90
        0
280
     0
281
     0
  0
CLASS
  1
DIMASSOC
  2
AcDbDimAssoc
  3
"AcDbDimAssoc|Product Desc:     AcDim ARX App For Dimension|Company:          Autodesk, Inc.|WEB Address:      www.autodesk.com"
 90
        0
280
     0
281
     0
  0
ENDSEC
  0
SECTION
  2
TABLES
  0
TABLE
  2
VPORT
  5
8
330
0
100
AcDbSymbolTable
 70
     1
  0
VPORT
  5
29
330
8
100
AcDbSymbolTableRecord
100
AcDbViewportTableRecord
  2
*Active
 70
     0
 10
0.0
 20
0.0
 11
1.0
 21
1.0
 12
37.28061740280018
 22
20.19783195334663
 13
0.0
 23
0.0
 14
10.0
 24
10.0
 15
10.0
 25
10.0
 16
0.0
 26
0.0
 36
1.0
 17
0.0
 27
0.0
 37
0.0
 40
41.83247959496842
 41
1.321695760598504
 42
50.0
 43
0.0
 44
0.0
 50
0.0
 51
0.0
 71
    16
 72
  2000
 73
     1
 74
     3
 75
     0
 76
     0
 77
     0
 78
     0
281
     0
 65
     1
110
0.0
120
0.0
130
0.0
111
1.0
121
0.0
131
0.0
112
0.0
122
1.0
132
0.0
 79
     0
146
0.0
  0
ENDTAB
  0
TABLE
  2
LTYPE
  5
5
330
0
100
AcDbSymbolTable
 70
     6
  0
LTYPE
  5
14
330
5
100
AcDbSymbolTableRecord
100
AcDbLinetypeTableRecord
  2
ByBlock
 70
     0
  3

 72
    65
 73
     0
 40
0.0
  0
LTYPE
  5
15
330
5
100
AcDbSymbolTableRecord
100
AcDbLinetypeTableRecord
  2
ByLayer
 70
     0
  3

 72
    65
 73
     0
 40
0.0
  0
LTYPE
  5
16
330
5
100
AcDbSymbolTableRecord
100
AcDbLinetypeTableRecord
  2
Continuous
 70
     0
  3
Solid line
 72
    65
 73
     0
 40
0.0
  0
LTYPE
  5
6A
330
5
100
AcDbSymbolTableRecord
100
AcDbLinetypeTableRecord
  2
HIDDEN
 70
     0
  3
Hidden __ __ __ __ __ __ __ __ __ __ __ __ __ __
 72
    65
 73
     2
 40
1.905
 49
1.27
 74
     0
 49
-0.635
 74
     0
  0
LTYPE
  5
6B
330
5
100
AcDbSymbolTableRecord
100
AcDbLinetypeTableRecord
  2
PHANTOM
 70
     0
  3
Phantom ______  __  __  ______  __  __  ______
 72
    65
 73
     6
 40
12.7
 49
6.35
 74
     0
 49
-1.27
 74
     0
 49
1.27
 74
     0
 49
-1.27
 74
     0
 49
1.27
 74
     0
 49
-1.27
 74
     0
  0
LTYPE
  5
6C
330
5
100
AcDbSymbolTableRecord
100
AcDbLinetypeTableRecord
  2
CENTER
 70
     0
  3
Center ____ _ ____ _ ____ _ ____ _ ____ _ ____
 72
    65
 73
     4
 40
10.16
 49
6.35
 74
     0
 49
-1.27
 74
     0
 49
1.27
 74
     0
 49
-1.27
 74
     0
  0
LTYPE
  5
6D
330
5
100
AcDbSymbolTableRecord
100
AcDbLinetypeTableRecord
  2
CENTERX2
 70
     0
  3
Center (2x) ________  __  ________  __  _____
 72
    65
 73
     4
 40
20.32
 49
12.7
 74
     0
 49
-2.54
 74
     0
 49
2.54
 74
     0
 49
-2.54
 74
     0
  0
LTYPE
  5
6E
330
5
100
AcDbSymbolTableRecord
100
AcDbLinetypeTableRecord
  2
DOT2
 70
     0
  3
Dot (.5x) ........................................
 72
    65
 73
     2
 40
0.635
 49
0.0
 74
     0
 49
-0.635
 74
     0
  0
ENDTAB
  0
TABLE
  2
LAYER
  5
2
330
0
100
AcDbSymbolTable
 70
    17
  0
LAYER
  5
10
330
2
100
AcDbSymbolTableRecord
100
AcDbLayerTableRecord
  2
0
 70
     0
 62
     7
  6
Continuous
370
    -3
390
F
  0
LAYER
  5
6F
330
2
100
AcDbSymbolTableRecord
100
AcDbLayerTableRecord
  2
FORMAT
 70
     0
 62
     2
  6
Continuous
370
    -3
390
F
  0
LAYER
  5
70
330
2
100
AcDbSymbolTableRecord
100
AcDbLayerTableRecord
  2
외형선
 70
     0
 62
   100
  6
Continuous
370
    30
390
F
  0
LAYER
  5
71
330
2
100
AcDbSymbolTableRecord
100
AcDbLayerTableRecord
  2
숨은선
 70
     0
 62
     2
  6
HIDDEN
370
    15
390
F
  0
LAYER
  5
72
330
2
100
AcDbSymbolTableRecord
100
AcDbLayerTableRecord
  2
중심선
 70
     0
 62
     1
  6
CENTERX2
370
    -3
390
F
  0
LAYER
  5
73
330
2
100
AcDbSymbolTableRecord
100
AcDbLayerTableRecord
  2
파단선
 70
     0
 62
     4
  6
Continuous
370
    -3
390
F
  0
LAYER
  5
74
330
2
100
AcDbSymbolTableRecord
100
AcDbLayerTableRecord
  2
해칭선
 70
     0
 62
     4
  6
Continuous
370
    -3
390
F
  0
LAYER
  5
75
330
2
100
AcDbSymbolTableRecord
100
AcDbLayerTableRecord
  2
가는실선
 70
     0
 62
     4
  6
Continuous
370
    -3
390
F
  0
LAYER
  5
76
330
2
100
AcDbSymbolTableRecord
100
AcDbLayerTableRecord
  2
치수_보조선
 70
     0
 62
     4
  6
Continuous
370
    -3
390
F
  0
LAYER
  5
77
330
2
100
AcDbSymbolTableRecord
100
AcDbLayerTableRecord
  2
치수문자_일반주서
 70
     0
 62
     7
  6
Continuous
370
    15
390
F
  0
LAYER
  5
78
330
2
100
AcDbSymbolTableRecord
100
AcDbLayerTableRecord
  2
개별주서
 70
     0
 62
   100
  6
Continuous
370
    30
390
F
  0
LAYER
  5
79
330
2
100
AcDbSymbolTableRecord
100
AcDbLayerTableRecord
  2
중간선
 70
     0
 62
     2
  6
Continuous
370
    15
390
F
  0
LAYER
  5
7A
330
2
100
AcDbSymbolTableRecord
100
AcDbLayerTableRecord
  2
윤곽선
 70
     0
 62
     3
  6
Continuous
370
    40
390
F
  0
LAYER
  5
7B
330
2
100
AcDbSymbolTableRecord
100
AcDbLayerTableRecord
  2
중심마크
 70
     0
 62
   100
  6
Continuous
370
    30
390
F
  0
LAYER
  5
7C
330
2
100
AcDbSymbolTableRecord
100
AcDbLayerTableRecord
  2
가상선
 70
     0
 62
     4
  6
PHANTOM
370
    -3
390
F
  0
LAYER
  5
7D
330
2
100
AcDbSymbolTableRecord
100
AcDbLayerTableRecord
  2
특수지정선
 70
     0
 62
     5
  6
CENTERX2
370
    60
390
F
  0
LAYER
  5
163
330
2
100
AcDbSymbolTableRecord
100
AcDbLayerTableRecord
  2
Defpoints
 70
     0
 62
     7
  6
Continuous
290
     0
370
    -3
390
F
  0
ENDTAB
  0
TABLE
  2
STYLE
  5
3
330
0
100
AcDbSymbolTable
 70
     2
  0
STYLE
  5
11
330
3
100
AcDbSymbolTableRecord
100
AcDbTextStyleTableRecord
  2
Standard
 70
     0
 40
0.0
 41
1.0
 50
0.0
 71
     0
 42
3.5
  3
txt
  4

  0
STYLE
  5
93
330
3
100
AcDbSymbolTableRecord
100
AcDbTextStyleTableRecord
  2
SLDTEXTSTYLE0
 70
     0
 40
0.0
 41
0.75
 50
0.0
 71
     0
 42
3.5
  3
TXT
  4

  0
ENDTAB
  0
TABLE
  2
VIEW
  5
6
330
0
100
AcDbSymbolTable
 70
     0
  0
ENDTAB
  0
TABLE
  2
UCS
  5
7
330
0
100
AcDbSymbolTable
 70
     0
  0
ENDTAB
  0
TABLE
  2
APPID
  5
9
330
0
100
AcDbSymbolTable
 70
     2
  0
APPID
  5
12
330
9
100
AcDbSymbolTableRecord
100
AcDbRegAppTableRecord
  2
ACAD
 70
     0
  0
APPID
  5
166
330
9
100
AcDbSymbolTableRecord
100
AcDbRegAppTableRecord
  2
ACAD_DSTYLE_DIMRADIAL_EXTENSION
 70
     0
  0
ENDTAB
  0
TABLE
  2
DIMSTYLE
  5
A
330
0
100
AcDbSymbolTable
 70
     4
100
AcDbDimStyleTable
  0
DIMSTYLE
105
27
330
A
100
AcDbSymbolTableRecord
100
AcDbDimStyleTableRecord
  2
ISO-25
 70
     0
 41
2.5
 42
0.625
 43
3.75
 44
1.25
 73
     0
 74
     0
 77
     1
 78
     8
140
2.5
141
2.5
143
0.03937007874016
147
0.625
171
     3
172
     1
178
     0
271
     2
272
     2
274
     3
278
    44
283
     0
284
     8
340
11
  0
DIMSTYLE
105
E6
102
{ACAD_REACTORS
330
E5
330
124
102
}
330
A
100
AcDbSymbolTableRecord
100
AcDbDimStyleTableRecord
  2
SLDDIMSTYLE0
 70
     0
 41
3.302
 44
0.0
 45
0.000000001
 73
     0
 74
     0
 77
     1
 78
    12
 79
     3
140
3.5
143
0.0393700787401575
147
0.875
148
0.000000001
170
     1
172
     1
173
     1
178
     0
271
     2
272
     2
276
     2
284
    12
289
     0
340
93
  0
DIMSTYLE
105
FB
102
{ACAD_REACTORS
330
FA
102
}
330
A
100
AcDbSymbolTableRecord
100
AcDbDimStyleTableRecord
  2
SLDDIMSTYLE1
 70
     0
 41
3.302
 44
0.0
 45
0.000000001
 73
     0
 74
     0
 77
     1
 78
     4
 79
     1
140
3.5
143
0.0393700787401575
147
0.875
148
0.000000001
170
     1
173
     1
178
     0
271
     2
272
     2
276
     2
284
    12
340
93
  0
DIMSTYLE
105
10F
102
{ACAD_REACTORS
330
10E
330
167
102
}
330
A
100
AcDbSymbolTableRecord
100
AcDbDimStyleTableRecord
  2
SLDDIMSTYLE2
 70
     0
 41
3.302
 44
0.0
 45
0.000000001
 73
     0
 74
     0
 77
     1
 78
     4
 79
     1
140
3.5
143
0.0393700787401575
147
0.875
148
0.000000001
170
     1
172
     1
173
     1
178
     0
271
     2
272
     2
276
     2
284
    12
289
     0
340
93
  0
ENDTAB
  0
TABLE
  2
BLOCK_RECORD
  5
1
330
0
100
AcDbSymbolTable
 70
     8
  0
BLOCK_RECORD
  5
1F
330
1
100
AcDbSymbolTableRecord
100
AcDbBlockTableRecord
  2
*Model_Space
340
22
  0
BLOCK_RECORD
  5
1B
330
1
100
AcDbSymbolTableRecord
100
AcDbBlockTableRecord
  2
*Paper_Space
340
1E
  0
BLOCK_RECORD
  5
23
330
1
100
AcDbSymbolTableRecord
100
AcDbBlockTableRecord
  2
*Paper_Space0
340
26
  0
BLOCK_RECORD
  5
7E
330
1
100
AcDbSymbolTableRecord
100
AcDbBlockTableRecord
  2
블럭10
340
0
102
{BLKREFS
331
DD
102
}
  0
BLOCK_RECORD
  5
E7
330
1
100
AcDbSymbolTableRecord
100
AcDbBlockTableRecord
  2
_D
340
0
  0
BLOCK_RECORD
  5
FC
330
1
100
AcDbSymbolTableRecord
100
AcDbBlockTableRecord
  2
_D_1
340
0
  0
BLOCK_RECORD
  5
110
330
1
100
AcDbSymbolTableRecord
100
AcDbBlockTableRecord
  2
_D_2
340
0
  0
BLOCK_RECORD
  5
125
330
1
100
AcDbSymbolTableRecord
100
AcDbBlockTableRecord
  2
_D_3
340
0
  0
BLOCK_RECORD
  5
138
330
1
100
AcDbSymbolTableRecord
100
AcDbBlockTableRecord
  2
SW_DOWELSYMBOL_0
340
0
102
{BLKREFS
331
13E
102
}
  0
BLOCK_RECORD
  5
16A
330
1
100
AcDbSymbolTableRecord
100
AcDbBlockTableRecord
  2
*D7
340
0
  0
ENDTAB
  0
ENDSEC
  0
SECTION
  2
BLOCKS
  0
BLOCK
  5
20
330
1F
100
AcDbEntity
  8
0
100
AcDbBlockBegin
  2
*Model_Space
 70
     0
 10
0.0
 20
0.0
 30
0.0
  3
*Model_Space
  1
*Model_Space
  0
ENDBLK
  5
21
330
1F
100
AcDbEntity
  8
0
100
AcDbBlockEnd
  0
BLOCK
  5
1C
330
1B
100
AcDbEntity
 67
     1
  8
0
100
AcDbBlockBegin
  2
*Paper_Space
 70
     0
 10
0.0
 20
0.0
 30
0.0
  3
*Paper_Space
  1
*Paper_Space
  0
ENDBLK
  5
1D
330
1B
100
AcDbEntity
 67
     1
  8
0
100
AcDbBlockEnd
  0
BLOCK
  5
24
330
23
100
AcDbEntity
  8
0
100
AcDbBlockBegin
  2
*Paper_Space0
 70
     0
 10
0.0
 20
0.0
 30
0.0
  3
*Paper_Space0
  1
*Paper_Space0
  0
ENDBLK
  5
25
330
23
100
AcDbEntity
  8
0
100
AcDbBlockEnd
  0
BLOCK
  5
7F
330
7E
100
AcDbEntity
  8
0
100
AcDbBlockBegin
  2
블럭10
 70
     2
 10
0.0
 20
0.0
 30
0.0
  3
블럭10
  1
블럭10
  0
ELLIPSE
  5
81
330
7E
100
AcDbEntity
  8
중심선
100
AcDbEllipse
 10
20.54032771741204
 20
12.0471743016438
 30
0.0
 11
6.600054785286829
 21
-1.261213355974178E-13
 31
0.0
210
0.0
220
0.0
230
1.0
 40
0.636358354079598
 41
0.9219305317359503
 42
6.513795318482858
  0
ELLIPSE
  5
82
330
7E
100
AcDbEntity
  8
중심선
100
AcDbEllipse
 10
20.54032771746488
 20
12.04717430159265
 30
0.0
 11
3.960054785062283
 21
1.540847449632565E-10
 31
0.0
210
0.0
220
0.0
230
1.0
 40
0.3939339440162632
 41
1.131841032648279
 42
5.62031148352944
  0
LINE
  5
83
330
7E
100
AcDbEntity
  8
중심선
100
AcDbLine
 10
2.268634060543552
 20
16.24717430164393
 30
0.0
 11
5.714909304380834
 21
16.24717430164393
 31
0.0
  0
LINE
  5
84
330
7E
100
AcDbEntity
  8
중심선
100
AcDbLine
 10
5.245725140726316
 20
7.84717430164391
 30
0.0
 11
8.692000384563599
 21
7.84717430164391
 31
0.0
  0
LINE
  5
85
330
7E
100
AcDbEntity
  8
중심선
100
AcDbLine
 10
15.74043728645272
 20
16.24717430164393
 30
0.0
 11
8.692000384563599
 21
7.84717430164391
 31
0.0
  0
LINE
  5
86
330
7E
100
AcDbEntity
  8
중심선
100
AcDbLine
 10
0.1404042013395286
 20
13.71084872107135
 30
0.0
 11
3.58671253028996
 21
13.71088815037384
 31
0.0
  0
LINE
  5
87
330
7E
100
AcDbEntity
  8
중심선
100
AcDbLine
 10
2.750260043222114
 20
10.84717430164391
 30
0.0
 11
6.196535287059397
 21
10.84717430164391
 31
0.0
  0
LINE
  5
88
330
7E
100
AcDbEntity
  8
중심선
100
AcDbLine
 10
12.29416204261559
 20
16.24717430164393
 30
0.0
 11
5.245725140726316
 21
7.84717430164391
 31
0.0
  0
LINE
  5
89
330
7E
100
AcDbEntity
  8
중심선
100
AcDbLine
 10
10.72767329541681
 20
16.24717430164393
 30
0.0
 11
6.196535287059397
 21
10.84717430164391
 31
0.0
  0
LINE
  5
8A
330
7E
100
AcDbEntity
  8
중심선
100
AcDbLine
 10
7.28139805157953
 20
16.24717430164393
 30
0.0
 11
2.750260043222114
 21
10.84717430164391
 31
0.0
  0
LINE
  5
8B
330
7E
100
AcDbEntity
  8
중심선
100
AcDbLine
 10
5.714909304380834
 20
16.24717430164393
 30
0.0
 11
3.58671253028996
 21
13.71088815037384
 31
0.0
  0
LINE
  5
8C
330
7E
100
AcDbEntity
  8
중심선
100
AcDbLine
 10
2.268634060543552
 20
16.24717430164393
 30
0.0
 11
0.1404042013395286
 21
13.71084872107135
 31
0.0
  0
LINE
  5
8D
330
7E
100
AcDbEntity
  8
중심선
100
AcDbLine
 10
7.28139805157953
 20
16.24717430164393
 30
0.0
 11
10.72767329541681
 21
16.24717430164393
 31
0.0
  0
LINE
  5
8E
330
7E
100
AcDbEntity
  8
중심선
100
AcDbLine
 10
12.29416204261559
 20
16.24717430164393
 30
0.0
 11
15.74043728645272
 21
16.24717430164393
 31
0.0
  0
LINE
  5
8F
330
7E
100
AcDbEntity
  8
중심선
100
AcDbLine
 10
19.22036997980202
 20
11.08717430171403
 30
0.0
 11
23.66174974927406
 21
11.08717430171406
 31
0.0
  0
LINE
  5
90
330
7E
100
AcDbEntity
  8
중심선
100
AcDbLine
 10
19.22039502424796
 20
13.00717430171391
 30
0.0
 11
19.22036997980202
 21
11.08717430171403
 31
0.0
  0
LINE
  5
91
330
7E
100
AcDbEntity
  8
중심선
100
AcDbLine
 10
19.22039502424796
 20
13.00717430171391
 30
0.0
 11
26.96566020931264
 21
13.00717430171391
 31
0.0
  0
LINE
  5
92
330
7E
100
AcDbEntity
  8
중심선
100
AcDbLine
 10
22.22332737316547
 20
13.45928029700563
 30
0.0
 11
24.52862924686651
 21
15.39360700705356
 31
0.0
  0
ATTDEF
  5
94
330
7E
100
AcDbEntity
  8
FORMAT
 62
     2
100
AcDbText
 10
-11.05102035218446
 20
2.075366912832191
 30
0.0
 40
4.233333333333333
  1
GMG22909[ 6 FLUTE ]
 41
0.75
  7
SLDTEXTSTYLE0
 11
-11.05102035218446
 21
-0.0412997538344756
 31
0.0
100
AcDbAttributeDefinition
  3

  2
AUTOATTR0
 70
     0
 74
     1
  0
ENDBLK
  5
80
330
7E
100
AcDbEntity
  8
0
100
AcDbBlockEnd
  0
BLOCK
  5
E8
330
E7
100
AcDbEntity
  8
0
100
AcDbBlockBegin
  2
_D
 70
     0
 10
0.0
 20
0.0
 30
0.0
  3
_D
  1
_D
  0
LINE
  5
EA
330
E7
100
AcDbEntity
  8
치수문자_일반주서
 62
     0
370
    -2
100
AcDbLine
 10
33.9385
 20
-4.762499999999995
 30
0.0
 11
52.19006324028957
 21
-4.762499999999925
 31
0.0
  0
LINE
  5
EB
330
E7
100
AcDbEntity
  8
치수문자_일반주서
 62
     0
370
    -2
100
AcDbLine
 10
33.60731752451656
 20
4.762500000000003
 30
0.0
 11
52.19006324028953
 21
4.762500000000074
 31
0.0
  0
LINE
  5
EC
330
E7
100
AcDbEntity
  8
치수문자_일반주서
 62
     0
370
    -2
100
AcDbLine
 10
52.19006324028955
 20
-1.460499999999925
 30
0.0
 11
52.19006324028955
 21
1.460500000000074
 31
0.0
  0
SOLID
  5
ED
330
E7
100
AcDbEntity
  8
치수문자_일반주서
 62
     0
100
AcDbTrace
 10
51.63972990695622
 20
-1.460499999999927
 30
0.0
 11
52.74039657362289
 21
-1.460499999999923
 31
0.0
 12
52.19006324028957
 22
-4.762499999999925
 32
0.0
 13
52.19006324028957
 23
-4.762499999999925
 33
0.0
  0
SOLID
  5
EE
330
E7
100
AcDbEntity
  8
치수문자_일반주서
 62
     0
100
AcDbTrace
 10
52.74039657362288
 20
1.460500000000076
 30
0.0
 11
51.63972990695621
 21
1.460500000000072
 31
0.0
 12
52.19006324028953
 22
4.762500000000074
 32
0.0
 13
52.19006324028953
 23
4.762500000000074
 33
0.0
  0
MTEXT
  5
EF
330
E7
100
AcDbEntity
  8
치수문자_일반주서
 62
     0
100
AcDbMText
 10
47.81506324028955
 20
1.090946215346457
 30
0.0
 40
3.5
 41
0.0
 71
     2
 72
     1
  1
\A1;%%c9.53 [3/8]
  7
SLDTEXTSTYLE0
 11
-3.729883127349609E-15
 21
1.0
 31
0.0
 73
     1
 44
1.0
  0
POINT
  5
F0
330
E7
100
AcDbEntity
  8
Defpoints
 62
     0
100
AcDbPoint
 10
33.876
 20
-4.762499999999995
 30
0.0
  0
POINT
  5
F1
330
E7
100
AcDbEntity
  8
Defpoints
 62
     0
100
AcDbPoint
 10
33.54481752451656
 20
4.762500000000003
 30
0.0
  0
POINT
  5
F2
330
E7
100
AcDbEntity
  8
Defpoints
 62
     0
100
AcDbPoint
 10
52.19006324028953
 20
4.762500000000072
 30
0.0
  0
ENDBLK
  5
E9
330
E7
100
AcDbEntity
  8
0
100
AcDbBlockEnd
  0
BLOCK
  5
FD
330
FC
100
AcDbEntity
  8
0
100
AcDbBlockBegin
  2
_D_1
 70
     0
 10
0.0
 20
0.0
 30
0.0
  3
_D_1
  1
_D_1
  0
LINE
  5
FF
330
FC
100
AcDbEntity
  8
치수문자_일반주서
 62
     0
370
    -2
100
AcDbLine
 10
-40.80000000000001
 20
4.324999999999998
 30
0.0
 11
-40.80000000000001
 21
37.41805141807178
 31
0.0
  0
LINE
  5
100
330
FC
100
AcDbEntity
  8
치수문자_일반주서
 62
     0
370
    -2
100
AcDbLine
 10
35.39999999999999
 20
3.301000000000005
 30
0.0
 11
35.39999999999999
 21
37.41805141807178
 31
0.0
  0
LINE
  5
101
330
FC
100
AcDbEntity
  8
치수문자_일반주서
 62
     0
370
    -2
100
AcDbLine
 10
-37.49800000000001
 20
37.41805141807178
 30
0.0
 11
32.09799999999999
 21
37.41805141807178
 31
0.0
  0
SOLID
  5
102
330
FC
100
AcDbEntity
  8
치수문자_일반주서
 62
     0
100
AcDbTrace
 10
-37.49800000000001
 20
37.96838475140512
 30
0.0
 11
-37.49800000000001
 21
36.86771808473845
 31
0.0
 12
-40.80000000000001
 22
37.41805141807178
 32
0.0
 13
-40.80000000000001
 23
37.41805141807178
 33
0.0
  0
SOLID
  5
103
330
FC
100
AcDbEntity
  8
치수문자_일반주서
 62
     0
100
AcDbTrace
 10
32.09799999999999
 20
36.86771808473845
 30
0.0
 11
32.09799999999999
 21
37.96838475140512
 31
0.0
 12
35.39999999999999
 22
37.41805141807178
 32
0.0
 13
35.39999999999999
 23
37.41805141807178
 33
0.0
  0
MTEXT
  5
104
330
FC
100
AcDbEntity
  8
치수문자_일반주서
 62
     0
100
AcDbMText
 10
-2.700000000000003
 20
41.79305141807178
 30
0.0
 40
3.5
 41
0.0
 71
     2
 72
     1
  1
\A1;76.20 [3]
  7
SLDTEXTSTYLE0
 73
     1
 44
1.0
  0
POINT
  5
105
330
FC
100
AcDbEntity
  8
Defpoints
 62
     0
100
AcDbPoint
 10
-40.80000000000001
 20
4.262499999999998
 30
0.0
  0
POINT
  5
106
330
FC
100
AcDbEntity
  8
Defpoints
 62
     0
100
AcDbPoint
 10
35.39999999999999
 20
3.238500000000005
 30
0.0
  0
POINT
  5
107
330
FC
100
AcDbEntity
  8
Defpoints
 62
     0
100
AcDbPoint
 10
35.39999999999999
 20
37.41805141807178
 30
0.0
  0
ENDBLK
  5
FE
330
FC
100
AcDbEntity
  8
0
100
AcDbBlockEnd
  0
BLOCK
  5
111
330
110
100
AcDbEntity
  8
0
100
AcDbBlockBegin
  2
_D_2
 70
     0
 10
0.0
 20
0.0
 30
0.0
  3
_D_2
  1
_D_2
  0
LINE
  5
113
330
110
100
AcDbEntity
  8
치수문자_일반주서
 62
     0
370
    -2
100
AcDbLine
 10
35.39999999999999
 20
3.301000000000005
 30
0.0
 11
35.39999999999999
 21
20.86549453033794
 31
0.0
  0
LINE
  5
114
330
110
100
AcDbEntity
  8
치수문자_일반주서
 62
     0
370
    -2
100
AcDbLine
 10
9.999999999999998
 20
-4.699904020947896
 30
0.0
 11
9.999999999999998
 21
20.86549453033794
 31
0.0
  0
LINE
  5
115
330
110
100
AcDbEntity
  8
치수문자_일반주서
 62
     0
370
    -2
100
AcDbLine
 10
32.09799999999999
 20
20.86549453033794
 30
0.0
 11
13.302
 21
20.86549453033794
 31
0.0
  0
SOLID
  5
116
330
110
100
AcDbEntity
  8
치수문자_일반주서
 62
     0
100
AcDbTrace
 10
32.09799999999999
 20
20.31516119700461
 30
0.0
 11
32.09799999999999
 21
21.41582786367128
 31
0.0
 12
35.39999999999999
 22
20.86549453033794
 32
0.0
 13
35.39999999999999
 23
20.86549453033794
 33
0.0
  0
SOLID
  5
117
330
110
100
AcDbEntity
  8
치수문자_일반주서
 62
     0
100
AcDbTrace
 10
13.302
 20
21.41582786367128
 30
0.0
 11
13.302
 21
20.31516119700461
 31
0.0
 12
9.999999999999998
 22
20.86549453033794
 32
0.0
 13
9.999999999999998
 23
20.86549453033794
 33
0.0
  0
MTEXT
  5
118
330
110
100
AcDbEntity
  8
치수문자_일반주서
 62
     0
100
AcDbMText
 10
22.42060113190148
 20
25.24049453033794
 30
0.0
 40
3.5
 41
0.0
 71
     2
 72
     1
  1
\A1;25.40 [1]
  7
SLDTEXTSTYLE0
 73
     1
 44
1.0
  0
POINT
  5
119
330
110
100
AcDbEntity
  8
Defpoints
 62
     0
100
AcDbPoint
 10
35.39999999999999
 20
3.238500000000005
 30
0.0
  0
POINT
  5
11A
330
110
100
AcDbEntity
  8
Defpoints
 62
     0
100
AcDbPoint
 10
9.999999999999998
 20
-4.762404020947896
 30
0.0
  0
POINT
  5
11B
330
110
100
AcDbEntity
  8
Defpoints
 62
     0
100
AcDbPoint
 10
9.999999999999998
 20
20.86549453033794
 30
0.0
  0
ENDBLK
  5
112
330
110
100
AcDbEntity
  8
0
100
AcDbBlockEnd
  0
BLOCK
  5
126
330
125
100
AcDbEntity
  8
0
100
AcDbBlockBegin
  2
_D_3
 70
     0
 10
0.0
 20
0.0
 30
0.0
  3
_D_3
  1
_D_3
  0
LINE
  5
128
330
125
100
AcDbEntity
  8
치수문자_일반주서
 62
     0
370
    -2
100
AcDbLine
 10
-40.36250000000001
 20
4.762500000000002
 30
0.0
 11
-53.80000000000004
 21
4.762499999999953
 31
0.0
  0
LINE
  5
129
330
125
100
AcDbEntity
  8
치수문자_일반주서
 62
     0
370
    -2
100
AcDbLine
 10
-40.36250000000001
 20
-4.762499999999998
 30
0.0
 11
-53.8
 21
-4.762500000000047
 31
0.0
  0
LINE
  5
12A
330
125
100
AcDbEntity
  8
치수문자_일반주서
 62
     0
370
    -2
100
AcDbLine
 10
-53.80000000000003
 20
1.460499999999954
 30
0.0
 11
-53.80000000000002
 21
-1.460500000000048
 31
0.0
  0
SOLID
  5
12B
330
125
100
AcDbEntity
  8
치수문자_일반주서
 62
     0
100
AcDbTrace
 10
-53.24966666666669
 20
1.460499999999956
 30
0.0
 11
-54.35033333333336
 21
1.460499999999952
 31
0.0
 12
-53.80000000000004
 22
4.762499999999953
 32
0.0
 13
-53.80000000000004
 23
4.762499999999953
 33
0.0
  0
SOLID
  5
12C
330
125
100
AcDbEntity
  8
치수문자_일반주서
 62
     0
100
AcDbTrace
 10
-54.35033333333335
 20
-1.46050000000005
 30
0.0
 11
-53.24966666666668
 21
-1.460500000000046
 31
0.0
 12
-53.8
 22
-4.762500000000047
 32
0.0
 13
-53.8
 23
-4.762500000000047
 33
0.0
  0
MTEXT
  5
12D
330
125
100
AcDbEntity
  8
치수문자_일반주서
 62
     0
100
AcDbMText
 10
-58.17500000000003
 20
-0.0000000000000153
 30
0.0
 40
3.5
 41
0.0
 71
     2
 72
     1
  1
\A1;%%c9.53 [3/8]
  7
SLDTEXTSTYLE0
 11
-3.729883127349606E-15
 21
1.0
 31
0.0
 73
     1
 44
1.0
  0
POINT
  5
12E
330
125
100
AcDbEntity
  8
Defpoints
 62
     0
100
AcDbPoint
 10
-40.30000000000001
 20
4.762500000000002
 30
0.0
  0
POINT
  5
12F
330
125
100
AcDbEntity
  8
Defpoints
 62
     0
100
AcDbPoint
 10
-40.30000000000001
 20
-4.762499999999998
 30
0.0
  0
POINT
  5
130
330
125
100
AcDbEntity
  8
Defpoints
 62
     0
100
AcDbPoint
 10
-53.8
 20
-4.762500000000049
 30
0.0
  0
ENDBLK
  5
127
330
125
100
AcDbEntity
  8
0
100
AcDbBlockEnd
  0
BLOCK
  5
139
330
138
100
AcDbEntity
  8
0
100
AcDbBlockBegin
  2
SW_DOWELSYMBOL_0
 70
     0
 10
0.0
 20
0.0
 30
0.0
  3
SW_DOWELSYMBOL_0
  1
SW_DOWELSYMBOL_0
  0
CIRCLE
  5
13B
330
138
100
AcDbEntity
  8
외형선
 62
     0
100
AcDbCircle
 10
0.0
 20
0.0
 30
0.0
 40
3.000000000000001
  0
HATCH
  5
13C
330
138
100
AcDbEntity
  8
0
  6
Continuous
 62
     0
370
    30
100
AcDbHatch
 10
0.0
 20
0.0
 30
0.0
210
0.0
220
0.0
230
1.0
  2
SOLID
 70
     1
 71
     0
 91
        1
 92
        0
 93
        3
 72
     2
 10
0.0
 20
0.0
 40
3.000000000000001
 50
0.0
 51
90.0
 73
     1
 72
     1
 10
0.0
 20
3.000000000000001
 11
0.0
 21
0.0
 72
     1
 10
0.0
 20
0.0
 11
3.000000000000001
 21
0.0
 97
        0
 75
     0
 76
     1
 98
        1
 10
0.0
 20
0.0
  0
HATCH
  5
13D
330
138
100
AcDbEntity
  8
0
  6
Continuous
 62
     0
370
    30
100
AcDbHatch
 10
0.0
 20
0.0
 30
0.0
210
0.0
220
0.0
230
1.0
  2
SOLID
 70
     1
 71
     0
 91
        1
 92
        0
 93
        3
 72
     2
 10
0.0
 20
0.0
 40
3.000000000000001
 50
180.0
 51
270.0000000000008
 73
     1
 72
     1
 10
0.0
 20
-3.000000000000001
 11
0.0
 21
0.0
 72
     1
 10
0.0
 20
0.0
 11
-3.000000000000001
 21
0.0
 97
        0
 75
     0
 76
     1
 98
        1
 10
0.0
 20
0.0
  0
ENDBLK
  5
13A
330
138
100
AcDbEntity
  8
0
100
AcDbBlockEnd
  0
BLOCK
  5
16B
330
16A
100
AcDbEntity
  8
0
100
AcDbBlockBegin
  2
*D7
 70
     1
 10
0.0
 20
0.0
 30
0.0
  3
*D7
  1
*D7
  0
LINE
  5
16D
330
16A
100
AcDbEntity
  8
치수문자_일반주서
 62
     0
370
    -2
100
AcDbLine
 10
37.21570174065842
 20
7.142402248034868
 30
0.0
 11
57.73275916080972
 21
32.1501786771915
 31
0.0
  0
MTEXT
  5
16E
330
16A
100
AcDbEntity
  8
치수문자_일반주서
 62
     0
100
AcDbMText
 10
46.68473011895969
 20
22.82255674805337
 30
0.0
 40
3.5
 41
0.0
 71
     5
 72
     1
  1
\A1;R.76 [R0.030]
  7
SLDTEXTSTYLE0
 11
0.6342770031147698
 21
0.7731058681188151
 31
0.0
 73
     1
 44
1.0
  0
LINE
  5
16F
330
16A
100
AcDbEntity
  8
치수문자_일반주서
 62
     0
370
    -2
100
AcDbLine
 10
34.63799999999999
 20
4.000500000000003
 30
0.0
 11
35.12131907637345
 21
4.589606671506541
 31
0.0
  0
SOLID
  5
170
330
16A
100
AcDbEntity
  8
치수문자_일반주서
 62
     0
100
AcDbTrace
 10
36.79023581123703
 20
7.491466025415696
 30
0.0
 11
37.6411676700798
 21
6.79333847065404
 31
0.0
 12
35.12131907637345
 22
4.589606671506541
 32
0.0
 13
35.12131907637345
 23
4.589606671506541
 33
0.0
  0
POINT
  5
171
330
16A
100
AcDbEntity
  8
Defpoints
 62
     0
100
AcDbPoint
 10
35.12131907637345
 20
4.589606671506541
 30
0.0
  0
POINT
  5
172
330
16A
100
AcDbEntity
  8
Defpoints
 62
     0
100
AcDbPoint
 10
34.63799999999999
 20
4.000500000000003
 30
0.0
  0
ENDBLK
  5
16C
330
16A
100
AcDbEntity
  8
0
100
AcDbBlockEnd
  0
ENDSEC
  0
SECTION
  2
ENTITIES
  0
LINE
  5
95
330
1F
100
AcDbEntity
  8
0
  6
Continuous
 62
     4
370
    15
100
AcDbLine
 10
9.999999999999996
 20
4.762500000000005
 30
0.0
 11
-40.30000000000001
 21
4.762500000000002
 31
0.0
  0
LINE
  5
96
330
1F
100
AcDbEntity
  8
0
  6
Continuous
 62
     4
370
    15
100
AcDbLine
 10
-40.30000000000001
 20
-4.762499999999998
 30
0.0
 11
9.999999999999996
 21
-4.762499999999996
 31
0.0
  0
LINE
  5
97
330
1F
100
AcDbEntity
  8
0
  6
Continuous
 62
     4
370
    15
100
AcDbLine
 10
-40.30000000000001
 20
4.762499999999999
 30
0.0
 11
-40.80000000000001
 21
4.262499999999998
 31
0.0
  0
LINE
  5
98
330
1F
100
AcDbEntity
  8
0
  6
Continuous
 62
     4
370
    15
100
AcDbLine
 10
-40.80000000000001
 20
-4.262499999999996
 30
0.0
 11
-40.30000000000001
 21
-4.762499999999996
 31
0.0
  0
LINE
  5
99
330
1F
100
AcDbEntity
  8
0
  6
Continuous
 62
     1
370
    15
100
AcDbLine
 10
18.37636739585727
 20
-4.762499999999995
 30
0.0
 11
20.0062890346632
 21
-4.762499999999995
 31
0.0
  0
LINE
  5
9A
330
1F
100
AcDbEntity
  8
0
  6
Continuous
 62
     1
370
    15
100
AcDbLine
 10
34.63799999999999
 20
4.762500000000004
 30
0.0
 11
33.33863504903312
 21
4.762500000000004
 31
0.0
  0
LINE
  5
9B
330
1F
100
AcDbEntity
  8
0
  6
Continuous
 62
     1
370
    15
100
AcDbLine
 10
28.35150356818113
 20
-4.762499999999995
 30
0.0
 11
29.98007890096753
 21
-4.762499999999995
 31
0.0
  0
LINE
  5
9C
330
1F
100
AcDbEntity
  8
0
  6
Continuous
 62
     1
370
    15
100
AcDbLine
 10
15.01781705906302
 20
4.762500000000004
 30
0.0
 11
13.39066822413408
 21
4.762500000000004
 31
0.0
  0
LINE
  5
9D
330
1F
100
AcDbEntity
  8
0
  6
Continuous
 62
     1
370
    15
100
AcDbLine
 10
23.36493670055387
 20
-4.762499999999995
 30
0.0
 11
24.99182638126474
 21
-4.762499999999995
 31
0.0
  0
LINE
  5
9E
330
1F
100
AcDbEntity
  8
0
  6
Continuous
 62
     1
370
    15
100
AcDbLine
 10
10.030195103893
 20
4.762500000000004
 30
0.0
 11
9.999999999999998
 21
4.762500000000004
 31
0.0
  0
LINE
  5
9F
330
1F
100
AcDbEntity
  8
0
  6
Continuous
 62
     1
370
    15
100
AcDbLine
 10
33.33863504903311
 20
-4.762499999999995
 30
0.0
 11
34.63799999999999
 21
-4.762499999999996
 31
0.0
  0
LINE
  5
A0
330
1F
100
AcDbEntity
  8
0
  6
Continuous
 62
     1
370
    15
100
AcDbLine
 10
20.00628903466323
 20
4.762500000000004
 30
0.0
 11
18.37636739585728
 21
4.762500000000004
 31
0.0
  0
LINE
  5
A1
330
1F
100
AcDbEntity
  8
0
  6
Continuous
 62
     1
370
    15
100
AcDbLine
 10
9.999999999999998
 20
-4.762499999999995
 30
0.0
 11
10.03019510389303
 21
-4.762499999999995
 31
0.0
  0
LINE
  5
A2
330
1F
100
AcDbEntity
  8
0
  6
Continuous
 62
     1
370
    15
100
AcDbLine
 10
24.99182638126477
 20
4.762500000000004
 30
0.0
 11
23.3649367005539
 21
4.762500000000004
 31
0.0
  0
LINE
  5
A5
330
1F
100
AcDbEntity
  8
0
  6
Continuous
 62
     1
370
    15
100
AcDbLine
 10
13.39066822413412
 20
-4.762499999999995
 30
0.0
 11
15.01781705906302
 21
-4.762499999999995
 31
0.0
  0
LINE
  5
A6
330
1F
100
AcDbEntity
  8
0
  6
Continuous
 62
     1
370
    15
100
AcDbLine
 10
29.98007890096753
 20
4.762500000000004
 30
0.0
 11
28.35150356818116
 21
4.762500000000004
 31
0.0
  0
SPLINE
  5
A7
330
1F
100
AcDbEntity
  8
0
  6
Continuous
 62
     4
370
    15
100
AcDbSpline
210
0.0
220
0.0
230
1.0
 70
     8
 71
     3
 72
    12
 73
     8
 74
     0
 42
0.000000001
 43
0.00000001
 40
0.0
 40
0.0
 40
0.0
 40
0.0
 40
0.5
 40
0.5
 40
0.75
 40
0.75
 40
1.0
 40
1.0
 40
1.0
 40
1.0
 10
8.796794667099851
 20
-1.24511891698116
 30
0.0
 10
8.662771886899428
 20
-1.116178723158592
 30
0.0
 10
8.574945961696633
 20
-0.9493205962689104
 30
0.0
 10
8.505855606022688
 20
-0.6808918024866032
 30
0.0
 10
8.49277616236132
 20
-0.5877970886464713
 30
0.0
 10
8.47963939832556
 20
-0.4019273868146421
 30
0.0
 10
8.479549740049919
 20
-0.3083711640461397
 30
0.0
 10
8.479549740049926
 20
-0.2145546632358525
 30
0.0
  0
SPLINE
  5
A8
330
1F
100
AcDbEntity
  8
0
  6
Continuous
 62
     4
370
    15
100
AcDbSpline
210
0.0
220
0.0
230
1.0
 70
     8
 71
     3
 72
    14
 73
    10
 74
     0
 42
0.000000001
 43
0.00000001
 40
0.0
 40
0.0
 40
0.0
 40
0.0
 40
0.2499999999999999
 40
0.2499999999999999
 40
0.4999999999999999
 40
0.4999999999999999
 40
0.7499999999999998
 40
0.7499999999999998
 40
1.0
 40
1.0
 40
1.0
 40
1.0
 10
8.47954974004993
 20
-0.2145546632369286
 30
0.0
 10
8.479549740049942
 20
-0.0114028494717782
 30
0.0
 10
8.48369923739759
 20
0.1929744422420674
 30
0.0
 10
8.599527436909517
 20
0.5839050910597596
 30
0.0
 10
8.709697744681543
 20
0.7617607606769392
 30
0.0
 10
9.027800351554077
 20
1.013780762260742
 30
0.0
 10
9.230117974574773
 20
1.083415360943814
 30
0.0
 10
9.638720275560233
 20
1.082360480635942
 30
0.0
 10
9.8405645826437
 20
1.012099409515422
 30
0.0
 10
9.999999999999902
 20
0.8840620341521003
 30
0.0
  0
SPLINE
  5
A9
330
1F
100
AcDbEntity
  8
0
  6
Continuous
 62
     1
370
    15
100
AcDbSpline
210
0.0
220
0.0
230
1.0
 70
    24
 71
     3
 72
     8
 73
     4
 74
     0
 42
0.000000001
 43
0.00000001
 40
0.0
 40
0.0
 40
0.0
 40
0.0
 40
1.0
 40
1.0
 40
1.0
 40
1.0
 10
9.999999999999996
 20
0.8840620341523375
 30
0.0
 10
9.999999999999996
 20
0.814257832886264
 30
0.0
 10
9.999999999999996
 20
0.736733513878789
 30
0.0
 10
9.999999999999996
 20
0.650456858415597
 30
0.0
  0
SPLINE
  5
AA
330
1F
100
AcDbEntity
  8
0
  6
Continuous
 62
     4
370
    15
100
AcDbSpline
210
0.0
220
0.0
230
1.0
 70
     8
 71
     3
 72
    10
 73
     6
 74
     0
 42
0.000000001
 43
0.00000001
 40
0.0
 40
0.0
 40
0.0
 40
0.0
 40
0.4999999999999998
 40
0.4999999999999998
 40
1.0
 40
1.0
 40
1.0
 40
1.0
 10
9.999999999999998
 20
-2.355017216327831
 30
0.0
 10
9.798701358936253
 20
-2.18043135154174
 30
0.0
 10
9.600074320710108
 20
-2.000355330165184
 30
0.0
 10
9.200366959420373
 20
-1.629841072335916
 30
0.0
 10
8.998422802385475
 20
-1.439100647586476
 30
0.0
 10
8.796794667099851
 20
-1.24511891698116
 30
0.0
  0
LINE
  5
AB
330
1F
100
AcDbEntity
  8
0
  6
Continuous
 62
     4
370
    15
100
AcDbLine
 10
9.999999999999998
 20
-2.355017216327838
 30
0.0
 11
9.999999999999996
 21
-3.610731056785058
 31
0.0
  0
SPLINE
  5
AC
330
1F
100
AcDbEntity
  8
0
  6
Continuous
 62
     4
370
    15
100
AcDbSpline
210
0.0
220
0.0
230
1.0
 70
     8
 71
     3
 72
    14
 73
    10
 74
     0
 42
0.000000001
 43
0.00000001
 40
0.0
 40
0.0
 40
0.0
 40
0.0
 40
0.25
 40
0.25
 40
0.5
 40
0.5
 40
0.75
 40
0.75
 40
1.0
 40
1.0
 40
1.0
 40
1.0
 10
8.47954974004993
 20
-4.227535747048013
 30
0.0
 10
8.479549740049942
 20
-4.133893899985289
 30
0.0
 10
8.48369923739759
 20
-4.028069998338391
 30
0.0
 10
8.599527436909517
 20
-3.804899018975442
 30
0.0
 10
8.709697744681549
 20
-3.691978897134117
 30
0.0
 10
9.027800351554085
 20
-3.524558330068542
 30
0.0
 10
9.230117974574778
 20
-3.474598243418119
 30
0.0
 10
9.638720275560237
 20
-3.475338992797817
 30
0.0
 10
9.840564582643701
 20
-3.525764991651774
 30
0.0
 10
9.999999999999904
 20
-3.610731056785205
 30
0.0
  0
SPLINE
  5
AD
330
1F
100
AcDbEntity
  8
0
  6
Continuous
 62
     4
370
    15
100
AcDbSpline
210
0.0
220
0.0
230
1.0
 70
     8
 71
     3
 72
    12
 73
     8
 74
     0
 42
0.000000001
 43
0.00000001
 40
0.0
 40
0.0
 40
0.0
 40
0.0
 40
0.4999999999999997
 40
0.4999999999999997
 40
0.7499999999999998
 40
0.7499999999999998
 40
1.0
 40
1.0
 40
1.0
 40
1.0
 10
8.796794667099851
 20
-4.60355353653588
 30
0.0
 10
8.662771886899428
 20
-4.569329504679005
 30
0.0
 10
8.574945961696635
 20
-4.519386595686038
 30
0.0
 10
8.505855606022688
 20
-4.423277061737332
 30
0.0
 10
8.49277616236132
 20
-4.387610062165325
 30
0.0
 10
8.47963939832556
 20
-4.311492106662141
 30
0.0
 10
8.479549740049924
 20
-4.270780009831339
 30
0.0
 10
8.47954974004993
 20
-4.227535747040778
 30
0.0
  0
SPLINE
  5
AE
330
1F
100
AcDbEntity
  8
0
  6
Continuous
 62
     4
370
    15
100
AcDbSpline
210
0.0
220
0.0
230
1.0
 70
     8
 71
     3
 72
    10
 73
     6
 74
     0
 42
0.000000001
 43
0.00000001
 40
0.0
 40
0.0
 40
0.0
 40
0.0
 40
0.5
 40
0.5
 40
1.0
 40
1.0
 40
1.0
 40
1.0
 10
9.999999999999998
 20
-4.762404020947896
 30
0.0
 10
9.798701358936253
 20
-4.761128810822117
 30
0.0
 10
9.600074320710108
 20
-4.747190210583268
 30
0.0
 10
9.200366959420373
 20
-4.694209473656995
 30
0.0
 10
8.998422802385475
 20
-4.655041259107663
 30
0.0
 10
8.796794667099851
 20
-4.603553536535881
 30
0.0
  0
LINE
  5
AF
330
1F
100
AcDbEntity
  8
0
  6
Continuous
 62
     1
370
    15
100
AcDbLine
 10
9.999999999999998
 20
-4.762404020947903
 30
0.0
 11
9.999999999999996
 21
-4.762499999999996
 31
0.0
  0
LINE
  5
B0
330
1F
100
AcDbEntity
  8
0
  6
Continuous
 62
     1
370
    15
100
AcDbLine
 10
9.999999999999996
 20
4.762500000000005
 30
0.0
 11
9.999999999999996
 21
4.494793090937359
 31
0.0
  0
SPLINE
  5
B1
330
1F
100
AcDbEntity
  8
0
  6
Continuous
 62
     4
370
    15
100
AcDbSpline
210
0.0
220
0.0
230
1.0
 70
     8
 71
     3
 72
    14
 73
    10
 74
     0
 42
0.000000001
 43
0.00000001
 40
0.0
 40
0.0
 40
0.0
 40
0.0
 40
0.25
 40
0.25
 40
0.5
 40
0.5
 40
0.75
 40
0.75
 40
1.0
 40
1.0
 40
1.0
 40
1.0
 10
8.479549740049928
 20
4.012981083811051
 30
0.0
 10
8.479549740049942
 20
4.122491050513482
 30
0.0
 10
8.48369923739759
 20
4.221044440580432
 30
0.0
 10
8.599527436909515
 20
4.388804110035179
 30
0.0
 10
8.709697744681542
 20
4.453739657811034
 30
0.0
 10
9.027800351554076
 20
4.538339092329265
 30
0.0
 10
9.230117974574771
 20
4.558013604361912
 30
0.0
 10
9.638720275560233
 20
4.557699473433738
 30
0.0
 10
9.840564582643703
 20
4.537864401167178
 30
0.0
 10
9.999999999999902
 20
4.494793090937284
 30
0.0
  0
SPLINE
  5
B2
330
1F
100
AcDbEntity
  8
0
  6
Continuous
 62
     4
370
    15
100
AcDbSpline
210
0.0
220
0.0
230
1.0
 70
     8
 71
     3
 72
    12
 73
     8
 74
     0
 42
0.000000001
 43
0.00000001
 40
0.0
 40
0.0
 40
0.0
 40
0.0
 40
0.5000000000000008
 40
0.5000000000000008
 40
0.7500000000000007
 40
0.7500000000000007
 40
1.0
 40
1.0
 40
1.0
 40
1.0
 10
8.796794667099851
 20
3.358434619554683
 30
0.0
 10
8.662771886899428
 20
3.453150781520376
 30
0.0
 10
8.574945961696635
 20
3.570065999417091
 30
0.0
 10
8.505855606022688
 20
3.742385259250695
 30
0.0
 10
8.492776162361322
 20
3.799812973518819
 30
0.0
 10
8.479639398325562
 20
3.909564719847468
 30
0.0
 10
8.479549740049922
 20
3.962408845785166
 30
0.0
 10
8.479549740049928
 20
4.012981083804894
 30
0.0
  0
SPLINE
  5
B3
330
1F
100
AcDbEntity
  8
0
  6
Continuous
 62
     4
370
    15
100
AcDbSpline
210
0.0
220
0.0
230
1.0
 70
     8
 71
     3
 72
    10
 73
     6
 74
     0
 42
0.000000001
 43
0.00000001
 40
0.0
 40
0.0
 40
0.0
 40
0.0
 40
0.5
 40
0.5
 40
1.0
 40
1.0
 40
1.0
 40
1.0
 10
9.999999999999998
 20
2.407386804620021
 30
0.0
 10
9.798701358936253
 20
2.580697459280334
 30
0.0
 10
9.600074320710108
 20
2.74683488041804
 30
0.0
 10
9.200366959420373
 20
3.064368401321039
 30
0.0
 10
8.998422802385475
 20
3.215940611521147
 30
0.0
 10
8.796794667099851
 20
3.358434619554683
 30
0.0
  0
LINE
  5
B4
330
1F
100
AcDbEntity
  8
0
  6
Continuous
 62
     4
370
    15
100
AcDbLine
 10
9.999999999999998
 20
2.407386804620021
 30
0.0
 11
9.999999999999996
 21
0.8840620341523224
 31
0.0
  0
LINE
  5
B5
330
1F
100
AcDbEntity
  8
0
  6
Continuous
 62
     4
370
    15
100
AcDbLine
 10
-40.30000000000001
 20
4.762499999999999
 30
0.0
 11
-40.30000000000001
 21
-4.762499999999998
 31
0.0
  0
LINE
  5
B6
330
1F
100
AcDbEntity
  8
0
  6
Continuous
 62
     4
370
    15
100
AcDbLine
 10
-40.80000000000001
 20
4.262499999999998
 30
0.0
 11
-40.80000000000001
 21
-4.262500000000004
 31
0.0
  0
SPLINE
  5
B7
330
1F
100
AcDbEntity
  8
0
  6
Continuous
 62
     4
370
    15
100
AcDbSpline
210
0.0
220
0.0
230
1.0
 70
    24
 71
     3
 72
    14
 73
    10
 74
     0
 42
0.000000001
 43
0.00000001
 40
0.0
 40
0.0
 40
0.0
 40
0.0
 40
0.25
 40
0.25
 40
0.5
 40
0.5
 40
0.75
 40
0.75
 40
1.0
 40
1.0
 40
1.0
 40
1.0
 10
9.999999999999998
 20
0.6504568584155438
 30
0.0
 10
9.999999999999998
 20
0.5126766278297912
 30
0.0
 10
9.999999999999998
 20
0.3440387122387675
 30
0.0
 10
9.999999999999998
 20
-0.0663897501159659
 30
0.0
 10
9.999999999999998
 20
-0.3089517367039604
 30
0.0
 10
9.999999999999998
 20
-0.8555881384117865
 30
0.0
 10
9.999999999999998
 20
-1.159893412951161
 30
0.0
 10
9.999999999999998
 20
-1.774827626761242
 30
0.0
 10
9.999999999999998
 20
-2.083898041264874
 30
0.0
 10
9.999999999999998
 20
-2.35501721632784
 30
0.0
  0
SPLINE
  5
B8
330
1F
100
AcDbEntity
  8
0
  6
Continuous
 62
     1
370
    15
100
AcDbSpline
210
0.0
220
0.0
230
1.0
 70
    24
 71
     3
 72
    14
 73
    10
 74
     0
 42
0.000000001
 43
0.00000001
 40
0.0
 40
0.0
 40
0.0
 40
0.0
 40
0.24415662099101
 40
0.3923005474637168
 40
0.5404444739364234
 40
0.6885884004091297
 40
0.8367323268818365
 40
0.9848762533545432
 40
1.0
 40
1.0
 40
1.0
 40
1.0
 10
9.999999999999998
 20
4.14018695052602
 30
0.0
 10
10.0
 20
3.931780819866993
 30
0.0
 10
10.0
 20
3.596922650465384
 30
0.0
 10
10.0
 20
3.204642256401264
 30
0.0
 10
9.999999999999998
 20
2.924620879424368
 30
0.0
 10
10.0
 20
2.697042128215097
 30
0.0
 10
9.999999999999998
 20
2.534201768088393
 30
0.0
 10
10.0
 20
2.44772097797906
 30
0.0
 10
9.999999999999998
 20
2.43517418148959
 30
0.0
 10
10.0
 20
2.434011951590096
 30
0.0
  0
SPLINE
  5
B9
330
1F
100
AcDbEntity
  8
0
  6
Continuous
 62
     4
370
    15
100
AcDbSpline
210
0.0
220
0.0
230
1.0
 70
    24
 71
     3
 72
    15
 73
    11
 74
     0
 42
0.000000001
 43
0.00000001
 40
0.0
 40
0.0
 40
0.0
 40
0.0
 40
0.0281560153239756
 40
0.1780423195141384
 40
0.3279286237043011
 40
0.4778149278944637
 40
0.6277012320846262
 40
0.777587536274789
 40
0.9274738404649517
 40
1.0
 40
1.0
 40
1.0
 40
1.0
 10
10.0
 20
-3.42461063641066
 30
0.0
 10
10.0
 20
-3.421395272658697
 30
0.0
 10
10.0
 20
-3.401063176163722
 30
0.0
 10
10.0
 20
-3.457076256688061
 30
0.0
 10
10.0
 20
-3.559851483710509
 30
0.0
 10
10.0
 20
-3.737916388899446
 30
0.0
 10
9.999999999999998
 20
-3.970327033274441
 30
0.0
 10
10.0
 20
-4.256712387741531
 30
0.0
 10
10.0
 20
-4.52813512132069
 30
0.0
 10
10.0
 20
-4.704796701158285
 30
0.0
 10
9.999999999999998
 20
-4.762404020947903
 30
0.0
  0
SPLINE
  5
BA
330
1F
100
AcDbEntity
  8
0
  6
Continuous
 62
     1
370
    15
100
AcDbSpline
210
0.0
220
0.0
230
1.0
 70
    24
 71
     3
 72
     8
 73
     4
 74
     0
 42
0.000000001
 43
0.00000001
 40
0.0
 40
0.0
 40
0.0
 40
0.0
 40
1.0
 40
1.0
 40
1.0
 40
1.0
 10
9.999999999999996
 20
4.494793090937437
 30
0.0
 10
9.999999999999996
 20
4.374681775294193
 30
0.0
 10
9.999999999999996
 20
4.256398266170827
 30
0.0
 10
9.999999999999996
 20
4.140186950526088
 30
0.0
  0
SPLINE
  5
BB
330
1F
100
AcDbEntity
  8
0
  6
Continuous
 62
     1
370
    15
100
AcDbSpline
210
0.0
220
0.0
230
1.0
 70
     8
 71
     3
 72
    26
 73
    22
 74
     0
 42
0.000000001
 43
0.00000001
 40
0.0
 40
0.0
 40
0.0
 40
0.0
 40
0.023258604033458
 40
0.0754493747654856
 40
0.1274930980801323
 40
0.1796942558884762
 40
0.2374771245666138
 40
0.295171112970362
 40
0.3529448105483038
 40
0.4107972311500329
 40
0.4685073731517264
 40
0.5262279513061398
 40
0.5840906627737024
 40
0.6418454015817461
 40
0.6995412517819326
 40
0.7573467483096793
 40
0.8151734605480316
 40
0.8728730969032173
 40
0.9306132357799076
 40
0.9884798841007205
 40
1.0
 40
1.0
 40
1.0
 40
1.0
 10
31.66003280287794
 20
-4.451114036548469
 30
0.0
 10
31.5310364669262
 20
-4.499793277959352
 30
0.0
 10
31.11258087601465
 20
-4.657705520810463
 30
0.0
 10
30.40435837932772
 20
-4.764484751209611
 30
0.0
 10
29.53841668594993
 20
-4.769601091603041
 30
0.0
 10
28.6384438769238
 20
-4.602827761916511
 30
0.0
 10
27.70816971105619
 20
-4.260241283111078
 30
0.0
 10
26.74803256589564
 20
-3.731927873625955
 30
0.0
 10
25.78656775931554
 20
-3.052454869194326
 30
0.0
 10
24.82373664054666
 20
-2.250014424134649
 30
0.0
 10
23.86332482277117
 20
-1.354669137793312
 30
0.0
 10
22.90273746589271
 20
-0.4042525041941579
 30
0.0
 10
21.93972874248264
 20
0.5606692983611654
 30
0.0
 10
20.97857884898412
 20
1.504416052837035
 30
0.0
 10
20.01841714106102
 20
2.387242466324698
 30
0.0
 10
19.0564013534189
 20
3.17246403094167
 30
0.0
 10
18.09402980646377
 20
3.827696167532503
 30
0.0
 10
17.13375756346266
 20
4.332338555023537
 30
0.0
 10
16.17300177756873
 20
4.645682198793078
 30
0.0
 10
15.46625605265088
 20
4.777932887122446
 30
0.0
 10
15.08166909701414
 20
4.753039219330105
 30
0.0
 10
15.01781705906302
 20
4.748906184141776
 30
0.0
  0
SPLINE
  5
BC
330
1F
100
AcDbEntity
  8
0
  6
Continuous
 62
     1
370
    15
100
AcDbSpline
210
0.0
220
0.0
230
1.0
 70
     8
 71
     3
 72
    26
 73
    22
 74
     0
 42
0.000000001
 43
0.00000001
 40
0.0
 40
0.0
 40
0.0
 40
0.0
 40
0.0261965906697306
 40
0.0838981031813179
 40
0.1417266957080603
 40
0.1995340718343489
 40
0.2572317980678267
 40
0.3149884148239784
 40
0.3728530077504788
 40
0.4305754627422355
 40
0.4882874812419312
 40
0.5461417829679814
 40
0.6039173591104932
 40
0.6616132234869948
 40
0.7193979710279091
 40
0.7716008262046001
 40
0.8236462417684673
 40
0.8758387095310971
 40
0.9279819749001716
 40
0.980034660247207
 40
1.0
 40
1.0
 40
1.0
 40
1.0
 10
16.69809037581886
 20
4.446882633577903
 30
0.0
 10
16.84338905582318
 20
4.502069913264674
 30
0.0
 10
17.30872761078247
 20
4.678814595190286
 30
0.0
 10
18.09397895482581
 20
4.780148567993909
 30
0.0
 10
19.05641498700423
 20
4.748011295197953
 30
0.0
 10
20.01841349634383
 20
4.513005397455635
 30
0.0
 10
20.97857982595214
 20
4.097042537612513
 30
0.0
 10
21.93972847965572
 20
3.513910747262214
 30
0.0
 10
22.90273753756139
 20
2.789496661017155
 30
0.0
 10
23.86332479845369
 20
1.95029345997119
 30
0.0
 10
24.82373666627736
 20
1.031684516997668
 30
0.0
 10
25.78656768059861
 20
0.0729602033542136
 30
0.0
 10
26.74803285436012
 20
-0.8898885527881928
 30
0.0
 10
27.70816863665366
 20
-1.817108597064737
 30
0.0
 10
28.63844772937942
 20
-2.642107193337027
 30
0.0
 10
29.53840386221843
 20
-3.342107197283233
 30
0.0
 10
30.40440629596115
 20
-3.908667330737773
 30
0.0
 10
31.27284599474726
 20
-4.346649526451196
 30
0.0
 10
32.14049583713214
 20
-4.63152254150373
 30
0.0
 10
32.82783977414093
 20
-4.765990852718009
 30
0.0
 10
33.22776498873816
 20
-4.748636849418934
 30
0.0
 10
33.33863504903312
 20
-4.743825851457563
 30
0.0
  0
SPLINE
  5
BD
330
1F
100
AcDbEntity
  8
0
  6
Continuous
 62
     1
370
    15
100
AcDbSpline
210
0.0
220
0.0
230
1.0
 70
     8
 71
     3
 72
    20
 73
    16
 74
     0
 42
0.000000001
 43
0.00000001
 40
0.0
 40
0.0
 40
0.0
 40
0.0
 40
0.0603775005504567
 40
0.1425533719145468
 40
0.2248854119194987
 40
0.3072476693404275
 40
0.3894289333035538
 40
0.4716678847777494
 40
0.5540870229338379
 40
0.6283285920608249
 40
0.702593052043584
 40
0.7770523977993902
 40
0.8512588134698579
 40
0.925593902717015
 40
1.0
 40
1.0
 40
1.0
 40
1.0
 10
21.68376311218323
 20
-4.451671637527393
 30
0.0
 10
21.4485906241752
 20
-4.530569877123289
 30
0.0
 10
20.89334022723204
 20
-4.716851355985064
 30
0.0
 10
20.01844570515563
 20
-4.791045066826195
 30
0.0
 10
19.05639517497567
 20
-4.701031370570156
 30
0.0
 10
18.0940259185809
 20
-4.414177756956974
 30
0.0
 10
17.13377922819303
 20
-3.949186067571732
 30
0.0
 10
16.17291884680377
 20
-3.323204186587575
 30
0.0
 10
15.24081525398926
 20
-2.588447966711388
 30
0.0
 10
14.34246651717184
 20
-1.78379133966761
 30
0.0
 10
13.47489950873388
 20
-0.947782232283535
 30
0.0
 10
12.6049784645104
 20
-0.0825665415052119
 30
0.0
 10
11.73810311781145
 20
0.7873889420235499
 30
0.0
 10
10.8695103160892
 20
1.634869629065652
 30
0.0
 10
10.28992900142882
 20
2.14979913814763
 30
0.0
 10
10.0
 20
2.407386804620018
 30
0.0
  0
SPLINE
  5
BE
330
1F
100
AcDbEntity
  8
0
  6
Continuous
 62
     1
370
    15
100
AcDbSpline
210
0.0
220
0.0
230
1.0
 70
     8
 71
     3
 72
    22
 73
    18
 74
     0
 42
0.000000001
 43
0.00000001
 40
0.0
 40
0.0
 40
0.0
 40
0.0
 40
0.0650498353320949
 40
0.1300375915980053
 40
0.1949128544624213
 40
0.2600092424899972
 40
0.3249352508321955
 40
0.3898412467499697
 40
0.4618965158884324
 40
0.5337942560821687
 40
0.6056415627330527
 40
0.6776471036558064
 40
0.7496262268788659
 40
0.8214688190279534
 40
0.893384738985225
 40
0.9654351059731611
 40
1.0
 40
1.0
 40
1.0
 40
1.0
 10
10.00000000000125
 20
4.496886805120835
 30
0.0
 10
10.28992900141387
 20
4.387089337837719
 30
0.0
 10
10.86951031604187
 20
4.167599186384367
 30
0.0
 10
11.73810311800537
 20
3.660624533676784
 30
0.0
 10
12.60497846378729
 20
3.041433900732512
 30
0.0
 10
13.47489951144362
 20
2.321323914003071
 30
0.0
 10
14.34246650709234
 20
1.522915315831174
 30
0.0
 10
15.24081529334821
 20
0.6432952472426117
 30
0.0
 10
16.17291868194233
 20
-0.2896420643092762
 30
0.0
 10
17.13377983966246
 20
-1.243912126606591
 30
0.0
 10
18.09402363660858
 20
-2.147726810758793
 30
0.0
 10
19.05640371106281
 20
-2.963267556546952
 30
0.0
 10
20.01841388889172
 20
-3.658119475014913
 30
0.0
 10
20.97858948706141
 20
-4.207828369100381
 30
0.0
 10
21.93968935944354
 20
-4.575794226815898
 30
0.0
 10
22.73639352182121
 20
-4.758533067867685
 30
0.0
 10
23.21105155743455
 20
-4.743266197507197
 30
0.0
 10
23.36493670055387
 20
-4.738316645715935
 30
0.0
  0
SPLINE
  5
BF
330
1F
100
AcDbEntity
  8
0
  6
Continuous
 62
     1
370
    15
100
AcDbSpline
210
0.0
220
0.0
230
1.0
 70
    24
 71
     3
 72
    16
 73
    12
 74
     0
 42
0.000000001
 43
0.00000001
 40
0.0
 40
0.0
 40
0.0
 40
0.0
 40
0.0681975143692582
 40
0.1903691303328852
 40
0.3125407462965117
 40
0.4347123622601529
 40
0.556883978223794
 40
0.679055594187435
 40
0.8012272101510759
 40
0.9233988261147172
 40
1.0
 40
1.0
 40
1.0
 40
1.0
 10
9.999999999999995
 20
4.496886805115563
 30
0.0
 10
9.999999999999996
 20
4.423007440110308
 30
0.0
 10
10.0
 20
4.216777776233641
 30
0.0
 10
9.999999999999998
 20
3.888581524131844
 30
0.0
 10
9.999999999999998
 20
3.528322095007148
 30
0.0
 10
9.999999999999998
 20
3.204395597488184
 30
0.0
 10
9.999999999999998
 20
2.924517474262432
 30
0.0
 10
9.999999999999998
 20
2.697702407775937
 30
0.0
 10
9.999999999999998
 20
2.531664055006989
 30
0.0
 10
9.999999999999998
 20
2.434121072714368
 30
0.0
 10
9.999999999999998
 20
2.420057324013915
 30
0.0
 10
9.999999999999998
 20
2.414637569828741
 30
0.0
  0
SPLINE
  5
C0
330
1F
100
AcDbEntity
  8
0
  6
Continuous
 62
     1
370
    15
100
AcDbSpline
210
0.0
220
0.0
230
1.0
 70
     8
 71
     3
 72
    30
 73
    26
 74
     0
 42
0.000000001
 43
0.00000001
 40
0.0
 40
0.0
 40
0.0
 40
0.0
 40
0.1249999999999996
 40
0.1249999999999996
 40
0.2499999999999991
 40
0.2499999999999991
 40
0.3749999999999987
 40
0.3749999999999987
 40
0.4999999999999982
 40
0.4999999999999982
 40
0.562499999999998
 40
0.562499999999998
 40
0.6249999999999978
 40
0.6249999999999978
 40
0.6874999999999976
 40
0.6874999999999976
 40
0.7187499999999972
 40
0.7187499999999972
 40
0.7499999999999969
 40
0.7499999999999969
 40
0.8124999999999973
 40
0.8124999999999973
 40
0.8749999999999978
 40
0.8749999999999978
 40
1.0
 40
1.0
 40
1.0
 40
1.0
 10
33.876
 20
-2.829578028717303
 30
0.0
 10
34.05260169984233
 20
-2.971981159570804
 30
0.0
 10
34.21720957679248
 20
-3.092949521464657
 30
0.0
 10
34.53258728688418
 20
-3.288955726083862
 30
0.0
 10
34.67674461354219
 20
-3.360053979824949
 30
0.0
 10
34.92865271919121
 20
-3.457711003495495
 30
0.0
 10
35.03371916360683
 20
-3.482862286654249
 30
0.0
 10
35.18986296000592
 20
-3.520650761752845
 30
0.0
 10
35.24082730582995
 20
-3.534418581772701
 30
0.0
 10
35.28001976903034
 20
-3.588833390777599
 30
0.0
 10
35.28729929999648
 20
-3.612571509478601
 30
0.0
 10
35.28987516646997
 20
-3.678606196886384
 30
0.0
 10
35.28520270028395
 20
-3.721384899482488
 30
0.0
 10
35.25741047329245
 20
-3.830470126395668
 30
0.0
 10
35.23415132463698
 20
-3.898723655441797
 30
0.0
 10
35.16972931907116
 20
-4.023944568763679
 30
0.0
 10
35.14292721386478
 20
-4.069716329294836
 30
0.0
 10
35.07855453602641
 20
-4.163480709941862
 30
0.0
 10
35.03989097514005
 20
-4.212769065411294
 30
0.0
 10
34.91374626701066
 20
-4.351415617176904
 30
0.0
 10
34.81456667289444
 20
-4.432806274743852
 30
0.0
 10
34.6205399711295
 20
-4.552989042752457
 30
0.0
 10
34.52258945986165
 20
-4.595320316938528
 30
0.0
 10
34.23744765674737
 20
-4.678317876522966
 30
0.0
 10
34.05374474621763
 20
-4.67833787892589
 30
0.0
 10
33.876
 20
-4.637835890667501
 30
0.0
  0
SPLINE
  5
C1
330
1F
100
AcDbEntity
  8
0
  6
Continuous
 62
     1
370
    15
100
AcDbSpline
210
0.0
220
0.0
230
1.0
 70
     8
 71
     3
 72
    23
 73
    19
 74
     0
 42
0.000000001
 43
0.00000001
 40
0.0
 40
0.0
 40
0.0
 40
0.0
 40
0.0626655528156706
 40
0.1251176568705313
 40
0.1876784376041068
 40
0.2502982507004037
 40
0.3127416325682759
 40
0.3753739083427133
 40
0.4447032626718762
 40
0.5139259761890308
 40
0.5832443267991051
 40
0.65265713129378
 40
0.7218992263082754
 40
0.7911538428840277
 40
0.8605789946210608
 40
0.929874598017195
 40
0.9990995453650316
 40
1.0
 40
1.0
 40
1.0
 40
1.0
 10
33.87600000000001
 20
-4.637835890667504
 30
0.0
 10
33.58589464607673
 20
-4.557252775570467
 30
0.0
 10
33.00667208284101
 20
-4.396361024181521
 30
0.0
 10
32.14043813483028
 20
-3.967390057443799
 30
0.0
 10
31.27286148475316
 20
-3.418846398506648
 30
0.0
 10
30.40440215809179
 20
-2.755222876236515
 30
0.0
 10
29.53840497008536
 20
-1.998573690321351
 30
0.0
 10
28.63844739474403
 20
-1.148891033181016
 30
0.0
 10
27.70816873763733
 20
-0.2241719921493702
 30
0.0
 10
26.74803279896289
 20
0.7413385774380935
 30
0.0
 10
25.78656780139576
 20
1.676217556142972
 30
0.0
 10
24.8237362384257
 20
2.541887091736058
 30
0.0
 10
23.86332638471951
 20
3.30636617083638
 30
0.0
 10
22.90273161137558
 20
3.934578233246557
 30
0.0
 10
21.93975063917033
 20
4.408312862193909
 30
0.0
 10
20.97849733972717
 20
4.680487220599849
 30
0.0
 10
20.33478537685466
 20
4.793821664356343
 30
0.0
 10
20.0104536596038
 20
4.761672596523669
 30
0.0
 10
20.00628903466323
 20
4.761259782103769
 30
0.0
  0
SPLINE
  5
C2
330
1F
100
AcDbEntity
  8
0
  6
Continuous
 62
     1
370
    15
100
AcDbSpline
210
0.0
220
0.0
230
1.0
 70
     8
 71
     3
 72
    21
 73
    17
 74
     0
 42
0.000000001
 43
0.00000001
 40
0.0
 40
0.0
 40
0.0
 40
0.0
 40
0.020970805107154
 40
0.0999516433977169
 40
0.1787384740461072
 40
0.2575110596639856
 40
0.3364778512362108
 40
0.4153371882793652
 40
0.494087724728189
 40
0.5729595800437012
 40
0.6442125700760163
 40
0.715250666820881
 40
0.7864894788104807
 40
0.8576611332155825
 40
0.9287091526703419
 40
1.0
 40
1.0
 40
1.0
 40
1.0
 10
21.68376311218326
 20
4.451671637527406
 30
0.0
 10
21.76896861242134
 20
4.486311686957201
 30
0.0
 10
22.17507747337371
 20
4.65141406858703
 30
0.0
 10
22.90280047339627
 20
4.763496372520307
 30
0.0
 10
23.86330795753669
 20
4.771072419933069
 30
0.0
 10
24.82374118939504
 20
4.57049549541579
 30
0.0
 10
25.78656647533917
 20
4.18870624700802
 30
0.0
 10
26.7480331535969
 20
3.635432016842175
 30
0.0
 10
27.70816864218408
 20
2.93431370723471
 30
0.0
 10
28.63844741760267
 20
2.140946737281078
 30
0.0
 10
29.53840496424553
 20
1.299450972516881
 30
0.0
 10
30.4044021596595
 20
0.4412459138454972
 30
0.0
 10
31.27286148433316
 20
-0.428972469905343
 30
0.0
 10
32.14043813494202
 20
-1.284185427949853
 30
0.0
 10
33.00667208281298
 20
-2.105208948091017
 30
0.0
 10
33.58589464606737
 20
-2.587847210739746
 30
0.0
 10
33.876
 20
-2.829578028718329
 30
0.0
  0
SPLINE
  5
C3
330
1F
100
AcDbEntity
  8
0
  6
Continuous
 62
     1
370
    15
100
AcDbSpline
210
0.0
220
0.0
230
1.0
 70
     8
 71
     3
 72
    25
 73
    21
 74
     0
 42
0.000000001
 43
0.00000001
 40
0.0
 40
0.0
 40
0.0
 40
0.0
 40
0.0532144698447126
 40
0.1110661351167239
 40
0.1687755236463098
 40
0.2264953481923596
 40
0.2843573041958454
 40
0.3421112889495191
 40
0.399806385864194
 40
0.4576111276748704
 40
0.5154370849191572
 40
0.5731359679393987
 40
0.6308753529523379
 40
0.6887412457576737
 40
0.7408657253010794
 40
0.793006276352098
 40
0.845283655323242
 40
0.8973834538739537
 40
0.9495735932309654
 40
0.9999999999999999
 40
0.9999999999999999
 40
0.9999999999999999
 40
0.9999999999999999
 10
26.672450080606
 20
-4.462821602180522
 30
0.0
 10
26.3773058780482
 20
-4.552576388606274
 30
0.0
 10
25.76129812722669
 20
-4.739907339485338
 30
0.0
 10
24.82372235382725
 20
-4.789324676510852
 30
0.0
 10
23.86332864533034
 20
-4.661464167609595
 30
0.0
 10
22.9027364463317
 20
-4.339690751076439
 30
0.0
 10
21.93972898680654
 20
-3.84376527473401
 30
0.0
 10
20.97857889004398
 20
-3.19068413260681
 30
0.0
 10
20.0184167331161
 20
-2.407658143048721
 30
0.0
 10
19.05640294797336
 20
-1.527700461902126
 30
0.0
 10
18.09402384061973
 20
-0.5860884027613695
 30
0.0
 10
17.13377978494924
 20
0.3807206148104241
 30
0.0
 10
16.17291869686986
 20
1.331830316130125
 30
0.0
 10
15.24081528914973
 20
2.198138611284563
 30
0.0
 10
14.34246651025225
 20
2.95708298465354
 30
0.0
 10
13.47489950272845
 20
3.591297176506172
 30
0.0
 10
12.60497849552582
 20
4.105877780450651
 30
0.0
 10
11.73810300014553
 20
4.482915842539089
 30
0.0
 10
10.87957443888561
 20
4.719896763438106
 30
0.0
 10
10.31005867838187
 20
4.746686544875025
 30
0.0
 10
10.030195103893
 20
4.759851209512364
 30
0.0
  0
SPLINE
  5
C4
330
1F
100
AcDbEntity
  8
0
  6
Continuous
 62
     1
370
    15
100
AcDbSpline
210
0.0
220
0.0
230
1.0
 70
     8
 71
     3
 72
    26
 73
    22
 74
     0
 42
0.000000001
 43
0.00000001
 40
0.0
 40
0.0
 40
0.0
 40
0.0
 40
0.0016549727571452
 40
0.053756826237964
 40
0.1060362671433758
 40
0.1581788747318696
 40
0.2103054101788554
 40
0.2681735853416929
 40
0.3259152477223891
 40
0.3836164065129002
 40
0.4414446445395421
 40
0.4992516662957908
 40
0.5569490388314031
 40
0.6147053015286792
 40
0.67256953973439
 40
0.7302916408766893
 40
0.7880033055909051
 40
0.8458572526592529
 40
0.9036324746266645
 40
0.9613279853167143
 40
1.0
 40
1.0
 40
1.0
 40
1.0
 10
11.71074326114146
 20
4.467147768271897
 30
0.0
 10
11.71992350941938
 20
4.471057221430956
 30
0.0
 10
12.01811634030855
 20
4.598044081637431
 30
0.0
 10
12.60488201787605
 20
4.713781473490013
 30
0.0
 10
13.47492530940961
 20
4.79101884333351
 30
0.0
 10
14.34245962938692
 20
4.692798204300933
 30
0.0
 10
15.24081736014618
 20
4.434211882420242
 30
0.0
 10
16.17291811894372
 20
4.00006567788804
 30
0.0
 10
17.13377993992918
 20
3.38848543908399
 30
0.0
 10
18.09402379750857
 20
2.638798189100713
 30
0.0
 10
19.05640296512285
 20
1.783151324208375
 30
0.0
 10
20.0184167076929
 20
0.8548750415998163
 30
0.0
 10
20.97857897448068
 20
-0.109156664223673
 30
0.0
 10
21.93972867382406
 20
-1.068403119571614
 30
0.0
 10
22.90273761483676
 20
-1.982753215904099
 30
0.0
 10
23.86332429714298
 20
-2.818519909359633
 30
0.0
 10
24.82373859632513
 20
-3.539106588969632
 30
0.0
 10
25.78656044641081
 20
-4.116831753395722
 30
0.0
 10
26.74805979803696
 20
-4.520693225310477
 30
0.0
 10
27.60216628638476
 20
-4.741460338660693
 30
0.0
 10
28.13691173565406
 20
-4.741159895458974
 30
0.0
 10
28.35150356818113
 20
-4.741039328454028
 30
0.0
  0
SPLINE
  5
C5
330
1F
100
AcDbEntity
  8
0
  6
Continuous
 62
     1
370
    15
100
AcDbSpline
210
0.0
220
0.0
230
1.0
 70
     8
 71
     3
 72
    30
 73
    26
 74
     0
 42
0.000000001
 43
0.00000001
 40
0.0
 40
0.0
 40
0.0
 40
0.0
 40
0.1249999999999995
 40
0.1249999999999995
 40
0.2499999999999991
 40
0.2499999999999991
 40
0.3749999999999986
 40
0.3749999999999986
 40
0.4999999999999981
 40
0.4999999999999981
 40
0.5624999999999979
 40
0.5624999999999979
 40
0.6249999999999977
 40
0.6249999999999977
 40
0.6874999999999974
 40
0.6874999999999974
 40
0.7187499999999973
 40
0.7187499999999973
 40
0.7499999999999971
 40
0.7499999999999971
 40
0.8124999999999981
 40
0.8124999999999981
 40
0.8749999999999991
 40
0.8749999999999991
 40
1.0
 40
1.0
 40
1.0
 40
1.0
 10
33.876
 20
1.902765931991186
 30
0.0
 10
34.05260169984233
 20
1.740471503718194
 30
0.0
 10
34.21720957679248
 20
1.560451921736095
 30
0.0
 10
34.53258728688417
 20
1.174748930695695
 30
0.0
 10
34.67674461354219
 20
0.9754711685514011
 30
0.0
 10
34.92865271919121
 20
0.5656735989766705
 30
0.0
 10
35.03371916360683
 20
0.3582680295739115
 30
0.0
 10
35.18986296000592
 20
-0.066282666559027
 30
0.0
 10
35.24082730582995
 20
-0.2854557875180088
 30
0.0
 10
35.28001976903034
 20
-0.6263731537865206
 30
0.0
 10
35.28729929999652
 20
-0.742528588925724
 30
0.0
 10
35.28987516646999
 20
-0.9824971129448157
 30
0.0
 10
35.28520270028396
 20
-1.107461141470181
 30
0.0
 10
35.25741047329246
 20
-1.353975565415627
 30
0.0
 10
35.234151324637
 20
-1.480237122683527
 30
0.0
 10
35.16972931907118
 20
-1.651686785731606
 30
0.0
 10
35.14292721386478
 20
-1.705720872935818
 30
0.0
 10
35.07855453602641
 20
-1.797487073966417
 30
0.0
 10
35.03989097514002
 20
-1.836216266560557
 30
0.0
 10
34.91374626701064
 20
-1.918777154350479
 30
0.0
 10
34.81456667289443
 20
-1.930722790815189
 30
0.0
 10
34.6205399711295
 20
-1.901177318830267
 30
0.0
 10
34.52258945986166
 20
-1.86134437666837
 30
0.0
 10
34.23744765674738
 20
-1.70556375882148
 30
0.0
 10
34.05374474621763
 20
-1.551937789623449
 30
0.0
 10
33.876
 20
-1.381414144846918
 30
0.0
  0
SPLINE
  5
C6
330
1F
100
AcDbEntity
  8
0
  6
Continuous
 62
     1
370
    15
100
AcDbSpline
210
0.0
220
0.0
230
1.0
 70
     8
 71
     3
 72
    17
 73
    13
 74
     0
 42
0.000000001
 43
0.00000001
 40
0.0
 40
0.0
 40
0.0
 40
0.0
 40
0.0978360348342739
 40
0.195338824696476
 40
0.2930112850530194
 40
0.3907759091588013
 40
0.4882650815844423
 40
0.5860491629351999
 40
0.6942889983857465
 40
0.80236234182067
 40
0.9105849978130346
 40
1.0
 40
1.0
 40
1.0
 40
1.0
 10
33.876
 20
-1.381414144846923
 30
0.0
 10
33.58589464549196
 20
-1.10015731952221
 30
0.0
 10
33.00667208108872
 20
-0.5386016739990039
 30
0.0
 10
32.14043814181665
 20
0.3363592333342929
 30
0.0
 10
31.2728614584899
 20
1.195158048530208
 30
0.0
 10
30.40440225612257
 20
2.014459500230192
 30
0.0
 10
29.53840460491443
 20
2.769689079238507
 30
0.0
 10
28.63844882411918
 20
3.454133602167802
 30
0.0
 10
27.70816276884566
 20
4.036880422714043
 30
0.0
 10
26.74805497460015
 20
4.469850007330718
 30
0.0
 10
25.84262463406848
 20
4.725692931601991
 30
0.0
 10
25.25684440108746
 20
4.74139743133033
 30
0.0
 10
24.99182638126477
 20
4.748502443049707
 30
0.0
  0
SPLINE
  5
C7
330
1F
100
AcDbEntity
  8
0
  6
Continuous
 62
     1
370
    15
100
AcDbSpline
210
0.0
220
0.0
230
1.0
 70
     8
 71
     3
 72
     9
 73
     5
 74
     0
 42
0.000000001
 43
0.00000001
 40
0.0
 40
0.0
 40
0.0
 40
0.0
 40
0.4917063586342342
 40
1.0
 40
1.0
 40
1.0
 40
1.0
 10
11.7107432611415
 20
-4.467147768271891
 30
0.0
 10
11.43044960785419
 20
-4.55339641730056
 30
0.0
 10
10.86040684073227
 20
-4.728803237883956
 30
0.0
 10
10.28995635474257
 20
-4.751080586367313
 30
0.0
 10
10.0
 20
-4.762404020947892
 30
0.0
  0
SPLINE
  5
C8
330
1F
100
AcDbEntity
  8
0
  6
Continuous
 62
     1
370
    15
100
AcDbSpline
210
0.0
220
0.0
230
1.0
 70
     8
 71
     3
 72
    11
 73
     7
 74
     0
 42
0.000000001
 43
0.00000001
 40
0.0
 40
0.0
 40
0.0
 40
0.0
 40
0.2564186088227624
 40
0.5125925094505421
 40
0.7683229746512267
 40
1.0
 40
1.0
 40
1.0
 40
1.0
 10
10.00000000000126
 20
-3.606589743712308
 30
0.0
 10
10.28993093702057
 20
-3.784320883897082
 30
0.0
 10
10.86951612101478
 20
-4.139613549952339
 30
0.0
 10
11.73807994069114
 20
-4.499637956566991
 30
0.0
 10
12.57694626786913
 20
-4.726064034844224
 30
0.0
 10
13.12850059554463
 20
-4.746056852506756
 30
0.0
 10
13.39066822413411
 20
-4.755559941019357
 30
0.0
  0
SPLINE
  5
C9
330
1F
100
AcDbEntity
  8
0
  6
Continuous
 62
     1
370
    15
100
AcDbSpline
210
0.0
220
0.0
230
1.0
 70
     8
 71
     3
 72
    16
 73
    12
 74
     0
 42
0.000000001
 43
0.00000001
 40
0.0
 40
0.0
 40
0.0
 40
0.0
 40
0.0105304041433549
 40
0.1438059604322749
 40
0.277286833918707
 40
0.3978737189360151
 40
0.5180969236062528
 40
0.6386598140374263
 40
0.7591090485516171
 40
0.8793490461827759
 40
1.0
 40
1.0
 40
1.0
 40
1.0
 10
26.67245008060603
 20
4.462821602180536
 30
0.0
 10
26.69774013141404
 20
4.473678497570404
 30
0.0
 10
27.04310769720893
 20
4.621943108082812
 30
0.0
 10
27.70809719623347
 20
4.739427802330059
 30
0.0
 10
28.63846452710696
 20
4.785950165649845
 30
0.0
 10
29.53840059317914
 20
4.64073969547572
 30
0.0
 10
30.40440333308006
 20
4.35042805393307
 30
0.0
 10
31.27286116996398
 20
3.916434112178304
 30
0.0
 10
32.14043821856833
 20
3.351784800483883
 30
0.0
 10
33.00667206183822
 20
2.679183155074895
 30
0.0
 10
33.58589463906782
 20
2.161865851424879
 30
0.0
 10
33.876
 20
1.902765931995556
 30
0.0
  0
SPLINE
  5
CA
330
1F
100
AcDbEntity
  8
0
  6
Continuous
 62
     1
370
    15
100
AcDbSpline
210
0.0
220
0.0
230
1.0
 70
    24
 71
     3
 72
    15
 73
    11
 74
     0
 42
0.000000001
 43
0.00000001
 40
0.0
 40
0.0
 40
0.0
 40
0.0
 40
0.0428133721654162
 40
0.1904390902112993
 40
0.3380648082571825
 40
0.4856905263030653
 40
0.633316244348948
 40
0.7809419623948314
 40
0.9285676804407148
 40
1.0
 40
1.0
 40
1.0
 40
1.0
 10
9.999999999999998
 20
-3.422866811656337
 30
0.0
 10
9.999999999999998
 20
-3.419999987710105
 30
0.0
 10
9.999999999999998
 20
-3.407248005875857
 30
0.0
 10
9.999999999999998
 20
-3.453707226243236
 30
0.0
 10
10.0
 20
-3.560754219000561
 30
0.0
 10
9.999999999999998
 20
-3.737674478184064
 30
0.0
 10
9.999999999999998
 20
-3.970391940845921
 30
0.0
 10
9.999999999999998
 20
-4.256694668170994
 30
0.0
 10
9.999999999999998
 20
-4.528137016311895
 30
0.0
 10
9.999999999999998
 20
-4.704797167141453
 30
0.0
 10
9.999999999999998
 20
-4.762404020947903
 30
0.0
  0
SPLINE
  5
CB
330
1F
100
AcDbEntity
  8
0
  6
Continuous
 62
     1
370
    15
100
AcDbSpline
210
0.0
220
0.0
230
1.0
 70
     8
 71
     3
 72
    30
 73
    26
 74
     0
 42
0.000000001
 43
0.00000001
 40
0.0
 40
0.0
 40
0.0
 40
0.0
 40
0.1249999999999995
 40
0.1249999999999995
 40
0.2499999999999991
 40
0.2499999999999991
 40
0.3749999999999986
 40
0.3749999999999986
 40
0.4999999999999981
 40
0.4999999999999981
 40
0.5624999999999979
 40
0.5624999999999979
 40
0.6249999999999977
 40
0.6249999999999977
 40
0.6874999999999974
 40
0.6874999999999974
 40
0.7187499999999974
 40
0.7187499999999974
 40
0.7499999999999973
 40
0.7499999999999973
 40
0.8124999999999983
 40
0.8124999999999983
 40
0.8749999999999993
 40
0.8749999999999993
 40
1.0
 40
1.0
 40
1.0
 40
1.0
 10
33.876
 20
4.732343960708485
 30
0.0
 10
34.05260169984233
 20
4.712452663288995
 30
0.0
 10
34.21720957679248
 20
4.653401443200753
 30
0.0
 10
34.53258728688418
 20
4.463704656779559
 30
0.0
 10
34.67674461354219
 20
4.335525148376354
 30
0.0
 10
34.92865271919121
 20
4.02338460247217
 30
0.0
 10
35.03371916360685
 20
3.841130316228167
 30
0.0
 10
35.18986296000593
 20
3.454368095193824
 30
0.0
 10
35.24082730582995
 20
3.248962794254702
 30
0.0
 10
35.28001976903034
 20
2.962460236991089
 30
0.0
 10
35.28729929999651
 20
2.870042920552887
 30
0.0
 10
35.28987516646999
 20
2.69610908394158
 30
0.0
 10
35.28520270028395
 20
2.613923758012317
 30
0.0
 10
35.25741047329246
 20
2.476494560980052
 30
0.0
 10
35.23415132463698
 20
2.418486532758282
 30
0.0
 10
35.16972931907117
 20
2.372257783032088
 30
0.0
 10
35.14292721386477
 20
2.363995456359028
 30
0.0
 10
35.0785545360264
 20
2.365993635975455
 30
0.0
 10
35.03989097514003
 20
2.376552798850747
 30
0.0
 10
34.91374626701066
 20
2.432638462826434
 30
0.0
 10
34.81456667289443
 20
2.50208348392867
 30
0.0
 10
34.6205399711295
 20
2.651811723922197
 30
0.0
 10
34.52258945986165
 20
2.73397594027017
 30
0.0
 10
34.23744765674737
 20
2.972754117701498
 30
0.0
 10
34.05374474621763
 20
3.126400089302453
 30
0.0
 10
33.876
 20
3.256421745820595
 30
0.0
  0
SPLINE
  5
CC
330
1F
100
AcDbEntity
  8
0
  6
Continuous
 62
     1
370
    15
100
AcDbSpline
210
0.0
220
0.0
230
1.0
 70
     8
 71
     3
 72
    12
 73
     8
 74
     0
 42
0.000000001
 43
0.00000001
 40
0.0
 40
0.0
 40
0.0
 40
0.0
 40
0.223092207757365
 40
0.4454245282536663
 40
0.668143742650953
 40
0.8910731149346208
 40
1.0
 40
1.0
 40
1.0
 40
1.0
 10
33.876
 20
3.256421745820592
 30
0.0
 10
33.58589462749561
 20
3.456978818333366
 30
0.0
 10
33.00667202716095
 20
3.857409834324287
 30
0.0
 10
32.14043835682658
 20
4.305142809637917
 30
0.0
 10
31.27286065022181
 20
4.608765912991882
 30
0.0
 10
30.55181243636298
 20
4.758603792131134
 30
0.0
 10
30.12136641200281
 20
4.746709284902339
 30
0.0
 10
29.98007890096753
 20
4.742805089657778
 30
0.0
  0
SPLINE
  5
CD
330
1F
100
AcDbEntity
  8
0
  6
Continuous
 62
     1
370
    15
100
AcDbSpline
210
0.0
220
0.0
230
1.0
 70
     8
 71
     3
 72
    15
 73
    11
 74
     0
 42
0.000000001
 43
0.00000001
 40
0.0
 40
0.0
 40
0.0
 40
0.0
 40
0.0783736185399174
 40
0.2221461621224724
 40
0.3516536948599827
 40
0.4812011585726615
 40
0.6110885824441807
 40
0.7405347932366602
 40
0.8702054631514548
 40
1.0
 40
1.0
 40
1.0
 40
1.0
 10
16.69809037581885
 20
-4.446882633577894
 30
0.0
 10
16.52319473153533
 20
-4.51087561060866
 30
0.0
 10
16.02746164081765
 20
-4.692260552570168
 30
0.0
 10
15.24078115563958
 20
-4.78164994393691
 30
0.0
 10
14.34247524967632
 20
-4.742135614186093
 30
0.0
 10
13.47489716152626
 20
-4.538751591762545
 30
0.0
 10
12.60497909150519
 20
-4.188489991263411
 30
0.0
 10
11.73810295053508
 20
-3.695670552071574
 30
0.0
 10
10.86951035798512
 20
-3.087183048963547
 30
0.0
 10
10.28992901539856
 20
-2.599150155073312
 30
0.0
 10
10.0
 20
-2.35501721632783
 30
0.0
  0
SPLINE
  5
CE
330
1F
100
AcDbEntity
  8
0
  6
Continuous
 62
     1
370
    15
100
AcDbSpline
210
0.0
220
0.0
230
1.0
 70
     8
 71
     3
 72
    17
 73
    13
 74
     0
 42
0.000000001
 43
0.00000001
 40
0.0
 40
0.0
 40
0.0
 40
0.0
 40
0.1037830131340669
 40
0.2074669829345376
 40
0.3109714764288009
 40
0.414828761526538
 40
0.5184142163108689
 40
0.6219677425023548
 40
0.7369274945939355
 40
0.8516359189387805
 40
0.9662638796665617
 40
1.0
 40
1.0
 40
1.0
 40
1.0
 10
10.00000000000125
 20
0.8902970614085515
 30
0.0
 10
10.28992900031818
 20
0.6029661968214033
 30
0.0
 10
10.86951031275586
 20
0.0285786763621408
 30
0.0
 10
11.73810313112533
 20
-0.8413812328750241
 30
0.0
 10
12.60497841461033
 20
-1.683344849746154
 30
0.0
 10
13.47489969554176
 20
-2.466716231209773
 30
0.0
 10
14.34246582217731
 20
-3.170814913567259
 30
0.0
 10
15.24081796777828
 20
-3.790101132053697
 30
0.0
 10
16.17290747963404
 20
-4.292201574987137
 30
0.0
 10
17.13382138891065
 20
-4.623374414996735
 30
0.0
 10
17.86755088703354
 20
-4.773753721278739
 30
0.0
 10
18.282103387153
 20
-4.748190308031854
 30
0.0
 10
18.37636739585727
 20
-4.742377510356961
 30
0.0
  0
SPLINE
  5
CF
330
1F
100
AcDbEntity
  8
0
  6
Continuous
 62
     1
370
    15
100
AcDbSpline
210
0.0
220
0.0
230
1.0
 70
     8
 71
     3
 72
    10
 73
     6
 74
     0
 42
0.000000001
 43
0.00000001
 40
0.0
 40
0.0
 40
0.0
 40
0.0
 40
0.2168995751020242
 40
0.607781809027978
 40
1.0
 40
1.0
 40
1.0
 40
1.0
 10
31.66003280287794
 20
4.451114036548481
 30
0.0
 10
31.82028930532703
 20
4.508935288942819
 30
0.0
 10
32.26934959934184
 20
4.670958222201052
 30
0.0
 10
33.00663834674179
 20
4.780411521862439
 30
0.0
 10
33.58588338792797
 20
4.748384693519061
 30
0.0
 10
33.876
 20
4.73234396071388
 30
0.0
  0
SPLINE
  5
D0
330
1F
100
AcDbEntity
  8
0
  6
Continuous
 62
     1
370
    15
100
AcDbSpline
210
0.0
220
0.0
230
1.0
 70
    24
 71
     3
 72
    14
 73
    10
 74
     0
 42
0.000000001
 43
0.00000001
 40
0.0
 40
0.0
 40
0.0
 40
0.0
 40
0.25
 40
0.25
 40
0.5
 40
0.5
 40
0.75
 40
0.75
 40
1.0
 40
1.0
 40
1.0
 40
1.0
 10
9.999999999999998
 20
0.8902970614063267
 30
0.0
 10
9.999999999999998
 20
0.7726345461815056
 30
0.0
 10
9.999999999999998
 20
0.6211790746006394
 30
0.0
 10
9.999999999999998
 20
0.2246348371757304
 30
0.0
 10
9.999999999999998
 20
-0.0218438937969715
 30
0.0
 10
9.999999999999998
 20
-0.6109067794803934
 30
0.0
 10
9.999999999999998
 20
-0.954695929249475
 30
0.0
 10
9.999999999999998
 20
-1.669693013512128
 30
0.0
 10
9.999999999999998
 20
-2.038201887840725
 30
0.0
 10
9.999999999999998
 20
-2.35501721632784
 30
0.0
  0
LINE
  5
D1
330
1F
100
AcDbEntity
  8
0
  6
Continuous
 62
     1
370
    15
100
AcDbLine
 10
9.999999999999998
 20
0.8902970614063535
 30
0.0
 11
9.999999999999998
 21
2.407386804620021
 31
0.0
  0
LINE
  5
D2
330
1F
100
AcDbEntity
  8
0
  6
Continuous
 62
     1
370
    15
100
AcDbLine
 10
9.999999999999995
 20
4.496886805115563
 30
0.0
 11
9.999999999999998
 21
4.762500000000004
 31
0.0
  0
LINE
  5
D5
330
1F
100
AcDbEntity
  8
0
  6
Continuous
 62
     1
370
    15
100
AcDbLine
 10
35.39999999999999
 20
0.0000000000000042
 30
0.0
 11
35.39999999999999
 21
4.000500000000003
 31
0.0
  0
LINE
  5
D6
330
1F
100
AcDbEntity
  8
0
  6
Continuous
 62
     1
370
    15
100
AcDbLine
 10
35.39999999999999
 20
-4.000499999999995
 30
0.0
 11
35.39999999999999
 21
0.0000000000000042
 31
0.0
  0
LINE
  5
D7
330
1F
100
AcDbEntity
  8
0
  6
Continuous
 62
     1
370
    15
100
AcDbLine
 10
9.999999999999996
 20
-3.60658974370924
 30
0.0
 11
9.999999999999998
 21
-2.355017216327838
 31
0.0
  0
LINE
  5
D9
330
1F
100
AcDbEntity
  8
0
  6
Continuous
 62
     8
370
    15
100
AcDbLine
 10
33.876
 20
4.732343960713881
 30
0.0
 11
33.876
 21
4.762500000000004
 31
0.0
  0
LINE
  5
DB
330
1F
100
AcDbEntity
  8
중심선
100
AcDbLine
 10
-43.80000000000001
 20
0.0
 30
0.0
 11
38.4
 21
0.0
 31
0.0
  0
CIRCLE
  5
DC
330
1F
100
AcDbEntity
  8
외형선
100
AcDbCircle
 10
0.0
 20
0.0
 30
0.0
 40
3.000000000000001
  0
INSERT
  5
DD
330
1F
100
AcDbEntity
  8
0
  6
Continuous
 62
     7
100
AcDbBlockReference
 66
     1
  2
블럭10
 10
-16.62936049909349
 20
-51.78679627639981
 30
0.0
  0
ATTRIB
  5
DE
330
DD
100
AcDbEntity
  8
FORMAT
 62
     2
100
AcDbText
 10
-27.68038085127795
 20
-49.71142936356762
 30
0.0
 40
4.233333333333333
  1
GMG22909[ 6 FLUTE ]
 41
0.75
  7
SLDTEXTSTYLE0
 11
-27.68038085127795
 21
-51.82809603023429
 31
0.0
100
AcDbAttribute
  2
AUTOATTR0
 70
     0
 74
     1
  0
SEQEND
  5
DF
330
DD
100
AcDbEntity
  8
0
  6
Continuous
 62
     7
  0
HATCH
  5
E0
330
1F
100
AcDbEntity
  8
중심선
100
AcDbHatch
 10
0.0
 20
0.0
 30
0.0
210
0.0
220
0.0
230
1.0
  2
SOLID
 70
     1
 71
     0
 91
        1
 92
        0
 93
        4
 72
     1
 10
-10.91445119471263
 20
-35.53962197475587
 11
-14.36072643854992
 21
-35.53962197475587
 72
     1
 10
-14.36072643854992
 20
-35.53962197475587
 11
-16.48895629775394
 21
-38.07594755532847
 72
     1
 10
-16.48895629775394
 20
-38.07594755532847
 11
-13.04264796880351
 21
-38.07590812602598
 72
     1
 10
-13.04264796880351
 20
-38.07590812602598
 11
-10.91445119471263
 21
-35.53962197475587
 97
        0
 75
     0
 76
     1
 98
        1
 10
0.0004859200744764
 20
0.2622744311706917
  0
HATCH
  5
E1
330
1F
100
AcDbEntity
  8
중심선
100
AcDbHatch
 10
0.0
 20
0.0
 30
0.0
210
0.0
220
0.0
230
1.0
  2
SOLID
 70
     1
 71
     0
 91
        1
 92
        0
 93
        4
 72
     1
 10
-5.901687203676683
 20
-35.53962197475587
 11
-9.347962447513964
 21
-35.53962197475587
 72
     1
 10
-9.347962447513964
 20
-35.53962197475587
 11
-13.87910045587135
 21
-40.93962197475589
 72
     1
 10
-13.87910045587135
 20
-40.93962197475589
 11
-10.43282521203407
 21
-40.93962197475589
 72
     1
 10
-10.43282521203407
 20
-40.93962197475589
 11
-5.901687203676683
 21
-35.53962197475588
 97
        0
 75
     0
 76
     1
 98
        1
 10
0.0004859200744764
 20
0.2622744311706917
  0
HATCH
  5
E2
330
1F
100
AcDbEntity
  8
중심선
100
AcDbHatch
 10
0.0
 20
0.0
 30
0.0
210
0.0
220
0.0
230
1.0
  2
SOLID
 70
     1
 71
     0
 91
        1
 92
        0
 93
        4
 72
     1
 10
-0.8889232126407867
 20
-35.5396219747559
 11
-4.335198456477903
 21
-35.53962197475587
 72
     1
 10
-4.335198456477903
 20
-35.53962197475587
 11
-11.38363535836715
 21
-43.93962197475589
 72
     1
 10
-11.38363535836715
 20
-43.93962197475589
 11
-7.937360114529869
 21
-43.93962197475589
 72
     1
 10
-7.937360114529869
 20
-43.93962197475589
 11
-0.8889232126407869
 21
-35.5396219747559
 97
        0
 75
     0
 76
     1
 98
        1
 10
0.0004859200744764
 20
0.2622744311706917
  0
HATCH
  5
E3
330
1F
100
AcDbEntity
  8
중심선
100
AcDbHatch
 10
0.0
 20
0.0
 30
0.0
210
0.0
220
0.0
230
1.0
  2
SOLID
 70
     1
 71
     0
 91
        1
 92
        0
 93
        6
 72
     3
 10
3.910967218371413
 20
-39.73962197480715
 11
3.960054785062283
 21
1.540882976769353E-10
 40
0.3939339440162628
 50
17.09539180608437
 51
320.0019657685082
 73
     0
 72
     1
 10
5.593966874072008
 20
-38.32751597939418
 11
7.899268747773046
 21
-36.39318926934625
 72
     3
 10
3.910967218318566
 20
-39.73962197475602
 11
6.600054785286829
 21
-1.278976924368180E-13
 40
0.636358354079598
 50
39.99873849337404
 51
368.4976242363725
 73
     1
 72
     1
 10
10.33629971021917
 20
-38.7796219746859
 11
2.591034525154488
 21
-38.77962197468587
 72
     1
 10
2.591034525154488
 20
-38.77962197468587
 11
2.591009480708554
 21
-40.69962197468579
 72
     1
 10
2.591009480708554
 20
-40.6996219746858
 11
7.032389250180591
 21
-40.69962197468577
 97
        0
 75
     0
 76
     1
 98
        1
 10
0.0004859200744764
 20
0.2622744311706917
  0
POINT
  5
E4
330
1F
100
AcDbEntity
  8
치수문자_일반주서
100
AcDbPoint
 10
0.0
 20
0.0
 30
0.0
  0
DIMENSION
  5
E5
330
1F
100
AcDbEntity
  8
치수문자_일반주서
100
AcDbDimension
  2
_D
 10
52.19006324028953
 20
4.762500000000074
 30
0.0
 11
52.19006324028955
 21
1.090946215346473
 31
0.0
 70
   160
  1
%%c<>
 71
     2
 42
9.525
 52
-270.0
  3
SLDDIMSTYLE0
100
AcDbAlignedDimension
 13
33.876
 23
-4.762499999999995
 33
0.0
 14
33.54481752451656
 24
4.762500000000003
 34
0.0
 50
90.0000000000002
100
AcDbRotatedDimension
1001
ACAD
1000
DSTYLE
1002
{
1070
   171
1070
     3
1070
   273
1070
     7
1002
}
  0
DIMENSION
  5
FA
330
1F
100
AcDbEntity
  8
치수문자_일반주서
100
AcDbDimension
  2
_D_1
 10
35.39999999999999
 20
37.41805141807178
 30
0.0
 11
-2.700000000000003
 21
37.41805141807178
 31
0.0
 70
   160
  1
<>
 71
     2
 42
76.2
  3
SLDDIMSTYLE1
100
AcDbAlignedDimension
 13
-40.80000000000001
 23
4.262499999999998
 33
0.0
 14
35.39999999999999
 24
3.238500000000005
 34
0.0
100
AcDbRotatedDimension
1001
ACAD
1000
DSTYLE
1002
{
1070
   171
1070
     3
1070
   273
1070
     7
1002
}
  0
DIMENSION
  5
10E
330
1F
100
AcDbEntity
  8
치수문자_일반주서
100
AcDbDimension
  2
_D_2
 10
9.999999999999998
 20
20.86549453033794
 30
0.0
 11
22.42060113190148
 21
20.86549453033794
 31
0.0
 70
   160
  1
<>
 71
     2
 42
25.39999999999999
  3
SLDDIMSTYLE2
100
AcDbAlignedDimension
 13
35.39999999999999
 23
3.238500000000005
 33
0.0
 14
9.999999999999998
 24
-4.762404020947896
 34
0.0
 50
-0.000000000000008
100
AcDbRotatedDimension
1001
ACAD
1000
DSTYLE
1002
{
1070
   171
1070
     3
1070
   273
1070
     7
1002
}
  0
DIMENSION
  5
124
330
1F
100
AcDbEntity
  8
치수문자_일반주서
100
AcDbDimension
  2
_D_3
 10
-53.8
 20
-4.762500000000047
 30
0.0
 11
-53.80000000000003
 21
0.0000000000000009
 31
0.0
 70
   160
  1
%%c<>
 71
     2
 42
9.525
 52
-270.0
  3
SLDDIMSTYLE0
100
AcDbAlignedDimension
 13
-40.30000000000001
 23
4.762500000000002
 33
0.0
 14
-40.30000000000001
 24
-4.762499999999998
 34
0.0
 50
90.0000000000002
100
AcDbRotatedDimension
1001
ACAD
1000
DSTYLE
1002
{
1070
   171
1070
     3
1070
   273
1070
     7
1002
}
  0
INSERT
  5
13E
330
1F
100
AcDbEntity
  8
외형선
100
AcDbBlockReference
  2
SW_DOWELSYMBOL_0
 10
0.0
 20
0.0
 30
0.0
  0
ARC
  5
164
102
{ACAD_REACTORS
102
}
330
1F
100
AcDbEntity
  8
0
  6
Continuous
 62
     1
370
    15
100
AcDbCircle
 10
34.63799999999999
 20
4.000500000000003
 30
0.0
 40
0.7620000000000002
100
AcDbArc
 50
0.0
 51
90.0
  0
ARC
  5
165
330
1F
100
AcDbEntity
  8
0
  6
Continuous
 62
     1
370
    15
100
AcDbCircle
 10
34.63799999999999
 20
-4.000499999999995
 30
0.0
 40
0.7620000000000002
100
AcDbArc
 50
270.0
 51
0.0
  0
DIMENSION
  5
167
102
{ACAD_REACTORS
102
}
102
{ACAD_XDICTIONARY
360
168
102
}
330
1F
100
AcDbEntity
  8
치수문자_일반주서
100
AcDbDimension
  2
*D7
 10
34.63799999999999
 20
4.000500000000003
 30
0.0
 11
48.71413302277158
 21
21.1575796148771
 31
0.0
 70
   164
  1
<>
 71
     5
 42
0.7620000000000008
  3
SLDDIMSTYLE2
100
AcDbRadialDimension
 15
35.12131907637345
 25
4.589606671506541
 35
0.0
 40
0.0
1001
ACAD
1000
DSTYLE
1002
{
1070
   171
1070
     3
1070
   273
1070
     2
1002
}
1001
ACAD_DSTYLE_DIMRADIAL_EXTENSION
1070
   387
1070
     1
1070
   388
1040
0.0
1070
   390
1040
1.570796326794897
  0
ENDSEC
  0
SECTION
  2
OBJECTS
  0
DICTIONARY
  5
C
330
0
100
AcDbDictionary
281
     1
  3
ACAD_GROUP
350
D
  3
ACAD_IMAGE_VARS
350
162
  3
ACAD_LAYOUT
350
1A
  3
ACAD_MLINESTYLE
350
17
  3
ACAD_PLOTSETTINGS
350
19
  3
ACAD_PLOTSTYLENAME
350
E
  3
ACAD_SCALELIST
350
47
  3
APPDATA
350
160
  3
DWGPROPS
350
174
  0
DICTIONARY
  5
168
330
167
100
AcDbDictionary
280
     1
281
     1
  0
DICTIONARY
  5
D
102
{ACAD_REACTORS
330
C
102
}
330
C
100
AcDbDictionary
281
     1
  0
RASTERVARIABLES
  5
162
102
{ACAD_REACTORS
330
C
102
}
330
C
100
AcDbRasterVariables
 90
        0
 70
     1
 71
     1
 72
     1
  0
DICTIONARY
  5
1A
102
{ACAD_REACTORS
330
C
102
}
330
C
100
AcDbDictionary
281
     1
  3
Layout1
350
1E
  3
Layout2
350
26
  3
Model
350
22
  0
DICTIONARY
  5
17
102
{ACAD_REACTORS
330
C
102
}
330
C
100
AcDbDictionary
281
     1
  3
Standard
350
18
  0
DICTIONARY
  5
19
102
{ACAD_REACTORS
330
C
102
}
330
C
100
AcDbDictionary
281
     1
  0
ACDBDICTIONARYWDFLT
  5
E
102
{ACAD_REACTORS
330
C
102
}
330
C
100
AcDbDictionary
281
     1
  3
Normal
350
F
100
AcDbDictionaryWithDefault
340
F
  0
DICTIONARY
  5
47
102
{ACAD_REACTORS
330
C
102
}
330
C
100
AcDbDictionary
281
     1
  3
A0
350
48
  3
A1
350
49
  3
A2
350
4A
  3
A3
350
4B
  3
A4
350
4C
  3
A5
350
4D
  3
A6
350
4E
  3
A7
350
4F
  3
A8
350
50
  3
A9
350
51
  3
B0
350
52
  3
B1
350
53
  3
B2
350
54
  3
B3
350
55
  3
B4
350
56
  3
B5
350
57
  3
B6
350
58
  3
B7
350
59
  3
B8
350
5A
  3
B9
350
5B
  3
C0
350
5C
  3
C1
350
5D
  3
C2
350
5E
  3
C3
350
5F
  3
C4
350
60
  3
C5
350
61
  3
C6
350
62
  3
C7
350
63
  3
C8
350
64
  3
C9
350
65
  3
D0
350
66
  3
D1
350
67
  3
D2
350
68
  0
DICTIONARY
  5
160
102
{ACAD_REACTORS
330
C
102
}
330
C
100
AcDbDictionary
281
     1
  0
XRECORD
  5
174
102
{ACAD_REACTORS
330
C
102
}
330
C
100
AcDbXrecord
280
     1
  1
DWGPROPS COOKIE
  2

  3

  4

  6

  7

  8
12016016
  9

300
=
301
=
302
=
303
=
304
=
305
=
306
=
307
=
308
=
309
=
 40
0.0
 41
2458236.366823148
 42
2458241.290840845
  1

 90
        0
  0
LAYOUT
  5
1E
102
{ACAD_REACTORS
330
1A
102
}
330
1A
100
AcDbPlotSettings
  1

  2
none_device
  4

  6

 40
0.0
 41
0.0
 42
0.0
 43
0.0
 44
0.0
 45
0.0
 46
0.0
 47
0.0
 48
0.0
 49
0.0
140
0.0
141
0.0
142
1.0
143
1.0
 70
   688
 72
     1
 73
     0
 74
     5
  7

 75
    16
147
1.0
148
0.0
149
0.0
100
AcDbLayout
  1
Layout1
 70
     1
 71
     1
 10
0.0
 20
0.0
 11
420.0
 21
297.0
 12
0.0
 22
0.0
 32
0.0
 14
1.000000000000000E+20
 24
1.000000000000000E+20
 34
1.000000000000000E+20
 15
-1.000000000000000E+20
 25
-1.000000000000000E+20
 35
-1.000000000000000E+20
146
0.0
 13
0.0
 23
0.0
 33
0.0
 16
1.0
 26
0.0
 36
0.0
 17
0.0
 27
1.0
 37
0.0
 76
     0
330
1B
  0
LAYOUT
  5
26
102
{ACAD_REACTORS
330
1A
102
}
330
1A
100
AcDbPlotSettings
  1

  2
none_device
  4

  6

 40
0.0
 41
0.0
 42
0.0
 43
0.0
 44
0.0
 45
0.0
 46
0.0
 47
0.0
 48
0.0
 49
0.0
140
0.0
141
0.0
142
1.0
143
1.0
 70
   688
 72
     1
 73
     0
 74
     5
  7

 75
    16
147
1.0
148
0.0
149
0.0
100
AcDbLayout
  1
Layout2
 70
     1
 71
     2
 10
0.0
 20
0.0
 11
0.0
 21
0.0
 12
0.0
 22
0.0
 32
0.0
 14
0.0
 24
0.0
 34
0.0
 15
0.0
 25
0.0
 35
0.0
146
0.0
 13
0.0
 23
0.0
 33
0.0
 16
1.0
 26
0.0
 36
0.0
 17
0.0
 27
1.0
 37
0.0
 76
     0
330
23
  0
LAYOUT
  5
22
102
{ACAD_REACTORS
330
1A
102
}
330
1A
100
AcDbPlotSettings
  1

  2
none_device
  4
ANSI_A_(11.00_x_8.50_Inches)
  6

 40
6.35
 41
19.05
 42
6.35000508
 43
19.05000254
 44
279.4
 45
215.9
 46
130.0565626932801
 47
91.79381710424715
 48
0.0
 49
0.0
140
0.0
141
0.0
142
0.0822892103079729
143
1.0
 70
  1696
 72
     0
 73
     0
 74
     0
  7

 75
     0
147
0.0235690232323232
148
0.0
149
0.0
100
AcDbLayout
  1
Model
 70
     1
 71
     0
 10
0.0
 20
0.0
 11
420.0
 21
297.0
 12
0.0
 22
0.0
 32
0.0
 14
-58.17500000000008
 24
-49.71142936356762
 34
0.0
 15
57.73275916080972
 25
41.79305141807178
 35
0.0
146
0.0
 13
0.0
 23
0.0
 33
0.0
 16
1.0
 26
0.0
 36
0.0
 17
0.0
 27
1.0
 37
0.0
 76
     0
330
1F
331
29
  0
MLINESTYLE
  5
18
102
{ACAD_REACTORS
330
17
102
}
330
17
100
AcDbMlineStyle
  2
Standard
 70
     0
  3

 62
   256
 51
90.0
 52
90.0
 71
     2
 49
0.5
 62
   256
  6
BYLAYER
 49
-0.5
 62
   256
  6
BYLAYER
  0
ACDBPLACEHOLDER
  5
F
102
{ACAD_REACTORS
330
E
102
}
330
E
  0
SCALE
  5
48
102
{ACAD_REACTORS
330
47
102
}
330
47
100
AcDbScale
 70
     0
300
1:1
140
1.0
141
1.0
290
     1
  0
SCALE
  5
49
102
{ACAD_REACTORS
330
47
102
}
330
47
100
AcDbScale
 70
     0
300
1:2
140
1.0
141
2.0
290
     0
  0
SCALE
  5
4A
102
{ACAD_REACTORS
330
47
102
}
330
47
100
AcDbScale
 70
     0
300
1:4
140
1.0
141
4.0
290
     0
  0
SCALE
  5
4B
102
{ACAD_REACTORS
330
47
102
}
330
47
100
AcDbScale
 70
     0
300
1:5
140
1.0
141
5.0
290
     0
  0
SCALE
  5
4C
102
{ACAD_REACTORS
330
47
102
}
330
47
100
AcDbScale
 70
     0
300
1:8
140
1.0
141
8.0
290
     0
  0
SCALE
  5
4D
102
{ACAD_REACTORS
330
47
102
}
330
47
100
AcDbScale
 70
     0
300
1:10
140
1.0
141
10.0
290
     0
  0
SCALE
  5
4E
102
{ACAD_REACTORS
330
47
102
}
330
47
100
AcDbScale
 70
     0
300
1:16
140
1.0
141
16.0
290
     0
  0
SCALE
  5
4F
102
{ACAD_REACTORS
330
47
102
}
330
47
100
AcDbScale
 70
     0
300
1:20
140
1.0
141
20.0
290
     0
  0
SCALE
  5
50
102
{ACAD_REACTORS
330
47
102
}
330
47
100
AcDbScale
 70
     0
300
1:30
140
1.0
141
30.0
290
     0
  0
SCALE
  5
51
102
{ACAD_REACTORS
330
47
102
}
330
47
100
AcDbScale
 70
     0
300
1:40
140
1.0
141
40.0
290
     0
  0
SCALE
  5
52
102
{ACAD_REACTORS
330
47
102
}
330
47
100
AcDbScale
 70
     0
300
1:50
140
1.0
141
50.0
290
     0
  0
SCALE
  5
53
102
{ACAD_REACTORS
330
47
102
}
330
47
100
AcDbScale
 70
     0
300
1:100
140
1.0
141
100.0
290
     0
  0
SCALE
  5
54
102
{ACAD_REACTORS
330
47
102
}
330
47
100
AcDbScale
 70
     0
300
2:1
140
2.0
141
1.0
290
     0
  0
SCALE
  5
55
102
{ACAD_REACTORS
330
47
102
}
330
47
100
AcDbScale
 70
     0
300
4:1
140
4.0
141
1.0
290
     0
  0
SCALE
  5
56
102
{ACAD_REACTORS
330
47
102
}
330
47
100
AcDbScale
 70
     0
300
8:1
140
8.0
141
1.0
290
     0
  0
SCALE
  5
57
102
{ACAD_REACTORS
330
47
102
}
330
47
100
AcDbScale
 70
     0
300
10:1
140
10.0
141
1.0
290
     0
  0
SCALE
  5
58
102
{ACAD_REACTORS
330
47
102
}
330
47
100
AcDbScale
 70
     0
300
100:1
140
100.0
141
1.0
290
     0
  0
SCALE
  5
59
102
{ACAD_REACTORS
330
47
102
}
330
47
100
AcDbScale
 70
     0
300
1/128" = 1'-0"
140
0.0078125
141
12.0
290
     0
  0
SCALE
  5
5A
102
{ACAD_REACTORS
330
47
102
}
330
47
100
AcDbScale
 70
     0
300
1/64" = 1'-0"
140
0.015625
141
12.0
290
     0
  0
SCALE
  5
5B
102
{ACAD_REACTORS
330
47
102
}
330
47
100
AcDbScale
 70
     0
300
1/32" = 1'-0"
140
0.03125
141
12.0
290
     0
  0
SCALE
  5
5C
102
{ACAD_REACTORS
330
47
102
}
330
47
100
AcDbScale
 70
     0
300
1/16" = 1'-0"
140
0.0625
141
12.0
290
     0
  0
SCALE
  5
5D
102
{ACAD_REACTORS
330
47
102
}
330
47
100
AcDbScale
 70
     0
300
3/32" = 1'-0"
140
0.09375
141
12.0
290
     0
  0
SCALE
  5
5E
102
{ACAD_REACTORS
330
47
102
}
330
47
100
AcDbScale
 70
     0
300
1/8" = 1'-0"
140
0.125
141
12.0
290
     0
  0
SCALE
  5
5F
102
{ACAD_REACTORS
330
47
102
}
330
47
100
AcDbScale
 70
     0
300
3/16" = 1'-0"
140
0.1875
141
12.0
290
     0
  0
SCALE
  5
60
102
{ACAD_REACTORS
330
47
102
}
330
47
100
AcDbScale
 70
     0
300
1/4" = 1'-0"
140
0.25
141
12.0
290
     0
  0
SCALE
  5
61
102
{ACAD_REACTORS
330
47
102
}
330
47
100
AcDbScale
 70
     0
300
3/8" = 1'-0"
140
0.375
141
12.0
290
     0
  0
SCALE
  5
62
102
{ACAD_REACTORS
330
47
102
}
330
47
100
AcDbScale
 70
     0
300
1/2" = 1'-0"
140
0.5
141
12.0
290
     0
  0
SCALE
  5
63
102
{ACAD_REACTORS
330
47
102
}
330
47
100
AcDbScale
 70
     0
300
3/4" = 1'-0"
140
0.75
141
12.0
290
     0
  0
SCALE
  5
64
102
{ACAD_REACTORS
330
47
102
}
330
47
100
AcDbScale
 70
     0
300
1" = 1'-0"
140
1.0
141
12.0
290
     0
  0
SCALE
  5
65
102
{ACAD_REACTORS
330
47
102
}
330
47
100
AcDbScale
 70
     0
300
1-1/2" = 1'-0"
140
1.5
141
12.0
290
     0
  0
SCALE
  5
66
102
{ACAD_REACTORS
330
47
102
}
330
47
100
AcDbScale
 70
     0
300
3" = 1'-0"
140
3.0
141
12.0
290
     0
  0
SCALE
  5
67
102
{ACAD_REACTORS
330
47
102
}
330
47
100
AcDbScale
 70
     0
300
6" = 1'-0"
140
6.0
141
12.0
290
     0
  0
SCALE
  5
68
102
{ACAD_REACTORS
330
47
102
}
330
47
100
AcDbScale
 70
     0
300
1'-0" = 1'-0"
140
12.0
141
12.0
290
     0
  0
ENDSEC
  0
EOF
