  0
SECTION
  2
HEADER
  9
$ACADVER
  1
AC1015
  9
$ACADMAINTVER
 70
     6
  9
$DWGCODEPAGE
  3
ANSI_949
  9
$INSBASE
 10
0.0
 20
0.0
 30
0.0
  9
$EXTMIN
 10
-69.70000000000005
 20
-49.71142936356762
 30
0.0
  9
$EXTMAX
 10
70.59115006503879
 20
40.99930141807179
 30
0.0
  9
$LIMMIN
 10
0.0
 20
0.0
  9
$LIMMAX
 10
420.0
 20
297.0
  9
$ORTHOMODE
 70
     0
  9
$REGENMODE
 70
     1
  9
$FILLMODE
 70
     1
  9
$QTEXTMODE
 70
     0
  9
$MIRRTEXT
 70
     1
  9
$LTSCALE
 40
1.0
  9
$ATTMODE
 70
     1
  9
$TEXTSIZE
 40
3.5
  9
$TRACEWID
 40
1.0
  9
$TEXTSTYLE
  7
Standard
  9
$CLAYER
  8
0
  9
$CELTYPE
  6
ByLayer
  9
$CECOLOR
 62
   256
  9
$CELTSCALE
 40
1.0
  9
$DISPSILH
 70
     0
  9
$DIMSCALE
 40
1.0
  9
$DIMASZ
 40
3.302
  9
$DIMEXO
 40
1.0
  9
$DIMDLI
 40
3.75
  9
$DIMRND
 40
0.0
  9
$DIMDLE
 40
0.0
  9
$DIMEXE
 40
1.0
  9
$DIMTP
 40
0.0
  9
$DIMTM
 40
0.0
  9
$DIMTXT
 40
3.5
  9
$DIMCEN
 40
2.5
  9
$DIMTSZ
 40
0.0
  9
$DIMTOL
 70
     0
  9
$DIMLIM
 70
     0
  9
$DIMTIH
 70
     1
  9
$DIMTOH
 70
     1
  9
$DIMSE1
 70
     0
  9
$DIMSE2
 70
     0
  9
$DIMTAD
 70
     1
  9
$DIMZIN
 70
     0
  9
$DIMBLK
  1

  9
$DIMASO
 70
     1
  9
$DIMSHO
 70
     1
  9
$DIMPOST
  1

  9
$DIMAPOST
  1

  9
$DIMALT
 70
     0
  9
$DIMALTD
 70
     3
  9
$DIMALTF
 40
0.0393700787401575
  9
$DIMLFAC
 40
1.0
  9
$DIMTOFL
 70
     1
  9
$DIMTVP
 40
0.0
  9
$DIMTIX
 70
     0
  9
$DIMSOXD
 70
     0
  9
$DIMSAH
 70
     0
  9
$DIMBLK1
  1

  9
$DIMBLK2
  1

  9
$DIMSTYLE
  2
ISO-25
  9
$DIMCLRD
 70
     0
  9
$DIMCLRE
 70
     0
  9
$DIMCLRT
 70
     0
  9
$DIMTFAC
 40
1.0
  9
$DIMGAP
 40
1.524
  9
$DIMJUST
 70
     0
  9
$DIMSD1
 70
     0
  9
$DIMSD2
 70
     0
  9
$DIMTOLJ
 70
     0
  9
$DIMTZIN
 70
     0
  9
$DIMALTZ
 70
     0
  9
$DIMALTTZ
 70
     0
  9
$DIMUPT
 70
     0
  9
$DIMDEC
 70
     2
  9
$DIMTDEC
 70
     2
  9
$DIMALTU
 70
     2
  9
$DIMALTTD
 70
     3
  9
$DIMTXSTY
  7
Standard
  9
$DIMAUNIT
 70
     0
  9
$DIMADEC
 70
     2
  9
$DIMALTRND
 40
0.0
  9
$DIMAZIN
 70
     0
  9
$DIMDSEP
 70
    44
  9
$DIMATFIT
 70
     3
  9
$DIMFRAC
 70
     0
  9
$DIMLDRBLK
  1

  9
$DIMLUNIT
 70
     2
  9
$DIMLWD
 70
    -2
  9
$DIMLWE
 70
    -2
  9
$DIMTMOVE
 70
     0
  9
$LUNITS
 70
     2
  9
$LUPREC
 70
     2
  9
$SKETCHINC
 40
1.0
  9
$FILLETRAD
 40
10.0
  9
$AUNITS
 70
     0
  9
$AUPREC
 70
     2
  9
$MENU
  1
.
  9
$ELEVATION
 40
0.0
  9
$PELEVATION
 40
0.0
  9
$THICKNESS
 40
0.0
  9
$LIMCHECK
 70
     0
  9
$CHAMFERA
 40
0.0
  9
$CHAMFERB
 40
0.0
  9
$CHAMFERC
 40
0.0
  9
$CHAMFERD
 40
0.0
  9
$SKPOLY
 70
     0
  9
$TDCREATE
 40
2458236.741669502
  9
$TDUCREATE
 40
2458236.366669502
  9
$TDUPDATE
 40
2458241.667226586
  9
$TDUUPDATE
 40
2458241.292226586
  9
$TDINDWG
 40
0.0013684375
  9
$TDUSRTIMER
 40
2458241.29085838
  9
$USRTIMER
 70
     1
  9
$ANGBASE
 50
0.0
  9
$ANGDIR
 70
     0
  9
$PDMODE
 70
     0
  9
$PDSIZE
 40
-1.0
  9
$PLINEWID
 40
0.0
  9
$SPLFRAME
 70
     0
  9
$SPLINETYPE
 70
     6
  9
$SPLINESEGS
 70
     8
  9
$HANDSEED
  5
19D
  9
$SURFTAB1
 70
     6
  9
$SURFTAB2
 70
     6
  9
$SURFTYPE
 70
     6
  9
$SURFU
 70
     6
  9
$SURFV
 70
     6
  9
$UCSBASE
  2

  9
$UCSNAME
  2

  9
$UCSORG
 10
0.0
 20
0.0
 30
0.0
  9
$UCSXDIR
 10
1.0
 20
0.0
 30
0.0
  9
$UCSYDIR
 10
0.0
 20
1.0
 30
0.0
  9
$UCSORTHOREF
  2

  9
$UCSORTHOVIEW
 70
     0
  9
$UCSORGTOP
 10
0.0
 20
0.0
 30
0.0
  9
$UCSORGBOTTOM
 10
0.0
 20
0.0
 30
0.0
  9
$UCSORGLEFT
 10
0.0
 20
0.0
 30
0.0
  9
$UCSORGRIGHT
 10
0.0
 20
0.0
 30
0.0
  9
$UCSORGFRONT
 10
0.0
 20
0.0
 30
0.0
  9
$UCSORGBACK
 10
0.0
 20
0.0
 30
0.0
  9
$PUCSBASE
  2

  9
$PUCSNAME
  2

  9
$PUCSORG
 10
0.0
 20
0.0
 30
0.0
  9
$PUCSXDIR
 10
1.0
 20
0.0
 30
0.0
  9
$PUCSYDIR
 10
0.0
 20
1.0
 30
0.0
  9
$PUCSORTHOREF
  2

  9
$PUCSORTHOVIEW
 70
     0
  9
$PUCSORGTOP
 10
0.0
 20
0.0
 30
0.0
  9
$PUCSORGBOTTOM
 10
0.0
 20
0.0
 30
0.0
  9
$PUCSORGLEFT
 10
0.0
 20
0.0
 30
0.0
  9
$PUCSORGRIGHT
 10
0.0
 20
0.0
 30
0.0
  9
$PUCSORGFRONT
 10
0.0
 20
0.0
 30
0.0
  9
$PUCSORGBACK
 10
0.0
 20
0.0
 30
0.0
  9
$USERI1
 70
     0
  9
$USERI2
 70
     0
  9
$USERI3
 70
     0
  9
$USERI4
 70
     0
  9
$USERI5
 70
     0
  9
$USERR1
 40
0.0
  9
$USERR2
 40
0.0
  9
$USERR3
 40
0.0
  9
$USERR4
 40
0.0
  9
$USERR5
 40
0.0
  9
$WORLDVIEW
 70
     1
  9
$SHADEDGE
 70
     3
  9
$SHADEDIF
 70
    70
  9
$TILEMODE
 70
     1
  9
$MAXACTVP
 70
    64
  9
$PINSBASE
 10
0.0
 20
0.0
 30
0.0
  9
$PLIMCHECK
 70
     0
  9
$PEXTMIN
 10
1.000000000000000E+20
 20
1.000000000000000E+20
 30
1.000000000000000E+20
  9
$PEXTMAX
 10
-1.000000000000000E+20
 20
-1.000000000000000E+20
 30
-1.000000000000000E+20
  9
$PLIMMIN
 10
0.0
 20
0.0
  9
$PLIMMAX
 10
0.0
 20
0.0
  9
$UNITMODE
 70
     0
  9
$VISRETAIN
 70
     1
  9
$PLINEGEN
 70
     0
  9
$PSLTSCALE
 70
     1
  9
$TREEDEPTH
 70
  3020
  9
$CMLSTYLE
  2
Standard
  9
$CMLJUST
 70
     0
  9
$CMLSCALE
 40
20.0
  9
$PROXYGRAPHICS
 70
     1
  9
$MEASUREMENT
 70
     1
  9
$CELWEIGHT
370
    -1
  9
$ENDCAPS
280
     0
  9
$JOINSTYLE
280
     0
  9
$LWDISPLAY
290
     1
  9
$INSUNITS
 70
     4
  9
$HYPERLINKBASE
  1

  9
$STYLESHEET
  1

  9
$XEDIT
290
     1
  9
$CEPSNTYPE
380
     0
  9
$PSTYLEMODE
290
     1
  9
$FINGERPRINTGUID
  2
{33E71EBB-748E-4E99-86A6-4CA62B04B4FA}
  9
$VERSIONGUID
  2
{FAEB1C32-E019-11D5-929B-00C0DF256EC4}
  9
$EXTNAMES
290
     1
  9
$PSVPSCALE
 40
0.0
  9
$OLESTARTUP
290
     0
  0
ENDSEC
  0
SECTION
  2
CLASSES
  0
CLASS
  1
ACDBDICTIONARYWDFLT
  2
AcDbDictionaryWithDefault
  3
ObjectDBX Classes
 90
        0
280
     0
281
     0
  0
CLASS
  1
VISUALSTYLE
  2
AcDbVisualStyle
  3
ObjectDBX Classes
 90
     4095
280
     0
281
     0
  0
CLASS
  1
MATERIAL
  2
AcDbMaterial
  3
ObjectDBX Classes
 90
     1153
280
     0
281
     0
  0
CLASS
  1
SCALE
  2
AcDbScale
  3
ObjectDBX Classes
 90
     1153
280
     0
281
     0
  0
CLASS
  1
SUN
  2
AcDbSun
  3
SCENEOE
 90
     1153
280
     0
281
     0
  0
CLASS
  1
ACDBPLACEHOLDER
  2
AcDbPlaceHolder
  3
ObjectDBX Classes
 90
        0
280
     0
281
     0
  0
CLASS
  1
LAYOUT
  2
AcDbLayout
  3
ObjectDBX Classes
 90
        0
280
     0
281
     0
  0
CLASS
  1
TABLESTYLE
  2
AcDbTableStyle
  3
ObjectDBX Classes
 90
     4095
280
     0
281
     0
  0
CLASS
  1
MLEADERSTYLE
  2
AcDbMLeaderStyle
  3
ACDB_MLEADERSTYLE_CLASS
 90
     4095
280
     0
281
     0
  0
CLASS
  1
RASTERVARIABLES
  2
AcDbRasterVariables
  3
ISM
 90
        0
280
     0
281
     0
  0
CLASS
  1
DIMASSOC
  2
AcDbDimAssoc
  3
"AcDbDimAssoc|Product Desc:     AcDim ARX App For Dimension|Company:          Autodesk, Inc.|WEB Address:      www.autodesk.com"
 90
        0
280
     0
281
     0
  0
ENDSEC
  0
SECTION
  2
TABLES
  0
TABLE
  2
VPORT
  5
8
330
0
100
AcDbSymbolTable
 70
     1
  0
VPORT
  5
29
330
8
100
AcDbSymbolTableRecord
100
AcDbViewportTableRecord
  2
*Active
 70
     0
 10
0.0
 20
0.0
 11
1.0
 21
1.0
 12
1.068488332912651
 22
25.79230430911267
 13
0.0
 23
0.0
 14
10.0
 24
10.0
 15
10.0
 25
10.0
 16
0.0
 26
0.0
 36
1.0
 17
0.0
 27
0.0
 37
0.0
 40
213.8298068328465
 41
1.321695760598504
 42
50.0
 43
0.0
 44
0.0
 50
0.0
 51
0.0
 71
    16
 72
  2000
 73
     1
 74
     3
 75
     0
 76
     0
 77
     0
 78
     0
281
     0
 65
     1
110
0.0
120
0.0
130
0.0
111
1.0
121
0.0
131
0.0
112
0.0
122
1.0
132
0.0
 79
     0
146
0.0
  0
ENDTAB
  0
TABLE
  2
LTYPE
  5
5
330
0
100
AcDbSymbolTable
 70
     6
  0
LTYPE
  5
14
330
5
100
AcDbSymbolTableRecord
100
AcDbLinetypeTableRecord
  2
ByBlock
 70
     0
  3

 72
    65
 73
     0
 40
0.0
  0
LTYPE
  5
15
330
5
100
AcDbSymbolTableRecord
100
AcDbLinetypeTableRecord
  2
ByLayer
 70
     0
  3

 72
    65
 73
     0
 40
0.0
  0
LTYPE
  5
16
330
5
100
AcDbSymbolTableRecord
100
AcDbLinetypeTableRecord
  2
Continuous
 70
     0
  3
Solid line
 72
    65
 73
     0
 40
0.0
  0
LTYPE
  5
6A
330
5
100
AcDbSymbolTableRecord
100
AcDbLinetypeTableRecord
  2
HIDDEN
 70
     0
  3
Hidden __ __ __ __ __ __ __ __ __ __ __ __ __ __
 72
    65
 73
     2
 40
1.905
 49
1.27
 74
     0
 49
-0.635
 74
     0
  0
LTYPE
  5
6B
330
5
100
AcDbSymbolTableRecord
100
AcDbLinetypeTableRecord
  2
PHANTOM
 70
     0
  3
Phantom ______  __  __  ______  __  __  ______
 72
    65
 73
     6
 40
12.7
 49
6.35
 74
     0
 49
-1.27
 74
     0
 49
1.27
 74
     0
 49
-1.27
 74
     0
 49
1.27
 74
     0
 49
-1.27
 74
     0
  0
LTYPE
  5
6C
330
5
100
AcDbSymbolTableRecord
100
AcDbLinetypeTableRecord
  2
CENTER
 70
     0
  3
Center ____ _ ____ _ ____ _ ____ _ ____ _ ____
 72
    65
 73
     4
 40
10.16
 49
6.35
 74
     0
 49
-1.27
 74
     0
 49
1.27
 74
     0
 49
-1.27
 74
     0
  0
LTYPE
  5
6D
330
5
100
AcDbSymbolTableRecord
100
AcDbLinetypeTableRecord
  2
CENTERX2
 70
     0
  3
Center (2x) ________  __  ________  __  _____
 72
    65
 73
     4
 40
20.32
 49
12.7
 74
     0
 49
-2.54
 74
     0
 49
2.54
 74
     0
 49
-2.54
 74
     0
  0
LTYPE
  5
6E
330
5
100
AcDbSymbolTableRecord
100
AcDbLinetypeTableRecord
  2
DOT2
 70
     0
  3
Dot (.5x) ........................................
 72
    65
 73
     2
 40
0.635
 49
0.0
 74
     0
 49
-0.635
 74
     0
  0
ENDTAB
  0
TABLE
  2
LAYER
  5
2
330
0
100
AcDbSymbolTable
 70
    17
  0
LAYER
  5
10
330
2
100
AcDbSymbolTableRecord
100
AcDbLayerTableRecord
  2
0
 70
     0
 62
     7
  6
Continuous
370
    -3
390
F
  0
LAYER
  5
6F
330
2
100
AcDbSymbolTableRecord
100
AcDbLayerTableRecord
  2
FORMAT
 70
     0
 62
     2
  6
Continuous
370
    -3
390
F
  0
LAYER
  5
70
330
2
100
AcDbSymbolTableRecord
100
AcDbLayerTableRecord
  2
외형선
 70
     0
 62
   100
  6
Continuous
370
    30
390
F
  0
LAYER
  5
71
330
2
100
AcDbSymbolTableRecord
100
AcDbLayerTableRecord
  2
숨은선
 70
     0
 62
     2
  6
HIDDEN
370
    15
390
F
  0
LAYER
  5
72
330
2
100
AcDbSymbolTableRecord
100
AcDbLayerTableRecord
  2
중심선
 70
     0
 62
     1
  6
CENTERX2
370
    -3
390
F
  0
LAYER
  5
73
330
2
100
AcDbSymbolTableRecord
100
AcDbLayerTableRecord
  2
파단선
 70
     0
 62
     4
  6
Continuous
370
    -3
390
F
  0
LAYER
  5
74
330
2
100
AcDbSymbolTableRecord
100
AcDbLayerTableRecord
  2
해칭선
 70
     0
 62
     4
  6
Continuous
370
    -3
390
F
  0
LAYER
  5
75
330
2
100
AcDbSymbolTableRecord
100
AcDbLayerTableRecord
  2
가는실선
 70
     0
 62
     4
  6
Continuous
370
    -3
390
F
  0
LAYER
  5
76
330
2
100
AcDbSymbolTableRecord
100
AcDbLayerTableRecord
  2
치수_보조선
 70
     0
 62
     4
  6
Continuous
370
    -3
390
F
  0
LAYER
  5
77
330
2
100
AcDbSymbolTableRecord
100
AcDbLayerTableRecord
  2
치수문자_일반주서
 70
     0
 62
     7
  6
Continuous
370
    15
390
F
  0
LAYER
  5
78
330
2
100
AcDbSymbolTableRecord
100
AcDbLayerTableRecord
  2
개별주서
 70
     0
 62
   100
  6
Continuous
370
    30
390
F
  0
LAYER
  5
79
330
2
100
AcDbSymbolTableRecord
100
AcDbLayerTableRecord
  2
중간선
 70
     0
 62
     2
  6
Continuous
370
    15
390
F
  0
LAYER
  5
7A
330
2
100
AcDbSymbolTableRecord
100
AcDbLayerTableRecord
  2
윤곽선
 70
     0
 62
     3
  6
Continuous
370
    40
390
F
  0
LAYER
  5
7B
330
2
100
AcDbSymbolTableRecord
100
AcDbLayerTableRecord
  2
중심마크
 70
     0
 62
   100
  6
Continuous
370
    30
390
F
  0
LAYER
  5
7C
330
2
100
AcDbSymbolTableRecord
100
AcDbLayerTableRecord
  2
가상선
 70
     0
 62
     4
  6
PHANTOM
370
    -3
390
F
  0
LAYER
  5
7D
330
2
100
AcDbSymbolTableRecord
100
AcDbLayerTableRecord
  2
특수지정선
 70
     0
 62
     5
  6
CENTERX2
370
    60
390
F
  0
LAYER
  5
18B
330
2
100
AcDbSymbolTableRecord
100
AcDbLayerTableRecord
  2
Defpoints
 70
     0
 62
     7
  6
Continuous
290
     0
370
    -3
390
F
  0
ENDTAB
  0
TABLE
  2
STYLE
  5
3
330
0
100
AcDbSymbolTable
 70
     2
  0
STYLE
  5
11
330
3
100
AcDbSymbolTableRecord
100
AcDbTextStyleTableRecord
  2
Standard
 70
     0
 40
0.0
 41
1.0
 50
0.0
 71
     0
 42
3.5
  3
txt
  4

  0
STYLE
  5
93
330
3
100
AcDbSymbolTableRecord
100
AcDbTextStyleTableRecord
  2
SLDTEXTSTYLE0
 70
     0
 40
0.0
 41
0.75
 50
0.0
 71
     0
 42
3.5
  3
TXT
  4

  0
ENDTAB
  0
TABLE
  2
VIEW
  5
6
330
0
100
AcDbSymbolTable
 70
     0
  0
ENDTAB
  0
TABLE
  2
UCS
  5
7
330
0
100
AcDbSymbolTable
 70
     0
  0
ENDTAB
  0
TABLE
  2
APPID
  5
9
330
0
100
AcDbSymbolTable
 70
     2
  0
APPID
  5
12
330
9
100
AcDbSymbolTableRecord
100
AcDbRegAppTableRecord
  2
ACAD
 70
     0
  0
APPID
  5
18D
330
9
100
AcDbSymbolTableRecord
100
AcDbRegAppTableRecord
  2
ACAD_DSTYLE_DIMRADIAL_EXTENSION
 70
     0
  0
ENDTAB
  0
TABLE
  2
DIMSTYLE
  5
A
330
0
100
AcDbSymbolTable
 70
     4
100
AcDbDimStyleTable
  0
DIMSTYLE
105
27
330
A
100
AcDbSymbolTableRecord
100
AcDbDimStyleTableRecord
  2
ISO-25
 70
     0
 41
2.5
 42
0.625
 43
3.75
 44
1.25
 73
     0
 74
     0
 77
     1
 78
     8
140
2.5
141
2.5
143
0.03937007874016
147
0.625
171
     3
172
     1
178
     0
271
     2
272
     2
274
     3
278
    44
283
     0
284
     8
340
11
  0
DIMSTYLE
105
110
102
{ACAD_REACTORS
330
10F
330
14C
102
}
330
A
100
AcDbSymbolTableRecord
100
AcDbDimStyleTableRecord
  2
SLDDIMSTYLE0
 70
     0
 41
3.302
 44
0.0
 45
0.000000001
 73
     0
 74
     0
 77
     1
 78
    12
 79
     3
140
3.5
143
0.0393700787401575
147
0.875
148
0.000000001
170
     1
172
     1
173
     1
178
     0
271
     2
272
     2
276
     2
284
    12
289
     0
340
93
  0
DIMSTYLE
105
125
102
{ACAD_REACTORS
330
124
102
}
330
A
100
AcDbSymbolTableRecord
100
AcDbDimStyleTableRecord
  2
SLDDIMSTYLE1
 70
     0
 41
3.302
 44
0.0
 45
0.000000001
 73
     0
 74
     0
 77
     1
 78
     4
 79
     1
140
3.5
143
0.0393700787401575
147
0.875
148
0.000000001
170
     1
173
     1
178
     0
271
     2
272
     2
276
     2
284
    12
340
93
  0
DIMSTYLE
105
139
102
{ACAD_REACTORS
330
138
330
18E
102
}
330
A
100
AcDbSymbolTableRecord
100
AcDbDimStyleTableRecord
  2
SLDDIMSTYLE2
 70
     0
 41
3.302
 44
0.0
 45
0.000000001
 73
     0
 74
     0
 77
     1
 78
    12
 79
     3
140
3.5
143
0.0393700787401575
147
0.875
148
0.000000001
170
     1
173
     1
178
     0
271
     2
272
     2
276
     2
284
    12
340
93
  0
ENDTAB
  0
TABLE
  2
BLOCK_RECORD
  5
1
330
0
100
AcDbSymbolTable
 70
     8
  0
BLOCK_RECORD
  5
1F
330
1
100
AcDbSymbolTableRecord
100
AcDbBlockTableRecord
  2
*Model_Space
340
22
  0
BLOCK_RECORD
  5
1B
330
1
100
AcDbSymbolTableRecord
100
AcDbBlockTableRecord
  2
*Paper_Space
340
1E
  0
BLOCK_RECORD
  5
23
330
1
100
AcDbSymbolTableRecord
100
AcDbBlockTableRecord
  2
*Paper_Space0
340
26
  0
BLOCK_RECORD
  5
7E
330
1
100
AcDbSymbolTableRecord
100
AcDbBlockTableRecord
  2
블럭10
340
0
102
{BLKREFS
331
107
102
}
  0
BLOCK_RECORD
  5
111
330
1
100
AcDbSymbolTableRecord
100
AcDbBlockTableRecord
  2
_D
340
0
  0
BLOCK_RECORD
  5
126
330
1
100
AcDbSymbolTableRecord
100
AcDbBlockTableRecord
  2
_D_1
340
0
  0
BLOCK_RECORD
  5
13A
330
1
100
AcDbSymbolTableRecord
100
AcDbBlockTableRecord
  2
_D_2
340
0
  0
BLOCK_RECORD
  5
14D
330
1
100
AcDbSymbolTableRecord
100
AcDbBlockTableRecord
  2
_D_3
340
0
  0
BLOCK_RECORD
  5
160
330
1
100
AcDbSymbolTableRecord
100
AcDbBlockTableRecord
  2
SW_DOWELSYMBOL_0
340
0
102
{BLKREFS
331
166
102
}
  0
BLOCK_RECORD
  5
191
330
1
100
AcDbSymbolTableRecord
100
AcDbBlockTableRecord
  2
*D7
340
0
  0
ENDTAB
  0
ENDSEC
  0
SECTION
  2
BLOCKS
  0
BLOCK
  5
20
330
1F
100
AcDbEntity
  8
0
100
AcDbBlockBegin
  2
*Model_Space
 70
     0
 10
0.0
 20
0.0
 30
0.0
  3
*Model_Space
  1
*Model_Space
  0
ENDBLK
  5
21
330
1F
100
AcDbEntity
  8
0
100
AcDbBlockEnd
  0
BLOCK
  5
1C
330
1B
100
AcDbEntity
 67
     1
  8
0
100
AcDbBlockBegin
  2
*Paper_Space
 70
     0
 10
0.0
 20
0.0
 30
0.0
  3
*Paper_Space
  1
*Paper_Space
  0
ENDBLK
  5
1D
330
1B
100
AcDbEntity
 67
     1
  8
0
100
AcDbBlockEnd
  0
BLOCK
  5
24
330
23
100
AcDbEntity
  8
0
100
AcDbBlockBegin
  2
*Paper_Space0
 70
     0
 10
0.0
 20
0.0
 30
0.0
  3
*Paper_Space0
  1
*Paper_Space0
  0
ENDBLK
  5
25
330
23
100
AcDbEntity
  8
0
100
AcDbBlockEnd
  0
BLOCK
  5
7F
330
7E
100
AcDbEntity
  8
0
100
AcDbBlockBegin
  2
블럭10
 70
     2
 10
0.0
 20
0.0
 30
0.0
  3
블럭10
  1
블럭10
  0
ELLIPSE
  5
81
330
7E
100
AcDbEntity
  8
중심선
100
AcDbEllipse
 10
20.54032771741204
 20
12.0471743016438
 30
0.0
 11
6.600054785286829
 21
-1.261213355974178E-13
 31
0.0
210
0.0
220
0.0
230
1.0
 40
0.636358354079598
 41
0.9219305317359503
 42
6.513795318482858
  0
ELLIPSE
  5
82
330
7E
100
AcDbEntity
  8
중심선
100
AcDbEllipse
 10
20.54032771746488
 20
12.04717430159265
 30
0.0
 11
3.960054785062283
 21
1.540847449632565E-10
 31
0.0
210
0.0
220
0.0
230
1.0
 40
0.3939339440162632
 41
1.131841032648279
 42
5.62031148352944
  0
LINE
  5
83
330
7E
100
AcDbEntity
  8
중심선
100
AcDbLine
 10
2.268634060543552
 20
16.24717430164393
 30
0.0
 11
5.714909304380834
 21
16.24717430164393
 31
0.0
  0
LINE
  5
84
330
7E
100
AcDbEntity
  8
중심선
100
AcDbLine
 10
5.245725140726316
 20
7.84717430164391
 30
0.0
 11
8.692000384563599
 21
7.84717430164391
 31
0.0
  0
LINE
  5
85
330
7E
100
AcDbEntity
  8
중심선
100
AcDbLine
 10
15.74043728645272
 20
16.24717430164393
 30
0.0
 11
8.692000384563599
 21
7.84717430164391
 31
0.0
  0
LINE
  5
86
330
7E
100
AcDbEntity
  8
중심선
100
AcDbLine
 10
0.1404042013395286
 20
13.71084872107135
 30
0.0
 11
3.58671253028996
 21
13.71088815037384
 31
0.0
  0
LINE
  5
87
330
7E
100
AcDbEntity
  8
중심선
100
AcDbLine
 10
2.750260043222114
 20
10.84717430164391
 30
0.0
 11
6.196535287059397
 21
10.84717430164391
 31
0.0
  0
LINE
  5
88
330
7E
100
AcDbEntity
  8
중심선
100
AcDbLine
 10
12.29416204261559
 20
16.24717430164393
 30
0.0
 11
5.245725140726316
 21
7.84717430164391
 31
0.0
  0
LINE
  5
89
330
7E
100
AcDbEntity
  8
중심선
100
AcDbLine
 10
10.72767329541681
 20
16.24717430164393
 30
0.0
 11
6.196535287059397
 21
10.84717430164391
 31
0.0
  0
LINE
  5
8A
330
7E
100
AcDbEntity
  8
중심선
100
AcDbLine
 10
7.28139805157953
 20
16.24717430164393
 30
0.0
 11
2.750260043222114
 21
10.84717430164391
 31
0.0
  0
LINE
  5
8B
330
7E
100
AcDbEntity
  8
중심선
100
AcDbLine
 10
5.714909304380834
 20
16.24717430164393
 30
0.0
 11
3.58671253028996
 21
13.71088815037384
 31
0.0
  0
LINE
  5
8C
330
7E
100
AcDbEntity
  8
중심선
100
AcDbLine
 10
2.268634060543552
 20
16.24717430164393
 30
0.0
 11
0.1404042013395286
 21
13.71084872107135
 31
0.0
  0
LINE
  5
8D
330
7E
100
AcDbEntity
  8
중심선
100
AcDbLine
 10
7.28139805157953
 20
16.24717430164393
 30
0.0
 11
10.72767329541681
 21
16.24717430164393
 31
0.0
  0
LINE
  5
8E
330
7E
100
AcDbEntity
  8
중심선
100
AcDbLine
 10
12.29416204261559
 20
16.24717430164393
 30
0.0
 11
15.74043728645272
 21
16.24717430164393
 31
0.0
  0
LINE
  5
8F
330
7E
100
AcDbEntity
  8
중심선
100
AcDbLine
 10
19.22036997980202
 20
11.08717430171403
 30
0.0
 11
23.66174974927406
 21
11.08717430171406
 31
0.0
  0
LINE
  5
90
330
7E
100
AcDbEntity
  8
중심선
100
AcDbLine
 10
19.22039502424796
 20
13.00717430171391
 30
0.0
 11
19.22036997980202
 21
11.08717430171403
 31
0.0
  0
LINE
  5
91
330
7E
100
AcDbEntity
  8
중심선
100
AcDbLine
 10
19.22039502424796
 20
13.00717430171391
 30
0.0
 11
26.96566020931264
 21
13.00717430171391
 31
0.0
  0
LINE
  5
92
330
7E
100
AcDbEntity
  8
중심선
100
AcDbLine
 10
22.22332737316547
 20
13.45928029700563
 30
0.0
 11
24.52862924686651
 21
15.39360700705356
 31
0.0
  0
ATTDEF
  5
94
330
7E
100
AcDbEntity
  8
FORMAT
 62
     2
100
AcDbText
 10
-11.05102035218446
 20
2.075366912832191
 30
0.0
 40
4.233333333333333
  1
GMG22908[ 6 FLUTE ]
 41
0.75
  7
SLDTEXTSTYLE0
 11
-11.05102035218446
 21
-0.0412997538344756
 31
0.0
100
AcDbAttributeDefinition
  3

  2
AUTOATTR0
 70
     0
 74
     1
  0
ENDBLK
  5
80
330
7E
100
AcDbEntity
  8
0
100
AcDbBlockEnd
  0
BLOCK
  5
112
330
111
100
AcDbEntity
  8
0
100
AcDbBlockBegin
  2
_D
 70
     0
 10
0.0
 20
0.0
 30
0.0
  3
_D
  1
_D
  0
LINE
  5
114
330
111
100
AcDbEntity
  8
치수문자_일반주서
 62
     0
370
    -2
100
AcDbLine
 10
48.09788553457723
 20
-3.968749999999995
 30
0.0
 11
64.74524571577297
 21
-3.968749999999932
 31
0.0
  0
LINE
  5
115
330
111
100
AcDbEntity
  8
치수문자_일반주서
 62
     0
370
    -2
100
AcDbLine
 10
48.5755
 20
3.968750000000005
 30
0.0
 11
64.74524571577294
 21
3.968750000000065
 31
0.0
  0
LINE
  5
116
330
111
100
AcDbEntity
  8
치수문자_일반주서
 62
     0
370
    -2
100
AcDbLine
 10
64.74524571577295
 20
-0.6667499999999329
 30
0.0
 11
64.74524571577295
 21
0.6667500000000657
 31
0.0
  0
SOLID
  5
117
330
111
100
AcDbEntity
  8
치수문자_일반주서
 62
     0
100
AcDbTrace
 10
64.19491238243963
 20
-0.6667499999999349
 30
0.0
 11
65.29557904910628
 21
-0.6667499999999309
 31
0.0
 12
64.74524571577297
 22
-3.968749999999932
 32
0.0
 13
64.74524571577297
 23
-3.968749999999932
 33
0.0
  0
SOLID
  5
118
330
111
100
AcDbEntity
  8
치수문자_일반주서
 62
     0
100
AcDbTrace
 10
65.29557904910628
 20
0.6667500000000677
 30
0.0
 11
64.19491238243963
 21
0.6667500000000637
 31
0.0
 12
64.74524571577294
 22
3.968750000000065
 32
0.0
 13
64.74524571577294
 23
3.968750000000065
 33
0.0
  0
MTEXT
  5
119
330
111
100
AcDbEntity
  8
치수문자_일반주서
 62
     0
100
AcDbMText
 10
60.37024571577295
 20
-0.4965537846535318
 30
0.0
 40
3.5
 41
0.0
 71
     2
 72
     1
  1
\A1;%%c7.94 [5/16]
  7
SLDTEXTSTYLE0
 11
-3.580687802255624E-15
 21
1.0
 31
0.0
 73
     1
 44
1.0
  0
POINT
  5
11A
330
111
100
AcDbEntity
  8
Defpoints
 62
     0
100
AcDbPoint
 10
48.03538553457723
 20
-3.968749999999995
 30
0.0
  0
POINT
  5
11B
330
111
100
AcDbEntity
  8
Defpoints
 62
     0
100
AcDbPoint
 10
48.513
 20
3.968750000000005
 30
0.0
  0
POINT
  5
11C
330
111
100
AcDbEntity
  8
Defpoints
 62
     0
100
AcDbPoint
 10
64.74524571577294
 20
3.968750000000066
 30
0.0
  0
ENDBLK
  5
113
330
111
100
AcDbEntity
  8
0
100
AcDbBlockEnd
  0
BLOCK
  5
127
330
126
100
AcDbEntity
  8
0
100
AcDbBlockBegin
  2
_D_1
 70
     0
 10
0.0
 20
0.0
 30
0.0
  3
_D_1
  1
_D_1
  0
LINE
  5
129
330
126
100
AcDbEntity
  8
치수문자_일반주서
 62
     0
370
    -2
100
AcDbLine
 10
-52.325
 20
3.531249999999998
 30
0.0
 11
-52.325
 21
36.62430141807179
 31
0.0
  0
LINE
  5
12A
330
126
100
AcDbEntity
  8
치수문자_일반주서
 62
     0
370
    -2
100
AcDbLine
 10
49.275
 20
3.269250000000005
 30
0.0
 11
49.275
 21
36.62430141807179
 31
0.0
  0
LINE
  5
12B
330
126
100
AcDbEntity
  8
치수문자_일반주서
 62
     0
370
    -2
100
AcDbLine
 10
-49.023
 20
36.62430141807179
 30
0.0
 11
45.973
 21
36.62430141807179
 31
0.0
  0
SOLID
  5
12C
330
126
100
AcDbEntity
  8
치수문자_일반주서
 62
     0
100
AcDbTrace
 10
-49.023
 20
37.17463475140512
 30
0.0
 11
-49.023
 21
36.07396808473845
 31
0.0
 12
-52.325
 22
36.62430141807179
 32
0.0
 13
-52.325
 23
36.62430141807179
 33
0.0
  0
SOLID
  5
12D
330
126
100
AcDbEntity
  8
치수문자_일반주서
 62
     0
100
AcDbTrace
 10
45.973
 20
36.07396808473845
 30
0.0
 11
45.973
 21
37.17463475140512
 31
0.0
 12
49.275
 22
36.62430141807179
 32
0.0
 13
49.275
 23
36.62430141807179
 33
0.0
  0
MTEXT
  5
12E
330
126
100
AcDbEntity
  8
치수문자_일반주서
 62
     0
100
AcDbMText
 10
-1.525
 20
40.99930141807179
 30
0.0
 40
3.5
 41
0.0
 71
     2
 72
     1
  1
\A1;101.60 [4]
  7
SLDTEXTSTYLE0
 73
     1
 44
1.0
  0
POINT
  5
12F
330
126
100
AcDbEntity
  8
Defpoints
 62
     0
100
AcDbPoint
 10
-52.325
 20
3.468749999999998
 30
0.0
  0
POINT
  5
130
330
126
100
AcDbEntity
  8
Defpoints
 62
     0
100
AcDbPoint
 10
49.275
 20
3.206750000000005
 30
0.0
  0
POINT
  5
131
330
126
100
AcDbEntity
  8
Defpoints
 62
     0
100
AcDbPoint
 10
49.275
 20
36.62430141807179
 30
0.0
  0
ENDBLK
  5
128
330
126
100
AcDbEntity
  8
0
100
AcDbBlockEnd
  0
BLOCK
  5
13B
330
13A
100
AcDbEntity
  8
0
100
AcDbBlockBegin
  2
_D_2
 70
     0
 10
0.0
 20
0.0
 30
0.0
  3
_D_2
  1
_D_2
  0
LINE
  5
13D
330
13A
100
AcDbEntity
  8
치수문자_일반주서
 62
     0
370
    -2
100
AcDbLine
 10
49.275
 20
3.269250000000005
 30
0.0
 11
49.27499999999999
 21
20.83374453033793
 31
0.0
  0
LINE
  5
13E
330
13A
100
AcDbEntity
  8
치수문자_일반주서
 62
     0
370
    -2
100
AcDbLine
 10
7.999999999999861
 20
-3.853808882229614
 30
0.0
 11
7.999999999999851
 21
20.83374453033793
 31
0.0
  0
LINE
  5
13F
330
13A
100
AcDbEntity
  8
치수문자_일반주서
 62
     0
370
    -2
100
AcDbLine
 10
45.97299999999999
 20
20.83374453033793
 30
0.0
 11
11.30199999999985
 21
20.83374453033793
 31
0.0
  0
SOLID
  5
140
330
13A
100
AcDbEntity
  8
치수문자_일반주서
 62
     0
100
AcDbTrace
 10
45.97299999999999
 20
20.2834111970046
 30
0.0
 11
45.97299999999999
 21
21.38407786367127
 31
0.0
 12
49.27499999999999
 22
20.83374453033793
 32
0.0
 13
49.27499999999999
 23
20.83374453033793
 33
0.0
  0
SOLID
  5
141
330
13A
100
AcDbEntity
  8
치수문자_일반주서
 62
     0
100
AcDbTrace
 10
11.30199999999985
 20
21.38407786367127
 30
0.0
 11
11.30199999999985
 21
20.2834111970046
 31
0.0
 12
7.999999999999851
 22
20.83374453033793
 32
0.0
 13
7.999999999999851
 23
20.83374453033793
 33
0.0
  0
MTEXT
  5
142
330
13A
100
AcDbEntity
  8
치수문자_일반주서
 62
     0
100
AcDbMText
 10
28.18347683933991
 20
25.20874453033793
 30
0.0
 40
3.5
 41
0.0
 71
     2
 72
     1
  1
\A1;41.28 [1 5/8]
  7
SLDTEXTSTYLE0
 73
     1
 44
1.0
  0
POINT
  5
143
330
13A
100
AcDbEntity
  8
Defpoints
 62
     0
100
AcDbPoint
 10
49.275
 20
3.206750000000005
 30
0.0
  0
POINT
  5
144
330
13A
100
AcDbEntity
  8
Defpoints
 62
     0
100
AcDbPoint
 10
7.999999999999861
 20
-3.916308882229614
 30
0.0
  0
POINT
  5
145
330
13A
100
AcDbEntity
  8
Defpoints
 62
     0
100
AcDbPoint
 10
7.999999999999861
 20
20.83374453033793
 30
0.0
  0
ENDBLK
  5
13C
330
13A
100
AcDbEntity
  8
0
100
AcDbBlockEnd
  0
BLOCK
  5
14E
330
14D
100
AcDbEntity
  8
0
100
AcDbBlockBegin
  2
_D_3
 70
     0
 10
0.0
 20
0.0
 30
0.0
  3
_D_3
  1
_D_3
  0
LINE
  5
150
330
14D
100
AcDbEntity
  8
치수문자_일반주서
 62
     0
370
    -2
100
AcDbLine
 10
-51.8875
 20
3.968750000000001
 30
0.0
 11
-65.325
 21
3.968749999999951
 31
0.0
  0
LINE
  5
151
330
14D
100
AcDbEntity
  8
치수문자_일반주서
 62
     0
370
    -2
100
AcDbLine
 10
-51.8875
 20
-3.968749999999999
 30
0.0
 11
-65.32499999999997
 21
-3.968750000000049
 31
0.0
  0
LINE
  5
152
330
14D
100
AcDbEntity
  8
치수문자_일반주서
 62
     0
370
    -2
100
AcDbLine
 10
-65.32499999999999
 20
0.6667499999999511
 30
0.0
 11
-65.32499999999999
 21
-0.6667500000000497
 31
0.0
  0
SOLID
  5
153
330
14D
100
AcDbEntity
  8
치수문자_일반주서
 62
     0
100
AcDbTrace
 10
-64.77466666666666
 20
0.6667499999999531
 30
0.0
 11
-65.87533333333332
 21
0.6667499999999491
 31
0.0
 12
-65.325
 22
3.968749999999951
 32
0.0
 13
-65.325
 23
3.968749999999951
 33
0.0
  0
SOLID
  5
154
330
14D
100
AcDbEntity
  8
치수문자_일반주서
 62
     0
100
AcDbTrace
 10
-65.87533333333332
 20
-0.6667500000000517
 30
0.0
 11
-64.77466666666666
 21
-0.6667500000000477
 31
0.0
 12
-65.32499999999997
 22
-3.968750000000049
 32
0.0
 13
-65.32499999999997
 23
-3.968750000000049
 33
0.0
  0
MTEXT
  5
155
330
14D
100
AcDbEntity
  8
치수문자_일반주서
 62
     0
100
AcDbMText
 10
-69.69999999999999
 20
-0.000000000000016
 30
0.0
 40
3.5
 41
0.0
 71
     2
 72
     1
  1
\A1;%%c7.94 [5/16]
  7
SLDTEXTSTYLE0
 11
-3.580687802255623E-15
 21
1.0
 31
0.0
 73
     1
 44
1.0
  0
POINT
  5
156
330
14D
100
AcDbEntity
  8
Defpoints
 62
     0
100
AcDbPoint
 10
-51.825
 20
3.968750000000001
 30
0.0
  0
POINT
  5
157
330
14D
100
AcDbEntity
  8
Defpoints
 62
     0
100
AcDbPoint
 10
-51.825
 20
-3.968749999999999
 30
0.0
  0
POINT
  5
158
330
14D
100
AcDbEntity
  8
Defpoints
 62
     0
100
AcDbPoint
 10
-65.32499999999999
 20
-3.968750000000049
 30
0.0
  0
ENDBLK
  5
14F
330
14D
100
AcDbEntity
  8
0
100
AcDbBlockEnd
  0
BLOCK
  5
161
330
160
100
AcDbEntity
  8
0
100
AcDbBlockBegin
  2
SW_DOWELSYMBOL_0
 70
     0
 10
0.0
 20
0.0
 30
0.0
  3
SW_DOWELSYMBOL_0
  1
SW_DOWELSYMBOL_0
  0
CIRCLE
  5
163
330
160
100
AcDbEntity
  8
외형선
 62
     0
100
AcDbCircle
 10
0.0
 20
0.0
 30
0.0
 40
3.000000000000001
  0
HATCH
  5
164
330
160
100
AcDbEntity
  8
0
  6
Continuous
 62
     0
370
    30
100
AcDbHatch
 10
0.0
 20
0.0
 30
0.0
210
0.0
220
0.0
230
1.0
  2
SOLID
 70
     1
 71
     0
 91
        1
 92
        0
 93
        3
 72
     2
 10
0.0
 20
0.0
 40
3.000000000000001
 50
0.0
 51
90.0
 73
     1
 72
     1
 10
0.0
 20
3.000000000000001
 11
0.0
 21
0.0
 72
     1
 10
0.0
 20
0.0
 11
3.000000000000003
 21
0.0
 97
        0
 75
     0
 76
     1
 98
        1
 10
0.0
 20
0.0
  0
HATCH
  5
165
330
160
100
AcDbEntity
  8
0
  6
Continuous
 62
     0
370
    30
100
AcDbHatch
 10
0.0
 20
0.0
 30
0.0
210
0.0
220
0.0
230
1.0
  2
SOLID
 70
     1
 71
     0
 91
        1
 92
        0
 93
        3
 72
     2
 10
0.0
 20
0.0
 40
3.000000000000001
 50
180.0
 51
270.0000000000008
 73
     1
 72
     1
 10
0.0
 20
-3.000000000000001
 11
0.0
 21
0.0
 72
     1
 10
0.0
 20
0.0
 11
-3.000000000000003
 21
0.0
 97
        0
 75
     0
 76
     1
 98
        1
 10
0.0
 20
0.0
  0
ENDBLK
  5
162
330
160
100
AcDbEntity
  8
0
100
AcDbBlockEnd
  0
BLOCK
  5
192
330
191
100
AcDbEntity
  8
0
100
AcDbBlockBegin
  2
*D7
 70
     1
 10
0.0
 20
0.0
 30
0.0
  3
*D7
  1
*D7
  0
LINE
  5
194
330
191
100
AcDbEntity
  8
치수문자_일반주서
 62
     0
370
    -2
100
AcDbLine
 10
50.82637767243117
 20
6.548064074536686
 30
0.0
 11
70.59115006503879
 21
35.09520229690518
 31
0.0
  0
MTEXT
  5
195
330
191
100
AcDbEntity
  8
치수문자_일반주서
 62
     0
100
AcDbMText
 10
60.33911063946311
 20
24.89916560714469
 30
0.0
 40
3.5
 41
0.0
 71
     5
 72
     1
  1
\A1;R.76 [R0.030]
  7
SLDTEXTSTYLE0
 11
0.5692366319958601
 21
0.8221737388131599
 31
0.0
 73
     1
 44
1.0
  0
SOLID
  5
196
330
191
100
AcDbEntity
  8
치수문자_일반주서
 62
     0
100
AcDbTrace
 10
50.373908058171
 20
6.861333967678409
 30
0.0
 11
51.27884728669135
 21
6.234794181394966
 31
0.0
 12
48.94675831358084
 22
3.833246388975633
 32
0.0
 13
48.94675831358084
 23
3.833246388975633
 33
0.0
  0
LINE
  5
197
330
191
100
AcDbEntity
  8
치수문자_일반주서
 62
     0
100
AcDbLine
 10
48.42299999999999
 20
3.206750000000005
 30
0.0
 11
48.603
 21
3.206750000000005
 31
0.0
  0
LINE
  5
198
330
191
100
AcDbEntity
  8
치수문자_일반주서
 62
     0
100
AcDbLine
 10
48.513
 20
3.116750000000005
 30
0.0
 11
48.513
 21
3.296750000000005
 31
0.0
  0
ARC
  5
199
330
191
100
AcDbEntity
  8
치수문자_일반주서
 62
     0
370
    -2
100
AcDbCircle
 10
48.513
 20
3.206750000000005
 30
0.0
 40
0.762000000000001
100
AcDbArc
 50
49.25683294163015
 51
55.30298907939986
  0
POINT
  5
19A
330
191
100
AcDbEntity
  8
Defpoints
 62
     0
100
AcDbPoint
 10
48.94675831358084
 20
3.833246388975633
 30
0.0
  0
POINT
  5
19B
330
191
100
AcDbEntity
  8
Defpoints
 62
     0
100
AcDbPoint
 10
48.513
 20
3.206750000000005
 30
0.0
  0
ENDBLK
  5
193
330
191
100
AcDbEntity
  8
0
100
AcDbBlockEnd
  0
ENDSEC
  0
SECTION
  2
ENTITIES
  0
LINE
  5
95
330
1F
100
AcDbEntity
  8
0
  6
Continuous
 62
     4
370
    15
100
AcDbLine
 10
7.353613195441586
 20
3.968750000000005
 30
0.0
 11
-51.825
 21
3.968750000000001
 31
0.0
  0
LINE
  5
96
330
1F
100
AcDbEntity
  8
0
  6
Continuous
 62
     4
370
    15
100
AcDbLine
 10
-51.825
 20
-3.968749999999999
 30
0.0
 11
7.353613195441586
 21
-3.968749999999995
 31
0.0
  0
LINE
  5
97
330
1F
100
AcDbEntity
  8
0
  6
Continuous
 62
     4
370
    15
100
AcDbLine
 10
-51.825
 20
3.968749999999997
 30
0.0
 11
-52.325
 21
3.468749999999997
 31
0.0
  0
LINE
  5
98
330
1F
100
AcDbEntity
  8
0
  6
Continuous
 62
     4
370
    15
100
AcDbLine
 10
-52.325
 20
-3.468749999999996
 30
0.0
 11
-51.825
 21
-3.968749999999994
 31
0.0
  0
LINE
  5
99
330
1F
100
AcDbEntity
  8
0
  6
Continuous
 62
     1
370
    15
100
AcDbLine
 10
47.55777106915446
 20
-3.968749999999995
 30
0.0
 11
48.513
 21
-3.968749999999995
 31
0.0
  0
LINE
  5
9A
330
1F
100
AcDbEntity
  8
0
  6
Continuous
 62
     1
370
    15
100
AcDbLine
 10
22.62045336743252
 20
-3.968749999999995
 30
0.0
 11
23.97810705446237
 21
-3.968749999999995
 31
0.0
  0
LINE
  5
9B
330
1F
100
AcDbEntity
  8
0
  6
Continuous
 62
     1
370
    15
100
AcDbLine
 10
11.51015951219859
 20
3.968750000000005
 30
0.0
 11
10.15182242349791
 21
3.968750000000005
 31
0.0
  0
LINE
  5
9C
330
1F
100
AcDbEntity
  8
0
  6
Continuous
 62
     1
370
    15
100
AcDbLine
 10
36.44621357570557
 20
3.968750000000005
 30
0.0
 11
35.08871922058261
 21
3.968750000000005
 31
0.0
  0
LINE
  5
9D
330
1F
100
AcDbEntity
  8
0
  6
Continuous
 62
     1
370
    15
100
AcDbLine
 10
39.24539993713817
 20
-3.968749999999995
 30
0.0
 11
40.60162714897747
 21
-3.968749999999995
 31
0.0
  0
LINE
  5
9E
330
1F
100
AcDbEntity
  8
0
  6
Continuous
 62
     1
370
    15
100
AcDbLine
 10
14.30892569963635
 20
-3.968749999999995
 30
0.0
 11
15.66536903099419
 21
-3.968749999999995
 31
0.0
  0
LINE
  5
9F
330
1F
100
AcDbEntity
  8
0
  6
Continuous
 62
     1
370
    15
100
AcDbLine
 10
28.13349580228964
 20
3.968750000000005
 30
0.0
 11
26.77716322854922
 21
3.968750000000005
 31
0.0
  0
LINE
  5
A0
330
1F
100
AcDbEntity
  8
0
  6
Continuous
 62
     1
370
    15
100
AcDbLine
 10
43.4010010925907
 20
-3.968749999999995
 30
0.0
 11
44.75812676869845
 21
-3.968749999999995
 31
0.0
  0
LINE
  5
A1
330
1F
100
AcDbEntity
  8
0
  6
Continuous
 62
     1
370
    15
100
AcDbLine
 10
18.46457695290968
 20
-3.968749999999995
 30
0.0
 11
19.82180178948972
 21
-3.968749999999995
 31
0.0
  0
LINE
  5
A2
330
1F
100
AcDbEntity
  8
0
  6
Continuous
 62
     1
370
    15
100
AcDbLine
 10
32.28997206457444
 20
3.968750000000005
 30
0.0
 11
30.9327874858593
 21
3.968750000000005
 31
0.0
  0
LINE
  5
A3
330
1F
100
AcDbEntity
  8
0
  6
Continuous
 62
     1
370
    15
100
AcDbLine
 10
35.08871922058261
 20
-3.968749999999995
 30
0.0
 11
36.44621357570554
 21
-3.968749999999995
 31
0.0
  0
LINE
  5
A4
330
1F
100
AcDbEntity
  8
0
  6
Continuous
 62
     1
370
    15
100
AcDbLine
 10
10.1518224234979
 20
-3.968749999999995
 30
0.0
 11
11.51015951219857
 21
-3.968749999999995
 31
0.0
  0
LINE
  5
A5
330
1F
100
AcDbEntity
  8
0
  6
Continuous
 62
     1
370
    15
100
AcDbLine
 10
23.97810705446235
 20
3.968750000000005
 30
0.0
 11
22.62045336743252
 21
3.968750000000005
 31
0.0
  0
LINE
  5
A6
330
1F
100
AcDbEntity
  8
0
  6
Continuous
 62
     1
370
    15
100
AcDbLine
 10
48.513
 20
3.968750000000005
 30
0.0
 11
47.55777106915446
 21
3.968750000000005
 31
0.0
  0
LINE
  5
A7
330
1F
100
AcDbEntity
  8
0
  6
Continuous
 62
     1
370
    15
100
AcDbLine
 10
30.93278748585932
 20
-3.968749999999995
 30
0.0
 11
32.28997206457445
 21
-3.968749999999995
 31
0.0
  0
LINE
  5
A8
330
1F
100
AcDbEntity
  8
0
  6
Continuous
 62
     1
370
    15
100
AcDbLine
 10
19.82180178948974
 20
3.968750000000005
 30
0.0
 11
18.46457695290971
 21
3.968750000000005
 31
0.0
  0
LINE
  5
A9
330
1F
100
AcDbEntity
  8
0
  6
Continuous
 62
     1
370
    15
100
AcDbLine
 10
44.75812676869845
 20
3.968750000000005
 30
0.0
 11
43.40100109259072
 21
3.968750000000005
 31
0.0
  0
LINE
  5
AA
330
1F
100
AcDbEntity
  8
0
  6
Continuous
 62
     1
370
    15
100
AcDbLine
 10
26.77716322854924
 20
-3.968749999999995
 30
0.0
 11
28.13349580228966
 21
-3.968749999999995
 31
0.0
  0
LINE
  5
AB
330
1F
100
AcDbEntity
  8
0
  6
Continuous
 62
     1
370
    15
100
AcDbLine
 10
15.66536903099422
 20
3.968750000000005
 30
0.0
 11
14.30892569963639
 21
3.968750000000005
 31
0.0
  0
LINE
  5
AC
330
1F
100
AcDbEntity
  8
0
  6
Continuous
 62
     1
370
    15
100
AcDbLine
 10
40.60162714897749
 20
3.968750000000005
 30
0.0
 11
39.24539993713822
 21
3.968750000000005
 31
0.0
  0
ARC
  5
AD
330
1F
100
AcDbEntity
  8
0
  6
Continuous
 62
     1
370
    15
100
AcDbCircle
 10
48.513
 20
3.206750000000005
 30
0.0
 40
0.7620000000000013
100
AcDbArc
 50
44.55605765701324
 51
90.0
  0
ARC
  5
AE
102
{ACAD_REACTORS
102
}
330
1F
100
AcDbEntity
  8
0
  6
Continuous
 62
     1
370
    15
100
AcDbCircle
 10
48.513
 20
3.206750000000005
 30
0.0
 40
0.7620000000000005
100
AcDbArc
 50
0.0
 51
44.55605765701319
  0
ARC
  5
AF
330
1F
100
AcDbEntity
  8
0
  6
Continuous
 62
     1
370
    15
100
AcDbCircle
 10
48.513
 20
-3.206749999999996
 30
0.0
 40
0.7619999999999996
100
AcDbArc
 50
318.7148858785317
 51
339.7924164497484
  0
LWPOLYLINE
  5
B0
330
1F
100
AcDbEntity
  8
0
  6
Continuous
 62
     1
370
    15
100
AcDbPolyline
 90
        3
 70
   128
 43
0.0
 10
48.513
 20
-3.968749999999997
 10
48.59383252618284
 20
-3.964450536301049
 10
48.62229583434305
 20
-3.960870958862206
  0
SPLINE
  5
B1
330
1F
100
AcDbEntity
  8
0
  6
Continuous
 62
     4
370
    15
100
AcDbSpline
210
0.0
220
0.0
230
1.0
 70
     8
 71
     3
 72
    10
 73
     6
 74
     0
 42
0.000000001
 43
0.00000001
 40
0.0
 40
0.0
 40
0.0
 40
0.0
 40
0.5000000000000001
 40
0.5000000000000001
 40
1.0
 40
1.0
 40
1.0
 40
1.0
 10
6.744037837377613
 20
-1.435093357761845
 30
0.0
 10
6.632375605499318
 20
-1.331338154024961
 30
0.0
 10
6.559187180629639
 20
-1.196502386123609
 30
0.0
 10
6.482391034616592
 20
-0.9051468894976791
 30
0.0
 10
6.479632066288298
 20
-0.7501382410196902
 30
0.0
 10
6.479632066288314
 20
-0.5954308494492835
 30
0.0
  0
SPLINE
  5
B2
330
1F
100
AcDbEntity
  8
0
  6
Continuous
 62
     4
370
    15
100
AcDbSpline
210
0.0
220
0.0
230
1.0
 70
     8
 71
     3
 72
    16
 73
    12
 74
     0
 42
0.000000001
 43
0.00000001
 40
0.0
 40
0.0
 40
0.0
 40
0.0
 40
0.125
 40
0.125
 40
0.25
 40
0.25
 40
0.5
 40
0.5
 40
0.75
 40
0.75
 40
1.0
 40
1.0
 40
1.0
 40
1.0
 10
6.479632066288312
 20
-0.5954308494510268
 30
0.0
 10
6.479632066288321
 20
-0.5085318644329233
 30
0.0
 10
6.479857158249331
 20
-0.4213870310905019
 30
0.0
 10
6.495200953843751
 20
-0.2479425396999306
 30
0.0
 10
6.510293395648979
 20
-0.1606139736433727
 30
0.0
 10
6.589929035170035
 20
0.0916315374607066
 30
0.0
 10
6.690233856351551
 20
0.2440717763882251
 30
0.0
 10
6.977995000085407
 20
0.4524487340676195
 30
0.0
 10
7.155565686239212
 20
0.5022027796976933
 30
0.0
 10
7.509287879762041
 20
0.4742852537994448
 30
0.0
 10
7.676772010447145
 20
0.3969041823243585
 30
0.0
 10
7.802813674344169
 20
0.2715449355106805
 30
0.0
  0
LINE
  5
B4
330
1F
100
AcDbEntity
  8
0
  6
Continuous
 62
     4
370
    15
100
AcDbLine
 10
-51.825
 20
3.968749999999997
 30
0.0
 11
-51.825
 21
-3.968749999999999
 31
0.0
  0
SPLINE
  5
B5
330
1F
100
AcDbEntity
  8
0
  6
Continuous
 62
     4
370
    15
100
AcDbSpline
210
0.0
220
0.0
230
1.0
 70
     8
 71
     3
 72
    10
 73
     6
 74
     0
 42
0.000000001
 43
0.00000001
 40
0.0
 40
0.0
 40
0.0
 40
0.0
 40
0.5000000000000001
 40
0.5000000000000001
 40
1.0
 40
1.0
 40
1.0
 40
1.0
 10
7.999999999999861
 20
-2.515043995786195
 30
0.0
 10
7.789797287434665
 20
-2.35294189356016
 30
0.0
 10
7.578997904912773
 20
-2.180110954976292
 30
0.0
 10
7.164038940149949
 20
-1.819676939277812
 30
0.0
 10
6.95432703891902
 20
-1.630491556262656
 30
0.0
 10
6.744037837377613
 20
-1.435093357761846
 30
0.0
  0
LINE
  5
B6
330
1F
100
AcDbEntity
  8
0
  6
Continuous
 62
     4
370
    15
100
AcDbLine
 10
8.000000000000007
 20
-2.515043995786304
 30
0.0
 11
8.0
 21
-3.398813110829273
 31
0.0
  0
SPLINE
  5
B7
330
1F
100
AcDbEntity
  8
0
  6
Continuous
 62
     4
370
    15
100
AcDbSpline
210
0.0
220
0.0
230
1.0
 70
     8
 71
     3
 72
     8
 73
     4
 74
     0
 42
0.000000001
 43
0.00000001
 40
0.0
 40
0.0
 40
0.0
 40
0.0
 40
1.0
 40
1.0
 40
1.0
 40
1.0
 10
7.999999999999861
 20
-3.398813110829201
 30
0.0
 10
7.934290236679706
 20
-3.364990848475605
 30
0.0
 10
7.868521166181662
 20
-3.32976866155783
 30
0.0
 10
7.80281367434595
 20
-3.29321133694256
 30
0.0
  0
SPLINE
  5
B8
330
1F
100
AcDbEntity
  8
0
  6
Continuous
 62
     4
370
    15
100
AcDbSpline
210
0.0
220
0.0
230
1.0
 70
     8
 71
     3
 72
    16
 73
    12
 74
     0
 42
0.000000001
 43
0.00000001
 40
0.0
 40
0.0
 40
0.0
 40
0.0
 40
0.125
 40
0.125
 40
0.25
 40
0.25
 40
0.5
 40
0.5
 40
0.75
 40
0.75
 40
1.0
 40
1.0
 40
1.0
 40
1.0
 10
6.479632066288314
 20
-3.695851531410942
 30
0.0
 10
6.479632066288323
 20
-3.663822050087719
 30
0.0
 10
6.479857158249548
 20
-3.629134403715719
 30
0.0
 10
6.495200953843542
 20
-3.555123663893311
 30
0.0
 10
6.510293395648979
 20
-3.515301757476124
 30
0.0
 10
6.589929035170035
 20
-3.39339232669859
 30
0.0
 10
6.690233856351549
 20
-3.309692357757465
 30
0.0
 10
6.977995000085405
 20
-3.189607103540275
 30
0.0
 10
7.155565686239209
 20
-3.158330392557553
 30
0.0
 10
7.50928787976204
 20
-3.175286262667977
 30
0.0
 10
7.676772010447145
 20
-3.223086212798097
 30
0.0
 10
7.80281367434417
 20
-3.293211336941568
 30
0.0
  0
SPLINE
  5
B9
330
1F
100
AcDbEntity
  8
0
  6
Continuous
 62
     4
370
    15
100
AcDbSpline
210
0.0
220
0.0
230
1.0
 70
     8
 71
     3
 72
    10
 73
     6
 74
     0
 42
0.000000001
 43
0.00000001
 40
0.0
 40
0.0
 40
0.0
 40
0.0
 40
0.5
 40
0.5
 40
1.0
 40
1.0
 40
1.0
 40
1.0
 10
6.744037837377613
 20
-3.922014296560308
 30
0.0
 10
6.632375605499318
 20
-3.904986103739066
 30
0.0
 10
6.559187180629642
 20
-3.877982190805459
 30
0.0
 10
6.482391034616592
 20
-3.801585346621494
 30
0.0
 10
6.479632066288298
 20
-3.752874032965309
 30
0.0
 10
6.479632066288314
 20
-3.695851531404002
 30
0.0
  0
SPLINE
  5
BA
330
1F
100
AcDbEntity
  8
0
  6
Continuous
 62
     4
370
    15
100
AcDbSpline
210
0.0
220
0.0
230
1.0
 70
     8
 71
     3
 72
    10
 73
     6
 74
     0
 42
0.000000001
 43
0.00000001
 40
0.0
 40
0.0
 40
0.0
 40
0.0
 40
0.5
 40
0.5
 40
1.0
 40
1.0
 40
1.0
 40
1.0
 10
7.999999999999861
 20
-3.916308882229614
 30
0.0
 10
7.789797287434665
 20
-3.950261572477849
 30
0.0
 10
7.578997904912773
 20
-3.9677661384611
 30
0.0
 10
7.164038940149949
 20
-3.969652738149086
 30
0.0
 10
6.95432703891902
 20
-3.95408283944933
 30
0.0
 10
6.744037837377613
 20
-3.922014296560312
 30
0.0
  0
SPLINE
  5
BB
330
1F
100
AcDbEntity
  8
0
  6
Continuous
 62
     4
370
    15
100
AcDbSpline
210
0.0
220
0.0
230
1.0
 70
     8
 71
     3
 72
     9
 73
     5
 74
     0
 42
0.000000001
 43
0.00000001
 40
0.0
 40
0.0
 40
0.0
 40
0.0
 40
0.0277147917614886
 40
0.9999999999999999
 40
0.9999999999999999
 40
0.9999999999999999
 40
0.9999999999999999
 10
7.353613195441586
 20
3.967376987330983
 30
0.0
 10
7.359581560533288
 20
3.967834191868354
 30
0.0
 10
7.57493100797149
 20
3.984330961582703
 30
0.0
 10
7.790452064587845
 20
3.949841994637688
 30
0.0
 10
7.99999999999986
 20
3.916308882229624
 30
0.0
  0
LINE
  5
BC
330
1F
100
AcDbEntity
  8
0
  6
Continuous
 62
     1
370
    15
100
AcDbLine
 10
8.000000000000007
 20
3.916308882229598
 30
0.0
 11
8.0
 21
3.474028909639961
 31
0.0
  0
SPLINE
  5
BD
330
1F
100
AcDbEntity
  8
0
  6
Continuous
 62
     4
370
    15
100
AcDbSpline
210
0.0
220
0.0
230
1.0
 70
     8
 71
     3
 72
     8
 73
     4
 74
     0
 42
0.000000001
 43
0.00000001
 40
0.0
 40
0.0
 40
0.0
 40
0.0
 40
1.0
 40
1.0
 40
1.0
 40
1.0
 10
7.999999999999861
 20
3.474028909640028
 30
0.0
 10
7.934290236679704
 20
3.505700881983083
 30
0.0
 10
7.868521166181662
 20
3.535961859935863
 30
0.0
 10
7.80281367434595
 20
3.564756272451505
 30
0.0
  0
SPLINE
  5
BE
330
1F
100
AcDbEntity
  8
0
  6
Continuous
 62
     4
370
    15
100
AcDbSpline
210
0.0
220
0.0
230
1.0
 70
     8
 71
     3
 72
    16
 73
    12
 74
     0
 42
0.000000001
 43
0.00000001
 40
0.0
 40
0.0
 40
0.0
 40
0.0
 40
0.125
 40
0.125
 40
0.25
 40
0.25
 40
0.5
 40
0.5
 40
0.75
 40
0.75
 40
1.0
 40
1.0
 40
1.0
 40
1.0
 10
6.479632066288312
 20
3.100420681959935
 30
0.0
 10
6.479632066288321
 20
3.155290185654817
 30
0.0
 10
6.479857158249336
 20
3.207747372625231
 30
0.0
 10
6.495200953843753
 20
3.307181124193411
 30
0.0
 10
6.510293395648977
 20
3.354687783832777
 30
0.0
 10
6.589929035170034
 20
3.485023864159325
 30
0.0
 10
6.690233856351547
 20
3.553764134145723
 30
0.0
 10
6.977995000085404
 20
3.642055837607928
 30
0.0
 10
7.155565686239209
 20
3.660533172255283
 30
0.0
 10
7.50928787976204
 20
3.649571516467459
 30
0.0
 10
7.676772010447145
 20
3.619990395122491
 30
0.0
 10
7.802813674344169
 20
3.564756272452283
 30
0.0
  0
SPLINE
  5
BF
330
1F
100
AcDbEntity
  8
0
  6
Continuous
 62
     4
370
    15
100
AcDbSpline
210
0.0
220
0.0
230
1.0
 70
     8
 71
     3
 72
    10
 73
     6
 74
     0
 42
0.000000001
 43
0.00000001
 40
0.0
 40
0.0
 40
0.0
 40
0.0
 40
0.5
 40
0.5
 40
1.0
 40
1.0
 40
1.0
 40
1.0
 10
6.744037837377613
 20
2.486920938798485
 30
0.0
 10
6.632375605499318
 20
2.573647949714128
 30
0.0
 10
6.559187180629641
 20
2.681479804681871
 30
0.0
 10
6.482391034616594
 20
2.896438457123836
 30
0.0
 10
6.479632066288294
 20
3.002735791945639
 30
0.0
 10
6.479632066288312
 20
3.10042068195474
 30
0.0
  0
SPLINE
  5
C0
330
1F
100
AcDbEntity
  8
0
  6
Continuous
 62
     4
370
    15
100
AcDbSpline
210
0.0
220
0.0
230
1.0
 70
     8
 71
     3
 72
    10
 73
     6
 74
     0
 42
0.000000001
 43
0.00000001
 40
0.0
 40
0.0
 40
0.0
 40
0.0
 40
0.5
 40
0.5
 40
1.0
 40
1.0
 40
1.0
 40
1.0
 10
7.99999999999986
 20
1.401264886443425
 30
0.0
 10
7.789797287434665
 20
1.597319678917696
 30
0.0
 10
7.578997904912773
 20
1.787655183484818
 30
0.0
 10
7.164038940149949
 20
2.149975798871289
 30
0.0
 10
6.95432703891902
 20
2.323591283186691
 30
0.0
 10
6.744037837377611
 20
2.486920938798485
 30
0.0
  0
LINE
  5
C1
330
1F
100
AcDbEntity
  8
0
  6
Continuous
 62
     1
370
    15
100
AcDbLine
 10
8.000000000000007
 20
1.40126488644329
 30
0.0
 11
8.0
 21
0.0752157988106553
 31
0.0
  0
SPLINE
  5
C2
330
1F
100
AcDbEntity
  8
0
  6
Continuous
 62
     4
370
    15
100
AcDbSpline
210
0.0
220
0.0
230
1.0
 70
     8
 71
     3
 72
     8
 73
     4
 74
     0
 42
0.000000001
 43
0.00000001
 40
0.0
 40
0.0
 40
0.0
 40
0.0
 40
1.0
 40
1.0
 40
1.0
 40
1.0
 10
7.999999999999861
 20
0.075215798810794
 30
0.0
 10
7.934290236679706
 20
0.1407100335074449
 30
0.0
 10
7.868521166181662
 20
0.206193198377999
 30
0.0
 10
7.80281367434595
 20
0.2715449355089101
 30
0.0
  0
LINE
  5
C3
330
1F
100
AcDbEntity
  8
0
  6
Continuous
 62
     4
370
    15
100
AcDbLine
 10
-52.325
 20
3.468749999999998
 30
0.0
 11
-52.325
 21
-3.468749999999997
 31
0.0
  0
SPLINE
  5
C4
330
1F
100
AcDbEntity
  8
0
  6
Continuous
 62
     1
370
    15
100
AcDbSpline
210
0.0
220
0.0
230
1.0
 70
    24
 71
     3
 72
    14
 73
    10
 74
     0
 42
0.000000001
 43
0.00000001
 40
0.0
 40
0.0
 40
0.0
 40
0.0
 40
0.25
 40
0.25
 40
0.5
 40
0.5
 40
0.75
 40
0.75
 40
1.0
 40
1.0
 40
1.0
 40
1.0
 10
8.000000000000005
 20
0.0752157988106377
 30
0.0
 10
8.000000000000005
 20
0.0005568384116508
 30
0.0
 10
8.000000000000005
 20
-0.1010671267828365
 30
0.0
 10
8.000000000000005
 20
-0.3847024616172942
 30
0.0
 10
8.000000000000005
 20
-0.5678609288149234
 30
0.0
 10
8.000000000000005
 20
-1.026413308824559
 30
0.0
 10
8.000000000000005
 20
-1.303113083508783
 30
0.0
 10
8.000000000000005
 20
-1.90308086465512
 30
0.0
 10
8.000000000000005
 20
-2.224534029052435
 30
0.0
 10
8.000000000000005
 20
-2.515043995786304
 30
0.0
  0
SPLINE
  5
C5
330
1F
100
AcDbEntity
  8
0
  6
Continuous
 62
     1
370
    15
100
AcDbSpline
210
0.0
220
0.0
230
1.0
 70
    24
 71
     3
 72
    14
 73
    10
 74
     0
 42
0.000000001
 43
0.00000001
 40
0.0
 40
0.0
 40
0.0
 40
0.0
 40
0.2500000000000002
 40
0.2500000000000002
 40
0.5000000000000003
 40
0.5000000000000003
 40
0.7500000000000002
 40
0.7500000000000002
 40
1.0
 40
1.0
 40
1.0
 40
1.0
 10
8.000000000000005
 20
3.474028909639932
 30
0.0
 10
8.000000000000004
 20
3.310836357379147
 30
0.0
 10
8.000000000000004
 20
3.126028559854988
 30
0.0
 10
8.000000000000005
 20
2.722462364757655
 30
0.0
 10
8.000000000000005
 20
2.502988557368881
 30
0.0
 10
8.000000000000005
 20
2.073666487194782
 30
0.0
 10
8.000000000000005
 20
1.864622027682744
 30
0.0
 10
8.000000000000005
 20
1.541892905972235
 30
0.0
 10
8.000000000000005
 20
1.431484201720612
 30
0.0
 10
8.000000000000005
 20
1.401264886443291
 30
0.0
  0
SPLINE
  5
C6
330
1F
100
AcDbEntity
  8
0
  6
Continuous
 62
     4
370
    15
100
AcDbSpline
210
0.0
220
0.0
230
1.0
 70
    24
 71
     3
 72
     9
 73
     5
 74
     0
 42
0.000000001
 43
0.00000001
 40
0.0
 40
0.0
 40
0.0
 40
0.0
 40
0.6634701566515476
 40
0.9999999999999999
 40
0.9999999999999999
 40
0.9999999999999999
 40
0.9999999999999999
 10
8.0
 20
-3.468768084250645
 30
0.0
 10
8.000000000000004
 20
-3.552182799971932
 30
0.0
 10
8.00000000000001
 20
-3.677907694882459
 30
0.0
 10
8.000000000000007
 20
-3.856280956455022
 30
0.0
 10
8.000000000000007
 20
-3.916308882229589
 30
0.0
  0
SPLINE
  5
C7
330
1F
100
AcDbEntity
  8
0
  6
Continuous
 62
     1
370
    15
100
AcDbSpline
210
0.0
220
0.0
230
1.0
 70
     8
 71
     3
 72
    22
 73
    18
 74
     0
 42
0.000000001
 43
0.00000001
 40
0.0
 40
0.0
 40
0.0
 40
0.0
 40
0.0723745696995579
 40
0.1447610327179578
 40
0.21718556352955
 40
0.2896696022499856
 40
0.357138697051716
 40
0.4245276682084008
 40
0.4919046278701814
 40
0.5593378798527867
 40
0.6268581392380779
 40
0.6942947232504189
 40
0.7616725370199219
 40
0.8290598707271845
 40
0.8965248626397094
 40
0.9640341630426911
 40
1.0
 40
1.0
 40
1.0
 40
1.0
 10
7.999999999999865
 20
3.916308882229621
 30
0.0
 10
8.318911001768182
 20
3.842570569655686
 30
0.0
 10
8.956785411975304
 20
3.695081827084996
 30
0.0
 10
9.913860587493875
 20
3.199007643788681
 30
0.0
 10
10.87161322210033
 20
2.533707005503532
 30
0.0
 10
11.80834043281992
 20
1.736061132179124
 30
0.0
 10
12.72240406184414
 20
0.8668969368321249
 30
0.0
 10
13.6132713387776
 20
-0.0254567919761273
 30
0.0
 10
14.50395468003973
 20
-0.9163012760408609
 30
0.0
 10
15.39552408686631
 20
-1.761377273696376
 30
0.0
 10
16.28839114635141
 20
-2.517241645441283
 30
0.0
 10
17.18001225125874
 20
-3.147398105008052
 30
0.0
 10
18.07070604342631
 20
-3.618520846954659
 30
0.0
 10
18.96155570273429
 20
-3.910337944684446
 30
0.0
 10
19.85358285743859
 20
-3.996337524102596
 30
0.0
 10
20.60765979422657
 20
-3.928586953703029
 30
0.0
 10
21.06354115180083
 20
-3.759822341927922
 30
0.0
 10
21.22199616811361
 20
-3.701163221813562
 30
0.0
  0
SPLINE
  5
C8
330
1F
100
AcDbEntity
  8
0
  6
Continuous
 62
     1
370
    15
100
AcDbSpline
210
0.0
220
0.0
230
1.0
 70
     8
 71
     3
 72
    24
 73
    20
 74
     0
 42
0.000000001
 43
0.00000001
 40
0.0
 40
0.0
 40
0.0
 40
0.0
 40
0.00325073205614
 40
0.0676142064416336
 40
0.1318840545530993
 40
0.1961146990428262
 40
0.2603713066954965
 40
0.3247181630440901
 40
0.3890522190625182
 40
0.4533027160406993
 40
0.5175345040104643
 40
0.5818127314971507
 40
0.6461811241696985
 40
0.7104819441551926
 40
0.7747195233168739
 40
0.8389589177327226
 40
0.905134698390208
 40
0.9713759634817694
 40
1.0
 40
1.0
 40
1.0
 40
1.0
 10
32.28997206457444
 20
3.963959582553912
 30
0.0
 10
32.30500202619321
 20
3.965543743910884
 30
0.0
 10
32.61762051032241
 20
3.998493802906015
 30
0.0
 10
33.22799533932684
 20
3.877233291582467
 30
0.0
 10
34.11922137503058
 20
3.588709546166093
 30
0.0
 10
35.00987482833728
 20
3.097501175650346
 30
0.0
 10
35.90093277129577
 20
2.456455499049326
 30
0.0
 10
36.7934379807043
 20
1.690715254142428
 30
0.0
 10
37.68574350919479
 20
0.840361019221911
 30
0.0
 10
38.57670233416729
 20
-0.0526138645050599
 30
0.0
 10
39.4673558292038
 20
-0.9427078897982504
 30
0.0
 10
40.35877641053712
 20
-1.785738911107917
 30
0.0
 10
41.25161320113642
 20
-2.538320192768169
 30
0.0
 10
42.14339780325249
 20
-3.164113654497086
 30
0.0
 10
43.03414025572
 20
-3.62995631493501
 30
0.0
 10
43.93355735923772
 20
-3.919167803962252
 30
0.0
 10
44.84272639907383
 20
-3.996067696727471
 30
0.0
 10
45.58795620687506
 20
-3.921740613619983
 30
0.0
 10
46.02650279472005
 20
-3.751481391325377
 30
0.0
 10
46.15882697787666
 20
-3.700108485596658
 30
0.0
  0
SPLINE
  5
C9
330
1F
100
AcDbEntity
  8
0
  6
Continuous
 62
     1
370
    15
100
AcDbSpline
210
0.0
220
0.0
230
1.0
 70
     8
 71
     3
 72
    24
 73
    20
 74
     0
 42
0.000000001
 43
0.00000001
 40
0.0
 40
0.0
 40
0.0
 40
0.0
 40
0.0147426612441085
 40
0.0837545286116701
 40
0.1528026890841192
 40
0.2219075832570585
 40
0.286231325953022
 40
0.3504786803004694
 40
0.4147145831187408
 40
0.4790041539574758
 40
0.5433766759874111
 40
0.6076694235194751
 40
0.6719061406276896
 40
0.7361519338622212
 40
0.8004717649422022
 40
0.8648338388883097
 40
0.9291019614231657
 40
0.9933345000885282
 40
0.9999999999999999
 40
0.9999999999999999
 40
0.9999999999999999
 40
0.9999999999999999
 10
8.752326436153265
 20
3.706358097711549
 30
0.0
 10
8.820465520281862
 20
3.735417600393516
 30
0.0
 10
9.207570451794968
 20
3.900507532836371
 30
0.0
 10
9.91386285293613
 20
3.988896987007557
 30
0.0
 10
10.87161261297413
 20
3.94484117135078
 30
0.0
 10
11.80834058342816
 20
3.660755528537917
 30
0.0
 10
12.72240402325994
 20
3.193149644572429
 30
0.0
 10
13.6132713472699
 20
2.575022517346104
 30
0.0
 10
14.50395468462603
 20
1.827915817043744
 30
0.0
 10
15.39552405998103
 20
0.9885992840183826
 30
0.0
 10
16.2883912493918
 20
0.1003708449748011
 30
0.0
 10
17.18001186669795
 20
-0.7936659322920663
 30
0.0
 10
18.07070747756149
 20
-1.647463608625617
 30
0.0
 10
18.96155034679933
 20
-2.418963477885023
 30
0.0
 10
19.85360287722667
 20
-3.067361906757472
 30
0.0
 10
20.74629964876808
 20
-3.566898012258414
 30
0.0
 10
21.63755212295766
 20
-3.867033980909623
 30
0.0
 10
22.26197996078765
 20
-3.994653875035064
 30
0.0
 10
22.58964759829375
 20
-3.96249591800078
 30
0.0
 10
22.62045336743252
 20
-3.959472578229077
 30
0.0
  0
SPLINE
  5
CA
330
1F
100
AcDbEntity
  8
0
  6
Continuous
 62
     1
370
    15
100
AcDbSpline
210
0.0
220
0.0
230
1.0
 70
     8
 71
     3
 72
    23
 73
    19
 74
     0
 42
0.000000001
 43
0.00000001
 40
0.0
 40
0.0
 40
0.0
 40
0.0
 40
0.0309487561613803
 40
0.0951826693200536
 40
0.1594425469629248
 40
0.2237926778944354
 40
0.2881300078443765
 40
0.3523837745017884
 40
0.4166188311986916
 40
0.4809003297758031
 40
0.5452719981272416
 40
0.6095760903528825
 40
0.6738169385364131
 40
0.7380596020664879
 40
0.8042387503800351
 40
0.870483386460132
 40
0.9366585891097997
 40
1.0
 40
1.0
 40
1.0
 40
1.0
 10
33.69026424790709
 20
3.701088101983828
 30
0.0
 10
33.83331392010458
 20
3.755296448244906
 30
0.0
 10
34.27326212267906
 20
3.922013813868594
 30
0.0
 10
35.00985079101485
 20
3.995155765453868
 30
0.0
 10
35.90093922334987
 20
3.920357076882956
 30
0.0
 10
36.79343625102535
 20
3.638561980746785
 30
0.0
 10
37.68574397247017
 20
3.176650885048975
 30
0.0
 10
38.57670220822707
 20
2.554186048254208
 30
0.0
 10
39.46735587012819
 20
1.803716587840821
 30
0.0
 10
40.35877637280122
 20
0.962248586273347
 30
0.0
 10
41.25161331119786
 20
0.0731720152805916
 30
0.0
 10
42.14339740142614
 20
-0.8202132989883459
 30
0.0
 10
43.03414175156908
 20
-1.672311001157054
 30
0.0
 10
43.93355170575358
 20
-2.447504280780746
 30
0.0
 10
44.84274821643596
 20
-3.104676284168119
 30
0.0
 10
45.76163009320981
 20
-3.598062977120037
 30
0.0
 10
46.66656784661558
 20
-3.912562749207869
 30
0.0
 10
47.26506834303079
 20
-3.947436958641541
 30
0.0
 10
47.55777106915446
 20
-3.964492543781044
 30
0.0
  0
SPLINE
  5
CB
330
1F
100
AcDbEntity
  8
0
  6
Continuous
 62
     1
370
    15
100
AcDbSpline
210
0.0
220
0.0
230
1.0
 70
     8
 71
     3
 72
    18
 73
    14
 74
     0
 42
0.000000001
 43
0.00000001
 40
0.0
 40
0.0
 40
0.0
 40
0.0
 40
0.2499999999999989
 40
0.2499999999999989
 40
0.3749999999999976
 40
0.3749999999999976
 40
0.4999999999999962
 40
0.4999999999999962
 40
0.6249999999999949
 40
0.6249999999999949
 40
0.7499999999999936
 40
0.7499999999999936
 40
1.0
 40
1.0
 40
1.0
 40
1.0
 10
49.275
 20
2.062041032405028
 30
0.0
 10
49.275
 20
1.979666186865705
 30
0.0
 10
49.2747238457269
 20
1.90860769260217
 30
0.0
 10
49.24947599758391
 20
1.834506465890329
 30
0.0
 10
49.23646179407056
 20
1.815628992911637
 30
0.0
 10
49.19143723738738
 20
1.802738441636504
 30
0.0
 10
49.15888928932531
 20
1.810082489920888
 30
0.0
 10
49.07554476064639
 20
1.854543690950461
 30
0.0
 10
49.02504910723468
 20
1.891133957739561
 30
0.0
 10
48.9218781186707
 20
1.973154511492866
 30
0.0
 10
48.86924340861241
 20
2.018158387077744
 30
0.0
 10
48.71262549890766
 20
2.153025585729021
 30
0.0
 10
48.61094515315806
 20
2.241548980668957
 30
0.0
 10
48.513
 20
2.320827231752919
 30
0.0
  0
LINE
  5
CC
330
1F
100
AcDbEntity
  8
0
  6
Continuous
 62
     1
370
    15
100
AcDbLine
 10
7.999999999999867
 20
-3.916308882229611
 30
0.0
 11
8.752326436153266
 21
-3.706358097711539
 31
0.0
  0
SPLINE
  5
CD
330
1F
100
AcDbEntity
  8
0
  6
Continuous
 62
     1
370
    15
100
AcDbSpline
210
0.0
220
0.0
230
1.0
 70
     8
 71
     3
 72
    24
 73
    20
 74
     0
 42
0.000000001
 43
0.00000001
 40
0.0
 40
0.0
 40
0.0
 40
0.0
 40
0.0022849949299015
 40
0.0666458603984083
 40
0.1309127762197181
 40
0.195144108839665
 40
0.2594050302998215
 40
0.3237583722391928
 40
0.3880870480450148
 40
0.4523357482768314
 40
0.5165693678341702
 40
0.5808530422412326
 40
0.6452237441352325
 40
0.7095203035948562
 40
0.7737572260105283
 40
0.8379995941797804
 40
0.9023124039972475
 40
0.9666768369078874
 40
1.0
 40
1.0
 40
1.0
 40
1.0
 10
19.82180178948973
 20
3.965330112400598
 30
0.0
 10
19.8323669873896
 20
3.966464416149178
 30
0.0
 10
20.14051940169112
 20
3.999548362326922
 30
0.0
 10
20.74634879507099
 20
3.880004603075877
 30
0.0
 10
21.63751394837934
 20
3.594826618348256
 30
0.0
 10
22.52816299317007
 20
3.106054400774677
 30
0.0
 10
23.41927753970495
 20
2.467154373782687
 30
0.0
 10
24.3118681938935
 20
1.703049396542821
 30
0.0
 10
25.20407513346906
 20
0.8536106672253009
 30
0.0
 10
26.09498757418619
 20
-0.0390297447884549
 30
0.0
 10
26.98565386409346
 20
-0.929510913432062
 30
0.0
 10
27.87714757368833
 20
-1.773569154161026
 30
0.0
 10
28.77000515335684
 20
-2.527796313545678
 30
0.0
 10
29.6617067151466
 20
-3.155766239667817
 30
0.0
 10
30.55242276649346
 20
-3.624290530564842
 30
0.0
 10
31.44323609615454
 20
-3.913269768353108
 30
0.0
 10
32.33517002071405
 20
-3.996054144621896
 30
0.0
 10
33.08481559266237
 20
-3.926772599064576
 30
0.0
 10
33.53626571815266
 20
-3.758491946946945
 30
0.0
 10
33.69026424790709
 20
-3.701088101983815
 30
0.0
  0
SPLINE
  5
CE
330
1F
100
AcDbEntity
  8
0
  6
Continuous
 62
     1
370
    15
100
AcDbSpline
210
0.0
220
0.0
230
1.0
 70
     8
 71
     3
 72
    12
 73
     8
 74
     0
 42
0.000000001
 43
0.00000001
 40
0.0
 40
0.0
 40
0.0
 40
0.0
 40
0.0224869266966897
 40
0.2671555940982098
 40
0.5115678153042122
 40
0.7557924107990022
 40
0.9999999999999999
 40
0.9999999999999999
 40
0.9999999999999999
 40
0.9999999999999999
 10
44.75812676869845
 20
3.959916119262929
 30
0.0
 10
44.78627387849657
 20
3.962804936062815
 30
0.0
 10
45.1206751927218
 20
3.997125480565143
 30
0.0
 10
45.76167437118993
 20
3.86377798131114
 30
0.0
 10
46.67942117378794
 20
3.546825952355535
 30
0.0
 10
47.5963300376078
 20
3.028069049098999
 30
0.0
 10
48.20745043856513
 20
2.556569031947102
 30
0.0
 10
48.51300000000995
 20
2.320827231744871
 30
0.0
  0
SPLINE
  5
CF
330
1F
100
AcDbEntity
  8
0
  6
Continuous
 62
     1
370
    15
100
AcDbSpline
210
0.0
220
0.0
230
1.0
 70
    24
 71
     3
 72
     9
 73
     5
 74
     0
 42
0.000000001
 43
0.00000001
 40
0.0
 40
0.0
 40
0.0
 40
0.0
 40
0.6634701566515656
 40
1.0
 40
1.0
 40
1.0
 40
1.0
 10
8.000000000000007
 20
-3.468768084250645
 30
0.0
 10
8.000000000000007
 20
-3.552182799971936
 30
0.0
 10
8.000000000000009
 20
-3.677907694882464
 30
0.0
 10
8.000000000000007
 20
-3.856280956455025
 30
0.0
 10
8.000000000000007
 20
-3.916308882229589
 30
0.0
  0
SPLINE
  5
D0
330
1F
100
AcDbEntity
  8
0
  6
Continuous
 62
     1
370
    15
100
AcDbSpline
210
0.0
220
0.0
230
1.0
 70
     8
 71
     3
 72
    10
 73
     6
 74
     0
 42
0.000000001
 43
0.00000001
 40
0.0
 40
0.0
 40
0.0
 40
0.0
 40
0.444653921534752
 40
0.8893809130840834
 40
1.0
 40
1.0
 40
1.0
 40
1.0
 10
7.999999999999844
 20
-3.398813110829191
 30
0.0
 10
8.318916906969095
 20
-3.54100005282233
 30
0.0
 10
8.95680312854849
 20
-3.825397302400189
 30
0.0
 10
9.6740006069353
 20
-3.985698235330944
 30
0.0
 10
10.07245458895597
 20
-3.95360525774837
 30
0.0
 10
10.1518224234979
 20
-3.947212674791075
 30
0.0
  0
SPLINE
  5
D1
330
1F
100
AcDbEntity
  8
0
  6
Continuous
 62
     1
370
    15
100
AcDbSpline
210
0.0
220
0.0
230
1.0
 70
     8
 71
     3
 72
    24
 73
    20
 74
     0
 42
0.000000001
 43
0.00000001
 40
0.0
 40
0.0
 40
0.0
 40
0.0
 40
0.0299802291591824
 40
0.0942154389814014
 40
0.1584802394299037
 40
0.2228374659364073
 40
0.2871700248204374
 40
0.3514226033028885
 40
0.4156601002005458
 40
0.4799476549693927
 40
0.5443222424784259
 40
0.6086226830776152
 40
0.6728634830329768
 40
0.7371097290706405
 40
0.8014264210085956
 40
0.8657947391558538
 40
0.9300694239831094
 40
0.9943049022383036
 40
1.0
 40
1.0
 40
1.0
 40
1.0
 10
21.22199616811361
 20
3.701163221813575
 30
0.0
 10
21.36056085772579
 20
3.754025443934864
 30
0.0
 10
21.79601226771388
 20
3.920149506437706
 30
0.0
 10
22.52813967511999
 20
3.99470145811087
 30
0.0
 10
23.41928379911652
 20
3.923134924775217
 30
0.0
 10
24.31186651617492
 20
3.644199460401317
 30
0.0
 10
25.20407558284735
 20
3.18488269901548
 30
0.0
 10
26.0949874519092
 20
2.564628190148611
 30
0.0
 10
26.98565390421438
 20
1.815825199475123
 30
0.0
 10
27.8771475355101
 20
0.9754269761445113
 30
0.0
 10
28.7700052659849
 20
0.0867783057472112
 30
0.0
 10
29.66170630354532
 20
-0.806962128025033
 30
0.0
 10
30.55242429898872
 20
-1.659833334261723
 30
0.0
 10
31.4432303739977
 20
-2.429761243466376
 30
0.0
 10
32.33519140925473
 20
-3.076059438584259
 30
0.0
 10
33.22794380451272
 20
-3.573148082077691
 30
0.0
 10
34.11925875664645
 20
-3.870002313019126
 30
0.0
 10
34.73922665349779
 20
-3.995735117977645
 30
0.0
 10
35.06240019111701
 20
-3.963330297840509
 30
0.0
 10
35.08871922058261
 20
-3.960691271692827
 30
0.0
  0
SPLINE
  5
D2
330
1F
100
AcDbEntity
  8
0
  6
Continuous
 62
     1
370
    15
100
AcDbSpline
210
0.0
220
0.0
230
1.0
 70
     8
 71
     3
 72
    10
 73
     6
 74
     0
 42
0.000000001
 43
0.00000001
 40
0.0
 40
0.0
 40
0.0
 40
0.0
 40
0.2211487411935342
 40
0.6105879296677541
 40
1.0
 40
1.0
 40
1.0
 40
1.0
 10
46.15882697787666
 20
3.700108485596674
 30
0.0
 10
46.33243498232187
 20
3.763074628268191
 30
0.0
 10
46.81176374284681
 20
3.936923081962624
 30
0.0
 10
47.59631103836006
 20
4.00806776017983
 30
0.0
 10
48.20744410562953
 20
3.905454068673922
 30
0.0
 10
48.51300000000994
 20
3.854149009329236
 30
0.0
  0
SPLINE
  5
D3
330
1F
100
AcDbEntity
  8
0
  6
Continuous
 62
     1
370
    15
100
AcDbSpline
210
0.0
220
0.0
230
1.0
 70
     8
 71
     3
 72
     8
 73
     4
 74
     0
 42
0.000000001
 43
0.00000001
 40
0.0
 40
0.0
 40
0.0
 40
0.0
 40
1.0
 40
1.0
 40
1.0
 40
1.0
 10
48.513
 20
3.854149009331607
 30
0.0
 10
48.6382566105917
 20
3.824331548298936
 30
0.0
 10
48.75509360593186
 20
3.758096023453956
 30
0.0
 10
48.85858933922696
 20
3.664951368147341
 30
0.0
  0
SPLINE
  5
D4
330
1F
100
AcDbEntity
  8
0
  6
Continuous
 62
     1
370
    15
100
AcDbSpline
210
0.0
220
0.0
230
1.0
 70
     8
 71
     3
 72
    14
 73
    10
 74
     0
 42
0.000000001
 43
0.00000001
 40
0.0
 40
0.0
 40
0.0
 40
0.0
 40
0.25
 40
0.25
 40
0.5
 40
0.5
 40
0.75
 40
0.75
 40
1.0
 40
1.0
 40
1.0
 40
1.0
 10
48.85858933922578
 20
3.664951368147384
 30
0.0
 10
48.84431226268588
 20
3.538749583946052
 30
0.0
 10
48.82109414136892
 20
3.415553705926532
 30
0.0
 10
48.74851933119614
 20
3.177949522671859
 30
0.0
 10
48.69804643150738
 20
3.062215482996306
 30
0.0
 10
48.56408358870215
 20
2.864740793712616
 30
0.0
 10
48.4804952748822
 20
2.783419537892005
 30
0.0
 10
48.28670899848645
 20
2.678604106741775
 30
0.0
 10
48.18027788522816
 20
2.657554992225982
 30
0.0
 10
48.0752768980265
 20
2.66431457841239
 30
0.0
  0
SPLINE
  5
D5
330
1F
100
AcDbEntity
  8
0
  6
Continuous
 62
     1
370
    15
100
AcDbSpline
210
0.0
220
0.0
230
1.0
 70
     8
 71
     3
 72
     8
 73
     4
 74
     0
 42
0.000000001
 43
0.00000001
 40
0.0
 40
0.0
 40
0.0
 40
0.0
 40
1.0
 40
1.0
 40
1.0
 40
1.0
 10
49.27500000000001
 20
2.06797096048698
 30
0.0
 10
48.87828816894355
 20
2.293753471273784
 30
0.0
 10
48.47716894648008
 20
2.491329105922003
 30
0.0
 10
48.07527689802654
 20
2.66431457841245
 30
0.0
  0
LINE
  5
D6
330
1F
100
AcDbEntity
  8
0
  6
Continuous
 62
     1
370
    15
100
AcDbLine
 10
49.275
 20
2.062041032405033
 30
0.0
 11
49.275
 21
2.067970960486961
 31
0.0
  0
SPLINE
  5
D7
330
1F
100
AcDbEntity
  8
0
  6
Continuous
 62
     1
370
    15
100
AcDbSpline
210
0.0
220
0.0
230
1.0
 70
     8
 71
     3
 72
    13
 73
     9
 74
     0
 42
0.000000001
 43
0.00000001
 40
0.0
 40
0.0
 40
0.0
 40
0.0
 40
0.194884710009315
 40
0.3898014454386524
 40
0.5848206869121396
 40
0.780000166734627
 40
0.9616757888434591
 40
1.0
 40
1.0
 40
1.0
 40
1.0
 10
7.999999999999867
 20
-2.515043995786198
 30
0.0
 10
8.318911152545306
 20
-2.74781013864891
 30
0.0
 10
8.956785864331456
 20
-3.213380674853255
 30
0.0
 10
9.913858777325798
 20
-3.685510831353269
 30
0.0
 10
10.8716200165363
 20
-3.959305256843595
 30
0.0
 10
11.80831578659106
 20
-3.982735150323017
 30
0.0
 10
12.48812163502334
 20
-3.886986134391301
 30
0.0
 10
12.84805329056809
 20
-3.735325721684351
 30
0.0
 10
12.91075377794701
 20
-3.708906312203897
 30
0.0
  0
SPLINE
  5
D8
330
1F
100
AcDbEntity
  8
0
  6
Continuous
 62
     1
370
    15
100
AcDbSpline
210
0.0
220
0.0
230
1.0
 70
     8
 71
     3
 72
    24
 73
    20
 74
     0
 42
0.000000001
 43
0.00000001
 40
0.0
 40
0.0
 40
0.0
 40
0.0
 40
0.0240579275163475
 40
0.0883836181852511
 40
0.1526293369913722
 40
0.2168599758228259
 40
0.2811406671812353
 40
0.3455083819881195
 40
0.4098019578011662
 40
0.474035899337686
 40
0.5382752863750785
 40
0.6025851117918798
 40
0.6669465579063126
 40
0.7312143806971403
 40
0.7954430011016437
 40
0.8596975838509195
 40
0.9240424124521325
 40
0.9883744411265539
 40
1.0
 40
1.0
 40
1.0
 40
1.0
 10
23.97810705446235
 20
3.945314069723913
 30
0.0
 10
24.08938122037669
 20
3.951421096652084
 30
0.0
 10
24.49817841985998
 20
3.973856991676699
 30
0.0
 10
25.20408623597164
 20
3.805020125480951
 30
0.0
 10
26.0949845999065
 20
3.448549214951028
 30
0.0
 10
26.98565466834833
 20
2.905958609821777
 30
0.0
 10
27.87714733266672
 20
2.220545431177823
 30
0.0
 10
28.77000531174294
 20
1.423273701708678
 30
0.0
 10
29.66170632317763
 20
0.5540996286846319
 30
0.0
 10
30.55242417489128
 20
-0.3428027827930025
 30
0.0
 10
31.44323085106447
 20
-1.222515093896202
 30
0.0
 10
32.33518962237265
 20
-2.040826368420033
 30
0.0
 10
33.22795047584168
 20
-2.756090269145626
 30
0.0
 10
34.11923390609746
 20
-3.333698183643399
 30
0.0
 10
35.00986950916862
 20
-3.742366422363149
 30
0.0
 10
35.9009415253359
 20
-3.967482736290709
 30
0.0
 10
36.79340824823023
 20
-3.976584276322776
 30
0.0
 10
37.442427415601
 20
-3.882883826630918
 30
0.0
 10
37.79345339973425
 20
-3.733496077934593
 30
0.0
 10
37.84717908239997
 20
-3.710631791119979
 30
0.0
  0
SPLINE
  5
D9
330
1F
100
AcDbEntity
  8
0
  6
Continuous
 62
     1
370
    15
100
AcDbSpline
210
0.0
220
0.0
230
1.0
 70
    24
 71
     3
 72
    14
 73
    10
 74
     0
 42
0.000000001
 43
0.00000001
 40
0.0
 40
0.0
 40
0.0
 40
0.0
 40
0.25
 40
0.25
 40
0.4999999999999999
 40
0.4999999999999999
 40
0.75
 40
0.75
 40
1.0
 40
1.0
 40
1.0
 40
1.0
 10
8.000000000000005
 20
0.0752157988106888
 30
0.0
 10
8.000000000000005
 20
0.0005568384117099
 30
0.0
 10
8.000000000000005
 20
-0.1010671267827688
 30
0.0
 10
8.000000000000005
 20
-0.3847024616172149
 30
0.0
 10
8.000000000000005
 20
-0.5678609288148423
 30
0.0
 10
8.000000000000005
 20
-1.026413308824484
 30
0.0
 10
8.000000000000005
 20
-1.303113083508719
 30
0.0
 10
8.000000000000005
 20
-1.903080864655086
 30
0.0
 10
8.000000000000005
 20
-2.224534029052419
 30
0.0
 10
8.000000000000005
 20
-2.515043995786304
 30
0.0
  0
SPLINE
  5
DA
330
1F
100
AcDbEntity
  8
0
  6
Continuous
 62
     1
370
    15
100
AcDbSpline
210
0.0
220
0.0
230
1.0
 70
     8
 71
     3
 72
    14
 73
    10
 74
     0
 42
0.000000001
 43
0.00000001
 40
0.0
 40
0.0
 40
0.0
 40
0.0
 40
0.1516770757856859
 40
0.3033790766773977
 40
0.4551608571322486
 40
0.6070673497012714
 40
0.7484639071925989
 40
0.8896925476899842
 40
1.0
 40
1.0
 40
1.0
 40
1.0
 10
7.999999999999844
 20
0.0752157988108093
 30
0.0
 10
8.318911008886074
 20
-0.2442503732629162
 30
0.0
 10
8.956785433330195
 20
-0.8832352153120395
 30
0.0
 10
9.913860502039137
 20
-1.791979227384583
 30
0.0
 10
10.87161354285324
 20
-2.596309616701674
 30
0.0
 10
11.80833926931648
 20
-3.236885121898134
 30
0.0
 10
12.72240806903485
 20
-3.68241353711164
 30
0.0
 10
13.54831582799678
 20
-3.935529442922354
 30
0.0
 10
14.07705494147433
 20
-3.946758131946637
 30
0.0
 10
14.30892569963635
 20
-3.951682308295351
 30
0.0
  0
SPLINE
  5
DB
330
1F
100
AcDbEntity
  8
0
  6
Continuous
 62
     1
370
    15
100
AcDbSpline
210
0.0
220
0.0
230
1.0
 70
     8
 71
     3
 72
    23
 73
    19
 74
     0
 42
0.000000001
 43
0.00000001
 40
0.0
 40
0.0
 40
0.0
 40
0.0
 40
0.0516552240746873
 40
0.1158939678446971
 40
0.1801827704575374
 40
0.2445586074999
 40
0.3088602961932012
 40
0.3731023430850288
 40
0.4373498361648689
 40
0.50166777651238
 40
0.566037344071277
 40
0.630313276492716
 40
0.69455000158108
 40
0.7588126922902737
 40
0.8231656402390711
 40
0.8875057866459183
 40
0.9517623661021357
 40
1.0
 40
1.0
 40
1.0
 40
1.0
 10
25.37897157109589
 20
3.709747518726378
 30
0.0
 10
25.61767416682368
 20
3.786516175904989
 30
0.0
 10
26.15322872977983
 20
3.958754791570936
 30
0.0
 10
26.98564377005019
 20
3.993204558338404
 30
0.0
 10
27.87715025839051
 20
3.850212281476282
 30
0.0
 10
28.77000452814099
 20
3.508387831830073
 30
0.0
 10
29.66170653353133
 20
2.991487861089443
 30
0.0
 10
30.55242411590523
 20
2.323930805271549
 30
0.0
 10
31.44323087675095
 20
1.539663399483989
 30
0.0
 10
32.33518957861618
 20
0.6779464571904879
 30
0.0
 10
33.22795062517781
 20
-0.2173119958962287
 30
0.0
 10
34.11923335356884
 20
-1.102319719223932
 30
0.0
 10
35.00987156927886
 20
-1.93172805210614
 30
0.0
 10
35.9009338289606
 20
-2.663821047000616
 30
0.0
 10
36.79343701357814
 20
-3.26346113686201
 30
0.0
 10
37.6857463170461
 20
-3.692657162597433
 30
0.0
 10
38.50276685650278
 20
-3.938711017733478
 30
0.0
 10
39.02252647878751
 20
-3.946661442702593
 30
0.0
 10
39.24539993713819
 20
-3.950070593071825
 30
0.0
  0
SPLINE
  5
DC
330
1F
100
AcDbEntity
  8
0
  6
Continuous
 62
     1
370
    15
100
AcDbSpline
210
0.0
220
0.0
230
1.0
 70
     8
 71
     3
 72
    18
 73
    14
 74
     0
 42
0.000000001
 43
0.00000001
 40
0.0
 40
0.0
 40
0.0
 40
0.0
 40
0.2499999999999964
 40
0.2499999999999964
 40
0.3749999999999954
 40
0.3749999999999954
 40
0.4999999999999944
 40
0.4999999999999944
 40
0.6249999999999934
 40
0.6249999999999934
 40
0.7499999999999925
 40
0.7499999999999925
 40
1.0
 40
1.0
 40
1.0
 40
1.0
 10
49.275
 20
-3.157854843879095
 30
0.0
 10
49.27500000000003
 20
-3.211567818053485
 30
0.0
 10
49.27472384572685
 20
-3.27624047932118
 30
0.0
 10
49.24947599758385
 20
-3.403352933565432
 30
0.0
 10
49.23646179407056
 20
-3.451466028144815
 30
0.0
 10
49.19143723738739
 20
-3.558519864354721
 30
0.0
 10
49.15888928932529
 20
-3.61681310277546
 30
0.0
 10
49.07554476064639
 20
-3.725264418244288
 30
0.0
 10
49.02504910723468
 20
-3.774842897900836
 30
0.0
 10
48.92187811867071
 20
-3.852711276447631
 30
0.0
 10
48.8692434086124
 20
-3.881920763041508
 30
0.0
 10
48.71262549890766
 20
-3.94619744792664
 30
0.0
 10
48.61094515315804
 20
-3.958377252659278
 30
0.0
 10
48.513
 20
-3.948522857305237
 30
0.0
  0
SPLINE
  5
DD
330
1F
100
AcDbEntity
  8
0
  6
Continuous
 62
     1
370
    15
100
AcDbSpline
210
0.0
220
0.0
230
1.0
 70
     8
 71
     3
 72
    24
 73
    20
 74
     0
 42
0.000000001
 43
0.00000001
 40
0.0
 40
0.0
 40
0.0
 40
0.0
 40
0.0230756087633601
 40
0.0873962621991453
 40
0.1516405309550984
 40
0.2158733487318551
 40
0.2801598319515752
 40
0.3445292623786194
 40
0.4088189221391019
 40
0.4730525541666942
 40
0.5372952618847068
 40
0.6016120038923716
 40
0.6659709867373754
 40
0.7302360226833089
 40
0.7944654764687259
 40
0.8587245182288475
 40
0.9230759777647871
 40
0.9874027718886879
 40
1.0
 40
1.0
 40
1.0
 40
1.0
 10
11.51015951219859
 20
3.943071169076416
 30
0.0
 10
11.61690190101404
 20
3.950220873712799
 30
0.0
 10
12.02117664394047
 20
3.977299572587255
 30
0.0
 10
12.72240419901837
 20
3.808097335672644
 30
0.0
 10
13.61327130038482
 20
3.455708743768651
 30
0.0
 10
14.50395469654654
 20
2.915199988591192
 30
0.0
 10
15.39552405922012
 20
2.231858196779396
 30
0.0
 10
16.28839124048345
 20
1.435967558706963
 30
0.0
 10
17.18001190302191
 20
0.5675367275729558
 30
0.0
 10
18.07070734127684
 20
-0.3292654473944787
 30
0.0
 10
18.96155085598991
 20
-1.209594376684061
 30
0.0
 10
19.85360097387931
 20
-2.029105206557361
 30
0.0
 10
20.74630675270713
 20
-2.746235158676948
 30
0.0
 10
21.63752566061649
 20
-3.326157902824693
 30
0.0
 10
22.52815813385499
 20
-3.737556750846435
 30
0.0
 10
23.41928527167854
 20
-3.965537580059022
 30
0.0
 10
24.31184209599887
 20
-3.978005913894144
 30
0.0
 10
24.96527863378214
 20
-3.884944781770882
 30
0.0
 10
25.32075763553081
 20
-3.734400881793864
 30
0.0
 10
25.37897157109592
 20
-3.709747518726366
 30
0.0
  0
SPLINE
  5
DE
330
1F
100
AcDbEntity
  8
0
  6
Continuous
 62
     1
370
    15
100
AcDbSpline
210
0.0
220
0.0
230
1.0
 70
     8
 71
     3
 72
    21
 73
    17
 74
     0
 42
0.000000001
 43
0.00000001
 40
0.0
 40
0.0
 40
0.0
 40
0.0
 40
0.0287646500238508
 40
0.1027037596133374
 40
0.1765468348251339
 40
0.2503684077796624
 40
0.3242433536558355
 40
0.3982219263506976
 40
0.4721228377783782
 40
0.5459510665478865
 40
0.6197813815884169
 40
0.695837184704609
 40
0.7719682490595168
 40
0.8480195176562592
 40
0.9240124046659911
 40
1.0
 40
1.0
 40
1.0
 40
1.0
 10
36.44621357570558
 20
3.94495657863383
 30
0.0
 10
36.56196414519515
 20
3.951003997598204
 30
0.0
 10
36.97524985018745
 20
3.972596218017472
 30
0.0
 10
37.68575702754173
 20
3.801084186046733
 30
0.0
 10
38.57669871327953
 20
3.441568750036909
 30
0.0
 10
39.46735680720121
 20
2.896624037654191
 30
0.0
 10
40.35877612120707
 20
2.209226176824506
 30
0.0
 10
41.25161337867978
 20
1.410555965974802
 30
0.0
 10
42.14339738298425
 20
0.5406573273582408
 30
0.0
 10
43.03414175795504
 20
-0.3563301309073236
 30
0.0
 10
43.93355169850818
 20
-1.243973153517739
 30
0.0
 10
44.84274823960545
 20
-2.07588379026589
 30
0.0
 10
45.76163000802497
 20
-2.805901255389836
 30
0.0
 10
46.67943298861757
 20
-3.382964069800485
 30
0.0
 10
47.59632708508548
 20
-3.794865394158709
 30
0.0
 10
48.20744945441387
 20
-3.89730489184087
 30
0.0
 10
48.51300000000995
 20
-3.948522857306235
 30
0.0
  0
SPLINE
  5
DF
330
1F
100
AcDbEntity
  8
0
  6
Continuous
 62
     1
370
    15
100
AcDbSpline
210
0.0
220
0.0
230
1.0
 70
     8
 71
     3
 72
    23
 73
    19
 74
     0
 42
0.000000001
 43
0.00000001
 40
0.0
 40
0.0
 40
0.0
 40
0.0
 40
0.0506814746445043
 40
0.1149213337696632
 40
0.1792148642207139
 40
0.2435913509719516
 40
0.3078880583119847
 40
0.3721287317772393
 40
0.4363784819278119
 40
0.5007022744838452
 40
0.5650683125077546
 40
0.6293403933339194
 40
0.6935768880989706
 40
0.7578429740822273
 40
0.8222014879723499
 40
0.8865353337465549
 40
0.9507891975192759
 40
1.0
 40
1.0
 40
1.0
 40
1.0
 10
12.91075377794704
 20
3.708906312203905
 30
0.0
 10
13.14495061915066
 20
3.784887875282088
 30
0.0
 10
13.67599699348264
 20
3.957177703707503
 30
0.0
 10
14.50394534033434
 20
3.993787876648828
 30
0.0
 10
15.39552657084991
 20
3.853940501272946
 30
0.0
 10
16.28839056787211
 20
3.5149012333641
 30
0.0
 10
17.18001208359199
 20
3.000486990419519
 30
0.0
 10
18.07070729061222
 20
2.334977940893857
 30
0.0
 10
18.96155087814736
 20
1.55217303652848
 30
0.0
 10
19.85360093592156
 20
0.6913571531080622
 30
0.0
 10
20.74630688235838
 20
-0.2037587011391381
 30
0.0
 10
21.6375251808722
 20
-1.089259970832743
 30
0.0
 10
22.52815992275355
 20
-1.91981964198285
 30
0.0
 10
23.4192785880189
 20
-2.65369491667013
 30
0.0
 10
24.31186707524211
 20
-3.255519481487492
 30
0.0
 10
25.20407855577771
 20
-3.687563311158439
 30
0.0
 10
26.02554278867099
 20
-3.937126223906511
 30
0.0
 10
26.54979123881324
 20
-3.946701032818357
 30
0.0
 10
26.77716322854924
 20
-3.950853726742464
 30
0.0
  0
SPLINE
  5
E0
330
1F
100
AcDbEntity
  8
0
  6
Continuous
 62
     1
370
    15
100
AcDbSpline
210
0.0
220
0.0
230
1.0
 70
     8
 71
     3
 72
    19
 73
    15
 74
     0
 42
0.000000001
 43
0.00000001
 40
0.0
 40
0.0
 40
0.0
 40
0.0
 40
0.0684229413550977
 40
0.1519376896200137
 40
0.2355128189623971
 40
0.3192051818901662
 40
0.4028096862026416
 40
0.4863319642273591
 40
0.5698566024618662
 40
0.6558989474989434
 40
0.742026435986016
 40
0.8280636510964996
 40
0.9140348187990579
 40
1.0
 40
1.0
 40
1.0
 40
1.0
 10
37.8471790824
 20
3.71063179111999
 30
0.0
 10
38.0903906388866
 20
3.788160478454822
 30
0.0
 10
38.63045806729026
 20
3.960318082317451
 30
0.0
 10
39.46734482399009
 20
3.992573218349701
 30
0.0
 10
40.35877933821431
 20
3.846441340322597
 30
0.0
 10
41.2516125171587
 20
3.501831957724772
 30
0.0
 10
42.14339761345639
 20
2.982455335623487
 30
0.0
 10
43.03414169628521
 20
2.312857427202154
 30
0.0
 10
43.93355171558756
 20
1.519512711453206
 30
0.0
 10
44.84274823496636
 20
0.6390431396172901
 30
0.0
 10
45.7616300092662
 20
-0.2840655774730494
 30
0.0
 10
46.67943298828628
 20
-1.189809349868951
 30
0.0
 10
47.59632708516724
 20
-2.042465170571402
 30
0.0
 10
48.20744945444041
 20
-2.512203667134853
 30
0.0
 10
48.51300000000889
 20
-2.747064737709285
 30
0.0
  0
SPLINE
  5
E1
330
1F
100
AcDbEntity
  8
0
  6
Continuous
 62
     1
370
    15
100
AcDbSpline
210
0.0
220
0.0
230
1.0
 70
     8
 71
     3
 72
     8
 73
     4
 74
     0
 42
0.000000001
 43
0.00000001
 40
0.0
 40
0.0
 40
0.0
 40
0.0
 40
1.0
 40
1.0
 40
1.0
 40
1.0
 10
48.513
 20
-2.747064737702879
 30
0.0
 10
48.6382566105917
 20
-2.837267873099454
 30
0.0
 10
48.75509360593188
 20
-2.905913015568734
 30
0.0
 10
48.85858933922697
 20
-2.951011478193013
 30
0.0
  0
SPLINE
  5
E2
330
1F
100
AcDbEntity
  8
0
  6
Continuous
 62
     1
370
    15
100
AcDbSpline
210
0.0
220
0.0
230
1.0
 70
     8
 71
     3
 72
    10
 73
     6
 74
     0
 42
0.000000001
 43
0.00000001
 40
0.0
 40
0.0
 40
0.0
 40
0.0
 40
0.3593354671802804
 40
0.8292599037643497
 40
1.0
 40
1.0
 40
1.0
 40
1.0
 10
48.51487208683017
 20
-2.748238063634572
 30
0.0
 10
48.46968771709055
 20
-2.754038506621201
 30
0.0
 10
48.36541305031201
 20
-2.767424535088214
 30
0.0
 10
48.20335341873096
 20
-2.846720615675425
 30
0.0
 10
48.10222744364502
 20
-2.909074263085546
 30
0.0
 10
48.07527689802624
 20
-2.925691801928521
 30
0.0
  0
SPLINE
  5
E3
330
1F
100
AcDbEntity
  8
0
  6
Continuous
 62
     1
370
    15
100
AcDbSpline
210
0.0
220
0.0
230
1.0
 70
     8
 71
     3
 72
     8
 73
     4
 74
     0
 42
0.000000001
 43
0.00000001
 40
0.0
 40
0.0
 40
0.0
 40
0.0
 40
1.0
 40
1.0
 40
1.0
 40
1.0
 10
49.27500000000001
 20
-3.15402333765005
 30
0.0
 10
48.87828816894355
 20
-3.110152823656242
 30
0.0
 10
48.47716894648005
 20
-3.031811611712603
 30
0.0
 10
48.07527689802652
 20
-2.925691801928163
 30
0.0
  0
LINE
  5
E4
330
1F
100
AcDbEntity
  8
0
  6
Continuous
 62
     1
370
    15
100
AcDbLine
 10
49.275
 20
-3.157854843879093
 30
0.0
 11
49.275
 21
-3.15402333765005
 31
0.0
  0
SPLINE
  5
E5
330
1F
100
AcDbEntity
  8
0
  6
Continuous
 62
     1
370
    15
100
AcDbSpline
210
0.0
220
0.0
230
1.0
 70
     8
 71
     3
 72
    17
 73
    13
 74
     0
 42
0.000000001
 43
0.00000001
 40
0.0
 40
0.0
 40
0.0
 40
0.0
 40
0.1055612673188359
 40
0.2111398815291945
 40
0.3167740191714725
 40
0.4224949515304459
 40
0.5209013832604137
 40
0.6191909513800233
 40
0.7174630002434943
 40
0.815817153757138
 40
0.9142982111229462
 40
1.0
 40
1.0
 40
1.0
 40
1.0
 10
7.999999999999867
 20
1.40126488644342
 30
0.0
 10
8.318911002030823
 20
1.094825572708118
 30
0.0
 10
8.956785412763272
 20
0.4818965880405174
 30
0.0
 10
9.913860584340705
 20
-0.4872852520107324
 30
0.0
 10
10.87161323393571
 20
-1.422662785360539
 30
0.0
 10
11.80834038988813
 20
-2.257322167108687
 30
0.0
 10
12.72240420970438
 20
-2.950406124897355
 30
0.0
 10
13.61327078640864
 20
-3.478496449755532
 30
0.0
 10
14.50395674226259
 20
-3.832979347923883
 30
0.0
 10
15.39551637902316
 20
-3.989989387730129
 30
0.0
 10
16.25013436213663
 20
-3.965806482465175
 30
0.0
 10
16.80656513460445
 20
-3.793968557652217
 30
0.0
 10
17.06547693643344
 20
-3.714010961959659
 30
0.0
  0
SPLINE
  5
E6
330
1F
100
AcDbEntity
  8
0
  6
Continuous
 62
     1
370
    15
100
AcDbSpline
210
0.0
220
0.0
230
1.0
 70
     8
 71
     3
 72
    23
 73
    19
 74
     0
 42
0.000000001
 43
0.00000001
 40
0.0
 40
0.0
 40
0.0
 40
0.0
 40
0.045882087042819
 40
0.110179324807941
 40
0.1744169248999624
 40
0.2386599708030143
 40
0.3029734590974152
 40
0.3673385710295939
 40
0.4316100543056888
 40
0.4958423329626194
 40
0.560100575443053
 40
0.6244490689155326
 40
0.6887847617321786
 40
0.7530368933826541
 40
0.8172703155487155
 40
0.8815501784132207
 40
0.9459202087575855
 40
1.0
 40
1.0
 40
1.0
 40
1.0
 10
28.13349580228963
 20
3.948255506125942
 30
0.0
 10
28.3457494662054
 20
3.946595921314545
 30
0.0
 10
28.85544653723066
 20
3.942610663760535
 30
0.0
 10
29.6617138674682
 20
3.705292080802741
 30
0.0
 10
30.55242215138
 20
3.283109636333289
 30
0.0
 10
31.44323140402896
 20
2.688837960905818
 30
0.0
 10
32.33518943625227
 20
1.961280430349863
 30
0.0
 10
33.22795066656656
 20
1.135150861101241
 30
0.0
 10
34.11923333023805
 20
0.2514477966096256
 30
0.0
 10
35.00987162124724
 20
-0.6446000022885771
 30
0.0
 10
35.90093364421578
 20
-1.508521518300063
 30
0.0
 10
36.79343770153976
 20
-2.296173285485157
 30
0.0
 10
37.68574375231407
 20
-2.968703060265476
 30
0.0
 10
38.5767016415391
 20
-3.491828400469463
 30
0.0
 10
39.46735835700235
 20
-3.840776502654502
 30
0.0
 10
40.35876697870685
 20
-3.99153745339313
 30
0.0
 10
41.20434334816281
 20
-3.962762920813003
 30
0.0
 10
41.75185872536956
 20
-3.790590615820456
 30
0.0
 10
42.00183392081264
 20
-3.71198313303163
 30
0.0
  0
SPLINE
  5
E7
330
1F
100
AcDbEntity
  8
0
  6
Continuous
 62
     1
370
    15
100
AcDbSpline
210
0.0
220
0.0
230
1.0
 70
    24
 71
     3
 72
    14
 73
    10
 74
     0
 42
0.000000001
 43
0.00000001
 40
0.0
 40
0.0
 40
0.0
 40
0.0
 40
0.2499999999999998
 40
0.2499999999999998
 40
0.4999999999999996
 40
0.4999999999999996
 40
0.7499999999999998
 40
0.7499999999999998
 40
1.0
 40
1.0
 40
1.0
 40
1.0
 10
8.000000000000005
 20
3.474028909640044
 30
0.0
 10
8.000000000000005
 20
3.310836357379261
 30
0.0
 10
8.000000000000005
 20
3.126028559855098
 30
0.0
 10
8.000000000000005
 20
2.722462364757751
 30
0.0
 10
8.000000000000004
 20
2.502988557368965
 30
0.0
 10
8.000000000000005
 20
2.07366648719484
 30
0.0
 10
8.000000000000005
 20
1.864622027682788
 30
0.0
 10
8.000000000000005
 20
1.541892905972248
 30
0.0
 10
8.000000000000005
 20
1.431484201720614
 30
0.0
 10
8.000000000000005
 20
1.401264886443291
 30
0.0
  0
SPLINE
  5
E8
330
1F
100
AcDbEntity
  8
0
  6
Continuous
 62
     1
370
    15
100
AcDbSpline
210
0.0
220
0.0
230
1.0
 70
     8
 71
     3
 72
    19
 73
    15
 74
     0
 42
0.000000001
 43
0.00000001
 40
0.0
 40
0.0
 40
0.0
 40
0.0
 40
0.0914425170383607
 40
0.1829000608328785
 40
0.2744057018367069
 40
0.3659865288207895
 40
0.4512311648383997
 40
0.5363745676769018
 40
0.6215027944482855
 40
0.7067021444267225
 40
0.7920114249503166
 40
0.8772149848216364
 40
0.9623442907256532
 40
1.0
 40
1.0
 40
1.0
 40
1.0
 10
7.999999999999844
 20
3.474028909640033
 30
0.0
 10
8.318911001741746
 20
3.300195214592643
 30
0.0
 10
8.956785411896037
 20
2.952499258392818
 30
0.0
 10
9.91386058781099
 20
2.205948633000236
 30
0.0
 10
10.87161322090999
 20
1.34581332195983
 30
0.0
 10
11.80834043713776
 20
0.425598509128767
 30
0.0
 10
12.72240404697321
 20
-0.4933193049892233
 30
0.0
 10
13.61327139433172
 20
-1.365795001306216
 30
0.0
 10
14.50395447263314
 20
-2.169645029928867
 30
0.0
 10
15.39552486207712
 20
-2.863845956397856
 30
0.0
 10
16.28838825066327
 20
-3.416733098138146
 30
0.0
 10
17.18002303874782
 20
-3.786850107839359
 30
0.0
 10
17.90511983105479
 20
-3.968058860397119
 30
0.0
 10
18.33327142057747
 20
-3.949717422424808
 30
0.0
 10
18.46457695290968
 20
-3.944092470105052
 30
0.0
  0
SPLINE
  5
E9
330
1F
100
AcDbEntity
  8
0
  6
Continuous
 62
     1
370
    15
100
AcDbSpline
210
0.0
220
0.0
230
1.0
 70
     8
 71
     3
 72
    24
 73
    20
 74
     0
 42
0.000000001
 43
0.00000001
 40
0.0
 40
0.0
 40
0.0
 40
0.0
 40
0.0092483308191535
 40
0.0734862429822141
 40
0.1377296009827611
 40
0.2020434017168717
 40
0.2664088263395521
 40
0.330680621851293
 40
0.3949132125534104
 40
0.4591717672051654
 40
0.5235205732874129
 40
0.5878565786516391
 40
0.6521090224437487
 40
0.7163427566605528
 40
0.7806229318014132
 40
0.8449932748601731
 40
0.909296043184402
 40
0.9735355687685975
 40
1.0
 40
1.0
 40
1.0
 40
1.0
 10
29.5336543047856
 20
3.71297537188063
 30
0.0
 10
29.57640988054738
 20
3.731371383915404
 30
0.0
 10
29.91614109158575
 20
3.877544118944656
 30
0.0
 10
30.55238864407568
 20
3.972843799409153
 30
0.0
 10
31.44324039337611
 20
3.972119504832885
 30
0.0
 10
32.33518702410833
 20
3.754160663285464
 30
0.0
 10
33.22795131233121
 20
3.352517280792592
 30
0.0
 10
34.11923315650915
 20
2.780776784023808
 30
0.0
 10
35.00987167124993
 20
2.069834352877471
 30
0.0
 10
35.9009336179222
 20
1.254539875713116
 30
0.0
 10
36.79343775670402
 20
0.3766695193594015
 30
0.0
 10
37.68574355813574
 20
-0.5202800983671344
 30
0.0
 10
38.57670236200614
 20
-1.391284362900914
 30
0.0
 10
39.46735566894228
 20
-2.192417823845803
 30
0.0
 10
40.3587770246184
 20
-2.882731004276962
 30
0.0
 10
41.25161090278451
 20
-3.430941127208327
 30
0.0
 10
42.14340636790472
 20
-3.795018242333398
 30
0.0
 10
42.8595708578862
 20
-3.970657459916473
 30
0.0
 10
43.27871005955888
 20
-3.950436908842607
 30
0.0
 10
43.4010010925907
 20
-3.944537217118647
 30
0.0
  0
SPLINE
  5
EA
330
1F
100
AcDbEntity
  8
0
  6
Continuous
 62
     1
370
    15
100
AcDbSpline
210
0.0
220
0.0
230
1.0
 70
     8
 71
     3
 72
    18
 73
    14
 74
     0
 42
0.000000001
 43
0.00000001
 40
0.0
 40
0.0
 40
0.0
 40
0.0
 40
0.2499999999999964
 40
0.2499999999999964
 40
0.3749999999999953
 40
0.3749999999999953
 40
0.4999999999999943
 40
0.4999999999999943
 40
0.6249999999999933
 40
0.6249999999999933
 40
0.7499999999999922
 40
0.7499999999999922
 40
1.0
 40
1.0
 40
1.0
 40
1.0
 10
49.275
 20
-1.095813811474078
 30
0.0
 10
49.27500000000001
 20
-1.23190163118779
 30
0.0
 10
49.27472384572685
 20
-1.367632786719017
 30
0.0
 10
49.24947599758386
 20
-1.56884646767511
 30
0.0
 10
49.23646179407057
 20
-1.635837035233197
 30
0.0
 10
49.19143723738742
 20
-1.755781422718238
 30
0.0
 10
49.15888928932531
 20
-1.806730612854593
 30
0.0
 10
49.07554476064638
 20
-1.870720727293847
 30
0.0
 10
49.02504910723466
 20
-1.883708940161286
 30
0.0
 10
48.9218781186707
 20
-1.879556764954774
 30
0.0
 10
48.86924340861241
 20
-1.863762375963784
 30
0.0
 10
48.71262549890769
 20
-1.793171862197644
 30
0.0
 10
48.61094515315804
 20
-1.716828271990338
 30
0.0
 10
48.513
 20
-1.62769562555233
 30
0.0
  0
SPLINE
  5
EB
330
1F
100
AcDbEntity
  8
0
  6
Continuous
 62
     1
370
    15
100
AcDbSpline
210
0.0
220
0.0
230
1.0
 70
     8
 71
     3
 72
    23
 73
    19
 74
     0
 42
0.000000001
 43
0.00000001
 40
0.0
 40
0.0
 40
0.0
 40
0.0
 40
0.044911146197146
 40
0.1092034587827133
 40
0.1734397413234822
 40
0.2376850999291674
 40
0.3020044958794289
 40
0.3663661344100399
 40
0.4306338221649899
 40
0.4948659262911742
 40
0.5591276196129704
 40
0.6234817345240781
 40
0.6878111830053621
 40
0.7520606549520249
 40
0.8162950460430703
 40
0.8805794925850665
 40
0.9449509676593195
 40
1.0
 40
1.0
 40
1.0
 40
1.0
 10
15.66536903099422
 20
3.947633589753041
 30
0.0
 10
15.87313381133432
 20
3.946617069352508
 30
0.0
 10
16.37832315846821
 20
3.944145354576535
 30
0.0
 10
17.18001802367283
 20
3.710234039172829
 30
0.0
 10
18.07070569929301
 20
3.290901356123759
 30
0.0
 10
18.96155130539898
 20
2.69885779825116
 30
0.0
 10
19.85360082019497
 20
1.973136692321982
 30
0.0
 10
20.74630691743064
 20
1.148158401363667
 30
0.0
 10
21.63752515619873
 20
0.2649983795706152
 30
0.0
 10
22.52815998639934
 20
-0.6311914666018618
 30
0.0
 10
23.41927835784174
 20
-1.495952846161035
 30
0.0
 10
24.31186793345185
 20
-2.285004277950557
 30
0.0
 10
25.20407535664786
 20
-2.959592330089547
 30
0.0
 10
26.09498694245767
 20
-3.48517716589795
 30
0.0
 10
26.98565616837577
 20
-3.83690106030613
 30
0.0
 10
27.87713897590766
 20
-3.990786946427047
 30
0.0
 10
28.72724042231851
 20
-3.964292274990825
 30
0.0
 10
29.27921273316178
 20
-3.792271461882647
 30
0.0
 10
29.53365430478562
 20
-3.712975371880621
 30
0.0
  0
SPLINE
  5
EC
330
1F
100
AcDbEntity
  8
0
  6
Continuous
 62
     1
370
    15
100
AcDbSpline
210
0.0
220
0.0
230
1.0
 70
     8
 71
     3
 72
    16
 73
    12
 74
     0
 42
0.000000001
 43
0.00000001
 40
0.0
 40
0.0
 40
0.0
 40
0.0
 40
0.0821295968792078
 40
0.194847993134119
 40
0.3074555291505509
 40
0.4200662472809677
 40
0.5360714221498298
 40
0.6521913902731236
 40
0.7681896488029293
 40
0.8840988600025786
 40
1.0
 40
1.0
 40
1.0
 40
1.0
 10
40.6016271489775
 20
3.948923197219282
 30
0.0
 10
40.81836500687447
 20
3.946592051795357
 30
0.0
 10
41.33256376410842
 20
3.941061536307457
 30
0.0
 10
42.14340617065177
 20
3.700306381701263
 30
0.0
 10
43.03413940654629
 20
3.27527770665953
 30
0.0
 10
43.93355234973065
 20
2.673013099097696
 30
0.0
 10
44.8427480627293
 20
1.927450945649004
 30
0.0
 10
45.76163005536819
 20
1.071699542894538
 30
0.0
 10
46.67943297600909
 20
0.1601805801115058
 30
0.0
 10
47.59632708823633
 20
-0.7658763886993878
 30
0.0
 10
48.20744945546411
 20
-1.340429214891785
 30
0.0
 10
48.51300000000994
 20
-1.627695625561373
 30
0.0
  0
SPLINE
  5
ED
330
1F
100
AcDbEntity
  8
0
  6
Continuous
 62
     1
370
    15
100
AcDbSpline
210
0.0
220
0.0
230
1.0
 70
     8
 71
     3
 72
    24
 73
    20
 74
     0
 42
0.000000001
 43
0.00000001
 40
0.0
 40
0.0
 40
0.0
 40
0.0
 40
0.0082734287077832
 40
0.0725100308494109
 40
0.1367557091011117
 40
0.2010754250657538
 40
0.265437383820919
 40
0.3297053913329808
 40
0.3939378150392346
 40
0.4581998280883182
 40
0.5225542631865469
 40
0.5868840317322269
 40
0.6511338233453706
 40
0.7153685340278639
 40
0.7796533004103539
 40
0.8440250957581018
 40
0.9083227474120286
 40
0.9725607610089606
 40
1.0
 40
1.0
 40
1.0
 40
1.0
 10
17.06547693643347
 20
3.714010961959673
 30
0.0
 10
17.10372375798835
 20
3.730543983971041
 30
0.0
 10
17.43892676858867
 20
3.875442789341839
 30
0.0
 10
18.07067160301039
 20
3.971238622162897
 30
0.0
 10
18.96156045358738
 20
3.9739135521465
 30
0.0
 10
19.85359836577523
 20
3.758829123310051
 30
0.0
 10
20.74630757444448
 20
3.359918021789474
 30
0.0
 10
21.63752497951912
 20
2.790523864232778
 30
0.0
 10
22.52816003693641
 20
2.081448861785641
 30
0.0
 10
23.41927833237601
 20
1.267408724976279
 30
0.0
 10
24.3118679847574
 20
0.390227860671451
 30
0.0
 10
25.20407517709286
 20
-0.506835826658445
 30
0.0
 10
26.09498760844248
 20
-1.378539138806997
 30
0.0
 10
26.98565368345394
 20
-2.181045602129115
 30
0.0
 10
27.87714826299405
 20
-2.873306024397355
 30
0.0
 10
28.77000257447153
 20
-3.423855390924187
 30
0.0
 10
29.66171632413507
 20
-3.790958594462526
 30
0.0
 10
30.38234551134487
 20
-3.969364031862547
 30
0.0
 10
30.80598968742532
 20
-3.950067385651255
 30
0.0
 10
30.93278748585933
 20
-3.944291849494027
 30
0.0
  0
SPLINE
  5
EE
330
1F
100
AcDbEntity
  8
0
  6
Continuous
 62
     1
370
    15
100
AcDbSpline
210
0.0
220
0.0
230
1.0
 70
     8
 71
     3
 72
    15
 73
    11
 74
     0
 42
0.000000001
 43
0.00000001
 40
0.0
 40
0.0
 40
0.0
 40
0.0
 40
0.0217717666104281
 40
0.1585855236207316
 40
0.29540314677521
 40
0.4363449022553273
 40
0.5774261270549366
 40
0.7183594794533
 40
0.8591846428243438
 40
1.0
 40
1.0
 40
1.0
 40
1.0
 10
42.00183392081265
 20
3.711983133031645
 30
0.0
 10
42.04909626536969
 20
3.732221454295371
 30
0.0
 10
42.39335513022139
 20
3.879637363727139
 30
0.0
 10
43.03410673787523
 20
3.974399978686973
 30
0.0
 10
43.93356139731664
 20
3.970224154573141
 30
0.0
 10
44.84274560534752
 20
3.741977941564745
 30
0.0
 10
45.76163071311908
 20
3.317706053792177
 30
0.0
 10
46.6794328008364
 20
2.71415124250048
 30
0.0
 10
47.59632713201191
 20
1.970842544982194
 30
0.0
 10
48.20744947005564
 20
1.39499701278592
 30
0.0
 10
48.51300000000994
 20
1.107084271619194
 30
0.0
  0
SPLINE
  5
EF
330
1F
100
AcDbEntity
  8
0
  6
Continuous
 62
     1
370
    15
100
AcDbSpline
210
0.0
220
0.0
230
1.0
 70
     8
 71
     3
 72
     8
 73
     4
 74
     0
 42
0.000000001
 43
0.00000001
 40
0.0
 40
0.0
 40
0.0
 40
0.0
 40
1.0
 40
1.0
 40
1.0
 40
1.0
 10
48.513
 20
1.107084271628725
 30
0.0
 10
48.6382566105917
 20
0.9870636751994791
 30
0.0
 10
48.75509360593188
 20
0.8521830078852193
 30
0.0
 10
48.85858933922697
 20
0.7139398899543239
 30
0.0
  0
SPLINE
  5
F0
330
1F
100
AcDbEntity
  8
0
  6
Continuous
 62
     1
370
    15
100
AcDbSpline
210
0.0
220
0.0
230
1.0
 70
     8
 71
     3
 72
    14
 73
    10
 74
     0
 42
0.000000001
 43
0.00000001
 40
0.0
 40
0.0
 40
0.0
 40
0.0
 40
0.25
 40
0.25
 40
0.5
 40
0.5
 40
0.75
 40
0.75
 40
1.0
 40
1.0
 40
1.0
 40
1.0
 10
48.85858933922578
 20
0.7139398899552075
 30
0.0
 10
48.84431226268586
 20
0.6421814141048231
 30
0.0
 10
48.82109414136892
 20
0.5665040640020423
 30
0.0
 10
48.74851933119611
 20
0.4036927877609358
 30
0.0
 10
48.69804643150731
 20
0.3152191269256917
 30
0.0
 10
48.56408358870204
 20
0.1352470471689522
 30
0.0
 10
48.48049527488206
 20
0.0438986733909836
 30
0.0
 10
48.28670899848623
 20
-0.1260205588275493
 30
0.0
 10
48.18027788522791
 20
-0.2010846787915466
 30
0.0
 10
48.07527689802624
 20
-0.261377223516115
 30
0.0
  0
SPLINE
  5
F1
330
1F
100
AcDbEntity
  8
0
  6
Continuous
 62
     1
370
    15
100
AcDbSpline
210
0.0
220
0.0
230
1.0
 70
     8
 71
     3
 72
     8
 73
     4
 74
     0
 42
0.000000001
 43
0.00000001
 40
0.0
 40
0.0
 40
0.0
 40
0.0
 40
1.0
 40
1.0
 40
1.0
 40
1.0
 10
49.27500000000001
 20
-1.086052377163078
 30
0.0
 10
48.87828816894355
 20
-0.816399352382462
 30
0.0
 10
48.47716894648006
 20
-0.5404825057905991
 30
0.0
 10
48.07527689802652
 20
-0.2613772235157104
 30
0.0
  0
LINE
  5
F2
330
1F
100
AcDbEntity
  8
0
  6
Continuous
 62
     1
370
    15
100
AcDbLine
 10
49.275
 20
-1.095813811474071
 30
0.0
 11
49.275
 21
-1.086052377163081
 31
0.0
  0
LINE
  5
F3
330
1F
100
AcDbEntity
  8
0
  6
Continuous
 62
     1
370
    15
100
AcDbLine
 10
8.000000000000007
 20
-3.398813110829336
 30
0.0
 11
8.000000000000007
 21
-2.515043995786304
 31
0.0
  0
LINE
  5
F6
330
1F
100
AcDbEntity
  8
0
  6
Continuous
 62
     1
370
    15
100
AcDbLine
 10
49.275
 20
-0.8660254037844339
 30
0.0
 11
49.275
 21
0.657395546125663
 31
0.0
  0
LINE
  5
F7
330
1F
100
AcDbEntity
  8
0
  6
Continuous
 62
     1
370
    15
100
AcDbLine
 10
48.07527689802652
 20
-0.261377223515747
 30
0.0
 11
49.275
 21
-0.8660254037844339
 31
0.0
  0
SPLINE
  5
F8
330
1F
100
AcDbEntity
  8
0
  6
Continuous
 62
     1
370
    15
100
AcDbSpline
210
0.0
220
0.0
230
1.0
 70
     8
 71
     3
 72
    10
 73
     6
 74
     0
 42
0.000000001
 43
0.00000001
 40
0.0
 40
0.0
 40
0.0
 40
0.0
 40
0.5
 40
0.5
 40
1.0
 40
1.0
 40
1.0
 40
1.0
 10
49.275
 20
0.6573955461205402
 30
0.0
 10
49.27500000000173
 20
0.7292098939372134
 30
0.0
 10
49.23530012946453
 20
0.7770970710066124
 30
0.0
 10
49.08200749980713
 20
0.7954612443980683
 30
0.0
 10
48.974002460112
 20
0.7670303844193023
 30
0.0
 10
48.85858933922624
 20
0.7139398899559728
 30
0.0
  0
LINE
  5
F9
330
1F
100
AcDbEntity
  8
0
  6
Continuous
 62
     1
370
    15
100
AcDbLine
 10
49.275
 20
0.657395546125663
 30
0.0
 11
49.275
 21
2.062041032405033
 31
0.0
  0
LINE
  5
FA
330
1F
100
AcDbEntity
  8
0
  6
Continuous
 62
     1
370
    15
100
AcDbLine
 10
49.275
 20
-2.389446353694544
 30
0.0
 11
49.275
 21
-1.095813811474071
 31
0.0
  0
SPLINE
  5
FB
330
1F
100
AcDbEntity
  8
0
  6
Continuous
 62
     1
370
    15
100
AcDbSpline
210
0.0
220
0.0
230
1.0
 70
     8
 71
     3
 72
    10
 73
     6
 74
     0
 42
0.000000001
 43
0.00000001
 40
0.0
 40
0.0
 40
0.0
 40
0.0
 40
0.5
 40
0.5
 40
1.0
 40
1.0
 40
1.0
 40
1.0
 10
49.275
 20
-2.389446353689424
 30
0.0
 10
49.27500000000173
 20
-2.461260701503984
 30
0.0
 10
49.23530012946453
 20
-2.557295684332833
 30
0.0
 10
49.08200749980714
 20
-2.761572397418363
 30
0.0
 10
48.974002460112
 20
-2.864129513015182
 30
0.0
 10
48.85858933922625
 20
-2.951011478192246
 30
0.0
  0
LINE
  5
FC
330
1F
100
AcDbEntity
  8
0
  6
Continuous
 62
     1
370
    15
100
AcDbLine
 10
49.275
 20
-0.8660254037844339
 30
0.0
 11
49.275
 21
-1.086052377163079
 31
0.0
  0
SPLINE
  5
FD
330
1F
100
AcDbEntity
  8
0
  6
Continuous
 62
     1
370
    15
100
AcDbSpline
210
0.0
220
0.0
230
1.0
 70
     8
 71
     3
 72
    10
 73
     6
 74
     0
 42
0.000000001
 43
0.00000001
 40
0.0
 40
0.0
 40
0.0
 40
0.0
 40
0.5
 40
0.5
 40
1.0
 40
1.0
 40
1.0
 40
1.0
 10
49.275
 20
3.04684189982021
 30
0.0
 10
49.27500000000001
 20
3.190470595449548
 30
0.0
 10
49.23530012946156
 20
3.334392755345696
 30
0.0
 10
49.08200749980458
 20
3.55703364181819
 30
0.0
 10
48.97400246011058
 20
3.631159897434924
 30
0.0
 10
48.85858933922619
 20
3.664951368148246
 30
0.0
  0
LINE
  5
FE
330
1F
100
AcDbEntity
  8
0
  6
Continuous
 62
     1
370
    15
100
AcDbLine
 10
49.275
 20
2.067970960486961
 30
0.0
 11
49.275
 21
3.04684189982021
 31
0.0
  0
LINE
  5
FF
330
1F
100
AcDbEntity
  8
0
  6
Continuous
 62
     1
370
    15
100
AcDbLine
 10
49.275
 20
-2.389446353694544
 30
0.0
 11
49.275
 21
-3.15402333765003
 31
0.0
  0
LINE
  5
100
330
1F
100
AcDbEntity
  8
0
  6
Continuous
 62
     1
370
    15
100
AcDbLine
 10
49.275
 20
3.04684189982021
 30
0.0
 11
49.275
 21
3.206750000000005
 31
0.0
  0
LINE
  5
101
330
1F
100
AcDbEntity
  8
0
  6
Continuous
 62
     1
370
    15
100
AcDbLine
 10
49.275
 20
-3.206749999999996
 30
0.0
 11
49.275
 21
-3.157854843879093
 31
0.0
  0
LINE
  5
103
330
1F
100
AcDbEntity
  8
0
  6
Continuous
 62
     8
370
    15
100
AcDbLine
 10
48.513
 20
-3.968749999999995
 30
0.0
 11
48.513
 21
-3.948522857305234
 31
0.0
  0
LINE
  5
105
330
1F
100
AcDbEntity
  8
중심선
100
AcDbLine
 10
-55.325
 20
0.0000000000000001
 30
0.0
 11
52.27500000000001
 21
0.0000000000000001
 31
0.0
  0
CIRCLE
  5
106
330
1F
100
AcDbEntity
  8
외형선
100
AcDbCircle
 10
0.0
 20
0.0
 30
0.0
 40
3.000000000000001
  0
INSERT
  5
107
330
1F
100
AcDbEntity
  8
0
  6
Continuous
 62
     7
100
AcDbBlockReference
 66
     1
  2
블럭10
 10
-18.62936049909348
 20
-51.78679627639981
 30
0.0
  0
ATTRIB
  5
108
330
107
100
AcDbEntity
  8
FORMAT
 62
     2
100
AcDbText
 10
-29.68038085127794
 20
-49.71142936356762
 30
0.0
 40
4.233333333333333
  1
GMG22908[ 6 FLUTE ]
 41
0.75
  7
SLDTEXTSTYLE0
 11
-29.68038085127794
 21
-51.82809603023428
 31
0.0
100
AcDbAttribute
  2
AUTOATTR0
 70
     0
 74
     1
  0
SEQEND
  5
109
330
107
100
AcDbEntity
  8
0
  6
Continuous
 62
     7
  0
HATCH
  5
10A
330
1F
100
AcDbEntity
  8
중심선
100
AcDbHatch
 10
0.0
 20
0.0
 30
0.0
210
0.0
220
0.0
230
1.0
  2
SOLID
 70
     1
 71
     0
 91
        1
 92
        0
 93
        4
 72
     1
 10
-12.91445119471263
 20
-35.53962197475587
 11
-16.36072643854991
 21
-35.53962197475587
 72
     1
 10
-16.36072643854991
 20
-35.53962197475587
 11
-18.48895629775393
 21
-38.07594755532847
 72
     1
 10
-18.48895629775393
 20
-38.07594755532847
 11
-15.0426479688035
 21
-38.07590812602598
 72
     1
 10
-15.0426479688035
 20
-38.07590812602598
 11
-12.91445119471263
 21
-35.53962197475587
 97
        0
 75
     0
 76
     1
 98
        1
 10
-1.999514079925518
 20
0.2622744311706922
  0
HATCH
  5
10B
330
1F
100
AcDbEntity
  8
중심선
100
AcDbHatch
 10
0.0
 20
0.0
 30
0.0
210
0.0
220
0.0
230
1.0
  2
SOLID
 70
     1
 71
     0
 91
        1
 92
        0
 93
        4
 72
     1
 10
-7.901687203676677
 20
-35.53962197475587
 11
-11.34796244751396
 21
-35.53962197475587
 72
     1
 10
-11.34796244751396
 20
-35.53962197475587
 11
-15.87910045587135
 21
-40.93962197475589
 72
     1
 10
-15.87910045587135
 20
-40.93962197475589
 11
-12.43282521203406
 21
-40.93962197475589
 72
     1
 10
-12.43282521203406
 20
-40.93962197475589
 11
-7.901687203676677
 21
-35.53962197475587
 97
        0
 75
     0
 76
     1
 98
        1
 10
-1.999514079925518
 20
0.2622744311706922
  0
HATCH
  5
10C
330
1F
100
AcDbEntity
  8
중심선
100
AcDbHatch
 10
0.0
 20
0.0
 30
0.0
210
0.0
220
0.0
230
1.0
  2
SOLID
 70
     1
 71
     0
 91
        1
 92
        0
 93
        4
 72
     1
 10
-2.888923212640782
 20
-35.5396219747559
 11
-6.335198456477897
 21
-35.53962197475587
 72
     1
 10
-6.335198456477897
 20
-35.53962197475587
 11
-13.38363535836715
 21
-43.93962197475589
 72
     1
 10
-13.38363535836715
 20
-43.93962197475589
 11
-9.937360114529863
 21
-43.93962197475589
 72
     1
 10
-9.937360114529863
 20
-43.93962197475589
 11
-2.888923212640781
 21
-35.5396219747559
 97
        0
 75
     0
 76
     1
 98
        1
 10
-1.999514079925518
 20
0.2622744311706922
  0
HATCH
  5
10D
330
1F
100
AcDbEntity
  8
중심선
100
AcDbHatch
 10
0.0
 20
0.0
 30
0.0
210
0.0
220
0.0
230
1.0
  2
SOLID
 70
     1
 71
     0
 91
        1
 92
        0
 93
        6
 72
     3
 10
1.910967218371418
 20
-39.73962197480715
 11
3.960054785062283
 21
1.540882976769353E-10
 40
0.3939339440162628
 50
17.09539180608437
 51
320.0019657685081
 73
     0
 72
     1
 10
3.593966874072013
 20
-38.32751597939418
 11
5.899268747773052
 21
-36.39318926934625
 72
     3
 10
1.910967218318572
 20
-39.73962197475602
 11
6.600054785286829
 21
-1.278976924368180E-13
 40
0.636358354079598
 50
39.9987384933741
 51
368.4976242363725
 73
     1
 72
     1
 10
8.33629971021918
 20
-38.7796219746859
 11
0.5910345251544937
 21
-38.77962197468587
 72
     1
 10
0.5910345251544937
 20
-38.77962197468587
 11
0.5910094807085597
 21
-40.69962197468579
 72
     1
 10
0.5910094807085597
 20
-40.69962197468579
 11
5.032389250180596
 21
-40.69962197468576
 97
        0
 75
     0
 76
     1
 98
        1
 10
-1.999514079925518
 20
0.2622744311706922
  0
POINT
  5
10E
330
1F
100
AcDbEntity
  8
치수문자_일반주서
100
AcDbPoint
 10
0.0
 20
0.0
 30
0.0
  0
DIMENSION
  5
10F
330
1F
100
AcDbEntity
  8
치수문자_일반주서
100
AcDbDimension
  2
_D
 10
64.74524571577294
 20
3.968750000000065
 30
0.0
 11
64.74524571577295
 21
-0.4965537846535163
 31
0.0
 70
   160
  1
%%c<>
 71
     2
 42
7.937499999999998
 52
-270.0
  3
SLDDIMSTYLE0
100
AcDbAlignedDimension
 13
48.03538553457723
 23
-3.968749999999995
 33
0.0
 14
48.513
 24
3.968750000000005
 34
0.0
 50
90.0000000000002
100
AcDbRotatedDimension
1001
ACAD
1000
DSTYLE
1002
{
1070
   171
1070
     4
1070
   273
1070
     7
1002
}
  0
DIMENSION
  5
124
330
1F
100
AcDbEntity
  8
치수문자_일반주서
100
AcDbDimension
  2
_D_1
 10
49.275
 20
36.62430141807179
 30
0.0
 11
-1.525
 21
36.62430141807179
 31
0.0
 70
   160
  1
<>
 71
     2
 42
101.6
  3
SLDDIMSTYLE1
100
AcDbAlignedDimension
 13
-52.325
 23
3.468749999999998
 33
0.0
 14
49.275
 24
3.206750000000005
 34
0.0
100
AcDbRotatedDimension
1001
ACAD
1000
DSTYLE
1002
{
1070
   171
1070
     4
1070
   273
1070
     7
1002
}
  0
DIMENSION
  5
138
330
1F
100
AcDbEntity
  8
치수문자_일반주서
100
AcDbDimension
  2
_D_2
 10
7.999999999999851
 20
20.83374453033793
 30
0.0
 11
28.18347683933991
 21
20.83374453033793
 31
0.0
 70
   160
  1
<>
 71
     2
 42
41.27500000000013
  3
SLDDIMSTYLE2
100
AcDbAlignedDimension
 13
49.275
 23
3.206750000000005
 33
0.0
 14
7.999999999999861
 24
-3.916308882229614
 34
0.0
 50
0.0000000000000197
100
AcDbRotatedDimension
1001
ACAD
1000
DSTYLE
1002
{
1070
   171
1070
     4
1070
   273
1070
     7
1002
}
  0
DIMENSION
  5
14C
330
1F
100
AcDbEntity
  8
치수문자_일반주서
100
AcDbDimension
  2
_D_3
 10
-65.32499999999997
 20
-3.968750000000049
 30
0.0
 11
-65.32499999999999
 21
-0.0000000000000005
 31
0.0
 70
   160
  1
%%c<>
 71
     2
 42
7.9375
 52
-270.0
  3
SLDDIMSTYLE0
100
AcDbAlignedDimension
 13
-51.825
 23
3.968750000000001
 33
0.0
 14
-51.825
 24
-3.968749999999999
 34
0.0
 50
90.0000000000002
100
AcDbRotatedDimension
1001
ACAD
1000
DSTYLE
1002
{
1070
   171
1070
     4
1070
   273
1070
     7
1002
}
  0
INSERT
  5
166
330
1F
100
AcDbEntity
  8
외형선
100
AcDbBlockReference
  2
SW_DOWELSYMBOL_0
 10
0.0
 20
0.0
 30
0.0
  0
DIMENSION
  5
18E
102
{ACAD_REACTORS
102
}
102
{ACAD_XDICTIONARY
360
18F
102
}
330
1F
100
AcDbEntity
  8
치수문자_일반주서
100
AcDbDimension
  2
*D7
 10
48.513
 20
3.206750000000005
 30
0.0
 11
62.49731670384765
 21
23.40491944815556
 31
0.0
 70
   164
  1
<>
 71
     5
 42
0.762000000000001
  3
SLDDIMSTYLE2
100
AcDbRadialDimension
 15
48.94675831358084
 25
3.833246388975633
 35
0.0
 40
0.0
1001
ACAD
1000
DSTYLE
1002
{
1070
   171
1070
     3
1070
   273
1070
     2
1002
}
1001
ACAD_DSTYLE_DIMRADIAL_EXTENSION
1070
   387
1070
     1
1070
   388
1040
0.0
1070
   390
1040
0.777649907823311
  0
ENDSEC
  0
SECTION
  2
OBJECTS
  0
DICTIONARY
  5
C
330
0
100
AcDbDictionary
281
     1
  3
ACAD_GROUP
350
D
  3
ACAD_IMAGE_VARS
350
18A
  3
ACAD_LAYOUT
350
1A
  3
ACAD_MLINESTYLE
350
17
  3
ACAD_PLOTSETTINGS
350
19
  3
ACAD_PLOTSTYLENAME
350
E
  3
ACAD_SCALELIST
350
47
  3
APPDATA
350
188
  3
DWGPROPS
350
19C
  0
DICTIONARY
  5
18F
330
18E
100
AcDbDictionary
280
     1
281
     1
  0
DICTIONARY
  5
D
102
{ACAD_REACTORS
330
C
102
}
330
C
100
AcDbDictionary
281
     1
  0
RASTERVARIABLES
  5
18A
102
{ACAD_REACTORS
330
C
102
}
330
C
100
AcDbRasterVariables
 90
        0
 70
     1
 71
     1
 72
     1
  0
DICTIONARY
  5
1A
102
{ACAD_REACTORS
330
C
102
}
330
C
100
AcDbDictionary
281
     1
  3
Layout1
350
1E
  3
Layout2
350
26
  3
Model
350
22
  0
DICTIONARY
  5
17
102
{ACAD_REACTORS
330
C
102
}
330
C
100
AcDbDictionary
281
     1
  3
Standard
350
18
  0
DICTIONARY
  5
19
102
{ACAD_REACTORS
330
C
102
}
330
C
100
AcDbDictionary
281
     1
  0
ACDBDICTIONARYWDFLT
  5
E
102
{ACAD_REACTORS
330
C
102
}
330
C
100
AcDbDictionary
281
     1
  3
Normal
350
F
100
AcDbDictionaryWithDefault
340
F
  0
DICTIONARY
  5
47
102
{ACAD_REACTORS
330
C
102
}
330
C
100
AcDbDictionary
281
     1
  3
A0
350
48
  3
A1
350
49
  3
A2
350
4A
  3
A3
350
4B
  3
A4
350
4C
  3
A5
350
4D
  3
A6
350
4E
  3
A7
350
4F
  3
A8
350
50
  3
A9
350
51
  3
B0
350
52
  3
B1
350
53
  3
B2
350
54
  3
B3
350
55
  3
B4
350
56
  3
B5
350
57
  3
B6
350
58
  3
B7
350
59
  3
B8
350
5A
  3
B9
350
5B
  3
C0
350
5C
  3
C1
350
5D
  3
C2
350
5E
  3
C3
350
5F
  3
C4
350
60
  3
C5
350
61
  3
C6
350
62
  3
C7
350
63
  3
C8
350
64
  3
C9
350
65
  3
D0
350
66
  3
D1
350
67
  3
D2
350
68
  0
DICTIONARY
  5
188
102
{ACAD_REACTORS
330
C
102
}
330
C
100
AcDbDictionary
281
     1
  0
XRECORD
  5
19C
102
{ACAD_REACTORS
330
C
102
}
330
C
100
AcDbXrecord
280
     1
  1
DWGPROPS COOKIE
  2

  3

  4

  6

  7

  8
12016016
  9

300
=
301
=
302
=
303
=
304
=
305
=
306
=
307
=
308
=
309
=
 40
0.0
 41
2458236.366669502
 42
2458241.292226586
  1

 90
        0
  0
LAYOUT
  5
1E
102
{ACAD_REACTORS
330
1A
102
}
330
1A
100
AcDbPlotSettings
  1

  2
none_device
  4

  6

 40
0.0
 41
0.0
 42
0.0
 43
0.0
 44
0.0
 45
0.0
 46
0.0
 47
0.0
 48
0.0
 49
0.0
140
0.0
141
0.0
142
1.0
143
1.0
 70
   688
 72
     1
 73
     0
 74
     5
  7

 75
    16
147
1.0
148
0.0
149
0.0
100
AcDbLayout
  1
Layout1
 70
     1
 71
     1
 10
0.0
 20
0.0
 11
420.0
 21
297.0
 12
0.0
 22
0.0
 32
0.0
 14
1.000000000000000E+20
 24
1.000000000000000E+20
 34
1.000000000000000E+20
 15
-1.000000000000000E+20
 25
-1.000000000000000E+20
 35
-1.000000000000000E+20
146
0.0
 13
0.0
 23
0.0
 33
0.0
 16
1.0
 26
0.0
 36
0.0
 17
0.0
 27
1.0
 37
0.0
 76
     0
330
1B
  0
LAYOUT
  5
26
102
{ACAD_REACTORS
330
1A
102
}
330
1A
100
AcDbPlotSettings
  1

  2
none_device
  4

  6

 40
0.0
 41
0.0
 42
0.0
 43
0.0
 44
0.0
 45
0.0
 46
0.0
 47
0.0
 48
0.0
 49
0.0
140
0.0
141
0.0
142
1.0
143
1.0
 70
   688
 72
     1
 73
     0
 74
     5
  7

 75
    16
147
1.0
148
0.0
149
0.0
100
AcDbLayout
  1
Layout2
 70
     1
 71
     2
 10
0.0
 20
0.0
 11
0.0
 21
0.0
 12
0.0
 22
0.0
 32
0.0
 14
0.0
 24
0.0
 34
0.0
 15
0.0
 25
0.0
 35
0.0
146
0.0
 13
0.0
 23
0.0
 33
0.0
 16
1.0
 26
0.0
 36
0.0
 17
0.0
 27
1.0
 37
0.0
 76
     0
330
23
  0
LAYOUT
  5
22
102
{ACAD_REACTORS
330
1A
102
}
330
1A
100
AcDbPlotSettings
  1

  2
none_device
  4
ANSI_A_(11.00_x_8.50_Inches)
  6

 40
6.35
 41
19.05
 42
6.35000508
 43
19.05000254
 44
279.4
 45
215.9
 46
139.5636563656738
 47
92.37335026218355
 48
0.0
 49
0.0
140
0.0
141
0.0
142
0.0767641331270813
143
1.0
 70
  1696
 72
     0
 73
     0
 74
     0
  7

 75
     0
147
0.0235690232323232
148
0.0
149
0.0
100
AcDbLayout
  1
Model
 70
     1
 71
     0
 10
0.0
 20
0.0
 11
420.0
 21
297.0
 12
0.0
 22
0.0
 32
0.0
 14
-69.70000000000005
 24
-49.71142936356762
 34
0.0
 15
70.59115006503879
 25
40.99930141807179
 35
0.0
146
0.0
 13
0.0
 23
0.0
 33
0.0
 16
1.0
 26
0.0
 36
0.0
 17
0.0
 27
1.0
 37
0.0
 76
     0
330
1F
331
29
  0
MLINESTYLE
  5
18
102
{ACAD_REACTORS
330
17
102
}
330
17
100
AcDbMlineStyle
  2
Standard
 70
     0
  3

 62
   256
 51
90.0
 52
90.0
 71
     2
 49
0.5
 62
   256
  6
BYLAYER
 49
-0.5
 62
   256
  6
BYLAYER
  0
ACDBPLACEHOLDER
  5
F
102
{ACAD_REACTORS
330
E
102
}
330
E
  0
SCALE
  5
48
102
{ACAD_REACTORS
330
47
102
}
330
47
100
AcDbScale
 70
     0
300
1:1
140
1.0
141
1.0
290
     1
  0
SCALE
  5
49
102
{ACAD_REACTORS
330
47
102
}
330
47
100
AcDbScale
 70
     0
300
1:2
140
1.0
141
2.0
290
     0
  0
SCALE
  5
4A
102
{ACAD_REACTORS
330
47
102
}
330
47
100
AcDbScale
 70
     0
300
1:4
140
1.0
141
4.0
290
     0
  0
SCALE
  5
4B
102
{ACAD_REACTORS
330
47
102
}
330
47
100
AcDbScale
 70
     0
300
1:5
140
1.0
141
5.0
290
     0
  0
SCALE
  5
4C
102
{ACAD_REACTORS
330
47
102
}
330
47
100
AcDbScale
 70
     0
300
1:8
140
1.0
141
8.0
290
     0
  0
SCALE
  5
4D
102
{ACAD_REACTORS
330
47
102
}
330
47
100
AcDbScale
 70
     0
300
1:10
140
1.0
141
10.0
290
     0
  0
SCALE
  5
4E
102
{ACAD_REACTORS
330
47
102
}
330
47
100
AcDbScale
 70
     0
300
1:16
140
1.0
141
16.0
290
     0
  0
SCALE
  5
4F
102
{ACAD_REACTORS
330
47
102
}
330
47
100
AcDbScale
 70
     0
300
1:20
140
1.0
141
20.0
290
     0
  0
SCALE
  5
50
102
{ACAD_REACTORS
330
47
102
}
330
47
100
AcDbScale
 70
     0
300
1:30
140
1.0
141
30.0
290
     0
  0
SCALE
  5
51
102
{ACAD_REACTORS
330
47
102
}
330
47
100
AcDbScale
 70
     0
300
1:40
140
1.0
141
40.0
290
     0
  0
SCALE
  5
52
102
{ACAD_REACTORS
330
47
102
}
330
47
100
AcDbScale
 70
     0
300
1:50
140
1.0
141
50.0
290
     0
  0
SCALE
  5
53
102
{ACAD_REACTORS
330
47
102
}
330
47
100
AcDbScale
 70
     0
300
1:100
140
1.0
141
100.0
290
     0
  0
SCALE
  5
54
102
{ACAD_REACTORS
330
47
102
}
330
47
100
AcDbScale
 70
     0
300
2:1
140
2.0
141
1.0
290
     0
  0
SCALE
  5
55
102
{ACAD_REACTORS
330
47
102
}
330
47
100
AcDbScale
 70
     0
300
4:1
140
4.0
141
1.0
290
     0
  0
SCALE
  5
56
102
{ACAD_REACTORS
330
47
102
}
330
47
100
AcDbScale
 70
     0
300
8:1
140
8.0
141
1.0
290
     0
  0
SCALE
  5
57
102
{ACAD_REACTORS
330
47
102
}
330
47
100
AcDbScale
 70
     0
300
10:1
140
10.0
141
1.0
290
     0
  0
SCALE
  5
58
102
{ACAD_REACTORS
330
47
102
}
330
47
100
AcDbScale
 70
     0
300
100:1
140
100.0
141
1.0
290
     0
  0
SCALE
  5
59
102
{ACAD_REACTORS
330
47
102
}
330
47
100
AcDbScale
 70
     0
300
1/128" = 1'-0"
140
0.0078125
141
12.0
290
     0
  0
SCALE
  5
5A
102
{ACAD_REACTORS
330
47
102
}
330
47
100
AcDbScale
 70
     0
300
1/64" = 1'-0"
140
0.015625
141
12.0
290
     0
  0
SCALE
  5
5B
102
{ACAD_REACTORS
330
47
102
}
330
47
100
AcDbScale
 70
     0
300
1/32" = 1'-0"
140
0.03125
141
12.0
290
     0
  0
SCALE
  5
5C
102
{ACAD_REACTORS
330
47
102
}
330
47
100
AcDbScale
 70
     0
300
1/16" = 1'-0"
140
0.0625
141
12.0
290
     0
  0
SCALE
  5
5D
102
{ACAD_REACTORS
330
47
102
}
330
47
100
AcDbScale
 70
     0
300
3/32" = 1'-0"
140
0.09375
141
12.0
290
     0
  0
SCALE
  5
5E
102
{ACAD_REACTORS
330
47
102
}
330
47
100
AcDbScale
 70
     0
300
1/8" = 1'-0"
140
0.125
141
12.0
290
     0
  0
SCALE
  5
5F
102
{ACAD_REACTORS
330
47
102
}
330
47
100
AcDbScale
 70
     0
300
3/16" = 1'-0"
140
0.1875
141
12.0
290
     0
  0
SCALE
  5
60
102
{ACAD_REACTORS
330
47
102
}
330
47
100
AcDbScale
 70
     0
300
1/4" = 1'-0"
140
0.25
141
12.0
290
     0
  0
SCALE
  5
61
102
{ACAD_REACTORS
330
47
102
}
330
47
100
AcDbScale
 70
     0
300
3/8" = 1'-0"
140
0.375
141
12.0
290
     0
  0
SCALE
  5
62
102
{ACAD_REACTORS
330
47
102
}
330
47
100
AcDbScale
 70
     0
300
1/2" = 1'-0"
140
0.5
141
12.0
290
     0
  0
SCALE
  5
63
102
{ACAD_REACTORS
330
47
102
}
330
47
100
AcDbScale
 70
     0
300
3/4" = 1'-0"
140
0.75
141
12.0
290
     0
  0
SCALE
  5
64
102
{ACAD_REACTORS
330
47
102
}
330
47
100
AcDbScale
 70
     0
300
1" = 1'-0"
140
1.0
141
12.0
290
     0
  0
SCALE
  5
65
102
{ACAD_REACTORS
330
47
102
}
330
47
100
AcDbScale
 70
     0
300
1-1/2" = 1'-0"
140
1.5
141
12.0
290
     0
  0
SCALE
  5
66
102
{ACAD_REACTORS
330
47
102
}
330
47
100
AcDbScale
 70
     0
300
3" = 1'-0"
140
3.0
141
12.0
290
     0
  0
SCALE
  5
67
102
{ACAD_REACTORS
330
47
102
}
330
47
100
AcDbScale
 70
     0
300
6" = 1'-0"
140
6.0
141
12.0
290
     0
  0
SCALE
  5
68
102
{ACAD_REACTORS
330
47
102
}
330
47
100
AcDbScale
 70
     0
300
1'-0" = 1'-0"
140
12.0
141
12.0
290
     0
  0
ENDSEC
  0
EOF
