  0
SECTION
  2
HEADER
  9
$ACADVER
  1
AC1015
  9
$ACADMAINTVER
 70
     6
  9
$DWGCODEPAGE
  3
ANSI_949
  9
$INSBASE
 10
0.0
 20
0.0
 30
0.0
  9
$EXTMIN
 10
-69.70000000000006
 20
-49.71142936356762
 30
0.0
  9
$EXTMAX
 10
71.54814364820501
 20
40.99930141807179
 30
0.0
  9
$LIMMIN
 10
0.0
 20
0.0
  9
$LIMMAX
 10
420.0
 20
297.0
  9
$ORTHOMODE
 70
     1
  9
$REGENMODE
 70
     1
  9
$FILLMODE
 70
     1
  9
$QTEXTMODE
 70
     0
  9
$MIRRTEXT
 70
     1
  9
$LTSCALE
 40
1.0
  9
$ATTMODE
 70
     1
  9
$TEXTSIZE
 40
3.5
  9
$TRACEWID
 40
1.0
  9
$TEXTSTYLE
  7
Standard
  9
$CLAYER
  8
0
  9
$CELTYPE
  6
ByLayer
  9
$CECOLOR
 62
   256
  9
$CELTSCALE
 40
1.0
  9
$DISPSILH
 70
     0
  9
$DIMSCALE
 40
1.0
  9
$DIMASZ
 40
3.302
  9
$DIMEXO
 40
1.0
  9
$DIMDLI
 40
3.75
  9
$DIMRND
 40
0.0
  9
$DIMDLE
 40
0.0
  9
$DIMEXE
 40
1.0
  9
$DIMTP
 40
0.0
  9
$DIMTM
 40
0.0
  9
$DIMTXT
 40
3.5
  9
$DIMCEN
 40
2.5
  9
$DIMTSZ
 40
0.0
  9
$DIMTOL
 70
     0
  9
$DIMLIM
 70
     0
  9
$DIMTIH
 70
     1
  9
$DIMTOH
 70
     1
  9
$DIMSE1
 70
     0
  9
$DIMSE2
 70
     0
  9
$DIMTAD
 70
     1
  9
$DIMZIN
 70
     0
  9
$DIMBLK
  1

  9
$DIMASO
 70
     1
  9
$DIMSHO
 70
     1
  9
$DIMPOST
  1

  9
$DIMAPOST
  1

  9
$DIMALT
 70
     0
  9
$DIMALTD
 70
     3
  9
$DIMALTF
 40
0.0393700787401575
  9
$DIMLFAC
 40
1.0
  9
$DIMTOFL
 70
     1
  9
$DIMTVP
 40
0.0
  9
$DIMTIX
 70
     0
  9
$DIMSOXD
 70
     0
  9
$DIMSAH
 70
     0
  9
$DIMBLK1
  1

  9
$DIMBLK2
  1

  9
$DIMSTYLE
  2
ISO-25
  9
$DIMCLRD
 70
     0
  9
$DIMCLRE
 70
     0
  9
$DIMCLRT
 70
     0
  9
$DIMTFAC
 40
1.0
  9
$DIMGAP
 40
1.524
  9
$DIMJUST
 70
     0
  9
$DIMSD1
 70
     0
  9
$DIMSD2
 70
     0
  9
$DIMTOLJ
 70
     0
  9
$DIMTZIN
 70
     0
  9
$DIMALTZ
 70
     0
  9
$DIMALTTZ
 70
     0
  9
$DIMUPT
 70
     0
  9
$DIMDEC
 70
     2
  9
$DIMTDEC
 70
     2
  9
$DIMALTU
 70
     2
  9
$DIMALTTD
 70
     3
  9
$DIMTXSTY
  7
Standard
  9
$DIMAUNIT
 70
     0
  9
$DIMADEC
 70
     2
  9
$DIMALTRND
 40
0.0
  9
$DIMAZIN
 70
     0
  9
$DIMDSEP
 70
    44
  9
$DIMATFIT
 70
     3
  9
$DIMFRAC
 70
     0
  9
$DIMLDRBLK
  1

  9
$DIMLUNIT
 70
     2
  9
$DIMLWD
 70
    -2
  9
$DIMLWE
 70
    -2
  9
$DIMTMOVE
 70
     0
  9
$LUNITS
 70
     2
  9
$LUPREC
 70
     2
  9
$SKETCHINC
 40
1.0
  9
$FILLETRAD
 40
10.0
  9
$AUNITS
 70
     0
  9
$AUPREC
 70
     2
  9
$MENU
  1
.
  9
$ELEVATION
 40
0.0
  9
$PELEVATION
 40
0.0
  9
$THICKNESS
 40
0.0
  9
$LIMCHECK
 70
     0
  9
$CHAMFERA
 40
0.0
  9
$CHAMFERB
 40
0.0
  9
$CHAMFERC
 40
0.0
  9
$CHAMFERD
 40
0.0
  9
$SKPOLY
 70
     0
  9
$TDCREATE
 40
2458236.741424305
  9
$TDUCREATE
 40
2458236.366424305
  9
$TDUPDATE
 40
2458241.573177222
  9
$TDUUPDATE
 40
2458241.198177222
  9
$TDINDWG
 40
0.0026327546
  9
$TDUSRTIMER
 40
2458241.195544688
  9
$USRTIMER
 70
     1
  9
$ANGBASE
 50
0.0
  9
$ANGDIR
 70
     0
  9
$PDMODE
 70
     0
  9
$PDSIZE
 40
-1.0
  9
$PLINEWID
 40
0.0
  9
$SPLFRAME
 70
     0
  9
$SPLINETYPE
 70
     6
  9
$SPLINESEGS
 70
     8
  9
$HANDSEED
  5
19A
  9
$SURFTAB1
 70
     6
  9
$SURFTAB2
 70
     6
  9
$SURFTYPE
 70
     6
  9
$SURFU
 70
     6
  9
$SURFV
 70
     6
  9
$UCSBASE
  2

  9
$UCSNAME
  2

  9
$UCSORG
 10
0.0
 20
0.0
 30
0.0
  9
$UCSXDIR
 10
1.0
 20
0.0
 30
0.0
  9
$UCSYDIR
 10
0.0
 20
1.0
 30
0.0
  9
$UCSORTHOREF
  2

  9
$UCSORTHOVIEW
 70
     0
  9
$UCSORGTOP
 10
0.0
 20
0.0
 30
0.0
  9
$UCSORGBOTTOM
 10
0.0
 20
0.0
 30
0.0
  9
$UCSORGLEFT
 10
0.0
 20
0.0
 30
0.0
  9
$UCSORGRIGHT
 10
0.0
 20
0.0
 30
0.0
  9
$UCSORGFRONT
 10
0.0
 20
0.0
 30
0.0
  9
$UCSORGBACK
 10
0.0
 20
0.0
 30
0.0
  9
$PUCSBASE
  2

  9
$PUCSNAME
  2

  9
$PUCSORG
 10
0.0
 20
0.0
 30
0.0
  9
$PUCSXDIR
 10
1.0
 20
0.0
 30
0.0
  9
$PUCSYDIR
 10
0.0
 20
1.0
 30
0.0
  9
$PUCSORTHOREF
  2

  9
$PUCSORTHOVIEW
 70
     0
  9
$PUCSORGTOP
 10
0.0
 20
0.0
 30
0.0
  9
$PUCSORGBOTTOM
 10
0.0
 20
0.0
 30
0.0
  9
$PUCSORGLEFT
 10
0.0
 20
0.0
 30
0.0
  9
$PUCSORGRIGHT
 10
0.0
 20
0.0
 30
0.0
  9
$PUCSORGFRONT
 10
0.0
 20
0.0
 30
0.0
  9
$PUCSORGBACK
 10
0.0
 20
0.0
 30
0.0
  9
$USERI1
 70
     0
  9
$USERI2
 70
     0
  9
$USERI3
 70
     0
  9
$USERI4
 70
     0
  9
$USERI5
 70
     0
  9
$USERR1
 40
0.0
  9
$USERR2
 40
0.0
  9
$USERR3
 40
0.0
  9
$USERR4
 40
0.0
  9
$USERR5
 40
0.0
  9
$WORLDVIEW
 70
     1
  9
$SHADEDGE
 70
     3
  9
$SHADEDIF
 70
    70
  9
$TILEMODE
 70
     1
  9
$MAXACTVP
 70
    64
  9
$PINSBASE
 10
0.0
 20
0.0
 30
0.0
  9
$PLIMCHECK
 70
     0
  9
$PEXTMIN
 10
1.000000000000000E+20
 20
1.000000000000000E+20
 30
1.000000000000000E+20
  9
$PEXTMAX
 10
-1.000000000000000E+20
 20
-1.000000000000000E+20
 30
-1.000000000000000E+20
  9
$PLIMMIN
 10
0.0
 20
0.0
  9
$PLIMMAX
 10
0.0
 20
0.0
  9
$UNITMODE
 70
     0
  9
$VISRETAIN
 70
     1
  9
$PLINEGEN
 70
     0
  9
$PSLTSCALE
 70
     1
  9
$TREEDEPTH
 70
  3020
  9
$CMLSTYLE
  2
Standard
  9
$CMLJUST
 70
     0
  9
$CMLSCALE
 40
20.0
  9
$PROXYGRAPHICS
 70
     1
  9
$MEASUREMENT
 70
     1
  9
$CELWEIGHT
370
    -1
  9
$ENDCAPS
280
     0
  9
$JOINSTYLE
280
     0
  9
$LWDISPLAY
290
     1
  9
$INSUNITS
 70
     4
  9
$HYPERLINKBASE
  1

  9
$STYLESHEET
  1

  9
$XEDIT
290
     1
  9
$CEPSNTYPE
380
     0
  9
$PSTYLEMODE
290
     1
  9
$FINGERPRINTGUID
  2
{DBDDF676-7375-4DF4-B8EB-12DAEB06D272}
  9
$VERSIONGUID
  2
{FAEB1C32-E019-11D5-929B-00C0DF256EC4}
  9
$EXTNAMES
290
     1
  9
$PSVPSCALE
 40
0.0
  9
$OLESTARTUP
290
     0
  0
ENDSEC
  0
SECTION
  2
CLASSES
  0
CLASS
  1
ACDBDICTIONARYWDFLT
  2
AcDbDictionaryWithDefault
  3
ObjectDBX Classes
 90
        0
280
     0
281
     0
  0
CLASS
  1
VISUALSTYLE
  2
AcDbVisualStyle
  3
ObjectDBX Classes
 90
     4095
280
     0
281
     0
  0
CLASS
  1
MATERIAL
  2
AcDbMaterial
  3
ObjectDBX Classes
 90
     1153
280
     0
281
     0
  0
CLASS
  1
SCALE
  2
AcDbScale
  3
ObjectDBX Classes
 90
     1153
280
     0
281
     0
  0
CLASS
  1
SUN
  2
AcDbSun
  3
SCENEOE
 90
     1153
280
     0
281
     0
  0
CLASS
  1
ACDBPLACEHOLDER
  2
AcDbPlaceHolder
  3
ObjectDBX Classes
 90
        0
280
     0
281
     0
  0
CLASS
  1
LAYOUT
  2
AcDbLayout
  3
ObjectDBX Classes
 90
        0
280
     0
281
     0
  0
CLASS
  1
TABLESTYLE
  2
AcDbTableStyle
  3
ObjectDBX Classes
 90
     4095
280
     0
281
     0
  0
CLASS
  1
MLEADERSTYLE
  2
AcDbMLeaderStyle
  3
ACDB_MLEADERSTYLE_CLASS
 90
     4095
280
     0
281
     0
  0
CLASS
  1
RASTERVARIABLES
  2
AcDbRasterVariables
  3
ISM
 90
        0
280
     0
281
     0
  0
CLASS
  1
DIMASSOC
  2
AcDbDimAssoc
  3
"AcDbDimAssoc|Product Desc:     AcDim ARX App For Dimension|Company:          Autodesk, Inc.|WEB Address:      www.autodesk.com"
 90
        0
280
     0
281
     0
  0
ENDSEC
  0
SECTION
  2
TABLES
  0
TABLE
  2
VPORT
  5
8
330
0
100
AcDbSymbolTable
 70
     1
  0
VPORT
  5
29
330
8
100
AcDbSymbolTableRecord
100
AcDbViewportTableRecord
  2
*Active
 70
     0
 10
0.0
 20
0.0
 11
1.0
 21
1.0
 12
65.18110566756056
 22
9.45703563785947
 13
0.0
 23
0.0
 14
10.0
 24
10.0
 15
10.0
 25
10.0
 16
0.0
 26
0.0
 36
1.0
 17
0.0
 27
0.0
 37
0.0
 40
87.58468887873394
 41
1.321695760598504
 42
50.0
 43
0.0
 44
0.0
 50
0.0
 51
0.0
 71
    16
 72
  2000
 73
     1
 74
     3
 75
     0
 76
     0
 77
     0
 78
     0
281
     0
 65
     1
110
0.0
120
0.0
130
0.0
111
1.0
121
0.0
131
0.0
112
0.0
122
1.0
132
0.0
 79
     0
146
0.0
  0
ENDTAB
  0
TABLE
  2
LTYPE
  5
5
330
0
100
AcDbSymbolTable
 70
     6
  0
LTYPE
  5
14
330
5
100
AcDbSymbolTableRecord
100
AcDbLinetypeTableRecord
  2
ByBlock
 70
     0
  3

 72
    65
 73
     0
 40
0.0
  0
LTYPE
  5
15
330
5
100
AcDbSymbolTableRecord
100
AcDbLinetypeTableRecord
  2
ByLayer
 70
     0
  3

 72
    65
 73
     0
 40
0.0
  0
LTYPE
  5
16
330
5
100
AcDbSymbolTableRecord
100
AcDbLinetypeTableRecord
  2
Continuous
 70
     0
  3
Solid line
 72
    65
 73
     0
 40
0.0
  0
LTYPE
  5
6A
330
5
100
AcDbSymbolTableRecord
100
AcDbLinetypeTableRecord
  2
HIDDEN
 70
     0
  3
Hidden __ __ __ __ __ __ __ __ __ __ __ __ __ __
 72
    65
 73
     2
 40
1.905
 49
1.27
 74
     0
 49
-0.635
 74
     0
  0
LTYPE
  5
6B
330
5
100
AcDbSymbolTableRecord
100
AcDbLinetypeTableRecord
  2
PHANTOM
 70
     0
  3
Phantom ______  __  __  ______  __  __  ______
 72
    65
 73
     6
 40
12.7
 49
6.35
 74
     0
 49
-1.27
 74
     0
 49
1.27
 74
     0
 49
-1.27
 74
     0
 49
1.27
 74
     0
 49
-1.27
 74
     0
  0
LTYPE
  5
6C
330
5
100
AcDbSymbolTableRecord
100
AcDbLinetypeTableRecord
  2
CENTER
 70
     0
  3
Center ____ _ ____ _ ____ _ ____ _ ____ _ ____
 72
    65
 73
     4
 40
10.16
 49
6.35
 74
     0
 49
-1.27
 74
     0
 49
1.27
 74
     0
 49
-1.27
 74
     0
  0
LTYPE
  5
6D
330
5
100
AcDbSymbolTableRecord
100
AcDbLinetypeTableRecord
  2
CENTERX2
 70
     0
  3
Center (2x) ________  __  ________  __  _____
 72
    65
 73
     4
 40
20.32
 49
12.7
 74
     0
 49
-2.54
 74
     0
 49
2.54
 74
     0
 49
-2.54
 74
     0
  0
LTYPE
  5
6E
330
5
100
AcDbSymbolTableRecord
100
AcDbLinetypeTableRecord
  2
DOT2
 70
     0
  3
Dot (.5x) ........................................
 72
    65
 73
     2
 40
0.635
 49
0.0
 74
     0
 49
-0.635
 74
     0
  0
ENDTAB
  0
TABLE
  2
LAYER
  5
2
330
0
100
AcDbSymbolTable
 70
    17
  0
LAYER
  5
10
330
2
100
AcDbSymbolTableRecord
100
AcDbLayerTableRecord
  2
0
 70
     0
 62
     7
  6
Continuous
370
    -3
390
F
  0
LAYER
  5
6F
330
2
100
AcDbSymbolTableRecord
100
AcDbLayerTableRecord
  2
FORMAT
 70
     0
 62
     2
  6
Continuous
370
    -3
390
F
  0
LAYER
  5
70
330
2
100
AcDbSymbolTableRecord
100
AcDbLayerTableRecord
  2
외형선
 70
     0
 62
   100
  6
Continuous
370
    30
390
F
  0
LAYER
  5
71
330
2
100
AcDbSymbolTableRecord
100
AcDbLayerTableRecord
  2
숨은선
 70
     0
 62
     2
  6
HIDDEN
370
    15
390
F
  0
LAYER
  5
72
330
2
100
AcDbSymbolTableRecord
100
AcDbLayerTableRecord
  2
중심선
 70
     0
 62
     1
  6
CENTERX2
370
    -3
390
F
  0
LAYER
  5
73
330
2
100
AcDbSymbolTableRecord
100
AcDbLayerTableRecord
  2
파단선
 70
     0
 62
     4
  6
Continuous
370
    -3
390
F
  0
LAYER
  5
74
330
2
100
AcDbSymbolTableRecord
100
AcDbLayerTableRecord
  2
해칭선
 70
     0
 62
     4
  6
Continuous
370
    -3
390
F
  0
LAYER
  5
75
330
2
100
AcDbSymbolTableRecord
100
AcDbLayerTableRecord
  2
가는실선
 70
     0
 62
     4
  6
Continuous
370
    -3
390
F
  0
LAYER
  5
76
330
2
100
AcDbSymbolTableRecord
100
AcDbLayerTableRecord
  2
치수_보조선
 70
     0
 62
     4
  6
Continuous
370
    -3
390
F
  0
LAYER
  5
77
330
2
100
AcDbSymbolTableRecord
100
AcDbLayerTableRecord
  2
치수문자_일반주서
 70
     0
 62
     7
  6
Continuous
370
    15
390
F
  0
LAYER
  5
78
330
2
100
AcDbSymbolTableRecord
100
AcDbLayerTableRecord
  2
개별주서
 70
     0
 62
   100
  6
Continuous
370
    30
390
F
  0
LAYER
  5
79
330
2
100
AcDbSymbolTableRecord
100
AcDbLayerTableRecord
  2
중간선
 70
     0
 62
     2
  6
Continuous
370
    15
390
F
  0
LAYER
  5
7A
330
2
100
AcDbSymbolTableRecord
100
AcDbLayerTableRecord
  2
윤곽선
 70
     0
 62
     3
  6
Continuous
370
    40
390
F
  0
LAYER
  5
7B
330
2
100
AcDbSymbolTableRecord
100
AcDbLayerTableRecord
  2
중심마크
 70
     0
 62
   100
  6
Continuous
370
    30
390
F
  0
LAYER
  5
7C
330
2
100
AcDbSymbolTableRecord
100
AcDbLayerTableRecord
  2
가상선
 70
     0
 62
     4
  6
PHANTOM
370
    -3
390
F
  0
LAYER
  5
7D
330
2
100
AcDbSymbolTableRecord
100
AcDbLayerTableRecord
  2
특수지정선
 70
     0
 62
     5
  6
CENTERX2
370
    60
390
F
  0
LAYER
  5
187
330
2
100
AcDbSymbolTableRecord
100
AcDbLayerTableRecord
  2
Defpoints
 70
     0
 62
     7
  6
Continuous
290
     0
370
    -3
390
F
  0
ENDTAB
  0
TABLE
  2
STYLE
  5
3
330
0
100
AcDbSymbolTable
 70
     2
  0
STYLE
  5
11
330
3
100
AcDbSymbolTableRecord
100
AcDbTextStyleTableRecord
  2
Standard
 70
     0
 40
0.0
 41
1.0
 50
0.0
 71
     0
 42
3.5
  3
txt
  4

  0
STYLE
  5
93
330
3
100
AcDbSymbolTableRecord
100
AcDbTextStyleTableRecord
  2
SLDTEXTSTYLE0
 70
     0
 40
0.0
 41
0.75
 50
0.0
 71
     0
 42
3.5
  3
TXT
  4

  0
ENDTAB
  0
TABLE
  2
VIEW
  5
6
330
0
100
AcDbSymbolTable
 70
     0
  0
ENDTAB
  0
TABLE
  2
UCS
  5
7
330
0
100
AcDbSymbolTable
 70
     0
  0
ENDTAB
  0
TABLE
  2
APPID
  5
9
330
0
100
AcDbSymbolTable
 70
     2
  0
APPID
  5
12
330
9
100
AcDbSymbolTableRecord
100
AcDbRegAppTableRecord
  2
ACAD
 70
     0
  0
APPID
  5
18B
330
9
100
AcDbSymbolTableRecord
100
AcDbRegAppTableRecord
  2
ACAD_DSTYLE_DIMRADIAL_EXTENSION
 70
     0
  0
ENDTAB
  0
TABLE
  2
DIMSTYLE
  5
A
330
0
100
AcDbSymbolTable
 70
     4
100
AcDbDimStyleTable
  0
DIMSTYLE
105
27
330
A
100
AcDbSymbolTableRecord
100
AcDbDimStyleTableRecord
  2
ISO-25
 70
     0
 41
2.5
 42
0.625
 43
3.75
 44
1.25
 73
     0
 74
     0
 77
     1
 78
     8
140
2.5
141
2.5
143
0.03937007874016
147
0.625
171
     3
172
     1
178
     0
271
     2
272
     2
274
     3
278
    44
283
     0
284
     8
340
11
  0
DIMSTYLE
105
10C
102
{ACAD_REACTORS
330
10B
330
148
102
}
330
A
100
AcDbSymbolTableRecord
100
AcDbDimStyleTableRecord
  2
SLDDIMSTYLE0
 70
     0
 41
3.302
 44
0.0
 45
0.000000001
 73
     0
 74
     0
 77
     1
 78
    12
 79
     3
140
3.5
143
0.0393700787401575
147
0.875
148
0.000000001
170
     1
172
     1
173
     1
178
     0
271
     2
272
     2
276
     2
284
    12
289
     0
340
93
  0
DIMSTYLE
105
121
102
{ACAD_REACTORS
330
120
102
}
330
A
100
AcDbSymbolTableRecord
100
AcDbDimStyleTableRecord
  2
SLDDIMSTYLE1
 70
     0
 41
3.302
 44
0.0
 45
0.000000001
 73
     0
 74
     0
 77
     1
 78
     4
 79
     1
140
3.5
143
0.0393700787401575
147
0.875
148
0.000000001
170
     1
173
     1
178
     0
271
     2
272
     2
276
     2
284
    12
340
93
  0
DIMSTYLE
105
135
102
{ACAD_REACTORS
330
134
330
18C
102
}
330
A
100
AcDbSymbolTableRecord
100
AcDbDimStyleTableRecord
  2
SLDDIMSTYLE2
 70
     0
 41
3.302
 44
0.0
 45
0.000000001
 73
     0
 74
     0
 77
     1
 78
    12
 79
     3
140
3.5
143
0.0393700787401575
147
0.875
148
0.000000001
170
     1
173
     1
178
     0
271
     2
272
     2
276
     2
284
    12
340
93
  0
ENDTAB
  0
TABLE
  2
BLOCK_RECORD
  5
1
330
0
100
AcDbSymbolTable
 70
     8
  0
BLOCK_RECORD
  5
1F
330
1
100
AcDbSymbolTableRecord
100
AcDbBlockTableRecord
  2
*Model_Space
340
22
  0
BLOCK_RECORD
  5
1B
330
1
100
AcDbSymbolTableRecord
100
AcDbBlockTableRecord
  2
*Paper_Space
340
1E
  0
BLOCK_RECORD
  5
23
330
1
100
AcDbSymbolTableRecord
100
AcDbBlockTableRecord
  2
*Paper_Space0
340
26
  0
BLOCK_RECORD
  5
7E
330
1
100
AcDbSymbolTableRecord
100
AcDbBlockTableRecord
  2
블럭10
340
0
102
{BLKREFS
331
103
102
}
  0
BLOCK_RECORD
  5
10D
330
1
100
AcDbSymbolTableRecord
100
AcDbBlockTableRecord
  2
_D
340
0
  0
BLOCK_RECORD
  5
122
330
1
100
AcDbSymbolTableRecord
100
AcDbBlockTableRecord
  2
_D_1
340
0
  0
BLOCK_RECORD
  5
136
330
1
100
AcDbSymbolTableRecord
100
AcDbBlockTableRecord
  2
_D_2
340
0
  0
BLOCK_RECORD
  5
149
330
1
100
AcDbSymbolTableRecord
100
AcDbBlockTableRecord
  2
_D_3
340
0
  0
BLOCK_RECORD
  5
15C
330
1
100
AcDbSymbolTableRecord
100
AcDbBlockTableRecord
  2
SW_DOWELSYMBOL_0
340
0
102
{BLKREFS
331
162
102
}
  0
BLOCK_RECORD
  5
18F
330
1
100
AcDbSymbolTableRecord
100
AcDbBlockTableRecord
  2
*D7
340
0
  0
ENDTAB
  0
ENDSEC
  0
SECTION
  2
BLOCKS
  0
BLOCK
  5
20
330
1F
100
AcDbEntity
  8
0
100
AcDbBlockBegin
  2
*Model_Space
 70
     0
 10
0.0
 20
0.0
 30
0.0
  3
*Model_Space
  1
*Model_Space
  0
ENDBLK
  5
21
330
1F
100
AcDbEntity
  8
0
100
AcDbBlockEnd
  0
BLOCK
  5
1C
330
1B
100
AcDbEntity
 67
     1
  8
0
100
AcDbBlockBegin
  2
*Paper_Space
 70
     0
 10
0.0
 20
0.0
 30
0.0
  3
*Paper_Space
  1
*Paper_Space
  0
ENDBLK
  5
1D
330
1B
100
AcDbEntity
 67
     1
  8
0
100
AcDbBlockEnd
  0
BLOCK
  5
24
330
23
100
AcDbEntity
  8
0
100
AcDbBlockBegin
  2
*Paper_Space0
 70
     0
 10
0.0
 20
0.0
 30
0.0
  3
*Paper_Space0
  1
*Paper_Space0
  0
ENDBLK
  5
25
330
23
100
AcDbEntity
  8
0
100
AcDbBlockEnd
  0
BLOCK
  5
7F
330
7E
100
AcDbEntity
  8
0
100
AcDbBlockBegin
  2
블럭10
 70
     2
 10
0.0
 20
0.0
 30
0.0
  3
블럭10
  1
블럭10
  0
ELLIPSE
  5
81
330
7E
100
AcDbEntity
  8
중심선
100
AcDbEllipse
 10
20.54032771741204
 20
12.0471743016438
 30
0.0
 11
6.600054785286829
 21
-1.261213355974178E-13
 31
0.0
210
0.0
220
0.0
230
1.0
 40
0.636358354079598
 41
0.9219305317359503
 42
6.513795318482858
  0
ELLIPSE
  5
82
330
7E
100
AcDbEntity
  8
중심선
100
AcDbEllipse
 10
20.54032771746488
 20
12.04717430159265
 30
0.0
 11
3.960054785062283
 21
1.540847449632565E-10
 31
0.0
210
0.0
220
0.0
230
1.0
 40
0.3939339440162632
 41
1.131841032648279
 42
5.62031148352944
  0
LINE
  5
83
330
7E
100
AcDbEntity
  8
중심선
100
AcDbLine
 10
2.268634060543552
 20
16.24717430164393
 30
0.0
 11
5.714909304380834
 21
16.24717430164393
 31
0.0
  0
LINE
  5
84
330
7E
100
AcDbEntity
  8
중심선
100
AcDbLine
 10
5.245725140726316
 20
7.84717430164391
 30
0.0
 11
8.692000384563599
 21
7.84717430164391
 31
0.0
  0
LINE
  5
85
330
7E
100
AcDbEntity
  8
중심선
100
AcDbLine
 10
15.74043728645272
 20
16.24717430164393
 30
0.0
 11
8.692000384563599
 21
7.84717430164391
 31
0.0
  0
LINE
  5
86
330
7E
100
AcDbEntity
  8
중심선
100
AcDbLine
 10
0.1404042013395286
 20
13.71084872107135
 30
0.0
 11
3.58671253028996
 21
13.71088815037384
 31
0.0
  0
LINE
  5
87
330
7E
100
AcDbEntity
  8
중심선
100
AcDbLine
 10
2.750260043222114
 20
10.84717430164391
 30
0.0
 11
6.196535287059397
 21
10.84717430164391
 31
0.0
  0
LINE
  5
88
330
7E
100
AcDbEntity
  8
중심선
100
AcDbLine
 10
12.29416204261559
 20
16.24717430164393
 30
0.0
 11
5.245725140726316
 21
7.84717430164391
 31
0.0
  0
LINE
  5
89
330
7E
100
AcDbEntity
  8
중심선
100
AcDbLine
 10
10.72767329541681
 20
16.24717430164393
 30
0.0
 11
6.196535287059397
 21
10.84717430164391
 31
0.0
  0
LINE
  5
8A
330
7E
100
AcDbEntity
  8
중심선
100
AcDbLine
 10
7.28139805157953
 20
16.24717430164393
 30
0.0
 11
2.750260043222114
 21
10.84717430164391
 31
0.0
  0
LINE
  5
8B
330
7E
100
AcDbEntity
  8
중심선
100
AcDbLine
 10
5.714909304380834
 20
16.24717430164393
 30
0.0
 11
3.58671253028996
 21
13.71088815037384
 31
0.0
  0
LINE
  5
8C
330
7E
100
AcDbEntity
  8
중심선
100
AcDbLine
 10
2.268634060543552
 20
16.24717430164393
 30
0.0
 11
0.1404042013395286
 21
13.71084872107135
 31
0.0
  0
LINE
  5
8D
330
7E
100
AcDbEntity
  8
중심선
100
AcDbLine
 10
7.28139805157953
 20
16.24717430164393
 30
0.0
 11
10.72767329541681
 21
16.24717430164393
 31
0.0
  0
LINE
  5
8E
330
7E
100
AcDbEntity
  8
중심선
100
AcDbLine
 10
12.29416204261559
 20
16.24717430164393
 30
0.0
 11
15.74043728645272
 21
16.24717430164393
 31
0.0
  0
LINE
  5
8F
330
7E
100
AcDbEntity
  8
중심선
100
AcDbLine
 10
19.22036997980202
 20
11.08717430171403
 30
0.0
 11
23.66174974927406
 21
11.08717430171406
 31
0.0
  0
LINE
  5
90
330
7E
100
AcDbEntity
  8
중심선
100
AcDbLine
 10
19.22039502424796
 20
13.00717430171391
 30
0.0
 11
19.22036997980202
 21
11.08717430171403
 31
0.0
  0
LINE
  5
91
330
7E
100
AcDbEntity
  8
중심선
100
AcDbLine
 10
19.22039502424796
 20
13.00717430171391
 30
0.0
 11
26.96566020931264
 21
13.00717430171391
 31
0.0
  0
LINE
  5
92
330
7E
100
AcDbEntity
  8
중심선
100
AcDbLine
 10
22.22332737316547
 20
13.45928029700563
 30
0.0
 11
24.52862924686651
 21
15.39360700705356
 31
0.0
  0
ATTDEF
  5
94
330
7E
100
AcDbEntity
  8
FORMAT
 62
     2
100
AcDbText
 10
-11.05102035218446
 20
2.075366912832191
 30
0.0
 40
4.233333333333333
  1
GMG22907[ 6 FLUTE ]
 41
0.75
  7
SLDTEXTSTYLE0
 11
-11.05102035218446
 21
-0.0412997538344756
 31
0.0
100
AcDbAttributeDefinition
  3

  2
AUTOATTR0
 70
     0
 74
     1
  0
ENDBLK
  5
80
330
7E
100
AcDbEntity
  8
0
100
AcDbBlockEnd
  0
BLOCK
  5
10E
330
10D
100
AcDbEntity
  8
0
100
AcDbBlockBegin
  2
_D
 70
     0
 10
0.0
 20
0.0
 30
0.0
  3
_D
  1
_D
  0
LINE
  5
110
330
10D
100
AcDbEntity
  8
치수문자_일반주서
 62
     0
370
    -2
100
AcDbLine
 10
48.9565
 20
-3.968694391980601
 30
0.0
 11
64.74524571577295
 21
-3.968694391980542
 31
0.0
  0
LINE
  5
111
330
10D
100
AcDbEntity
  8
치수문자_일반주서
 62
     0
370
    -2
100
AcDbLine
 10
48.9565
 20
3.968750000000008
 30
0.0
 11
64.74524571577292
 21
3.968750000000066
 31
0.0
  0
LINE
  5
112
330
10D
100
AcDbEntity
  8
치수문자_일반주서
 62
     0
370
    -2
100
AcDbLine
 10
64.74524571577294
 20
-0.6666943919805424
 30
0.0
 11
64.74524571577294
 21
0.6667500000000666
 31
0.0
  0
SOLID
  5
113
330
10D
100
AcDbEntity
  8
치수문자_일반주서
 62
     0
100
AcDbTrace
 10
64.19491238243961
 20
-0.6666943919805444
 30
0.0
 11
65.29557904910627
 21
-0.6666943919805404
 31
0.0
 12
64.74524571577295
 22
-3.968694391980542
 32
0.0
 13
64.74524571577295
 23
-3.968694391980542
 33
0.0
  0
SOLID
  5
114
330
10D
100
AcDbEntity
  8
치수문자_일반주서
 62
     0
100
AcDbTrace
 10
65.29557904910627
 20
0.6667500000000686
 30
0.0
 11
64.19491238243961
 21
0.6667500000000646
 31
0.0
 12
64.74524571577292
 22
3.968750000000066
 32
0.0
 13
64.74524571577292
 23
3.968750000000066
 33
0.0
  0
MTEXT
  5
115
330
10D
100
AcDbEntity
  8
치수문자_일반주서
 62
     0
100
AcDbMText
 10
60.37024571577294
 20
-0.4965537846535293
 30
0.0
 40
3.5
 41
0.0
 71
     2
 72
     1
  1
\A1;%%c7.94 [5/16]
  7
SLDTEXTSTYLE0
 11
-3.580712887780246E-15
 21
1.0
 31
0.0
 73
     1
 44
1.0
  0
POINT
  5
116
330
10D
100
AcDbEntity
  8
Defpoints
 62
     0
100
AcDbPoint
 10
48.894
 20
-3.968694391980601
 30
0.0
  0
POINT
  5
117
330
10D
100
AcDbEntity
  8
Defpoints
 62
     0
100
AcDbPoint
 10
48.894
 20
3.968750000000007
 30
0.0
  0
POINT
  5
118
330
10D
100
AcDbEntity
  8
Defpoints
 62
     0
100
AcDbPoint
 10
64.74524571577292
 20
3.968750000000066
 30
0.0
  0
ENDBLK
  5
10F
330
10D
100
AcDbEntity
  8
0
100
AcDbBlockEnd
  0
BLOCK
  5
123
330
122
100
AcDbEntity
  8
0
100
AcDbBlockBegin
  2
_D_1
 70
     0
 10
0.0
 20
0.0
 30
0.0
  3
_D_1
  1
_D_1
  0
LINE
  5
125
330
122
100
AcDbEntity
  8
치수문자_일반주서
 62
     0
370
    -2
100
AcDbLine
 10
-52.325
 20
3.53125
 30
0.0
 11
-52.325
 21
36.62430141807179
 31
0.0
  0
LINE
  5
126
330
122
100
AcDbEntity
  8
치수문자_일반주서
 62
     0
370
    -2
100
AcDbLine
 10
49.27499999999999
 20
3.650250000000007
 30
0.0
 11
49.27499999999999
 21
36.62430141807179
 31
0.0
  0
LINE
  5
127
330
122
100
AcDbEntity
  8
치수문자_일반주서
 62
     0
370
    -2
100
AcDbLine
 10
-49.023
 20
36.62430141807179
 30
0.0
 11
45.97299999999999
 21
36.62430141807179
 31
0.0
  0
SOLID
  5
128
330
122
100
AcDbEntity
  8
치수문자_일반주서
 62
     0
100
AcDbTrace
 10
-49.023
 20
37.17463475140512
 30
0.0
 11
-49.023
 21
36.07396808473845
 31
0.0
 12
-52.325
 22
36.62430141807179
 32
0.0
 13
-52.325
 23
36.62430141807179
 33
0.0
  0
SOLID
  5
129
330
122
100
AcDbEntity
  8
치수문자_일반주서
 62
     0
100
AcDbTrace
 10
45.97299999999999
 20
36.07396808473845
 30
0.0
 11
45.97299999999999
 21
37.17463475140512
 31
0.0
 12
49.27499999999999
 22
36.62430141807179
 32
0.0
 13
49.27499999999999
 23
36.62430141807179
 33
0.0
  0
MTEXT
  5
12A
330
122
100
AcDbEntity
  8
치수문자_일반주서
 62
     0
100
AcDbMText
 10
-1.525000000000006
 20
40.99930141807179
 30
0.0
 40
3.5
 41
0.0
 71
     2
 72
     1
  1
\A1;101.60 [4]
  7
SLDTEXTSTYLE0
 73
     1
 44
1.0
  0
POINT
  5
12B
330
122
100
AcDbEntity
  8
Defpoints
 62
     0
100
AcDbPoint
 10
-52.325
 20
3.46875
 30
0.0
  0
POINT
  5
12C
330
122
100
AcDbEntity
  8
Defpoints
 62
     0
100
AcDbPoint
 10
49.27499999999999
 20
3.587750000000007
 30
0.0
  0
POINT
  5
12D
330
122
100
AcDbEntity
  8
Defpoints
 62
     0
100
AcDbPoint
 10
49.27499999999999
 20
36.62430141807179
 30
0.0
  0
ENDBLK
  5
124
330
122
100
AcDbEntity
  8
0
100
AcDbBlockEnd
  0
BLOCK
  5
137
330
136
100
AcDbEntity
  8
0
100
AcDbBlockBegin
  2
_D_2
 70
     0
 10
0.0
 20
0.0
 30
0.0
  3
_D_2
  1
_D_2
  0
LINE
  5
139
330
136
100
AcDbEntity
  8
치수문자_일반주서
 62
     0
370
    -2
100
AcDbLine
 10
49.27499999999999
 20
3.650250000000007
 30
0.0
 11
49.27499999999999
 21
21.21474453033793
 31
0.0
  0
LINE
  5
13A
330
136
100
AcDbEntity
  8
치수문자_일반주서
 62
     0
370
    -2
100
AcDbLine
 10
7.999999999999856
 20
-3.853808882229612
 30
0.0
 11
7.999999999999854
 21
21.21474453033793
 31
0.0
  0
LINE
  5
13B
330
136
100
AcDbEntity
  8
치수문자_일반주서
 62
     0
370
    -2
100
AcDbLine
 10
45.97299999999999
 20
21.21474453033793
 30
0.0
 11
11.30199999999985
 21
21.21474453033793
 31
0.0
  0
SOLID
  5
13C
330
136
100
AcDbEntity
  8
치수문자_일반주서
 62
     0
100
AcDbTrace
 10
45.97299999999999
 20
20.6644111970046
 30
0.0
 11
45.97299999999999
 21
21.76507786367127
 31
0.0
 12
49.27499999999999
 22
21.21474453033793
 32
0.0
 13
49.27499999999999
 23
21.21474453033793
 33
0.0
  0
SOLID
  5
13D
330
136
100
AcDbEntity
  8
치수문자_일반주서
 62
     0
100
AcDbTrace
 10
11.30199999999985
 20
21.76507786367127
 30
0.0
 11
11.30199999999985
 21
20.6644111970046
 31
0.0
 12
7.999999999999854
 22
21.21474453033793
 32
0.0
 13
7.999999999999854
 23
21.21474453033793
 33
0.0
  0
MTEXT
  5
13E
330
136
100
AcDbEntity
  8
치수문자_일반주서
 62
     0
100
AcDbMText
 10
28.18347683933991
 20
25.58974453033793
 30
0.0
 40
3.5
 41
0.0
 71
     2
 72
     1
  1
\A1;41.28 [1 5/8]
  7
SLDTEXTSTYLE0
 73
     1
 44
1.0
  0
POINT
  5
13F
330
136
100
AcDbEntity
  8
Defpoints
 62
     0
100
AcDbPoint
 10
49.27499999999999
 20
3.587750000000007
 30
0.0
  0
POINT
  5
140
330
136
100
AcDbEntity
  8
Defpoints
 62
     0
100
AcDbPoint
 10
7.999999999999856
 20
-3.916308882229612
 30
0.0
  0
POINT
  5
141
330
136
100
AcDbEntity
  8
Defpoints
 62
     0
100
AcDbPoint
 10
7.999999999999856
 20
21.21474453033793
 30
0.0
  0
ENDBLK
  5
138
330
136
100
AcDbEntity
  8
0
100
AcDbBlockEnd
  0
BLOCK
  5
14A
330
149
100
AcDbEntity
  8
0
100
AcDbBlockBegin
  2
_D_3
 70
     0
 10
0.0
 20
0.0
 30
0.0
  3
_D_3
  1
_D_3
  0
LINE
  5
14C
330
149
100
AcDbEntity
  8
치수문자_일반주서
 62
     0
370
    -2
100
AcDbLine
 10
-51.8875
 20
3.968750000000003
 30
0.0
 11
-65.32500000000002
 21
3.968749999999953
 31
0.0
  0
LINE
  5
14D
330
149
100
AcDbEntity
  8
치수문자_일반주서
 62
     0
370
    -2
100
AcDbLine
 10
-51.8875
 20
-3.968749999999997
 30
0.0
 11
-65.32499999999999
 21
-3.968750000000047
 31
0.0
  0
LINE
  5
14E
330
149
100
AcDbEntity
  8
치수문자_일반주서
 62
     0
370
    -2
100
AcDbLine
 10
-65.325
 20
0.6667499999999533
 30
0.0
 11
-65.325
 21
-0.6667500000000475
 31
0.0
  0
SOLID
  5
14F
330
149
100
AcDbEntity
  8
치수문자_일반주서
 62
     0
100
AcDbTrace
 10
-64.77466666666668
 20
0.6667499999999553
 30
0.0
 11
-65.87533333333333
 21
0.6667499999999513
 31
0.0
 12
-65.32500000000002
 22
3.968749999999953
 32
0.0
 13
-65.32500000000002
 23
3.968749999999953
 33
0.0
  0
SOLID
  5
150
330
149
100
AcDbEntity
  8
치수문자_일반주서
 62
     0
100
AcDbTrace
 10
-65.87533333333333
 20
-0.6667500000000495
 30
0.0
 11
-64.77466666666668
 21
-0.6667500000000455
 31
0.0
 12
-65.32499999999999
 22
-3.968750000000047
 32
0.0
 13
-65.32499999999999
 23
-3.968750000000047
 33
0.0
  0
MTEXT
  5
151
330
149
100
AcDbEntity
  8
치수문자_일반주서
 62
     0
100
AcDbMText
 10
-69.7
 20
-0.0000000000000136
 30
0.0
 40
3.5
 41
0.0
 71
     2
 72
     1
  1
\A1;%%c7.94 [5/16]
  7
SLDTEXTSTYLE0
 11
-3.580687802255623E-15
 21
1.0
 31
0.0
 73
     1
 44
1.0
  0
POINT
  5
152
330
149
100
AcDbEntity
  8
Defpoints
 62
     0
100
AcDbPoint
 10
-51.825
 20
3.968750000000004
 30
0.0
  0
POINT
  5
153
330
149
100
AcDbEntity
  8
Defpoints
 62
     0
100
AcDbPoint
 10
-51.825
 20
-3.968749999999996
 30
0.0
  0
POINT
  5
154
330
149
100
AcDbEntity
  8
Defpoints
 62
     0
100
AcDbPoint
 10
-65.32499999999999
 20
-3.968750000000047
 30
0.0
  0
ENDBLK
  5
14B
330
149
100
AcDbEntity
  8
0
100
AcDbBlockEnd
  0
BLOCK
  5
15D
330
15C
100
AcDbEntity
  8
0
100
AcDbBlockBegin
  2
SW_DOWELSYMBOL_0
 70
     0
 10
0.0
 20
0.0
 30
0.0
  3
SW_DOWELSYMBOL_0
  1
SW_DOWELSYMBOL_0
  0
CIRCLE
  5
15F
330
15C
100
AcDbEntity
  8
외형선
 62
     0
100
AcDbCircle
 10
0.0
 20
0.0
 30
0.0
 40
3.000000000000001
  0
HATCH
  5
160
330
15C
100
AcDbEntity
  8
0
  6
Continuous
 62
     0
370
    30
100
AcDbHatch
 10
0.0
 20
0.0
 30
0.0
210
0.0
220
0.0
230
1.0
  2
SOLID
 70
     1
 71
     0
 91
        1
 92
        0
 93
        3
 72
     2
 10
0.0
 20
0.0
 40
3.000000000000001
 50
0.0
 51
90.0
 73
     1
 72
     1
 10
0.0
 20
3.000000000000001
 11
0.0
 21
0.0
 72
     1
 10
0.0
 20
0.0
 11
3.000000000000003
 21
0.0
 97
        0
 75
     0
 76
     1
 98
        1
 10
0.0
 20
0.0
  0
HATCH
  5
161
330
15C
100
AcDbEntity
  8
0
  6
Continuous
 62
     0
370
    30
100
AcDbHatch
 10
0.0
 20
0.0
 30
0.0
210
0.0
220
0.0
230
1.0
  2
SOLID
 70
     1
 71
     0
 91
        1
 92
        0
 93
        3
 72
     2
 10
0.0
 20
0.0
 40
3.000000000000001
 50
180.0
 51
270.0000000000008
 73
     1
 72
     1
 10
0.0
 20
-3.000000000000001
 11
0.0
 21
0.0
 72
     1
 10
0.0
 20
0.0
 11
-3.000000000000003
 21
0.0
 97
        0
 75
     0
 76
     1
 98
        1
 10
0.0
 20
0.0
  0
ENDBLK
  5
15E
330
15C
100
AcDbEntity
  8
0
100
AcDbBlockEnd
  0
BLOCK
  5
190
330
18F
100
AcDbEntity
  8
0
100
AcDbBlockBegin
  2
*D7
 70
     1
 10
0.0
 20
0.0
 30
0.0
  3
*D7
  1
*D7
  0
LINE
  5
192
330
18F
100
AcDbEntity
  8
치수문자_일반주서
 62
     0
370
    -2
100
AcDbLine
 10
51.1148455719276
 20
6.525833379628561
 30
0.0
 11
71.54814364820501
 21
33.55820979866925
 31
0.0
  0
MTEXT
  5
193
330
18F
100
AcDbEntity
  8
치수문자_일반주서
 62
     0
100
AcDbMText
 10
61.01208421879653
 20
23.97269590008391
 30
0.0
 40
3.5
 41
0.0
 71
     5
 72
     1
  1
\A1;R.38 [R0.015]
  7
SLDTEXTSTYLE0
 11
0.6029990692173789
 21
0.7977418896629251
 31
0.0
 73
     1
 44
1.0
  0
SOLID
  5
194
330
18F
100
AcDbEntity
  8
치수문자_일반주서
 62
     0
100
AcDbTrace
 10
50.67582161864976
 20
6.857683867387857
 30
0.0
 11
51.55386952520543
 21
6.193982891869263
 31
0.0
 12
49.12374264537181
 22
3.891689659961582
 32
0.0
 13
49.12374264537181
 23
3.891689659961582
 33
0.0
  0
LINE
  5
195
330
18F
100
AcDbEntity
  8
치수문자_일반주서
 62
     0
100
AcDbLine
 10
48.80399999999999
 20
3.587750000000007
 30
0.0
 11
48.98399999999999
 21
3.587750000000007
 31
0.0
  0
LINE
  5
196
330
18F
100
AcDbEntity
  8
치수문자_일반주서
 62
     0
100
AcDbLine
 10
48.89399999999999
 20
3.497750000000007
 30
0.0
 11
48.89399999999999
 21
3.677750000000007
 31
0.0
  0
POINT
  5
197
330
18F
100
AcDbEntity
  8
Defpoints
 62
     0
100
AcDbPoint
 10
49.12374264537181
 20
3.891689659961582
 30
0.0
  0
POINT
  5
198
330
18F
100
AcDbEntity
  8
Defpoints
 62
     0
100
AcDbPoint
 10
48.89399999999999
 20
3.587750000000007
 30
0.0
  0
ENDBLK
  5
191
330
18F
100
AcDbEntity
  8
0
100
AcDbBlockEnd
  0
ENDSEC
  0
SECTION
  2
ENTITIES
  0
LINE
  5
95
330
1F
100
AcDbEntity
  8
0
  6
Continuous
 62
     4
370
    15
100
AcDbLine
 10
7.35361319544158
 20
3.968750000000007
 30
0.0
 11
-51.825
 21
3.968750000000004
 31
0.0
  0
LINE
  5
96
330
1F
100
AcDbEntity
  8
0
  6
Continuous
 62
     4
370
    15
100
AcDbLine
 10
-51.825
 20
-3.968749999999996
 30
0.0
 11
7.35361319544158
 21
-3.968749999999993
 31
0.0
  0
LINE
  5
97
330
1F
100
AcDbEntity
  8
0
  6
Continuous
 62
     4
370
    15
100
AcDbLine
 10
-51.825
 20
3.968749999999999
 30
0.0
 11
-52.325
 21
3.46875
 31
0.0
  0
LINE
  5
98
330
1F
100
AcDbEntity
  8
0
  6
Continuous
 62
     4
370
    15
100
AcDbLine
 10
-52.325
 20
-3.468749999999994
 30
0.0
 11
-51.825
 21
-3.968749999999992
 31
0.0
  0
LINE
  5
99
330
1F
100
AcDbEntity
  8
0
  6
Continuous
 62
     1
370
    15
100
AcDbLine
 10
43.40100109259069
 20
-3.968749999999993
 30
0.0
 11
44.75815896109004
 21
-3.968749999999993
 31
0.0
  0
LINE
  5
9A
330
1F
100
AcDbEntity
  8
0
  6
Continuous
 62
     1
370
    15
100
AcDbLine
 10
18.46457695290968
 20
-3.968749999999993
 30
0.0
 11
19.82180178948972
 21
-3.968749999999993
 31
0.0
  0
LINE
  5
9B
330
1F
100
AcDbEntity
  8
0
  6
Continuous
 62
     1
370
    15
100
AcDbLine
 10
32.28997206457444
 20
3.968750000000007
 30
0.0
 11
30.93278748585929
 21
3.968750000000007
 31
0.0
  0
LINE
  5
9C
330
1F
100
AcDbEntity
  8
0
  6
Continuous
 62
     1
370
    15
100
AcDbLine
 10
30.93278748585931
 20
-3.968749999999993
 30
0.0
 11
32.28997206457444
 21
-3.968749999999993
 31
0.0
  0
LINE
  5
9D
330
1F
100
AcDbEntity
  8
0
  6
Continuous
 62
     1
370
    15
100
AcDbLine
 10
19.82180178948972
 20
3.968750000000007
 30
0.0
 11
18.4645769529097
 21
3.968750000000007
 31
0.0
  0
LINE
  5
9E
330
1F
100
AcDbEntity
  8
0
  6
Continuous
 62
     1
370
    15
100
AcDbLine
 10
44.75815896109005
 20
3.968750000000007
 30
0.0
 11
43.4010010925907
 21
3.968750000000007
 31
0.0
  0
LINE
  5
9F
330
1F
100
AcDbEntity
  8
0
  6
Continuous
 62
     1
370
    15
100
AcDbLine
 10
39.24539993713817
 20
-3.968749999999993
 30
0.0
 11
40.60162714897746
 21
-3.968749999999993
 31
0.0
  0
LINE
  5
A0
330
1F
100
AcDbEntity
  8
0
  6
Continuous
 62
     1
370
    15
100
AcDbLine
 10
14.30892569963634
 20
-3.968749999999993
 30
0.0
 11
15.66536903099418
 21
-3.968749999999993
 31
0.0
  0
LINE
  5
A1
330
1F
100
AcDbEntity
  8
0
  6
Continuous
 62
     1
370
    15
100
AcDbLine
 10
28.13349580228963
 20
3.968750000000007
 30
0.0
 11
26.77716322854921
 21
3.968750000000007
 31
0.0
  0
LINE
  5
A2
330
1F
100
AcDbEntity
  8
0
  6
Continuous
 62
     1
370
    15
100
AcDbLine
 10
26.77716322854923
 20
-3.968749999999993
 30
0.0
 11
28.13349580228965
 21
-3.968749999999993
 31
0.0
  0
LINE
  5
A3
330
1F
100
AcDbEntity
  8
0
  6
Continuous
 62
     1
370
    15
100
AcDbLine
 10
15.66536903099422
 20
3.968750000000007
 30
0.0
 11
14.30892569963639
 21
3.968750000000007
 31
0.0
  0
LINE
  5
A4
330
1F
100
AcDbEntity
  8
0
  6
Continuous
 62
     1
370
    15
100
AcDbLine
 10
40.60162714897748
 20
3.968750000000007
 30
0.0
 11
39.24539993713821
 21
3.968750000000007
 31
0.0
  0
LINE
  5
A5
330
1F
100
AcDbEntity
  8
0
  6
Continuous
 62
     1
370
    15
100
AcDbLine
 10
47.55859695202439
 20
-3.968749999999993
 30
0.0
 11
48.97751543811248
 21
-3.968749999999993
 31
0.0
  0
LINE
  5
A6
330
1F
100
AcDbEntity
  8
0
  6
Continuous
 62
     1
370
    15
100
AcDbLine
 10
22.62045336743251
 20
-3.968749999999993
 30
0.0
 11
23.97810705446236
 21
-3.968749999999993
 31
0.0
  0
LINE
  5
A7
330
1F
100
AcDbEntity
  8
0
  6
Continuous
 62
     1
370
    15
100
AcDbLine
 10
11.51015951219857
 20
3.968750000000007
 30
0.0
 11
10.1518224234979
 21
3.968750000000007
 31
0.0
  0
LINE
  5
A8
330
1F
100
AcDbEntity
  8
0
  6
Continuous
 62
     1
370
    15
100
AcDbLine
 10
36.44621357570556
 20
3.968750000000007
 30
0.0
 11
35.0887192205826
 21
3.968750000000007
 31
0.0
  0
LINE
  5
A9
330
1F
100
AcDbEntity
  8
0
  6
Continuous
 62
     1
370
    15
100
AcDbLine
 10
35.0887192205826
 20
-3.968749999999993
 30
0.0
 11
36.44621357570553
 21
-3.968749999999993
 31
0.0
  0
LINE
  5
AA
330
1F
100
AcDbEntity
  8
0
  6
Continuous
 62
     1
370
    15
100
AcDbLine
 10
10.15182242349789
 20
-3.968749999999993
 30
0.0
 11
11.51015951219856
 21
-3.968749999999993
 31
0.0
  0
LINE
  5
AB
330
1F
100
AcDbEntity
  8
0
  6
Continuous
 62
     1
370
    15
100
AcDbLine
 10
23.97810705446235
 20
3.968750000000007
 30
0.0
 11
22.62045336743252
 21
3.968750000000007
 31
0.0
  0
LINE
  5
AC
330
1F
100
AcDbEntity
  8
0
  6
Continuous
 62
     1
370
    15
100
AcDbLine
 10
48.894
 20
3.968750000000007
 30
0.0
 11
47.55859695202439
 21
3.968750000000007
 31
0.0
  0
LINE
  5
AD
330
1F
100
AcDbEntity
  8
0
  6
Continuous
 62
     1
370
    15
100
AcDbLine
 10
49.27499999999999
 20
3.586979308061895
 30
0.0
 11
49.27499999999999
 21
3.587750000000007
 31
0.0
  0
LINE
  5
AE
330
1F
100
AcDbEntity
  8
0
  6
Continuous
 62
     1
370
    15
100
AcDbLine
 10
49.27499999999999
 20
-3.587749999999993
 30
0.0
 11
49.27499999999999
 21
-3.58697930806188
 31
0.0
  0
SPLINE
  5
AF
330
1F
100
AcDbEntity
  8
0
  6
Continuous
 62
     4
370
    15
100
AcDbSpline
210
0.0
220
0.0
230
1.0
 70
     8
 71
     3
 72
    10
 73
     6
 74
     0
 42
0.000000001
 43
0.00000001
 40
0.0
 40
0.0
 40
0.0
 40
0.0
 40
0.5000000000000001
 40
0.5000000000000001
 40
1.0
 40
1.0
 40
1.0
 40
1.0
 10
6.744037837377608
 20
-1.435093357761842
 30
0.0
 10
6.632375605499313
 20
-1.331338154024959
 30
0.0
 10
6.559187180629634
 20
-1.196502386123606
 30
0.0
 10
6.482391034616587
 20
-0.9051468894976766
 30
0.0
 10
6.479632066288293
 20
-0.7501382410196877
 30
0.0
 10
6.479632066288309
 20
-0.595430849449281
 30
0.0
  0
SPLINE
  5
B0
330
1F
100
AcDbEntity
  8
0
  6
Continuous
 62
     4
370
    15
100
AcDbSpline
210
0.0
220
0.0
230
1.0
 70
     8
 71
     3
 72
    16
 73
    12
 74
     0
 42
0.000000001
 43
0.00000001
 40
0.0
 40
0.0
 40
0.0
 40
0.0
 40
0.125
 40
0.125
 40
0.25
 40
0.25
 40
0.5
 40
0.5
 40
0.75
 40
0.75
 40
1.0
 40
1.0
 40
1.0
 40
1.0
 10
6.479632066288307
 20
-0.5954308494510243
 30
0.0
 10
6.479632066288316
 20
-0.5085318644329209
 30
0.0
 10
6.479857158249326
 20
-0.4213870310904995
 30
0.0
 10
6.495200953843746
 20
-0.2479425396999282
 30
0.0
 10
6.510293395648974
 20
-0.1606139736433703
 30
0.0
 10
6.58992903517003
 20
0.091631537460709
 30
0.0
 10
6.690233856351545
 20
0.2440717763882276
 30
0.0
 10
6.977995000085402
 20
0.452448734067622
 30
0.0
 10
7.155565686239207
 20
0.5022027796976958
 30
0.0
 10
7.509287879762036
 20
0.4742852537994472
 30
0.0
 10
7.67677201044714
 20
0.3969041823243609
 30
0.0
 10
7.802813674344163
 20
0.2715449355106829
 30
0.0
  0
LINE
  5
B2
330
1F
100
AcDbEntity
  8
0
  6
Continuous
 62
     4
370
    15
100
AcDbLine
 10
-51.825
 20
3.968749999999999
 30
0.0
 11
-51.825
 21
-3.968749999999996
 31
0.0
  0
SPLINE
  5
B3
330
1F
100
AcDbEntity
  8
0
  6
Continuous
 62
     4
370
    15
100
AcDbSpline
210
0.0
220
0.0
230
1.0
 70
     8
 71
     3
 72
    10
 73
     6
 74
     0
 42
0.000000001
 43
0.00000001
 40
0.0
 40
0.0
 40
0.0
 40
0.0
 40
0.5000000000000001
 40
0.5000000000000001
 40
1.0
 40
1.0
 40
1.0
 40
1.0
 10
7.999999999999856
 20
-2.515043995786193
 30
0.0
 10
7.789797287434659
 20
-2.352941893560158
 30
0.0
 10
7.578997904912768
 20
-2.180110954976289
 30
0.0
 10
7.164038940149943
 20
-1.819676939277809
 30
0.0
 10
6.954327038919015
 20
-1.630491556262653
 30
0.0
 10
6.744037837377608
 20
-1.435093357761843
 30
0.0
  0
LINE
  5
B4
330
1F
100
AcDbEntity
  8
0
  6
Continuous
 62
     4
370
    15
100
AcDbLine
 10
8.000000000000002
 20
-2.515043995786302
 30
0.0
 11
7.999999999999995
 21
-3.39881311082927
 31
0.0
  0
SPLINE
  5
B5
330
1F
100
AcDbEntity
  8
0
  6
Continuous
 62
     4
370
    15
100
AcDbSpline
210
0.0
220
0.0
230
1.0
 70
     8
 71
     3
 72
     8
 73
     4
 74
     0
 42
0.000000001
 43
0.00000001
 40
0.0
 40
0.0
 40
0.0
 40
0.0
 40
1.0
 40
1.0
 40
1.0
 40
1.0
 10
7.999999999999856
 20
-3.398813110829199
 30
0.0
 10
7.934290236679701
 20
-3.364990848475603
 30
0.0
 10
7.868521166181656
 20
-3.329768661557828
 30
0.0
 10
7.802813674345945
 20
-3.293211336942558
 30
0.0
  0
SPLINE
  5
B6
330
1F
100
AcDbEntity
  8
0
  6
Continuous
 62
     4
370
    15
100
AcDbSpline
210
0.0
220
0.0
230
1.0
 70
     8
 71
     3
 72
    16
 73
    12
 74
     0
 42
0.000000001
 43
0.00000001
 40
0.0
 40
0.0
 40
0.0
 40
0.0
 40
0.125
 40
0.125
 40
0.25
 40
0.25
 40
0.5
 40
0.5
 40
0.75
 40
0.75
 40
1.0
 40
1.0
 40
1.0
 40
1.0
 10
6.479632066288309
 20
-3.695851531410939
 30
0.0
 10
6.479632066288318
 20
-3.663822050087717
 30
0.0
 10
6.479857158249542
 20
-3.629134403715716
 30
0.0
 10
6.495200953843536
 20
-3.555123663893308
 30
0.0
 10
6.510293395648974
 20
-3.515301757476121
 30
0.0
 10
6.58992903517003
 20
-3.393392326698588
 30
0.0
 10
6.690233856351544
 20
-3.309692357757463
 30
0.0
 10
6.9779950000854
 20
-3.189607103540272
 30
0.0
 10
7.155565686239203
 20
-3.158330392557551
 30
0.0
 10
7.509287879762034
 20
-3.175286262667974
 30
0.0
 10
7.67677201044714
 20
-3.223086212798094
 30
0.0
 10
7.802813674344165
 20
-3.293211336941566
 30
0.0
  0
SPLINE
  5
B7
330
1F
100
AcDbEntity
  8
0
  6
Continuous
 62
     4
370
    15
100
AcDbSpline
210
0.0
220
0.0
230
1.0
 70
     8
 71
     3
 72
    10
 73
     6
 74
     0
 42
0.000000001
 43
0.00000001
 40
0.0
 40
0.0
 40
0.0
 40
0.0
 40
0.5
 40
0.5
 40
1.0
 40
1.0
 40
1.0
 40
1.0
 10
6.744037837377608
 20
-3.922014296560306
 30
0.0
 10
6.632375605499313
 20
-3.904986103739064
 30
0.0
 10
6.559187180629637
 20
-3.877982190805457
 30
0.0
 10
6.482391034616587
 20
-3.801585346621492
 30
0.0
 10
6.479632066288293
 20
-3.752874032965306
 30
0.0
 10
6.479632066288309
 20
-3.695851531403999
 30
0.0
  0
SPLINE
  5
B8
330
1F
100
AcDbEntity
  8
0
  6
Continuous
 62
     4
370
    15
100
AcDbSpline
210
0.0
220
0.0
230
1.0
 70
     8
 71
     3
 72
    10
 73
     6
 74
     0
 42
0.000000001
 43
0.00000001
 40
0.0
 40
0.0
 40
0.0
 40
0.0
 40
0.5
 40
0.5
 40
1.0
 40
1.0
 40
1.0
 40
1.0
 10
7.999999999999856
 20
-3.916308882229612
 30
0.0
 10
7.789797287434659
 20
-3.950261572477847
 30
0.0
 10
7.578997904912768
 20
-3.967766138461098
 30
0.0
 10
7.164038940149943
 20
-3.969652738149084
 30
0.0
 10
6.954327038919015
 20
-3.954082839449327
 30
0.0
 10
6.744037837377608
 20
-3.92201429656031
 30
0.0
  0
SPLINE
  5
B9
330
1F
100
AcDbEntity
  8
0
  6
Continuous
 62
     4
370
    15
100
AcDbSpline
210
0.0
220
0.0
230
1.0
 70
     8
 71
     3
 72
     9
 73
     5
 74
     0
 42
0.000000001
 43
0.00000001
 40
0.0
 40
0.0
 40
0.0
 40
0.0
 40
0.0277147917614886
 40
0.9999999999999999
 40
0.9999999999999999
 40
0.9999999999999999
 40
0.9999999999999999
 10
7.35361319544158
 20
3.967376987330986
 30
0.0
 10
7.359581560533282
 20
3.967834191868357
 30
0.0
 10
7.574931007971484
 20
3.984330961582706
 30
0.0
 10
7.790452064587839
 20
3.949841994637691
 30
0.0
 10
7.999999999999854
 20
3.916308882229626
 30
0.0
  0
LINE
  5
BA
330
1F
100
AcDbEntity
  8
0
  6
Continuous
 62
     1
370
    15
100
AcDbLine
 10
8.000000000000002
 20
3.9163088822296
 30
0.0
 11
7.999999999999995
 21
3.474028909639963
 31
0.0
  0
SPLINE
  5
BB
330
1F
100
AcDbEntity
  8
0
  6
Continuous
 62
     4
370
    15
100
AcDbSpline
210
0.0
220
0.0
230
1.0
 70
     8
 71
     3
 72
     8
 73
     4
 74
     0
 42
0.000000001
 43
0.00000001
 40
0.0
 40
0.0
 40
0.0
 40
0.0
 40
1.0
 40
1.0
 40
1.0
 40
1.0
 10
7.999999999999856
 20
3.474028909640031
 30
0.0
 10
7.934290236679699
 20
3.505700881983086
 30
0.0
 10
7.868521166181656
 20
3.535961859935866
 30
0.0
 10
7.802813674345945
 20
3.564756272451507
 30
0.0
  0
SPLINE
  5
BC
330
1F
100
AcDbEntity
  8
0
  6
Continuous
 62
     4
370
    15
100
AcDbSpline
210
0.0
220
0.0
230
1.0
 70
     8
 71
     3
 72
    16
 73
    12
 74
     0
 42
0.000000001
 43
0.00000001
 40
0.0
 40
0.0
 40
0.0
 40
0.0
 40
0.125
 40
0.125
 40
0.25
 40
0.25
 40
0.5
 40
0.5
 40
0.75
 40
0.75
 40
1.0
 40
1.0
 40
1.0
 40
1.0
 10
6.479632066288307
 20
3.100420681959937
 30
0.0
 10
6.479632066288316
 20
3.155290185654819
 30
0.0
 10
6.479857158249331
 20
3.207747372625233
 30
0.0
 10
6.495200953843748
 20
3.307181124193414
 30
0.0
 10
6.510293395648972
 20
3.354687783832779
 30
0.0
 10
6.589929035170028
 20
3.485023864159328
 30
0.0
 10
6.690233856351542
 20
3.553764134145725
 30
0.0
 10
6.977995000085398
 20
3.642055837607931
 30
0.0
 10
7.155565686239203
 20
3.660533172255285
 30
0.0
 10
7.509287879762034
 20
3.649571516467462
 30
0.0
 10
7.67677201044714
 20
3.619990395122493
 30
0.0
 10
7.802813674344163
 20
3.564756272452285
 30
0.0
  0
SPLINE
  5
BD
330
1F
100
AcDbEntity
  8
0
  6
Continuous
 62
     4
370
    15
100
AcDbSpline
210
0.0
220
0.0
230
1.0
 70
     8
 71
     3
 72
    10
 73
     6
 74
     0
 42
0.000000001
 43
0.00000001
 40
0.0
 40
0.0
 40
0.0
 40
0.0
 40
0.5
 40
0.5
 40
1.0
 40
1.0
 40
1.0
 40
1.0
 10
6.744037837377608
 20
2.486920938798487
 30
0.0
 10
6.632375605499313
 20
2.573647949714131
 30
0.0
 10
6.559187180629635
 20
2.681479804681874
 30
0.0
 10
6.482391034616588
 20
2.896438457123838
 30
0.0
 10
6.479632066288289
 20
3.002735791945641
 30
0.0
 10
6.479632066288307
 20
3.100420681954742
 30
0.0
  0
SPLINE
  5
BE
330
1F
100
AcDbEntity
  8
0
  6
Continuous
 62
     4
370
    15
100
AcDbSpline
210
0.0
220
0.0
230
1.0
 70
     8
 71
     3
 72
    10
 73
     6
 74
     0
 42
0.000000001
 43
0.00000001
 40
0.0
 40
0.0
 40
0.0
 40
0.0
 40
0.5
 40
0.5
 40
1.0
 40
1.0
 40
1.0
 40
1.0
 10
7.999999999999854
 20
1.401264886443427
 30
0.0
 10
7.789797287434659
 20
1.597319678917699
 30
0.0
 10
7.578997904912768
 20
1.78765518348482
 30
0.0
 10
7.164038940149943
 20
2.149975798871291
 30
0.0
 10
6.954327038919015
 20
2.323591283186693
 30
0.0
 10
6.744037837377606
 20
2.486920938798487
 30
0.0
  0
LINE
  5
BF
330
1F
100
AcDbEntity
  8
0
  6
Continuous
 62
     1
370
    15
100
AcDbLine
 10
8.000000000000002
 20
1.401264886443293
 30
0.0
 11
7.999999999999995
 21
0.0752157988106577
 31
0.0
  0
SPLINE
  5
C0
330
1F
100
AcDbEntity
  8
0
  6
Continuous
 62
     4
370
    15
100
AcDbSpline
210
0.0
220
0.0
230
1.0
 70
     8
 71
     3
 72
     8
 73
     4
 74
     0
 42
0.000000001
 43
0.00000001
 40
0.0
 40
0.0
 40
0.0
 40
0.0
 40
1.0
 40
1.0
 40
1.0
 40
1.0
 10
7.999999999999856
 20
0.0752157988107964
 30
0.0
 10
7.934290236679701
 20
0.1407100335074473
 30
0.0
 10
7.868521166181656
 20
0.2061931983780015
 30
0.0
 10
7.802813674345945
 20
0.2715449355089125
 30
0.0
  0
LINE
  5
C1
330
1F
100
AcDbEntity
  8
0
  6
Continuous
 62
     4
370
    15
100
AcDbLine
 10
-52.325
 20
3.46875
 30
0.0
 11
-52.325
 21
-3.468749999999995
 31
0.0
  0
SPLINE
  5
C2
330
1F
100
AcDbEntity
  8
0
  6
Continuous
 62
     1
370
    15
100
AcDbSpline
210
0.0
220
0.0
230
1.0
 70
    24
 71
     3
 72
    14
 73
    10
 74
     0
 42
0.000000001
 43
0.00000001
 40
0.0
 40
0.0
 40
0.0
 40
0.0
 40
0.25
 40
0.25
 40
0.5
 40
0.5
 40
0.75
 40
0.75
 40
1.0
 40
1.0
 40
1.0
 40
1.0
 10
8.0
 20
0.0752157988106401
 30
0.0
 10
8.0
 20
0.0005568384116532
 30
0.0
 10
8.0
 20
-0.1010671267828341
 30
0.0
 10
8.0
 20
-0.3847024616172917
 30
0.0
 10
8.0
 20
-0.567860928814921
 30
0.0
 10
8.0
 20
-1.026413308824557
 30
0.0
 10
8.0
 20
-1.30311308350878
 30
0.0
 10
8.0
 20
-1.903080864655118
 30
0.0
 10
8.0
 20
-2.224534029052433
 30
0.0
 10
8.0
 20
-2.515043995786302
 30
0.0
  0
SPLINE
  5
C3
330
1F
100
AcDbEntity
  8
0
  6
Continuous
 62
     1
370
    15
100
AcDbSpline
210
0.0
220
0.0
230
1.0
 70
    24
 71
     3
 72
    14
 73
    10
 74
     0
 42
0.000000001
 43
0.00000001
 40
0.0
 40
0.0
 40
0.0
 40
0.0
 40
0.2500000000000002
 40
0.2500000000000002
 40
0.5000000000000003
 40
0.5000000000000003
 40
0.7500000000000002
 40
0.7500000000000002
 40
1.0
 40
1.0
 40
1.0
 40
1.0
 10
8.0
 20
3.474028909639935
 30
0.0
 10
7.999999999999998
 20
3.310836357379149
 30
0.0
 10
7.999999999999998
 20
3.126028559854991
 30
0.0
 10
8.0
 20
2.722462364757658
 30
0.0
 10
8.0
 20
2.502988557368884
 30
0.0
 10
8.0
 20
2.073666487194784
 30
0.0
 10
8.0
 20
1.864622027682747
 30
0.0
 10
8.0
 20
1.541892905972237
 30
0.0
 10
8.0
 20
1.431484201720614
 30
0.0
 10
8.0
 20
1.401264886443293
 30
0.0
  0
SPLINE
  5
C4
330
1F
100
AcDbEntity
  8
0
  6
Continuous
 62
     4
370
    15
100
AcDbSpline
210
0.0
220
0.0
230
1.0
 70
    24
 71
     3
 72
     9
 73
     5
 74
     0
 42
0.000000001
 43
0.00000001
 40
0.0
 40
0.0
 40
0.0
 40
0.0
 40
0.6635965655409244
 40
1.0
 40
1.0
 40
1.0
 40
1.0
 10
7.999999999999995
 20
-3.468613229191059
 30
0.0
 10
7.999999999999998
 20
-3.552073715341408
 30
0.0
 10
8.000000000000005
 20
-3.677843634120775
 30
0.0
 10
8.000000000000002
 20
-3.856281703015243
 30
0.0
 10
8.000000000000002
 20
-3.916308882229587
 30
0.0
  0
LINE
  5
C5
330
1F
100
AcDbEntity
  8
0
  6
Continuous
 62
     1
370
    15
100
AcDbLine
 10
49.27499999999999
 20
-0.8660254037844315
 30
0.0
 11
49.27499999999999
 21
0.85675941029566
 31
0.0
  0
LINE
  5
C6
330
1F
100
AcDbEntity
  8
0
  6
Continuous
 62
     1
370
    15
100
AcDbLine
 10
48.07527689802652
 20
-0.2613772235157478
 30
0.0
 11
49.27499999999999
 21
-0.8660254037844315
 31
0.0
  0
SPLINE
  5
C7
330
1F
100
AcDbEntity
  8
0
  6
Continuous
 62
     1
370
    15
100
AcDbSpline
210
0.0
220
0.0
230
1.0
 70
     8
 71
     3
 72
    14
 73
    10
 74
     0
 42
0.000000001
 43
0.00000001
 40
0.0
 40
0.0
 40
0.0
 40
0.0
 40
0.25
 40
0.25
 40
0.5
 40
0.5
 40
0.75
 40
0.75
 40
1.0
 40
1.0
 40
1.0
 40
1.0
 10
48.86718666886559
 20
0.7640645895815259
 30
0.0
 10
48.85653046109523
 20
0.6900301066256447
 30
0.0
 10
48.83644304747025
 20
0.6118619110315875
 30
0.0
 10
48.76924042395925
 20
0.4436791934342945
 30
0.0
 10
48.72078447656216
 20
0.3515688561332677
 30
0.0
 10
48.58733306518222
 20
0.1623519356242525
 30
0.0
 10
48.5013269951254
 20
0.064538150980404
 30
0.0
 10
48.29985087560158
 20
-0.116503814363435
 30
0.0
 10
48.18647052588283
 20
-0.1975288068554688
 30
0.0
 10
48.07527689802625
 20
-0.2613772235161025
 30
0.0
  0
ELLIPSE
  5
C8
330
1F
100
AcDbEntity
  8
0
  6
Continuous
 62
     1
370
    15
100
AcDbEllipse
 10
50.7031480067421
 20
0.0000000000000084
 30
0.0
 11
5.591613229025619
 21
3.715348930515086
 31
0.0
210
0.0
220
0.0
230
1.0
 40
0.2495534463455927
 41
1.731348575643376
 42
1.736344596962232
  0
SPLINE
  5
C9
330
1F
100
AcDbEntity
  8
0
  6
Continuous
 62
     1
370
    15
100
AcDbSpline
210
0.0
220
0.0
230
1.0
 70
     8
 71
     3
 72
    12
 73
     8
 74
     0
 42
0.000000001
 43
0.00000001
 40
0.0
 40
0.0
 40
0.0
 40
0.0
 40
0.25
 40
0.25
 40
0.5
 40
0.5
 40
1.0
 40
1.0
 40
1.0
 40
1.0
 10
49.27499999999999
 20
0.8567594102956605
 30
0.0
 10
49.27500000000001
 20
0.883685134029274
 30
0.0
 10
49.26397666841254
 20
0.9038738083840547
 30
0.0
 10
49.22058760875416
 20
0.9240976333815593
 30
0.0
 10
49.18832517742197
 20
0.924173188507696
 30
0.0
 10
49.07440382611066
 20
0.8973948532403996
 30
0.0
 10
48.98119765513724
 20
0.846670553262098
 30
0.0
 10
48.89399999999972
 20
0.7835120111807391
 30
0.0
  0
SPLINE
  5
CA
330
1F
100
AcDbEntity
  8
0
  6
Continuous
 62
     1
370
    15
100
AcDbSpline
210
0.0
220
0.0
230
1.0
 70
     8
 71
     3
 72
    22
 73
    18
 74
     0
 42
0.000000001
 43
0.00000001
 40
0.0
 40
0.0
 40
0.0
 40
0.0
 40
0.0723745696995579
 40
0.1447610327179578
 40
0.21718556352955
 40
0.2896696022499856
 40
0.357138697051716
 40
0.4245276682084008
 40
0.4919046278701814
 40
0.5593378798527867
 40
0.6268581392380779
 40
0.6942947232504189
 40
0.7616725370199219
 40
0.8290598707271845
 40
0.8965248626397094
 40
0.9640341630426911
 40
1.0
 40
1.0
 40
1.0
 40
1.0
 10
7.99999999999986
 20
3.916308882229623
 30
0.0
 10
8.318911001768177
 20
3.842570569655688
 30
0.0
 10
8.956785411975298
 20
3.695081827084999
 30
0.0
 10
9.91386058749387
 20
3.199007643788684
 30
0.0
 10
10.87161322210033
 20
2.533707005503535
 30
0.0
 10
11.80834043281992
 20
1.736061132179126
 30
0.0
 10
12.72240406184414
 20
0.8668969368321273
 30
0.0
 10
13.61327133877759
 20
-0.0254567919761248
 30
0.0
 10
14.50395468003972
 20
-0.9163012760408584
 30
0.0
 10
15.3955240868663
 20
-1.761377273696373
 30
0.0
 10
16.2883911463514
 20
-2.51724164544128
 30
0.0
 10
17.18001225125874
 20
-3.14739810500805
 30
0.0
 10
18.0707060434263
 20
-3.618520846954657
 30
0.0
 10
18.96155570273428
 20
-3.910337944684444
 30
0.0
 10
19.85358285743858
 20
-3.996337524102594
 30
0.0
 10
20.60765979422656
 20
-3.928586953703027
 30
0.0
 10
21.06354115180082
 20
-3.75982234192792
 30
0.0
 10
21.22199616811361
 20
-3.70116322181356
 30
0.0
  0
SPLINE
  5
CB
330
1F
100
AcDbEntity
  8
0
  6
Continuous
 62
     1
370
    15
100
AcDbSpline
210
0.0
220
0.0
230
1.0
 70
     8
 71
     3
 72
    24
 73
    20
 74
     0
 42
0.000000001
 43
0.00000001
 40
0.0
 40
0.0
 40
0.0
 40
0.0
 40
0.0032505847751433
 40
0.067611143043131
 40
0.1318780792790186
 40
0.1961058136693667
 40
0.2603595100463448
 40
0.3247034510303461
 40
0.3890345922641269
 40
0.4532821782434722
 40
0.5175110560620508
 40
0.5817863712935146
 40
0.6461518476257234
 40
0.710449754332396
 40
0.7746844230805092
 40
0.8389209070005461
 40
0.9105360012941984
 40
0.982185950971549
 40
1.0
 40
1.0
 40
1.0
 40
1.0
 10
32.28997206457444
 20
3.963959582553914
 30
0.0
 10
32.30500202619321
 20
3.965543743910931
 30
0.0
 10
32.61762051032245
 20
3.998493802906982
 30
0.0
 10
33.22799533931924
 20
3.877233291472748
 30
0.0
 10
34.11922137505733
 20
3.58870954655206
 30
0.0
 10
35.00987482823785
 20
3.097501174216659
 30
0.0
 10
35.90093277166718
 20
2.456455504404008
 30
0.0
 10
36.79343797931616
 20
1.690715234129604
 30
0.0
 10
37.68574351437113
 20
0.8403610938495955
 30
0.0
 10
38.57670231487916
 20
-0.052614142583317
 30
0.0
 10
39.46735590118982
 20
-0.9427068519702886
 30
0.0
 10
40.3587761415025
 20
-1.785742789800286
 30
0.0
 10
41.25161420628574
 20
-2.538305701454074
 30
0.0
 10
42.14339405810626
 20
-3.164167648554756
 30
0.0
 10
43.03415421809999
 20
-3.62975501824146
 30
0.0
 10
43.9586507313739
 20
-3.928042030945345
 30
0.0
 10
44.91830812739454
 20
-3.995599127204843
 30
0.0
 10
45.66329704170436
 20
-3.912688129746495
 30
0.0
 10
46.07715141955102
 20
-3.737423896334332
 30
0.0
 10
46.15955799967544
 20
-3.702525326047916
 30
0.0
  0
SPLINE
  5
CC
330
1F
100
AcDbEntity
  8
0
  6
Continuous
 62
     1
370
    15
100
AcDbSpline
210
0.0
220
0.0
230
1.0
 70
     8
 71
     3
 72
    24
 73
    20
 74
     0
 42
0.000000001
 43
0.00000001
 40
0.0
 40
0.0
 40
0.0
 40
0.0
 40
0.0147426612441085
 40
0.0837545286116701
 40
0.1528026890841192
 40
0.2219075832570585
 40
0.286231325953022
 40
0.3504786803004694
 40
0.4147145831187408
 40
0.4790041539574758
 40
0.5433766759874111
 40
0.6076694235194751
 40
0.6719061406276896
 40
0.7361519338622212
 40
0.8004717649422022
 40
0.8648338388883097
 40
0.9291019614231657
 40
0.9933345000885282
 40
0.9999999999999999
 40
0.9999999999999999
 40
0.9999999999999999
 40
0.9999999999999999
 10
8.75232643615326
 20
3.706358097711552
 30
0.0
 10
8.820465520281857
 20
3.735417600393519
 30
0.0
 10
9.207570451794963
 20
3.900507532836373
 30
0.0
 10
9.913862852936125
 20
3.98889698700756
 30
0.0
 10
10.87161261297413
 20
3.944841171350783
 30
0.0
 10
11.80834058342815
 20
3.660755528537919
 30
0.0
 10
12.72240402325993
 20
3.193149644572431
 30
0.0
 10
13.61327134726989
 20
2.575022517346107
 30
0.0
 10
14.50395468462603
 20
1.827915817043747
 30
0.0
 10
15.39552405998102
 20
0.988599284018385
 30
0.0
 10
16.28839124939179
 20
0.1003708449748035
 30
0.0
 10
17.18001186669795
 20
-0.7936659322920638
 30
0.0
 10
18.07070747756148
 20
-1.647463608625615
 30
0.0
 10
18.96155034679933
 20
-2.418963477885021
 30
0.0
 10
19.85360287722666
 20
-3.067361906757469
 30
0.0
 10
20.74629964876807
 20
-3.566898012258411
 30
0.0
 10
21.63755212295766
 20
-3.86703398090962
 30
0.0
 10
22.26197996078764
 20
-3.994653875035062
 30
0.0
 10
22.58964759829374
 20
-3.962495918000778
 30
0.0
 10
22.62045336743251
 20
-3.959472578229074
 30
0.0
  0
SPLINE
  5
CD
330
1F
100
AcDbEntity
  8
0
  6
Continuous
 62
     1
370
    15
100
AcDbSpline
210
0.0
220
0.0
230
1.0
 70
     8
 71
     3
 72
    23
 73
    19
 74
     0
 42
0.000000001
 43
0.00000001
 40
0.0
 40
0.0
 40
0.0
 40
0.0
 40
0.0309490045132939
 40
0.0951834331245162
 40
0.1594438264282914
 40
0.2237944737449541
 40
0.2881323199773243
 40
0.352386602246602
 40
0.4166221744052306
 40
0.4809041888167458
 40
0.5452763737261659
 40
0.6095809819675161
 40
0.6738223456592465
 40
0.7380655247120886
 40
0.8093044595496
 40
0.8805814735368351
 40
0.9518745022563081
 40
1.0
 40
1.0
 40
1.0
 40
1.0
 10
33.69026424790709
 20
3.701088101983831
 30
0.0
 10
33.83331392010675
 20
3.755296448235014
 30
0.0
 10
34.2732621226879
 20
3.922013813828269
 30
0.0
 10
35.00985079093165
 20
3.995155765832898
 30
0.0
 10
35.90093922365485
 20
3.920357075493292
 30
0.0
 10
36.79343624988699
 20
3.638561985933617
 30
0.0
 10
37.68574397671463
 20
3.176650865709195
 30
0.0
 10
38.57670219241137
 20
2.554186120317762
 30
0.0
 10
39.46735592915456
 20
1.803716318889448
 30
0.0
 10
40.3587761522009
 20
0.9622495914299376
 30
0.0
 10
41.25161413539011
 20
0.0731682598809916
 30
0.0
 10
42.14339433051873
 20
-0.8201993065193889
 30
0.0
 10
43.0341532003013
 20
-1.672363166855576
 30
0.0
 10
43.95688236108992
 20
-2.467447625832699
 30
0.0
 10
44.91298348962505
 20
-3.154257456150272
 30
0.0
 10
45.90177132026064
 20
-3.66027146838779
 30
0.0
 10
46.78393086208234
 20
-3.941248285030183
 30
0.0
 10
47.33608116048776
 20
-3.941659430664413
 30
0.0
 10
47.55859695202439
 20
-3.941825121775151
 30
0.0
  0
SPLINE
  5
CE
330
1F
100
AcDbEntity
  8
0
  6
Continuous
 62
     1
370
    15
100
AcDbSpline
210
0.0
220
0.0
230
1.0
 70
     8
 71
     3
 72
    14
 73
    10
 74
     0
 42
0.000000001
 43
0.00000001
 40
0.0
 40
0.0
 40
0.0
 40
0.0
 40
0.25
 40
0.25
 40
0.5
 40
0.5
 40
0.75
 40
0.75
 40
1.0
 40
1.0
 40
1.0
 40
1.0
 10
49.27500000000001
 20
1.729091443443297
 30
0.0
 10
49.27500000000001
 20
1.714218684463187
 30
0.0
 10
49.26809782736804
 20
1.706124818310976
 30
0.0
 10
49.22671700864458
 20
1.720993458947238
 30
0.0
 10
49.19140846430544
 20
1.745837113318501
 30
0.0
 10
49.10900140692731
 20
1.813249846940938
 30
0.0
 10
49.06462319179216
 20
1.852616461774937
 30
0.0
 10
48.97826537673861
 20
1.928970219756084
 30
0.0
 10
48.93531041834204
 20
1.96695801605468
 30
0.0
 10
48.894
 20
2.0025416778796
 30
0.0
  0
LINE
  5
CF
330
1F
100
AcDbEntity
  8
0
  6
Continuous
 62
     1
370
    15
100
AcDbLine
 10
7.999999999999861
 20
-3.916308882229609
 30
0.0
 11
8.752326436153261
 21
-3.706358097711536
 31
0.0
  0
SPLINE
  5
D0
330
1F
100
AcDbEntity
  8
0
  6
Continuous
 62
     1
370
    15
100
AcDbSpline
210
0.0
220
0.0
230
1.0
 70
     8
 71
     3
 72
    24
 73
    20
 74
     0
 42
0.000000001
 43
0.00000001
 40
0.0
 40
0.0
 40
0.0
 40
0.0
 40
0.0022849949299015
 40
0.0666458603984083
 40
0.1309127762197181
 40
0.195144108839665
 40
0.2594050302998215
 40
0.3237583722391928
 40
0.3880870480450148
 40
0.4523357482768314
 40
0.5165693678341702
 40
0.5808530422412326
 40
0.6452237441352325
 40
0.7095203035948562
 40
0.7737572260105283
 40
0.8379995941797804
 40
0.9023124039972475
 40
0.9666768369078874
 40
1.0
 40
1.0
 40
1.0
 40
1.0
 10
19.82180178948972
 20
3.9653301124006
 30
0.0
 10
19.83236698738959
 20
3.96646441614918
 30
0.0
 10
20.14051940169111
 20
3.999548362326924
 30
0.0
 10
20.74634879507098
 20
3.880004603075879
 30
0.0
 10
21.63751394837934
 20
3.594826618348258
 30
0.0
 10
22.52816299317006
 20
3.10605440077468
 30
0.0
 10
23.41927753970494
 20
2.467154373782689
 30
0.0
 10
24.3118681938935
 20
1.703049396542824
 30
0.0
 10
25.20407513346905
 20
0.8536106672253033
 30
0.0
 10
26.09498757418618
 20
-0.0390297447884525
 30
0.0
 10
26.98565386409345
 20
-0.9295109134320596
 30
0.0
 10
27.87714757368832
 20
-1.773569154161024
 30
0.0
 10
28.77000515335683
 20
-2.527796313545676
 30
0.0
 10
29.6617067151466
 20
-3.155766239667815
 30
0.0
 10
30.55242276649346
 20
-3.624290530564839
 30
0.0
 10
31.44323609615453
 20
-3.913269768353106
 30
0.0
 10
32.33517002071404
 20
-3.996054144621894
 30
0.0
 10
33.08481559266237
 20
-3.926772599064574
 30
0.0
 10
33.53626571815265
 20
-3.758491946946942
 30
0.0
 10
33.69026424790709
 20
-3.701088101983813
 30
0.0
  0
SPLINE
  5
D1
330
1F
100
AcDbEntity
  8
0
  6
Continuous
 62
     1
370
    15
100
AcDbSpline
210
0.0
220
0.0
230
1.0
 70
     8
 71
     3
 72
    12
 73
     8
 74
     0
 42
0.000000001
 43
0.00000001
 40
0.0
 40
0.0
 40
0.0
 40
0.0
 40
0.0386909592285358
 40
0.2790547937331316
 40
0.5194871098827851
 40
0.7597925305877246
 40
1.0
 40
1.0
 40
1.0
 40
1.0
 10
44.75815896109005
 20
3.952001395817301
 30
0.0
 10
44.81148948686544
 20
3.957326529619196
 30
0.0
 10
45.19613073553603
 20
3.995733541084364
 30
0.0
 10
45.91240773147349
 20
3.827979827032234
 30
0.0
 10
46.90684373836405
 20
3.439671420688214
 30
0.0
 10
47.90068096504864
 20
2.822957366781614
 30
0.0
 10
48.56293865484738
 20
2.275976407302183
 30
0.0
 10
48.89399999999998
 20
2.002541677879624
 30
0.0
  0
SPLINE
  5
D2
330
1F
100
AcDbEntity
  8
0
  6
Continuous
 62
     1
370
    15
100
AcDbSpline
210
0.0
220
0.0
230
1.0
 70
    24
 71
     3
 72
     9
 73
     5
 74
     0
 42
0.000000001
 43
0.00000001
 40
0.0
 40
0.0
 40
0.0
 40
0.0
 40
0.6635965655409424
 40
0.9999999999999999
 40
0.9999999999999999
 40
0.9999999999999999
 40
0.9999999999999999
 10
8.000000000000002
 20
-3.468613229191059
 30
0.0
 10
8.000000000000002
 20
-3.552073715341411
 30
0.0
 10
8.000000000000002
 20
-3.677843634120778
 30
0.0
 10
8.000000000000002
 20
-3.856281703015246
 30
0.0
 10
8.000000000000002
 20
-3.916308882229587
 30
0.0
  0
SPLINE
  5
D3
330
1F
100
AcDbEntity
  8
0
  6
Continuous
 62
     1
370
    15
100
AcDbSpline
210
0.0
220
0.0
230
1.0
 70
     8
 71
     3
 72
    10
 73
     6
 74
     0
 42
0.000000001
 43
0.00000001
 40
0.0
 40
0.0
 40
0.0
 40
0.0
 40
0.444653921534752
 40
0.8893809130840834
 40
1.0
 40
1.0
 40
1.0
 40
1.0
 10
7.999999999999838
 20
-3.398813110829188
 30
0.0
 10
8.31891690696909
 20
-3.541000052822328
 30
0.0
 10
8.956803128548485
 20
-3.825397302400186
 30
0.0
 10
9.674000606935294
 20
-3.985698235330942
 30
0.0
 10
10.07245458895597
 20
-3.953605257748368
 30
0.0
 10
10.15182242349789
 20
-3.947212674791073
 30
0.0
  0
SPLINE
  5
D4
330
1F
100
AcDbEntity
  8
0
  6
Continuous
 62
     1
370
    15
100
AcDbSpline
210
0.0
220
0.0
230
1.0
 70
     8
 71
     3
 72
    24
 73
    20
 74
     0
 42
0.000000001
 43
0.00000001
 40
0.0
 40
0.0
 40
0.0
 40
0.0
 40
0.0299802291591824
 40
0.0942154389814014
 40
0.1584802394299037
 40
0.2228374659364073
 40
0.2871700248204374
 40
0.3514226033028885
 40
0.4156601002005458
 40
0.4799476549693927
 40
0.5443222424784259
 40
0.6086226830776152
 40
0.6728634830329768
 40
0.7371097290706405
 40
0.8014264210085956
 40
0.8657947391558538
 40
0.9300694239831094
 40
0.9943049022383036
 40
1.0
 40
1.0
 40
1.0
 40
1.0
 10
21.22199616811361
 20
3.701163221813577
 30
0.0
 10
21.36056085772578
 20
3.754025443934866
 30
0.0
 10
21.79601226771387
 20
3.920149506437708
 30
0.0
 10
22.52813967511998
 20
3.994701458110872
 30
0.0
 10
23.41928379911651
 20
3.923134924775219
 30
0.0
 10
24.31186651617492
 20
3.64419946040132
 30
0.0
 10
25.20407558284735
 20
3.184882699015483
 30
0.0
 10
26.09498745190919
 20
2.564628190148614
 30
0.0
 10
26.98565390421437
 20
1.815825199475125
 30
0.0
 10
27.87714753551009
 20
0.9754269761445138
 30
0.0
 10
28.7700052659849
 20
0.0867783057472137
 30
0.0
 10
29.66170630354531
 20
-0.8069621280250305
 30
0.0
 10
30.55242429898871
 20
-1.659833334261721
 30
0.0
 10
31.44323037399769
 20
-2.429761243466374
 30
0.0
 10
32.33519140925473
 20
-3.076059438584257
 30
0.0
 10
33.22794380451271
 20
-3.573148082077688
 30
0.0
 10
34.11925875664645
 20
-3.870002313019124
 30
0.0
 10
34.73922665349779
 20
-3.995735117977643
 30
0.0
 10
35.06240019111701
 20
-3.963330297840507
 30
0.0
 10
35.0887192205826
 20
-3.960691271692824
 30
0.0
  0
SPLINE
  5
D5
330
1F
100
AcDbEntity
  8
0
  6
Continuous
 62
     1
370
    15
100
AcDbSpline
210
0.0
220
0.0
230
1.0
 70
     8
 71
     3
 72
    10
 73
     6
 74
     0
 42
0.000000001
 43
0.00000001
 40
0.0
 40
0.0
 40
0.0
 40
0.0
 40
0.270065172989894
 40
0.635107950779653
 40
1.0
 40
1.0
 40
1.0
 40
1.0
 10
46.15955799967544
 20
3.702525326047937
 30
0.0
 10
46.4033865966201
 20
3.782807636974882
 30
0.0
 10
46.97679441086205
 20
3.971606264403138
 30
0.0
 10
47.8792982959587
 20
4.002817825422735
 30
0.0
 10
48.5379358798896
 20
3.837443871274186
 30
0.0
 10
48.86718666886554
 20
3.754773968723969
 30
0.0
  0
SPLINE
  5
D6
330
1F
100
AcDbEntity
  8
0
  6
Continuous
 62
     1
370
    15
100
AcDbSpline
210
0.0
220
0.0
230
1.0
 70
     8
 71
     3
 72
    14
 73
    10
 74
     0
 42
0.000000001
 43
0.00000001
 40
0.0
 40
0.0
 40
0.0
 40
0.0
 40
0.25
 40
0.25
 40
0.5
 40
0.5
 40
0.75
 40
0.75
 40
1.0
 40
1.0
 40
1.0
 40
1.0
 10
48.86718666886559
 20
3.754773968724059
 30
0.0
 10
48.85653046109523
 20
3.619628798656423
 30
0.0
 10
48.83644304747023
 20
3.487654322918808
 30
0.0
 10
48.76924042395927
 20
3.232791895657229
 30
0.0
 10
48.72078447656219
 20
3.107338353330337
 30
0.0
 10
48.58733306518231
 20
2.890753721050235
 30
0.0
 10
48.50132699512553
 20
2.799433886251125
 30
0.0
 10
48.29985087560176
 20
2.681699192392984
 30
0.0
 10
48.18647052588306
 20
2.657156332276739
 30
0.0
 10
48.07527689802651
 20
2.664314578412387
 30
0.0
  0
SPLINE
  5
D7
330
1F
100
AcDbEntity
  8
0
  6
Continuous
 62
     1
370
    15
100
AcDbSpline
210
0.0
220
0.0
230
1.0
 70
     8
 71
     3
 72
     8
 73
     4
 74
     0
 42
0.000000001
 43
0.00000001
 40
0.0
 40
0.0
 40
0.0
 40
0.0
 40
1.0
 40
1.0
 40
1.0
 40
1.0
 10
49.27499999999999
 20
2.067970960486982
 30
0.0
 10
48.87766445351132
 20
2.294108449434954
 30
0.0
 10
48.47759286701068
 20
2.491146638780469
 30
0.0
 10
48.07527689802648
 20
2.664314578412466
 30
0.0
  0
LINE
  5
D8
330
1F
100
AcDbEntity
  8
0
  6
Continuous
 62
     1
370
    15
100
AcDbLine
 10
49.27499999999999
 20
1.729091443443295
 30
0.0
 11
49.27499999999999
 21
2.067970960486983
 31
0.0
  0
SPLINE
  5
D9
330
1F
100
AcDbEntity
  8
0
  6
Continuous
 62
     1
370
    15
100
AcDbSpline
210
0.0
220
0.0
230
1.0
 70
     8
 71
     3
 72
    19
 73
    15
 74
     0
 42
0.000000001
 43
0.00000001
 40
0.0
 40
0.0
 40
0.0
 40
0.0
 40
0.0914425170383607
 40
0.1829000608328785
 40
0.2744057018367069
 40
0.3659865288207895
 40
0.4512311648383997
 40
0.5363745676769018
 40
0.6215027944482855
 40
0.7067021444267225
 40
0.7920114249503166
 40
0.8772149848216364
 40
0.9623442907256532
 40
1.0
 40
1.0
 40
1.0
 40
1.0
 10
7.999999999999838
 20
3.474028909640035
 30
0.0
 10
8.318911001741741
 20
3.300195214592645
 30
0.0
 10
8.956785411896032
 20
2.95249925839282
 30
0.0
 10
9.913860587810985
 20
2.205948633000238
 30
0.0
 10
10.87161322090999
 20
1.345813321959832
 30
0.0
 10
11.80834043713775
 20
0.4255985091287694
 30
0.0
 10
12.7224040469732
 20
-0.4933193049892208
 30
0.0
 10
13.61327139433171
 20
-1.365795001306213
 30
0.0
 10
14.50395447263313
 20
-2.169645029928864
 30
0.0
 10
15.39552486207711
 20
-2.863845956397853
 30
0.0
 10
16.28838825066327
 20
-3.416733098138144
 30
0.0
 10
17.18002303874781
 20
-3.786850107839357
 30
0.0
 10
17.90511983105478
 20
-3.968058860397117
 30
0.0
 10
18.33327142057746
 20
-3.949717422424806
 30
0.0
 10
18.46457695290968
 20
-3.944092470105049
 30
0.0
  0
SPLINE
  5
DA
330
1F
100
AcDbEntity
  8
0
  6
Continuous
 62
     1
370
    15
100
AcDbSpline
210
0.0
220
0.0
230
1.0
 70
     8
 71
     3
 72
    24
 73
    20
 74
     0
 42
0.000000001
 43
0.00000001
 40
0.0
 40
0.0
 40
0.0
 40
0.0
 40
0.0092483308191535
 40
0.0734862429822141
 40
0.1377296009827611
 40
0.2020434017168717
 40
0.2664088263395521
 40
0.330680621851293
 40
0.3949132125534104
 40
0.4591717672051654
 40
0.5235205732874129
 40
0.5878565786516391
 40
0.6521090224437487
 40
0.7163427566605528
 40
0.7806229318014132
 40
0.8449932748601731
 40
0.909296043184402
 40
0.9735355687685975
 40
1.0
 40
1.0
 40
1.0
 40
1.0
 10
29.53365430478559
 20
3.712975371880633
 30
0.0
 10
29.57640988054738
 20
3.731371383915406
 30
0.0
 10
29.91614109158574
 20
3.877544118944659
 30
0.0
 10
30.55238864407568
 20
3.972843799409156
 30
0.0
 10
31.4432403933761
 20
3.972119504832887
 30
0.0
 10
32.33518702410832
 20
3.754160663285466
 30
0.0
 10
33.2279513123312
 20
3.352517280792595
 30
0.0
 10
34.11923315650914
 20
2.780776784023811
 30
0.0
 10
35.00987167124993
 20
2.069834352877473
 30
0.0
 10
35.90093361792219
 20
1.254539875713119
 30
0.0
 10
36.79343775670401
 20
0.3766695193594039
 30
0.0
 10
37.68574355813573
 20
-0.520280098367132
 30
0.0
 10
38.57670236200613
 20
-1.391284362900911
 30
0.0
 10
39.46735566894227
 20
-2.192417823845801
 30
0.0
 10
40.3587770246184
 20
-2.88273100427696
 30
0.0
 10
41.2516109027845
 20
-3.430941127208325
 30
0.0
 10
42.14340636790471
 20
-3.795018242333396
 30
0.0
 10
42.8595708578862
 20
-3.970657459916471
 30
0.0
 10
43.27871005955888
 20
-3.950436908842605
 30
0.0
 10
43.40100109259069
 20
-3.944537217118644
 30
0.0
  0
SPLINE
  5
DB
330
1F
100
AcDbEntity
  8
0
  6
Continuous
 62
     1
370
    15
100
AcDbSpline
210
0.0
220
0.0
230
1.0
 70
     8
 71
     3
 72
    24
 73
    20
 74
     0
 42
0.000000001
 43
0.00000001
 40
0.0
 40
0.0
 40
0.0
 40
0.0
 40
0.0082734287077832
 40
0.0725100308494109
 40
0.1367557091011117
 40
0.2010754250657539
 40
0.2654373838209191
 40
0.3297053913329809
 40
0.3939378150392348
 40
0.4581998280883183
 40
0.522554263186547
 40
0.586884031732227
 40
0.6511338233453707
 40
0.7153685340278642
 40
0.7796533004103541
 40
0.8440250957581021
 40
0.9083227474120289
 40
0.9725607610089608
 40
1.0
 40
1.0
 40
1.0
 40
1.0
 10
17.06547693643346
 20
3.714010961959676
 30
0.0
 10
17.10372375798834
 20
3.730543983971043
 30
0.0
 10
17.43892676858866
 20
3.875442789341842
 30
0.0
 10
18.07067160301039
 20
3.9712386221629
 30
0.0
 10
18.96156045358737
 20
3.973913552146501
 30
0.0
 10
19.85359836577523
 20
3.758829123310053
 30
0.0
 10
20.74630757444446
 20
3.359918021789475
 30
0.0
 10
21.63752497951912
 20
2.790523864232781
 30
0.0
 10
22.5281600369364
 20
2.081448861785643
 30
0.0
 10
23.419278332376
 20
1.267408724976281
 30
0.0
 10
24.31186798475739
 20
0.3902278606714534
 30
0.0
 10
25.20407517709286
 20
-0.5068358266584424
 30
0.0
 10
26.09498760844247
 20
-1.378539138806995
 30
0.0
 10
26.98565368345394
 20
-2.181045602129112
 30
0.0
 10
27.87714826299404
 20
-2.873306024397353
 30
0.0
 10
28.77000257447151
 20
-3.423855390924182
 30
0.0
 10
29.66171632413507
 20
-3.790958594462523
 30
0.0
 10
30.38234551134487
 20
-3.969364031862544
 30
0.0
 10
30.80598968742531
 20
-3.950067385651253
 30
0.0
 10
30.93278748585932
 20
-3.944291849494023
 30
0.0
  0
SPLINE
  5
DC
330
1F
100
AcDbEntity
  8
0
  6
Continuous
 62
     1
370
    15
100
AcDbSpline
210
0.0
220
0.0
230
1.0
 70
     8
 71
     3
 72
    15
 73
    11
 74
     0
 42
0.000000001
 43
0.00000001
 40
0.0
 40
0.0
 40
0.0
 40
0.0
 40
0.0206529370353989
 40
0.15043597024855
 40
0.2802226709285465
 40
0.4241424838772936
 40
0.5681392258834134
 40
0.712168321507306
 40
0.8561138787884188
 40
1.0
 40
1.0
 40
1.0
 40
1.0
 10
42.00183392081264
 20
3.711983133031648
 30
0.0
 10
42.04909622171837
 20
3.732221358808151
 30
0.0
 10
42.39335476861385
 20
3.8796365727111
 30
0.0
 10
43.03411872625535
 20
3.974426203254516
 30
0.0
 10
43.95689313952405
 20
3.970017688285107
 30
0.0
 10
44.91297871715019
 20
3.721430572963199
 30
0.0
 10
45.90177910429782
 20
3.240415115667905
 30
0.0
 10
46.89088645073748
 20
2.557273319090725
 30
0.0
 10
47.87929807264001
 20
1.720023685005911
 30
0.0
 10
48.53793580546031
 20
1.082673751334328
 30
0.0
 10
48.86718666886556
 20
0.764064589581514
 30
0.0
  0
LINE
  5
DD
330
1F
100
AcDbEntity
  8
0
  6
Continuous
 62
     1
370
    15
100
AcDbLine
 10
48.894
 20
0.7835120111792576
 30
0.0
 11
48.894
 21
2.002541677879608
 31
0.0
  0
SPLINE
  5
DE
330
1F
100
AcDbEntity
  8
0
  6
Continuous
 62
     1
370
    15
100
AcDbSpline
210
0.0
220
0.0
230
1.0
 70
     8
 71
     3
 72
    14
 73
    10
 74
     0
 42
0.000000001
 43
0.00000001
 40
0.0
 40
0.0
 40
0.0
 40
0.0
 40
0.1516770757856859
 40
0.3033790766773977
 40
0.4551608571322486
 40
0.6070673497012714
 40
0.7484639071925989
 40
0.8896925476899842
 40
1.0
 40
1.0
 40
1.0
 40
1.0
 10
7.999999999999838
 20
0.0752157988108118
 30
0.0
 10
8.318911008886069
 20
-0.2442503732629138
 30
0.0
 10
8.95678543333019
 20
-0.8832352153120371
 30
0.0
 10
9.913860502039132
 20
-1.79197922738458
 30
0.0
 10
10.87161354285323
 20
-2.596309616701672
 30
0.0
 10
11.80833926931648
 20
-3.236885121898132
 30
0.0
 10
12.72240806903484
 20
-3.682413537111637
 30
0.0
 10
13.54831582799677
 20
-3.935529442922352
 30
0.0
 10
14.07705494147432
 20
-3.946758131946635
 30
0.0
 10
14.30892569963635
 20
-3.951682308295349
 30
0.0
  0
SPLINE
  5
DF
330
1F
100
AcDbEntity
  8
0
  6
Continuous
 62
     1
370
    15
100
AcDbSpline
210
0.0
220
0.0
230
1.0
 70
     8
 71
     3
 72
    23
 73
    19
 74
     0
 42
0.000000001
 43
0.00000001
 40
0.0
 40
0.0
 40
0.0
 40
0.0
 40
0.0516552240746873
 40
0.1158939678446971
 40
0.1801827704575374
 40
0.2445586074999
 40
0.3088602961932012
 40
0.3731023430850288
 40
0.4373498361648689
 40
0.50166777651238
 40
0.566037344071277
 40
0.630313276492716
 40
0.69455000158108
 40
0.7588126922902737
 40
0.8231656402390711
 40
0.8875057866459183
 40
0.9517623661021357
 40
1.0
 40
1.0
 40
1.0
 40
1.0
 10
25.37897157109589
 20
3.70974751872638
 30
0.0
 10
25.61767416682367
 20
3.786516175904992
 30
0.0
 10
26.15322872977983
 20
3.958754791570938
 30
0.0
 10
26.98564377005018
 20
3.993204558338406
 30
0.0
 10
27.87715025839051
 20
3.850212281476284
 30
0.0
 10
28.77000452814098
 20
3.508387831830076
 30
0.0
 10
29.66170653353132
 20
2.991487861089445
 30
0.0
 10
30.55242411590523
 20
2.323930805271551
 30
0.0
 10
31.44323087675094
 20
1.539663399483991
 30
0.0
 10
32.33518957861617
 20
0.6779464571904903
 30
0.0
 10
33.2279506251778
 20
-0.2173119958962262
 30
0.0
 10
34.11923335356883
 20
-1.10231971922393
 30
0.0
 10
35.00987156927886
 20
-1.931728052106137
 30
0.0
 10
35.9009338289606
 20
-2.663821047000614
 30
0.0
 10
36.79343701357813
 20
-3.263461136862007
 30
0.0
 10
37.6857463170461
 20
-3.69265716259743
 30
0.0
 10
38.50276685650277
 20
-3.938711017733476
 30
0.0
 10
39.0225264787875
 20
-3.946661442702591
 30
0.0
 10
39.24539993713818
 20
-3.950070593071823
 30
0.0
  0
SPLINE
  5
E0
330
1F
100
AcDbEntity
  8
0
  6
Continuous
 62
     1
370
    15
100
AcDbSpline
210
0.0
220
0.0
230
1.0
 70
     8
 71
     3
 72
    17
 73
    13
 74
     0
 42
0.000000001
 43
0.00000001
 40
0.0
 40
0.0
 40
0.0
 40
0.0
 40
0.1055612673188359
 40
0.2111398815291945
 40
0.3167740191714725
 40
0.4224949515304459
 40
0.5209013832604137
 40
0.6191909513800233
 40
0.7174630002434943
 40
0.815817153757138
 40
0.9142982111229462
 40
1.0
 40
1.0
 40
1.0
 40
1.0
 10
7.999999999999861
 20
1.401264886443423
 30
0.0
 10
8.318911002030818
 20
1.094825572708121
 30
0.0
 10
8.956785412763267
 20
0.4818965880405199
 30
0.0
 10
9.9138605843407
 20
-0.4872852520107299
 30
0.0
 10
10.8716132339357
 20
-1.422662785360537
 30
0.0
 10
11.80834038988812
 20
-2.257322167108684
 30
0.0
 10
12.72240420970437
 20
-2.950406124897353
 30
0.0
 10
13.61327078640863
 20
-3.47849644975553
 30
0.0
 10
14.50395674226258
 20
-3.832979347923881
 30
0.0
 10
15.39551637902315
 20
-3.989989387730127
 30
0.0
 10
16.25013436213663
 20
-3.965806482465172
 30
0.0
 10
16.80656513460444
 20
-3.793968557652215
 30
0.0
 10
17.06547693643343
 20
-3.714010961959656
 30
0.0
  0
SPLINE
  5
E1
330
1F
100
AcDbEntity
  8
0
  6
Continuous
 62
     1
370
    15
100
AcDbSpline
210
0.0
220
0.0
230
1.0
 70
     8
 71
     3
 72
    23
 73
    19
 74
     0
 42
0.000000001
 43
0.00000001
 40
0.0
 40
0.0
 40
0.0
 40
0.0
 40
0.045882087042819
 40
0.110179324807941
 40
0.1744169248999624
 40
0.2386599708030143
 40
0.3029734590974152
 40
0.3673385710295939
 40
0.4316100543056888
 40
0.4958423329626194
 40
0.560100575443053
 40
0.6244490689155326
 40
0.6887847617321786
 40
0.7530368933826541
 40
0.8172703155487155
 40
0.8815501784132207
 40
0.9459202087575855
 40
1.0
 40
1.0
 40
1.0
 40
1.0
 10
28.13349580228963
 20
3.948255506125944
 30
0.0
 10
28.34574946620539
 20
3.946595921314548
 30
0.0
 10
28.85544653723066
 20
3.942610663760537
 30
0.0
 10
29.66171386746819
 20
3.705292080802743
 30
0.0
 10
30.55242215137999
 20
3.283109636333291
 30
0.0
 10
31.44323140402895
 20
2.688837960905821
 30
0.0
 10
32.33518943625226
 20
1.961280430349866
 30
0.0
 10
33.22795066656655
 20
1.135150861101243
 30
0.0
 10
34.11923333023804
 20
0.251447796609628
 30
0.0
 10
35.00987162124723
 20
-0.6446000022885746
 30
0.0
 10
35.90093364421578
 20
-1.508521518300061
 30
0.0
 10
36.79343770153975
 20
-2.296173285485155
 30
0.0
 10
37.68574375231406
 20
-2.968703060265474
 30
0.0
 10
38.5767016415391
 20
-3.491828400469461
 30
0.0
 10
39.46735835700235
 20
-3.840776502654499
 30
0.0
 10
40.35876697870685
 20
-3.991537453393128
 30
0.0
 10
41.2043433481628
 20
-3.962762920813001
 30
0.0
 10
41.75185872536955
 20
-3.790590615820454
 30
0.0
 10
42.00183392081263
 20
-3.711983133031628
 30
0.0
  0
SPLINE
  5
E2
330
1F
100
AcDbEntity
  8
0
  6
Continuous
 62
     1
370
    15
100
AcDbSpline
210
0.0
220
0.0
230
1.0
 70
     8
 71
     3
 72
    23
 73
    19
 74
     0
 42
0.000000001
 43
0.00000001
 40
0.0
 40
0.0
 40
0.0
 40
0.0
 40
0.0506814746445043
 40
0.1149213337696632
 40
0.1792148642207139
 40
0.2435913509719516
 40
0.3078880583119847
 40
0.3721287317772393
 40
0.4363784819278119
 40
0.5007022744838452
 40
0.5650683125077546
 40
0.6293403933339194
 40
0.6935768880989706
 40
0.7578429740822273
 40
0.8222014879723499
 40
0.8865353337465549
 40
0.9507891975192759
 40
1.0
 40
1.0
 40
1.0
 40
1.0
 10
12.91075377794703
 20
3.708906312203908
 30
0.0
 10
13.14495061915066
 20
3.784887875282091
 30
0.0
 10
13.67599699348264
 20
3.957177703707505
 30
0.0
 10
14.50394534033433
 20
3.99378787664883
 30
0.0
 10
15.3955265708499
 20
3.853940501272948
 30
0.0
 10
16.2883905678721
 20
3.514901233364102
 30
0.0
 10
17.18001208359198
 20
3.000486990419522
 30
0.0
 10
18.07070729061221
 20
2.33497794089386
 30
0.0
 10
18.96155087814735
 20
1.552173036528482
 30
0.0
 10
19.85360093592155
 20
0.6913571531080647
 30
0.0
 10
20.74630688235837
 20
-0.2037587011391357
 30
0.0
 10
21.6375251808722
 20
-1.089259970832741
 30
0.0
 10
22.52815992275354
 20
-1.919819641982847
 30
0.0
 10
23.41927858801889
 20
-2.653694916670127
 30
0.0
 10
24.31186707524211
 20
-3.255519481487489
 30
0.0
 10
25.20407855577771
 20
-3.687563311158437
 30
0.0
 10
26.02554278867098
 20
-3.937126223906509
 30
0.0
 10
26.54979123881323
 20
-3.946701032818355
 30
0.0
 10
26.77716322854923
 20
-3.950853726742462
 30
0.0
  0
SPLINE
  5
E3
330
1F
100
AcDbEntity
  8
0
  6
Continuous
 62
     1
370
    15
100
AcDbSpline
210
0.0
220
0.0
230
1.0
 70
     8
 71
     3
 72
    19
 73
    15
 74
     0
 42
0.000000001
 43
0.00000001
 40
0.0
 40
0.0
 40
0.0
 40
0.0
 40
0.0662325283328414
 40
0.1470737318987571
 40
0.2279733835720608
 40
0.3089865158501417
 40
0.3899146021171704
 40
0.4707630943938534
 40
0.5516138713232958
 40
0.6412688870643626
 40
0.7309718258516618
 40
0.8206949193629786
 40
0.9103659725659917
 40
1.0
 40
1.0
 40
1.0
 40
1.0
 10
37.84717908239999
 20
3.710631791119993
 30
0.0
 10
38.09039063528778
 20
3.788160481903502
 30
0.0
 10
38.6304580557
 20
3.960318093424147
 30
0.0
 10
39.46734488253249
 20
3.99257316224976
 30
0.0
 10
40.35877911982926
 20
3.846441549596372
 30
0.0
 10
41.25161333296533
 20
3.501831175954484
 30
0.0
 10
42.14339457382261
 20
2.982458248440459
 30
0.0
 10
43.03415302841751
 20
2.31284656785861
 30
0.0
 10
43.95688282783341
 20
1.498936353772442
 30
0.0
 10
44.91298160142271
 20
0.569849589360883
 30
0.0
 10
45.9017783313413
 20
-0.4267176184150963
 30
0.0
 10
46.89088665674809
 20
-1.393283243337034
 30
0.0
 10
47.8792980211746
 20
-2.287310543696468
 30
0.0
 10
48.53793578830751
 20
-2.756275380436823
 30
0.0
 10
48.86718666886555
 20
-2.990709379142442
 30
0.0
  0
SPLINE
  5
E4
330
1F
100
AcDbEntity
  8
0
  6
Continuous
 62
     1
370
    15
100
AcDbSpline
210
0.0
220
0.0
230
1.0
 70
     8
 71
     3
 72
    23
 73
    19
 74
     0
 42
0.000000001
 43
0.00000001
 40
0.0
 40
0.0
 40
0.0
 40
0.0
 40
0.0449111461971456
 40
0.1092034587827129
 40
0.1734397413234819
 40
0.2376850999291672
 40
0.3020044958794287
 40
0.3663661344100396
 40
0.4306338221649897
 40
0.494865926291174
 40
0.5591276196129702
 40
0.6234817345240778
 40
0.687811183005362
 40
0.7520606549520248
 40
0.8162950460430702
 40
0.8805794925850664
 40
0.9449509676593194
 40
0.9999999999999999
 40
0.9999999999999999
 40
0.9999999999999999
 40
0.9999999999999999
 10
15.66536903099422
 20
3.947633589753043
 30
0.0
 10
15.87313381133432
 20
3.94661706935251
 30
0.0
 10
16.3783231584682
 20
3.944145354576537
 30
0.0
 10
17.18001802367283
 20
3.710234039172832
 30
0.0
 10
18.070705699293
 20
3.29090135612376
 30
0.0
 10
18.96155130539898
 20
2.698857798251163
 30
0.0
 10
19.85360082019496
 20
1.973136692321985
 30
0.0
 10
20.74630691743064
 20
1.148158401363669
 30
0.0
 10
21.63752515619873
 20
0.2649983795706182
 30
0.0
 10
22.52815998639933
 20
-0.6311914666018594
 30
0.0
 10
23.41927835784173
 20
-1.495952846161032
 30
0.0
 10
24.31186793345185
 20
-2.285004277950556
 30
0.0
 10
25.20407535664785
 20
-2.959592330089542
 30
0.0
 10
26.09498694245766
 20
-3.485177165897948
 30
0.0
 10
26.98565616837576
 20
-3.836901060306128
 30
0.0
 10
27.87713897590765
 20
-3.990786946427045
 30
0.0
 10
28.7272404223185
 20
-3.964292274990822
 30
0.0
 10
29.27921273316177
 20
-3.792271461882645
 30
0.0
 10
29.53365430478561
 20
-3.712975371880619
 30
0.0
  0
SPLINE
  5
E5
330
1F
100
AcDbEntity
  8
0
  6
Continuous
 62
     1
370
    15
100
AcDbSpline
210
0.0
220
0.0
230
1.0
 70
     8
 71
     3
 72
    16
 73
    12
 74
     0
 42
0.000000001
 43
0.00000001
 40
0.0
 40
0.0
 40
0.0
 40
0.0
 40
0.0783706495739853
 40
0.1859300954875896
 40
0.2933837550679876
 40
0.4008404511218313
 40
0.52064030551548
 40
0.6404984670290599
 40
0.7603907771244801
 40
0.8802198104181339
 40
0.9999999999999999
 40
0.9999999999999999
 40
0.9999999999999999
 40
0.9999999999999999
 10
40.60162714897748
 20
3.948923197219283
 30
0.0
 10
40.81836517855658
 20
3.946591868123192
 30
0.0
 10
41.33256434309699
 20
3.941060916883084
 30
0.0
 10
42.14340281803384
 20
3.70030996846159
 30
0.0
 10
43.03415183386052
 20
3.27526441143809
 30
0.0
 10
43.95865163296939
 20
2.656225581432964
 30
0.0
 10
44.91830710505938
 20
1.863203604779515
 30
0.0
 10
45.91238498415655
 20
0.9245765848471632
 30
0.0
 10
46.90684980155194
 20
-0.0690225425604191
 30
0.0
 10
47.90067945030577
 20
-1.067344523695921
 30
0.0
 10
48.56293815000171
 20
-1.666590702220029
 30
0.0
 10
48.89399999999998
 20
-1.966152714100999
 30
0.0
  0
LINE
  5
E6
330
1F
100
AcDbEntity
  8
0
  6
Continuous
 62
     1
370
    15
100
AcDbLine
 10
48.894
 20
-2.977637725948493
 30
0.0
 11
48.894
 21
-1.966152714101012
 31
0.0
  0
ELLIPSE
  5
E7
330
1F
100
AcDbEntity
  8
0
  6
Continuous
 62
     1
370
    15
100
AcDbEllipse
 10
50.7031480067421
 20
0.0000000000000111
 30
0.0
 11
5.591613229025614
 21
3.715348930515079
 31
0.0
210
0.0
220
0.0
230
1.0
 40
0.249553446345596
 41
4.218199216429459
 42
4.223195237748328
  0
SPLINE
  5
E8
330
1F
100
AcDbEntity
  8
0
  6
Continuous
 62
     1
370
    15
100
AcDbSpline
210
0.0
220
0.0
230
1.0
 70
     8
 71
     3
 72
    13
 73
     9
 74
     0
 42
0.000000001
 43
0.00000001
 40
0.0
 40
0.0
 40
0.0
 40
0.0
 40
0.194884710009315
 40
0.3898014454386524
 40
0.5848206869121396
 40
0.780000166734627
 40
0.9616757888434591
 40
1.0
 40
1.0
 40
1.0
 40
1.0
 10
7.999999999999861
 20
-2.515043995786195
 30
0.0
 10
8.3189111525453
 20
-2.747810138648908
 30
0.0
 10
8.95678586433145
 20
-3.213380674853253
 30
0.0
 10
9.913858777325792
 20
-3.685510831353267
 30
0.0
 10
10.8716200165363
 20
-3.959305256843593
 30
0.0
 10
11.80831578659105
 20
-3.982735150323014
 30
0.0
 10
12.48812163502333
 20
-3.886986134391299
 30
0.0
 10
12.84805329056808
 20
-3.735325721684348
 30
0.0
 10
12.910753777947
 20
-3.708906312203895
 30
0.0
  0
SPLINE
  5
E9
330
1F
100
AcDbEntity
  8
0
  6
Continuous
 62
     1
370
    15
100
AcDbSpline
210
0.0
220
0.0
230
1.0
 70
     8
 71
     3
 72
    24
 73
    20
 74
     0
 42
0.000000001
 43
0.00000001
 40
0.0
 40
0.0
 40
0.0
 40
0.0
 40
0.0240579275163475
 40
0.0883836181852511
 40
0.1526293369913722
 40
0.2168599758228259
 40
0.2811406671812353
 40
0.3455083819881195
 40
0.4098019578011662
 40
0.474035899337686
 40
0.5382752863750785
 40
0.6025851117918798
 40
0.6669465579063126
 40
0.7312143806971403
 40
0.7954430011016437
 40
0.8596975838509195
 40
0.9240424124521325
 40
0.9883744411265539
 40
1.0
 40
1.0
 40
1.0
 40
1.0
 10
23.97810705446235
 20
3.945314069723915
 30
0.0
 10
24.08938122037669
 20
3.951421096652087
 30
0.0
 10
24.49817841985998
 20
3.973856991676701
 30
0.0
 10
25.20408623597163
 20
3.805020125480953
 30
0.0
 10
26.09498459990649
 20
3.448549214951031
 30
0.0
 10
26.98565466834832
 20
2.90595860982178
 30
0.0
 10
27.87714733266671
 20
2.220545431177825
 30
0.0
 10
28.77000531174293
 20
1.42327370170868
 30
0.0
 10
29.66170632317763
 20
0.5540996286846344
 30
0.0
 10
30.55242417489127
 20
-0.342802782793
 30
0.0
 10
31.44323085106446
 20
-1.2225150938962
 30
0.0
 10
32.33518962237265
 20
-2.040826368420031
 30
0.0
 10
33.22795047584167
 20
-2.756090269145623
 30
0.0
 10
34.11923390609746
 20
-3.333698183643397
 30
0.0
 10
35.00986950916862
 20
-3.742366422363147
 30
0.0
 10
35.9009415253359
 20
-3.967482736290707
 30
0.0
 10
36.79340824823022
 20
-3.976584276322773
 30
0.0
 10
37.44242741560099
 20
-3.882883826630915
 30
0.0
 10
37.79345339973424
 20
-3.73349607793459
 30
0.0
 10
37.84717908239996
 20
-3.710631791119977
 30
0.0
  0
SPLINE
  5
EA
330
1F
100
AcDbEntity
  8
0
  6
Continuous
 62
     1
370
    15
100
AcDbSpline
210
0.0
220
0.0
230
1.0
 70
    24
 71
     3
 72
    14
 73
    10
 74
     0
 42
0.000000001
 43
0.00000001
 40
0.0
 40
0.0
 40
0.0
 40
0.0
 40
0.25
 40
0.25
 40
0.4999999999999999
 40
0.4999999999999999
 40
0.75
 40
0.75
 40
1.0
 40
1.0
 40
1.0
 40
1.0
 10
8.0
 20
0.0752157988106912
 30
0.0
 10
8.0
 20
0.0005568384117123
 30
0.0
 10
8.0
 20
-0.1010671267827664
 30
0.0
 10
8.0
 20
-0.3847024616172124
 30
0.0
 10
8.0
 20
-0.5678609288148398
 30
0.0
 10
8.0
 20
-1.026413308824481
 30
0.0
 10
8.0
 20
-1.303113083508716
 30
0.0
 10
8.0
 20
-1.903080864655083
 30
0.0
 10
8.0
 20
-2.224534029052417
 30
0.0
 10
8.0
 20
-2.515043995786302
 30
0.0
  0
SPLINE
  5
EC
330
1F
100
AcDbEntity
  8
0
  6
Continuous
 62
     1
370
    15
100
AcDbSpline
210
0.0
220
0.0
230
1.0
 70
     8
 71
     3
 72
    24
 73
    20
 74
     0
 42
0.000000001
 43
0.00000001
 40
0.0
 40
0.0
 40
0.0
 40
0.0
 40
0.0230756087633601
 40
0.0873962621991453
 40
0.1516405309550984
 40
0.2158733487318551
 40
0.2801598319515752
 40
0.3445292623786194
 40
0.4088189221391019
 40
0.4730525541666942
 40
0.5372952618847068
 40
0.6016120038923716
 40
0.6659709867373754
 40
0.7302360226833089
 40
0.7944654764687259
 40
0.8587245182288475
 40
0.9230759777647871
 40
0.9874027718886879
 40
1.0
 40
1.0
 40
1.0
 40
1.0
 10
11.51015951219858
 20
3.943071169076418
 30
0.0
 10
11.61690190101404
 20
3.950220873712802
 30
0.0
 10
12.02117664394047
 20
3.977299572587257
 30
0.0
 10
12.72240419901836
 20
3.808097335672646
 30
0.0
 10
13.61327130038481
 20
3.455708743768653
 30
0.0
 10
14.50395469654653
 20
2.915199988591194
 30
0.0
 10
15.39552405922011
 20
2.231858196779398
 30
0.0
 10
16.28839124048344
 20
1.435967558706965
 30
0.0
 10
17.1800119030219
 20
0.5675367275729583
 30
0.0
 10
18.07070734127683
 20
-0.3292654473944763
 30
0.0
 10
18.9615508559899
 20
-1.209594376684059
 30
0.0
 10
19.8536009738793
 20
-2.029105206557359
 30
0.0
 10
20.74630675270712
 20
-2.746235158676946
 30
0.0
 10
21.63752566061648
 20
-3.326157902824691
 30
0.0
 10
22.52815813385499
 20
-3.737556750846433
 30
0.0
 10
23.41928527167853
 20
-3.96553758005902
 30
0.0
 10
24.31184209599886
 20
-3.978005913894142
 30
0.0
 10
24.96527863378214
 20
-3.88494478177088
 30
0.0
 10
25.32075763553081
 20
-3.734400881793862
 30
0.0
 10
25.37897157109591
 20
-3.709747518726363
 30
0.0
  0
SPLINE
  5
ED
330
1F
100
AcDbEntity
  8
0
  6
Continuous
 62
     1
370
    15
100
AcDbSpline
210
0.0
220
0.0
230
1.0
 70
     8
 71
     3
 72
    21
 73
    17
 74
     0
 42
0.000000001
 43
0.00000001
 40
0.0
 40
0.0
 40
0.0
 40
0.0
 40
0.0278876889616653
 40
0.0995725830460483
 40
0.1711643705968065
 40
0.2427353114394642
 40
0.3143579979990544
 40
0.3860811520590415
 40
0.4577290125464758
 40
0.529306406285233
 40
0.6008858226899119
 40
0.680687305312885
 40
0.7605276276710274
 40
0.840390697197554
 40
0.9202116165677042
 40
1.0
 40
1.0
 40
1.0
 40
1.0
 10
36.44621357570557
 20
3.944956578633831
 30
0.0
 10
36.56196414510922
 20
3.951003997670167
 30
0.0
 10
36.97524984979479
 20
3.972596218346377
 30
0.0
 10
37.68575703226994
 20
3.801084182086323
 30
0.0
 10
38.57669869609525
 20
3.44156876443065
 30
0.0
 10
39.467356871219
 20
2.896623984032189
 30
0.0
 10
40.35877588198346
 20
2.209226377200772
 30
0.0
 10
41.25161427244283
 20
1.41055521734928
 30
0.0
 10
42.143394052861
 20
0.5406601167051817
 30
0.0
 10
43.03415417307617
 20
-0.3563405299459012
 30
0.0
 10
43.95865092555498
 20
-1.26875126339038
 30
0.0
 10
44.91830730334093
 20
-2.143934934955635
 30
0.0
 10
45.91238493101669
 20
-2.917790085128134
 30
0.0
 10
46.90684981571613
 20
-3.504859219465082
 30
0.0
 10
47.90067944676721
 20
-3.891259909740127
 30
0.0
 10
48.56293814882235
 20
-3.942886405875734
 30
0.0
 10
48.89399999999998
 20
-3.968694391980604
 30
0.0
  0
SPLINE
  5
EE
330
1F
100
AcDbEntity
  8
0
  6
Continuous
 62
     1
370
    15
100
AcDbSpline
210
0.0
220
0.0
230
1.0
 70
     8
 71
     3
 72
    10
 73
     6
 74
     0
 42
0.000000001
 43
0.00000001
 40
0.0
 40
0.0
 40
0.0
 40
0.0
 40
0.3918515385710487
 40
0.8379255889617623
 40
1.0
 40
1.0
 40
1.0
 40
1.0
 10
48.53588308603378
 20
-2.744185650738361
 30
0.0
 10
48.4841307265582
 20
-2.750579238335165
 30
0.0
 10
48.37346476757825
 20
-2.764251127112651
 30
0.0
 10
48.20340320292626
 20
-2.846634038906601
 30
0.0
 10
48.10223791950129
 20
-2.909056045139399
 30
0.0
 10
48.07527689802623
 20
-2.925691801928513
 30
0.0
  0
SPLINE
  5
EF
330
1F
100
AcDbEntity
  8
0
  6
Continuous
 62
     1
370
    15
100
AcDbSpline
210
0.0
220
0.0
230
1.0
 70
     8
 71
     3
 72
     8
 73
     4
 74
     0
 42
0.000000001
 43
0.00000001
 40
0.0
 40
0.0
 40
0.0
 40
0.0
 40
1.0
 40
1.0
 40
1.0
 40
1.0
 10
49.27499999999999
 20
-3.154023337650047
 30
0.0
 10
48.87766445351132
 20
-3.1100838498711
 30
0.0
 10
48.47759286701072
 20
-3.031923548154853
 30
0.0
 10
48.07527689802654
 20
-2.925691801928156
 30
0.0
  0
LINE
  5
F0
330
1F
100
AcDbEntity
  8
0
  6
Continuous
 62
     1
370
    15
100
AcDbLine
 10
49.27499999999999
 20
-3.597015993488779
 30
0.0
 11
49.27499999999999
 21
-3.154023337650048
 31
0.0
  0
SPLINE
  5
F1
330
1F
100
AcDbEntity
  8
0
  6
Continuous
 62
     1
370
    15
100
AcDbSpline
210
0.0
220
0.0
230
1.0
 70
    24
 71
     3
 72
    14
 73
    10
 74
     0
 42
0.000000001
 43
0.00000001
 40
0.0
 40
0.0
 40
0.0
 40
0.0
 40
0.2499999999999998
 40
0.2499999999999998
 40
0.4999999999999996
 40
0.4999999999999996
 40
0.7499999999999998
 40
0.7499999999999998
 40
1.0
 40
1.0
 40
1.0
 40
1.0
 10
8.0
 20
3.474028909640047
 30
0.0
 10
8.0
 20
3.310836357379263
 30
0.0
 10
8.0
 20
3.126028559855101
 30
0.0
 10
8.0
 20
2.722462364757753
 30
0.0
 10
7.999999999999998
 20
2.502988557368968
 30
0.0
 10
8.0
 20
2.073666487194843
 30
0.0
 10
8.0
 20
1.86462202768279
 30
0.0
 10
8.0
 20
1.541892905972251
 30
0.0
 10
8.0
 20
1.431484201720616
 30
0.0
 10
8.0
 20
1.401264886443293
 30
0.0
  0
SPLINE
  5
F2
330
1F
100
AcDbEntity
  8
0
  6
Continuous
 62
     1
370
    15
100
AcDbSpline
210
0.0
220
0.0
230
1.0
 70
     8
 71
     3
 72
    14
 73
    10
 74
     0
 42
0.000000001
 43
0.00000001
 40
0.0
 40
0.0
 40
0.0
 40
0.0
 40
0.25
 40
0.25
 40
0.5
 40
0.5
 40
0.75
 40
0.75
 40
1.0
 40
1.0
 40
1.0
 40
1.0
 10
49.27500000000001
 20
-1.857887864618595
 30
0.0
 10
49.27500000000001
 20
-1.914308012308109
 30
0.0
 10
49.26809782736804
 20
-1.969511781119334
 30
0.0
 10
49.22671700864458
 20
-2.055581908229729
 30
0.0
 10
49.19140846430544
 20
-2.081609091221893
 30
0.0
 10
49.10900140692731
 20
-2.09068805127658
 30
0.0
 10
49.06462319179216
 20
-2.076884466668198
 30
0.0
 10
48.9782653767386
 20
-2.032860502845224
 30
0.0
 10
48.93531041834204
 20
-2.001954553843264
 30
0.0
 10
48.894
 20
-1.966152714101018
 30
0.0
  0
SPLINE
  5
F3
330
1F
100
AcDbEntity
  8
0
  6
Continuous
 62
     1
370
    15
100
AcDbSpline
210
0.0
220
0.0
230
1.0
 70
     8
 71
     3
 72
     8
 73
     4
 74
     0
 42
0.000000001
 43
0.00000001
 40
0.0
 40
0.0
 40
0.0
 40
0.0
 40
1.0
 40
1.0
 40
1.0
 40
1.0
 10
49.27499999999999
 20
-1.086052377163078
 30
0.0
 10
48.87766445351132
 20
-0.8159754004361619
 30
0.0
 10
48.47759286701069
 20
-0.540776909374401
 30
0.0
 10
48.07527689802651
 20
-0.2613772235157077
 30
0.0
  0
LINE
  5
F4
330
1F
100
AcDbEntity
  8
0
  6
Continuous
 62
     1
370
    15
100
AcDbLine
 10
49.27499999999999
 20
-1.857887864618598
 30
0.0
 11
49.27499999999999
 21
-1.086052377163078
 31
0.0
  0
LINE
  5
F5
330
1F
100
AcDbEntity
  8
0
  6
Continuous
 62
     1
370
    15
100
AcDbLine
 10
8.000000000000002
 20
-3.398813110829334
 30
0.0
 11
8.000000000000002
 21
-2.515043995786302
 31
0.0
  0
ELLIPSE
  5
F7
330
1F
100
AcDbEntity
  8
0
  6
Continuous
 62
     1
370
    15
100
AcDbEllipse
 10
50.7031480067421
 20
0.000000000000007
 30
0.0
 11
5.667962401757747
 21
0.0
 31
0.0
210
0.0
220
0.0
230
1.0
 40
0.7002075382097122
 41
1.895669322537324
 42
1.900665343856186
  0
LINE
  5
F8
330
1F
100
AcDbEntity
  8
0
  6
Continuous
 62
     1
370
    15
100
AcDbLine
 10
49.27499999999999
 20
0.85675941029566
 30
0.0
 11
49.27499999999999
 21
1.729091443443295
 31
0.0
  0
SPLINE
  5
F9
330
1F
100
AcDbEntity
  8
0
  6
Continuous
 62
     1
370
    15
100
AcDbSpline
210
0.0
220
0.0
230
1.0
 70
     8
 71
     3
 72
    12
 73
     8
 74
     0
 42
0.000000001
 43
0.00000001
 40
0.0
 40
0.0
 40
0.0
 40
0.0
 40
0.2499999999999999
 40
0.2499999999999999
 40
0.4999999999999998
 40
0.4999999999999998
 40
1.0
 40
1.0
 40
1.0
 40
1.0
 10
49.27499999999999
 20
-2.588810217864538
 30
0.0
 10
49.27499999999999
 20
-2.615735941598152
 30
0.0
 10
49.26397666841252
 20
-2.649293657738538
 30
0.0
 10
49.22058760875416
 20
-2.722139518733804
 30
0.0
 10
49.18832517742197
 20
-2.761342790300594
 30
0.0
 10
49.07440382611065
 20
-2.8727277039449
 30
0.0
 10
48.98119765513726
 20
-2.935043385076916
 30
0.0
 10
48.89399999999972
 20
-2.97763772595032
 30
0.0
  0
LINE
  5
FA
330
1F
100
AcDbEntity
  8
0
  6
Continuous
 62
     1
370
    15
100
AcDbLine
 10
49.27499999999999
 20
-2.588810217864538
 30
0.0
 11
49.27499999999999
 21
-1.857887864618598
 31
0.0
  0
LINE
  5
FB
330
1F
100
AcDbEntity
  8
0
  6
Continuous
 62
     1
370
    15
100
AcDbLine
 10
49.27499999999999
 20
-0.8660254037844315
 30
0.0
 11
49.27499999999999
 21
-1.086052377163078
 31
0.0
  0
SPLINE
  5
FC
330
1F
100
AcDbEntity
  8
0
  6
Continuous
 62
     1
370
    15
100
AcDbSpline
210
0.0
220
0.0
230
1.0
 70
     8
 71
     3
 72
    12
 73
     8
 74
     0
 42
0.000000001
 43
0.00000001
 40
0.0
 40
0.0
 40
0.0
 40
0.0
 40
0.25
 40
0.25
 40
0.5
 40
0.5
 40
1.0
 40
1.0
 40
1.0
 40
1.0
 10
49.27499999999999
 20
3.445569628160205
 30
0.0
 10
49.27500000000001
 20
3.499421075627432
 30
0.0
 10
49.26397666841254
 20
3.553167466122597
 30
0.0
 10
49.22058760875416
 20
3.646237152115368
 30
0.0
 10
49.18832517742197
 20
3.685515978808291
 30
0.0
 10
49.07440382611066
 20
3.770122557185302
 30
0.0
 10
48.98119765513724
 20
3.78171393833902
 30
0.0
 10
48.89399999999972
 20
3.761149737131066
 30
0.0
  0
LINE
  5
FD
330
1F
100
AcDbEntity
  8
0
  6
Continuous
 62
     1
370
    15
100
AcDbLine
 10
49.27499999999999
 20
2.067970960486982
 30
0.0
 11
49.27499999999999
 21
3.445569628160204
 31
0.0
  0
LINE
  5
FE
330
1F
100
AcDbEntity
  8
0
  6
Continuous
 62
     1
370
    15
100
AcDbLine
 10
49.27499999999999
 20
-2.588810217864538
 30
0.0
 11
49.27499999999999
 21
-3.154023337650048
 31
0.0
  0
LINE
  5
FF
330
1F
100
AcDbEntity
  8
0
  6
Continuous
 62
     1
370
    15
100
AcDbLine
 10
49.27499999999999
 20
3.445569628160204
 30
0.0
 11
49.27499999999999
 21
3.586979308061895
 31
0.0
  0
LINE
  5
101
330
1F
100
AcDbEntity
  8
중심선
100
AcDbLine
 10
-55.325
 20
0.0000000000000016
 30
0.0
 11
52.275
 21
0.0000000000000016
 31
0.0
  0
CIRCLE
  5
102
330
1F
100
AcDbEntity
  8
외형선
100
AcDbCircle
 10
0.0
 20
0.0
 30
0.0
 40
3.000000000000001
  0
INSERT
  5
103
330
1F
100
AcDbEntity
  8
0
  6
Continuous
 62
     7
100
AcDbBlockReference
 66
     1
  2
블럭10
 10
-18.62936049909349
 20
-51.78679627639981
 30
0.0
  0
ATTRIB
  5
104
330
103
100
AcDbEntity
  8
FORMAT
 62
     2
100
AcDbText
 10
-29.68038085127795
 20
-49.71142936356762
 30
0.0
 40
4.233333333333333
  1
GMG22907[ 6 FLUTE ]
 41
0.75
  7
SLDTEXTSTYLE0
 11
-29.68038085127795
 21
-51.82809603023428
 31
0.0
100
AcDbAttribute
  2
AUTOATTR0
 70
     0
 74
     1
  0
SEQEND
  5
105
330
103
100
AcDbEntity
  8
0
  6
Continuous
 62
     7
  0
HATCH
  5
106
330
1F
100
AcDbEntity
  8
중심선
100
AcDbHatch
 10
0.0
 20
0.0
 30
0.0
210
0.0
220
0.0
230
1.0
  2
SOLID
 70
     1
 71
     0
 91
        1
 92
        0
 93
        4
 72
     1
 10
-12.91445119471263
 20
-35.53962197475587
 11
-16.36072643854992
 21
-35.53962197475587
 72
     1
 10
-16.36072643854992
 20
-35.53962197475587
 11
-18.48895629775394
 21
-38.07594755532847
 72
     1
 10
-18.48895629775394
 20
-38.07594755532847
 11
-15.04264796880351
 21
-38.07590812602598
 72
     1
 10
-15.04264796880351
 20
-38.07590812602598
 11
-12.91445119471263
 21
-35.53962197475587
 97
        0
 75
     0
 76
     1
 98
        1
 10
-1.999514079925524
 20
0.2622744311706946
  0
HATCH
  5
107
330
1F
100
AcDbEntity
  8
중심선
100
AcDbHatch
 10
0.0
 20
0.0
 30
0.0
210
0.0
220
0.0
230
1.0
  2
SOLID
 70
     1
 71
     0
 91
        1
 92
        0
 93
        4
 72
     1
 10
-7.901687203676683
 20
-35.53962197475587
 11
-11.34796244751396
 21
-35.53962197475587
 72
     1
 10
-11.34796244751396
 20
-35.53962197475587
 11
-15.87910045587135
 21
-40.93962197475589
 72
     1
 10
-15.87910045587135
 20
-40.93962197475589
 11
-12.43282521203407
 21
-40.93962197475589
 72
     1
 10
-12.43282521203407
 20
-40.93962197475589
 11
-7.901687203676683
 21
-35.53962197475587
 97
        0
 75
     0
 76
     1
 98
        1
 10
-1.999514079925524
 20
0.2622744311706946
  0
HATCH
  5
108
330
1F
100
AcDbEntity
  8
중심선
100
AcDbHatch
 10
0.0
 20
0.0
 30
0.0
210
0.0
220
0.0
230
1.0
  2
SOLID
 70
     1
 71
     0
 91
        1
 92
        0
 93
        4
 72
     1
 10
-2.888923212640787
 20
-35.5396219747559
 11
-6.335198456477903
 21
-35.53962197475587
 72
     1
 10
-6.335198456477903
 20
-35.53962197475587
 11
-13.38363535836715
 21
-43.93962197475589
 72
     1
 10
-13.38363535836715
 20
-43.93962197475589
 11
-9.93736011452987
 21
-43.93962197475589
 72
     1
 10
-9.937360114529868
 20
-43.93962197475589
 11
-2.888923212640786
 21
-35.5396219747559
 97
        0
 75
     0
 76
     1
 98
        1
 10
-1.999514079925524
 20
0.2622744311706946
  0
HATCH
  5
109
330
1F
100
AcDbEntity
  8
중심선
100
AcDbHatch
 10
0.0
 20
0.0
 30
0.0
210
0.0
220
0.0
230
1.0
  2
SOLID
 70
     1
 71
     0
 91
        1
 92
        0
 93
        6
 72
     3
 10
1.910967218371413
 20
-39.73962197480715
 11
3.960054785062283
 21
1.540882976769353E-10
 40
0.3939339440162628
 50
17.0953918060844
 51
320.0019657685082
 73
     0
 72
     1
 10
3.593966874072008
 20
-38.32751597939418
 11
5.899268747773046
 21
-36.39318926934625
 72
     3
 10
1.910967218318566
 20
-39.73962197475602
 11
6.600054785286829
 21
-1.278976924368180E-13
 40
0.636358354079598
 50
39.99873849337411
 51
368.4976242363725
 73
     1
 72
     1
 10
8.336299710219174
 20
-38.7796219746859
 11
0.5910345251544884
 21
-38.77962197468587
 72
     1
 10
0.5910345251544882
 20
-38.77962197468587
 11
0.5910094807085542
 21
-40.69962197468579
 72
     1
 10
0.5910094807085542
 20
-40.69962197468579
 11
5.032389250180591
 21
-40.69962197468576
 97
        0
 75
     0
 76
     1
 98
        1
 10
-1.999514079925524
 20
0.2622744311706946
  0
POINT
  5
10A
330
1F
100
AcDbEntity
  8
치수문자_일반주서
100
AcDbPoint
 10
0.0
 20
0.0
 30
0.0
  0
DIMENSION
  5
10B
330
1F
100
AcDbEntity
  8
치수문자_일반주서
100
AcDbDimension
  2
_D
 10
64.74524571577292
 20
3.968750000000066
 30
0.0
 11
64.74524571577294
 21
-0.4965537846535139
 31
0.0
 70
   160
  1
%%c<>
 71
     2
 42
7.937444391980608
 52
-270.0
  3
SLDDIMSTYLE0
100
AcDbAlignedDimension
 13
48.894
 23
-3.968694391980601
 33
0.0
 14
48.894
 24
3.968750000000007
 34
0.0
 50
90.0000000000002
100
AcDbRotatedDimension
1001
ACAD
1000
DSTYLE
1002
{
1070
   171
1070
     4
1070
   273
1070
     7
1002
}
  0
DIMENSION
  5
120
330
1F
100
AcDbEntity
  8
치수문자_일반주서
100
AcDbDimension
  2
_D_1
 10
49.27499999999999
 20
36.62430141807179
 30
0.0
 11
-1.525000000000006
 21
36.62430141807179
 31
0.0
 70
   160
  1
<>
 71
     2
 42
101.6
  3
SLDDIMSTYLE1
100
AcDbAlignedDimension
 13
-52.325
 23
3.46875
 33
0.0
 14
49.27499999999999
 24
3.587750000000007
 34
0.0
100
AcDbRotatedDimension
1001
ACAD
1000
DSTYLE
1002
{
1070
   171
1070
     4
1070
   273
1070
     7
1002
}
  0
DIMENSION
  5
134
330
1F
100
AcDbEntity
  8
치수문자_일반주서
100
AcDbDimension
  2
_D_2
 10
7.999999999999854
 20
21.21474453033793
 30
0.0
 11
28.18347683933991
 21
21.21474453033793
 31
0.0
 70
   160
  1
<>
 71
     2
 42
41.27500000000013
  3
SLDDIMSTYLE2
100
AcDbAlignedDimension
 13
49.27499999999999
 23
3.587750000000007
 33
0.0
 14
7.999999999999856
 24
-3.916308882229612
 34
0.0
100
AcDbRotatedDimension
1001
ACAD
1000
DSTYLE
1002
{
1070
   171
1070
     4
1070
   273
1070
     7
1002
}
  0
DIMENSION
  5
148
330
1F
100
AcDbEntity
  8
치수문자_일반주서
100
AcDbDimension
  2
_D_3
 10
-65.32499999999999
 20
-3.968750000000047
 30
0.0
 11
-65.325
 21
0.0000000000000019
 31
0.0
 70
   160
  1
%%c<>
 71
     2
 42
7.9375
 52
-270.0
  3
SLDDIMSTYLE0
100
AcDbAlignedDimension
 13
-51.825
 23
3.968750000000004
 33
0.0
 14
-51.825
 24
-3.968749999999996
 34
0.0
 50
90.0000000000002
100
AcDbRotatedDimension
1001
ACAD
1000
DSTYLE
1002
{
1070
   171
1070
     4
1070
   273
1070
     7
1002
}
  0
INSERT
  5
162
330
1F
100
AcDbEntity
  8
외형선
100
AcDbBlockReference
  2
SW_DOWELSYMBOL_0
 10
0.0
 20
0.0
 30
0.0
  0
ARC
  5
189
102
{ACAD_REACTORS
102
}
330
1F
100
AcDbEntity
  8
0
  6
Continuous
 62
     1
370
    15
100
AcDbCircle
 10
48.89399999999999
 20
3.587750000000007
 30
0.0
 40
0.3809999999999999
100
AcDbArc
 50
0.0
 51
90.0
  0
ARC
  5
18A
330
1F
100
AcDbEntity
  8
0
  6
Continuous
 62
     1
370
    15
100
AcDbCircle
 10
48.89399999999999
 20
-3.597015993488779
 30
0.0
 40
0.3809999999999999
100
AcDbArc
 50
282.6620862026045
 51
0.0
  0
DIMENSION
  5
18C
102
{ACAD_REACTORS
102
}
102
{ACAD_XDICTIONARY
360
18D
102
}
330
1F
100
AcDbEntity
  8
치수문자_일반주서
100
AcDbDimension
  2
*D7
 10
48.89399999999999
 20
3.587750000000007
 30
0.0
 11
63.10615667916171
 21
22.38982334338829
 31
0.0
 70
   164
  1
<>
 71
     5
 42
0.3810000000000005
  3
SLDDIMSTYLE2
100
AcDbRadialDimension
 15
49.12374264537181
 25
3.891689659961582
 35
0.0
 40
0.0
1001
ACAD
1000
DSTYLE
1002
{
1070
   171
1070
     3
1070
   273
1070
     2
1002
}
1001
ACAD_DSTYLE_DIMRADIAL_EXTENSION
1070
   387
1070
     1
1070
   388
1040
0.0
1070
   390
1040
1.570796326794897
  0
ENDSEC
  0
SECTION
  2
OBJECTS
  0
DICTIONARY
  5
C
330
0
100
AcDbDictionary
281
     1
  3
ACAD_GROUP
350
D
  3
ACAD_IMAGE_VARS
350
186
  3
ACAD_LAYOUT
350
1A
  3
ACAD_MLINESTYLE
350
17
  3
ACAD_PLOTSETTINGS
350
19
  3
ACAD_PLOTSTYLENAME
350
E
  3
ACAD_SCALELIST
350
47
  3
APPDATA
350
184
  3
DWGPROPS
350
199
  0
DICTIONARY
  5
18D
330
18C
100
AcDbDictionary
280
     1
281
     1
  0
DICTIONARY
  5
D
102
{ACAD_REACTORS
330
C
102
}
330
C
100
AcDbDictionary
281
     1
  0
RASTERVARIABLES
  5
186
102
{ACAD_REACTORS
330
C
102
}
330
C
100
AcDbRasterVariables
 90
        0
 70
     1
 71
     1
 72
     1
  0
DICTIONARY
  5
1A
102
{ACAD_REACTORS
330
C
102
}
330
C
100
AcDbDictionary
281
     1
  3
Layout1
350
1E
  3
Layout2
350
26
  3
Model
350
22
  0
DICTIONARY
  5
17
102
{ACAD_REACTORS
330
C
102
}
330
C
100
AcDbDictionary
281
     1
  3
Standard
350
18
  0
DICTIONARY
  5
19
102
{ACAD_REACTORS
330
C
102
}
330
C
100
AcDbDictionary
281
     1
  0
ACDBDICTIONARYWDFLT
  5
E
102
{ACAD_REACTORS
330
C
102
}
330
C
100
AcDbDictionary
281
     1
  3
Normal
350
F
100
AcDbDictionaryWithDefault
340
F
  0
DICTIONARY
  5
47
102
{ACAD_REACTORS
330
C
102
}
330
C
100
AcDbDictionary
281
     1
  3
A0
350
48
  3
A1
350
49
  3
A2
350
4A
  3
A3
350
4B
  3
A4
350
4C
  3
A5
350
4D
  3
A6
350
4E
  3
A7
350
4F
  3
A8
350
50
  3
A9
350
51
  3
B0
350
52
  3
B1
350
53
  3
B2
350
54
  3
B3
350
55
  3
B4
350
56
  3
B5
350
57
  3
B6
350
58
  3
B7
350
59
  3
B8
350
5A
  3
B9
350
5B
  3
C0
350
5C
  3
C1
350
5D
  3
C2
350
5E
  3
C3
350
5F
  3
C4
350
60
  3
C5
350
61
  3
C6
350
62
  3
C7
350
63
  3
C8
350
64
  3
C9
350
65
  3
D0
350
66
  3
D1
350
67
  3
D2
350
68
  0
DICTIONARY
  5
184
102
{ACAD_REACTORS
330
C
102
}
330
C
100
AcDbDictionary
281
     1
  0
XRECORD
  5
199
102
{ACAD_REACTORS
330
C
102
}
330
C
100
AcDbXrecord
280
     1
  1
DWGPROPS COOKIE
  2

  3

  4

  6

  7

  8
12016016
  9

300
=
301
=
302
=
303
=
304
=
305
=
306
=
307
=
308
=
309
=
 40
0.0
 41
2458236.366424305
 42
2458241.198177222
  1

 90
        0
  0
LAYOUT
  5
1E
102
{ACAD_REACTORS
330
1A
102
}
330
1A
100
AcDbPlotSettings
  1

  2
none_device
  4

  6

 40
0.0
 41
0.0
 42
0.0
 43
0.0
 44
0.0
 45
0.0
 46
0.0
 47
0.0
 48
0.0
 49
0.0
140
0.0
141
0.0
142
1.0
143
1.0
 70
   688
 72
     1
 73
     0
 74
     5
  7

 75
    16
147
1.0
148
0.0
149
0.0
100
AcDbLayout
  1
Layout1
 70
     1
 71
     1
 10
0.0
 20
0.0
 11
420.0
 21
297.0
 12
0.0
 22
0.0
 32
0.0
 14
1.000000000000000E+20
 24
1.000000000000000E+20
 34
1.000000000000000E+20
 15
-1.000000000000000E+20
 25
-1.000000000000000E+20
 35
-1.000000000000000E+20
146
0.0
 13
0.0
 23
0.0
 33
0.0
 16
1.0
 26
0.0
 36
0.0
 17
0.0
 27
1.0
 37
0.0
 76
     0
330
1B
  0
LAYOUT
  5
26
102
{ACAD_REACTORS
330
1A
102
}
330
1A
100
AcDbPlotSettings
  1

  2
none_device
  4

  6

 40
0.0
 41
0.0
 42
0.0
 43
0.0
 44
0.0
 45
0.0
 46
0.0
 47
0.0
 48
0.0
 49
0.0
140
0.0
141
0.0
142
1.0
143
1.0
 70
   688
 72
     1
 73
     0
 74
     5
  7

 75
    16
147
1.0
148
0.0
149
0.0
100
AcDbLayout
  1
Layout2
 70
     1
 71
     2
 10
0.0
 20
0.0
 11
0.0
 21
0.0
 12
0.0
 22
0.0
 32
0.0
 14
0.0
 24
0.0
 34
0.0
 15
0.0
 25
0.0
 35
0.0
146
0.0
 13
0.0
 23
0.0
 33
0.0
 16
1.0
 26
0.0
 36
0.0
 17
0.0
 27
1.0
 37
0.0
 76
     0
330
23
  0
LAYOUT
  5
22
102
{ACAD_REACTORS
330
1A
102
}
330
1A
100
AcDbPlotSettings
  1

  2
none_device
  4
ANSI_A_(11.00_x_8.50_Inches)
  6

 40
6.35
 41
19.05
 42
6.35000508
 43
19.05000254
 44
279.4
 45
215.9
 46
139.5636563656738
 47
92.37335026218355
 48
0.0
 49
0.0
140
0.0
141
0.0
142
0.0767641331270813
143
1.0
 70
  1696
 72
     0
 73
     0
 74
     0
  7

 75
     0
147
0.0235690232323232
148
0.0
149
0.0
100
AcDbLayout
  1
Model
 70
     1
 71
     0
 10
0.0
 20
0.0
 11
420.0
 21
297.0
 12
0.0
 22
0.0
 32
0.0
 14
-69.70000000000006
 24
-49.71142936356762
 34
0.0
 15
71.54814364820501
 25
40.99930141807179
 35
0.0
146
0.0
 13
0.0
 23
0.0
 33
0.0
 16
1.0
 26
0.0
 36
0.0
 17
0.0
 27
1.0
 37
0.0
 76
     0
330
1F
331
29
  0
MLINESTYLE
  5
18
102
{ACAD_REACTORS
330
17
102
}
330
17
100
AcDbMlineStyle
  2
Standard
 70
     0
  3

 62
   256
 51
90.0
 52
90.0
 71
     2
 49
0.5
 62
   256
  6
BYLAYER
 49
-0.5
 62
   256
  6
BYLAYER
  0
ACDBPLACEHOLDER
  5
F
102
{ACAD_REACTORS
330
E
102
}
330
E
  0
SCALE
  5
48
102
{ACAD_REACTORS
330
47
102
}
330
47
100
AcDbScale
 70
     0
300
1:1
140
1.0
141
1.0
290
     1
  0
SCALE
  5
49
102
{ACAD_REACTORS
330
47
102
}
330
47
100
AcDbScale
 70
     0
300
1:2
140
1.0
141
2.0
290
     0
  0
SCALE
  5
4A
102
{ACAD_REACTORS
330
47
102
}
330
47
100
AcDbScale
 70
     0
300
1:4
140
1.0
141
4.0
290
     0
  0
SCALE
  5
4B
102
{ACAD_REACTORS
330
47
102
}
330
47
100
AcDbScale
 70
     0
300
1:5
140
1.0
141
5.0
290
     0
  0
SCALE
  5
4C
102
{ACAD_REACTORS
330
47
102
}
330
47
100
AcDbScale
 70
     0
300
1:8
140
1.0
141
8.0
290
     0
  0
SCALE
  5
4D
102
{ACAD_REACTORS
330
47
102
}
330
47
100
AcDbScale
 70
     0
300
1:10
140
1.0
141
10.0
290
     0
  0
SCALE
  5
4E
102
{ACAD_REACTORS
330
47
102
}
330
47
100
AcDbScale
 70
     0
300
1:16
140
1.0
141
16.0
290
     0
  0
SCALE
  5
4F
102
{ACAD_REACTORS
330
47
102
}
330
47
100
AcDbScale
 70
     0
300
1:20
140
1.0
141
20.0
290
     0
  0
SCALE
  5
50
102
{ACAD_REACTORS
330
47
102
}
330
47
100
AcDbScale
 70
     0
300
1:30
140
1.0
141
30.0
290
     0
  0
SCALE
  5
51
102
{ACAD_REACTORS
330
47
102
}
330
47
100
AcDbScale
 70
     0
300
1:40
140
1.0
141
40.0
290
     0
  0
SCALE
  5
52
102
{ACAD_REACTORS
330
47
102
}
330
47
100
AcDbScale
 70
     0
300
1:50
140
1.0
141
50.0
290
     0
  0
SCALE
  5
53
102
{ACAD_REACTORS
330
47
102
}
330
47
100
AcDbScale
 70
     0
300
1:100
140
1.0
141
100.0
290
     0
  0
SCALE
  5
54
102
{ACAD_REACTORS
330
47
102
}
330
47
100
AcDbScale
 70
     0
300
2:1
140
2.0
141
1.0
290
     0
  0
SCALE
  5
55
102
{ACAD_REACTORS
330
47
102
}
330
47
100
AcDbScale
 70
     0
300
4:1
140
4.0
141
1.0
290
     0
  0
SCALE
  5
56
102
{ACAD_REACTORS
330
47
102
}
330
47
100
AcDbScale
 70
     0
300
8:1
140
8.0
141
1.0
290
     0
  0
SCALE
  5
57
102
{ACAD_REACTORS
330
47
102
}
330
47
100
AcDbScale
 70
     0
300
10:1
140
10.0
141
1.0
290
     0
  0
SCALE
  5
58
102
{ACAD_REACTORS
330
47
102
}
330
47
100
AcDbScale
 70
     0
300
100:1
140
100.0
141
1.0
290
     0
  0
SCALE
  5
59
102
{ACAD_REACTORS
330
47
102
}
330
47
100
AcDbScale
 70
     0
300
1/128" = 1'-0"
140
0.0078125
141
12.0
290
     0
  0
SCALE
  5
5A
102
{ACAD_REACTORS
330
47
102
}
330
47
100
AcDbScale
 70
     0
300
1/64" = 1'-0"
140
0.015625
141
12.0
290
     0
  0
SCALE
  5
5B
102
{ACAD_REACTORS
330
47
102
}
330
47
100
AcDbScale
 70
     0
300
1/32" = 1'-0"
140
0.03125
141
12.0
290
     0
  0
SCALE
  5
5C
102
{ACAD_REACTORS
330
47
102
}
330
47
100
AcDbScale
 70
     0
300
1/16" = 1'-0"
140
0.0625
141
12.0
290
     0
  0
SCALE
  5
5D
102
{ACAD_REACTORS
330
47
102
}
330
47
100
AcDbScale
 70
     0
300
3/32" = 1'-0"
140
0.09375
141
12.0
290
     0
  0
SCALE
  5
5E
102
{ACAD_REACTORS
330
47
102
}
330
47
100
AcDbScale
 70
     0
300
1/8" = 1'-0"
140
0.125
141
12.0
290
     0
  0
SCALE
  5
5F
102
{ACAD_REACTORS
330
47
102
}
330
47
100
AcDbScale
 70
     0
300
3/16" = 1'-0"
140
0.1875
141
12.0
290
     0
  0
SCALE
  5
60
102
{ACAD_REACTORS
330
47
102
}
330
47
100
AcDbScale
 70
     0
300
1/4" = 1'-0"
140
0.25
141
12.0
290
     0
  0
SCALE
  5
61
102
{ACAD_REACTORS
330
47
102
}
330
47
100
AcDbScale
 70
     0
300
3/8" = 1'-0"
140
0.375
141
12.0
290
     0
  0
SCALE
  5
62
102
{ACAD_REACTORS
330
47
102
}
330
47
100
AcDbScale
 70
     0
300
1/2" = 1'-0"
140
0.5
141
12.0
290
     0
  0
SCALE
  5
63
102
{ACAD_REACTORS
330
47
102
}
330
47
100
AcDbScale
 70
     0
300
3/4" = 1'-0"
140
0.75
141
12.0
290
     0
  0
SCALE
  5
64
102
{ACAD_REACTORS
330
47
102
}
330
47
100
AcDbScale
 70
     0
300
1" = 1'-0"
140
1.0
141
12.0
290
     0
  0
SCALE
  5
65
102
{ACAD_REACTORS
330
47
102
}
330
47
100
AcDbScale
 70
     0
300
1-1/2" = 1'-0"
140
1.5
141
12.0
290
     0
  0
SCALE
  5
66
102
{ACAD_REACTORS
330
47
102
}
330
47
100
AcDbScale
 70
     0
300
3" = 1'-0"
140
3.0
141
12.0
290
     0
  0
SCALE
  5
67
102
{ACAD_REACTORS
330
47
102
}
330
47
100
AcDbScale
 70
     0
300
6" = 1'-0"
140
6.0
141
12.0
290
     0
  0
SCALE
  5
68
102
{ACAD_REACTORS
330
47
102
}
330
47
100
AcDbScale
 70
     0
300
1'-0" = 1'-0"
140
12.0
141
12.0
290
     0
  0
ENDSEC
  0
EOF
