  0
SECTION
  2
HEADER
  9
$ACADVER
  1
AC1015
  9
$ACADMAINTVER
 70
     6
  9
$DWGCODEPAGE
  3
ANSI_949
  9
$INSBASE
 10
0.0
 20
0.0
 30
0.0
  9
$EXTMIN
 10
-51.82500000000008
 20
-49.71142936356763
 30
0.0
  9
$EXTMAX
 10
64.3824509262537
 20
40.99930141807178
 30
0.0
  9
$LIMMIN
 10
0.0
 20
0.0
  9
$LIMMAX
 10
420.0
 20
297.0
  9
$ORTHOMODE
 70
     0
  9
$REGENMODE
 70
     1
  9
$FILLMODE
 70
     1
  9
$QTEXTMODE
 70
     0
  9
$MIRRTEXT
 70
     1
  9
$LTSCALE
 40
1.0
  9
$ATTMODE
 70
     1
  9
$TEXTSIZE
 40
3.5
  9
$TRACEWID
 40
1.0
  9
$TEXTSTYLE
  7
Standard
  9
$CLAYER
  8
0
  9
$CELTYPE
  6
ByLayer
  9
$CECOLOR
 62
   256
  9
$CELTSCALE
 40
1.0
  9
$DISPSILH
 70
     0
  9
$DIMSCALE
 40
1.0
  9
$DIMASZ
 40
3.302
  9
$DIMEXO
 40
1.0
  9
$DIMDLI
 40
3.75
  9
$DIMRND
 40
0.0
  9
$DIMDLE
 40
0.0
  9
$DIMEXE
 40
1.0
  9
$DIMTP
 40
0.0
  9
$DIMTM
 40
0.0
  9
$DIMTXT
 40
3.5
  9
$DIMCEN
 40
2.5
  9
$DIMTSZ
 40
0.0
  9
$DIMTOL
 70
     0
  9
$DIMLIM
 70
     0
  9
$DIMTIH
 70
     1
  9
$DIMTOH
 70
     1
  9
$DIMSE1
 70
     0
  9
$DIMSE2
 70
     0
  9
$DIMTAD
 70
     1
  9
$DIMZIN
 70
     0
  9
$DIMBLK
  1

  9
$DIMASO
 70
     1
  9
$DIMSHO
 70
     1
  9
$DIMPOST
  1

  9
$DIMAPOST
  1

  9
$DIMALT
 70
     0
  9
$DIMALTD
 70
     3
  9
$DIMALTF
 40
0.0393700787401575
  9
$DIMLFAC
 40
1.0
  9
$DIMTOFL
 70
     1
  9
$DIMTVP
 40
0.0
  9
$DIMTIX
 70
     0
  9
$DIMSOXD
 70
     0
  9
$DIMSAH
 70
     0
  9
$DIMBLK1
  1

  9
$DIMBLK2
  1

  9
$DIMSTYLE
  2
ISO-25
  9
$DIMCLRD
 70
     0
  9
$DIMCLRE
 70
     0
  9
$DIMCLRT
 70
     0
  9
$DIMTFAC
 40
1.0
  9
$DIMGAP
 40
1.524
  9
$DIMJUST
 70
     0
  9
$DIMSD1
 70
     0
  9
$DIMSD2
 70
     0
  9
$DIMTOLJ
 70
     0
  9
$DIMTZIN
 70
     0
  9
$DIMALTZ
 70
     0
  9
$DIMALTTZ
 70
     0
  9
$DIMUPT
 70
     0
  9
$DIMDEC
 70
     2
  9
$DIMTDEC
 70
     2
  9
$DIMALTU
 70
     2
  9
$DIMALTTD
 70
     3
  9
$DIMTXSTY
  7
Standard
  9
$DIMAUNIT
 70
     0
  9
$DIMADEC
 70
     2
  9
$DIMALTRND
 40
0.0
  9
$DIMAZIN
 70
     0
  9
$DIMDSEP
 70
    44
  9
$DIMATFIT
 70
     3
  9
$DIMFRAC
 70
     0
  9
$DIMLDRBLK
  1

  9
$DIMLUNIT
 70
     2
  9
$DIMLWD
 70
    -2
  9
$DIMLWE
 70
    -2
  9
$DIMTMOVE
 70
     0
  9
$LUNITS
 70
     2
  9
$LUPREC
 70
     2
  9
$SKETCHINC
 40
1.0
  9
$FILLETRAD
 40
10.0
  9
$AUNITS
 70
     0
  9
$AUPREC
 70
     2
  9
$MENU
  1
.
  9
$ELEVATION
 40
0.0
  9
$PELEVATION
 40
0.0
  9
$THICKNESS
 40
0.0
  9
$LIMCHECK
 70
     0
  9
$CHAMFERA
 40
0.0
  9
$CHAMFERB
 40
0.0
  9
$CHAMFERC
 40
0.0
  9
$CHAMFERD
 40
0.0
  9
$SKPOLY
 70
     0
  9
$TDCREATE
 40
2458236.739795185
  9
$TDUCREATE
 40
2458236.364795185
  9
$TDUPDATE
 40
2458241.575306504
  9
$TDUUPDATE
 40
2458241.200306504
  9
$TDINDWG
 40
0.0021031481
  9
$TDUSRTIMER
 40
2458241.198203576
  9
$USRTIMER
 70
     1
  9
$ANGBASE
 50
0.0
  9
$ANGDIR
 70
     0
  9
$PDMODE
 70
     0
  9
$PDSIZE
 40
-1.0
  9
$PLINEWID
 40
0.0
  9
$SPLFRAME
 70
     0
  9
$SPLINETYPE
 70
     6
  9
$SPLINESEGS
 70
     8
  9
$HANDSEED
  5
185
  9
$SURFTAB1
 70
     6
  9
$SURFTAB2
 70
     6
  9
$SURFTYPE
 70
     6
  9
$SURFU
 70
     6
  9
$SURFV
 70
     6
  9
$UCSBASE
  2

  9
$UCSNAME
  2

  9
$UCSORG
 10
0.0
 20
0.0
 30
0.0
  9
$UCSXDIR
 10
1.0
 20
0.0
 30
0.0
  9
$UCSYDIR
 10
0.0
 20
1.0
 30
0.0
  9
$UCSORTHOREF
  2

  9
$UCSORTHOVIEW
 70
     0
  9
$UCSORGTOP
 10
0.0
 20
0.0
 30
0.0
  9
$UCSORGBOTTOM
 10
0.0
 20
0.0
 30
0.0
  9
$UCSORGLEFT
 10
0.0
 20
0.0
 30
0.0
  9
$UCSORGRIGHT
 10
0.0
 20
0.0
 30
0.0
  9
$UCSORGFRONT
 10
0.0
 20
0.0
 30
0.0
  9
$UCSORGBACK
 10
0.0
 20
0.0
 30
0.0
  9
$PUCSBASE
  2

  9
$PUCSNAME
  2

  9
$PUCSORG
 10
0.0
 20
0.0
 30
0.0
  9
$PUCSXDIR
 10
1.0
 20
0.0
 30
0.0
  9
$PUCSYDIR
 10
0.0
 20
1.0
 30
0.0
  9
$PUCSORTHOREF
  2

  9
$PUCSORTHOVIEW
 70
     0
  9
$PUCSORGTOP
 10
0.0
 20
0.0
 30
0.0
  9
$PUCSORGBOTTOM
 10
0.0
 20
0.0
 30
0.0
  9
$PUCSORGLEFT
 10
0.0
 20
0.0
 30
0.0
  9
$PUCSORGRIGHT
 10
0.0
 20
0.0
 30
0.0
  9
$PUCSORGFRONT
 10
0.0
 20
0.0
 30
0.0
  9
$PUCSORGBACK
 10
0.0
 20
0.0
 30
0.0
  9
$USERI1
 70
     0
  9
$USERI2
 70
     0
  9
$USERI3
 70
     0
  9
$USERI4
 70
     0
  9
$USERI5
 70
     0
  9
$USERR1
 40
0.0
  9
$USERR2
 40
0.0
  9
$USERR3
 40
0.0
  9
$USERR4
 40
0.0
  9
$USERR5
 40
0.0
  9
$WORLDVIEW
 70
     1
  9
$SHADEDGE
 70
     3
  9
$SHADEDIF
 70
    70
  9
$TILEMODE
 70
     1
  9
$MAXACTVP
 70
    64
  9
$PINSBASE
 10
0.0
 20
0.0
 30
0.0
  9
$PLIMCHECK
 70
     0
  9
$PEXTMIN
 10
1.000000000000000E+20
 20
1.000000000000000E+20
 30
1.000000000000000E+20
  9
$PEXTMAX
 10
-1.000000000000000E+20
 20
-1.000000000000000E+20
 30
-1.000000000000000E+20
  9
$PLIMMIN
 10
0.0
 20
0.0
  9
$PLIMMAX
 10
0.0
 20
0.0
  9
$UNITMODE
 70
     0
  9
$VISRETAIN
 70
     1
  9
$PLINEGEN
 70
     0
  9
$PSLTSCALE
 70
     1
  9
$TREEDEPTH
 70
  3020
  9
$CMLSTYLE
  2
Standard
  9
$CMLJUST
 70
     0
  9
$CMLSCALE
 40
20.0
  9
$PROXYGRAPHICS
 70
     1
  9
$MEASUREMENT
 70
     1
  9
$CELWEIGHT
370
    -1
  9
$ENDCAPS
280
     0
  9
$JOINSTYLE
280
     0
  9
$LWDISPLAY
290
     1
  9
$INSUNITS
 70
     4
  9
$HYPERLINKBASE
  1

  9
$STYLESHEET
  1

  9
$XEDIT
290
     1
  9
$CEPSNTYPE
380
     0
  9
$PSTYLEMODE
290
     1
  9
$FINGERPRINTGUID
  2
{0ED1D85C-7A0D-4ADE-BFD4-377C375B2B74}
  9
$VERSIONGUID
  2
{FAEB1C32-E019-11D5-929B-00C0DF256EC4}
  9
$EXTNAMES
290
     1
  9
$PSVPSCALE
 40
0.0
  9
$OLESTARTUP
290
     0
  0
ENDSEC
  0
SECTION
  2
CLASSES
  0
CLASS
  1
ACDBDICTIONARYWDFLT
  2
AcDbDictionaryWithDefault
  3
ObjectDBX Classes
 90
        0
280
     0
281
     0
  0
CLASS
  1
VISUALSTYLE
  2
AcDbVisualStyle
  3
ObjectDBX Classes
 90
     4095
280
     0
281
     0
  0
CLASS
  1
MATERIAL
  2
AcDbMaterial
  3
ObjectDBX Classes
 90
     1153
280
     0
281
     0
  0
CLASS
  1
SCALE
  2
AcDbScale
  3
ObjectDBX Classes
 90
     1153
280
     0
281
     0
  0
CLASS
  1
SUN
  2
AcDbSun
  3
SCENEOE
 90
     1153
280
     0
281
     0
  0
CLASS
  1
ACDBPLACEHOLDER
  2
AcDbPlaceHolder
  3
ObjectDBX Classes
 90
        0
280
     0
281
     0
  0
CLASS
  1
LAYOUT
  2
AcDbLayout
  3
ObjectDBX Classes
 90
        0
280
     0
281
     0
  0
CLASS
  1
TABLESTYLE
  2
AcDbTableStyle
  3
ObjectDBX Classes
 90
     4095
280
     0
281
     0
  0
CLASS
  1
MLEADERSTYLE
  2
AcDbMLeaderStyle
  3
ACDB_MLEADERSTYLE_CLASS
 90
     4095
280
     0
281
     0
  0
CLASS
  1
RASTERVARIABLES
  2
AcDbRasterVariables
  3
ISM
 90
        0
280
     0
281
     0
  0
CLASS
  1
DIMASSOC
  2
AcDbDimAssoc
  3
"AcDbDimAssoc|Product Desc:     AcDim ARX App For Dimension|Company:          Autodesk, Inc.|WEB Address:      www.autodesk.com"
 90
        0
280
     0
281
     0
  0
ENDSEC
  0
SECTION
  2
TABLES
  0
TABLE
  2
VPORT
  5
8
330
0
100
AcDbSymbolTable
 70
     1
  0
VPORT
  5
29
330
8
100
AcDbSymbolTableRecord
100
AcDbViewportTableRecord
  2
*Active
 70
     0
 10
0.0
 20
0.0
 11
1.0
 21
1.0
 12
51.75391042137757
 22
4.65172829968866
 13
0.0
 23
0.0
 14
10.0
 24
10.0
 15
10.0
 25
10.0
 16
0.0
 26
0.0
 36
1.0
 17
0.0
 27
0.0
 37
0.0
 40
126.5377309345445
 41
1.321695760598504
 42
50.0
 43
0.0
 44
0.0
 50
0.0
 51
0.0
 71
    16
 72
  2000
 73
     1
 74
     3
 75
     0
 76
     0
 77
     0
 78
     0
281
     0
 65
     1
110
0.0
120
0.0
130
0.0
111
1.0
121
0.0
131
0.0
112
0.0
122
1.0
132
0.0
 79
     0
146
0.0
  0
ENDTAB
  0
TABLE
  2
LTYPE
  5
5
330
0
100
AcDbSymbolTable
 70
     6
  0
LTYPE
  5
14
330
5
100
AcDbSymbolTableRecord
100
AcDbLinetypeTableRecord
  2
ByBlock
 70
     0
  3

 72
    65
 73
     0
 40
0.0
  0
LTYPE
  5
15
330
5
100
AcDbSymbolTableRecord
100
AcDbLinetypeTableRecord
  2
ByLayer
 70
     0
  3

 72
    65
 73
     0
 40
0.0
  0
LTYPE
  5
16
330
5
100
AcDbSymbolTableRecord
100
AcDbLinetypeTableRecord
  2
Continuous
 70
     0
  3
Solid line
 72
    65
 73
     0
 40
0.0
  0
LTYPE
  5
6A
330
5
100
AcDbSymbolTableRecord
100
AcDbLinetypeTableRecord
  2
HIDDEN
 70
     0
  3
Hidden __ __ __ __ __ __ __ __ __ __ __ __ __ __
 72
    65
 73
     2
 40
1.905
 49
1.27
 74
     0
 49
-0.635
 74
     0
  0
LTYPE
  5
6B
330
5
100
AcDbSymbolTableRecord
100
AcDbLinetypeTableRecord
  2
PHANTOM
 70
     0
  3
Phantom ______  __  __  ______  __  __  ______
 72
    65
 73
     6
 40
12.7
 49
6.35
 74
     0
 49
-1.27
 74
     0
 49
1.27
 74
     0
 49
-1.27
 74
     0
 49
1.27
 74
     0
 49
-1.27
 74
     0
  0
LTYPE
  5
6C
330
5
100
AcDbSymbolTableRecord
100
AcDbLinetypeTableRecord
  2
CENTER
 70
     0
  3
Center ____ _ ____ _ ____ _ ____ _ ____ _ ____
 72
    65
 73
     4
 40
10.16
 49
6.35
 74
     0
 49
-1.27
 74
     0
 49
1.27
 74
     0
 49
-1.27
 74
     0
  0
LTYPE
  5
6D
330
5
100
AcDbSymbolTableRecord
100
AcDbLinetypeTableRecord
  2
CENTERX2
 70
     0
  3
Center (2x) ________  __  ________  __  _____
 72
    65
 73
     4
 40
20.32
 49
12.7
 74
     0
 49
-2.54
 74
     0
 49
2.54
 74
     0
 49
-2.54
 74
     0
  0
LTYPE
  5
6E
330
5
100
AcDbSymbolTableRecord
100
AcDbLinetypeTableRecord
  2
DOT2
 70
     0
  3
Dot (.5x) ........................................
 72
    65
 73
     2
 40
0.635
 49
0.0
 74
     0
 49
-0.635
 74
     0
  0
ENDTAB
  0
TABLE
  2
LAYER
  5
2
330
0
100
AcDbSymbolTable
 70
    17
  0
LAYER
  5
10
330
2
100
AcDbSymbolTableRecord
100
AcDbLayerTableRecord
  2
0
 70
     0
 62
     7
  6
Continuous
370
    -3
390
F
  0
LAYER
  5
6F
330
2
100
AcDbSymbolTableRecord
100
AcDbLayerTableRecord
  2
FORMAT
 70
     0
 62
     2
  6
Continuous
370
    -3
390
F
  0
LAYER
  5
70
330
2
100
AcDbSymbolTableRecord
100
AcDbLayerTableRecord
  2
외형선
 70
     0
 62
   100
  6
Continuous
370
    30
390
F
  0
LAYER
  5
71
330
2
100
AcDbSymbolTableRecord
100
AcDbLayerTableRecord
  2
숨은선
 70
     0
 62
     2
  6
HIDDEN
370
    15
390
F
  0
LAYER
  5
72
330
2
100
AcDbSymbolTableRecord
100
AcDbLayerTableRecord
  2
중심선
 70
     0
 62
     1
  6
CENTERX2
370
    -3
390
F
  0
LAYER
  5
73
330
2
100
AcDbSymbolTableRecord
100
AcDbLayerTableRecord
  2
파단선
 70
     0
 62
     4
  6
Continuous
370
    -3
390
F
  0
LAYER
  5
74
330
2
100
AcDbSymbolTableRecord
100
AcDbLayerTableRecord
  2
해칭선
 70
     0
 62
     4
  6
Continuous
370
    -3
390
F
  0
LAYER
  5
75
330
2
100
AcDbSymbolTableRecord
100
AcDbLayerTableRecord
  2
가는실선
 70
     0
 62
     4
  6
Continuous
370
    -3
390
F
  0
LAYER
  5
76
330
2
100
AcDbSymbolTableRecord
100
AcDbLayerTableRecord
  2
치수_보조선
 70
     0
 62
     4
  6
Continuous
370
    -3
390
F
  0
LAYER
  5
77
330
2
100
AcDbSymbolTableRecord
100
AcDbLayerTableRecord
  2
치수문자_일반주서
 70
     0
 62
     7
  6
Continuous
370
    15
390
F
  0
LAYER
  5
78
330
2
100
AcDbSymbolTableRecord
100
AcDbLayerTableRecord
  2
개별주서
 70
     0
 62
   100
  6
Continuous
370
    30
390
F
  0
LAYER
  5
79
330
2
100
AcDbSymbolTableRecord
100
AcDbLayerTableRecord
  2
중간선
 70
     0
 62
     2
  6
Continuous
370
    15
390
F
  0
LAYER
  5
7A
330
2
100
AcDbSymbolTableRecord
100
AcDbLayerTableRecord
  2
윤곽선
 70
     0
 62
     3
  6
Continuous
370
    40
390
F
  0
LAYER
  5
7B
330
2
100
AcDbSymbolTableRecord
100
AcDbLayerTableRecord
  2
중심마크
 70
     0
 62
   100
  6
Continuous
370
    30
390
F
  0
LAYER
  5
7C
330
2
100
AcDbSymbolTableRecord
100
AcDbLayerTableRecord
  2
가상선
 70
     0
 62
     4
  6
PHANTOM
370
    -3
390
F
  0
LAYER
  5
7D
330
2
100
AcDbSymbolTableRecord
100
AcDbLayerTableRecord
  2
특수지정선
 70
     0
 62
     5
  6
CENTERX2
370
    60
390
F
  0
LAYER
  5
16E
330
2
100
AcDbSymbolTableRecord
100
AcDbLayerTableRecord
  2
Defpoints
 70
     0
 62
     7
  6
Continuous
290
     0
370
    -3
390
F
  0
ENDTAB
  0
TABLE
  2
STYLE
  5
3
330
0
100
AcDbSymbolTable
 70
     2
  0
STYLE
  5
11
330
3
100
AcDbSymbolTableRecord
100
AcDbTextStyleTableRecord
  2
Standard
 70
     0
 40
0.0
 41
1.0
 50
0.0
 71
     0
 42
3.5
  3
txt
  4

  0
STYLE
  5
93
330
3
100
AcDbSymbolTableRecord
100
AcDbTextStyleTableRecord
  2
SLDTEXTSTYLE0
 70
     0
 40
0.0
 41
0.75
 50
0.0
 71
     0
 42
3.5
  3
TXT
  4

  0
ENDTAB
  0
TABLE
  2
VIEW
  5
6
330
0
100
AcDbSymbolTable
 70
     0
  0
ENDTAB
  0
TABLE
  2
UCS
  5
7
330
0
100
AcDbSymbolTable
 70
     0
  0
ENDTAB
  0
TABLE
  2
APPID
  5
9
330
0
100
AcDbSymbolTable
 70
     2
  0
APPID
  5
12
330
9
100
AcDbSymbolTableRecord
100
AcDbRegAppTableRecord
  2
ACAD
 70
     0
  0
APPID
  5
176
330
9
100
AcDbSymbolTableRecord
100
AcDbRegAppTableRecord
  2
ACAD_DSTYLE_DIMRADIAL_EXTENSION
 70
     0
  0
ENDTAB
  0
TABLE
  2
DIMSTYLE
  5
A
330
0
100
AcDbSymbolTable
 70
     4
100
AcDbDimStyleTable
  0
DIMSTYLE
105
27
330
A
100
AcDbSymbolTableRecord
100
AcDbDimStyleTableRecord
  2
ISO-25
 70
     0
 41
2.5
 42
0.625
 43
3.75
 44
1.25
 73
     0
 74
     0
 77
     1
 78
     8
140
2.5
141
2.5
143
0.03937007874016
147
0.625
171
     3
172
     1
178
     0
271
     2
272
     2
274
     3
278
    44
283
     0
284
     8
340
11
  0
DIMSTYLE
105
F3
102
{ACAD_REACTORS
330
F2
330
12F
102
}
330
A
100
AcDbSymbolTableRecord
100
AcDbDimStyleTableRecord
  2
SLDDIMSTYLE0
 70
     0
 41
3.302
 44
0.0
 45
0.000000001
 73
     0
 74
     0
 77
     1
 78
    12
 79
     3
140
3.5
143
0.0393700787401575
147
0.875
148
0.000000001
170
     1
172
     1
173
     1
178
     0
271
     2
272
     2
276
     2
284
    12
289
     0
340
93
  0
DIMSTYLE
105
108
102
{ACAD_REACTORS
330
107
102
}
330
A
100
AcDbSymbolTableRecord
100
AcDbDimStyleTableRecord
  2
SLDDIMSTYLE1
 70
     0
 41
3.302
 44
0.0
 45
0.000000001
 73
     0
 74
     0
 77
     1
 78
     4
 79
     1
140
3.5
143
0.0393700787401575
147
0.875
148
0.000000001
170
     1
173
     1
178
     0
271
     2
272
     2
276
     2
284
    12
340
93
  0
DIMSTYLE
105
11C
102
{ACAD_REACTORS
330
11B
330
177
102
}
330
A
100
AcDbSymbolTableRecord
100
AcDbDimStyleTableRecord
  2
SLDDIMSTYLE2
 70
     0
 41
3.302
 44
0.0
 45
0.000000001
 73
     0
 74
     0
 77
     1
 78
    12
 79
     3
140
3.5
143
0.0393700787401575
147
0.875
148
0.000000001
170
     1
173
     1
178
     0
271
     2
272
     2
276
     2
284
    12
340
93
  0
ENDTAB
  0
TABLE
  2
BLOCK_RECORD
  5
1
330
0
100
AcDbSymbolTable
 70
     8
  0
BLOCK_RECORD
  5
1F
330
1
100
AcDbSymbolTableRecord
100
AcDbBlockTableRecord
  2
*Model_Space
340
22
  0
BLOCK_RECORD
  5
1B
330
1
100
AcDbSymbolTableRecord
100
AcDbBlockTableRecord
  2
*Paper_Space
340
1E
  0
BLOCK_RECORD
  5
23
330
1
100
AcDbSymbolTableRecord
100
AcDbBlockTableRecord
  2
*Paper_Space0
340
26
  0
BLOCK_RECORD
  5
7E
330
1
100
AcDbSymbolTableRecord
100
AcDbBlockTableRecord
  2
블럭10
340
0
102
{BLKREFS
331
EA
102
}
  0
BLOCK_RECORD
  5
F4
330
1
100
AcDbSymbolTableRecord
100
AcDbBlockTableRecord
  2
_D
340
0
  0
BLOCK_RECORD
  5
109
330
1
100
AcDbSymbolTableRecord
100
AcDbBlockTableRecord
  2
_D_1
340
0
  0
BLOCK_RECORD
  5
11D
330
1
100
AcDbSymbolTableRecord
100
AcDbBlockTableRecord
  2
_D_2
340
0
  0
BLOCK_RECORD
  5
130
330
1
100
AcDbSymbolTableRecord
100
AcDbBlockTableRecord
  2
_D_3
340
0
  0
BLOCK_RECORD
  5
143
330
1
100
AcDbSymbolTableRecord
100
AcDbBlockTableRecord
  2
SW_DOWELSYMBOL_0
340
0
102
{BLKREFS
331
149
102
}
  0
BLOCK_RECORD
  5
17A
330
1
100
AcDbSymbolTableRecord
100
AcDbBlockTableRecord
  2
*D7
340
0
  0
ENDTAB
  0
ENDSEC
  0
SECTION
  2
BLOCKS
  0
BLOCK
  5
20
330
1F
100
AcDbEntity
  8
0
100
AcDbBlockBegin
  2
*Model_Space
 70
     0
 10
0.0
 20
0.0
 30
0.0
  3
*Model_Space
  1
*Model_Space
  0
ENDBLK
  5
21
330
1F
100
AcDbEntity
  8
0
100
AcDbBlockEnd
  0
BLOCK
  5
1C
330
1B
100
AcDbEntity
 67
     1
  8
0
100
AcDbBlockBegin
  2
*Paper_Space
 70
     0
 10
0.0
 20
0.0
 30
0.0
  3
*Paper_Space
  1
*Paper_Space
  0
ENDBLK
  5
1D
330
1B
100
AcDbEntity
 67
     1
  8
0
100
AcDbBlockEnd
  0
BLOCK
  5
24
330
23
100
AcDbEntity
  8
0
100
AcDbBlockBegin
  2
*Paper_Space0
 70
     0
 10
0.0
 20
0.0
 30
0.0
  3
*Paper_Space0
  1
*Paper_Space0
  0
ENDBLK
  5
25
330
23
100
AcDbEntity
  8
0
100
AcDbBlockEnd
  0
BLOCK
  5
7F
330
7E
100
AcDbEntity
  8
0
100
AcDbBlockBegin
  2
블럭10
 70
     2
 10
0.0
 20
0.0
 30
0.0
  3
블럭10
  1
블럭10
  0
ELLIPSE
  5
81
330
7E
100
AcDbEntity
  8
중심선
100
AcDbEllipse
 10
20.54032771741204
 20
12.0471743016438
 30
0.0
 11
6.600054785286829
 21
-1.261213355974178E-13
 31
0.0
210
0.0
220
0.0
230
1.0
 40
0.636358354079598
 41
0.9219305317359503
 42
6.513795318482858
  0
ELLIPSE
  5
82
330
7E
100
AcDbEntity
  8
중심선
100
AcDbEllipse
 10
20.54032771746488
 20
12.04717430159265
 30
0.0
 11
3.960054785062283
 21
1.540847449632565E-10
 31
0.0
210
0.0
220
0.0
230
1.0
 40
0.3939339440162632
 41
1.131841032648279
 42
5.62031148352944
  0
LINE
  5
83
330
7E
100
AcDbEntity
  8
중심선
100
AcDbLine
 10
2.268634060543552
 20
16.24717430164393
 30
0.0
 11
5.714909304380834
 21
16.24717430164393
 31
0.0
  0
LINE
  5
84
330
7E
100
AcDbEntity
  8
중심선
100
AcDbLine
 10
5.245725140726316
 20
7.84717430164391
 30
0.0
 11
8.692000384563599
 21
7.84717430164391
 31
0.0
  0
LINE
  5
85
330
7E
100
AcDbEntity
  8
중심선
100
AcDbLine
 10
15.74043728645272
 20
16.24717430164393
 30
0.0
 11
8.692000384563599
 21
7.84717430164391
 31
0.0
  0
LINE
  5
86
330
7E
100
AcDbEntity
  8
중심선
100
AcDbLine
 10
0.1404042013395286
 20
13.71084872107135
 30
0.0
 11
3.58671253028996
 21
13.71088815037384
 31
0.0
  0
LINE
  5
87
330
7E
100
AcDbEntity
  8
중심선
100
AcDbLine
 10
2.750260043222114
 20
10.84717430164391
 30
0.0
 11
6.196535287059397
 21
10.84717430164391
 31
0.0
  0
LINE
  5
88
330
7E
100
AcDbEntity
  8
중심선
100
AcDbLine
 10
12.29416204261559
 20
16.24717430164393
 30
0.0
 11
5.245725140726316
 21
7.84717430164391
 31
0.0
  0
LINE
  5
89
330
7E
100
AcDbEntity
  8
중심선
100
AcDbLine
 10
10.72767329541681
 20
16.24717430164393
 30
0.0
 11
6.196535287059397
 21
10.84717430164391
 31
0.0
  0
LINE
  5
8A
330
7E
100
AcDbEntity
  8
중심선
100
AcDbLine
 10
7.28139805157953
 20
16.24717430164393
 30
0.0
 11
2.750260043222114
 21
10.84717430164391
 31
0.0
  0
LINE
  5
8B
330
7E
100
AcDbEntity
  8
중심선
100
AcDbLine
 10
5.714909304380834
 20
16.24717430164393
 30
0.0
 11
3.58671253028996
 21
13.71088815037384
 31
0.0
  0
LINE
  5
8C
330
7E
100
AcDbEntity
  8
중심선
100
AcDbLine
 10
2.268634060543552
 20
16.24717430164393
 30
0.0
 11
0.1404042013395286
 21
13.71084872107135
 31
0.0
  0
LINE
  5
8D
330
7E
100
AcDbEntity
  8
중심선
100
AcDbLine
 10
7.28139805157953
 20
16.24717430164393
 30
0.0
 11
10.72767329541681
 21
16.24717430164393
 31
0.0
  0
LINE
  5
8E
330
7E
100
AcDbEntity
  8
중심선
100
AcDbLine
 10
12.29416204261559
 20
16.24717430164393
 30
0.0
 11
15.74043728645272
 21
16.24717430164393
 31
0.0
  0
LINE
  5
8F
330
7E
100
AcDbEntity
  8
중심선
100
AcDbLine
 10
19.22036997980202
 20
11.08717430171403
 30
0.0
 11
23.66174974927406
 21
11.08717430171406
 31
0.0
  0
LINE
  5
90
330
7E
100
AcDbEntity
  8
중심선
100
AcDbLine
 10
19.22039502424796
 20
13.00717430171391
 30
0.0
 11
19.22036997980202
 21
11.08717430171403
 31
0.0
  0
LINE
  5
91
330
7E
100
AcDbEntity
  8
중심선
100
AcDbLine
 10
19.22039502424796
 20
13.00717430171391
 30
0.0
 11
26.96566020931264
 21
13.00717430171391
 31
0.0
  0
LINE
  5
92
330
7E
100
AcDbEntity
  8
중심선
100
AcDbLine
 10
22.22332737316547
 20
13.45928029700563
 30
0.0
 11
24.52862924686651
 21
15.39360700705356
 31
0.0
  0
ATTDEF
  5
94
330
7E
100
AcDbEntity
  8
FORMAT
 62
     2
100
AcDbText
 10
-11.05102035218446
 20
2.075366912832191
 30
0.0
 40
4.233333333333333
  1
GMG22906[ 6 FLUTE ]
 41
0.75
  7
SLDTEXTSTYLE0
 11
-11.05102035218446
 21
-0.0412997538344756
 31
0.0
100
AcDbAttributeDefinition
  3

  2
AUTOATTR0
 70
     0
 74
     1
  0
ENDBLK
  5
80
330
7E
100
AcDbEntity
  8
0
100
AcDbBlockEnd
  0
BLOCK
  5
F5
330
F4
100
AcDbEntity
  8
0
100
AcDbBlockBegin
  2
_D
 70
     0
 10
0.0
 20
0.0
 30
0.0
  3
_D
  1
_D
  0
LINE
  5
F7
330
F4
100
AcDbEntity
  8
치수문자_일반주서
 62
     0
370
    -2
100
AcDbLine
 10
40.66949999999999
 20
-3.968749999999994
 30
0.0
 11
58.86489584471407
 21
-3.968749999999927
 31
0.0
  0
LINE
  5
F8
330
F4
100
AcDbEntity
  8
치수문자_일반주서
 62
     0
370
    -2
100
AcDbLine
 10
40.28215012894107
 20
3.959912088063279
 30
0.0
 11
58.86489584471404
 21
3.959912088063349
 31
0.0
  0
LINE
  5
F9
330
F4
100
AcDbEntity
  8
치수문자_일반주서
 62
     0
370
    -2
100
AcDbLine
 10
58.86489584471406
 20
-0.6667499999999271
 30
0.0
 11
58.86489584471406
 21
0.6579120880633491
 31
0.0
  0
SOLID
  5
FA
330
F4
100
AcDbEntity
  8
치수문자_일반주서
 62
     0
100
AcDbTrace
 10
58.31456251138072
 20
-0.6667499999999291
 30
0.0
 11
59.41522917804739
 21
-0.6667499999999251
 31
0.0
 12
58.86489584471407
 22
-3.968749999999927
 32
0.0
 13
58.86489584471407
 23
-3.968749999999927
 33
0.0
  0
SOLID
  5
FB
330
F4
100
AcDbEntity
  8
치수문자_일반주서
 62
     0
100
AcDbTrace
 10
59.41522917804739
 20
0.6579120880633511
 30
0.0
 11
58.31456251138072
 21
0.6579120880633471
 31
0.0
 12
58.86489584471404
 22
3.959912088063349
 32
0.0
 13
58.86489584471404
 23
3.959912088063349
 33
0.0
  0
MTEXT
  5
FC
330
F4
100
AcDbEntity
  8
치수문자_일반주서
 62
     0
100
AcDbMText
 10
54.48989584471406
 20
0.2883583034097327
 30
0.0
 40
3.5
 41
0.0
 71
     2
 72
     1
  1
\A1;%%c7.93 [5/16]
  7
SLDTEXTSTYLE0
 11
-3.584679119216512E-15
 21
1.0
 31
0.0
 73
     1
 44
1.0
  0
POINT
  5
FD
330
F4
100
AcDbEntity
  8
Defpoints
 62
     0
100
AcDbPoint
 10
40.60699999999999
 20
-3.968749999999995
 30
0.0
  0
POINT
  5
FE
330
F4
100
AcDbEntity
  8
Defpoints
 62
     0
100
AcDbPoint
 10
40.21965012894107
 20
3.959912088063279
 30
0.0
  0
POINT
  5
FF
330
F4
100
AcDbEntity
  8
Defpoints
 62
     0
100
AcDbPoint
 10
58.86489584471404
 20
3.959912088063348
 30
0.0
  0
ENDBLK
  5
F6
330
F4
100
AcDbEntity
  8
0
100
AcDbBlockEnd
  0
BLOCK
  5
10A
330
109
100
AcDbEntity
  8
0
100
AcDbBlockBegin
  2
_D_1
 70
     0
 10
0.0
 20
0.0
 30
0.0
  3
_D_1
  1
_D_1
  0
LINE
  5
10C
330
109
100
AcDbEntity
  8
치수문자_일반주서
 62
     0
370
    -2
100
AcDbLine
 10
-34.45000000000002
 20
3.53125
 30
0.0
 11
-34.45000000000002
 21
36.62430141807178
 31
0.0
  0
LINE
  5
10D
330
109
100
AcDbEntity
  8
치수문자_일반주서
 62
     0
370
    -2
100
AcDbLine
 10
41.74999999999999
 20
2.507250000000004
 30
0.0
 11
41.74999999999999
 21
36.62430141807178
 31
0.0
  0
LINE
  5
10E
330
109
100
AcDbEntity
  8
치수문자_일반주서
 62
     0
370
    -2
100
AcDbLine
 10
-31.14800000000002
 20
36.62430141807178
 30
0.0
 11
38.44799999999999
 21
36.62430141807178
 31
0.0
  0
SOLID
  5
10F
330
109
100
AcDbEntity
  8
치수문자_일반주서
 62
     0
100
AcDbTrace
 10
-31.14800000000002
 20
37.17463475140512
 30
0.0
 11
-31.14800000000002
 21
36.07396808473845
 31
0.0
 12
-34.45000000000002
 22
36.62430141807178
 32
0.0
 13
-34.45000000000002
 23
36.62430141807178
 33
0.0
  0
SOLID
  5
110
330
109
100
AcDbEntity
  8
치수문자_일반주서
 62
     0
100
AcDbTrace
 10
38.44799999999999
 20
36.07396808473845
 30
0.0
 11
38.44799999999999
 21
37.17463475140512
 31
0.0
 12
41.74999999999999
 22
36.62430141807178
 32
0.0
 13
41.74999999999999
 23
36.62430141807178
 33
0.0
  0
MTEXT
  5
111
330
109
100
AcDbEntity
  8
치수문자_일반주서
 62
     0
100
AcDbMText
 10
3.649999999999992
 20
40.99930141807178
 30
0.0
 40
3.5
 41
0.0
 71
     2
 72
     1
  1
\A1;76.20 [3]
  7
SLDTEXTSTYLE0
 73
     1
 44
1.0
  0
POINT
  5
112
330
109
100
AcDbEntity
  8
Defpoints
 62
     0
100
AcDbPoint
 10
-34.45000000000002
 20
3.46875
 30
0.0
  0
POINT
  5
113
330
109
100
AcDbEntity
  8
Defpoints
 62
     0
100
AcDbPoint
 10
41.74999999999999
 20
2.444750000000004
 30
0.0
  0
POINT
  5
114
330
109
100
AcDbEntity
  8
Defpoints
 62
     0
100
AcDbPoint
 10
41.74999999999999
 20
36.62430141807178
 30
0.0
  0
ENDBLK
  5
10B
330
109
100
AcDbEntity
  8
0
100
AcDbBlockEnd
  0
BLOCK
  5
11E
330
11D
100
AcDbEntity
  8
0
100
AcDbBlockBegin
  2
_D_2
 70
     0
 10
0.0
 20
0.0
 30
0.0
  3
_D_2
  1
_D_2
  0
LINE
  5
120
330
11D
100
AcDbEntity
  8
치수문자_일반주서
 62
     0
370
    -2
100
AcDbLine
 10
41.74999999999999
 20
2.507250000000004
 30
0.0
 11
41.74999999999999
 21
20.07174453033794
 31
0.0
  0
LINE
  5
121
330
11D
100
AcDbEntity
  8
치수문자_일반주서
 62
     0
370
    -2
100
AcDbLine
 10
9.999999999999968
 20
-3.795414754240302
 30
0.0
 11
9.999999999999968
 21
20.07174453033794
 31
0.0
  0
LINE
  5
122
330
11D
100
AcDbEntity
  8
치수문자_일반주서
 62
     0
370
    -2
100
AcDbLine
 10
38.44799999999999
 20
20.07174453033794
 30
0.0
 11
13.30199999999997
 21
20.07174453033794
 31
0.0
  0
SOLID
  5
123
330
11D
100
AcDbEntity
  8
치수문자_일반주서
 62
     0
100
AcDbTrace
 10
38.44799999999999
 20
19.5214111970046
 30
0.0
 11
38.44799999999999
 21
20.62207786367127
 31
0.0
 12
41.74999999999999
 22
20.07174453033794
 32
0.0
 13
41.74999999999999
 23
20.07174453033794
 33
0.0
  0
SOLID
  5
124
330
11D
100
AcDbEntity
  8
치수문자_일반주서
 62
     0
100
AcDbTrace
 10
13.30199999999997
 20
20.62207786367127
 30
0.0
 11
13.30199999999997
 21
19.5214111970046
 31
0.0
 12
9.999999999999968
 22
20.07174453033794
 32
0.0
 13
9.999999999999968
 23
20.07174453033794
 33
0.0
  0
MTEXT
  5
125
330
11D
100
AcDbEntity
  8
치수문자_일반주서
 62
     0
100
AcDbMText
 10
25.52575141487685
 20
24.44674453033794
 30
0.0
 40
3.5
 41
0.0
 71
     2
 72
     1
  1
\A1;31.75 [1 1/4]
  7
SLDTEXTSTYLE0
 73
     1
 44
1.0
  0
POINT
  5
126
330
11D
100
AcDbEntity
  8
Defpoints
 62
     0
100
AcDbPoint
 10
41.74999999999999
 20
2.444750000000004
 30
0.0
  0
POINT
  5
127
330
11D
100
AcDbEntity
  8
Defpoints
 62
     0
100
AcDbPoint
 10
9.999999999999968
 20
-3.857914754240302
 30
0.0
  0
POINT
  5
128
330
11D
100
AcDbEntity
  8
Defpoints
 62
     0
100
AcDbPoint
 10
9.999999999999968
 20
20.07174453033794
 30
0.0
  0
ENDBLK
  5
11F
330
11D
100
AcDbEntity
  8
0
100
AcDbBlockEnd
  0
BLOCK
  5
131
330
130
100
AcDbEntity
  8
0
100
AcDbBlockBegin
  2
_D_3
 70
     0
 10
0.0
 20
0.0
 30
0.0
  3
_D_3
  1
_D_3
  0
LINE
  5
133
330
130
100
AcDbEntity
  8
치수문자_일반주서
 62
     0
370
    -2
100
AcDbLine
 10
-34.01250000000002
 20
3.968750000000001
 30
0.0
 11
-47.45000000000005
 21
3.968749999999951
 31
0.0
  0
LINE
  5
134
330
130
100
AcDbEntity
  8
치수문자_일반주서
 62
     0
370
    -2
100
AcDbLine
 10
-34.01250000000002
 20
-3.968749999999999
 30
0.0
 11
-47.45000000000002
 21
-3.968750000000049
 31
0.0
  0
LINE
  5
135
330
130
100
AcDbEntity
  8
치수문자_일반주서
 62
     0
370
    -2
100
AcDbLine
 10
-47.45000000000003
 20
0.6667499999999511
 30
0.0
 11
-47.45000000000003
 21
-0.6667500000000497
 31
0.0
  0
SOLID
  5
136
330
130
100
AcDbEntity
  8
치수문자_일반주서
 62
     0
100
AcDbTrace
 10
-46.8996666666667
 20
0.6667499999999531
 30
0.0
 11
-48.00033333333337
 21
0.6667499999999491
 31
0.0
 12
-47.45000000000005
 22
3.968749999999951
 32
0.0
 13
-47.45000000000005
 23
3.968749999999951
 33
0.0
  0
SOLID
  5
137
330
130
100
AcDbEntity
  8
치수문자_일반주서
 62
     0
100
AcDbTrace
 10
-48.00033333333337
 20
-0.6667500000000517
 30
0.0
 11
-46.8996666666667
 21
-0.6667500000000477
 31
0.0
 12
-47.45000000000002
 22
-3.968750000000049
 32
0.0
 13
-47.45000000000002
 23
-3.968750000000049
 33
0.0
  0
MTEXT
  5
138
330
130
100
AcDbEntity
  8
치수문자_일반주서
 62
     0
100
AcDbMText
 10
-51.82500000000003
 20
-0.000000000000017
 30
0.0
 40
3.5
 41
0.0
 71
     2
 72
     1
  1
\A1;%%c7.94 [5/16]
  7
SLDTEXTSTYLE0
 11
-3.580687802255623E-15
 21
1.0
 31
0.0
 73
     1
 44
1.0
  0
POINT
  5
139
330
130
100
AcDbEntity
  8
Defpoints
 62
     0
100
AcDbPoint
 10
-33.95000000000002
 20
3.968750000000001
 30
0.0
  0
POINT
  5
13A
330
130
100
AcDbEntity
  8
Defpoints
 62
     0
100
AcDbPoint
 10
-33.95000000000002
 20
-3.968749999999999
 30
0.0
  0
POINT
  5
13B
330
130
100
AcDbEntity
  8
Defpoints
 62
     0
100
AcDbPoint
 10
-47.45000000000002
 20
-3.968750000000049
 30
0.0
  0
ENDBLK
  5
132
330
130
100
AcDbEntity
  8
0
100
AcDbBlockEnd
  0
BLOCK
  5
144
330
143
100
AcDbEntity
  8
0
100
AcDbBlockBegin
  2
SW_DOWELSYMBOL_0
 70
     0
 10
0.0
 20
0.0
 30
0.0
  3
SW_DOWELSYMBOL_0
  1
SW_DOWELSYMBOL_0
  0
CIRCLE
  5
146
330
143
100
AcDbEntity
  8
외형선
 62
     0
100
AcDbCircle
 10
0.0
 20
0.0
 30
0.0
 40
3.000000000000001
  0
HATCH
  5
147
330
143
100
AcDbEntity
  8
0
  6
Continuous
 62
     0
370
    30
100
AcDbHatch
 10
0.0
 20
0.0
 30
0.0
210
0.0
220
0.0
230
1.0
  2
SOLID
 70
     1
 71
     0
 91
        1
 92
        0
 93
        3
 72
     2
 10
0.0
 20
0.0
 40
3.000000000000001
 50
0.0
 51
90.0
 73
     1
 72
     1
 10
0.0
 20
3.000000000000001
 11
0.0
 21
0.0
 72
     1
 10
0.0
 20
0.0
 11
3.000000000000001
 21
0.0
 97
        0
 75
     0
 76
     1
 98
        1
 10
0.0
 20
0.0
  0
HATCH
  5
148
330
143
100
AcDbEntity
  8
0
  6
Continuous
 62
     0
370
    30
100
AcDbHatch
 10
0.0
 20
0.0
 30
0.0
210
0.0
220
0.0
230
1.0
  2
SOLID
 70
     1
 71
     0
 91
        1
 92
        0
 93
        3
 72
     2
 10
0.0
 20
0.0
 40
3.000000000000001
 50
180.0
 51
270.0000000000008
 73
     1
 72
     1
 10
0.0
 20
-3.000000000000001
 11
0.0
 21
0.0
 72
     1
 10
0.0
 20
0.0
 11
-3.000000000000001
 21
0.0
 97
        0
 75
     0
 76
     1
 98
        1
 10
0.0
 20
0.0
  0
ENDBLK
  5
145
330
143
100
AcDbEntity
  8
0
100
AcDbBlockEnd
  0
BLOCK
  5
17B
330
17A
100
AcDbEntity
  8
0
100
AcDbBlockBegin
  2
*D7
 70
     1
 10
0.0
 20
0.0
 30
0.0
  3
*D7
  1
*D7
  0
LINE
  5
17D
330
17A
100
AcDbEntity
  8
치수문자_일반주서
 62
     0
370
    -2
100
AcDbLine
 10
43.51518283782804
 20
6.389428573809692
 30
0.0
 11
64.3824509262537
 21
32.66920779866901
 31
0.0
  0
MTEXT
  5
17E
330
17A
100
AcDbEntity
  8
치수문자_일반주서
 62
     0
100
AcDbMText
 10
53.48483472752873
 20
23.16629047040675
 30
0.0
 40
3.5
 41
0.0
 71
     5
 72
     1
  1
\A1;R.76 [R0.030]
  7
SLDTEXTSTYLE0
 11
0.6218461707254099
 21
0.7831394128468726
 31
0.0
 73
     1
 44
1.0
  0
SOLID
  5
17F
330
17A
100
AcDbEntity
  8
치수문자_일반주서
 62
     0
100
AcDbTrace
 10
43.0841951142913
 20
6.731651249765576
 30
0.0
 11
43.94617056136477
 21
6.047205897853808
 31
0.0
 12
41.46184678209273
 22
3.803502232589319
 32
0.0
 13
41.46184678209273
 23
3.803502232589319
 33
0.0
  0
LINE
  5
180
330
17A
100
AcDbEntity
  8
치수문자_일반주서
 62
     0
100
AcDbLine
 10
40.89799999999997
 20
3.20675
 30
0.0
 11
41.07799999999997
 21
3.20675
 31
0.0
  0
LINE
  5
181
330
17A
100
AcDbEntity
  8
치수문자_일반주서
 62
     0
100
AcDbLine
 10
40.98799999999997
 20
3.116750000000001
 30
0.0
 11
40.98799999999997
 21
3.29675
 31
0.0
  0
POINT
  5
182
330
17A
100
AcDbEntity
  8
Defpoints
 62
     0
100
AcDbPoint
 10
41.46184678209273
 20
3.803502232589319
 30
0.0
  0
POINT
  5
183
330
17A
100
AcDbEntity
  8
Defpoints
 62
     0
100
AcDbPoint
 10
40.98799999999997
 20
3.20675
 30
0.0
  0
ENDBLK
  5
17C
330
17A
100
AcDbEntity
  8
0
100
AcDbBlockEnd
  0
ENDSEC
  0
SECTION
  2
ENTITIES
  0
LINE
  5
95
330
1F
100
AcDbEntity
  8
0
  6
Continuous
 62
     4
370
    15
100
AcDbLine
 10
8.491065469417938
 20
3.968750000000004
 30
0.0
 11
-33.95000000000002
 21
3.968750000000001
 31
0.0
  0
LINE
  5
96
330
1F
100
AcDbEntity
  8
0
  6
Continuous
 62
     4
370
    15
100
AcDbLine
 10
-33.95000000000002
 20
-3.968749999999999
 30
0.0
 11
8.491065469417938
 21
-3.968749999999996
 31
0.0
  0
LINE
  5
97
330
1F
100
AcDbEntity
  8
0
  6
Continuous
 62
     4
370
    15
100
AcDbLine
 10
-33.95000000000002
 20
3.968749999999999
 30
0.0
 11
-34.45000000000002
 21
3.468749999999999
 31
0.0
  0
LINE
  5
98
330
1F
100
AcDbEntity
  8
0
  6
Continuous
 62
     4
370
    15
100
AcDbLine
 10
-34.45000000000002
 20
-3.468749999999998
 30
0.0
 11
-33.95000000000002
 21
-3.968749999999996
 31
0.0
  0
LINE
  5
99
330
1F
100
AcDbEntity
  8
0
  6
Continuous
 62
     4
370
    15
100
AcDbLine
 10
8.480262338930736
 20
-3.95977825239151
 30
0.0
 11
8.48026230533654
 21
-3.959551116759416
 31
0.0
  0
LINE
  5
9A
330
1F
100
AcDbEntity
  8
0
  6
Continuous
 62
     1
370
    15
100
AcDbLine
 10
27.56459873572382
 20
-3.968749999999996
 30
0.0
 11
28.92109323084805
 21
-3.968749999999996
 31
0.0
  0
LINE
  5
9B
330
1F
100
AcDbEntity
  8
0
  6
Continuous
 62
     1
370
    15
100
AcDbLine
 10
16.4529463964305
 20
3.968750000000004
 30
0.0
 11
15.09634813126547
 21
3.968750000000004
 31
0.0
  0
LINE
  5
9C
330
1F
100
AcDbEntity
  8
0
  6
Continuous
 62
     1
370
    15
100
AcDbLine
 10
40.226
 20
3.968750000000004
 30
0.0
 11
40.03342390648843
 21
3.968750000000004
 31
0.0
  0
LINE
  5
9F
330
1F
100
AcDbEntity
  8
0
  6
Continuous
 62
     1
370
    15
100
AcDbLine
 10
31.71983273326651
 20
-3.968749999999996
 30
0.0
 11
33.07793290719734
 21
-3.968749999999996
 31
0.0
  0
LINE
  5
A0
330
1F
100
AcDbEntity
  8
0
  6
Continuous
 62
     1
370
    15
100
AcDbLine
 10
20.60975439877825
 20
3.968750000000004
 30
0.0
 11
19.25161272747501
 21
3.968750000000004
 31
0.0
  0
LINE
  5
A1
330
1F
100
AcDbEntity
  8
0
  6
Continuous
 62
     1
370
    15
100
AcDbLine
 10
23.40900466949787
 20
-3.968749999999996
 30
0.0
 11
24.76509813062883
 21
-3.968749999999996
 31
0.0
  0
LINE
  5
A2
330
1F
100
AcDbEntity
  8
0
  6
Continuous
 62
     1
370
    15
100
AcDbLine
 10
12.29686475771748
 20
3.968750000000004
 30
0.0
 11
10.94056189392338
 21
3.968750000000004
 31
0.0
  0
LINE
  5
A3
330
1F
100
AcDbEntity
  8
0
  6
Continuous
 62
     1
370
    15
100
AcDbLine
 10
37.23331025756812
 20
3.968750000000004
 30
0.0
 11
35.87719235863185
 21
3.968750000000004
 31
0.0
  0
LINE
  5
A4
330
1F
100
AcDbEntity
  8
0
  6
Continuous
 62
     1
370
    15
100
AcDbLine
 10
35.87719235863182
 20
-3.968749999999996
 30
0.0
 11
37.23331025756811
 21
-3.968749999999996
 31
0.0
  0
LINE
  5
A5
330
1F
100
AcDbEntity
  8
0
  6
Continuous
 62
     1
370
    15
100
AcDbLine
 10
10.94056189392335
 20
-3.968749999999996
 30
0.0
 11
12.29686475771748
 21
-3.968749999999996
 31
0.0
  0
LINE
  5
A6
330
1F
100
AcDbEntity
  8
0
  6
Continuous
 62
     1
370
    15
100
AcDbLine
 10
24.76509813062883
 20
3.968750000000004
 30
0.0
 11
23.40900466949784
 21
3.968750000000004
 31
0.0
  0
LINE
  5
A7
330
1F
100
AcDbEntity
  8
0
  6
Continuous
 62
     1
370
    15
100
AcDbLine
 10
40.03342390648843
 20
-3.968749999999996
 30
0.0
 11
40.226
 21
-3.968749999999996
 31
0.0
  0
LINE
  5
A8
330
1F
100
AcDbEntity
  8
0
  6
Continuous
 62
     1
370
    15
100
AcDbLine
 10
15.09634813126546
 20
-3.968749999999996
 30
0.0
 11
16.45294639643052
 21
-3.968749999999996
 31
0.0
  0
LINE
  5
A9
330
1F
100
AcDbEntity
  8
0
  6
Continuous
 62
     1
370
    15
100
AcDbLine
 10
28.92109323084808
 20
3.968750000000004
 30
0.0
 11
27.56459873572383
 21
3.968750000000004
 31
0.0
  0
LINE
  5
AA
330
1F
100
AcDbEntity
  8
0
  6
Continuous
 62
     1
370
    15
100
AcDbLine
 10
19.25161272747504
 20
-3.968749999999996
 30
0.0
 11
20.60975439877828
 21
-3.968749999999996
 31
0.0
  0
LINE
  5
AB
330
1F
100
AcDbEntity
  8
0
  6
Continuous
 62
     1
370
    15
100
AcDbLine
 10
33.07793290719738
 20
3.968750000000004
 30
0.0
 11
31.71983273326654
 21
3.968750000000004
 31
0.0
  0
SPLINE
  5
AC
330
1F
100
AcDbEntity
  8
0
  6
Continuous
 62
     1
370
    15
100
AcDbSpline
210
0.0
220
0.0
230
1.0
 70
    24
 71
     3
 72
    14
 73
    10
 74
     0
 42
0.000000001
 43
0.00000001
 40
0.0
 40
0.0
 40
0.0
 40
0.0
 40
0.25
 40
0.25
 40
0.5
 40
0.5
 40
0.75
 40
0.75
 40
1.0
 40
1.0
 40
1.0
 40
1.0
 10
10.0
 20
-1.122357889370798
 30
0.0
 10
10.0
 20
-1.149821321886901
 30
0.0
 10
10.0
 20
-1.200173895352635
 30
0.0
 10
10.0
 20
-1.379709630879563
 30
0.0
 10
10.0
 20
-1.509937425639559
 30
0.0
 10
10.0
 20
-1.877722769529471
 30
0.0
 10
10.0
 20
-2.117031836247894
 30
0.0
 10
10.0
 20
-2.68128601638452
 30
0.0
 10
10.0
 20
-3.005323429433985
 30
0.0
 10
10.0
 20
-3.322340075113178
 30
0.0
  0
SPLINE
  5
AD
330
1F
100
AcDbEntity
  8
0
  6
Continuous
 62
     4
370
    15
100
AcDbSpline
210
0.0
220
0.0
230
1.0
 70
     8
 71
     3
 72
    10
 73
     6
 74
     0
 42
0.000000001
 43
0.00000001
 40
0.0
 40
0.0
 40
0.0
 40
0.0
 40
0.5
 40
0.5
 40
1.0
 40
1.0
 40
1.0
 40
1.0
 10
10.0
 20
-3.322340075113163
 30
0.0
 10
9.792347972979188
 20
-3.208026233663027
 30
0.0
 10
9.581225895018784
 20
-3.079173696997802
 30
0.0
 10
9.159909154980424
 20
-2.796836156834411
 30
0.0
 10
8.951816710950157
 20
-2.643925791094736
 30
0.0
 10
8.742949280063497
 20
-2.480475175071402
 30
0.0
  0
SPLINE
  5
AF
330
1F
100
AcDbEntity
  8
0
  6
Continuous
 62
     4
370
    15
100
AcDbSpline
210
0.0
220
0.0
230
1.0
 70
     8
 71
     3
 72
     8
 73
     4
 74
     0
 42
0.000000001
 43
0.00000001
 40
0.0
 40
0.0
 40
0.0
 40
0.0
 40
1.0
 40
1.0
 40
1.0
 40
1.0
 10
9.999999999999998
 20
-1.122357889370794
 30
0.0
 10
9.935146238151106
 20
-1.059754032363203
 30
0.0
 10
9.869955633101759
 20
-0.9965864884592934
 30
0.0
 10
9.804545503568098
 20
-0.9329669058557128
 30
0.0
  0
SPLINE
  5
B0
330
1F
100
AcDbEntity
  8
0
  6
Continuous
 62
     4
370
    15
100
AcDbSpline
210
0.0
220
0.0
230
1.0
 70
     8
 71
     3
 72
     8
 73
     4
 74
     0
 42
0.000000001
 43
0.00000001
 40
0.0
 40
0.0
 40
0.0
 40
0.0
 40
1.0
 40
1.0
 40
1.0
 40
1.0
 10
9.999999999999998
 20
3.857914754243988
 30
0.0
 10
9.935146238151106
 20
3.842597712809499
 30
0.0
 10
9.86995563310176
 20
3.825688186709791
 30
0.0
 10
9.804545503568104
 20
3.807203732498433
 30
0.0
  0
SPLINE
  5
B1
330
1F
100
AcDbEntity
  8
0
  6
Continuous
 62
     4
370
    15
100
AcDbSpline
210
0.0
220
0.0
230
1.0
 70
     8
 71
     3
 72
    10
 73
     6
 74
     0
 42
0.000000001
 43
0.00000001
 40
0.0
 40
0.0
 40
0.0
 40
0.0
 40
0.2756476412093339
 40
0.8897588842111486
 40
1.0
 40
1.0
 40
1.0
 40
1.0
 10
9.45056036471796
 20
3.749399419384921
 30
0.0
 10
9.487580080440944
 20
3.751636351404652
 30
0.0
 10
9.607075465240847
 20
3.758856910699846
 30
0.0
 10
9.722874320654567
 20
3.784910904101964
 30
0.0
 10
9.79375758992257
 20
3.804259081774312
 30
0.0
 10
9.804545503567129
 20
3.807203732494636
 30
0.0
  0
SPLINE
  5
B2
330
1F
100
AcDbEntity
  8
0
  6
Continuous
 62
     4
370
    15
100
AcDbSpline
210
0.0
220
0.0
230
1.0
 70
     8
 71
     3
 72
    12
 73
     8
 74
     0
 42
0.000000001
 43
0.00000001
 40
0.0
 40
0.0
 40
0.0
 40
0.0
 40
0.2097536161240458
 40
0.4262464876615757
 40
0.6357798722685037
 40
0.8498005775809383
 40
1.0
 40
1.0
 40
1.0
 40
1.0
 10
8.742949280063497
 20
3.923270312134096
 30
0.0
 10
8.711769723640169
 20
3.928272648729363
 30
0.0
 10
8.648408830713159
 20
3.938438043935578
 30
0.0
 10
8.57904213129945
 20
3.952073040190836
 30
0.0
 10
8.529366935652279
 20
3.962187463521664
 30
0.0
 10
8.49985895920603
 20
3.968303441115136
 30
0.0
 10
8.493632978928089
 20
3.967893582019926
 30
0.0
 10
8.491065469417938
 20
3.967724561708618
 30
0.0
  0
SPLINE
  5
B3
330
1F
100
AcDbEntity
  8
0
  6
Continuous
 62
     4
370
    15
100
AcDbSpline
210
0.0
220
0.0
230
1.0
 70
     8
 71
     3
 72
    10
 73
     6
 74
     0
 42
0.000000001
 43
0.00000001
 40
0.0
 40
0.0
 40
0.0
 40
0.0
 40
0.5
 40
0.5
 40
1.0
 40
1.0
 40
1.0
 40
1.0
 10
9.999999999999998
 20
3.541269700034021
 30
0.0
 10
9.792347972979186
 20
3.635616499099584
 30
0.0
 10
9.581225895018783
 20
3.715665523972771
 30
0.0
 10
9.159909154980424
 20
3.843736468306799
 30
0.0
 10
8.951816710950157
 20
3.891662527426022
 30
0.0
 10
8.742949280063497
 20
3.923270312134096
 30
0.0
  0
LINE
  5
B4
330
1F
100
AcDbEntity
  8
0
  6
Continuous
 62
     1
370
    15
100
AcDbLine
 10
10.0
 20
3.541269700034029
 30
0.0
 11
9.999999999999998
 21
2.735556864868695
 31
0.0
  0
SPLINE
  5
B5
330
1F
100
AcDbEntity
  8
0
  6
Continuous
 62
     4
370
    15
100
AcDbSpline
210
0.0
220
0.0
230
1.0
 70
     8
 71
     3
 72
     8
 73
     4
 74
     0
 42
0.000000001
 43
0.00000001
 40
0.0
 40
0.0
 40
0.0
 40
0.0
 40
1.0
 40
1.0
 40
1.0
 40
1.0
 10
9.999999999999998
 20
2.735556864873175
 30
0.0
 10
9.935146238151106
 20
2.782843680446276
 30
0.0
 10
9.86995563310176
 20
2.829101698250474
 30
0.0
 10
9.804545503568104
 20
2.874236826642696
 30
0.0
  0
SPLINE
  5
B6
330
1F
100
AcDbEntity
  8
0
  6
Continuous
 62
     4
370
    15
100
AcDbSpline
210
0.0
220
0.0
230
1.0
 70
     8
 71
     3
 72
    16
 73
    12
 74
     0
 42
0.000000001
 43
0.00000001
 40
0.0
 40
0.0
 40
0.0
 40
0.0
 40
0.125
 40
0.125
 40
0.25
 40
0.25
 40
0.5
 40
0.5
 40
0.75
 40
0.75
 40
1.0
 40
1.0
 40
1.0
 40
1.0
 10
8.48026230532731
 20
2.210069284717298
 30
0.0
 10
8.480262305327312
 20
2.283192415923463
 30
0.0
 10
8.480414411598362
 20
2.354520291565939
 30
0.0
 10
8.495598622814656
 20
2.492610586869051
 30
0.0
 10
8.510613048090782
 20
2.560149848018624
 30
0.0
 10
8.590100879855967
 20
2.749820498249497
 30
0.0
 10
8.690515216886718
 20
2.85666771702029
 30
0.0
 10
8.978632390521126
 20
2.998137335989566
 30
0.0
 10
9.156645245883826
 20
3.029857881282474
 30
0.0
 10
9.51078626813081
 20
3.011387820107382
 30
0.0
 10
9.678534914804793
 20
2.961188253628897
 30
0.0
 10
9.804545503567129
 20
2.874236826638811
 30
0.0
  0
SPLINE
  5
B7
330
1F
100
AcDbEntity
  8
0
  6
Continuous
 62
     4
370
    15
100
AcDbSpline
210
0.0
220
0.0
230
1.0
 70
     8
 71
     3
 72
    10
 73
     6
 74
     0
 42
0.000000001
 43
0.00000001
 40
0.0
 40
0.0
 40
0.0
 40
0.0
 40
0.5
 40
0.5
 40
1.0
 40
1.0
 40
1.0
 40
1.0
 10
8.742949280063497
 20
1.442795137062674
 30
0.0
 10
8.632092910777082
 20
1.546322364893759
 30
0.0
 10
8.559426826759156
 20
1.676738184595379
 30
0.0
 10
8.48306026407112
 20
1.944438620839328
 30
0.0
 10
8.480262305327306
 20
2.080644808196949
 30
0.0
 10
8.48026230532731
 20
2.210069284717298
 30
0.0
  0
SPLINE
  5
B8
330
1F
100
AcDbEntity
  8
0
  6
Continuous
 62
     4
370
    15
100
AcDbSpline
210
0.0
220
0.0
230
1.0
 70
     8
 71
     3
 72
    10
 73
     6
 74
     0
 42
0.000000001
 43
0.00000001
 40
0.0
 40
0.0
 40
0.0
 40
0.0
 40
0.5000000000000001
 40
0.5000000000000001
 40
1.0
 40
1.0
 40
1.0
 40
1.0
 10
9.999999999999998
 20
0.2189296249208405
 30
0.0
 10
9.792347972979186
 20
0.4275902654365379
 30
0.0
 10
9.581225895018784
 20
0.6364918269749502
 30
0.0
 10
9.159909154980424
 20
1.04690031147237
 30
0.0
 10
8.951816710950157
 20
1.247736736331266
 30
0.0
 10
8.742949280063497
 20
1.442795137062674
 30
0.0
  0
LINE
  5
B9
330
1F
100
AcDbEntity
  8
0
  6
Continuous
 62
     1
370
    15
100
AcDbLine
 10
10.0
 20
0.2189296249208357
 30
0.0
 11
9.999999999999998
 21
-1.122357889370794
 31
0.0
  0
SPLINE
  5
BA
330
1F
100
AcDbEntity
  8
0
  6
Continuous
 62
     4
370
    15
100
AcDbSpline
210
0.0
220
0.0
230
1.0
 70
     8
 71
     3
 72
    16
 73
    12
 74
     0
 42
0.000000001
 43
0.00000001
 40
0.0
 40
0.0
 40
0.0
 40
0.0
 40
0.1250000000000001
 40
0.1250000000000001
 40
0.2500000000000002
 40
0.2500000000000002
 40
0.5000000000000002
 40
0.5000000000000002
 40
0.7500000000000001
 40
0.7500000000000001
 40
1.0
 40
1.0
 40
1.0
 40
1.0
 10
8.48026230532731
 20
-1.749773186451687
 30
0.0
 10
8.48026230532731
 20
-1.67075503638515
 30
0.0
 10
8.480414411598362
 20
-1.590610816945049
 30
0.0
 10
8.495598622814656
 20
-1.429344789354885
 30
0.0
 10
8.510613048090782
 20
-1.347239527051551
 30
0.0
 10
8.59010087985597
 20
-1.107708285179804
 30
0.0
 10
8.69051521688672
 20
-0.9593533506271279
 30
0.0
 10
8.978632390521128
 20
-0.7547819101683322
 30
0.0
 10
9.156645245883826
 20
-0.7050610075943292
 30
0.0
 10
9.510786268130806
 20
-0.7330651219829797
 30
0.0
 10
9.678534914804791
 20
-0.8104057503003821
 30
0.0
 10
9.804545503567123
 20
-0.9329669058557992
 30
0.0
  0
SPLINE
  5
BB
330
1F
100
AcDbEntity
  8
0
  6
Continuous
 62
     4
370
    15
100
AcDbSpline
210
0.0
220
0.0
230
1.0
 70
     8
 71
     3
 72
    10
 73
     6
 74
     0
 42
0.000000001
 43
0.00000001
 40
0.0
 40
0.0
 40
0.0
 40
0.0
 40
0.5
 40
0.5
 40
1.0
 40
1.0
 40
1.0
 40
1.0
 10
8.742949280063497
 20
-2.480475175071402
 30
0.0
 10
8.632092910777082
 20
-2.393723775999492
 30
0.0
 10
8.559426826759156
 20
-2.279580998855884
 30
0.0
 10
8.483060264071122
 20
-2.026875521863247
 30
0.0
 10
8.480262305327306
 20
-1.889631566956953
 30
0.0
 10
8.480262305327306
 20
-1.749773186451689
 30
0.0
  0
LINE
  5
BC
330
1F
100
AcDbEntity
  8
0
  6
Continuous
 62
     1
370
    15
100
AcDbLine
 10
10.0
 20
-3.322340075113175
 30
0.0
 11
9.999999999999998
 21
-3.857914754240311
 31
0.0
  0
SPLINE
  5
BD
330
1F
100
AcDbEntity
  8
0
  6
Continuous
 62
     4
370
    15
100
AcDbSpline
210
0.0
220
0.0
230
1.0
 70
     8
 71
     3
 72
     8
 73
     4
 74
     0
 42
0.000000001
 43
0.00000001
 40
0.0
 40
0.0
 40
0.0
 40
0.0
 40
1.0
 40
1.0
 40
1.0
 40
1.0
 10
9.999999999999998
 20
-3.857914754243985
 30
0.0
 10
9.935146238151107
 20
-3.842597712809498
 30
0.0
 10
9.869955633101762
 20
-3.82568818670979
 30
0.0
 10
9.804545503568104
 20
-3.807203732498432
 30
0.0
  0
SPLINE
  5
BE
330
1F
100
AcDbEntity
  8
0
  6
Continuous
 62
     4
370
    15
100
AcDbSpline
210
0.0
220
0.0
230
1.0
 70
     8
 71
     3
 72
    16
 73
    12
 74
     0
 42
0.000000001
 43
0.00000001
 40
0.0
 40
0.0
 40
0.0
 40
0.0
 40
0.125
 40
0.125
 40
0.2500000000000001
 40
0.2500000000000001
 40
0.5000000000000001
 40
0.5000000000000001
 40
0.7500000000000001
 40
0.7500000000000001
 40
1.0
 40
1.0
 40
1.0
 40
1.0
 10
8.48026230532731
 20
-3.959842471168999
 30
0.0
 10
8.480262305327312
 20
-3.953947452308626
 30
0.0
 10
8.480414411598362
 20
-3.945131108511003
 30
0.0
 10
8.495598622814656
 20
-3.921955376223953
 30
0.0
 10
8.510613048090782
 20
-3.907389375070192
 30
0.0
 10
8.59010087985597
 20
-3.857528783429319
 30
0.0
 10
8.690515216886721
 20
-3.816021067647436
 30
0.0
 10
8.978632390521131
 20
-3.752919246157921
 30
0.0
 10
9.15664524588383
 20
-3.734918888876825
 30
0.0
 10
9.510786268130813
 20
-3.744452942090385
 30
0.0
 10
9.678534914804798
 20
-3.771594003929304
 30
0.0
 10
9.80454550356713
 20
-3.807203732494636
 30
0.0
  0
SPLINE
  5
BF
330
1F
100
AcDbEntity
  8
0
  6
Continuous
 62
     4
370
    15
100
AcDbSpline
210
0.0
220
0.0
230
1.0
 70
     8
 71
     3
 72
     8
 73
     4
 74
     0
 42
0.000000001
 43
0.00000001
 40
0.0
 40
0.0
 40
0.0
 40
0.0
 40
1.0
 40
1.0
 40
1.0
 40
1.0
 10
8.742949280063497
 20
-3.923270312134083
 30
0.0
 10
8.608250296338971
 20
-3.94365422962609
 30
0.0
 10
8.531503044327923
 20
-3.962796658562116
 30
0.0
 10
8.500894758319484
 20
-3.967501663819409
 30
0.0
  0
SPLINE
  5
C0
330
1F
100
AcDbEntity
  8
0
  6
Continuous
 62
     4
370
    15
100
AcDbSpline
210
0.0
220
0.0
230
1.0
 70
     8
 71
     3
 72
     9
 73
     5
 74
     0
 42
0.000000001
 43
0.00000001
 40
0.0
 40
0.0
 40
0.0
 40
0.0
 40
0.3084721530705855
 40
1.0
 40
1.0
 40
1.0
 40
1.0
 10
8.491065469417936
 20
-3.96772456170861
 30
0.0
 10
8.488021614855057
 20
-3.967979969433724
 30
0.0
 10
8.478154096725527
 20
-3.968807946035733
 30
0.0
 10
8.479400430686631
 20
-3.963507722995948
 30
0.0
 10
8.48026230532731
 20
-3.959842471168999
 30
0.0
  0
SPLINE
  5
C1
330
1F
100
AcDbEntity
  8
0
  6
Continuous
 62
     4
370
    15
100
AcDbSpline
210
0.0
220
0.0
230
1.0
 70
     8
 71
     3
 72
     9
 73
     5
 74
     0
 42
0.000000001
 43
0.00000001
 40
0.0
 40
0.0
 40
0.0
 40
0.0
 40
0.1129498069135606
 40
1.0
 40
1.0
 40
1.0
 40
1.0
 10
9.450560364717925
 20
-3.749399419384918
 30
0.0
 10
9.42389463525806
 20
-3.759726232748143
 30
0.0
 10
9.187809862839886
 20
-3.851154572870298
 30
0.0
 10
8.952065957136572
 20
-3.889370694268656
 30
0.0
 10
8.742949280063497
 20
-3.923270312134084
 30
0.0
  0
LINE
  5
C2
330
1F
100
AcDbEntity
  8
0
  6
Continuous
 62
     4
370
    15
100
AcDbLine
 10
-33.95000000000002
 20
3.968749999999999
 30
0.0
 11
-33.95000000000002
 21
-3.968749999999999
 31
0.0
  0
LINE
  5
C3
330
1F
100
AcDbEntity
  8
0
  6
Continuous
 62
     4
370
    15
100
AcDbLine
 10
-34.45000000000002
 20
3.46875
 30
0.0
 11
-34.45000000000002
 21
-3.468749999999998
 31
0.0
  0
SPLINE
  5
C4
330
1F
100
AcDbEntity
  8
0
  6
Continuous
 62
     1
370
    15
100
AcDbSpline
210
0.0
220
0.0
230
1.0
 70
    24
 71
     3
 72
    14
 73
    10
 74
     0
 42
0.000000001
 43
0.00000001
 40
0.0
 40
0.0
 40
0.0
 40
0.0
 40
0.25
 40
0.25
 40
0.5
 40
0.5
 40
0.75
 40
0.75
 40
1.0
 40
1.0
 40
1.0
 40
1.0
 10
9.999999999999998
 20
2.735556864868671
 30
0.0
 10
10.0
 20
2.582339295957163
 30
0.0
 10
10.0
 20
2.402894039877306
 30
0.0
 10
10.0
 20
1.989592195738349
 30
0.0
 10
10.0
 20
1.754779060916019
 30
0.0
 10
10.0
 20
1.260609861181924
 30
0.0
 10
10.0
 20
1.001426927642586
 30
0.0
 10
10.0
 20
0.541251348394618
 30
0.0
 10
10.0
 20
0.3434442677046085
 30
0.0
 10
10.0
 20
0.2189296249208352
 30
0.0
  0
SPLINE
  5
C5
330
1F
100
AcDbEntity
  8
0
  6
Continuous
 62
     4
370
    15
100
AcDbSpline
210
0.0
220
0.0
230
1.0
 70
    24
 71
     3
 72
     9
 73
     5
 74
     0
 42
0.000000001
 43
0.00000001
 40
0.0
 40
0.0
 40
0.0
 40
0.0
 40
0.3129091444190085
 40
1.0
 40
1.0
 40
1.0
 40
1.0
 10
9.999999999999998
 20
3.857914754240312
 30
0.0
 10
9.999999999999998
 20
3.827720395704978
 30
0.0
 10
10.0
 20
3.731224786439876
 30
0.0
 10
10.0
 20
3.649797174379619
 30
0.0
 10
10.0
 20
3.593849006741221
 30
0.0
  0
SPLINE
  5
C6
330
1F
100
AcDbEntity
  8
0
  6
Continuous
 62
     1
370
    15
100
AcDbSpline
210
0.0
220
0.0
230
1.0
 70
     8
 71
     3
 72
    28
 73
    24
 74
     0
 42
0.000000001
 43
0.00000001
 40
0.0
 40
0.0
 40
0.0
 40
0.0
 40
0.1249999999999994
 40
0.1249999999999994
 40
0.2499999999999989
 40
0.2499999999999989
 40
0.3749999999999983
 40
0.3749999999999983
 40
0.4999999999999977
 40
0.4999999999999977
 40
0.5624999999999976
 40
0.5624999999999976
 40
0.6249999999999976
 40
0.6249999999999976
 40
0.6874999999999974
 40
0.6874999999999974
 40
0.7499999999999973
 40
0.7499999999999973
 40
0.8124999999999973
 40
0.8124999999999973
 40
0.8749999999999972
 40
0.8749999999999972
 40
1.0
 40
1.0
 40
1.0
 40
1.0
 10
40.22600000000001
 20
3.964061170676469
 30
0.0
 10
40.38330023534581
 20
3.956435641920653
 30
0.0
 10
40.53074082915461
 20
3.916072030310156
 30
0.0
 10
40.81401786545898
 20
3.775090964409081
 30
0.0
 10
40.94661189585837
 20
3.675100938534975
 30
0.0
 10
41.18252561361189
 20
3.426882466245217
 30
0.0
 10
41.28587617297783
 20
3.277541668043348
 30
0.0
 10
41.44621296871636
 20
2.956134358188845
 30
0.0
 10
41.5045803163915
 20
2.780877584143044
 30
0.0
 10
41.55210174784632
 20
2.530704797831418
 30
0.0
 10
41.56161866812369
 20
2.448715420579518
 30
0.0
 10
41.56511298845803
 20
2.296852319171023
 30
0.0
 10
41.55938031274012
 20
2.226602555525352
 30
0.0
 10
41.52300345909617
 20
2.114201118903346
 30
0.0
 10
41.49200348377952
 20
2.071935221088197
 30
0.0
 10
41.383905422533
 20
2.052032313073728
 30
0.0
 10
41.30786498915054
 20
2.078623498602428
 30
0.0
 10
41.13924838252252
 20
2.177869745274483
 30
0.0
 10
41.05114814903435
 20
2.244800316640656
 30
0.0
 10
40.87909598233431
 20
2.38131838835699
 30
0.0
 10
40.79319033228433
 20
2.452903392275235
 30
0.0
 10
40.54374928417605
 20
2.658244148876511
 30
0.0
 10
40.38284664328779
 20
2.786190708345481
 30
0.0
 10
40.226
 20
2.893291705008202
 30
0.0
  0
SPLINE
  5
C7
330
1F
100
AcDbEntity
  8
0
  6
Continuous
 62
     1
370
    15
100
AcDbSpline
210
0.0
220
0.0
230
1.0
 70
     8
 71
     3
 72
    11
 73
     7
 74
     0
 42
0.000000001
 43
0.00000001
 40
0.0
 40
0.0
 40
0.0
 40
0.0
 40
0.2933873838245009
 40
0.5871991921052292
 40
0.8806140767119492
 40
1.0
 40
1.0
 40
1.0
 40
1.0
 10
40.22599999999991
 20
2.893291705008265
 30
0.0
 10
39.93343779540245
 20
3.080527650914873
 30
0.0
 10
39.34789015548447
 20
3.455270404799565
 30
0.0
 10
38.46856244675711
 20
3.800129003978984
 30
0.0
 10
37.76374980611234
 20
3.969646367464153
 30
0.0
 10
37.35230423381909
 20
3.952415806540381
 30
0.0
 10
37.23331025756812
 20
3.947432564295419
 30
0.0
  0
SPLINE
  5
C8
330
1F
100
AcDbEntity
  8
0
  6
Continuous
 62
     1
370
    15
100
AcDbSpline
210
0.0
220
0.0
230
1.0
 70
     8
 71
     3
 72
    25
 73
    21
 74
     0
 42
0.000000001
 43
0.00000001
 40
0.0
 40
0.0
 40
0.0
 40
0.0
 40
0.0158018654811565
 40
0.0757944365068873
 40
0.1357034102119908
 40
0.195655010657632
 40
0.2557250456288883
 40
0.3156857323046278
 40
0.3755934444841754
 40
0.4355744369956334
 40
0.4956376827342739
 40
0.5555738882211385
 40
0.6154878185955097
 40
0.6755055770554835
 40
0.7355415582278017
 40
0.7954607210356265
 40
0.8553883403253855
 40
0.9154418566751978
 40
0.9754384733028627
 40
1.0
 40
1.0
 40
1.0
 40
1.0
 10
26.16524079334356
 20
-3.708663262688585
 30
0.0
 10
26.09214123594283
 20
-3.738529132693187
 30
0.0
 10
25.74151556021493
 20
-3.881782268880568
 30
0.0
 10
25.11410866551777
 20
-3.97450392456573
 30
0.0
 10
24.28332713200377
 20
-3.970554569281104
 30
0.0
 10
23.45193739883893
 20
-3.780065838056159
 30
0.0
 10
22.61878246229771
 20
-3.42805664565967
 30
0.0
 10
21.78726324707228
 20
-2.924620369659572
 30
0.0
 10
20.95649370628893
 20
-2.293369675163757
 30
0.0
 10
20.12467710952581
 20
-1.561726709466718
 30
0.0
 10
19.29162516380303
 20
-0.7626836682161251
 30
0.0
 10
18.46045445697361
 20
0.0709283290924436
 30
0.0
 10
17.62959500445464
 20
0.9013488435490276
 30
0.0
 10
16.79723020902524
 20
1.691695930748826
 30
0.0
 10
15.96459148031112
 20
2.408099201395178
 30
0.0
 10
15.13365598942217
 20
3.019001009351459
 30
0.0
 10
14.30260576220494
 20
3.50070417254287
 30
0.0
 10
13.46969210535528
 20
3.817287355895164
 30
0.0
 10
12.8011054813627
 20
3.97202786534989
 30
0.0
 10
12.41036328637969
 20
3.951599083200867
 30
0.0
 10
12.29686475771748
 20
3.945665153499787
 30
0.0
  0
SPLINE
  5
C9
330
1F
100
AcDbEntity
  8
0
  6
Continuous
 62
     1
370
    15
100
AcDbSpline
210
0.0
220
0.0
230
1.0
 70
     8
 71
     3
 72
    24
 73
    20
 74
     0
 42
0.000000001
 43
0.00000001
 40
0.0
 40
0.0
 40
0.0
 40
0.0
 40
0.0436615206771574
 40
0.1035925067355534
 40
0.1635150358369252
 40
0.2235543898657137
 40
0.2835755201583953
 40
0.3434928165323523
 40
0.4034323892702315
 40
0.4634990093970821
 40
0.5234833716757161
 40
0.5833944495055073
 40
0.6433585048076289
 40
0.7034319145485182
 40
0.7633868831100719
 40
0.823299222536293
 40
0.8832951639796864
 40
0.9433548747475853
 40
1.0
 40
1.0
 40
1.0
 40
1.0
 10
13.6970735428469
 20
3.708288395255913
 30
0.0
 10
13.89907235072359
 20
3.776110196269912
 30
0.0
 10
14.3783401943763
 20
3.937026038627089
 30
0.0
 10
15.13365592747316
 20
3.994193347685599
 30
0.0
 10
15.96459149694291
 20
3.903271722999833
 30
0.0
 10
16.79723020457639
 20
3.636068474144253
 30
0.0
 10
17.62959500560684
 20
3.211320319666315
 30
0.0
 10
18.46045445680429
 20
2.645271712530311
 30
0.0
 10
19.29162516332793
 20
1.963360312135707
 30
0.0
 10
20.12467711159984
 20
1.196617985293834
 30
0.0
 10
20.95649369848548
 20
0.3766615781005609
 30
0.0
 10
21.78726327618883
 20
-0.4599074050956324
 30
0.0
 10
22.61878235343195
 20
-1.276368913655578
 30
0.0
 10
23.45193780560791
 20
-2.03595527609964
 30
0.0
 10
24.28332561780224
 20
-2.707312985411011
 30
0.0
 10
25.11411431579796
 20
-3.261027517076634
 30
0.0
 10
25.94609916613348
 20
-3.668014017958857
 30
0.0
 10
26.76384294673764
 20
-3.923830408669621
 30
0.0
 10
27.30293780640665
 20
-3.951041006022525
 30
0.0
 10
27.56459873572382
 20
-3.964248236740711
 30
0.0
  0
SPLINE
  5
CA
330
1F
100
AcDbEntity
  8
0
  6
Continuous
 62
     1
370
    15
100
AcDbSpline
210
0.0
220
0.0
230
1.0
 70
     8
 71
     3
 72
     9
 73
     5
 74
     0
 42
0.000000001
 43
0.00000001
 40
0.0
 40
0.0
 40
0.0
 40
0.0
 40
0.4486337511446573
 40
1.0
 40
1.0
 40
1.0
 40
1.0
 10
38.63328538382851
 20
3.710646234888382
 30
0.0
 10
38.87160055319417
 20
3.788610146548245
 30
0.0
 10
39.40280260555343
 20
3.962390900807023
 30
0.0
 10
39.93342997678435
 20
3.963467545261988
 30
0.0
 10
40.22599999999991
 20
3.964061170676474
 30
0.0
  0
SPLINE
  5
CB
330
1F
100
AcDbEntity
  8
0
  6
Continuous
 62
     1
370
    15
100
AcDbSpline
210
0.0
220
0.0
230
1.0
 70
     8
 71
     3
 72
    25
 73
    21
 74
     0
 42
0.000000001
 43
0.00000001
 40
0.0
 40
0.0
 40
0.0
 40
0.0
 40
0.0118855489806391
 40
0.0751898764147127
 40
0.1350986316709849
 40
0.1950534640107873
 40
0.2551240553725257
 40
0.3150819164891097
 40
0.374990251232216
 40
0.4349753071048348
 40
0.4950368059764639
 40
0.5549710204929481
 40
0.6148864140084263
 40
0.6749090619065338
 40
0.7349409964964931
 40
0.7948590062655776
 40
0.8547889276230287
 40
0.9148455617213528
 40
0.974838429761874
 40
1.0
 40
1.0
 40
1.0
 40
1.0
 10
38.63328538382851
 20
-3.71064623488837
 30
0.0
 10
38.57829648633393
 20
-3.73389198830054
 30
0.0
 10
38.23042796014862
 20
-3.880948327816292
 30
0.0
 10
37.60590314182867
 20
-3.972509150489087
 30
0.0
 10
36.75979351724285
 20
-3.97189157666188
 30
0.0
 10
35.92836715938699
 20
-3.782670894164013
 30
0.0
 10
35.09520679378255
 20
-3.432355749182775
 30
0.0
 10
34.26373318326911
 20
-2.93026630468955
 30
0.0
 10
33.43295883179232
 20
-2.30016059496251
 30
0.0
 10
32.6010865496141
 20
-1.56939241068256
 30
0.0
 10
31.7680657399329
 20
-0.7708356730498787
 30
0.0
 10
30.93692662705294
 20
0.0626265649590505
 30
0.0
 10
30.10605026236911
 20
0.893270752557448
 30
0.0
 10
29.27361660413925
 20
1.684135505246782
 30
0.0
 10
28.44104288606663
 20
2.401464489001718
 30
0.0
 10
27.6101297055769
 20
3.013597396412375
 30
0.0
 10
26.77904586191832
 20
3.496509707298953
 30
0.0
 10
25.9461121013875
 20
3.815487881352313
 30
0.0
 10
25.27473092896217
 20
3.96982271353971
 30
0.0
 10
24.88133839007374
 20
3.952639836767154
 30
0.0
 10
24.76509813062883
 20
3.947562612731092
 30
0.0
  0
SPLINE
  5
CC
330
1F
100
AcDbEntity
  8
0
  6
Continuous
 62
     1
370
    15
100
AcDbSpline
210
0.0
220
0.0
230
1.0
 70
     8
 71
     3
 72
    12
 73
     8
 74
     0
 42
0.000000001
 43
0.00000001
 40
0.0
 40
0.0
 40
0.0
 40
0.0
 40
0.0615015017727109
 40
0.2865704958200285
 40
0.5242353502677906
 40
0.7619512844417984
 40
1.0
 40
1.0
 40
1.0
 40
1.0
 10
13.69707354284691
 20
-3.708288395255904
 30
0.0
 10
13.62123432881914
 20
-3.73916362367149
 30
0.0
 10
13.26785627234731
 20
-3.883028883227422
 30
0.0
 10
12.62178181409109
 20
-3.978438663729257
 30
0.0
 10
11.75899841360688
 20
-3.964915836611719
 30
0.0
 10
10.88019311247594
 20
-3.755471848895143
 30
0.0
 10
10.29353448682322
 20
-3.4667846420404
 30
0.0
 10
10.00000000000001
 20
-3.322340075113166
 30
0.0
  0
SPLINE
  5
CD
330
1F
100
AcDbEntity
  8
0
  6
Continuous
 62
     1
370
    15
100
AcDbSpline
210
0.0
220
0.0
230
1.0
 70
    24
 71
     3
 72
    14
 73
    10
 74
     0
 42
0.000000001
 43
0.00000001
 40
0.0
 40
0.0
 40
0.0
 40
0.0
 40
0.25
 40
0.25
 40
0.5
 40
0.5
 40
0.75
 40
0.75
 40
1.0
 40
1.0
 40
1.0
 40
1.0
 10
10.0
 20
-1.122357889371598
 30
0.0
 10
10.0
 20
-1.149821321888084
 30
0.0
 10
10.0
 20
-1.200173895354238
 30
0.0
 10
10.0
 20
-1.379709630881884
 30
0.0
 10
10.0
 20
-1.509937425642176
 30
0.0
 10
10.0
 20
-1.877722769532215
 30
0.0
 10
10.0
 20
-2.117031836250444
 30
0.0
 10
10.0
 20
-2.681286016386085
 30
0.0
 10
10.0
 20
-3.005323429434756
 30
0.0
 10
10.0
 20
-3.32234007511318
 30
0.0
  0
SPLINE
  5
CE
330
1F
100
AcDbEntity
  8
0
  6
Continuous
 62
     1
370
    15
100
AcDbSpline
210
0.0
220
0.0
230
1.0
 70
     8
 71
     3
 72
    13
 73
     9
 74
     0
 42
0.000000001
 43
0.00000001
 40
0.0
 40
0.0
 40
0.0
 40
0.0
 40
0.1726885056065668
 40
0.3451356004590568
 40
0.517545640368521
 40
0.6808182215679838
 40
0.8442456475741481
 40
1.0
 40
1.0
 40
1.0
 40
1.0
 10
9.999999999999968
 20
-1.122357889371565
 30
0.0
 10
10.29353462077131
 20
-1.398294416877003
 30
0.0
 10
10.88019351413304
 20
-1.949781725048803
 30
0.0
 10
11.75899680974194
 20
-2.667243929385483
 30
0.0
 10
12.62178769286501
 20
-3.248532938496238
 30
0.0
 10
13.46968137092961
 20
-3.664717857136415
 30
0.0
 10
14.29014943669105
 20
-3.922831430173173
 30
0.0
 10
14.83195688486104
 20
-3.95118655644775
 30
0.0
 10
15.09634813126546
 20
-3.965023293471228
 30
0.0
  0
SPLINE
  5
CF
330
1F
100
AcDbEntity
  8
0
  6
Continuous
 62
     1
370
    15
100
AcDbSpline
210
0.0
220
0.0
230
1.0
 70
     8
 71
     3
 72
    24
 73
    20
 74
     0
 42
0.000000001
 43
0.00000001
 40
0.0
 40
0.0
 40
0.0
 40
0.0
 40
0.0442564139915732
 40
0.1041886694664786
 40
0.1641090128890913
 40
0.2241432855696606
 40
0.2841682711966843
 40
0.3440859982637945
 40
0.4040225470649407
 40
0.4640863851786326
 40
0.5240737773160542
 40
0.5839844453358711
 40
0.6439446416580921
 40
0.7040175726160222
 40
0.763974740043498
 40
0.8238858285928591
 40
0.8871926215688899
 40
0.9505850542522972
 40
1.0
 40
1.0
 40
1.0
 40
1.0
 10
26.16524079334356
 20
3.708663262688595
 30
0.0
 10
26.36999959544955
 20
3.777063251500075
 30
0.0
 10
26.852043783599
 20
3.938090844633744
 30
0.0
 10
27.6101298407658
 20
3.994172013389506
 30
0.0
 10
28.44104284977211
 20
3.901444205724274
 30
0.0
 10
29.27361661385904
 20
3.632597777564435
 30
0.0
 10
30.10605025981482
 20
3.206374384510441
 30
0.0
 10
30.93692662757038
 20
2.639041006828536
 30
0.0
 10
31.7680657404167
 20
1.956120741885858
 30
0.0
 10
32.60108654715532
 20
1.18866569763763
 30
0.0
 10
33.43295884112337
 20
0.368402956922683
 30
0.0
 10
34.26373314843493
 20
-0.4681519318892879
 30
0.0
 10
35.0952069240269
 20
-1.284246384622755
 30
0.0
 10
35.92836667269624
 20
-2.043128909646576
 30
0.0
 10
36.75979532899713
 20
-2.713340421345236
 30
0.0
 10
37.60589622381865
 20
-3.276284016066421
 30
0.0
 10
38.46854655535063
 20
-3.691134571490182
 30
0.0
 10
39.28365125020166
 20
-3.936496515245059
 30
0.0
 10
39.80503379235912
 20
-3.947384037511407
 30
0.0
 10
40.03342390648843
 20
-3.952153285140426
 30
0.0
  0
SPLINE
  5
D0
330
1F
100
AcDbEntity
  8
0
  6
Continuous
 62
     1
370
    15
100
AcDbSpline
210
0.0
220
0.0
230
1.0
 70
     8
 71
     3
 72
    25
 73
    21
 74
     0
 42
0.000000001
 43
0.00000001
 40
0.0
 40
0.0
 40
0.0
 40
0.0
 40
0.0155465173331045
 40
0.0755674059052271
 40
0.135597580896999
 40
0.1955138344071504
 40
0.2554419991565276
 40
0.3154968729326958
 40
0.3754879825201105
 40
0.4353954968233556
 40
0.4953456368287372
 40
0.5554142084746307
 40
0.6153734344887671
 40
0.6752796872971875
 40
0.7352592186523856
 40
0.7953210012310513
 40
0.8552557466526826
 40
0.9151682175044493
 40
0.975184513912533
 40
1.0
 40
1.0
 40
1.0
 40
1.0
 10
30.32185953854263
 20
-3.708842371174693
 30
0.0
 10
30.25003365329832
 20
-3.73829251759934
 30
0.0
 10
29.9009074980017
 20
-3.881441695074658
 30
0.0
 10
29.27358570027397
 20
-3.974196336841296
 30
0.0
 10
28.4410513322643
 20
-3.970943420440076
 30
0.0
 10
27.61012676403493
 20
-3.781131747884772
 30
0.0
 10
26.77904919233226
 20
-3.42902269409081
 30
0.0
 10
25.94610170821809
 20
-2.926597524843638
 30
0.0
 10
25.11411363591488
 20
-2.295947179374345
 30
0.0
 10
24.28332580042941
 20
-1.564515972242159
 30
0.0
 10
23.45193775495002
 20
-0.7644770540690762
 30
0.0
 10
22.61878237296236
 20
0.0677616292903865
 30
0.0
 10
21.78726324873587
 20
0.898247892346655
 30
0.0
 10
20.95649378877048
 20
1.689282681701255
 30
0.0
 10
20.12467677724695
 20
2.40644898289333
 30
0.0
 10
19.29162641101516
 20
3.016882443254625
 30
0.0
 10
18.46044981252225
 20
3.498991123573498
 30
0.0
 10
17.62961234492172
 20
3.817226723162171
 30
0.0
 10
16.96007624044604
 20
3.970305072860159
 30
0.0
 10
16.56772056045063
 20
3.952749847367777
 30
0.0
 10
16.45294639643049
 20
3.94761449076966
 30
0.0
  0
SPLINE
  5
D1
330
1F
100
AcDbEntity
  8
0
  6
Continuous
 62
     1
370
    15
100
AcDbSpline
210
0.0
220
0.0
230
1.0
 70
     8
 71
     3
 72
    24
 73
    20
 74
     0
 42
0.000000001
 43
0.00000001
 40
0.0
 40
0.0
 40
0.0
 40
0.0
 40
0.0437776056879681
 40
0.1037200279860559
 40
0.163789503713018
 40
0.2237767176811803
 40
0.2836906437165166
 40
0.3436575497427617
 40
0.4037338154065443
 40
0.4636916342602327
 40
0.5236068219519759
 40
0.5836056156353774
 40
0.6436681816749129
 40
0.7036040224578466
 40
0.7635279504758767
 40
0.8235658145674168
 40
0.8835943910498348
 40
0.9435157025558452
 40
1.0
 40
1.0
 40
1.0
 40
1.0
 10
17.85362957350481
 20
3.708460614075353
 30
0.0
 10
18.05588202369063
 20
3.776421271327758
 30
0.0
 10
18.53506834427295
 20
3.937436958718527
 30
0.0
 10
19.29161130894662
 20
3.994154420880141
 30
0.0
 10
20.12468082142399
 20
3.902813480405548
 30
0.0
 10
20.95649270731872
 20
3.634972492544817
 30
0.0
 10
21.78726353846013
 20
3.209430605127227
 30
0.0
 10
22.61878229577122
 20
2.642880528338309
 30
0.0
 10
23.45193777324172
 20
1.961767961681424
 30
0.0
 10
24.28332580432848
 20
1.193740544308458
 30
0.0
 10
25.11411360206204
 20
0.3735262224194225
 30
0.0
 10
25.94610184000578
 20
-0.4628072916196569
 30
0.0
 10
26.77904869898181
 20
-1.278143879059137
 30
0.0
 10
27.61012860106561
 20
-2.038734097619767
 30
0.0
 10
28.44104447181811
 20
-2.709669567402605
 30
0.0
 10
29.2736113566518
 20
-3.262480477664664
 30
0.0
 10
30.10606964434949
 20
-3.668877050749137
 30
0.0
 10
30.92089440805026
 20
-3.924262982388988
 30
0.0
 10
31.45881419874244
 20
-3.951039425663806
 30
0.0
 10
31.71983273326651
 20
-3.964032344132872
 30
0.0
  0
SPLINE
  5
D2
330
1F
100
AcDbEntity
  8
0
  6
Continuous
 62
     1
370
    15
100
AcDbSpline
210
0.0
220
0.0
230
1.0
 70
     8
 71
     3
 72
    28
 73
    24
 74
     0
 42
0.000000001
 43
0.00000001
 40
0.0
 40
0.0
 40
0.0
 40
0.0
 40
0.1250000000000004
 40
0.1250000000000004
 40
0.2500000000000008
 40
0.2500000000000008
 40
0.3750000000000012
 40
0.3750000000000012
 40
0.5000000000000017
 40
0.5000000000000017
 40
0.5625000000000019
 40
0.5625000000000019
 40
0.6250000000000021
 40
0.6250000000000021
 40
0.6875000000000022
 40
0.6875000000000022
 40
0.7500000000000024
 40
0.7500000000000024
 40
0.8125000000000027
 40
0.8125000000000027
 40
0.8750000000000029
 40
0.8750000000000029
 40
1.0
 40
1.0
 40
1.0
 40
1.0
 10
40.22600000000001
 20
-2.149053632329779
 30
0.0
 10
40.38330023534581
 20
-2.280976907040269
 30
0.0
 10
40.53074082915461
 20
-2.396728274560383
 30
0.0
 10
40.81401786545899
 20
-2.593083835012662
 30
0.0
 10
40.94661189585836
 20
-2.670145287775343
 30
0.0
 10
41.18252561361187
 20
-2.785127729227986
 30
0.0
 10
41.28587617297783
 20
-2.822700025872302
 30
0.0
 10
41.44621296871636
 20
-2.880701545909606
 30
0.0
 10
41.50458031639153
 20
-2.901936301836477
 30
0.0
 10
41.55210174784634
 20
-2.958806450759621
 30
0.0
 10
41.56161866812371
 20
-2.982261155754836
 30
0.0
 10
41.56511298845802
 20
-3.045864298840943
 30
0.0
 10
41.55938031274014
 20
-3.086014269700162
 30
0.0
 10
41.52300345909622
 20
-3.191850010281421
 30
0.0
 10
41.49200348377951
 20
-3.258697018777222
 30
0.0
 10
41.38390542253298
 20
-3.417366402553861
 30
0.0
 10
41.30786498915053
 20
-3.503654026841885
 30
0.0
 10
41.13924838252251
 20
-3.647025638560954
 30
0.0
 10
41.05114814903435
 20
-3.702342680186
 30
0.0
 10
40.87909598233431
 20
-3.783552479221842
 30
0.0
 10
40.79319033228434
 20
-3.810429286355316
 30
0.0
 10
40.54374928417605
 20
-3.856749715702505
 30
0.0
 10
40.38284664328779
 20
-3.844513301723135
 30
0.0
 10
40.226
 20
-3.799278368255985
 30
0.0
  0
SPLINE
  5
D3
330
1F
100
AcDbEntity
  8
0
  6
Continuous
 62
     1
370
    15
100
AcDbSpline
210
0.0
220
0.0
230
1.0
 70
     8
 71
     3
 72
    21
 73
    17
 74
     0
 42
0.000000001
 43
0.00000001
 40
0.0
 40
0.0
 40
0.0
 40
0.0
 40
0.0776551811079638
 40
0.1554227009183798
 40
0.2330851610653938
 40
0.3065818951139914
 40
0.3801351570463592
 40
0.45383043344744
 40
0.5273874111171931
 40
0.6008836292755141
 40
0.6744739697775155
 40
0.7481580914095719
 40
0.8216860591646433
 40
0.8951909371042185
 40
0.9688273959254516
 40
1.0
 40
1.0
 40
1.0
 40
1.0
 10
40.22599999999991
 20
-3.799278368255961
 30
0.0
 10
39.93343852099873
 20
-3.696664758692871
 30
0.0
 10
39.347892333323
 20
-3.491289095128244
 30
0.0
 10
38.46855372561105
 20
-2.964021285429467
 30
0.0
 10
37.60589441789663
 20
-2.316717714209211
 30
0.0
 10
36.7597958024098
 20
-1.572014949868762
 30
0.0
 10
35.92836654379316
 20
-0.7726760321011796
 30
0.0
 10
35.09520696499141
 20
0.0594515248053876
 30
0.0
 10
34.26373311340462
 20
0.8901564014016914
 30
0.0
 10
33.43295894032874
 20
1.681761908818759
 30
0.0
 10
32.60108618464275
 20
2.399788065257305
 30
0.0
 10
31.76806709171308
 20
3.011435168388636
 30
0.0
 10
30.93692159786056
 20
3.494931012708175
 30
0.0
 10
30.10606903968538
 20
3.814908894343148
 30
0.0
 10
29.43370642525822
 20
3.969567786064262
 30
0.0
 10
29.03860530809172
 20
3.952539195684214
 30
0.0
 10
28.92109323084808
 20
3.947474504795863
 30
0.0
  0
SPLINE
  5
D4
330
1F
100
AcDbEntity
  8
0
  6
Continuous
 62
     1
370
    15
100
AcDbSpline
210
0.0
220
0.0
230
1.0
 70
     8
 71
     3
 72
    17
 73
    13
 74
     0
 42
0.000000001
 43
0.00000001
 40
0.0
 40
0.0
 40
0.0
 40
0.0
 40
0.0285038148195641
 40
0.1344916335350729
 40
0.2405116324849322
 40
0.3463253370986444
 40
0.4521539753602836
 40
0.5582049403985323
 40
0.6641554238861421
 40
0.7760353669379999
 40
0.8879393556018046
 40
1.0
 40
1.0
 40
1.0
 40
1.0
 10
17.85362957350484
 20
-3.708460614075344
 30
0.0
 10
17.77906007603582
 20
-3.738933575601106
 30
0.0
 10
17.42721336393842
 20
-3.882716378015268
 30
0.0
 10
16.79720212881348
 20
-3.975055601881614
 30
0.0
 10
15.9645991441091
 20
-3.969901462244059
 30
0.0
 10
15.13365335981374
 20
-3.778440044060326
 30
0.0
 10
14.30260862658029
 20
-3.424742090251787
 30
0.0
 10
13.46968326624262
 20
-2.92092317551943
 30
0.0
 10
12.62178715368192
 20
-2.277020607914744
 30
0.0
 10
11.75899695684352
 20
-1.513981197729842
 30
0.0
 10
10.88019347729431
 20
-0.6620807198167364
 30
0.0
 10
10.29353460848604
 20
-0.0748773996547593
 30
0.0
 10
10.00000000000001
 20
0.218929624920835
 30
0.0
  0
SPLINE
  5
D5
330
1F
100
AcDbEntity
  8
0
  6
Continuous
 62
     1
370
    15
100
AcDbSpline
210
0.0
220
0.0
230
1.0
 70
    24
 71
     3
 72
    14
 73
    10
 74
     0
 42
0.000000001
 43
0.00000001
 40
0.0
 40
0.0
 40
0.0
 40
0.0
 40
0.25
 40
0.25
 40
0.5
 40
0.5
 40
0.75
 40
0.75
 40
1.0
 40
1.0
 40
1.0
 40
1.0
 10
9.999999999999998
 20
2.735556864868683
 30
0.0
 10
9.999999999999998
 20
2.582339295957176
 30
0.0
 10
9.999999999999998
 20
2.40289403987732
 30
0.0
 10
10.0
 20
1.989592195738362
 30
0.0
 10
9.999999999999998
 20
1.754779060916031
 30
0.0
 10
10.0
 20
1.260609861181933
 30
0.0
 10
9.999999999999998
 20
1.001426927642593
 30
0.0
 10
9.999999999999998
 20
0.5412513483946206
 30
0.0
 10
10.0
 20
0.3434442677046096
 30
0.0
 10
10.0
 20
0.2189296249208352
 30
0.0
  0
SPLINE
  5
D6
330
1F
100
AcDbEntity
  8
0
  6
Continuous
 62
     1
370
    15
100
AcDbSpline
210
0.0
220
0.0
230
1.0
 70
     8
 71
     3
 72
    18
 73
    14
 74
     0
 42
0.000000001
 43
0.00000001
 40
0.0
 40
0.0
 40
0.0
 40
0.0
 40
0.0951206834237882
 40
0.1901083924157635
 40
0.2850756907180264
 40
0.3750098728079561
 40
0.4650293468736681
 40
0.5548601028122621
 40
0.6446781825896178
 40
0.7346713716423676
 40
0.8246372450759663
 40
0.9144474815006559
 40
1.0
 40
1.0
 40
1.0
 40
1.0
 10
9.999999999999966
 20
2.73555686486872
 30
0.0
 10
10.29353460772507
 20
2.510146145636226
 30
0.0
 10
10.88019347501257
 20
2.059639821205703
 30
0.0
 10
11.75899696595466
 20
1.246817565361878
 30
0.0
 10
12.62178712028609
 20
0.3982100110058233
 30
0.0
 10
13.46968338363419
 20
-0.4546363497673204
 30
0.0
 10
14.30260818758676
 20
-1.270247050547555
 30
0.0
 10
15.13365499440328
 20
-2.0315936443297
 30
0.0
 10
15.96459303919956
 20
-2.703569990720474
 30
0.0
 10
16.7972249594059
 20
-3.257634698097047
 30
0.0
 10
17.62961441906606
 20
-3.665643628033456
 30
0.0
 10
18.44716016235004
 20
-3.923256935405434
 30
0.0
 10
18.98783766342187
 20
-3.951178984006272
 30
0.0
 10
19.25161272747504
 20
-3.964801041783008
 30
0.0
  0
SPLINE
  5
D7
330
1F
100
AcDbEntity
  8
0
  6
Continuous
 62
     1
370
    15
100
AcDbSpline
210
0.0
220
0.0
230
1.0
 70
     8
 71
     3
 72
    19
 73
    15
 74
     0
 42
0.000000001
 43
0.00000001
 40
0.0
 40
0.0
 40
0.0
 40
0.0
 40
0.0621282671462143
 40
0.1460530237640559
 40
0.230156014277394
 40
0.3141519630927829
 40
0.3980404807492965
 40
0.4819983492578042
 40
0.5661140718145269
 40
0.6500676991837067
 40
0.7339568056769209
 40
0.8226006682122265
 40
0.911364445753354
 40
1.0
 40
1.0
 40
1.0
 40
1.0
 10
30.32185953854265
 20
3.708842371174702
 30
0.0
 10
30.52686506039865
 20
3.777378599667697
 30
0.0
 10
31.00879828871373
 20
3.93849565424816
 30
0.0
 10
31.76805096185563
 20
3.99412833530528
 30
0.0
 10
32.60109050454591
 20
3.900971783247661
 30
0.0
 10
33.43295778512118
 20
3.631516926137474
 30
0.0
 10
34.26373342304074
 20
3.204472783046295
 30
0.0
 10
35.09520688181727
 20
2.63663684947648
 30
0.0
 10
35.92836656604704
 20
1.954497304513998
 30
0.0
 10
36.75979579646793
 20
1.185886274279089
 30
0.0
 10
37.60589441958835
 20
0.3498747943732297
 30
0.0
 10
38.46855372514877
 20
-0.5164772961175974
 30
0.0
 10
39.34789233343844
 20
-1.379898105705299
 30
0.0
 10
39.9334385210372
 20
-1.892792029122502
 30
0.0
 10
40.22599999999991
 20
-2.149053632329701
 30
0.0
  0
SPLINE
  5
D8
330
1F
100
AcDbEntity
  8
0
  6
Continuous
 62
     1
370
    15
100
AcDbSpline
210
0.0
220
0.0
230
1.0
 70
     8
 71
     3
 72
    28
 73
    24
 74
     0
 42
0.000000001
 43
0.00000001
 40
0.0
 40
0.0
 40
0.0
 40
0.0
 40
0.1249999999999996
 40
0.1249999999999996
 40
0.2499999999999993
 40
0.2499999999999993
 40
0.3749999999999989
 40
0.3749999999999989
 40
0.4999999999999986
 40
0.4999999999999986
 40
0.5624999999999983
 40
0.5624999999999983
 40
0.6249999999999982
 40
0.6249999999999982
 40
0.687499999999998
 40
0.687499999999998
 40
0.7499999999999978
 40
0.7499999999999978
 40
0.8124999999999977
 40
0.8124999999999977
 40
0.8749999999999974
 40
0.8749999999999974
 40
1.0
 40
1.0
 40
1.0
 40
1.0
 10
40.22600000000001
 20
1.815007538346693
 30
0.0
 10
40.38330023534583
 20
1.675458734880385
 30
0.0
 10
40.53074082915461
 20
1.51934375574977
 30
0.0
 10
40.81401786545899
 20
1.182007129396417
 30
0.0
 10
40.94661189585835
 20
1.004955650759627
 30
0.0
 10
41.18252561361186
 20
0.6417547370172276
 30
0.0
 10
41.28587617297783
 20
0.4548416421710428
 30
0.0
 10
41.44621296871637
 20
0.0754328122792346
 30
0.0
 10
41.50458031639152
 20
-0.1210587176934339
 30
0.0
 10
41.55210174784634
 20
-0.428101652928205
 30
0.0
 10
41.56161866812371
 20
-0.5335457351753226
 30
0.0
 10
41.56511298845802
 20
-0.7490119796699264
 30
0.0
 10
41.55938031274012
 20
-0.8594117141748159
 30
0.0
 10
41.5230034590962
 20
-1.077648891378082
 30
0.0
 10
41.49200348377953
 20
-1.18676179768904
 30
0.0
 10
41.38390542253303
 20
-1.36533408948015
 30
0.0
 10
41.30786498915057
 20
-1.425030528239474
 30
0.0
 10
41.13924838252252
 20
-1.469155893286489
 30
0.0
 10
41.05114814903435
 20
-1.457542363545355
 30
0.0
 10
40.87909598233432
 20
-1.40223409086486
 30
0.0
 10
40.79319033228435
 20
-1.357525894080091
 30
0.0
 10
40.54374928417607
 20
-1.198505566826006
 30
0.0
 10
40.38284664328781
 20
-1.058322593377663
 30
0.0
 10
40.226
 20
-0.9059866632477911
 30
0.0
  0
SPLINE
  5
D9
330
1F
100
AcDbEntity
  8
0
  6
Continuous
 62
     1
370
    15
100
AcDbSpline
210
0.0
220
0.0
230
1.0
 70
     8
 71
     3
 72
    16
 73
    12
 74
     0
 42
0.000000001
 43
0.00000001
 40
0.0
 40
0.0
 40
0.0
 40
0.0
 40
0.1228118652325548
 40
0.2458013944070273
 40
0.3686247714582412
 40
0.4848600421539606
 40
0.6011847118407638
 40
0.7177339777688454
 40
0.8340645239037168
 40
0.9502989787176596
 40
1.0
 40
1.0
 40
1.0
 40
1.0
 10
40.22599999999991
 20
-0.9059866632477014
 30
0.0
 10
39.93343851727684
 20
-0.6167128754914396
 30
0.0
 10
39.34789232215192
 20
-0.0377468263947154
 30
0.0
 10
38.46855377034554
 20
0.8430280328432596
 30
0.0
 10
37.60589425419627
 20
1.665578729820543
 30
0.0
 10
36.75979637738288
 20
2.397427985694876
 30
0.0
 10
35.92836439035779
 20
3.010222307893636
 30
0.0
 10
35.09521501348107
 20
3.493354989134372
 30
0.0
 10
34.26370315093167
 20
3.814021979415576
 30
0.0
 10
33.59180045508624
 20
3.969292895018642
 30
0.0
 10
33.19637177188124
 20
3.95247807335855
 30
0.0
 10
33.07793290719738
 20
3.947441695190074
 30
0.0
  0
SPLINE
  5
DA
330
1F
100
AcDbEntity
  8
0
  6
Continuous
 62
     1
370
    15
100
AcDbSpline
210
0.0
220
0.0
230
1.0
 70
     8
 71
     3
 72
    22
 73
    18
 74
     0
 42
0.000000001
 43
0.00000001
 40
0.0
 40
0.0
 40
0.0
 40
0.0
 40
0.0184642852502927
 40
0.0876481602373557
 40
0.156916662347329
 40
0.2262801538464752
 40
0.2954969340696032
 40
0.3646879900822415
 40
0.4339989510125128
 40
0.503330956275924
 40
0.5725280549166106
 40
0.6417349194483267
 40
0.7110871750515272
 40
0.780373720529593
 40
0.8535378487825092
 40
0.9267177017148309
 40
1.0
 40
1.0
 40
1.0
 40
1.0
 10
22.00877963377502
 20
-3.708552505019762
 30
0.0
 10
21.93487333874366
 20
-3.738755304088669
 30
0.0
 10
21.58404736840964
 20
-3.882125043914707
 30
0.0
 10
20.95653170325471
 20
-3.974838102511673
 30
0.0
 10
20.12466690651875
 20
-3.970155847024008
 30
0.0
 10
19.29162789365656
 20
-3.779477561514188
 30
0.0
 10
18.46045372353288
 20
-3.426444973147874
 30
0.0
 10
17.62959521244553
 20
-2.922440633478072
 30
0.0
 10
16.79723011164124
 20
-2.291172110586748
 30
0.0
 10
15.96459166148976
 20
-1.559838894611101
 30
0.0
 10
15.13365536328508
 20
-0.7594967691258145
 30
0.0
 10
14.30260808851802
 20
0.0742291857937608
 30
0.0
 10
13.46968341012622
 20
0.9033679353794734
 30
0.0
 10
12.62178711274957
 20
1.709648121533118
 30
0.0
 10
11.75899696801081
 20
2.448689287389988
 30
0.0
 10
10.88019347449768
 20
3.093953434174565
 30
0.0
 10
10.29353460755339
 20
3.392094764800336
 30
0.0
 10
10.00000000000001
 20
3.541269700034019
 30
0.0
  0
SPLINE
  5
DB
330
1F
100
AcDbEntity
  8
0
  6
Continuous
 62
     1
370
    15
100
AcDbSpline
210
0.0
220
0.0
230
1.0
 70
    24
 71
     3
 72
     9
 73
     5
 74
     0
 42
0.000000001
 43
0.00000001
 40
0.0
 40
0.0
 40
0.0
 40
0.0
 40
0.3129091444190298
 40
1.0
 40
1.0
 40
1.0
 40
1.0
 10
9.999999999999972
 20
3.857914754240302
 30
0.0
 10
9.999999999999982
 20
3.827720395704974
 30
0.0
 10
10.00000000000002
 20
3.731224786439895
 30
0.0
 10
10.00000000000001
 20
3.649797174379626
 30
0.0
 10
10.0
 20
3.593849006741221
 30
0.0
  0
SPLINE
  5
DC
330
1F
100
AcDbEntity
  8
0
  6
Continuous
 62
     1
370
    15
100
AcDbSpline
210
0.0
220
0.0
230
1.0
 70
     8
 71
     3
 72
    23
 73
    19
 74
     0
 42
0.000000001
 43
0.00000001
 40
0.0
 40
0.0
 40
0.0
 40
0.0
 40
0.0656324802514583
 40
0.1311732092511829
 40
0.1966998550448029
 40
0.258753692522512
 40
0.3208663807539653
 40
0.382848855047657
 40
0.4448225828955477
 40
0.5069171346867225
 40
0.5689928389279223
 40
0.6309611549277223
 40
0.6929525098301831
 40
0.7550752610609694
 40
0.8171129386879682
 40
0.8790748232775871
 40
0.9410914988031281
 40
1.0
 40
1.0
 40
1.0
 40
1.0
 10
9.999999999999966
 20
3.857914754240302
 30
0.0
 10
10.29353460755181
 20
3.90842540427745
 30
0.0
 10
10.88019347449302
 20
4.009376092737662
 30
0.0
 10
11.75899696802927
 20
3.914242996075749
 30
0.0
 10
12.62178711268185
 20
3.646077678222349
 30
0.0
 10
13.46968341036428
 20
3.212420040082713
 30
0.0
 10
14.30260808762782
 20
2.647761086226908
 30
0.0
 10
15.13365536659976
 20
1.966197593178393
 30
0.0
 10
15.96459164910999
 20
1.198579125752643
 30
0.0
 10
16.79723015793797
 20
0.3793201590462637
 30
0.0
 10
17.62959503985954
 20
-0.4567425630472568
 30
0.0
 10
18.46045436649674
 20
-1.273375150883764
 30
0.0
 10
19.29162549079935
 20
-2.034382560563985
 30
0.0
 10
20.12467588998909
 20
-2.70507601716775
 30
0.0
 10
20.95649824725675
 20
-3.259200546339765
 30
0.0
 10
21.78724631620076
 20
-3.666898947259423
 30
0.0
 10
22.60445195243739
 20
-3.923610946790988
 30
0.0
 10
23.14545562104224
 20
-3.951087037558767
 30
0.0
 10
23.40900466949787
 20
-3.964471970041394
 30
0.0
  0
SPLINE
  5
DD
330
1F
100
AcDbEntity
  8
0
  6
Continuous
 62
     1
370
    15
100
AcDbSpline
210
0.0
220
0.0
230
1.0
 70
     8
 71
     3
 72
    14
 73
    10
 74
     0
 42
0.000000001
 43
0.00000001
 40
0.0
 40
0.0
 40
0.0
 40
0.0
 40
0.1075159893432108
 40
0.2524420476272996
 40
0.3970888261776671
 40
0.5416244393484061
 40
0.694352195799114
 40
0.8472865582040313
 40
1.0
 40
1.0
 40
1.0
 40
1.0
 10
34.47700017952115
 20
3.708939937850235
 30
0.0
 10
34.68292189892679
 20
3.777653736335596
 30
0.0
 10
35.16641557103312
 20
3.938990223083832
 30
0.0
 10
35.92838124117659
 20
3.994137604966129
 30
0.0
 10
36.75979187816851
 20
3.900247232779012
 30
0.0
 10
37.60589553516579
 20
3.625529191825021
 30
0.0
 10
38.46855342029433
 20
3.176183998116383
 30
0.0
 10
39.34789240956646
 20
2.57050203791846
 30
0.0
 10
39.93343854640098
 20
2.06671766064692
 30
0.0
 10
40.22599999999991
 20
1.815007538346776
 30
0.0
  0
SPLINE
  5
DE
330
1F
100
AcDbEntity
  8
0
  6
Continuous
 62
     1
370
    15
100
AcDbSpline
210
0.0
220
0.0
230
1.0
 70
     8
 71
     3
 72
    25
 73
    21
 74
     0
 42
0.000000001
 43
0.00000001
 40
0.0
 40
0.0
 40
0.0
 40
0.0
 40
0.0153938875994389
 40
0.0753040494043431
 40
0.1352909346785721
 40
0.1953542652831409
 40
0.2552903076506948
 40
0.3152075284432467
 40
0.3752320068894318
 40
0.4352657723106906
 40
0.4951856094366384
 40
0.555117358514228
 40
0.6151758241971278
 40
0.6751705218775116
 40
0.7350816192738574
 40
0.7950353449218005
 40
0.8551075092937008
 40
0.9150703214938367
 40
0.9749801573199074
 40
1.0
 40
1.0
 40
1.0
 40
1.0
 10
34.47700017952112
 20
-3.708939937850225
 30
0.0
 10
34.4058475437475
 20
-3.738116534979602
 30
0.0
 10
34.05778201676909
 20
-3.880843048830557
 30
0.0
 10
33.43299706269406
 20
-3.973976014907074
 30
0.0
 10
32.60107628461245
 20
-3.971197943906539
 30
0.0
 10
31.7680684863756
 20
-3.782164870512128
 30
0.0
 10
30.93692588861608
 20
-3.430719035052283
 30
0.0
 10
30.10605047363373
 20
-2.928089200484106
 30
0.0
 10
29.27361649872437
 20
-2.298004259225851
 30
0.0
 10
28.44104309607292
 20
-1.567471683483988
 30
0.0
 10
27.61012897231366
 20
-0.7676369004187349
 30
0.0
 10
26.77904858858242
 20
0.0658894087860482
 30
0.0
 10
25.94610190951488
 20
0.8953966257996568
 30
0.0
 10
25.11411343473254
 20
1.686427313221279
 30
0.0
 10
24.28332640354058
 20
2.404046453784272
 30
0.0
 10
23.45193553978961
 20
3.015686298473263
 30
0.0
 10
22.6187906410947
 20
3.497428234447471
 30
0.0
 10
21.78723247055917
 20
3.816348381845434
 30
0.0
 10
21.11807872221104
 20
3.970031429683049
 30
0.0
 10
20.7254274318714
 20
3.952687573236888
 30
0.0
 10
20.60975439877826
 20
3.947578163106276
 30
0.0
  0
SPLINE
  5
DF
330
1F
100
AcDbEntity
  8
0
  6
Continuous
 62
     1
370
    15
100
AcDbSpline
210
0.0
220
0.0
230
1.0
 70
     8
 71
     3
 72
     9
 73
     5
 74
     0
 42
0.000000001
 43
0.00000001
 40
0.0
 40
0.0
 40
0.0
 40
0.0
 40
0.9360483373690999
 40
0.9999999999999999
 40
0.9999999999999999
 40
0.9999999999999999
 40
0.9999999999999999
 10
9.999999999999968
 20
-3.857914754240302
 30
0.0
 10
10.2935796882966
 20
-3.925004745457072
 30
0.0
 10
10.60721700442259
 20
-3.996678385095531
 30
0.0
 10
10.92052530705401
 20
-3.964614339399475
 30
0.0
 10
10.94056189392335
 20
-3.96256379036654
 30
0.0
  0
SPLINE
  5
E0
330
1F
100
AcDbEntity
  8
0
  6
Continuous
 62
     1
370
    15
100
AcDbSpline
210
0.0
220
0.0
230
1.0
 70
     8
 71
     3
 72
    24
 73
    20
 74
     0
 42
0.000000001
 43
0.00000001
 40
0.0
 40
0.0
 40
0.0
 40
0.0
 40
0.0439731388433017
 40
0.1040446068853536
 40
0.1639976375763378
 40
0.2239080405098526
 40
0.283902042758347
 40
0.3439598122701881
 40
0.4038908666455611
 40
0.4638100092073704
 40
0.5238430787438852
 40
0.583866861412976
 40
0.643783387671717
 40
0.7037187352872885
 40
0.7637813696644066
 40
0.8237675595973045
 40
0.8836770269502222
 40
0.9436360216129496
 40
1.0
 40
1.0
 40
1.0
 40
1.0
 10
22.008779633775
 20
3.708552505019772
 30
0.0
 10
22.21197191496445
 20
3.776697230476308
 30
0.0
 10
22.69274407666597
 20
3.93793409820825
 30
0.0
 10
23.45195314196911
 20
3.994147316227637
 30
0.0
 10
24.283321694961
 20
3.90216958720778
 30
0.0
 10
25.1141146978747
 20
3.63365918642399
 30
0.0
 10
25.94610157065679
 20
3.20767273880051
 30
0.0
 10
26.77904867837081
 20
2.641476604440385
 30
0.0
 10
27.61012895139464
 20
1.958978815257337
 30
0.0
 10
28.44104309007021
 20
1.190663757215472
 30
0.0
 10
29.27361654379679
 20
0.3710142601909816
 30
0.0
 10
30.10605029954007
 20
-0.4649761005780814
 30
0.0
 10
30.936926538752
 20
-1.281242987449206
 30
0.0
 10
31.76806605642916
 20
-2.04152957858063
 30
0.0
 10
32.60108536990886
 20
-2.711200632371826
 30
0.0
 10
33.43296322461941
 20
-3.264013564803623
 30
0.0
 10
34.26371680628498
 20
-3.67013207501041
 30
0.0
 10
35.07813353373111
 20
-3.924616690372956
 30
0.0
 10
35.61638438233744
 20
-3.950950000014534
 30
0.0
 10
35.87719235863183
 20
-3.963709733165975
 30
0.0
  0
LINE
  5
E3
330
1F
100
AcDbEntity
  8
0
  6
Continuous
 62
     1
370
    15
100
AcDbLine
 10
41.74999999999999
 20
0.0000000000000037
 30
0.0
 11
41.74999999999997
 21
3.20675
 31
0.0
  0
LINE
  5
E4
330
1F
100
AcDbEntity
  8
0
  6
Continuous
 62
     1
370
    15
100
AcDbLine
 10
41.74999999999997
 20
-3.206749999999993
 30
0.0
 11
41.74999999999999
 21
0.0000000000000037
 31
0.0
  0
SPLINE
  5
E5
330
1F
100
AcDbEntity
  8
0
  6
Continuous
 62
     4
370
    15
100
AcDbSpline
210
0.0
220
0.0
230
1.0
 70
     8
 71
     3
 72
     9
 73
     5
 74
     0
 42
0.000000001
 43
0.00000001
 40
0.0
 40
0.0
 40
0.0
 40
0.0
 40
0.0163495027871448
 40
1.0
 40
1.0
 40
1.0
 40
1.0
 10
8.767264690024113
 20
-3.804111739672541
 30
0.0
 10
8.767105565287775
 20
-3.804734274597607
 30
0.0
 10
8.757372869534818
 20
-3.842810963116599
 30
0.0
 10
8.750101634258447
 20
-3.883372215782094
 30
0.0
 10
8.742949280063497
 20
-3.923270312134084
 30
0.0
  0
LINE
  5
E6
330
1F
100
AcDbEntity
  8
0
  6
Continuous
 62
     8
370
    15
100
AcDbLine
 10
40.226
 20
3.96406117067647
 30
0.0
 11
40.226
 21
3.968750000000004
 31
0.0
  0
LINE
  5
E8
330
1F
100
AcDbEntity
  8
중심선
100
AcDbLine
 10
-37.45
 20
0.0
 30
0.0
 11
44.75
 21
0.0
 31
0.0
  0
CIRCLE
  5
E9
330
1F
100
AcDbEntity
  8
외형선
100
AcDbCircle
 10
0.0
 20
0.0
 30
0.0
 40
3.000000000000001
  0
INSERT
  5
EA
330
1F
100
AcDbEntity
  8
0
  6
Continuous
 62
     7
100
AcDbBlockReference
 66
     1
  2
블럭10
 10
-16.62936049909349
 20
-51.78679627639982
 30
0.0
  0
ATTRIB
  5
EB
330
EA
100
AcDbEntity
  8
FORMAT
 62
     2
100
AcDbText
 10
-27.68038085127795
 20
-49.71142936356762
 30
0.0
 40
4.233333333333333
  1
GMG22906[ 6 FLUTE ]
 41
0.75
  7
SLDTEXTSTYLE0
 11
-27.68038085127795
 21
-51.82809603023429
 31
0.0
100
AcDbAttribute
  2
AUTOATTR0
 70
     0
 74
     1
  0
SEQEND
  5
EC
330
EA
100
AcDbEntity
  8
0
  6
Continuous
 62
     7
  0
HATCH
  5
ED
330
1F
100
AcDbEntity
  8
중심선
100
AcDbHatch
 10
0.0
 20
0.0
 30
0.0
210
0.0
220
0.0
230
1.0
  2
SOLID
 70
     1
 71
     0
 91
        1
 92
        0
 93
        4
 72
     1
 10
-10.91445119471263
 20
-35.53962197475588
 11
-14.36072643854992
 21
-35.53962197475588
 72
     1
 10
-14.36072643854992
 20
-35.53962197475588
 11
-16.48895629775394
 21
-38.07594755532848
 72
     1
 10
-16.48895629775394
 20
-38.07594755532848
 11
-13.04264796880351
 21
-38.07590812602599
 72
     1
 10
-13.04264796880351
 20
-38.07590812602599
 11
-10.91445119471263
 21
-35.53962197475588
 97
        0
 75
     0
 76
     1
 98
        1
 10
0.0004859200744764
 20
0.2622744311706913
  0
HATCH
  5
EE
330
1F
100
AcDbEntity
  8
중심선
100
AcDbHatch
 10
0.0
 20
0.0
 30
0.0
210
0.0
220
0.0
230
1.0
  2
SOLID
 70
     1
 71
     0
 91
        1
 92
        0
 93
        4
 72
     1
 10
-5.901687203676683
 20
-35.53962197475588
 11
-9.347962447513964
 21
-35.53962197475588
 72
     1
 10
-9.347962447513964
 20
-35.53962197475588
 11
-13.87910045587135
 21
-40.93962197475589
 72
     1
 10
-13.87910045587135
 20
-40.93962197475589
 11
-10.43282521203407
 21
-40.93962197475589
 72
     1
 10
-10.43282521203407
 20
-40.93962197475589
 11
-5.901687203676683
 21
-35.53962197475588
 97
        0
 75
     0
 76
     1
 98
        1
 10
0.0004859200744764
 20
0.2622744311706913
  0
HATCH
  5
EF
330
1F
100
AcDbEntity
  8
중심선
100
AcDbHatch
 10
0.0
 20
0.0
 30
0.0
210
0.0
220
0.0
230
1.0
  2
SOLID
 70
     1
 71
     0
 91
        1
 92
        0
 93
        4
 72
     1
 10
-0.8889232126407867
 20
-35.53962197475591
 11
-4.335198456477903
 21
-35.53962197475588
 72
     1
 10
-4.335198456477903
 20
-35.53962197475588
 11
-11.38363535836715
 21
-43.9396219747559
 72
     1
 10
-11.38363535836715
 20
-43.9396219747559
 11
-7.937360114529869
 21
-43.9396219747559
 72
     1
 10
-7.937360114529869
 20
-43.9396219747559
 11
-0.8889232126407869
 21
-35.53962197475591
 97
        0
 75
     0
 76
     1
 98
        1
 10
0.0004859200744764
 20
0.2622744311706913
  0
HATCH
  5
F0
330
1F
100
AcDbEntity
  8
중심선
100
AcDbHatch
 10
0.0
 20
0.0
 30
0.0
210
0.0
220
0.0
230
1.0
  2
SOLID
 70
     1
 71
     0
 91
        1
 92
        0
 93
        6
 72
     3
 10
3.910967218371413
 20
-39.73962197480716
 11
3.960054785062283
 21
1.540882976769353E-10
 40
0.3939339440162628
 50
17.09539180608437
 51
320.0019657685081
 73
     0
 72
     1
 10
5.593966874072008
 20
-38.32751597939419
 11
7.899268747773046
 21
-36.39318926934626
 72
     3
 10
3.910967218318566
 20
-39.73962197475603
 11
6.600054785286829
 21
-1.278976924368180E-13
 40
0.636358354079598
 50
39.9987384933741
 51
368.4976242363725
 73
     1
 72
     1
 10
10.33629971021917
 20
-38.7796219746859
 11
2.591034525154488
 21
-38.77962197468587
 72
     1
 10
2.591034525154488
 20
-38.77962197468587
 11
2.591009480708554
 21
-40.6996219746858
 72
     1
 10
2.591009480708554
 20
-40.6996219746858
 11
7.032389250180591
 21
-40.69962197468577
 97
        0
 75
     0
 76
     1
 98
        1
 10
0.0004859200744764
 20
0.2622744311706913
  0
POINT
  5
F1
330
1F
100
AcDbEntity
  8
치수문자_일반주서
100
AcDbPoint
 10
0.0
 20
0.0
 30
0.0
  0
DIMENSION
  5
F2
330
1F
100
AcDbEntity
  8
치수문자_일반주서
100
AcDbDimension
  2
_D
 10
58.86489584471404
 20
3.959912088063349
 30
0.0
 11
58.86489584471406
 21
0.2883583034097482
 31
0.0
 70
   160
  1
%%c<>
 71
     2
 42
7.928662088063275
 52
-270.0
  3
SLDDIMSTYLE0
100
AcDbAlignedDimension
 13
40.60699999999999
 23
-3.968749999999995
 33
0.0
 14
40.21965012894107
 24
3.959912088063279
 34
0.0
 50
90.0000000000002
100
AcDbRotatedDimension
1001
ACAD
1000
DSTYLE
1002
{
1070
   171
1070
     4
1070
   273
1070
     7
1002
}
  0
DIMENSION
  5
107
330
1F
100
AcDbEntity
  8
치수문자_일반주서
100
AcDbDimension
  2
_D_1
 10
41.74999999999999
 20
36.62430141807178
 30
0.0
 11
3.649999999999992
 21
36.62430141807178
 31
0.0
 70
   160
  1
<>
 71
     2
 42
76.2
  3
SLDDIMSTYLE1
100
AcDbAlignedDimension
 13
-34.45000000000002
 23
3.46875
 33
0.0
 14
41.74999999999999
 24
2.444750000000004
 34
0.0
 50
0.0000000000000053
100
AcDbRotatedDimension
1001
ACAD
1000
DSTYLE
1002
{
1070
   171
1070
     4
1070
   273
1070
     7
1002
}
  0
DIMENSION
  5
11B
330
1F
100
AcDbEntity
  8
치수문자_일반주서
100
AcDbDimension
  2
_D_2
 10
9.999999999999968
 20
20.07174453033794
 30
0.0
 11
25.52575141487685
 21
20.07174453033794
 31
0.0
 70
   160
  1
<>
 71
     2
 42
31.75000000000002
  3
SLDDIMSTYLE2
100
AcDbAlignedDimension
 13
41.74999999999999
 23
2.444750000000004
 33
0.0
 14
9.999999999999968
 24
-3.857914754240302
 34
0.0
100
AcDbRotatedDimension
1001
ACAD
1000
DSTYLE
1002
{
1070
   171
1070
     4
1070
   273
1070
     7
1002
}
  0
DIMENSION
  5
12F
330
1F
100
AcDbEntity
  8
치수문자_일반주서
100
AcDbDimension
  2
_D_3
 10
-47.45000000000002
 20
-3.968750000000049
 30
0.0
 11
-47.45000000000003
 21
-0.0000000000000014
 31
0.0
 70
   160
  1
%%c<>
 71
     2
 42
7.9375
 52
-270.0
  3
SLDDIMSTYLE0
100
AcDbAlignedDimension
 13
-33.95000000000002
 23
3.968750000000001
 33
0.0
 14
-33.95000000000002
 24
-3.968749999999999
 34
0.0
 50
90.0000000000002
100
AcDbRotatedDimension
1001
ACAD
1000
DSTYLE
1002
{
1070
   171
1070
     4
1070
   273
1070
     7
1002
}
  0
INSERT
  5
149
330
1F
100
AcDbEntity
  8
외형선
100
AcDbBlockReference
  2
SW_DOWELSYMBOL_0
 10
0.0
 20
0.0
 30
0.0
  0
ARC
  5
172
102
{ACAD_REACTORS
102
}
330
1F
100
AcDbEntity
  8
0
  6
Continuous
 62
     1
370
    15
100
AcDbCircle
 10
40.98799999999997
 20
3.20675
 30
0.0
 40
0.7619999999999998
100
AcDbArc
 50
0.0
 51
90.0
  0
LINE
  5
173
330
1F
100
AcDbEntity
  8
0
  6
Continuous
 62
     1
370
    15
100
AcDbLine
 10
40.22599999999991
 20
3.964061170676474
 30
0.0
 11
40.98799999999997
 21
3.96875
 31
0.0
  0
ARC
  5
174
330
1F
100
AcDbEntity
  8
0
  6
Continuous
 62
     1
370
    15
100
AcDbCircle
 10
40.98799999999997
 20
-3.206749999999993
 30
0.0
 40
0.7619999999999998
100
AcDbArc
 50
270.0
 51
0.0
  0
LINE
  5
175
330
1F
100
AcDbEntity
  8
0
  6
Continuous
 62
     1
370
    15
100
AcDbLine
 10
40.226
 20
-3.968749999999996
 30
0.0
 11
40.98799999999997
 21
-3.968749999999993
 31
0.0
  0
DIMENSION
  5
177
102
{ACAD_REACTORS
102
}
102
{ACAD_XDICTIONARY
360
178
102
}
330
1F
100
AcDbEntity
  8
치수문자_일반주서
100
AcDbDimension
  2
*D7
 10
40.98799999999997
 20
3.20675
 30
0.0
 11
55.54057568625177
 21
21.53394427225254
 31
0.0
 70
   164
  1
<>
 71
     5
 42
0.7620000000000025
  3
SLDDIMSTYLE2
100
AcDbRadialDimension
 15
41.46184678209273
 25
3.803502232589319
 35
0.0
 40
0.0
1001
ACAD
1000
DSTYLE
1002
{
1070
   171
1070
     3
1070
   273
1070
     2
1002
}
1001
ACAD_DSTYLE_DIMRADIAL_EXTENSION
1070
   387
1070
     1
1070
   388
1040
0.0
1070
   390
1040
1.570796326794897
  0
ENDSEC
  0
SECTION
  2
OBJECTS
  0
DICTIONARY
  5
C
330
0
100
AcDbDictionary
281
     1
  3
ACAD_GROUP
350
D
  3
ACAD_IMAGE_VARS
350
16D
  3
ACAD_LAYOUT
350
1A
  3
ACAD_MLINESTYLE
350
17
  3
ACAD_PLOTSETTINGS
350
19
  3
ACAD_PLOTSTYLENAME
350
E
  3
ACAD_SCALELIST
350
47
  3
APPDATA
350
16B
  3
DWGPROPS
350
184
  0
DICTIONARY
  5
178
330
177
100
AcDbDictionary
280
     1
281
     1
  0
DICTIONARY
  5
D
102
{ACAD_REACTORS
330
C
102
}
330
C
100
AcDbDictionary
281
     1
  0
RASTERVARIABLES
  5
16D
102
{ACAD_REACTORS
330
C
102
}
330
C
100
AcDbRasterVariables
 90
        0
 70
     1
 71
     1
 72
     1
  0
DICTIONARY
  5
1A
102
{ACAD_REACTORS
330
C
102
}
330
C
100
AcDbDictionary
281
     1
  3
Layout1
350
1E
  3
Layout2
350
26
  3
Model
350
22
  0
DICTIONARY
  5
17
102
{ACAD_REACTORS
330
C
102
}
330
C
100
AcDbDictionary
281
     1
  3
Standard
350
18
  0
DICTIONARY
  5
19
102
{ACAD_REACTORS
330
C
102
}
330
C
100
AcDbDictionary
281
     1
  0
ACDBDICTIONARYWDFLT
  5
E
102
{ACAD_REACTORS
330
C
102
}
330
C
100
AcDbDictionary
281
     1
  3
Normal
350
F
100
AcDbDictionaryWithDefault
340
F
  0
DICTIONARY
  5
47
102
{ACAD_REACTORS
330
C
102
}
330
C
100
AcDbDictionary
281
     1
  3
A0
350
48
  3
A1
350
49
  3
A2
350
4A
  3
A3
350
4B
  3
A4
350
4C
  3
A5
350
4D
  3
A6
350
4E
  3
A7
350
4F
  3
A8
350
50
  3
A9
350
51
  3
B0
350
52
  3
B1
350
53
  3
B2
350
54
  3
B3
350
55
  3
B4
350
56
  3
B5
350
57
  3
B6
350
58
  3
B7
350
59
  3
B8
350
5A
  3
B9
350
5B
  3
C0
350
5C
  3
C1
350
5D
  3
C2
350
5E
  3
C3
350
5F
  3
C4
350
60
  3
C5
350
61
  3
C6
350
62
  3
C7
350
63
  3
C8
350
64
  3
C9
350
65
  3
D0
350
66
  3
D1
350
67
  3
D2
350
68
  0
DICTIONARY
  5
16B
102
{ACAD_REACTORS
330
C
102
}
330
C
100
AcDbDictionary
281
     1
  0
XRECORD
  5
184
102
{ACAD_REACTORS
330
C
102
}
330
C
100
AcDbXrecord
280
     1
  1
DWGPROPS COOKIE
  2

  3

  4

  6

  7

  8
12016016
  9

300
=
301
=
302
=
303
=
304
=
305
=
306
=
307
=
308
=
309
=
 40
0.0
 41
2458236.364795185
 42
2458241.200306504
  1

 90
        0
  0
LAYOUT
  5
1E
102
{ACAD_REACTORS
330
1A
102
}
330
1A
100
AcDbPlotSettings
  1

  2
none_device
  4

  6

 40
0.0
 41
0.0
 42
0.0
 43
0.0
 44
0.0
 45
0.0
 46
0.0
 47
0.0
 48
0.0
 49
0.0
140
0.0
141
0.0
142
1.0
143
1.0
 70
   688
 72
     1
 73
     0
 74
     5
  7

 75
    16
147
1.0
148
0.0
149
0.0
100
AcDbLayout
  1
Layout1
 70
     1
 71
     1
 10
0.0
 20
0.0
 11
420.0
 21
297.0
 12
0.0
 22
0.0
 32
0.0
 14
1.000000000000000E+20
 24
1.000000000000000E+20
 34
1.000000000000000E+20
 15
-1.000000000000000E+20
 25
-1.000000000000000E+20
 35
-1.000000000000000E+20
146
0.0
 13
0.0
 23
0.0
 33
0.0
 16
1.0
 26
0.0
 36
0.0
 17
0.0
 27
1.0
 37
0.0
 76
     0
330
1B
  0
LAYOUT
  5
26
102
{ACAD_REACTORS
330
1A
102
}
330
1A
100
AcDbPlotSettings
  1

  2
none_device
  4

  6

 40
0.0
 41
0.0
 42
0.0
 43
0.0
 44
0.0
 45
0.0
 46
0.0
 47
0.0
 48
0.0
 49
0.0
140
0.0
141
0.0
142
1.0
143
1.0
 70
   688
 72
     1
 73
     0
 74
     5
  7

 75
    16
147
1.0
148
0.0
149
0.0
100
AcDbLayout
  1
Layout2
 70
     1
 71
     2
 10
0.0
 20
0.0
 11
0.0
 21
0.0
 12
0.0
 22
0.0
 32
0.0
 14
0.0
 24
0.0
 34
0.0
 15
0.0
 25
0.0
 35
0.0
146
0.0
 13
0.0
 23
0.0
 33
0.0
 16
1.0
 26
0.0
 36
0.0
 17
0.0
 27
1.0
 37
0.0
 76
     0
330
23
  0
LAYOUT
  5
22
102
{ACAD_REACTORS
330
1A
102
}
330
1A
100
AcDbPlotSettings
  1

  2
none_device
  4
ANSI_A_(11.00_x_8.50_Inches)
  6

 40
6.35
 41
19.05
 42
6.35000508
 43
19.05000254
 44
279.4
 45
215.9
 46
122.9750942021472
 47
92.79030220530753
 48
0.0
 49
0.0
140
0.0
141
0.0
142
0.0859791389141407
143
1.0
 70
  1696
 72
     0
 73
     0
 74
     0
  7

 75
     0
147
0.0235690232323232
148
0.0
149
0.0
100
AcDbLayout
  1
Model
 70
     1
 71
     0
 10
0.0
 20
0.0
 11
420.0
 21
297.0
 12
0.0
 22
0.0
 32
0.0
 14
-51.82500000000008
 24
-49.71142936356763
 34
0.0
 15
64.3824509262537
 25
40.99930141807178
 35
0.0
146
0.0
 13
0.0
 23
0.0
 33
0.0
 16
1.0
 26
0.0
 36
0.0
 17
0.0
 27
1.0
 37
0.0
 76
     0
330
1F
331
29
  0
MLINESTYLE
  5
18
102
{ACAD_REACTORS
330
17
102
}
330
17
100
AcDbMlineStyle
  2
Standard
 70
     0
  3

 62
   256
 51
90.0
 52
90.0
 71
     2
 49
0.5
 62
   256
  6
BYLAYER
 49
-0.5
 62
   256
  6
BYLAYER
  0
ACDBPLACEHOLDER
  5
F
102
{ACAD_REACTORS
330
E
102
}
330
E
  0
SCALE
  5
48
102
{ACAD_REACTORS
330
47
102
}
330
47
100
AcDbScale
 70
     0
300
1:1
140
1.0
141
1.0
290
     1
  0
SCALE
  5
49
102
{ACAD_REACTORS
330
47
102
}
330
47
100
AcDbScale
 70
     0
300
1:2
140
1.0
141
2.0
290
     0
  0
SCALE
  5
4A
102
{ACAD_REACTORS
330
47
102
}
330
47
100
AcDbScale
 70
     0
300
1:4
140
1.0
141
4.0
290
     0
  0
SCALE
  5
4B
102
{ACAD_REACTORS
330
47
102
}
330
47
100
AcDbScale
 70
     0
300
1:5
140
1.0
141
5.0
290
     0
  0
SCALE
  5
4C
102
{ACAD_REACTORS
330
47
102
}
330
47
100
AcDbScale
 70
     0
300
1:8
140
1.0
141
8.0
290
     0
  0
SCALE
  5
4D
102
{ACAD_REACTORS
330
47
102
}
330
47
100
AcDbScale
 70
     0
300
1:10
140
1.0
141
10.0
290
     0
  0
SCALE
  5
4E
102
{ACAD_REACTORS
330
47
102
}
330
47
100
AcDbScale
 70
     0
300
1:16
140
1.0
141
16.0
290
     0
  0
SCALE
  5
4F
102
{ACAD_REACTORS
330
47
102
}
330
47
100
AcDbScale
 70
     0
300
1:20
140
1.0
141
20.0
290
     0
  0
SCALE
  5
50
102
{ACAD_REACTORS
330
47
102
}
330
47
100
AcDbScale
 70
     0
300
1:30
140
1.0
141
30.0
290
     0
  0
SCALE
  5
51
102
{ACAD_REACTORS
330
47
102
}
330
47
100
AcDbScale
 70
     0
300
1:40
140
1.0
141
40.0
290
     0
  0
SCALE
  5
52
102
{ACAD_REACTORS
330
47
102
}
330
47
100
AcDbScale
 70
     0
300
1:50
140
1.0
141
50.0
290
     0
  0
SCALE
  5
53
102
{ACAD_REACTORS
330
47
102
}
330
47
100
AcDbScale
 70
     0
300
1:100
140
1.0
141
100.0
290
     0
  0
SCALE
  5
54
102
{ACAD_REACTORS
330
47
102
}
330
47
100
AcDbScale
 70
     0
300
2:1
140
2.0
141
1.0
290
     0
  0
SCALE
  5
55
102
{ACAD_REACTORS
330
47
102
}
330
47
100
AcDbScale
 70
     0
300
4:1
140
4.0
141
1.0
290
     0
  0
SCALE
  5
56
102
{ACAD_REACTORS
330
47
102
}
330
47
100
AcDbScale
 70
     0
300
8:1
140
8.0
141
1.0
290
     0
  0
SCALE
  5
57
102
{ACAD_REACTORS
330
47
102
}
330
47
100
AcDbScale
 70
     0
300
10:1
140
10.0
141
1.0
290
     0
  0
SCALE
  5
58
102
{ACAD_REACTORS
330
47
102
}
330
47
100
AcDbScale
 70
     0
300
100:1
140
100.0
141
1.0
290
     0
  0
SCALE
  5
59
102
{ACAD_REACTORS
330
47
102
}
330
47
100
AcDbScale
 70
     0
300
1/128" = 1'-0"
140
0.0078125
141
12.0
290
     0
  0
SCALE
  5
5A
102
{ACAD_REACTORS
330
47
102
}
330
47
100
AcDbScale
 70
     0
300
1/64" = 1'-0"
140
0.015625
141
12.0
290
     0
  0
SCALE
  5
5B
102
{ACAD_REACTORS
330
47
102
}
330
47
100
AcDbScale
 70
     0
300
1/32" = 1'-0"
140
0.03125
141
12.0
290
     0
  0
SCALE
  5
5C
102
{ACAD_REACTORS
330
47
102
}
330
47
100
AcDbScale
 70
     0
300
1/16" = 1'-0"
140
0.0625
141
12.0
290
     0
  0
SCALE
  5
5D
102
{ACAD_REACTORS
330
47
102
}
330
47
100
AcDbScale
 70
     0
300
3/32" = 1'-0"
140
0.09375
141
12.0
290
     0
  0
SCALE
  5
5E
102
{ACAD_REACTORS
330
47
102
}
330
47
100
AcDbScale
 70
     0
300
1/8" = 1'-0"
140
0.125
141
12.0
290
     0
  0
SCALE
  5
5F
102
{ACAD_REACTORS
330
47
102
}
330
47
100
AcDbScale
 70
     0
300
3/16" = 1'-0"
140
0.1875
141
12.0
290
     0
  0
SCALE
  5
60
102
{ACAD_REACTORS
330
47
102
}
330
47
100
AcDbScale
 70
     0
300
1/4" = 1'-0"
140
0.25
141
12.0
290
     0
  0
SCALE
  5
61
102
{ACAD_REACTORS
330
47
102
}
330
47
100
AcDbScale
 70
     0
300
3/8" = 1'-0"
140
0.375
141
12.0
290
     0
  0
SCALE
  5
62
102
{ACAD_REACTORS
330
47
102
}
330
47
100
AcDbScale
 70
     0
300
1/2" = 1'-0"
140
0.5
141
12.0
290
     0
  0
SCALE
  5
63
102
{ACAD_REACTORS
330
47
102
}
330
47
100
AcDbScale
 70
     0
300
3/4" = 1'-0"
140
0.75
141
12.0
290
     0
  0
SCALE
  5
64
102
{ACAD_REACTORS
330
47
102
}
330
47
100
AcDbScale
 70
     0
300
1" = 1'-0"
140
1.0
141
12.0
290
     0
  0
SCALE
  5
65
102
{ACAD_REACTORS
330
47
102
}
330
47
100
AcDbScale
 70
     0
300
1-1/2" = 1'-0"
140
1.5
141
12.0
290
     0
  0
SCALE
  5
66
102
{ACAD_REACTORS
330
47
102
}
330
47
100
AcDbScale
 70
     0
300
3" = 1'-0"
140
3.0
141
12.0
290
     0
  0
SCALE
  5
67
102
{ACAD_REACTORS
330
47
102
}
330
47
100
AcDbScale
 70
     0
300
6" = 1'-0"
140
6.0
141
12.0
290
     0
  0
SCALE
  5
68
102
{ACAD_REACTORS
330
47
102
}
330
47
100
AcDbScale
 70
     0
300
1'-0" = 1'-0"
140
12.0
141
12.0
290
     0
  0
ENDSEC
  0
EOF
