  0
SECTION
  2
HEADER
  9
$ACADVER
  1
AC1015
  9
$ACADMAINTVER
 70
     6
  9
$DWGCODEPAGE
  3
ANSI_949
  9
$INSBASE
 10
0.0
 20
0.0
 30
0.0
  9
$EXTMIN
 10
-51.82500000000006
 20
-49.71142936356763
 30
0.0
  9
$EXTMAX
 10
64.22500606273839
 20
40.99930141807178
 30
0.0
  9
$LIMMIN
 10
0.0
 20
0.0
  9
$LIMMAX
 10
420.0
 20
297.0
  9
$ORTHOMODE
 70
     1
  9
$REGENMODE
 70
     1
  9
$FILLMODE
 70
     1
  9
$QTEXTMODE
 70
     0
  9
$MIRRTEXT
 70
     1
  9
$LTSCALE
 40
1.0
  9
$ATTMODE
 70
     1
  9
$TEXTSIZE
 40
3.5
  9
$TRACEWID
 40
1.0
  9
$TEXTSTYLE
  7
Standard
  9
$CLAYER
  8
0
  9
$CELTYPE
  6
ByLayer
  9
$CECOLOR
 62
   256
  9
$CELTSCALE
 40
1.0
  9
$DISPSILH
 70
     0
  9
$DIMSCALE
 40
1.0
  9
$DIMASZ
 40
3.302
  9
$DIMEXO
 40
1.0
  9
$DIMDLI
 40
3.75
  9
$DIMRND
 40
0.0
  9
$DIMDLE
 40
0.0
  9
$DIMEXE
 40
1.0
  9
$DIMTP
 40
0.0
  9
$DIMTM
 40
0.0
  9
$DIMTXT
 40
3.5
  9
$DIMCEN
 40
2.5
  9
$DIMTSZ
 40
0.0
  9
$DIMTOL
 70
     0
  9
$DIMLIM
 70
     0
  9
$DIMTIH
 70
     1
  9
$DIMTOH
 70
     1
  9
$DIMSE1
 70
     0
  9
$DIMSE2
 70
     0
  9
$DIMTAD
 70
     1
  9
$DIMZIN
 70
     0
  9
$DIMBLK
  1

  9
$DIMASO
 70
     1
  9
$DIMSHO
 70
     1
  9
$DIMPOST
  1

  9
$DIMAPOST
  1

  9
$DIMALT
 70
     0
  9
$DIMALTD
 70
     3
  9
$DIMALTF
 40
0.0393700787401575
  9
$DIMLFAC
 40
1.0
  9
$DIMTOFL
 70
     1
  9
$DIMTVP
 40
0.0
  9
$DIMTIX
 70
     0
  9
$DIMSOXD
 70
     0
  9
$DIMSAH
 70
     0
  9
$DIMBLK1
  1

  9
$DIMBLK2
  1

  9
$DIMSTYLE
  2
ISO-25
  9
$DIMCLRD
 70
     0
  9
$DIMCLRE
 70
     0
  9
$DIMCLRT
 70
     0
  9
$DIMTFAC
 40
1.0
  9
$DIMGAP
 40
1.524
  9
$DIMJUST
 70
     0
  9
$DIMSD1
 70
     0
  9
$DIMSD2
 70
     0
  9
$DIMTOLJ
 70
     0
  9
$DIMTZIN
 70
     0
  9
$DIMALTZ
 70
     0
  9
$DIMALTTZ
 70
     0
  9
$DIMUPT
 70
     0
  9
$DIMDEC
 70
     2
  9
$DIMTDEC
 70
     2
  9
$DIMALTU
 70
     2
  9
$DIMALTTD
 70
     3
  9
$DIMTXSTY
  7
Standard
  9
$DIMAUNIT
 70
     0
  9
$DIMADEC
 70
     2
  9
$DIMALTRND
 40
0.0
  9
$DIMAZIN
 70
     0
  9
$DIMDSEP
 70
    44
  9
$DIMATFIT
 70
     3
  9
$DIMFRAC
 70
     0
  9
$DIMLDRBLK
  1

  9
$DIMLUNIT
 70
     2
  9
$DIMLWD
 70
    -2
  9
$DIMLWE
 70
    -2
  9
$DIMTMOVE
 70
     0
  9
$LUNITS
 70
     2
  9
$LUPREC
 70
     2
  9
$SKETCHINC
 40
1.0
  9
$FILLETRAD
 40
10.0
  9
$AUNITS
 70
     0
  9
$AUPREC
 70
     2
  9
$MENU
  1
.
  9
$ELEVATION
 40
0.0
  9
$PELEVATION
 40
0.0
  9
$THICKNESS
 40
0.0
  9
$LIMCHECK
 70
     0
  9
$CHAMFERA
 40
0.0
  9
$CHAMFERB
 40
0.0
  9
$CHAMFERC
 40
0.0
  9
$CHAMFERD
 40
0.0
  9
$SKPOLY
 70
     0
  9
$TDCREATE
 40
2458236.739488241
  9
$TDUCREATE
 40
2458236.364488241
  9
$TDUPDATE
 40
2458241.580711493
  9
$TDUUPDATE
 40
2458241.205711493
  9
$TDINDWG
 40
0.0047584606
  9
$TDUSRTIMER
 40
2458241.20532169
  9
$USRTIMER
 70
     1
  9
$ANGBASE
 50
0.0
  9
$ANGDIR
 70
     0
  9
$PDMODE
 70
     0
  9
$PDSIZE
 40
-1.0
  9
$PLINEWID
 40
0.0
  9
$SPLFRAME
 70
     0
  9
$SPLINETYPE
 70
     6
  9
$SPLINESEGS
 70
     8
  9
$HANDSEED
  5
1B1
  9
$SURFTAB1
 70
     6
  9
$SURFTAB2
 70
     6
  9
$SURFTYPE
 70
     6
  9
$SURFU
 70
     6
  9
$SURFV
 70
     6
  9
$UCSBASE
  2

  9
$UCSNAME
  2

  9
$UCSORG
 10
0.0
 20
0.0
 30
0.0
  9
$UCSXDIR
 10
1.0
 20
0.0
 30
0.0
  9
$UCSYDIR
 10
0.0
 20
1.0
 30
0.0
  9
$UCSORTHOREF
  2

  9
$UCSORTHOVIEW
 70
     0
  9
$UCSORGTOP
 10
0.0
 20
0.0
 30
0.0
  9
$UCSORGBOTTOM
 10
0.0
 20
0.0
 30
0.0
  9
$UCSORGLEFT
 10
0.0
 20
0.0
 30
0.0
  9
$UCSORGRIGHT
 10
0.0
 20
0.0
 30
0.0
  9
$UCSORGFRONT
 10
0.0
 20
0.0
 30
0.0
  9
$UCSORGBACK
 10
0.0
 20
0.0
 30
0.0
  9
$PUCSBASE
  2

  9
$PUCSNAME
  2

  9
$PUCSORG
 10
0.0
 20
0.0
 30
0.0
  9
$PUCSXDIR
 10
1.0
 20
0.0
 30
0.0
  9
$PUCSYDIR
 10
0.0
 20
1.0
 30
0.0
  9
$PUCSORTHOREF
  2

  9
$PUCSORTHOVIEW
 70
     0
  9
$PUCSORGTOP
 10
0.0
 20
0.0
 30
0.0
  9
$PUCSORGBOTTOM
 10
0.0
 20
0.0
 30
0.0
  9
$PUCSORGLEFT
 10
0.0
 20
0.0
 30
0.0
  9
$PUCSORGRIGHT
 10
0.0
 20
0.0
 30
0.0
  9
$PUCSORGFRONT
 10
0.0
 20
0.0
 30
0.0
  9
$PUCSORGBACK
 10
0.0
 20
0.0
 30
0.0
  9
$USERI1
 70
     0
  9
$USERI2
 70
     0
  9
$USERI3
 70
     0
  9
$USERI4
 70
     0
  9
$USERI5
 70
     0
  9
$USERR1
 40
0.0
  9
$USERR2
 40
0.0
  9
$USERR3
 40
0.0
  9
$USERR4
 40
0.0
  9
$USERR5
 40
0.0
  9
$WORLDVIEW
 70
     1
  9
$SHADEDGE
 70
     3
  9
$SHADEDIF
 70
    70
  9
$TILEMODE
 70
     1
  9
$MAXACTVP
 70
    64
  9
$PINSBASE
 10
0.0
 20
0.0
 30
0.0
  9
$PLIMCHECK
 70
     0
  9
$PEXTMIN
 10
1.000000000000000E+20
 20
1.000000000000000E+20
 30
1.000000000000000E+20
  9
$PEXTMAX
 10
-1.000000000000000E+20
 20
-1.000000000000000E+20
 30
-1.000000000000000E+20
  9
$PLIMMIN
 10
0.0
 20
0.0
  9
$PLIMMAX
 10
0.0
 20
0.0
  9
$UNITMODE
 70
     0
  9
$VISRETAIN
 70
     1
  9
$PLINEGEN
 70
     0
  9
$PSLTSCALE
 70
     1
  9
$TREEDEPTH
 70
  3020
  9
$CMLSTYLE
  2
Standard
  9
$CMLJUST
 70
     0
  9
$CMLSCALE
 40
20.0
  9
$PROXYGRAPHICS
 70
     1
  9
$MEASUREMENT
 70
     1
  9
$CELWEIGHT
370
    -1
  9
$ENDCAPS
280
     0
  9
$JOINSTYLE
280
     0
  9
$LWDISPLAY
290
     1
  9
$INSUNITS
 70
     4
  9
$HYPERLINKBASE
  1

  9
$STYLESHEET
  1

  9
$XEDIT
290
     1
  9
$CEPSNTYPE
380
     0
  9
$PSTYLEMODE
290
     1
  9
$FINGERPRINTGUID
  2
{8BA51D27-287F-4629-AAF2-486D7E2EF2F5}
  9
$VERSIONGUID
  2
{FAEB1C32-E019-11D5-929B-00C0DF256EC4}
  9
$EXTNAMES
290
     1
  9
$PSVPSCALE
 40
0.0
  9
$OLESTARTUP
290
     0
  0
ENDSEC
  0
SECTION
  2
CLASSES
  0
CLASS
  1
ACDBDICTIONARYWDFLT
  2
AcDbDictionaryWithDefault
  3
ObjectDBX Classes
 90
        0
280
     0
281
     0
  0
CLASS
  1
VISUALSTYLE
  2
AcDbVisualStyle
  3
ObjectDBX Classes
 90
     4095
280
     0
281
     0
  0
CLASS
  1
MATERIAL
  2
AcDbMaterial
  3
ObjectDBX Classes
 90
     1153
280
     0
281
     0
  0
CLASS
  1
SCALE
  2
AcDbScale
  3
ObjectDBX Classes
 90
     1153
280
     0
281
     0
  0
CLASS
  1
SUN
  2
AcDbSun
  3
SCENEOE
 90
     1153
280
     0
281
     0
  0
CLASS
  1
ACDBPLACEHOLDER
  2
AcDbPlaceHolder
  3
ObjectDBX Classes
 90
        0
280
     0
281
     0
  0
CLASS
  1
LAYOUT
  2
AcDbLayout
  3
ObjectDBX Classes
 90
        0
280
     0
281
     0
  0
CLASS
  1
TABLESTYLE
  2
AcDbTableStyle
  3
ObjectDBX Classes
 90
     4095
280
     0
281
     0
  0
CLASS
  1
MLEADERSTYLE
  2
AcDbMLeaderStyle
  3
ACDB_MLEADERSTYLE_CLASS
 90
     4095
280
     0
281
     0
  0
CLASS
  1
RASTERVARIABLES
  2
AcDbRasterVariables
  3
ISM
 90
        0
280
     0
281
     0
  0
CLASS
  1
DIMASSOC
  2
AcDbDimAssoc
  3
"AcDbDimAssoc|Product Desc:     AcDim ARX App For Dimension|Company:          Autodesk, Inc.|WEB Address:      www.autodesk.com"
 90
        0
280
     0
281
     0
  0
ENDSEC
  0
SECTION
  2
TABLES
  0
TABLE
  2
VPORT
  5
8
330
0
100
AcDbSymbolTable
 70
     1
  0
VPORT
  5
29
330
8
100
AcDbSymbolTableRecord
100
AcDbViewportTableRecord
  2
*Active
 70
     0
 10
0.0
 20
0.0
 11
1.0
 21
1.0
 12
16.09079963339162
 22
-7.396804933297481
 13
0.0
 23
0.0
 14
10.0
 24
10.0
 15
10.0
 25
10.0
 16
0.0
 26
0.0
 36
1.0
 17
0.0
 27
0.0
 37
0.0
 40
101.2301847476356
 41
1.321695760598504
 42
50.0
 43
0.0
 44
0.0
 50
0.0
 51
0.0
 71
    16
 72
  2000
 73
     1
 74
     3
 75
     0
 76
     0
 77
     0
 78
     0
281
     0
 65
     1
110
0.0
120
0.0
130
0.0
111
1.0
121
0.0
131
0.0
112
0.0
122
1.0
132
0.0
 79
     0
146
0.0
  0
ENDTAB
  0
TABLE
  2
LTYPE
  5
5
330
0
100
AcDbSymbolTable
 70
     6
  0
LTYPE
  5
14
330
5
100
AcDbSymbolTableRecord
100
AcDbLinetypeTableRecord
  2
ByBlock
 70
     0
  3

 72
    65
 73
     0
 40
0.0
  0
LTYPE
  5
15
330
5
100
AcDbSymbolTableRecord
100
AcDbLinetypeTableRecord
  2
ByLayer
 70
     0
  3

 72
    65
 73
     0
 40
0.0
  0
LTYPE
  5
16
330
5
100
AcDbSymbolTableRecord
100
AcDbLinetypeTableRecord
  2
Continuous
 70
     0
  3
Solid line
 72
    65
 73
     0
 40
0.0
  0
LTYPE
  5
6A
330
5
100
AcDbSymbolTableRecord
100
AcDbLinetypeTableRecord
  2
HIDDEN
 70
     0
  3
Hidden __ __ __ __ __ __ __ __ __ __ __ __ __ __
 72
    65
 73
     2
 40
1.905
 49
1.27
 74
     0
 49
-0.635
 74
     0
  0
LTYPE
  5
6B
330
5
100
AcDbSymbolTableRecord
100
AcDbLinetypeTableRecord
  2
PHANTOM
 70
     0
  3
Phantom ______  __  __  ______  __  __  ______
 72
    65
 73
     6
 40
12.7
 49
6.35
 74
     0
 49
-1.27
 74
     0
 49
1.27
 74
     0
 49
-1.27
 74
     0
 49
1.27
 74
     0
 49
-1.27
 74
     0
  0
LTYPE
  5
6C
330
5
100
AcDbSymbolTableRecord
100
AcDbLinetypeTableRecord
  2
CENTER
 70
     0
  3
Center ____ _ ____ _ ____ _ ____ _ ____ _ ____
 72
    65
 73
     4
 40
10.16
 49
6.35
 74
     0
 49
-1.27
 74
     0
 49
1.27
 74
     0
 49
-1.27
 74
     0
  0
LTYPE
  5
6D
330
5
100
AcDbSymbolTableRecord
100
AcDbLinetypeTableRecord
  2
CENTERX2
 70
     0
  3
Center (2x) ________  __  ________  __  _____
 72
    65
 73
     4
 40
20.32
 49
12.7
 74
     0
 49
-2.54
 74
     0
 49
2.54
 74
     0
 49
-2.54
 74
     0
  0
LTYPE
  5
6E
330
5
100
AcDbSymbolTableRecord
100
AcDbLinetypeTableRecord
  2
DOT2
 70
     0
  3
Dot (.5x) ........................................
 72
    65
 73
     2
 40
0.635
 49
0.0
 74
     0
 49
-0.635
 74
     0
  0
ENDTAB
  0
TABLE
  2
LAYER
  5
2
330
0
100
AcDbSymbolTable
 70
    17
  0
LAYER
  5
10
330
2
100
AcDbSymbolTableRecord
100
AcDbLayerTableRecord
  2
0
 70
     0
 62
     7
  6
Continuous
370
    -3
390
F
  0
LAYER
  5
6F
330
2
100
AcDbSymbolTableRecord
100
AcDbLayerTableRecord
  2
FORMAT
 70
     0
 62
     2
  6
Continuous
370
    -3
390
F
  0
LAYER
  5
70
330
2
100
AcDbSymbolTableRecord
100
AcDbLayerTableRecord
  2
외형선
 70
     0
 62
   100
  6
Continuous
370
    30
390
F
  0
LAYER
  5
71
330
2
100
AcDbSymbolTableRecord
100
AcDbLayerTableRecord
  2
숨은선
 70
     0
 62
     2
  6
HIDDEN
370
    15
390
F
  0
LAYER
  5
72
330
2
100
AcDbSymbolTableRecord
100
AcDbLayerTableRecord
  2
중심선
 70
     0
 62
     1
  6
CENTERX2
370
    -3
390
F
  0
LAYER
  5
73
330
2
100
AcDbSymbolTableRecord
100
AcDbLayerTableRecord
  2
파단선
 70
     0
 62
     4
  6
Continuous
370
    -3
390
F
  0
LAYER
  5
74
330
2
100
AcDbSymbolTableRecord
100
AcDbLayerTableRecord
  2
해칭선
 70
     0
 62
     4
  6
Continuous
370
    -3
390
F
  0
LAYER
  5
75
330
2
100
AcDbSymbolTableRecord
100
AcDbLayerTableRecord
  2
가는실선
 70
     0
 62
     4
  6
Continuous
370
    -3
390
F
  0
LAYER
  5
76
330
2
100
AcDbSymbolTableRecord
100
AcDbLayerTableRecord
  2
치수_보조선
 70
     0
 62
     4
  6
Continuous
370
    -3
390
F
  0
LAYER
  5
77
330
2
100
AcDbSymbolTableRecord
100
AcDbLayerTableRecord
  2
치수문자_일반주서
 70
     0
 62
     7
  6
Continuous
370
    15
390
F
  0
LAYER
  5
78
330
2
100
AcDbSymbolTableRecord
100
AcDbLayerTableRecord
  2
개별주서
 70
     0
 62
   100
  6
Continuous
370
    30
390
F
  0
LAYER
  5
79
330
2
100
AcDbSymbolTableRecord
100
AcDbLayerTableRecord
  2
중간선
 70
     0
 62
     2
  6
Continuous
370
    15
390
F
  0
LAYER
  5
7A
330
2
100
AcDbSymbolTableRecord
100
AcDbLayerTableRecord
  2
윤곽선
 70
     0
 62
     3
  6
Continuous
370
    40
390
F
  0
LAYER
  5
7B
330
2
100
AcDbSymbolTableRecord
100
AcDbLayerTableRecord
  2
중심마크
 70
     0
 62
   100
  6
Continuous
370
    30
390
F
  0
LAYER
  5
7C
330
2
100
AcDbSymbolTableRecord
100
AcDbLayerTableRecord
  2
가상선
 70
     0
 62
     4
  6
PHANTOM
370
    -3
390
F
  0
LAYER
  5
7D
330
2
100
AcDbSymbolTableRecord
100
AcDbLayerTableRecord
  2
특수지정선
 70
     0
 62
     5
  6
CENTERX2
370
    60
390
F
  0
LAYER
  5
186
330
2
100
AcDbSymbolTableRecord
100
AcDbLayerTableRecord
  2
Defpoints
 70
     0
 62
     7
  6
Continuous
290
     0
370
    -3
390
F
  0
ENDTAB
  0
TABLE
  2
STYLE
  5
3
330
0
100
AcDbSymbolTable
 70
     2
  0
STYLE
  5
11
330
3
100
AcDbSymbolTableRecord
100
AcDbTextStyleTableRecord
  2
Standard
 70
     0
 40
0.0
 41
1.0
 50
0.0
 71
     0
 42
3.5
  3
txt
  4

  0
STYLE
  5
93
330
3
100
AcDbSymbolTableRecord
100
AcDbTextStyleTableRecord
  2
SLDTEXTSTYLE0
 70
     0
 40
0.0
 41
0.75
 50
0.0
 71
     0
 42
3.5
  3
TXT
  4

  0
ENDTAB
  0
TABLE
  2
VIEW
  5
6
330
0
100
AcDbSymbolTable
 70
     0
  0
ENDTAB
  0
TABLE
  2
UCS
  5
7
330
0
100
AcDbSymbolTable
 70
     0
  0
ENDTAB
  0
TABLE
  2
APPID
  5
9
330
0
100
AcDbSymbolTable
 70
     5
  0
APPID
  5
12
330
9
100
AcDbSymbolTableRecord
100
AcDbRegAppTableRecord
  2
ACAD
 70
     0
  0
APPID
  5
19D
330
9
100
AcDbSymbolTableRecord
100
AcDbRegAppTableRecord
  2
PE_DIMMEASUREMENT
 70
     0
  0
APPID
  5
1A0
330
9
100
AcDbSymbolTableRecord
100
AcDbRegAppTableRecord
  2
ACAD_DSTYLE_DIMRADIAL_EXTENSION
 70
     0
  0
APPID
  5
1AF
330
9
100
AcDbSymbolTableRecord
100
AcDbRegAppTableRecord
  2
ACAD_DSTYLE_DIMFLIPARROW_SYMBOL
 70
     0
  0
APPID
  5
1B0
330
9
100
AcDbSymbolTableRecord
100
AcDbRegAppTableRecord
  2
ACAD_DSTYLE_DIMFLIPARROW_WHICH_SYMBOL
 70
     0
  0
ENDTAB
  0
TABLE
  2
DIMSTYLE
  5
A
330
0
100
AcDbSymbolTable
 70
     4
100
AcDbDimStyleTable
  0
DIMSTYLE
105
27
330
A
100
AcDbSymbolTableRecord
100
AcDbDimStyleTableRecord
  2
ISO-25
 70
     0
 41
2.5
 42
0.625
 43
3.75
 44
1.25
 73
     0
 74
     0
 77
     1
 78
     8
140
2.5
141
2.5
143
0.03937007874016
147
0.625
171
     3
172
     1
178
     0
271
     2
272
     2
274
     3
278
    44
283
     0
284
     8
340
11
  0
DIMSTYLE
105
10B
102
{ACAD_REACTORS
330
147
330
18B
102
}
330
A
100
AcDbSymbolTableRecord
100
AcDbDimStyleTableRecord
  2
SLDDIMSTYLE0
 70
     0
 41
3.302
 44
0.0
 45
0.000000001
 73
     0
 74
     0
 77
     1
 78
    12
 79
     3
140
3.5
143
0.0393700787401575
147
0.875
148
0.000000001
170
     1
172
     1
173
     1
178
     0
271
     2
272
     2
276
     2
284
    12
289
     0
340
93
  0
DIMSTYLE
105
120
102
{ACAD_REACTORS
330
11F
102
}
330
A
100
AcDbSymbolTableRecord
100
AcDbDimStyleTableRecord
  2
SLDDIMSTYLE1
 70
     0
 41
3.302
 44
0.0
 45
0.000000001
 73
     0
 74
     0
 77
     1
 78
     4
 79
     1
140
3.5
143
0.0393700787401575
147
0.875
148
0.000000001
170
     1
173
     1
178
     0
271
     2
272
     2
276
     2
284
    12
340
93
  0
DIMSTYLE
105
134
102
{ACAD_REACTORS
330
133
330
1A1
102
}
330
A
100
AcDbSymbolTableRecord
100
AcDbDimStyleTableRecord
  2
SLDDIMSTYLE2
 70
     0
 41
3.302
 44
0.0
 45
0.000000001
 73
     0
 74
     0
 77
     1
 78
    12
 79
     3
140
3.5
143
0.0393700787401575
147
0.875
148
0.000000001
170
     1
173
     1
178
     0
271
     2
272
     2
276
     2
284
    12
340
93
  0
ENDTAB
  0
TABLE
  2
BLOCK_RECORD
  5
1
330
0
100
AcDbSymbolTable
 70
     9
  0
BLOCK_RECORD
  5
1F
330
1
100
AcDbSymbolTableRecord
100
AcDbBlockTableRecord
  2
*Model_Space
340
22
  0
BLOCK_RECORD
  5
1B
330
1
100
AcDbSymbolTableRecord
100
AcDbBlockTableRecord
  2
*Paper_Space
340
1E
  0
BLOCK_RECORD
  5
23
330
1
100
AcDbSymbolTableRecord
100
AcDbBlockTableRecord
  2
*Paper_Space0
340
26
  0
BLOCK_RECORD
  5
7E
330
1
100
AcDbSymbolTableRecord
100
AcDbBlockTableRecord
  2
블럭10
340
0
102
{BLKREFS
331
102
102
}
  0
BLOCK_RECORD
  5
10C
330
1
100
AcDbSymbolTableRecord
100
AcDbBlockTableRecord
  2
_D
340
0
  0
BLOCK_RECORD
  5
121
330
1
100
AcDbSymbolTableRecord
100
AcDbBlockTableRecord
  2
_D_1
340
0
  0
BLOCK_RECORD
  5
135
330
1
100
AcDbSymbolTableRecord
100
AcDbBlockTableRecord
  2
_D_2
340
0
  0
BLOCK_RECORD
  5
148
330
1
100
AcDbSymbolTableRecord
100
AcDbBlockTableRecord
  2
_D_3
340
0
  0
BLOCK_RECORD
  5
15B
330
1
100
AcDbSymbolTableRecord
100
AcDbBlockTableRecord
  2
SW_DOWELSYMBOL_0
340
0
102
{BLKREFS
331
161
102
}
  0
BLOCK_RECORD
  5
18E
330
1
100
AcDbSymbolTableRecord
100
AcDbBlockTableRecord
  2
*D7
340
0
  0
BLOCK_RECORD
  5
1A4
330
1
100
AcDbSymbolTableRecord
100
AcDbBlockTableRecord
  2
*D8
340
0
  0
ENDTAB
  0
ENDSEC
  0
SECTION
  2
BLOCKS
  0
BLOCK
  5
20
330
1F
100
AcDbEntity
  8
0
100
AcDbBlockBegin
  2
*Model_Space
 70
     0
 10
0.0
 20
0.0
 30
0.0
  3
*Model_Space
  1
*Model_Space
  0
ENDBLK
  5
21
330
1F
100
AcDbEntity
  8
0
100
AcDbBlockEnd
  0
BLOCK
  5
1C
330
1B
100
AcDbEntity
 67
     1
  8
0
100
AcDbBlockBegin
  2
*Paper_Space
 70
     0
 10
0.0
 20
0.0
 30
0.0
  3
*Paper_Space
  1
*Paper_Space
  0
ENDBLK
  5
1D
330
1B
100
AcDbEntity
 67
     1
  8
0
100
AcDbBlockEnd
  0
BLOCK
  5
24
330
23
100
AcDbEntity
  8
0
100
AcDbBlockBegin
  2
*Paper_Space0
 70
     0
 10
0.0
 20
0.0
 30
0.0
  3
*Paper_Space0
  1
*Paper_Space0
  0
ENDBLK
  5
25
330
23
100
AcDbEntity
  8
0
100
AcDbBlockEnd
  0
BLOCK
  5
7F
330
7E
100
AcDbEntity
  8
0
100
AcDbBlockBegin
  2
블럭10
 70
     2
 10
0.0
 20
0.0
 30
0.0
  3
블럭10
  1
블럭10
  0
ELLIPSE
  5
81
330
7E
100
AcDbEntity
  8
중심선
100
AcDbEllipse
 10
20.54032771741204
 20
12.0471743016438
 30
0.0
 11
6.600054785286829
 21
-1.261213355974178E-13
 31
0.0
210
0.0
220
0.0
230
1.0
 40
0.636358354079598
 41
0.9219305317359503
 42
6.513795318482858
  0
ELLIPSE
  5
82
330
7E
100
AcDbEntity
  8
중심선
100
AcDbEllipse
 10
20.54032771746488
 20
12.04717430159265
 30
0.0
 11
3.960054785062283
 21
1.540847449632565E-10
 31
0.0
210
0.0
220
0.0
230
1.0
 40
0.3939339440162632
 41
1.131841032648279
 42
5.62031148352944
  0
LINE
  5
83
330
7E
100
AcDbEntity
  8
중심선
100
AcDbLine
 10
2.268634060543552
 20
16.24717430164393
 30
0.0
 11
5.714909304380834
 21
16.24717430164393
 31
0.0
  0
LINE
  5
84
330
7E
100
AcDbEntity
  8
중심선
100
AcDbLine
 10
5.245725140726316
 20
7.84717430164391
 30
0.0
 11
8.692000384563599
 21
7.84717430164391
 31
0.0
  0
LINE
  5
85
330
7E
100
AcDbEntity
  8
중심선
100
AcDbLine
 10
15.74043728645272
 20
16.24717430164393
 30
0.0
 11
8.692000384563599
 21
7.84717430164391
 31
0.0
  0
LINE
  5
86
330
7E
100
AcDbEntity
  8
중심선
100
AcDbLine
 10
0.1404042013395286
 20
13.71084872107135
 30
0.0
 11
3.58671253028996
 21
13.71088815037384
 31
0.0
  0
LINE
  5
87
330
7E
100
AcDbEntity
  8
중심선
100
AcDbLine
 10
2.750260043222114
 20
10.84717430164391
 30
0.0
 11
6.196535287059397
 21
10.84717430164391
 31
0.0
  0
LINE
  5
88
330
7E
100
AcDbEntity
  8
중심선
100
AcDbLine
 10
12.29416204261559
 20
16.24717430164393
 30
0.0
 11
5.245725140726316
 21
7.84717430164391
 31
0.0
  0
LINE
  5
89
330
7E
100
AcDbEntity
  8
중심선
100
AcDbLine
 10
10.72767329541681
 20
16.24717430164393
 30
0.0
 11
6.196535287059397
 21
10.84717430164391
 31
0.0
  0
LINE
  5
8A
330
7E
100
AcDbEntity
  8
중심선
100
AcDbLine
 10
7.28139805157953
 20
16.24717430164393
 30
0.0
 11
2.750260043222114
 21
10.84717430164391
 31
0.0
  0
LINE
  5
8B
330
7E
100
AcDbEntity
  8
중심선
100
AcDbLine
 10
5.714909304380834
 20
16.24717430164393
 30
0.0
 11
3.58671253028996
 21
13.71088815037384
 31
0.0
  0
LINE
  5
8C
330
7E
100
AcDbEntity
  8
중심선
100
AcDbLine
 10
2.268634060543552
 20
16.24717430164393
 30
0.0
 11
0.1404042013395286
 21
13.71084872107135
 31
0.0
  0
LINE
  5
8D
330
7E
100
AcDbEntity
  8
중심선
100
AcDbLine
 10
7.28139805157953
 20
16.24717430164393
 30
0.0
 11
10.72767329541681
 21
16.24717430164393
 31
0.0
  0
LINE
  5
8E
330
7E
100
AcDbEntity
  8
중심선
100
AcDbLine
 10
12.29416204261559
 20
16.24717430164393
 30
0.0
 11
15.74043728645272
 21
16.24717430164393
 31
0.0
  0
LINE
  5
8F
330
7E
100
AcDbEntity
  8
중심선
100
AcDbLine
 10
19.22036997980202
 20
11.08717430171403
 30
0.0
 11
23.66174974927406
 21
11.08717430171406
 31
0.0
  0
LINE
  5
90
330
7E
100
AcDbEntity
  8
중심선
100
AcDbLine
 10
19.22039502424796
 20
13.00717430171391
 30
0.0
 11
19.22036997980202
 21
11.08717430171403
 31
0.0
  0
LINE
  5
91
330
7E
100
AcDbEntity
  8
중심선
100
AcDbLine
 10
19.22039502424796
 20
13.00717430171391
 30
0.0
 11
26.96566020931264
 21
13.00717430171391
 31
0.0
  0
LINE
  5
92
330
7E
100
AcDbEntity
  8
중심선
100
AcDbLine
 10
22.22332737316547
 20
13.45928029700563
 30
0.0
 11
24.52862924686651
 21
15.39360700705356
 31
0.0
  0
ATTDEF
  5
94
330
7E
100
AcDbEntity
  8
FORMAT
 62
     2
100
AcDbText
 10
-11.05102035218446
 20
2.075366912832191
 30
0.0
 40
4.233333333333333
  1
GMG22905[ 6 FLUTE ]
 41
0.75
  7
SLDTEXTSTYLE0
 11
-11.05102035218446
 21
-0.0412997538344756
 31
0.0
100
AcDbAttributeDefinition
  3

  2
AUTOATTR0
 70
     0
 74
     1
  0
ENDBLK
  5
80
330
7E
100
AcDbEntity
  8
0
100
AcDbBlockEnd
  0
BLOCK
  5
10D
330
10C
100
AcDbEntity
  8
0
100
AcDbBlockBegin
  2
_D
 70
     0
 10
0.0
 20
0.0
 30
0.0
  3
_D
  1
_D
  0
LINE
  5
10F
330
10C
100
AcDbEntity
  8
치수문자_일반주서
 62
     0
370
    -2
100
AcDbLine
 10
48.16249999999997
 20
-3.175000000000008
 30
0.0
 11
66.74524571577297
 21
-3.174999999999939
 31
0.0
  0
LINE
  5
110
330
10C
100
AcDbEntity
  8
치수문자_일반주서
 62
     0
370
    -2
100
AcDbLine
 10
48.16249999999997
 20
3.175000000000014
 30
0.0
 11
66.74524571577294
 21
3.175000000000083
 31
0.0
  0
LINE
  5
111
330
10C
100
AcDbEntity
  8
치수문자_일반주서
 62
     0
370
    -2
100
AcDbLine
 10
66.74524571577295
 20
0.1270000000000602
 30
0.0
 11
66.74524571577295
 21
-0.1269999999999167
 31
0.0
  0
SOLID
  5
112
330
10C
100
AcDbEntity
  8
치수문자_일반주서
 62
     0
100
AcDbTrace
 10
66.19491238243963
 20
0.1270000000000577
 30
0.0
 11
67.29557904910628
 21
0.1270000000000626
 31
0.0
 12
66.74524571577297
 22
-3.174999999999939
 32
0.0
 13
66.74524571577297
 23
-3.174999999999939
 33
0.0
  0
SOLID
  5
113
330
10C
100
AcDbEntity
  8
치수문자_일반주서
 62
     0
100
AcDbTrace
 10
67.29557904910628
 20
-0.1269999999999143
 30
0.0
 11
66.19491238243963
 21
-0.1269999999999192
 31
0.0
 12
66.74524571577294
 22
3.175000000000083
 32
0.0
 13
66.74524571577294
 23
3.175000000000083
 33
0.0
  0
MTEXT
  5
114
330
10C
100
AcDbEntity
  8
치수문자_일반주서
 62
     0
100
AcDbMText
 10
62.37024571577295
 20
-0.4965537846535363
 30
0.0
 40
3.5
 41
0.0
 71
     2
 72
     1
  1
\A1;%%c6.35 [1/4]
  7
SLDTEXTSTYLE0
 11
-4.475859752819513E-15
 21
1.0
 31
0.0
 73
     1
 44
1.0
  0
POINT
  5
115
330
10C
100
AcDbEntity
  8
Defpoints
 62
     0
100
AcDbPoint
 10
48.09999999999997
 20
-3.175000000000009
 30
0.0
  0
POINT
  5
116
330
10C
100
AcDbEntity
  8
Defpoints
 62
     0
100
AcDbPoint
 10
48.09999999999997
 20
3.175000000000014
 30
0.0
  0
POINT
  5
117
330
10C
100
AcDbEntity
  8
Defpoints
 62
     0
100
AcDbPoint
 10
66.74524571577294
 20
3.175000000000083
 30
0.0
  0
ENDBLK
  5
10E
330
10C
100
AcDbEntity
  8
0
100
AcDbBlockEnd
  0
BLOCK
  5
122
330
121
100
AcDbEntity
  8
0
100
AcDbBlockBegin
  2
_D_1
 70
     0
 10
0.0
 20
0.0
 30
0.0
  3
_D_1
  1
_D_1
  0
LINE
  5
124
330
121
100
AcDbEntity
  8
치수문자_일반주서
 62
     0
370
    -2
100
AcDbLine
 10
-34.45
 20
3.531249999999999
 30
0.0
 11
-34.45
 21
36.62430141807178
 31
0.0
  0
LINE
  5
125
330
121
100
AcDbEntity
  8
치수문자_일반주서
 62
     0
370
    -2
100
AcDbLine
 10
41.75
 20
3.269250000000004
 30
0.0
 11
41.75
 21
36.62430141807178
 31
0.0
  0
LINE
  5
126
330
121
100
AcDbEntity
  8
치수문자_일반주서
 62
     0
370
    -2
100
AcDbLine
 10
-31.148
 20
36.62430141807178
 30
0.0
 11
38.448
 21
36.62430141807178
 31
0.0
  0
SOLID
  5
127
330
121
100
AcDbEntity
  8
치수문자_일반주서
 62
     0
100
AcDbTrace
 10
-31.148
 20
37.17463475140512
 30
0.0
 11
-31.148
 21
36.07396808473845
 31
0.0
 12
-34.45
 22
36.62430141807178
 32
0.0
 13
-34.45
 23
36.62430141807178
 33
0.0
  0
SOLID
  5
128
330
121
100
AcDbEntity
  8
치수문자_일반주서
 62
     0
100
AcDbTrace
 10
38.448
 20
36.07396808473845
 30
0.0
 11
38.448
 21
37.17463475140512
 31
0.0
 12
41.75
 22
36.62430141807178
 32
0.0
 13
41.75
 23
36.62430141807178
 33
0.0
  0
MTEXT
  5
129
330
121
100
AcDbEntity
  8
치수문자_일반주서
 62
     0
100
AcDbMText
 10
3.649999999999999
 20
40.99930141807178
 30
0.0
 40
3.5
 41
0.0
 71
     2
 72
     1
  1
\A1;76.20 [3]
  7
SLDTEXTSTYLE0
 73
     1
 44
1.0
  0
POINT
  5
12A
330
121
100
AcDbEntity
  8
Defpoints
 62
     0
100
AcDbPoint
 10
-34.45
 20
3.468749999999999
 30
0.0
  0
POINT
  5
12B
330
121
100
AcDbEntity
  8
Defpoints
 62
     0
100
AcDbPoint
 10
41.75
 20
3.206750000000004
 30
0.0
  0
POINT
  5
12C
330
121
100
AcDbEntity
  8
Defpoints
 62
     0
100
AcDbPoint
 10
41.75
 20
36.62430141807178
 30
0.0
  0
ENDBLK
  5
123
330
121
100
AcDbEntity
  8
0
100
AcDbBlockEnd
  0
BLOCK
  5
136
330
135
100
AcDbEntity
  8
0
100
AcDbBlockBegin
  2
_D_2
 70
     0
 10
0.0
 20
0.0
 30
0.0
  3
_D_2
  1
_D_2
  0
LINE
  5
138
330
135
100
AcDbEntity
  8
치수문자_일반주서
 62
     0
370
    -2
100
AcDbLine
 10
41.75
 20
3.269250000000004
 30
0.0
 11
41.75
 21
20.83374453033794
 31
0.0
  0
LINE
  5
139
330
135
100
AcDbEntity
  8
치수문자_일반주서
 62
     0
370
    -2
100
AcDbLine
 10
10.0
 20
3.92041475424044
 30
0.0
 11
10.0
 21
20.83374453033794
 31
0.0
  0
LINE
  5
13A
330
135
100
AcDbEntity
  8
치수문자_일반주서
 62
     0
370
    -2
100
AcDbLine
 10
38.448
 20
20.83374453033794
 30
0.0
 11
13.302
 21
20.83374453033794
 31
0.0
  0
SOLID
  5
13B
330
135
100
AcDbEntity
  8
치수문자_일반주서
 62
     0
100
AcDbTrace
 10
38.448
 20
20.2834111970046
 30
0.0
 11
38.448
 21
21.38407786367127
 31
0.0
 12
41.75
 22
20.83374453033794
 32
0.0
 13
41.75
 23
20.83374453033794
 33
0.0
  0
SOLID
  5
13C
330
135
100
AcDbEntity
  8
치수문자_일반주서
 62
     0
100
AcDbTrace
 10
13.302
 20
21.38407786367127
 30
0.0
 11
13.302
 21
20.2834111970046
 31
0.0
 12
10.0
 22
20.83374453033794
 32
0.0
 13
10.0
 23
20.83374453033794
 33
0.0
  0
MTEXT
  5
13D
330
135
100
AcDbEntity
  8
치수문자_일반주서
 62
     0
100
AcDbMText
 10
25.52575141487685
 20
25.20874453033794
 30
0.0
 40
3.5
 41
0.0
 71
     2
 72
     1
  1
\A1;31.75 [1 1/4]
  7
SLDTEXTSTYLE0
 73
     1
 44
1.0
  0
POINT
  5
13E
330
135
100
AcDbEntity
  8
Defpoints
 62
     0
100
AcDbPoint
 10
41.75
 20
3.206750000000004
 30
0.0
  0
POINT
  5
13F
330
135
100
AcDbEntity
  8
Defpoints
 62
     0
100
AcDbPoint
 10
10.0
 20
3.85791475424044
 30
0.0
  0
POINT
  5
140
330
135
100
AcDbEntity
  8
Defpoints
 62
     0
100
AcDbPoint
 10
10.0
 20
20.83374453033794
 30
0.0
  0
ENDBLK
  5
137
330
135
100
AcDbEntity
  8
0
100
AcDbBlockEnd
  0
BLOCK
  5
149
330
148
100
AcDbEntity
  8
0
100
AcDbBlockBegin
  2
_D_3
 70
     0
 10
0.0
 20
0.0
 30
0.0
  3
_D_3
  1
_D_3
  0
LINE
  5
14B
330
148
100
AcDbEntity
  8
치수문자_일반주서
 62
     0
370
    -2
100
AcDbLine
 10
-34.0125
 20
3.968750000000001
 30
0.0
 11
-47.45000000000003
 21
3.968749999999951
 31
0.0
  0
LINE
  5
14C
330
148
100
AcDbEntity
  8
치수문자_일반주서
 62
     0
370
    -2
100
AcDbLine
 10
-34.0125
 20
-3.968749999999999
 30
0.0
 11
-47.45
 21
-3.968750000000049
 31
0.0
  0
LINE
  5
14D
330
148
100
AcDbEntity
  8
치수문자_일반주서
 62
     0
370
    -2
100
AcDbLine
 10
-47.45000000000002
 20
0.6667499999999515
 30
0.0
 11
-47.45000000000002
 21
-0.6667500000000492
 31
0.0
  0
SOLID
  5
14E
330
148
100
AcDbEntity
  8
치수문자_일반주서
 62
     0
100
AcDbTrace
 10
-46.89966666666668
 20
0.6667499999999535
 30
0.0
 11
-48.00033333333335
 21
0.6667499999999495
 31
0.0
 12
-47.45000000000003
 22
3.968749999999951
 32
0.0
 13
-47.45000000000003
 23
3.968749999999951
 33
0.0
  0
SOLID
  5
14F
330
148
100
AcDbEntity
  8
치수문자_일반주서
 62
     0
100
AcDbTrace
 10
-48.00033333333335
 20
-0.6667500000000512
 30
0.0
 11
-46.89966666666668
 21
-0.6667500000000472
 31
0.0
 12
-47.45
 22
-3.968750000000049
 32
0.0
 13
-47.45
 23
-3.968750000000049
 33
0.0
  0
MTEXT
  5
150
330
148
100
AcDbEntity
  8
치수문자_일반주서
 62
     0
100
AcDbMText
 10
-51.82500000000002
 20
-0.0000000000000157
 30
0.0
 40
3.5
 41
0.0
 71
     2
 72
     1
  1
\A1;%%c7.94 [5/16]
  7
SLDTEXTSTYLE0
 11
-3.580687802255623E-15
 21
1.0
 31
0.0
 73
     1
 44
1.0
  0
POINT
  5
151
330
148
100
AcDbEntity
  8
Defpoints
 62
     0
100
AcDbPoint
 10
-33.95
 20
3.968750000000002
 30
0.0
  0
POINT
  5
152
330
148
100
AcDbEntity
  8
Defpoints
 62
     0
100
AcDbPoint
 10
-33.95
 20
-3.968749999999998
 30
0.0
  0
POINT
  5
153
330
148
100
AcDbEntity
  8
Defpoints
 62
     0
100
AcDbPoint
 10
-47.45
 20
-3.968750000000049
 30
0.0
  0
ENDBLK
  5
14A
330
148
100
AcDbEntity
  8
0
100
AcDbBlockEnd
  0
BLOCK
  5
15C
330
15B
100
AcDbEntity
  8
0
100
AcDbBlockBegin
  2
SW_DOWELSYMBOL_0
 70
     0
 10
0.0
 20
0.0
 30
0.0
  3
SW_DOWELSYMBOL_0
  1
SW_DOWELSYMBOL_0
  0
CIRCLE
  5
15E
330
15B
100
AcDbEntity
  8
외형선
 62
     0
100
AcDbCircle
 10
0.0
 20
0.0
 30
0.0
 40
3.000000000000001
  0
HATCH
  5
15F
330
15B
100
AcDbEntity
  8
0
  6
Continuous
 62
     0
370
    30
100
AcDbHatch
 10
0.0
 20
0.0
 30
0.0
210
0.0
220
0.0
230
1.0
  2
SOLID
 70
     1
 71
     0
 91
        1
 92
        0
 93
        3
 72
     2
 10
0.0
 20
0.0
 40
3.000000000000001
 50
0.0
 51
90.0
 73
     1
 72
     1
 10
0.0
 20
3.000000000000001
 11
0.0
 21
0.0
 72
     1
 10
0.0
 20
0.0
 11
3.000000000000001
 21
0.0
 97
        0
 75
     0
 76
     1
 98
        1
 10
0.0
 20
0.0
  0
HATCH
  5
160
330
15B
100
AcDbEntity
  8
0
  6
Continuous
 62
     0
370
    30
100
AcDbHatch
 10
0.0
 20
0.0
 30
0.0
210
0.0
220
0.0
230
1.0
  2
SOLID
 70
     1
 71
     0
 91
        1
 92
        0
 93
        3
 72
     2
 10
0.0
 20
0.0
 40
3.000000000000001
 50
180.0
 51
270.0000000000008
 73
     1
 72
     1
 10
0.0
 20
-3.000000000000001
 11
0.0
 21
0.0
 72
     1
 10
0.0
 20
0.0
 11
-3.000000000000001
 21
0.0
 97
        0
 75
     0
 76
     1
 98
        1
 10
0.0
 20
0.0
  0
ENDBLK
  5
15D
330
15B
100
AcDbEntity
  8
0
100
AcDbBlockEnd
  0
BLOCK
  5
18F
330
18E
100
AcDbEntity
  8
0
100
AcDbBlockBegin
  2
*D7
 70
     1
 10
0.0
 20
0.0
 30
0.0
  3
*D7
  1
*D7
  0
LINE
  5
191
330
18E
100
AcDbEntity
  8
치수문자_일반주서
 62
     0
370
    -2
100
AcDbLine
 10
41.4315
 20
3.968750000000004
 30
0.0
 11
55.34589621258699
 21
3.968750000000004
 31
0.0
  0
LINE
  5
192
330
18E
100
AcDbEntity
  8
치수문자_일반주서
 62
     0
370
    -2
100
AcDbLine
 10
41.4315
 20
-3.968750000000004
 30
0.0
 11
55.34589621258699
 21
-3.968750000000005
 31
0.0
  0
LINE
  5
193
330
18E
100
AcDbEntity
  8
치수문자_일반주서
 62
     0
370
    -2
100
AcDbLine
 10
55.34589621258699
 20
3.968750000000004
 30
0.0
 11
55.34589621258699
 21
-3.968750000000005
 31
0.0
  0
LINE
  5
194
330
18E
100
AcDbEntity
  8
치수문자_일반주서
 62
     0
370
    -2
100
AcDbLine
 10
55.34589621258699
 20
7.270750000000003
 30
0.0
 11
55.34589621258699
 21
10.57275
 31
0.0
  0
LINE
  5
195
330
18E
100
AcDbEntity
  8
치수문자_일반주서
 62
     0
370
    -2
100
AcDbLine
 10
55.34589621258699
 20
-7.270750000000005
 30
0.0
 11
55.34589621258699
 21
-10.57275
 31
0.0
  0
SOLID
  5
196
330
18E
100
AcDbEntity
  8
치수문자_일반주서
 62
     0
100
AcDbTrace
 10
54.79556287925365
 20
7.270750000000003
 30
0.0
 11
55.89622954592032
 21
7.270750000000003
 31
0.0
 12
55.34589621258699
 22
3.968750000000004
 32
0.0
 13
55.34589621258699
 23
3.968750000000004
 33
0.0
  0
SOLID
  5
197
330
18E
100
AcDbEntity
  8
치수문자_일반주서
 62
     0
100
AcDbTrace
 10
55.89622954592032
 20
-7.270750000000005
 30
0.0
 11
54.79556287925365
 21
-7.270750000000005
 31
0.0
 12
55.34589621258699
 22
-3.968750000000005
 32
0.0
 13
55.34589621258699
 23
-3.968750000000005
 33
0.0
  0
MTEXT
  5
198
330
18E
100
AcDbEntity
  8
치수문자_일반주서
 62
     0
100
AcDbMText
 10
52.72089621258699
 20
0.0
 30
0.0
 40
3.5
 41
0.0
 71
     5
 72
     1
  1
\A1;{%%c7.94 [5/16]}
  7
SLDTEXTSTYLE0
 11
0.0
 21
1.0
 31
0.0
 73
     1
 44
1.0
  0
POINT
  5
199
330
18E
100
AcDbEntity
  8
Defpoints
 62
     0
100
AcDbPoint
 10
41.369
 20
3.968750000000004
 30
0.0
  0
POINT
  5
19E
330
18E
100
AcDbEntity
  8
Defpoints
 62
     0
100
AcDbPoint
 10
41.369
 20
-3.968750000000004
 30
0.0
  0
POINT
  5
19F
330
18E
100
AcDbEntity
  8
Defpoints
 62
     0
100
AcDbPoint
 10
55.34589621258699
 20
-3.968750000000005
 30
0.0
  0
ENDBLK
  5
190
330
18E
100
AcDbEntity
  8
0
100
AcDbBlockEnd
  0
BLOCK
  5
1A5
330
1A4
100
AcDbEntity
  8
0
100
AcDbBlockBegin
  2
*D8
 70
     1
 10
0.0
 20
0.0
 30
0.0
  3
*D8
  1
*D8
  0
LINE
  5
1A7
330
1A4
100
AcDbEntity
  8
치수문자_일반주서
 62
     0
370
    -2
100
AcDbLine
 10
43.70219253934977
 20
6.43743446925666
 30
0.0
 11
64.22500606273839
 21
31.50332250751928
 31
0.0
  0
MTEXT
  5
1A8
330
1A4
100
AcDbEntity
  8
치수문자_일반주서
 62
     0
100
AcDbMText
 10
53.32489276306544
 20
22.33390840113861
 30
0.0
 40
3.5
 41
0.0
 71
     5
 72
     1
  1
\A1;R.38 [R0.015]
  7
SLDTEXTSTYLE0
 11
0.6335032688975752
 21
0.7737400133740575
 31
0.0
 73
     1
 44
1.0
  0
SOLID
  5
1A9
330
1A4
100
AcDbEntity
  8
치수문자_일반주서
 62
     0
100
AcDbTrace
 10
43.27637761865625
 20
6.786072434906626
 30
0.0
 11
44.1280074600433
 21
6.088796503606695
 31
0.0
 12
41.61036474544998
 22
3.882544945095523
 32
0.0
 13
41.61036474544998
 23
3.882544945095523
 33
0.0
  0
LINE
  5
1AA
330
1A4
100
AcDbEntity
  8
치수문자_일반주서
 62
     0
100
AcDbLine
 10
41.279
 20
3.587750000000005
 30
0.0
 11
41.459
 21
3.587750000000005
 31
0.0
  0
LINE
  5
1AB
330
1A4
100
AcDbEntity
  8
치수문자_일반주서
 62
     0
100
AcDbLine
 10
41.369
 20
3.497750000000005
 30
0.0
 11
41.369
 21
3.677750000000005
 31
0.0
  0
POINT
  5
1AC
330
1A4
100
AcDbEntity
  8
Defpoints
 62
     0
100
AcDbPoint
 10
41.61036474544998
 20
3.882544945095523
 30
0.0
  0
POINT
  5
1AD
330
1A4
100
AcDbEntity
  8
Defpoints
 62
     0
100
AcDbPoint
 10
41.369
 20
3.587750000000005
 30
0.0
  0
ENDBLK
  5
1A6
330
1A4
100
AcDbEntity
  8
0
100
AcDbBlockEnd
  0
ENDSEC
  0
SECTION
  2
ENTITIES
  0
LINE
  5
95
330
1F
100
AcDbEntity
  8
0
  6
Continuous
 62
     4
370
    15
100
AcDbLine
 10
8.491065469417938
 20
3.968750000000004
 30
0.0
 11
-33.95
 21
3.968750000000002
 31
0.0
  0
LINE
  5
96
330
1F
100
AcDbEntity
  8
0
  6
Continuous
 62
     4
370
    15
100
AcDbLine
 10
-33.95
 20
-3.968749999999998
 30
0.0
 11
8.491065469417938
 21
-3.968749999999996
 31
0.0
  0
LINE
  5
97
330
1F
100
AcDbEntity
  8
0
  6
Continuous
 62
     4
370
    15
100
AcDbLine
 10
-33.95
 20
3.96875
 30
0.0
 11
-34.45
 21
3.468749999999999
 31
0.0
  0
LINE
  5
98
330
1F
100
AcDbEntity
  8
0
  6
Continuous
 62
     4
370
    15
100
AcDbLine
 10
-34.45
 20
-3.468749999999996
 30
0.0
 11
-33.95
 21
-3.968749999999996
 31
0.0
  0
LINE
  5
99
330
1F
100
AcDbEntity
  8
0
  6
Continuous
 62
     4
370
    15
100
AcDbLine
 10
8.480262338930736
 20
-3.959778252391509
 30
0.0
 11
8.48026230533654
 21
-3.959551116759416
 31
0.0
  0
LINE
  5
9A
330
1F
100
AcDbEntity
  8
0
  6
Continuous
 62
     1
370
    15
100
AcDbLine
 10
31.71983273326651
 20
-3.968749999999996
 30
0.0
 11
33.07793290719734
 21
-3.968749999999996
 31
0.0
  0
LINE
  5
9B
330
1F
100
AcDbEntity
  8
0
  6
Continuous
 62
     1
370
    15
100
AcDbLine
 10
20.60975439877825
 20
3.968750000000004
 30
0.0
 11
19.25161272747501
 21
3.968750000000004
 31
0.0
  0
LINE
  5
9C
330
1F
100
AcDbEntity
  8
0
  6
Continuous
 62
     1
370
    15
100
AcDbLine
 10
23.40900466949787
 20
-3.968749999999996
 30
0.0
 11
24.76509813062883
 21
-3.968749999999996
 31
0.0
  0
LINE
  5
9D
330
1F
100
AcDbEntity
  8
0
  6
Continuous
 62
     1
370
    15
100
AcDbLine
 10
12.29686475771748
 20
3.968750000000004
 30
0.0
 11
10.94056189392338
 21
3.968750000000004
 31
0.0
  0
LINE
  5
9E
330
1F
100
AcDbEntity
  8
0
  6
Continuous
 62
     1
370
    15
100
AcDbLine
 10
37.23331025756812
 20
3.968750000000004
 30
0.0
 11
35.87719235863185
 21
3.968750000000004
 31
0.0
  0
LINE
  5
9F
330
1F
100
AcDbEntity
  8
0
  6
Continuous
 62
     1
370
    15
100
AcDbLine
 10
27.56459873572382
 20
-3.968749999999996
 30
0.0
 11
28.92109323084805
 21
-3.968749999999996
 31
0.0
  0
LINE
  5
A0
330
1F
100
AcDbEntity
  8
0
  6
Continuous
 62
     1
370
    15
100
AcDbLine
 10
16.4529463964305
 20
3.968750000000004
 30
0.0
 11
15.09634813126546
 21
3.968750000000004
 31
0.0
  0
LINE
  5
A1
102
{ACAD_REACTORS
102
}
330
1F
100
AcDbEntity
  8
0
  6
Continuous
 62
     1
370
    15
100
AcDbLine
 10
41.369
 20
3.968750000000004
 30
0.0
 11
40.03313995462192
 21
3.968750000000004
 31
0.0
  0
LINE
  5
A2
330
1F
100
AcDbEntity
  8
0
  6
Continuous
 62
     1
370
    15
100
AcDbLine
 10
35.87719235863182
 20
-3.968749999999996
 30
0.0
 11
37.23331025756811
 21
-3.968749999999996
 31
0.0
  0
LINE
  5
A3
330
1F
100
AcDbEntity
  8
0
  6
Continuous
 62
     1
370
    15
100
AcDbLine
 10
10.94056189392335
 20
-3.968749999999996
 30
0.0
 11
12.29686475771748
 21
-3.968749999999996
 31
0.0
  0
LINE
  5
A4
330
1F
100
AcDbEntity
  8
0
  6
Continuous
 62
     1
370
    15
100
AcDbLine
 10
24.76509813062883
 20
3.968750000000004
 30
0.0
 11
23.40900466949784
 21
3.968750000000004
 31
0.0
  0
LINE
  5
A5
330
1F
100
AcDbEntity
  8
0
  6
Continuous
 62
     1
370
    15
100
AcDbLine
 10
19.25161272747504
 20
-3.968749999999996
 30
0.0
 11
20.60975439877828
 21
-3.968749999999996
 31
0.0
  0
LINE
  5
A6
330
1F
100
AcDbEntity
  8
0
  6
Continuous
 62
     1
370
    15
100
AcDbLine
 10
33.07793290719738
 20
3.968750000000004
 30
0.0
 11
31.71983273326654
 21
3.968750000000004
 31
0.0
  0
LINE
  5
A7
330
1F
100
AcDbEntity
  8
0
  6
Continuous
 62
     1
370
    15
100
AcDbLine
 10
40.03313995462194
 20
-3.968749999999996
 30
0.0
 11
40.988
 21
-3.968749999999996
 31
0.0
  0
LINE
  5
A8
330
1F
100
AcDbEntity
  8
0
  6
Continuous
 62
     1
370
    15
100
AcDbLine
 10
15.09634813126546
 20
-3.968749999999996
 30
0.0
 11
16.45294639643052
 21
-3.968749999999996
 31
0.0
  0
LINE
  5
A9
330
1F
100
AcDbEntity
  8
0
  6
Continuous
 62
     1
370
    15
100
AcDbLine
 10
28.92109323084808
 20
3.968750000000004
 30
0.0
 11
27.56459873572383
 21
3.968750000000004
 31
0.0
  0
SPLINE
  5
AE
330
1F
100
AcDbEntity
  8
0
  6
Continuous
 62
     1
370
    15
100
AcDbSpline
210
0.0
220
0.0
230
1.0
 70
    24
 71
     3
 72
    14
 73
    10
 74
     0
 42
0.000000001
 43
0.00000001
 40
0.0
 40
0.0
 40
0.0
 40
0.0
 40
0.25
 40
0.25
 40
0.5
 40
0.5
 40
0.75
 40
0.75
 40
1.0
 40
1.0
 40
1.0
 40
1.0
 10
10.0
 20
-1.122357889370798
 30
0.0
 10
10.0
 20
-1.1498213218869
 30
0.0
 10
10.0
 20
-1.200173895352635
 30
0.0
 10
10.0
 20
-1.379709630879562
 30
0.0
 10
10.0
 20
-1.509937425639559
 30
0.0
 10
10.0
 20
-1.877722769529471
 30
0.0
 10
10.0
 20
-2.117031836247893
 30
0.0
 10
10.0
 20
-2.681286016384519
 30
0.0
 10
10.0
 20
-3.005323429433984
 30
0.0
 10
10.0
 20
-3.322340075113178
 30
0.0
  0
SPLINE
  5
AF
330
1F
100
AcDbEntity
  8
0
  6
Continuous
 62
     4
370
    15
100
AcDbSpline
210
0.0
220
0.0
230
1.0
 70
     8
 71
     3
 72
    10
 73
     6
 74
     0
 42
0.000000001
 43
0.00000001
 40
0.0
 40
0.0
 40
0.0
 40
0.0
 40
0.5
 40
0.5
 40
1.0
 40
1.0
 40
1.0
 40
1.0
 10
10.0
 20
-3.322340075113162
 30
0.0
 10
9.792347972979188
 20
-3.208026233663027
 30
0.0
 10
9.581225895018784
 20
-3.079173696997802
 30
0.0
 10
9.159909154980424
 20
-2.79683615683441
 30
0.0
 10
8.951816710950157
 20
-2.643925791094735
 30
0.0
 10
8.742949280063497
 20
-2.480475175071402
 30
0.0
  0
SPLINE
  5
B1
330
1F
100
AcDbEntity
  8
0
  6
Continuous
 62
     4
370
    15
100
AcDbSpline
210
0.0
220
0.0
230
1.0
 70
     8
 71
     3
 72
     8
 73
     4
 74
     0
 42
0.000000001
 43
0.00000001
 40
0.0
 40
0.0
 40
0.0
 40
0.0
 40
1.0
 40
1.0
 40
1.0
 40
1.0
 10
9.999999999999998
 20
-1.122357889370794
 30
0.0
 10
9.935146238151106
 20
-1.059754032363202
 30
0.0
 10
9.869955633101759
 20
-0.9965864884592931
 30
0.0
 10
9.804545503568098
 20
-0.9329669058557125
 30
0.0
  0
SPLINE
  5
B2
330
1F
100
AcDbEntity
  8
0
  6
Continuous
 62
     4
370
    15
100
AcDbSpline
210
0.0
220
0.0
230
1.0
 70
     8
 71
     3
 72
     8
 73
     4
 74
     0
 42
0.000000001
 43
0.00000001
 40
0.0
 40
0.0
 40
0.0
 40
0.0
 40
1.0
 40
1.0
 40
1.0
 40
1.0
 10
9.999999999999998
 20
3.857914754243988
 30
0.0
 10
9.935146238151106
 20
3.8425977128095
 30
0.0
 10
9.86995563310176
 20
3.825688186709791
 30
0.0
 10
9.804545503568104
 20
3.807203732498434
 30
0.0
  0
SPLINE
  5
B3
330
1F
100
AcDbEntity
  8
0
  6
Continuous
 62
     4
370
    15
100
AcDbSpline
210
0.0
220
0.0
230
1.0
 70
     8
 71
     3
 72
    10
 73
     6
 74
     0
 42
0.000000001
 43
0.00000001
 40
0.0
 40
0.0
 40
0.0
 40
0.0
 40
0.2756476412093339
 40
0.8897588842111486
 40
1.0
 40
1.0
 40
1.0
 40
1.0
 10
9.45056036471796
 20
3.749399419384921
 30
0.0
 10
9.487580080440944
 20
3.751636351404652
 30
0.0
 10
9.607075465240847
 20
3.758856910699846
 30
0.0
 10
9.722874320654567
 20
3.784910904101964
 30
0.0
 10
9.79375758992257
 20
3.804259081774313
 30
0.0
 10
9.804545503567129
 20
3.807203732494636
 30
0.0
  0
SPLINE
  5
B4
330
1F
100
AcDbEntity
  8
0
  6
Continuous
 62
     4
370
    15
100
AcDbSpline
210
0.0
220
0.0
230
1.0
 70
     8
 71
     3
 72
    12
 73
     8
 74
     0
 42
0.000000001
 43
0.00000001
 40
0.0
 40
0.0
 40
0.0
 40
0.0
 40
0.2097536161240458
 40
0.4262464876615757
 40
0.6357798722685037
 40
0.8498005775809383
 40
1.0
 40
1.0
 40
1.0
 40
1.0
 10
8.742949280063497
 20
3.923270312134096
 30
0.0
 10
8.711769723640169
 20
3.928272648729363
 30
0.0
 10
8.648408830713159
 20
3.938438043935578
 30
0.0
 10
8.57904213129945
 20
3.952073040190837
 30
0.0
 10
8.529366935652279
 20
3.962187463521664
 30
0.0
 10
8.49985895920603
 20
3.968303441115137
 30
0.0
 10
8.493632978928089
 20
3.967893582019926
 30
0.0
 10
8.491065469417938
 20
3.967724561708618
 30
0.0
  0
SPLINE
  5
B5
330
1F
100
AcDbEntity
  8
0
  6
Continuous
 62
     4
370
    15
100
AcDbSpline
210
0.0
220
0.0
230
1.0
 70
     8
 71
     3
 72
    10
 73
     6
 74
     0
 42
0.000000001
 43
0.00000001
 40
0.0
 40
0.0
 40
0.0
 40
0.0
 40
0.5
 40
0.5
 40
1.0
 40
1.0
 40
1.0
 40
1.0
 10
9.999999999999998
 20
3.541269700034022
 30
0.0
 10
9.792347972979186
 20
3.635616499099584
 30
0.0
 10
9.581225895018783
 20
3.715665523972771
 30
0.0
 10
9.159909154980424
 20
3.843736468306799
 30
0.0
 10
8.951816710950157
 20
3.891662527426023
 30
0.0
 10
8.742949280063497
 20
3.923270312134096
 30
0.0
  0
SPLINE
  5
B6
330
1F
100
AcDbEntity
  8
0
  6
Continuous
 62
     4
370
    15
100
AcDbSpline
210
0.0
220
0.0
230
1.0
 70
     8
 71
     3
 72
     8
 73
     4
 74
     0
 42
0.000000001
 43
0.00000001
 40
0.0
 40
0.0
 40
0.0
 40
0.0
 40
1.0
 40
1.0
 40
1.0
 40
1.0
 10
9.999999999999998
 20
2.735556864873175
 30
0.0
 10
9.935146238151106
 20
2.782843680446276
 30
0.0
 10
9.86995563310176
 20
2.829101698250475
 30
0.0
 10
9.804545503568104
 20
2.874236826642696
 30
0.0
  0
SPLINE
  5
B7
330
1F
100
AcDbEntity
  8
0
  6
Continuous
 62
     4
370
    15
100
AcDbSpline
210
0.0
220
0.0
230
1.0
 70
     8
 71
     3
 72
    16
 73
    12
 74
     0
 42
0.000000001
 43
0.00000001
 40
0.0
 40
0.0
 40
0.0
 40
0.0
 40
0.125
 40
0.125
 40
0.25
 40
0.25
 40
0.5
 40
0.5
 40
0.75
 40
0.75
 40
1.0
 40
1.0
 40
1.0
 40
1.0
 10
8.48026230532731
 20
2.210069284717299
 30
0.0
 10
8.480262305327312
 20
2.283192415923463
 30
0.0
 10
8.480414411598362
 20
2.354520291565939
 30
0.0
 10
8.495598622814656
 20
2.492610586869051
 30
0.0
 10
8.510613048090782
 20
2.560149848018624
 30
0.0
 10
8.590100879855967
 20
2.749820498249498
 30
0.0
 10
8.690515216886718
 20
2.85666771702029
 30
0.0
 10
8.978632390521126
 20
2.998137335989567
 30
0.0
 10
9.156645245883826
 20
3.029857881282475
 30
0.0
 10
9.51078626813081
 20
3.011387820107382
 30
0.0
 10
9.678534914804793
 20
2.961188253628898
 30
0.0
 10
9.804545503567129
 20
2.874236826638812
 30
0.0
  0
SPLINE
  5
B8
330
1F
100
AcDbEntity
  8
0
  6
Continuous
 62
     4
370
    15
100
AcDbSpline
210
0.0
220
0.0
230
1.0
 70
     8
 71
     3
 72
    10
 73
     6
 74
     0
 42
0.000000001
 43
0.00000001
 40
0.0
 40
0.0
 40
0.0
 40
0.0
 40
0.5
 40
0.5
 40
1.0
 40
1.0
 40
1.0
 40
1.0
 10
8.742949280063497
 20
1.442795137062674
 30
0.0
 10
8.632092910777082
 20
1.546322364893759
 30
0.0
 10
8.559426826759156
 20
1.67673818459538
 30
0.0
 10
8.48306026407112
 20
1.944438620839328
 30
0.0
 10
8.480262305327306
 20
2.08064480819695
 30
0.0
 10
8.48026230532731
 20
2.210069284717299
 30
0.0
  0
SPLINE
  5
B9
330
1F
100
AcDbEntity
  8
0
  6
Continuous
 62
     4
370
    15
100
AcDbSpline
210
0.0
220
0.0
230
1.0
 70
     8
 71
     3
 72
    10
 73
     6
 74
     0
 42
0.000000001
 43
0.00000001
 40
0.0
 40
0.0
 40
0.0
 40
0.0
 40
0.5000000000000001
 40
0.5000000000000001
 40
1.0
 40
1.0
 40
1.0
 40
1.0
 10
9.999999999999998
 20
0.2189296249208408
 30
0.0
 10
9.792347972979186
 20
0.4275902654365382
 30
0.0
 10
9.581225895018784
 20
0.6364918269749504
 30
0.0
 10
9.159909154980424
 20
1.04690031147237
 30
0.0
 10
8.951816710950157
 20
1.247736736331267
 30
0.0
 10
8.742949280063497
 20
1.442795137062674
 30
0.0
  0
SPLINE
  5
BA
330
1F
100
AcDbEntity
  8
0
  6
Continuous
 62
     4
370
    15
100
AcDbSpline
210
0.0
220
0.0
230
1.0
 70
     8
 71
     3
 72
    16
 73
    12
 74
     0
 42
0.000000001
 43
0.00000001
 40
0.0
 40
0.0
 40
0.0
 40
0.0
 40
0.1250000000000001
 40
0.1250000000000001
 40
0.2500000000000002
 40
0.2500000000000002
 40
0.5000000000000002
 40
0.5000000000000002
 40
0.7500000000000001
 40
0.7500000000000001
 40
1.0
 40
1.0
 40
1.0
 40
1.0
 10
8.48026230532731
 20
-1.749773186451687
 30
0.0
 10
8.48026230532731
 20
-1.670755036385149
 30
0.0
 10
8.480414411598362
 20
-1.590610816945049
 30
0.0
 10
8.495598622814656
 20
-1.429344789354885
 30
0.0
 10
8.510613048090782
 20
-1.34723952705155
 30
0.0
 10
8.59010087985597
 20
-1.107708285179804
 30
0.0
 10
8.69051521688672
 20
-0.9593533506271276
 30
0.0
 10
8.978632390521128
 20
-0.7547819101683318
 30
0.0
 10
9.156645245883826
 20
-0.7050610075943289
 30
0.0
 10
9.510786268130806
 20
-0.7330651219829794
 30
0.0
 10
9.678534914804791
 20
-0.8104057503003818
 30
0.0
 10
9.804545503567123
 20
-0.9329669058557989
 30
0.0
  0
SPLINE
  5
BB
330
1F
100
AcDbEntity
  8
0
  6
Continuous
 62
     4
370
    15
100
AcDbSpline
210
0.0
220
0.0
230
1.0
 70
     8
 71
     3
 72
    10
 73
     6
 74
     0
 42
0.000000001
 43
0.00000001
 40
0.0
 40
0.0
 40
0.0
 40
0.0
 40
0.5
 40
0.5
 40
1.0
 40
1.0
 40
1.0
 40
1.0
 10
8.742949280063497
 20
-2.480475175071402
 30
0.0
 10
8.632092910777082
 20
-2.393723775999491
 30
0.0
 10
8.559426826759156
 20
-2.279580998855883
 30
0.0
 10
8.483060264071122
 20
-2.026875521863247
 30
0.0
 10
8.480262305327306
 20
-1.889631566956952
 30
0.0
 10
8.480262305327306
 20
-1.749773186451688
 30
0.0
  0
SPLINE
  5
BC
330
1F
100
AcDbEntity
  8
0
  6
Continuous
 62
     4
370
    15
100
AcDbSpline
210
0.0
220
0.0
230
1.0
 70
     8
 71
     3
 72
     8
 73
     4
 74
     0
 42
0.000000001
 43
0.00000001
 40
0.0
 40
0.0
 40
0.0
 40
0.0
 40
1.0
 40
1.0
 40
1.0
 40
1.0
 10
9.999999999999998
 20
-3.857914754243985
 30
0.0
 10
9.935146238151107
 20
-3.842597712809497
 30
0.0
 10
9.869955633101762
 20
-3.825688186709789
 30
0.0
 10
9.804545503568104
 20
-3.807203732498432
 30
0.0
  0
SPLINE
  5
BD
330
1F
100
AcDbEntity
  8
0
  6
Continuous
 62
     4
370
    15
100
AcDbSpline
210
0.0
220
0.0
230
1.0
 70
     8
 71
     3
 72
    16
 73
    12
 74
     0
 42
0.000000001
 43
0.00000001
 40
0.0
 40
0.0
 40
0.0
 40
0.0
 40
0.125
 40
0.125
 40
0.2500000000000001
 40
0.2500000000000001
 40
0.5000000000000001
 40
0.5000000000000001
 40
0.7500000000000001
 40
0.7500000000000001
 40
1.0
 40
1.0
 40
1.0
 40
1.0
 10
8.48026230532731
 20
-3.959842471168999
 30
0.0
 10
8.480262305327312
 20
-3.953947452308626
 30
0.0
 10
8.480414411598362
 20
-3.945131108511003
 30
0.0
 10
8.495598622814656
 20
-3.921955376223953
 30
0.0
 10
8.510613048090782
 20
-3.907389375070191
 30
0.0
 10
8.59010087985597
 20
-3.857528783429318
 30
0.0
 10
8.690515216886721
 20
-3.816021067647435
 30
0.0
 10
8.978632390521131
 20
-3.75291924615792
 30
0.0
 10
9.15664524588383
 20
-3.734918888876824
 30
0.0
 10
9.510786268130813
 20
-3.744452942090384
 30
0.0
 10
9.678534914804798
 20
-3.771594003929303
 30
0.0
 10
9.80454550356713
 20
-3.807203732494636
 30
0.0
  0
SPLINE
  5
BE
330
1F
100
AcDbEntity
  8
0
  6
Continuous
 62
     4
370
    15
100
AcDbSpline
210
0.0
220
0.0
230
1.0
 70
     8
 71
     3
 72
     8
 73
     4
 74
     0
 42
0.000000001
 43
0.00000001
 40
0.0
 40
0.0
 40
0.0
 40
0.0
 40
1.0
 40
1.0
 40
1.0
 40
1.0
 10
8.742949280063497
 20
-3.923270312134083
 30
0.0
 10
8.608250296338971
 20
-3.943654229626089
 30
0.0
 10
8.531503044327923
 20
-3.962796658562116
 30
0.0
 10
8.500894758319484
 20
-3.967501663819409
 30
0.0
  0
SPLINE
  5
BF
330
1F
100
AcDbEntity
  8
0
  6
Continuous
 62
     4
370
    15
100
AcDbSpline
210
0.0
220
0.0
230
1.0
 70
     8
 71
     3
 72
     9
 73
     5
 74
     0
 42
0.000000001
 43
0.00000001
 40
0.0
 40
0.0
 40
0.0
 40
0.0
 40
0.3084721530705855
 40
1.0
 40
1.0
 40
1.0
 40
1.0
 10
8.491065469417936
 20
-3.96772456170861
 30
0.0
 10
8.488021614855057
 20
-3.967979969433723
 30
0.0
 10
8.478154096725527
 20
-3.968807946035732
 30
0.0
 10
8.479400430686631
 20
-3.963507722995947
 30
0.0
 10
8.48026230532731
 20
-3.959842471168999
 30
0.0
  0
SPLINE
  5
C0
330
1F
100
AcDbEntity
  8
0
  6
Continuous
 62
     4
370
    15
100
AcDbSpline
210
0.0
220
0.0
230
1.0
 70
     8
 71
     3
 72
     9
 73
     5
 74
     0
 42
0.000000001
 43
0.00000001
 40
0.0
 40
0.0
 40
0.0
 40
0.0
 40
0.1129498069135606
 40
1.0
 40
1.0
 40
1.0
 40
1.0
 10
9.450560364717925
 20
-3.749399419384917
 30
0.0
 10
9.42389463525806
 20
-3.759726232748142
 30
0.0
 10
9.187809862839886
 20
-3.851154572870298
 30
0.0
 10
8.952065957136572
 20
-3.889370694268655
 30
0.0
 10
8.742949280063497
 20
-3.923270312134084
 30
0.0
  0
LINE
  5
C1
330
1F
100
AcDbEntity
  8
0
  6
Continuous
 62
     4
370
    15
100
AcDbLine
 10
-33.95
 20
3.96875
 30
0.0
 11
-33.95
 21
-3.968749999999998
 31
0.0
  0
LINE
  5
C2
330
1F
100
AcDbEntity
  8
0
  6
Continuous
 62
     1
370
    15
100
AcDbLine
 10
10.0
 20
-3.322340075113175
 30
0.0
 11
9.999999999999998
 21
-3.85791475424031
 31
0.0
  0
LINE
  5
C3
330
1F
100
AcDbEntity
  8
0
  6
Continuous
 62
     1
370
    15
100
AcDbLine
 10
10.0
 20
0.218929624920836
 30
0.0
 11
9.999999999999998
 21
-1.122357889370794
 31
0.0
  0
LINE
  5
C4
330
1F
100
AcDbEntity
  8
0
  6
Continuous
 62
     1
370
    15
100
AcDbLine
 10
10.0
 20
3.541269700034029
 30
0.0
 11
9.999999999999998
 21
2.735556864868695
 31
0.0
  0
LINE
  5
C5
330
1F
100
AcDbEntity
  8
0
  6
Continuous
 62
     4
370
    15
100
AcDbLine
 10
-34.45
 20
3.468749999999999
 30
0.0
 11
-34.45
 21
-3.468749999999994
 31
0.0
  0
SPLINE
  5
C6
330
1F
100
AcDbEntity
  8
0
  6
Continuous
 62
     1
370
    15
100
AcDbSpline
210
0.0
220
0.0
230
1.0
 70
    24
 71
     3
 72
    14
 73
    10
 74
     0
 42
0.000000001
 43
0.00000001
 40
0.0
 40
0.0
 40
0.0
 40
0.0
 40
0.25
 40
0.25
 40
0.5
 40
0.5
 40
0.75
 40
0.75
 40
1.0
 40
1.0
 40
1.0
 40
1.0
 10
9.999999999999998
 20
2.735556864868671
 30
0.0
 10
10.0
 20
2.582339295957163
 30
0.0
 10
10.0
 20
2.402894039877306
 30
0.0
 10
10.0
 20
1.989592195738349
 30
0.0
 10
10.0
 20
1.75477906091602
 30
0.0
 10
10.0
 20
1.260609861181925
 30
0.0
 10
10.0
 20
1.001426927642587
 30
0.0
 10
10.0
 20
0.5412513483946183
 30
0.0
 10
10.0
 20
0.3434442677046088
 30
0.0
 10
10.0
 20
0.2189296249208355
 30
0.0
  0
SPLINE
  5
C7
330
1F
100
AcDbEntity
  8
0
  6
Continuous
 62
     4
370
    15
100
AcDbSpline
210
0.0
220
0.0
230
1.0
 70
    24
 71
     3
 72
     9
 73
     5
 74
     0
 42
0.000000001
 43
0.00000001
 40
0.0
 40
0.0
 40
0.0
 40
0.0
 40
0.3130698991212032
 40
1.0
 40
1.0
 40
1.0
 40
1.0
 10
9.999999999999998
 20
3.857914754240313
 30
0.0
 10
10.0
 20
3.827720143056775
 30
0.0
 10
10.0
 20
3.73127327522216
 30
0.0
 10
10.0
 20
3.649886667497864
 30
0.0
 10
10.0
 20
3.593979756843628
 30
0.0
  0
SPLINE
  5
C8
330
1F
100
AcDbEntity
  8
0
  6
Continuous
 62
     1
370
    15
100
AcDbSpline
210
0.0
220
0.0
230
1.0
 70
     8
 71
     3
 72
    25
 73
    21
 74
     0
 42
0.000000001
 43
0.00000001
 40
0.0
 40
0.0
 40
0.0
 40
0.0
 40
0.0139407917652579
 40
0.0751951987082724
 40
0.1351036091889262
 40
0.195058096487936
 40
0.2551283421426873
 40
0.315085858201048
 40
0.3749938481709559
 40
0.4349785588288454
 40
0.4950397120458147
 40
0.5549735816401622
 40
0.6148886303418186
 40
0.6749109328088543
 40
0.7349425219142967
 40
0.7948601868545029
 40
0.8547897633145244
 40
0.9148460517861855
 40
0.9748385745670182
 40
1.0
 40
1.0
 40
1.0
 40
1.0
 10
38.63336955152389
 20
-3.709542774434753
 30
0.0
 10
38.56887392736726
 20
-3.73629943885988
 30
0.0
 10
38.22099115600571
 20
-3.880622138179734
 30
0.0
 10
37.59643093675146
 20
-3.973219438460505
 30
0.0
 10
36.75979474252026
 20
-3.971701059833251
 30
0.0
 10
35.9283668302411
 20
-3.782722072639201
 30
0.0
 10
35.09520688186659
 20
-3.432342053107984
 30
0.0
 10
34.26373315970856
 20
-2.930269968089608
 30
0.0
 10
33.43295883811191
 20
-2.300159612337827
 30
0.0
 10
32.60108654791733
 20
-1.569392674510948
 30
0.0
 10
31.76806574038671
 20
-0.7708356024856321
 30
0.0
 10
30.93692662693151
 20
0.0626265460761039
 30
0.0
 10
30.1060502624017
 20
0.8932707576265279
 30
0.0
 10
29.27361660413052
 20
1.68413550388718
 30
0.0
 10
28.44104288606896
 20
2.401464489365276
 30
0.0
 10
27.61012970557627
 20
3.013597396315012
 30
0.0
 10
26.77904586191848
 20
3.49650970732515
 30
0.0
 10
25.94611210138746
 20
3.815487881345134
 30
0.0
 10
25.27473092896217
 20
3.969822713540359
 30
0.0
 10
24.88133839007374
 20
3.952639836767303
 30
0.0
 10
24.76509813062883
 20
3.947562612731092
 30
0.0
  0
SPLINE
  5
C9
330
1F
100
AcDbEntity
  8
0
  6
Continuous
 62
     1
370
    15
100
AcDbSpline
210
0.0
220
0.0
230
1.0
 70
     8
 71
     3
 72
    12
 73
     8
 74
     0
 42
0.000000001
 43
0.00000001
 40
0.0
 40
0.0
 40
0.0
 40
0.0
 40
0.0615015017727109
 40
0.2865704958200285
 40
0.5242353502677906
 40
0.7619512844417984
 40
1.0
 40
1.0
 40
1.0
 40
1.0
 10
13.69707354284691
 20
-3.708288395255904
 30
0.0
 10
13.62123432881914
 20
-3.739163623671489
 30
0.0
 10
13.26785627234731
 20
-3.883028883227421
 30
0.0
 10
12.62178181409109
 20
-3.978438663729257
 30
0.0
 10
11.75899841360688
 20
-3.964915836611719
 30
0.0
 10
10.88019311247594
 20
-3.755471848895143
 30
0.0
 10
10.29353448682322
 20
-3.466784642040399
 30
0.0
 10
10.00000000000001
 20
-3.322340075113166
 30
0.0
  0
SPLINE
  5
CA
330
1F
100
AcDbEntity
  8
0
  6
Continuous
 62
     1
370
    15
100
AcDbSpline
210
0.0
220
0.0
230
1.0
 70
    24
 71
     3
 72
    14
 73
    10
 74
     0
 42
0.000000001
 43
0.00000001
 40
0.0
 40
0.0
 40
0.0
 40
0.0
 40
0.25
 40
0.25
 40
0.5
 40
0.5
 40
0.75
 40
0.75
 40
1.0
 40
1.0
 40
1.0
 40
1.0
 10
10.0
 20
-1.122357889371572
 30
0.0
 10
10.0
 20
-1.149821321888046
 30
0.0
 10
10.0
 20
-1.200173895354185
 30
0.0
 10
10.0
 20
-1.379709630881808
 30
0.0
 10
10.0
 20
-1.509937425642091
 30
0.0
 10
10.0
 20
-1.877722769532125
 30
0.0
 10
10.0
 20
-2.11703183625036
 30
0.0
 10
10.0
 20
-2.681286016386032
 30
0.0
 10
10.0
 20
-3.00532342943473
 30
0.0
 10
10.0
 20
-3.322340075113179
 30
0.0
  0
SPLINE
  5
CB
330
1F
100
AcDbEntity
  8
0
  6
Continuous
 62
     1
370
    15
100
AcDbSpline
210
0.0
220
0.0
230
1.0
 70
     8
 71
     3
 72
    13
 73
     9
 74
     0
 42
0.000000001
 43
0.00000001
 40
0.0
 40
0.0
 40
0.0
 40
0.0
 40
0.1726885056065665
 40
0.3451356004590566
 40
0.5175456403685216
 40
0.6808182215679841
 40
0.8442456475741483
 40
1.0
 40
1.0
 40
1.0
 40
1.0
 10
9.999999999999961
 20
-1.122357889371559
 30
0.0
 10
10.2935346207713
 20
-1.398294416876997
 30
0.0
 10
10.88019351413304
 20
-1.949781725048798
 30
0.0
 10
11.75899680974194
 20
-2.667243929385481
 30
0.0
 10
12.62178769286501
 20
-3.248532938496236
 30
0.0
 10
13.46968137092961
 20
-3.664717857136416
 30
0.0
 10
14.29014943669105
 20
-3.922831430173171
 30
0.0
 10
14.83195688486104
 20
-3.951186556447748
 30
0.0
 10
15.09634813126546
 20
-3.965023293471227
 30
0.0
  0
SPLINE
  5
CC
330
1F
100
AcDbEntity
  8
0
  6
Continuous
 62
     1
370
    15
100
AcDbSpline
210
0.0
220
0.0
230
1.0
 70
     8
 71
     3
 72
    24
 73
    20
 74
     0
 42
0.000000001
 43
0.00000001
 40
0.0
 40
0.0
 40
0.0
 40
0.0
 40
0.0442564818811475
 40
0.1041888292924513
 40
0.1641092646331893
 40
0.2241436294066519
 40
0.2841687071123227
 40
0.3440865260935447
 40
0.4040231668376753
 40
0.464087097089614
 40
0.5240745812480141
 40
0.5839853411711141
 40
0.6439456294725948
 40
0.7040186525827203
 40
0.7639759119848097
 40
0.8238870924380991
 40
0.8851443315883057
 40
0.9464805696966505
 40
0.9999999999999999
 40
0.9999999999999999
 40
0.9999999999999999
 40
0.9999999999999999
 10
26.16524079334356
 20
3.708663262688595
 30
0.0
 10
26.36999959544955
 20
3.777063251498888
 30
0.0
 10
26.85204378359898
 20
3.938090844629758
 30
0.0
 10
27.61012984076597
 20
3.994172013412254
 30
0.0
 10
28.44104284977146
 20
3.901444205639774
 30
0.0
 10
29.27361661386146
 20
3.632597777880322
 30
0.0
 10
30.10605025980588
 20
3.206374383332742
 30
0.0
 10
30.93692662760369
 20
2.639041011215607
 30
0.0
 10
31.76806574029223
 20
1.956120725491685
 30
0.0
 10
32.60108654762073
 20
1.188665758932816
 30
0.0
 10
33.43295883938995
 20
0.3684027286297233
 30
0.0
 10
34.26373315489737
 20
-0.4681510807724135
 30
0.0
 10
35.09520689986628
 20
-1.28424956662859
 30
0.0
 10
35.92836676297789
 20
-2.043117019363474
 30
0.0
 10
36.75979499291492
 20
-2.713384684075211
 30
0.0
 10
37.59642999414355
 20
-3.269818299661067
 30
0.0
 10
38.44008246549758
 20
-3.67892641655111
 30
0.0
 10
39.25519296107009
 20
-3.929274792251999
 30
0.0
 10
39.78586301035381
 20
-3.949405000244015
 30
0.0
 10
40.03313995462192
 20
-3.958785096834103
 30
0.0
  0
SPLINE
  5
CD
330
1F
100
AcDbEntity
  8
0
  6
Continuous
 62
     1
370
    15
100
AcDbSpline
210
0.0
220
0.0
230
1.0
 70
     8
 71
     3
 72
    18
 73
    14
 74
     0
 42
0.000000001
 43
0.00000001
 40
0.0
 40
0.0
 40
0.0
 40
0.0
 40
0.2500000000000003
 40
0.2500000000000003
 40
0.3750000000000004
 40
0.3750000000000004
 40
0.5000000000000004
 40
0.5000000000000004
 40
0.6250000000000004
 40
0.6250000000000004
 40
0.7500000000000003
 40
0.7500000000000003
 40
1.0
 40
1.0
 40
1.0
 40
1.0
 10
41.74999999999984
 20
2.062041032404931
 30
0.0
 10
41.74999999999982
 20
1.979666186865688
 30
0.0
 10
41.74972384572687
 20
1.908607692602017
 30
0.0
 10
41.72447599758384
 20
1.834506465890253
 30
0.0
 10
41.7114617940705
 20
1.815628992911581
 30
0.0
 10
41.6664372373873
 20
1.802738441636508
 30
0.0
 10
41.6338892893252
 20
1.810082489920928
 30
0.0
 10
41.55054476064627
 20
1.854543690950541
 30
0.0
 10
41.50004910723457
 20
1.891133957739636
 30
0.0
 10
41.39687811867061
 20
1.973154511492937
 30
0.0
 10
41.34424340861232
 20
2.018158387077814
 30
0.0
 10
41.18762549890761
 20
2.153025585729063
 30
0.0
 10
41.08594515315803
 20
2.24154898066897
 30
0.0
 10
40.988
 20
2.320827231752915
 30
0.0
  0
SPLINE
  5
CE
330
1F
100
AcDbEntity
  8
0
  6
Continuous
 62
     1
370
    15
100
AcDbSpline
210
0.0
220
0.0
230
1.0
 70
     8
 71
     3
 72
    12
 73
     8
 74
     0
 42
0.000000001
 43
0.00000001
 40
0.0
 40
0.0
 40
0.0
 40
0.0
 40
0.2259816522839505
 40
0.452086255627396
 40
0.6786214849540589
 40
0.9048649447224576
 40
0.9999999999999999
 40
0.9999999999999999
 40
0.9999999999999999
 40
0.9999999999999999
 10
40.98800000000995
 20
2.320827231744868
 30
0.0
 10
40.70529943370162
 20
2.539986745544461
 30
0.0
 10
40.13974449065921
 20
2.978425012445368
 30
0.0
 10
39.29081319495785
 20
3.474789316111266
 30
0.0
 10
38.44009518082822
 20
3.809218056648238
 30
0.0
 10
37.75428175227977
 20
3.969207749085868
 30
0.0
 10
37.35230434438483
 20
3.952406191942435
 30
0.0
 10
37.23331025756811
 20
3.947432564295419
 30
0.0
  0
SPLINE
  5
CF
330
1F
100
AcDbEntity
  8
0
  6
Continuous
 62
     1
370
    15
100
AcDbSpline
210
0.0
220
0.0
230
1.0
 70
     8
 71
     3
 72
    25
 73
    21
 74
     0
 42
0.000000001
 43
0.00000001
 40
0.0
 40
0.0
 40
0.0
 40
0.0
 40
0.0158018654811565
 40
0.0757944365068873
 40
0.1357034102119908
 40
0.195655010657632
 40
0.2557250456288883
 40
0.3156857323046278
 40
0.3755934444841754
 40
0.4355744369956334
 40
0.4956376827342739
 40
0.5555738882211385
 40
0.6154878185955097
 40
0.6755055770554835
 40
0.7355415582278017
 40
0.7954607210356265
 40
0.8553883403253855
 40
0.9154418566751978
 40
0.9754384733028627
 40
1.0
 40
1.0
 40
1.0
 40
1.0
 10
26.16524079334356
 20
-3.708663262688585
 30
0.0
 10
26.09214123594283
 20
-3.738529132693187
 30
0.0
 10
25.74151556021493
 20
-3.881782268880568
 30
0.0
 10
25.11410866551777
 20
-3.974503924565729
 30
0.0
 10
24.28332713200377
 20
-3.970554569281103
 30
0.0
 10
23.45193739883893
 20
-3.780065838056158
 30
0.0
 10
22.61878246229771
 20
-3.42805664565967
 30
0.0
 10
21.78726324707228
 20
-2.924620369659572
 30
0.0
 10
20.95649370628893
 20
-2.293369675163757
 30
0.0
 10
20.12467710952581
 20
-1.561726709466718
 30
0.0
 10
19.29162516380303
 20
-0.7626836682161248
 30
0.0
 10
18.46045445697361
 20
0.070928329092444
 30
0.0
 10
17.62959500445464
 20
0.9013488435490279
 30
0.0
 10
16.79723020902524
 20
1.691695930748826
 30
0.0
 10
15.96459148031112
 20
2.408099201395179
 30
0.0
 10
15.13365598942217
 20
3.01900100935146
 30
0.0
 10
14.30260576220494
 20
3.50070417254287
 30
0.0
 10
13.46969210535528
 20
3.817287355895165
 30
0.0
 10
12.8011054813627
 20
3.97202786534989
 30
0.0
 10
12.41036328637969
 20
3.951599083200867
 30
0.0
 10
12.29686475771748
 20
3.945665153499788
 30
0.0
  0
SPLINE
  5
D0
330
1F
100
AcDbEntity
  8
0
  6
Continuous
 62
     1
370
    15
100
AcDbSpline
210
0.0
220
0.0
230
1.0
 70
     8
 71
     3
 72
    24
 73
    20
 74
     0
 42
0.000000001
 43
0.00000001
 40
0.0
 40
0.0
 40
0.0
 40
0.0
 40
0.0436615206771574
 40
0.1035925067355534
 40
0.1635150358369252
 40
0.2235543898657137
 40
0.2835755201583953
 40
0.3434928165323523
 40
0.4034323892702315
 40
0.4634990093970821
 40
0.5234833716757161
 40
0.5833944495055073
 40
0.6433585048076289
 40
0.7034319145485182
 40
0.7633868831100719
 40
0.823299222536293
 40
0.8832951639796864
 40
0.9433548747475853
 40
1.0
 40
1.0
 40
1.0
 40
1.0
 10
13.6970735428469
 20
3.708288395255913
 30
0.0
 10
13.89907235072359
 20
3.776110196269912
 30
0.0
 10
14.3783401943763
 20
3.937026038627089
 30
0.0
 10
15.13365592747316
 20
3.994193347685599
 30
0.0
 10
15.96459149694291
 20
3.903271722999833
 30
0.0
 10
16.79723020457639
 20
3.636068474144254
 30
0.0
 10
17.62959500560684
 20
3.211320319666315
 30
0.0
 10
18.46045445680429
 20
2.645271712530311
 30
0.0
 10
19.29162516332793
 20
1.963360312135707
 30
0.0
 10
20.12467711159984
 20
1.196617985293835
 30
0.0
 10
20.95649369848548
 20
0.3766615781005613
 30
0.0
 10
21.78726327618883
 20
-0.4599074050956321
 30
0.0
 10
22.61878235343195
 20
-1.276368913655577
 30
0.0
 10
23.45193780560791
 20
-2.03595527609964
 30
0.0
 10
24.28332561780224
 20
-2.70731298541101
 30
0.0
 10
25.11411431579796
 20
-3.261027517076633
 30
0.0
 10
25.94609916613348
 20
-3.668014017958857
 30
0.0
 10
26.76384294673764
 20
-3.923830408669621
 30
0.0
 10
27.30293780640665
 20
-3.951041006022525
 30
0.0
 10
27.56459873572382
 20
-3.96424823674071
 30
0.0
  0
SPLINE
  5
D1
330
1F
100
AcDbEntity
  8
0
  6
Continuous
 62
     1
370
    15
100
AcDbSpline
210
0.0
220
0.0
230
1.0
 70
     8
 71
     3
 72
    10
 73
     6
 74
     0
 42
0.000000001
 43
0.00000001
 40
0.0
 40
0.0
 40
0.0
 40
0.0
 40
0.2791200193356316
 40
0.6396580362681502
 40
1.0
 40
1.0
 40
1.0
 40
1.0
 10
38.63336955152389
 20
3.709542774434764
 30
0.0
 10
38.85266145933037
 20
3.780906766381832
 30
0.0
 10
39.35521169363768
 20
3.944451291270341
 30
0.0
 10
40.13974838966215
 20
4.002503380816118
 30
0.0
 10
40.70530073313358
 20
3.903591499677169
 30
0.0
 10
40.98800000000995
 20
3.854149009329231
 30
0.0
  0
SPLINE
  5
D2
330
1F
100
AcDbEntity
  8
0
  6
Continuous
 62
     1
370
    15
100
AcDbSpline
210
0.0
220
0.0
230
1.0
 70
     8
 71
     3
 72
     8
 73
     4
 74
     0
 42
0.000000001
 43
0.00000001
 40
0.0
 40
0.0
 40
0.0
 40
0.0
 40
1.0
 40
1.0
 40
1.0
 40
1.0
 10
40.988
 20
3.854149009331603
 30
0.0
 10
41.1132566105917
 20
3.824331548298933
 30
0.0
 10
41.23009360593186
 20
3.758096023453954
 30
0.0
 10
41.33358933922696
 20
3.664951368147343
 30
0.0
  0
SPLINE
  5
D3
330
1F
100
AcDbEntity
  8
0
  6
Continuous
 62
     1
370
    15
100
AcDbSpline
210
0.0
220
0.0
230
1.0
 70
     8
 71
     3
 72
    14
 73
    10
 74
     0
 42
0.000000001
 43
0.00000001
 40
0.0
 40
0.0
 40
0.0
 40
0.0
 40
0.25
 40
0.25
 40
0.5
 40
0.5
 40
0.75
 40
0.75
 40
1.0
 40
1.0
 40
1.0
 40
1.0
 10
41.33358933922577
 20
3.664951368147378
 30
0.0
 10
41.31931226268585
 20
3.538749583946055
 30
0.0
 10
41.29609414136893
 20
3.415553705926544
 30
0.0
 10
41.22351933119613
 20
3.177949522671882
 30
0.0
 10
41.17304643150739
 20
3.062215482996324
 30
0.0
 10
41.03908358870216
 20
2.864740793712631
 30
0.0
 10
40.9554952748822
 20
2.783419537892012
 30
0.0
 10
40.76170899848646
 20
2.678604106741778
 30
0.0
 10
40.65527788522815
 20
2.657554992225979
 30
0.0
 10
40.55027689802649
 20
2.664314578412387
 30
0.0
  0
SPLINE
  5
D4
330
1F
100
AcDbEntity
  8
0
  6
Continuous
 62
     1
370
    15
100
AcDbSpline
210
0.0
220
0.0
230
1.0
 70
     8
 71
     3
 72
     8
 73
     4
 74
     0
 42
0.000000001
 43
0.00000001
 40
0.0
 40
0.0
 40
0.0
 40
0.0
 40
1.0
 40
1.0
 40
1.0
 40
1.0
 10
41.75
 20
2.06797096048698
 30
0.0
 10
41.35318835531643
 20
2.293810278683026
 30
0.0
 10
40.95238710809812
 20
2.491235203117197
 30
0.0
 10
40.55027689802653
 20
2.66431457841245
 30
0.0
  0
LINE
  5
D5
330
1F
100
AcDbEntity
  8
0
  6
Continuous
 62
     1
370
    15
100
AcDbLine
 10
41.75
 20
2.062041032405032
 30
0.0
 11
41.75
 21
2.06797096048696
 31
0.0
  0
SPLINE
  5
D6
330
1F
100
AcDbEntity
  8
0
  6
Continuous
 62
     1
370
    15
100
AcDbSpline
210
0.0
220
0.0
230
1.0
 70
     8
 71
     3
 72
    25
 73
    21
 74
     0
 42
0.000000001
 43
0.00000001
 40
0.0
 40
0.0
 40
0.0
 40
0.0
 40
0.0155465173331045
 40
0.0755674059052271
 40
0.135597580896999
 40
0.1955138344071504
 40
0.2554419991565276
 40
0.3154968729326958
 40
0.3754879825201105
 40
0.4353954968233556
 40
0.4953456368287372
 40
0.5554142084746307
 40
0.6153734344887671
 40
0.6752796872971875
 40
0.7352592186523856
 40
0.7953210012310513
 40
0.8552557466526826
 40
0.9151682175044493
 40
0.975184513912533
 40
1.0
 40
1.0
 40
1.0
 40
1.0
 10
30.32185953854263
 20
-3.708842371174693
 30
0.0
 10
30.25003365329832
 20
-3.73829251759934
 30
0.0
 10
29.9009074980017
 20
-3.881441695074657
 30
0.0
 10
29.27358570027397
 20
-3.974196336841295
 30
0.0
 10
28.4410513322643
 20
-3.970943420440076
 30
0.0
 10
27.61012676403493
 20
-3.781131747884771
 30
0.0
 10
26.77904919233226
 20
-3.42902269409081
 30
0.0
 10
25.94610170821809
 20
-2.926597524843637
 30
0.0
 10
25.11411363591488
 20
-2.295947179374345
 30
0.0
 10
24.28332580042941
 20
-1.564515972242158
 30
0.0
 10
23.45193775495002
 20
-0.7644770540690758
 30
0.0
 10
22.61878237296236
 20
0.0677616292903869
 30
0.0
 10
21.78726324873587
 20
0.8982478923466554
 30
0.0
 10
20.95649378877048
 20
1.689282681701255
 30
0.0
 10
20.12467677724695
 20
2.406448982893331
 30
0.0
 10
19.29162641101516
 20
3.016882443254626
 30
0.0
 10
18.46044981252225
 20
3.498991123573498
 30
0.0
 10
17.62961234492172
 20
3.817226723162171
 30
0.0
 10
16.96007624044604
 20
3.970305072860159
 30
0.0
 10
16.56772056045063
 20
3.952749847367778
 30
0.0
 10
16.45294639643049
 20
3.94761449076966
 30
0.0
  0
SPLINE
  5
D7
330
1F
100
AcDbEntity
  8
0
  6
Continuous
 62
     1
370
    15
100
AcDbSpline
210
0.0
220
0.0
230
1.0
 70
     8
 71
     3
 72
    24
 73
    20
 74
     0
 42
0.000000001
 43
0.00000001
 40
0.0
 40
0.0
 40
0.0
 40
0.0
 40
0.0437776056879681
 40
0.1037200279860559
 40
0.163789503713018
 40
0.2237767176811803
 40
0.2836906437165166
 40
0.3436575497427617
 40
0.4037338154065443
 40
0.4636916342602327
 40
0.5236068219519759
 40
0.5836056156353774
 40
0.6436681816749129
 40
0.7036040224578466
 40
0.7635279504758767
 40
0.8235658145674168
 40
0.8835943910498348
 40
0.9435157025558452
 40
1.0
 40
1.0
 40
1.0
 40
1.0
 10
17.85362957350481
 20
3.708460614075353
 30
0.0
 10
18.05588202369063
 20
3.776421271327759
 30
0.0
 10
18.53506834427295
 20
3.937436958718527
 30
0.0
 10
19.29161130894662
 20
3.994154420880142
 30
0.0
 10
20.12468082142399
 20
3.902813480405548
 30
0.0
 10
20.95649270731872
 20
3.634972492544818
 30
0.0
 10
21.78726353846013
 20
3.209430605127227
 30
0.0
 10
22.61878229577122
 20
2.642880528338309
 30
0.0
 10
23.45193777324172
 20
1.961767961681424
 30
0.0
 10
24.28332580432848
 20
1.193740544308459
 30
0.0
 10
25.11411360206204
 20
0.3735262224194228
 30
0.0
 10
25.94610184000578
 20
-0.4628072916196566
 30
0.0
 10
26.77904869898181
 20
-1.278143879059137
 30
0.0
 10
27.61012860106561
 20
-2.038734097619767
 30
0.0
 10
28.44104447181811
 20
-2.709669567402604
 30
0.0
 10
29.2736113566518
 20
-3.262480477664664
 30
0.0
 10
30.10606964434949
 20
-3.668877050749136
 30
0.0
 10
30.92089440805026
 20
-3.924262982388988
 30
0.0
 10
31.45881419874244
 20
-3.951039425663805
 30
0.0
 10
31.71983273326651
 20
-3.964032344132871
 30
0.0
  0
SPLINE
  5
D9
330
1F
100
AcDbEntity
  8
0
  6
Continuous
 62
     1
370
    15
100
AcDbSpline
210
0.0
220
0.0
230
1.0
 70
     8
 71
     3
 72
    22
 73
    18
 74
     0
 42
0.000000001
 43
0.00000001
 40
0.0
 40
0.0
 40
0.0
 40
0.0
 40
0.0703167411164388
 40
0.1406717398424374
 40
0.2111607327023566
 40
0.281558938171854
 40
0.3504102225258366
 40
0.4193144618505369
 40
0.4883517394482205
 40
0.5572594596526443
 40
0.6261102607238173
 40
0.6950492350224498
 40
0.7640760629017351
 40
0.8329566067981136
 40
0.9018155202986249
 40
0.9707976979525148
 40
1.0
 40
1.0
 40
1.0
 40
1.0
 10
41.1785
 20
-3.96875
 30
0.0
 10
40.70529925165842
 20
-3.902539281466641
 30
0.0
 10
40.13974394443059
 20
-3.8105471112547
 30
0.0
 10
39.29081538299433
 20
-3.45016487656345
 30
0.0
 10
38.44008696286071
 20
-2.945897114529191
 30
0.0
 10
37.59642881907217
 20
-2.307695260932817
 30
0.0
 10
36.75979530552326
 20
-1.572198124481328
 30
0.0
 10
35.92836667727162
 20
-0.7726268259631511
 30
0.0
 10
35.0952069292707
 20
0.0594383565555279
 30
0.0
 10
34.26373312295913
 20
0.8901599236202957
 30
0.0
 10
33.43295893776595
 20
1.681760964062253
 30
0.0
 10
32.60108618533084
 20
2.399788318920479
 30
0.0
 10
31.76806709152901
 20
3.01143510053519
 30
0.0
 10
30.9369215979099
 20
3.494931030895543
 30
0.0
 10
30.10606903967184
 20
3.814908889349419
 30
0.0
 10
29.43370642525946
 20
3.969567786521756
 30
0.0
 10
29.03860530809201
 20
3.952539195789091
 30
0.0
 10
28.92109323084808
 20
3.947474504795864
 30
0.0
  0
SPLINE
  5
DA
330
1F
100
AcDbEntity
  8
0
  6
Continuous
 62
     1
370
    15
100
AcDbSpline
210
0.0
220
0.0
230
1.0
 70
     8
 71
     3
 72
    17
 73
    13
 74
     0
 42
0.000000001
 43
0.00000001
 40
0.0
 40
0.0
 40
0.0
 40
0.0
 40
0.0285038148195641
 40
0.1344916335350729
 40
0.2405116324849322
 40
0.3463253370986444
 40
0.4521539753602836
 40
0.5582049403985323
 40
0.6641554238861421
 40
0.7760353669379999
 40
0.8879393556018046
 40
1.0
 40
1.0
 40
1.0
 40
1.0
 10
17.85362957350484
 20
-3.708460614075343
 30
0.0
 10
17.77906007603582
 20
-3.738933575601106
 30
0.0
 10
17.42721336393842
 20
-3.882716378015267
 30
0.0
 10
16.79720212881348
 20
-3.975055601881613
 30
0.0
 10
15.9645991441091
 20
-3.969901462244058
 30
0.0
 10
15.13365335981374
 20
-3.778440044060326
 30
0.0
 10
14.30260862658029
 20
-3.424742090251786
 30
0.0
 10
13.46968326624262
 20
-2.92092317551943
 30
0.0
 10
12.62178715368192
 20
-2.277020607914743
 30
0.0
 10
11.75899695684352
 20
-1.513981197729842
 30
0.0
 10
10.88019347729431
 20
-0.6620807198167361
 30
0.0
 10
10.29353460848604
 20
-0.0748773996547589
 30
0.0
 10
10.00000000000001
 20
0.2189296249208353
 30
0.0
  0
SPLINE
  5
DB
330
1F
100
AcDbEntity
  8
0
  6
Continuous
 62
     1
370
    15
100
AcDbSpline
210
0.0
220
0.0
230
1.0
 70
    24
 71
     3
 72
    14
 73
    10
 74
     0
 42
0.000000001
 43
0.00000001
 40
0.0
 40
0.0
 40
0.0
 40
0.0
 40
0.2500000000000001
 40
0.2500000000000001
 40
0.5000000000000001
 40
0.5000000000000001
 40
0.7500000000000001
 40
0.7500000000000001
 40
1.0
 40
1.0
 40
1.0
 40
1.0
 10
9.999999999999998
 20
2.735556864868828
 30
0.0
 10
9.999999999999998
 20
2.582339295957325
 30
0.0
 10
9.999999999999998
 20
2.402894039877469
 30
0.0
 10
9.999999999999998
 20
1.989592195738505
 30
0.0
 10
10.0
 20
1.754779060916166
 30
0.0
 10
10.0
 20
1.260609861182035
 30
0.0
 10
10.0
 20
1.00142692764267
 30
0.0
 10
10.0
 20
0.5412513483946518
 30
0.0
 10
10.0
 20
0.3434442677046196
 30
0.0
 10
10.0
 20
0.2189296249208355
 30
0.0
  0
SPLINE
  5
DC
330
1F
100
AcDbEntity
  8
0
  6
Continuous
 62
     1
370
    15
100
AcDbSpline
210
0.0
220
0.0
230
1.0
 70
     8
 71
     3
 72
    18
 73
    14
 74
     0
 42
0.000000001
 43
0.00000001
 40
0.0
 40
0.0
 40
0.0
 40
0.0
 40
0.0951206834237881
 40
0.1901083924157634
 40
0.2850756907180267
 40
0.3750098728079565
 40
0.4650293468736685
 40
0.5548601028122624
 40
0.6446781825896181
 40
0.7346713716423677
 40
0.8246372450759663
 40
0.9144474815006559
 40
0.9999999999999999
 40
0.9999999999999999
 40
0.9999999999999999
 40
0.9999999999999999
 10
9.999999999999961
 20
2.735556864868724
 30
0.0
 10
10.29353460772507
 20
2.510146145636231
 30
0.0
 10
10.88019347501256
 20
2.059639821205709
 30
0.0
 10
11.75899696595466
 20
1.246817565361881
 30
0.0
 10
12.62178712028609
 20
0.3982100110058251
 30
0.0
 10
13.46968338363419
 20
-0.45463634976732
 30
0.0
 10
14.30260818758676
 20
-1.270247050547555
 30
0.0
 10
15.13365499440328
 20
-2.031593644329699
 30
0.0
 10
15.96459303919955
 20
-2.703569990720473
 30
0.0
 10
16.7972249594059
 20
-3.257634698097045
 30
0.0
 10
17.62961441906606
 20
-3.665643628033457
 30
0.0
 10
18.44716016235004
 20
-3.923256935405433
 30
0.0
 10
18.98783766342187
 20
-3.951178984006272
 30
0.0
 10
19.25161272747504
 20
-3.964801041783008
 30
0.0
  0
SPLINE
  5
DD
330
1F
100
AcDbEntity
  8
0
  6
Continuous
 62
     1
370
    15
100
AcDbSpline
210
0.0
220
0.0
230
1.0
 70
     8
 71
     3
 72
    20
 73
    16
 74
     0
 42
0.000000001
 43
0.00000001
 40
0.0
 40
0.0
 40
0.0
 40
0.0
 40
0.0576858195796341
 40
0.1356095826411072
 40
0.2136988350814229
 40
0.2916886997815193
 40
0.3695788151286597
 40
0.4475333224332712
 40
0.525634396519213
 40
0.6035849659448311
 40
0.6814756280242278
 40
0.761116304079436
 40
0.8408596868599398
 40
0.9204514836256912
 40
1.0
 40
1.0
 40
1.0
 40
1.0
 10
30.32185953854265
 20
3.708842371174702
 30
0.0
 10
30.52686506040835
 20
3.777378601701467
 30
0.0
 10
31.00879828874625
 20
3.938495661062978
 30
0.0
 10
31.76805096167055
 20
3.994128296519651
 30
0.0
 10
32.6010905052343
 20
3.900971927508335
 30
0.0
 10
33.43295778255828
 20
3.631516389041603
 30
0.0
 10
34.2637334325954
 20
3.204474785381761
 30
0.0
 10
35.09520684609604
 20
2.636629363511817
 30
0.0
 10
35.92836669952744
 20
1.954525277506956
 30
0.0
 10
36.75979529957424
 20
1.18578214210569
 30
0.0
 10
37.59642882070551
 20
0.3596213974702847
 30
0.0
 10
38.44008696241845
 20
-0.4893225433117488
 30
0.0
 10
39.2908153831121
 20
-1.318606526248747
 30
0.0
 10
40.1397439444012
 20
-2.097796982499982
 30
0.0
 10
40.70529925164863
 20
-2.53068139559169
 30
0.0
 10
40.98800000000995
 20
-2.747064737710053
 30
0.0
  0
SPLINE
  5
DE
330
1F
100
AcDbEntity
  8
0
  6
Continuous
 62
     1
370
    15
100
AcDbSpline
210
0.0
220
0.0
230
1.0
 70
     8
 71
     3
 72
     8
 73
     4
 74
     0
 42
0.000000001
 43
0.00000001
 40
0.0
 40
0.0
 40
0.0
 40
0.0
 40
1.0
 40
1.0
 40
1.0
 40
1.0
 10
40.988
 20
-2.747064737702881
 30
0.0
 10
41.1132566105917
 20
-2.837267873099453
 30
0.0
 10
41.23009360593185
 20
-2.905913015568725
 30
0.0
 10
41.33358933922695
 20
-2.951011478193005
 30
0.0
  0
SPLINE
  5
DF
330
1F
100
AcDbEntity
  8
0
  6
Continuous
 62
     1
370
    15
100
AcDbSpline
210
0.0
220
0.0
230
1.0
 70
     8
 71
     3
 72
    10
 73
     6
 74
     0
 42
0.000000001
 43
0.00000001
 40
0.0
 40
0.0
 40
0.0
 40
0.0
 40
0.3593354671804662
 40
0.8292599037645222
 40
1.0
 40
1.0
 40
1.0
 40
1.0
 10
40.98987208683015
 20
-2.748238063634563
 30
0.0
 10
40.94468771709051
 20
-2.754038506621207
 30
0.0
 10
40.84041305031194
 20
-2.76742453508825
 30
0.0
 10
40.67835341873089
 20
-2.846720615675467
 30
0.0
 10
40.57722744364498
 20
-2.909074263085564
 30
0.0
 10
40.55027689802623
 20
-2.925691801928521
 30
0.0
  0
SPLINE
  5
E0
330
1F
100
AcDbEntity
  8
0
  6
Continuous
 62
     1
370
    15
100
AcDbSpline
210
0.0
220
0.0
230
1.0
 70
     8
 71
     3
 72
     8
 73
     4
 74
     0
 42
0.000000001
 43
0.00000001
 40
0.0
 40
0.0
 40
0.0
 40
0.0
 40
1.0
 40
1.0
 40
1.0
 40
1.0
 10
41.75
 20
-3.154023337650054
 30
0.0
 10
41.35318835531643
 20
-3.110141785732035
 30
0.0
 10
40.95238710809809
 20
-3.031869217404227
 30
0.0
 10
40.55027689802649
 20
-2.925691801928162
 30
0.0
  0
LINE
  5
E1
330
1F
100
AcDbEntity
  8
0
  6
Continuous
 62
     1
370
    15
100
AcDbLine
 10
41.75
 20
-3.157854843887868
 30
0.0
 11
41.75
 21
-3.154023337650051
 31
0.0
  0
SPLINE
  5
E2
330
1F
100
AcDbEntity
  8
0
  6
Continuous
 62
     1
370
    15
100
AcDbSpline
210
0.0
220
0.0
230
1.0
 70
     8
 71
     3
 72
    25
 73
    21
 74
     0
 42
0.000000001
 43
0.00000001
 40
0.0
 40
0.0
 40
0.0
 40
0.0
 40
0.0153938875994389
 40
0.0753040494043431
 40
0.135290934678572
 40
0.1953542652831409
 40
0.2552903076506948
 40
0.3152075284432466
 40
0.3752320068894317
 40
0.4352657723106906
 40
0.4951856094366383
 40
0.5551173585142279
 40
0.6151758241971277
 40
0.6751705218775115
 40
0.7350816192738573
 40
0.7950353449218004
 40
0.8551075092937007
 40
0.9150703214938366
 40
0.9749801573199072
 40
1.0
 40
1.0
 40
1.0
 40
1.0
 10
34.47700017952112
 20
-3.708939937850225
 30
0.0
 10
34.4058475437475
 20
-3.738116534979603
 30
0.0
 10
34.05778201676907
 20
-3.880843048830553
 30
0.0
 10
33.43299706269408
 20
-3.973976014907076
 30
0.0
 10
32.60107628461245
 20
-3.971197943906539
 30
0.0
 10
31.76806848637559
 20
-3.782164870512126
 30
0.0
 10
30.93692588861608
 20
-3.430719035052284
 30
0.0
 10
30.10605047363373
 20
-2.928089200484105
 30
0.0
 10
29.27361649872436
 20
-2.298004259225849
 30
0.0
 10
28.44104309607293
 20
-1.567471683483989
 30
0.0
 10
27.61012897231366
 20
-0.7676369004187337
 30
0.0
 10
26.77904858858242
 20
0.0658894087860483
 30
0.0
 10
25.94610190951488
 20
0.8953966257996573
 30
0.0
 10
25.11411343473254
 20
1.686427313221279
 30
0.0
 10
24.28332640354058
 20
2.404046453784273
 30
0.0
 10
23.45193553978961
 20
3.015686298473264
 30
0.0
 10
22.6187906410947
 20
3.497428234447471
 30
0.0
 10
21.78723247055917
 20
3.816348381845434
 30
0.0
 10
21.11807872221104
 20
3.97003142968305
 30
0.0
 10
20.7254274318714
 20
3.952687573236887
 30
0.0
 10
20.60975439877825
 20
3.947578163106275
 30
0.0
  0
SPLINE
  5
E3
330
1F
100
AcDbEntity
  8
0
  6
Continuous
 62
     1
370
    15
100
AcDbSpline
210
0.0
220
0.0
230
1.0
 70
     8
 71
     3
 72
     9
 73
     5
 74
     0
 42
0.000000001
 43
0.00000001
 40
0.0
 40
0.0
 40
0.0
 40
0.0
 40
0.9360483373690942
 40
1.0
 40
1.0
 40
1.0
 40
1.0
 10
9.999999999999961
 20
-3.857914754240299
 30
0.0
 10
10.2935796882966
 20
-3.925004745457069
 30
0.0
 10
10.60721700442259
 20
-3.996678385095526
 30
0.0
 10
10.920525307054
 20
-3.964614339399475
 30
0.0
 10
10.94056189392335
 20
-3.962563790366539
 30
0.0
  0
SPLINE
  5
E4
330
1F
100
AcDbEntity
  8
0
  6
Continuous
 62
     1
370
    15
100
AcDbSpline
210
0.0
220
0.0
230
1.0
 70
     8
 71
     3
 72
    24
 73
    20
 74
     0
 42
0.000000001
 43
0.00000001
 40
0.0
 40
0.0
 40
0.0
 40
0.0
 40
0.0439731388433017
 40
0.1040446068853536
 40
0.1639976375763378
 40
0.2239080405098526
 40
0.283902042758347
 40
0.3439598122701881
 40
0.4038908666455611
 40
0.4638100092073704
 40
0.5238430787438852
 40
0.583866861412976
 40
0.643783387671717
 40
0.7037187352872885
 40
0.7637813696644066
 40
0.8237675595973045
 40
0.8836770269502222
 40
0.9436360216129496
 40
1.0
 40
1.0
 40
1.0
 40
1.0
 10
22.008779633775
 20
3.708552505019773
 30
0.0
 10
22.21197191496445
 20
3.776697230476309
 30
0.0
 10
22.69274407666597
 20
3.93793409820825
 30
0.0
 10
23.45195314196911
 20
3.994147316227638
 30
0.0
 10
24.283321694961
 20
3.902169587207781
 30
0.0
 10
25.1141146978747
 20
3.63365918642399
 30
0.0
 10
25.94610157065679
 20
3.20767273880051
 30
0.0
 10
26.77904867837081
 20
2.641476604440385
 30
0.0
 10
27.61012895139464
 20
1.958978815257337
 30
0.0
 10
28.44104309007021
 20
1.190663757215473
 30
0.0
 10
29.27361654379679
 20
0.3710142601909819
 30
0.0
 10
30.10605029954007
 20
-0.464976100578081
 30
0.0
 10
30.936926538752
 20
-1.281242987449205
 30
0.0
 10
31.76806605642916
 20
-2.041529578580629
 30
0.0
 10
32.60108536990886
 20
-2.711200632371825
 30
0.0
 10
33.43296322461941
 20
-3.264013564803622
 30
0.0
 10
34.26371680628498
 20
-3.670132075010409
 30
0.0
 10
35.07813353373111
 20
-3.924616690372956
 30
0.0
 10
35.61638438233744
 20
-3.950950000014534
 30
0.0
 10
35.87719235863183
 20
-3.963709733165975
 30
0.0
  0
SPLINE
  5
E5
330
1F
100
AcDbEntity
  8
0
  6
Continuous
 62
     1
370
    15
100
AcDbSpline
210
0.0
220
0.0
230
1.0
 70
     8
 71
     3
 72
    18
 73
    14
 74
     0
 42
0.000000001
 43
0.00000001
 40
0.0
 40
0.0
 40
0.0
 40
0.0
 40
0.2500000000000024
 40
0.2500000000000024
 40
0.3750000000000037
 40
0.3750000000000037
 40
0.5000000000000049
 40
0.5000000000000049
 40
0.6250000000000061
 40
0.6250000000000061
 40
0.7500000000000073
 40
0.7500000000000073
 40
1.0
 40
1.0
 40
1.0
 40
1.0
 10
41.74999999999984
 20
-1.095813811474283
 30
0.0
 10
41.74999999999984
 20
-1.231901631185595
 30
0.0
 10
41.74972384572592
 20
-1.36763278674269
 30
0.0
 10
41.72447599758037
 20
-1.568846467694945
 30
0.0
 10
41.71146179406602
 20
-1.635837035251066
 30
0.0
 10
41.66643723738011
 20
-1.755781422731818
 30
0.0
 10
41.63388928931693
 20
-1.806730612864394
 30
0.0
 10
41.55054476063722
 20
-1.870720727297445
 30
0.0
 10
41.50004910722569
 20
-1.883708940162398
 30
0.0
 10
41.39687811866344
 20
-1.879556764953008
 30
0.0
 10
41.34424340860593
 20
-1.863762375961441
 30
0.0
 10
41.18762549890418
 20
-1.79317186219492
 30
0.0
 10
41.08594515315634
 20
-1.716828271988777
 30
0.0
 10
40.988
 20
-1.627695625552331
 30
0.0
  0
SPLINE
  5
E6
330
1F
100
AcDbEntity
  8
0
  6
Continuous
 62
     1
370
    15
100
AcDbSpline
210
0.0
220
0.0
230
1.0
 70
     8
 71
     3
 72
    17
 73
    13
 74
     0
 42
0.000000001
 43
0.00000001
 40
0.0
 40
0.0
 40
0.0
 40
0.0
 40
0.1072636737959465
 40
0.2145857071188957
 40
0.322112139889875
 40
0.4295000823258873
 40
0.53452829592225
 40
0.6396372889264005
 40
0.7449492232740925
 40
0.8500635261367667
 40
0.9550910025162331
 40
0.9999999999999999
 40
0.9999999999999999
 40
0.9999999999999999
 40
0.9999999999999999
 10
40.98800000000995
 20
-1.627695625561381
 30
0.0
 10
40.70529925260643
 20
-1.362406121837991
 30
0.0
 10
40.13974394727511
 20
-0.831682776896436
 30
0.0
 10
39.29081537159995
 20
0.0228646409181877
 30
0.0
 10
38.44008700565652
 20
0.8699305064431858
 30
0.0
 10
37.59642866102188
 20
1.673934278055594
 30
0.0
 10
36.75979588118696
 20
2.397383761863853
 30
0.0
 10
35.92836452366626
 20
3.010234189111304
 30
0.0
 10
35.0952149777478
 20
3.493351804381243
 30
0.0
 10
34.26370316070557
 20
3.81402285052115
 30
0.0
 10
33.59180045418139
 20
3.969292814374758
 30
0.0
 10
33.19637177167269
 20
3.952478054771329
 30
0.0
 10
33.07793290719738
 20
3.947441695190075
 30
0.0
  0
SPLINE
  5
E7
330
1F
100
AcDbEntity
  8
0
  6
Continuous
 62
     1
370
    15
100
AcDbSpline
210
0.0
220
0.0
230
1.0
 70
     8
 71
     3
 72
    22
 73
    18
 74
     0
 42
0.000000001
 43
0.00000001
 40
0.0
 40
0.0
 40
0.0
 40
0.0
 40
0.0184642852502927
 40
0.0876481602373557
 40
0.156916662347329
 40
0.2262801538464752
 40
0.2954969340696032
 40
0.3646879900822415
 40
0.4339989510125128
 40
0.503330956275924
 40
0.5725280549166106
 40
0.6417349194483267
 40
0.7110871750515272
 40
0.780373720529593
 40
0.8535378487825092
 40
0.9267177017148309
 40
1.0
 40
1.0
 40
1.0
 40
1.0
 10
22.00877963377502
 20
-3.708552505019762
 30
0.0
 10
21.93487333874366
 20
-3.738755304088668
 30
0.0
 10
21.58404736840964
 20
-3.882125043914707
 30
0.0
 10
20.95653170325471
 20
-3.974838102511672
 30
0.0
 10
20.12466690651875
 20
-3.970155847024007
 30
0.0
 10
19.29162789365656
 20
-3.779477561514188
 30
0.0
 10
18.46045372353288
 20
-3.426444973147873
 30
0.0
 10
17.62959521244553
 20
-2.922440633478071
 30
0.0
 10
16.79723011164124
 20
-2.291172110586748
 30
0.0
 10
15.96459166148976
 20
-1.5598388946111
 30
0.0
 10
15.13365536328508
 20
-0.7594967691258142
 30
0.0
 10
14.30260808851802
 20
0.0742291857937611
 30
0.0
 10
13.46968341012622
 20
0.9033679353794737
 30
0.0
 10
12.62178711274957
 20
1.709648121533118
 30
0.0
 10
11.75899696801081
 20
2.448689287389989
 30
0.0
 10
10.88019347449768
 20
3.093953434174565
 30
0.0
 10
10.29353460755339
 20
3.392094764800336
 30
0.0
 10
10.00000000000001
 20
3.541269700034019
 30
0.0
  0
SPLINE
  5
E8
330
1F
100
AcDbEntity
  8
0
  6
Continuous
 62
     1
370
    15
100
AcDbSpline
210
0.0
220
0.0
230
1.0
 70
    24
 71
     3
 72
     9
 73
     5
 74
     0
 42
0.000000001
 43
0.00000001
 40
0.0
 40
0.0
 40
0.0
 40
0.0
 40
0.3130698991214949
 40
1.0
 40
1.0
 40
1.0
 40
1.0
 10
10.0
 20
3.85791475424044
 30
0.0
 10
10.0
 20
3.827720143056859
 30
0.0
 10
10.0
 20
3.731273275222197
 30
0.0
 10
10.0
 20
3.649886667497864
 30
0.0
 10
10.0
 20
3.593979756843628
 30
0.0
  0
SPLINE
  5
E9
330
1F
100
AcDbEntity
  8
0
  6
Continuous
 62
     1
370
    15
100
AcDbSpline
210
0.0
220
0.0
230
1.0
 70
     8
 71
     3
 72
    23
 73
    19
 74
     0
 42
0.000000001
 43
0.00000001
 40
0.0
 40
0.0
 40
0.0
 40
0.0
 40
0.0656324802514583
 40
0.1311732092511829
 40
0.1966998550448032
 40
0.2587536925225123
 40
0.3208663807539655
 40
0.3828488550476572
 40
0.4448225828955479
 40
0.5069171346867226
 40
0.5689928389279224
 40
0.6309611549277224
 40
0.6929525098301832
 40
0.7550752610609696
 40
0.8171129386879683
 40
0.8790748232775871
 40
0.9410914988031281
 40
1.0
 40
1.0
 40
1.0
 40
1.0
 10
9.999999999999961
 20
3.857914754240301
 30
0.0
 10
10.29353460755181
 20
3.90842540427745
 30
0.0
 10
10.88019347449302
 20
4.009376092737663
 30
0.0
 10
11.75899696802927
 20
3.91424299607575
 30
0.0
 10
12.62178711268185
 20
3.64607767822235
 30
0.0
 10
13.46968341036428
 20
3.212420040082716
 30
0.0
 10
14.30260808762782
 20
2.647761086226907
 30
0.0
 10
15.13365536659976
 20
1.966197593178392
 30
0.0
 10
15.96459164911
 20
1.198579125752645
 30
0.0
 10
16.79723015793796
 20
0.3793201590462629
 30
0.0
 10
17.62959503985954
 20
-0.4567425630472565
 30
0.0
 10
18.46045436649674
 20
-1.273375150883763
 30
0.0
 10
19.29162549079935
 20
-2.034382560563985
 30
0.0
 10
20.12467588998908
 20
-2.705076017167749
 30
0.0
 10
20.95649824725675
 20
-3.259200546339765
 30
0.0
 10
21.78724631620077
 20
-3.666898947259425
 30
0.0
 10
22.60445195243739
 20
-3.923610946790987
 30
0.0
 10
23.14545562104224
 20
-3.951087037558767
 30
0.0
 10
23.40900466949787
 20
-3.964471970041394
 30
0.0
  0
SPLINE
  5
EA
330
1F
100
AcDbEntity
  8
0
  6
Continuous
 62
     1
370
    15
100
AcDbSpline
210
0.0
220
0.0
230
1.0
 70
     8
 71
     3
 72
    15
 73
    11
 74
     0
 42
0.000000001
 43
0.00000001
 40
0.0
 40
0.0
 40
0.0
 40
0.0
 40
0.094921331709787
 40
0.2228704352413779
 40
0.3505729744767527
 40
0.4781773704876749
 40
0.6086487273181941
 40
0.7392883434662969
 40
0.8696796237890286
 40
1.0
 40
1.0
 40
1.0
 40
1.0
 10
34.47700017952115
 20
3.708939937850236
 30
0.0
 10
34.68292189178592
 20
3.777654986717657
 30
0.0
 10
35.16641554712584
 20
3.938994409299058
 30
0.0
 10
35.92838137666613
 20
3.994113880477935
 30
0.0
 10
36.75979137634113
 20
3.900335103743245
 30
0.0
 10
37.59642989784165
 20
3.62827249635383
 30
0.0
 10
38.4400866707586
 20
3.193167546233656
 30
0.0
 10
39.29081546076663
 20
2.608554403852231
 30
0.0
 10
40.13974392501527
 20
1.907832934382454
 30
0.0
 10
40.70529924518782
 20
1.373952093800591
 30
0.0
 10
40.98800000000995
 20
1.107084271619178
 30
0.0
  0
SPLINE
  5
EB
330
1F
100
AcDbEntity
  8
0
  6
Continuous
 62
     1
370
    15
100
AcDbSpline
210
0.0
220
0.0
230
1.0
 70
     8
 71
     3
 72
     8
 73
     4
 74
     0
 42
0.000000001
 43
0.00000001
 40
0.0
 40
0.0
 40
0.0
 40
0.0
 40
1.0
 40
1.0
 40
1.0
 40
1.0
 10
40.988
 20
1.10708427162872
 30
0.0
 10
41.1132566105917
 20
0.9870636751994775
 30
0.0
 10
41.23009360593186
 20
0.8521830078852225
 30
0.0
 10
41.33358933922696
 20
0.7139398899543297
 30
0.0
  0
SPLINE
  5
EC
330
1F
100
AcDbEntity
  8
0
  6
Continuous
 62
     1
370
    15
100
AcDbSpline
210
0.0
220
0.0
230
1.0
 70
     8
 71
     3
 72
    14
 73
    10
 74
     0
 42
0.000000001
 43
0.00000001
 40
0.0
 40
0.0
 40
0.0
 40
0.0
 40
0.25
 40
0.25
 40
0.5
 40
0.5
 40
0.75
 40
0.75
 40
1.0
 40
1.0
 40
1.0
 40
1.0
 10
41.33358933922577
 20
0.7139398899552067
 30
0.0
 10
41.31931226268585
 20
0.642181414104827
 30
0.0
 10
41.2960941413689
 20
0.5665040640020557
 30
0.0
 10
41.22351933119609
 20
0.4036927877609571
 30
0.0
 10
41.17304643150731
 20
0.3152191269257049
 30
0.0
 10
41.03908358870204
 20
0.1352470471689643
 30
0.0
 10
40.95549527488203
 20
0.0438986733909883
 30
0.0
 10
40.76170899848621
 20
-0.1260205588275446
 30
0.0
 10
40.65527788522789
 20
-0.2010846787915491
 30
0.0
 10
40.55027689802621
 20
-0.2613772235161185
 30
0.0
  0
SPLINE
  5
ED
330
1F
100
AcDbEntity
  8
0
  6
Continuous
 62
     1
370
    15
100
AcDbSpline
210
0.0
220
0.0
230
1.0
 70
     8
 71
     3
 72
     8
 73
     4
 74
     0
 42
0.000000001
 43
0.00000001
 40
0.0
 40
0.0
 40
0.0
 40
0.0
 40
1.0
 40
1.0
 40
1.0
 40
1.0
 10
41.75
 20
-1.086052377163081
 30
0.0
 10
41.35318835531643
 20
-0.8163315070490115
 30
0.0
 10
40.9523871080981
 20
-0.5406340142870326
 30
0.0
 10
40.5502768980265
 20
-0.2613772235157115
 30
0.0
  0
LINE
  5
EE
330
1F
100
AcDbEntity
  8
0
  6
Continuous
 62
     1
370
    15
100
AcDbLine
 10
41.75
 20
-1.095813811503727
 30
0.0
 11
41.75
 21
-1.086052377163082
 31
0.0
  0
LINE
  5
F1
330
1F
100
AcDbEntity
  8
0
  6
Continuous
 62
     1
370
    15
100
AcDbLine
 10
41.75
 20
-0.8660254037844349
 30
0.0
 11
41.75
 21
0.6573955461256622
 31
0.0
  0
LINE
  5
F2
330
1F
100
AcDbEntity
  8
0
  6
Continuous
 62
     1
370
    15
100
AcDbLine
 10
40.55027689802652
 20
-0.2613772235157501
 30
0.0
 11
41.75
 21
-0.8660254037844349
 31
0.0
  0
SPLINE
  5
F3
330
1F
100
AcDbEntity
  8
0
  6
Continuous
 62
     1
370
    15
100
AcDbSpline
210
0.0
220
0.0
230
1.0
 70
     8
 71
     3
 72
    10
 73
     6
 74
     0
 42
0.000000001
 43
0.00000001
 40
0.0
 40
0.0
 40
0.0
 40
0.0
 40
0.5
 40
0.5
 40
1.0
 40
1.0
 40
1.0
 40
1.0
 10
41.75
 20
0.6573955461205414
 30
0.0
 10
41.75000000000175
 20
0.7292098939372147
 30
0.0
 10
41.71030012946454
 20
0.7770970710066144
 30
0.0
 10
41.55700749980713
 20
0.7954612443980685
 30
0.0
 10
41.44900246011199
 20
0.767030384419302
 30
0.0
 10
41.33358933922624
 20
0.7139398899559715
 30
0.0
  0
LINE
  5
F4
330
1F
100
AcDbEntity
  8
0
  6
Continuous
 62
     1
370
    15
100
AcDbLine
 10
41.75
 20
0.6573955461256622
 30
0.0
 11
41.75
 21
2.062041032405032
 31
0.0
  0
LINE
  5
F5
330
1F
100
AcDbEntity
  8
0
  6
Continuous
 62
     1
370
    15
100
AcDbLine
 10
41.75
 20
-2.389446353694545
 30
0.0
 11
41.75
 21
-1.095813811502891
 31
0.0
  0
SPLINE
  5
F6
330
1F
100
AcDbEntity
  8
0
  6
Continuous
 62
     1
370
    15
100
AcDbSpline
210
0.0
220
0.0
230
1.0
 70
     8
 71
     3
 72
    10
 73
     6
 74
     0
 42
0.000000001
 43
0.00000001
 40
0.0
 40
0.0
 40
0.0
 40
0.0
 40
0.5
 40
0.5
 40
1.0
 40
1.0
 40
1.0
 40
1.0
 10
41.75
 20
-2.389446353689424
 30
0.0
 10
41.75000000000175
 20
-2.461260701503984
 30
0.0
 10
41.71030012946454
 20
-2.557295684332834
 30
0.0
 10
41.55700749980713
 20
-2.761572397418366
 30
0.0
 10
41.44900246011199
 20
-2.864129513015188
 30
0.0
 10
41.33358933922624
 20
-2.951011478192252
 30
0.0
  0
LINE
  5
F7
330
1F
100
AcDbEntity
  8
0
  6
Continuous
 62
     1
370
    15
100
AcDbLine
 10
41.75
 20
-0.8660254037844349
 30
0.0
 11
41.75
 21
-1.086052377163079
 31
0.0
  0
SPLINE
  5
F8
330
1F
100
AcDbEntity
  8
0
  6
Continuous
 62
     1
370
    15
100
AcDbSpline
210
0.0
220
0.0
230
1.0
 70
     8
 71
     3
 72
    10
 73
     6
 74
     0
 42
0.000000001
 43
0.00000001
 40
0.0
 40
0.0
 40
0.0
 40
0.0
 40
0.5
 40
0.5
 40
1.0
 40
1.0
 40
1.0
 40
1.0
 10
41.75
 20
3.04684189982021
 30
0.0
 10
41.74999999999999
 20
3.19047059544955
 30
0.0
 10
41.71030012946157
 20
3.334392755345698
 30
0.0
 10
41.55700749980457
 20
3.557033641818193
 30
0.0
 10
41.44900246011055
 20
3.631159897434928
 30
0.0
 10
41.33358933922617
 20
3.664951368148247
 30
0.0
  0
LINE
  5
F9
330
1F
100
AcDbEntity
  8
0
  6
Continuous
 62
     1
370
    15
100
AcDbLine
 10
41.75
 20
2.06797096048696
 30
0.0
 11
41.75
 21
3.04684189982021
 31
0.0
  0
LINE
  5
FA
330
1F
100
AcDbEntity
  8
0
  6
Continuous
 62
     1
370
    15
100
AcDbLine
 10
41.75
 20
-2.389446353694546
 30
0.0
 11
41.75
 21
-3.587750000000005
 31
0.0
  0
LINE
  5
FB
330
1F
100
AcDbEntity
  8
0
  6
Continuous
 62
     1
370
    15
100
AcDbLine
 10
41.75
 20
3.04684189982021
 30
0.0
 11
41.75
 21
3.587750000000005
 31
0.0
  0
LINE
  5
100
330
1F
100
AcDbEntity
  8
중심선
100
AcDbLine
 10
-37.45
 20
0.0
 30
0.0
 11
44.75
 21
0.0
 31
0.0
  0
CIRCLE
  5
101
330
1F
100
AcDbEntity
  8
외형선
100
AcDbCircle
 10
0.0
 20
0.0
 30
0.0
 40
3.000000000000001
  0
INSERT
  5
102
330
1F
100
AcDbEntity
  8
0
  6
Continuous
 62
     7
100
AcDbBlockReference
 66
     1
  2
블럭10
 10
-16.62936049909349
 20
-51.78679627639982
 30
0.0
  0
ATTRIB
  5
103
330
102
100
AcDbEntity
  8
FORMAT
 62
     2
100
AcDbText
 10
-27.68038085127795
 20
-49.71142936356762
 30
0.0
 40
4.233333333333333
  1
GMG22905[ 6 FLUTE ]
 41
0.75
  7
SLDTEXTSTYLE0
 11
-27.68038085127795
 21
-51.82809603023429
 31
0.0
100
AcDbAttribute
  2
AUTOATTR0
 70
     0
 74
     1
  0
SEQEND
  5
104
330
102
100
AcDbEntity
  8
0
  6
Continuous
 62
     7
  0
HATCH
  5
105
330
1F
100
AcDbEntity
  8
중심선
100
AcDbHatch
 10
0.0
 20
0.0
 30
0.0
210
0.0
220
0.0
230
1.0
  2
SOLID
 70
     1
 71
     0
 91
        1
 92
        0
 93
        4
 72
     1
 10
-10.91445119471263
 20
-35.53962197475588
 11
-14.36072643854992
 21
-35.53962197475588
 72
     1
 10
-14.36072643854992
 20
-35.53962197475588
 11
-16.48895629775394
 21
-38.07594755532848
 72
     1
 10
-16.48895629775394
 20
-38.07594755532848
 11
-13.04264796880351
 21
-38.07590812602599
 72
     1
 10
-13.04264796880351
 20
-38.07590812602599
 11
-10.91445119471263
 21
-35.53962197475588
 97
        0
 75
     0
 76
     1
 98
        1
 10
0.0004859200744764
 20
0.2622744311706916
  0
HATCH
  5
106
330
1F
100
AcDbEntity
  8
중심선
100
AcDbHatch
 10
0.0
 20
0.0
 30
0.0
210
0.0
220
0.0
230
1.0
  2
SOLID
 70
     1
 71
     0
 91
        1
 92
        0
 93
        4
 72
     1
 10
-5.901687203676683
 20
-35.53962197475588
 11
-9.347962447513964
 21
-35.53962197475588
 72
     1
 10
-9.347962447513964
 20
-35.53962197475588
 11
-13.87910045587135
 21
-40.93962197475589
 72
     1
 10
-13.87910045587135
 20
-40.93962197475589
 11
-10.43282521203407
 21
-40.93962197475589
 72
     1
 10
-10.43282521203407
 20
-40.93962197475589
 11
-5.901687203676683
 21
-35.53962197475588
 97
        0
 75
     0
 76
     1
 98
        1
 10
0.0004859200744764
 20
0.2622744311706916
  0
HATCH
  5
107
330
1F
100
AcDbEntity
  8
중심선
100
AcDbHatch
 10
0.0
 20
0.0
 30
0.0
210
0.0
220
0.0
230
1.0
  2
SOLID
 70
     1
 71
     0
 91
        1
 92
        0
 93
        4
 72
     1
 10
-0.8889232126407867
 20
-35.53962197475591
 11
-4.335198456477903
 21
-35.53962197475588
 72
     1
 10
-4.335198456477903
 20
-35.53962197475588
 11
-11.38363535836715
 21
-43.9396219747559
 72
     1
 10
-11.38363535836715
 20
-43.9396219747559
 11
-7.937360114529869
 21
-43.9396219747559
 72
     1
 10
-7.937360114529869
 20
-43.9396219747559
 11
-0.8889232126407869
 21
-35.53962197475591
 97
        0
 75
     0
 76
     1
 98
        1
 10
0.0004859200744764
 20
0.2622744311706916
  0
HATCH
  5
108
330
1F
100
AcDbEntity
  8
중심선
100
AcDbHatch
 10
0.0
 20
0.0
 30
0.0
210
0.0
220
0.0
230
1.0
  2
SOLID
 70
     1
 71
     0
 91
        1
 92
        0
 93
        6
 72
     3
 10
3.910967218371413
 20
-39.73962197480716
 11
3.960054785062283
 21
1.540882976769353E-10
 40
0.3939339440162628
 50
17.09539180608437
 51
320.0019657685081
 73
     0
 72
     1
 10
5.593966874072008
 20
-38.32751597939419
 11
7.899268747773046
 21
-36.39318926934626
 72
     3
 10
3.910967218318566
 20
-39.73962197475603
 11
6.600054785286829
 21
-1.278976924368180E-13
 40
0.636358354079598
 50
39.9987384933741
 51
368.4976242363725
 73
     1
 72
     1
 10
10.33629971021917
 20
-38.7796219746859
 11
2.591034525154488
 21
-38.77962197468587
 72
     1
 10
2.591034525154488
 20
-38.77962197468587
 11
2.591009480708554
 21
-40.6996219746858
 72
     1
 10
2.591009480708554
 20
-40.6996219746858
 11
7.032389250180591
 21
-40.69962197468577
 97
        0
 75
     0
 76
     1
 98
        1
 10
0.0004859200744764
 20
0.2622744311706916
  0
POINT
  5
109
330
1F
100
AcDbEntity
  8
치수문자_일반주서
100
AcDbPoint
 10
0.0
 20
0.0
 30
0.0
  0
DIMENSION
  5
11F
330
1F
100
AcDbEntity
  8
치수문자_일반주서
100
AcDbDimension
  2
_D_1
 10
41.75
 20
36.62430141807178
 30
0.0
 11
3.649999999999999
 21
36.62430141807178
 31
0.0
 70
   160
  1
<>
 71
     2
 42
76.2
  3
SLDDIMSTYLE1
100
AcDbAlignedDimension
 13
-34.45
 23
3.468749999999999
 33
0.0
 14
41.75
 24
3.206750000000004
 34
0.0
100
AcDbRotatedDimension
1001
ACAD
1000
DSTYLE
1002
{
1070
   171
1070
     4
1070
   273
1070
     7
1002
}
  0
DIMENSION
  5
133
330
1F
100
AcDbEntity
  8
치수문자_일반주서
100
AcDbDimension
  2
_D_2
 10
10.0
 20
20.83374453033794
 30
0.0
 11
25.52575141487685
 21
20.83374453033794
 31
0.0
 70
   160
  1
<>
 71
     2
 42
31.75
  3
SLDDIMSTYLE2
100
AcDbAlignedDimension
 13
41.75
 23
3.206750000000004
 33
0.0
 14
10.0
 24
3.85791475424044
 34
0.0
100
AcDbRotatedDimension
1001
ACAD
1000
DSTYLE
1002
{
1070
   171
1070
     4
1070
   273
1070
     7
1002
}
  0
DIMENSION
  5
147
330
1F
100
AcDbEntity
  8
치수문자_일반주서
100
AcDbDimension
  2
_D_3
 10
-47.45
 20
-3.968750000000049
 30
0.0
 11
-47.45000000000002
 21
-0.0000000000000002
 31
0.0
 70
   160
  1
%%c<>
 71
     2
 42
7.9375
 52
-270.0
  3
SLDDIMSTYLE0
100
AcDbAlignedDimension
 13
-33.95
 23
3.968750000000002
 33
0.0
 14
-33.95
 24
-3.968749999999998
 34
0.0
 50
90.0000000000002
100
AcDbRotatedDimension
1001
ACAD
1000
DSTYLE
1002
{
1070
   171
1070
     4
1070
   273
1070
     7
1002
}
  0
INSERT
  5
161
330
1F
100
AcDbEntity
  8
외형선
100
AcDbBlockReference
  2
SW_DOWELSYMBOL_0
 10
0.0
 20
0.0
 30
0.0
  0
ARC
  5
187
102
{ACAD_REACTORS
102
}
330
1F
100
AcDbEntity
  8
0
  6
Continuous
 62
     1
370
    15
100
AcDbCircle
 10
41.369
 20
3.587750000000005
 30
0.0
 40
0.3809999999999999
100
AcDbArc
 50
0.0
 51
90.0
  0
ARC
  5
188
330
1F
100
AcDbEntity
  8
0
  6
Continuous
 62
     1
370
    15
100
AcDbCircle
 10
41.369
 20
-3.587750000000005
 30
0.0
 40
0.3809999999999999
100
AcDbArc
 50
270.0
 51
0.0
  0
LINE
  5
189
102
{ACAD_REACTORS
102
}
330
1F
100
AcDbEntity
  8
0
  6
Continuous
 62
     1
370
    15
100
AcDbLine
 10
41.369
 20
-3.968750000000004
 30
0.0
 11
40.988
 21
-3.968749999999996
 31
0.0
  0
DIMENSION
  5
18B
102
{ACAD_REACTORS
102
}
102
{ACAD_XDICTIONARY
360
18C
102
}
330
1F
100
AcDbEntity
  8
치수문자_일반주서
100
AcDbDimension
  2
*D7
 10
55.34589621258699
 20
-3.968750000000005
 30
0.0
 11
55.34589621258699
 21
0.0
 31
0.0
 70
   160
  1
{%%c<>[]}
 71
     5
 42
7.937500000000009
  3
SLDDIMSTYLE0
100
AcDbAlignedDimension
 13
41.369
 23
3.968750000000004
 33
0.0
 14
41.369
 24
-3.968750000000004
 34
0.0
 50
90.0
100
AcDbRotatedDimension
1001
ACAD
1000
DSTYLE
1002
{
1070
   283
1070
     1
1070
   170
1070
     1
1070
   171
1070
     4
1070
   273
1070
     7
1002
}
1001
ACAD_DSTYLE_DIMFLIPARROW_SYMBOL
1070
   385
1070
     0
1001
ACAD_DSTYLE_DIMFLIPARROW_WHICH_SYMBOL
1070
   386
1070
     3
  0
DIMENSION
  5
1A1
102
{ACAD_REACTORS
102
}
102
{ACAD_XDICTIONARY
360
1A2
102
}
330
1F
100
AcDbEntity
  8
치수문자_일반주서
100
AcDbDimension
  2
*D8
 10
41.369
 20
3.587750000000005
 30
0.0
 11
55.35596029817234
 21
20.67096232028248
 31
0.0
 70
   164
  1
<>
 71
     5
 42
0.3810000000000031
  3
SLDDIMSTYLE2
100
AcDbRadialDimension
 15
41.61036474544998
 25
3.882544945095523
 35
0.0
 40
0.0
1001
ACAD
1000
DSTYLE
1002
{
1070
   171
1070
     3
1070
   273
1070
     2
1002
}
1001
ACAD_DSTYLE_DIMRADIAL_EXTENSION
1070
   387
1070
     1
1070
   388
1040
0.0
1070
   390
1040
1.570796326794897
  0
ENDSEC
  0
SECTION
  2
OBJECTS
  0
DICTIONARY
  5
C
330
0
100
AcDbDictionary
281
     1
  3
ACAD_GROUP
350
D
  3
ACAD_IMAGE_VARS
350
185
  3
ACAD_LAYOUT
350
1A
  3
ACAD_MLINESTYLE
350
17
  3
ACAD_PLOTSETTINGS
350
19
  3
ACAD_PLOTSTYLENAME
350
E
  3
ACAD_SCALELIST
350
47
  3
APPDATA
350
183
  3
DWGPROPS
350
1AE
  0
DICTIONARY
  5
18C
330
18B
100
AcDbDictionary
280
     1
281
     1
  0
DICTIONARY
  5
1A2
330
1A1
100
AcDbDictionary
280
     1
281
     1
  0
DICTIONARY
  5
D
102
{ACAD_REACTORS
330
C
102
}
330
C
100
AcDbDictionary
281
     1
  0
RASTERVARIABLES
  5
185
102
{ACAD_REACTORS
330
C
102
}
330
C
100
AcDbRasterVariables
 90
        0
 70
     1
 71
     1
 72
     1
  0
DICTIONARY
  5
1A
102
{ACAD_REACTORS
330
C
102
}
330
C
100
AcDbDictionary
281
     1
  3
Layout1
350
1E
  3
Layout2
350
26
  3
Model
350
22
  0
DICTIONARY
  5
17
102
{ACAD_REACTORS
330
C
102
}
330
C
100
AcDbDictionary
281
     1
  3
Standard
350
18
  0
DICTIONARY
  5
19
102
{ACAD_REACTORS
330
C
102
}
330
C
100
AcDbDictionary
281
     1
  0
ACDBDICTIONARYWDFLT
  5
E
102
{ACAD_REACTORS
330
C
102
}
330
C
100
AcDbDictionary
281
     1
  3
Normal
350
F
100
AcDbDictionaryWithDefault
340
F
  0
DICTIONARY
  5
47
102
{ACAD_REACTORS
330
C
102
}
330
C
100
AcDbDictionary
281
     1
  3
A0
350
48
  3
A1
350
49
  3
A2
350
4A
  3
A3
350
4B
  3
A4
350
4C
  3
A5
350
4D
  3
A6
350
4E
  3
A7
350
4F
  3
A8
350
50
  3
A9
350
51
  3
B0
350
52
  3
B1
350
53
  3
B2
350
54
  3
B3
350
55
  3
B4
350
56
  3
B5
350
57
  3
B6
350
58
  3
B7
350
59
  3
B8
350
5A
  3
B9
350
5B
  3
C0
350
5C
  3
C1
350
5D
  3
C2
350
5E
  3
C3
350
5F
  3
C4
350
60
  3
C5
350
61
  3
C6
350
62
  3
C7
350
63
  3
C8
350
64
  3
C9
350
65
  3
D0
350
66
  3
D1
350
67
  3
D2
350
68
  0
DICTIONARY
  5
183
102
{ACAD_REACTORS
330
C
102
}
330
C
100
AcDbDictionary
281
     1
  0
XRECORD
  5
1AE
102
{ACAD_REACTORS
330
C
102
}
330
C
100
AcDbXrecord
280
     1
  1
DWGPROPS COOKIE
  2

  3

  4

  6

  7

  8
12016016
  9

300
=
301
=
302
=
303
=
304
=
305
=
306
=
307
=
308
=
309
=
 40
0.0
 41
2458236.364488241
 42
2458241.205711493
  1

 90
        0
  0
LAYOUT
  5
1E
102
{ACAD_REACTORS
330
1A
102
}
330
1A
100
AcDbPlotSettings
  1

  2
none_device
  4

  6

 40
0.0
 41
0.0
 42
0.0
 43
0.0
 44
0.0
 45
0.0
 46
0.0
 47
0.0
 48
0.0
 49
0.0
140
0.0
141
0.0
142
1.0
143
1.0
 70
   688
 72
     1
 73
     0
 74
     5
  7

 75
    16
147
1.0
148
0.0
149
0.0
100
AcDbLayout
  1
Layout1
 70
     1
 71
     1
 10
0.0
 20
0.0
 11
420.0
 21
297.0
 12
0.0
 22
0.0
 32
0.0
 14
1.000000000000000E+20
 24
1.000000000000000E+20
 34
1.000000000000000E+20
 15
-1.000000000000000E+20
 25
-1.000000000000000E+20
 35
-1.000000000000000E+20
146
0.0
 13
0.0
 23
0.0
 33
0.0
 16
1.0
 26
0.0
 36
0.0
 17
0.0
 27
1.0
 37
0.0
 76
     0
330
1B
  0
LAYOUT
  5
26
102
{ACAD_REACTORS
330
1A
102
}
330
1A
100
AcDbPlotSettings
  1

  2
none_device
  4

  6

 40
0.0
 41
0.0
 42
0.0
 43
0.0
 44
0.0
 45
0.0
 46
0.0
 47
0.0
 48
0.0
 49
0.0
140
0.0
141
0.0
142
1.0
143
1.0
 70
   688
 72
     1
 73
     0
 74
     5
  7

 75
    16
147
1.0
148
0.0
149
0.0
100
AcDbLayout
  1
Layout2
 70
     1
 71
     2
 10
0.0
 20
0.0
 11
0.0
 21
0.0
 12
0.0
 22
0.0
 32
0.0
 14
0.0
 24
0.0
 34
0.0
 15
0.0
 25
0.0
 35
0.0
146
0.0
 13
0.0
 23
0.0
 33
0.0
 16
1.0
 26
0.0
 36
0.0
 17
0.0
 27
1.0
 37
0.0
 76
     0
330
23
  0
LAYOUT
  5
22
102
{ACAD_REACTORS
330
1A
102
}
330
1A
100
AcDbPlotSettings
  1

  2
none_device
  4
ANSI_A_(11.00_x_8.50_Inches)
  6

 40
6.35
 41
19.05
 42
6.35000508
 43
19.05000254
 44
279.4
 45
215.9
 46
122.9750942021472
 47
92.79030220530753
 48
0.0
 49
0.0
140
0.0
141
0.0
142
0.0859791389141407
143
1.0
 70
  1696
 72
     0
 73
     0
 74
     0
  7

 75
     0
147
0.0235690232323232
148
0.0
149
0.0
100
AcDbLayout
  1
Model
 70
     1
 71
     0
 10
0.0
 20
0.0
 11
420.0
 21
297.0
 12
0.0
 22
0.0
 32
0.0
 14
-51.82500000000006
 24
-49.71142936356763
 34
0.0
 15
64.22500606273839
 25
40.99930141807178
 35
0.0
146
0.0
 13
0.0
 23
0.0
 33
0.0
 16
1.0
 26
0.0
 36
0.0
 17
0.0
 27
1.0
 37
0.0
 76
     0
330
1F
331
29
  0
MLINESTYLE
  5
18
102
{ACAD_REACTORS
330
17
102
}
330
17
100
AcDbMlineStyle
  2
Standard
 70
     0
  3

 62
   256
 51
90.0
 52
90.0
 71
     2
 49
0.5
 62
   256
  6
BYLAYER
 49
-0.5
 62
   256
  6
BYLAYER
  0
ACDBPLACEHOLDER
  5
F
102
{ACAD_REACTORS
330
E
102
}
330
E
  0
SCALE
  5
48
102
{ACAD_REACTORS
330
47
102
}
330
47
100
AcDbScale
 70
     0
300
1:1
140
1.0
141
1.0
290
     1
  0
SCALE
  5
49
102
{ACAD_REACTORS
330
47
102
}
330
47
100
AcDbScale
 70
     0
300
1:2
140
1.0
141
2.0
290
     0
  0
SCALE
  5
4A
102
{ACAD_REACTORS
330
47
102
}
330
47
100
AcDbScale
 70
     0
300
1:4
140
1.0
141
4.0
290
     0
  0
SCALE
  5
4B
102
{ACAD_REACTORS
330
47
102
}
330
47
100
AcDbScale
 70
     0
300
1:5
140
1.0
141
5.0
290
     0
  0
SCALE
  5
4C
102
{ACAD_REACTORS
330
47
102
}
330
47
100
AcDbScale
 70
     0
300
1:8
140
1.0
141
8.0
290
     0
  0
SCALE
  5
4D
102
{ACAD_REACTORS
330
47
102
}
330
47
100
AcDbScale
 70
     0
300
1:10
140
1.0
141
10.0
290
     0
  0
SCALE
  5
4E
102
{ACAD_REACTORS
330
47
102
}
330
47
100
AcDbScale
 70
     0
300
1:16
140
1.0
141
16.0
290
     0
  0
SCALE
  5
4F
102
{ACAD_REACTORS
330
47
102
}
330
47
100
AcDbScale
 70
     0
300
1:20
140
1.0
141
20.0
290
     0
  0
SCALE
  5
50
102
{ACAD_REACTORS
330
47
102
}
330
47
100
AcDbScale
 70
     0
300
1:30
140
1.0
141
30.0
290
     0
  0
SCALE
  5
51
102
{ACAD_REACTORS
330
47
102
}
330
47
100
AcDbScale
 70
     0
300
1:40
140
1.0
141
40.0
290
     0
  0
SCALE
  5
52
102
{ACAD_REACTORS
330
47
102
}
330
47
100
AcDbScale
 70
     0
300
1:50
140
1.0
141
50.0
290
     0
  0
SCALE
  5
53
102
{ACAD_REACTORS
330
47
102
}
330
47
100
AcDbScale
 70
     0
300
1:100
140
1.0
141
100.0
290
     0
  0
SCALE
  5
54
102
{ACAD_REACTORS
330
47
102
}
330
47
100
AcDbScale
 70
     0
300
2:1
140
2.0
141
1.0
290
     0
  0
SCALE
  5
55
102
{ACAD_REACTORS
330
47
102
}
330
47
100
AcDbScale
 70
     0
300
4:1
140
4.0
141
1.0
290
     0
  0
SCALE
  5
56
102
{ACAD_REACTORS
330
47
102
}
330
47
100
AcDbScale
 70
     0
300
8:1
140
8.0
141
1.0
290
     0
  0
SCALE
  5
57
102
{ACAD_REACTORS
330
47
102
}
330
47
100
AcDbScale
 70
     0
300
10:1
140
10.0
141
1.0
290
     0
  0
SCALE
  5
58
102
{ACAD_REACTORS
330
47
102
}
330
47
100
AcDbScale
 70
     0
300
100:1
140
100.0
141
1.0
290
     0
  0
SCALE
  5
59
102
{ACAD_REACTORS
330
47
102
}
330
47
100
AcDbScale
 70
     0
300
1/128" = 1'-0"
140
0.0078125
141
12.0
290
     0
  0
SCALE
  5
5A
102
{ACAD_REACTORS
330
47
102
}
330
47
100
AcDbScale
 70
     0
300
1/64" = 1'-0"
140
0.015625
141
12.0
290
     0
  0
SCALE
  5
5B
102
{ACAD_REACTORS
330
47
102
}
330
47
100
AcDbScale
 70
     0
300
1/32" = 1'-0"
140
0.03125
141
12.0
290
     0
  0
SCALE
  5
5C
102
{ACAD_REACTORS
330
47
102
}
330
47
100
AcDbScale
 70
     0
300
1/16" = 1'-0"
140
0.0625
141
12.0
290
     0
  0
SCALE
  5
5D
102
{ACAD_REACTORS
330
47
102
}
330
47
100
AcDbScale
 70
     0
300
3/32" = 1'-0"
140
0.09375
141
12.0
290
     0
  0
SCALE
  5
5E
102
{ACAD_REACTORS
330
47
102
}
330
47
100
AcDbScale
 70
     0
300
1/8" = 1'-0"
140
0.125
141
12.0
290
     0
  0
SCALE
  5
5F
102
{ACAD_REACTORS
330
47
102
}
330
47
100
AcDbScale
 70
     0
300
3/16" = 1'-0"
140
0.1875
141
12.0
290
     0
  0
SCALE
  5
60
102
{ACAD_REACTORS
330
47
102
}
330
47
100
AcDbScale
 70
     0
300
1/4" = 1'-0"
140
0.25
141
12.0
290
     0
  0
SCALE
  5
61
102
{ACAD_REACTORS
330
47
102
}
330
47
100
AcDbScale
 70
     0
300
3/8" = 1'-0"
140
0.375
141
12.0
290
     0
  0
SCALE
  5
62
102
{ACAD_REACTORS
330
47
102
}
330
47
100
AcDbScale
 70
     0
300
1/2" = 1'-0"
140
0.5
141
12.0
290
     0
  0
SCALE
  5
63
102
{ACAD_REACTORS
330
47
102
}
330
47
100
AcDbScale
 70
     0
300
3/4" = 1'-0"
140
0.75
141
12.0
290
     0
  0
SCALE
  5
64
102
{ACAD_REACTORS
330
47
102
}
330
47
100
AcDbScale
 70
     0
300
1" = 1'-0"
140
1.0
141
12.0
290
     0
  0
SCALE
  5
65
102
{ACAD_REACTORS
330
47
102
}
330
47
100
AcDbScale
 70
     0
300
1-1/2" = 1'-0"
140
1.5
141
12.0
290
     0
  0
SCALE
  5
66
102
{ACAD_REACTORS
330
47
102
}
330
47
100
AcDbScale
 70
     0
300
3" = 1'-0"
140
3.0
141
12.0
290
     0
  0
SCALE
  5
67
102
{ACAD_REACTORS
330
47
102
}
330
47
100
AcDbScale
 70
     0
300
6" = 1'-0"
140
6.0
141
12.0
290
     0
  0
SCALE
  5
68
102
{ACAD_REACTORS
330
47
102
}
330
47
100
AcDbScale
 70
     0
300
1'-0" = 1'-0"
140
12.0
141
12.0
290
     0
  0
ENDSEC
  0
EOF
