  0
SECTION
  2
HEADER
  9
$ACADVER
  1
AC1015
  9
$ACADMAINTVER
 70
     6
  9
$DWGCODEPAGE
  3
ANSI_949
  9
$INSBASE
 10
0.0
 20
0.0
 30
0.0
  9
$EXTMIN
 10
-70.87548592007452
 20
-49.97370379473832
 30
0.0
  9
$EXTMAX
 10
72.51863320600935
 20
39.94327698690109
 30
0.0
  9
$LIMMIN
 10
0.0
 20
0.0
  9
$LIMMAX
 10
420.0
 20
297.0
  9
$ORTHOMODE
 70
     0
  9
$REGENMODE
 70
     1
  9
$FILLMODE
 70
     1
  9
$QTEXTMODE
 70
     0
  9
$MIRRTEXT
 70
     1
  9
$LTSCALE
 40
1.0
  9
$ATTMODE
 70
     1
  9
$TEXTSIZE
 40
3.5
  9
$TRACEWID
 40
1.0
  9
$TEXTSTYLE
  7
Standard
  9
$CLAYER
  8
0
  9
$CELTYPE
  6
ByLayer
  9
$CECOLOR
 62
   256
  9
$CELTSCALE
 40
1.0
  9
$DISPSILH
 70
     0
  9
$DIMSCALE
 40
1.0
  9
$DIMASZ
 40
3.302
  9
$DIMEXO
 40
1.0
  9
$DIMDLI
 40
3.75
  9
$DIMRND
 40
0.0
  9
$DIMDLE
 40
0.0
  9
$DIMEXE
 40
1.0
  9
$DIMTP
 40
0.0
  9
$DIMTM
 40
0.0
  9
$DIMTXT
 40
3.5
  9
$DIMCEN
 40
2.5
  9
$DIMTSZ
 40
0.0
  9
$DIMTOL
 70
     0
  9
$DIMLIM
 70
     0
  9
$DIMTIH
 70
     1
  9
$DIMTOH
 70
     1
  9
$DIMSE1
 70
     0
  9
$DIMSE2
 70
     0
  9
$DIMTAD
 70
     1
  9
$DIMZIN
 70
     0
  9
$DIMBLK
  1

  9
$DIMASO
 70
     1
  9
$DIMSHO
 70
     1
  9
$DIMPOST
  1

  9
$DIMAPOST
  1

  9
$DIMALT
 70
     0
  9
$DIMALTD
 70
     3
  9
$DIMALTF
 40
0.0393700787401575
  9
$DIMLFAC
 40
1.0
  9
$DIMTOFL
 70
     1
  9
$DIMTVP
 40
0.0
  9
$DIMTIX
 70
     0
  9
$DIMSOXD
 70
     0
  9
$DIMSAH
 70
     0
  9
$DIMBLK1
  1

  9
$DIMBLK2
  1

  9
$DIMSTYLE
  2
ISO-25
  9
$DIMCLRD
 70
     0
  9
$DIMCLRE
 70
     0
  9
$DIMCLRT
 70
     0
  9
$DIMTFAC
 40
1.0
  9
$DIMGAP
 40
1.524
  9
$DIMJUST
 70
     0
  9
$DIMSD1
 70
     0
  9
$DIMSD2
 70
     0
  9
$DIMTOLJ
 70
     0
  9
$DIMTZIN
 70
     0
  9
$DIMALTZ
 70
     0
  9
$DIMALTTZ
 70
     0
  9
$DIMUPT
 70
     0
  9
$DIMDEC
 70
     2
  9
$DIMTDEC
 70
     2
  9
$DIMALTU
 70
     2
  9
$DIMALTTD
 70
     3
  9
$DIMTXSTY
  7
Standard
  9
$DIMAUNIT
 70
     0
  9
$DIMADEC
 70
     2
  9
$DIMALTRND
 40
0.0
  9
$DIMAZIN
 70
     0
  9
$DIMDSEP
 70
    44
  9
$DIMATFIT
 70
     3
  9
$DIMFRAC
 70
     0
  9
$DIMLDRBLK
  1

  9
$DIMLUNIT
 70
     2
  9
$DIMLWD
 70
    -2
  9
$DIMLWE
 70
    -2
  9
$DIMTMOVE
 70
     0
  9
$LUNITS
 70
     2
  9
$LUPREC
 70
     2
  9
$SKETCHINC
 40
1.0
  9
$FILLETRAD
 40
10.0
  9
$AUNITS
 70
     0
  9
$AUPREC
 70
     2
  9
$MENU
  1
.
  9
$ELEVATION
 40
0.0
  9
$PELEVATION
 40
0.0
  9
$THICKNESS
 40
0.0
  9
$LIMCHECK
 70
     0
  9
$CHAMFERA
 40
0.0
  9
$CHAMFERB
 40
0.0
  9
$CHAMFERC
 40
0.0
  9
$CHAMFERD
 40
0.0
  9
$SKPOLY
 70
     0
  9
$TDCREATE
 40
2458236.739281933
  9
$TDUCREATE
 40
2458236.364281933
  9
$TDUPDATE
 40
2458241.583488102
  9
$TDUUPDATE
 40
2458241.208488102
  9
$TDINDWG
 40
0.0012106366
  9
$TDUSRTIMER
 40
2458241.205734213
  9
$USRTIMER
 70
     1
  9
$ANGBASE
 50
0.0
  9
$ANGDIR
 70
     0
  9
$PDMODE
 70
     0
  9
$PDSIZE
 40
-1.0
  9
$PLINEWID
 40
0.0
  9
$SPLFRAME
 70
     0
  9
$SPLINETYPE
 70
     6
  9
$SPLINESEGS
 70
     8
  9
$HANDSEED
  5
1B2
  9
$SURFTAB1
 70
     6
  9
$SURFTAB2
 70
     6
  9
$SURFTYPE
 70
     6
  9
$SURFU
 70
     6
  9
$SURFV
 70
     6
  9
$UCSBASE
  2

  9
$UCSNAME
  2

  9
$UCSORG
 10
0.0
 20
0.0
 30
0.0
  9
$UCSXDIR
 10
1.0
 20
0.0
 30
0.0
  9
$UCSYDIR
 10
0.0
 20
1.0
 30
0.0
  9
$UCSORTHOREF
  2

  9
$UCSORTHOVIEW
 70
     0
  9
$UCSORGTOP
 10
0.0
 20
0.0
 30
0.0
  9
$UCSORGBOTTOM
 10
0.0
 20
0.0
 30
0.0
  9
$UCSORGLEFT
 10
0.0
 20
0.0
 30
0.0
  9
$UCSORGRIGHT
 10
0.0
 20
0.0
 30
0.0
  9
$UCSORGFRONT
 10
0.0
 20
0.0
 30
0.0
  9
$UCSORGBACK
 10
0.0
 20
0.0
 30
0.0
  9
$PUCSBASE
  2

  9
$PUCSNAME
  2

  9
$PUCSORG
 10
0.0
 20
0.0
 30
0.0
  9
$PUCSXDIR
 10
1.0
 20
0.0
 30
0.0
  9
$PUCSYDIR
 10
0.0
 20
1.0
 30
0.0
  9
$PUCSORTHOREF
  2

  9
$PUCSORTHOVIEW
 70
     0
  9
$PUCSORGTOP
 10
0.0
 20
0.0
 30
0.0
  9
$PUCSORGBOTTOM
 10
0.0
 20
0.0
 30
0.0
  9
$PUCSORGLEFT
 10
0.0
 20
0.0
 30
0.0
  9
$PUCSORGRIGHT
 10
0.0
 20
0.0
 30
0.0
  9
$PUCSORGFRONT
 10
0.0
 20
0.0
 30
0.0
  9
$PUCSORGBACK
 10
0.0
 20
0.0
 30
0.0
  9
$USERI1
 70
     0
  9
$USERI2
 70
     0
  9
$USERI3
 70
     0
  9
$USERI4
 70
     0
  9
$USERI5
 70
     0
  9
$USERR1
 40
0.0
  9
$USERR2
 40
0.0
  9
$USERR3
 40
0.0
  9
$USERR4
 40
0.0
  9
$USERR5
 40
0.0
  9
$WORLDVIEW
 70
     1
  9
$SHADEDGE
 70
     3
  9
$SHADEDIF
 70
    70
  9
$TILEMODE
 70
     1
  9
$MAXACTVP
 70
    64
  9
$PINSBASE
 10
0.0
 20
0.0
 30
0.0
  9
$PLIMCHECK
 70
     0
  9
$PEXTMIN
 10
1.000000000000000E+20
 20
1.000000000000000E+20
 30
1.000000000000000E+20
  9
$PEXTMAX
 10
-1.000000000000000E+20
 20
-1.000000000000000E+20
 30
-1.000000000000000E+20
  9
$PLIMMIN
 10
0.0
 20
0.0
  9
$PLIMMAX
 10
0.0
 20
0.0
  9
$UNITMODE
 70
     0
  9
$VISRETAIN
 70
     1
  9
$PLINEGEN
 70
     0
  9
$PSLTSCALE
 70
     1
  9
$TREEDEPTH
 70
  3020
  9
$CMLSTYLE
  2
Standard
  9
$CMLJUST
 70
     0
  9
$CMLSCALE
 40
20.0
  9
$PROXYGRAPHICS
 70
     1
  9
$MEASUREMENT
 70
     1
  9
$CELWEIGHT
370
    -1
  9
$ENDCAPS
280
     0
  9
$JOINSTYLE
280
     0
  9
$LWDISPLAY
290
     1
  9
$INSUNITS
 70
     4
  9
$HYPERLINKBASE
  1

  9
$STYLESHEET
  1

  9
$XEDIT
290
     1
  9
$CEPSNTYPE
380
     0
  9
$PSTYLEMODE
290
     1
  9
$FINGERPRINTGUID
  2
{243C1938-755D-4AAD-AEED-E5CF062EAD04}
  9
$VERSIONGUID
  2
{FAEB1C32-E019-11D5-929B-00C0DF256EC4}
  9
$EXTNAMES
290
     1
  9
$PSVPSCALE
 40
0.0
  9
$OLESTARTUP
290
     0
  0
ENDSEC
  0
SECTION
  2
CLASSES
  0
CLASS
  1
ACDBDICTIONARYWDFLT
  2
AcDbDictionaryWithDefault
  3
ObjectDBX Classes
 90
        0
280
     0
281
     0
  0
CLASS
  1
VISUALSTYLE
  2
AcDbVisualStyle
  3
ObjectDBX Classes
 90
     4095
280
     0
281
     0
  0
CLASS
  1
MATERIAL
  2
AcDbMaterial
  3
ObjectDBX Classes
 90
     1153
280
     0
281
     0
  0
CLASS
  1
SCALE
  2
AcDbScale
  3
ObjectDBX Classes
 90
     1153
280
     0
281
     0
  0
CLASS
  1
SUN
  2
AcDbSun
  3
SCENEOE
 90
     1153
280
     0
281
     0
  0
CLASS
  1
ACDBPLACEHOLDER
  2
AcDbPlaceHolder
  3
ObjectDBX Classes
 90
        0
280
     0
281
     0
  0
CLASS
  1
LAYOUT
  2
AcDbLayout
  3
ObjectDBX Classes
 90
        0
280
     0
281
     0
  0
CLASS
  1
TABLESTYLE
  2
AcDbTableStyle
  3
ObjectDBX Classes
 90
     4095
280
     0
281
     0
  0
CLASS
  1
MLEADERSTYLE
  2
AcDbMLeaderStyle
  3
ACDB_MLEADERSTYLE_CLASS
 90
     4095
280
     0
281
     0
  0
CLASS
  1
RASTERVARIABLES
  2
AcDbRasterVariables
  3
ISM
 90
        0
280
     0
281
     0
  0
CLASS
  1
DIMASSOC
  2
AcDbDimAssoc
  3
"AcDbDimAssoc|Product Desc:     AcDim ARX App For Dimension|Company:          Autodesk, Inc.|WEB Address:      www.autodesk.com"
 90
        0
280
     0
281
     0
  0
ENDSEC
  0
SECTION
  2
TABLES
  0
TABLE
  2
VPORT
  5
8
330
0
100
AcDbSymbolTable
 70
     1
  0
VPORT
  5
29
330
8
100
AcDbSymbolTableRecord
100
AcDbViewportTableRecord
  2
*Active
 70
     0
 10
0.0
 20
0.0
 11
1.0
 21
1.0
 12
89.65477583888274
 22
8.288858124467865
 13
0.0
 23
0.0
 14
10.0
 24
10.0
 15
10.0
 25
10.0
 16
0.0
 26
0.0
 36
1.0
 17
0.0
 27
0.0
 37
0.0
 40
139.9139030239651
 41
1.321695760598504
 42
50.0
 43
0.0
 44
0.0
 50
0.0
 51
0.0
 71
    16
 72
  2000
 73
     1
 74
     3
 75
     0
 76
     0
 77
     0
 78
     0
281
     0
 65
     1
110
0.0
120
0.0
130
0.0
111
1.0
121
0.0
131
0.0
112
0.0
122
1.0
132
0.0
 79
     0
146
0.0
  0
ENDTAB
  0
TABLE
  2
LTYPE
  5
5
330
0
100
AcDbSymbolTable
 70
     6
  0
LTYPE
  5
14
330
5
100
AcDbSymbolTableRecord
100
AcDbLinetypeTableRecord
  2
ByBlock
 70
     0
  3

 72
    65
 73
     0
 40
0.0
  0
LTYPE
  5
15
330
5
100
AcDbSymbolTableRecord
100
AcDbLinetypeTableRecord
  2
ByLayer
 70
     0
  3

 72
    65
 73
     0
 40
0.0
  0
LTYPE
  5
16
330
5
100
AcDbSymbolTableRecord
100
AcDbLinetypeTableRecord
  2
Continuous
 70
     0
  3
Solid line
 72
    65
 73
     0
 40
0.0
  0
LTYPE
  5
6A
330
5
100
AcDbSymbolTableRecord
100
AcDbLinetypeTableRecord
  2
HIDDEN
 70
     0
  3
Hidden __ __ __ __ __ __ __ __ __ __ __ __ __ __
 72
    65
 73
     2
 40
1.905
 49
1.27
 74
     0
 49
-0.635
 74
     0
  0
LTYPE
  5
6B
330
5
100
AcDbSymbolTableRecord
100
AcDbLinetypeTableRecord
  2
PHANTOM
 70
     0
  3
Phantom ______  __  __  ______  __  __  ______
 72
    65
 73
     6
 40
12.7
 49
6.35
 74
     0
 49
-1.27
 74
     0
 49
1.27
 74
     0
 49
-1.27
 74
     0
 49
1.27
 74
     0
 49
-1.27
 74
     0
  0
LTYPE
  5
6C
330
5
100
AcDbSymbolTableRecord
100
AcDbLinetypeTableRecord
  2
CENTER
 70
     0
  3
Center ____ _ ____ _ ____ _ ____ _ ____ _ ____
 72
    65
 73
     4
 40
10.16
 49
6.35
 74
     0
 49
-1.27
 74
     0
 49
1.27
 74
     0
 49
-1.27
 74
     0
  0
LTYPE
  5
6D
330
5
100
AcDbSymbolTableRecord
100
AcDbLinetypeTableRecord
  2
CENTERX2
 70
     0
  3
Center (2x) ________  __  ________  __  _____
 72
    65
 73
     4
 40
20.32
 49
12.7
 74
     0
 49
-2.54
 74
     0
 49
2.54
 74
     0
 49
-2.54
 74
     0
  0
LTYPE
  5
6E
330
5
100
AcDbSymbolTableRecord
100
AcDbLinetypeTableRecord
  2
DOT2
 70
     0
  3
Dot (.5x) ........................................
 72
    65
 73
     2
 40
0.635
 49
0.0
 74
     0
 49
-0.635
 74
     0
  0
ENDTAB
  0
TABLE
  2
LAYER
  5
2
330
0
100
AcDbSymbolTable
 70
    17
  0
LAYER
  5
10
330
2
100
AcDbSymbolTableRecord
100
AcDbLayerTableRecord
  2
0
 70
     0
 62
     7
  6
Continuous
370
    -3
390
F
  0
LAYER
  5
6F
330
2
100
AcDbSymbolTableRecord
100
AcDbLayerTableRecord
  2
FORMAT
 70
     0
 62
     2
  6
Continuous
370
    -3
390
F
  0
LAYER
  5
70
330
2
100
AcDbSymbolTableRecord
100
AcDbLayerTableRecord
  2
외형선
 70
     0
 62
   100
  6
Continuous
370
    30
390
F
  0
LAYER
  5
71
330
2
100
AcDbSymbolTableRecord
100
AcDbLayerTableRecord
  2
숨은선
 70
     0
 62
     2
  6
HIDDEN
370
    15
390
F
  0
LAYER
  5
72
330
2
100
AcDbSymbolTableRecord
100
AcDbLayerTableRecord
  2
중심선
 70
     0
 62
     1
  6
CENTERX2
370
    -3
390
F
  0
LAYER
  5
73
330
2
100
AcDbSymbolTableRecord
100
AcDbLayerTableRecord
  2
파단선
 70
     0
 62
     4
  6
Continuous
370
    -3
390
F
  0
LAYER
  5
74
330
2
100
AcDbSymbolTableRecord
100
AcDbLayerTableRecord
  2
해칭선
 70
     0
 62
     4
  6
Continuous
370
    -3
390
F
  0
LAYER
  5
75
330
2
100
AcDbSymbolTableRecord
100
AcDbLayerTableRecord
  2
가는실선
 70
     0
 62
     4
  6
Continuous
370
    -3
390
F
  0
LAYER
  5
76
330
2
100
AcDbSymbolTableRecord
100
AcDbLayerTableRecord
  2
치수_보조선
 70
     0
 62
     4
  6
Continuous
370
    -3
390
F
  0
LAYER
  5
77
330
2
100
AcDbSymbolTableRecord
100
AcDbLayerTableRecord
  2
치수문자_일반주서
 70
     0
 62
     7
  6
Continuous
370
    15
390
F
  0
LAYER
  5
78
330
2
100
AcDbSymbolTableRecord
100
AcDbLayerTableRecord
  2
개별주서
 70
     0
 62
   100
  6
Continuous
370
    30
390
F
  0
LAYER
  5
79
330
2
100
AcDbSymbolTableRecord
100
AcDbLayerTableRecord
  2
중간선
 70
     0
 62
     2
  6
Continuous
370
    15
390
F
  0
LAYER
  5
7A
330
2
100
AcDbSymbolTableRecord
100
AcDbLayerTableRecord
  2
윤곽선
 70
     0
 62
     3
  6
Continuous
370
    40
390
F
  0
LAYER
  5
7B
330
2
100
AcDbSymbolTableRecord
100
AcDbLayerTableRecord
  2
중심마크
 70
     0
 62
   100
  6
Continuous
370
    30
390
F
  0
LAYER
  5
7C
330
2
100
AcDbSymbolTableRecord
100
AcDbLayerTableRecord
  2
가상선
 70
     0
 62
     4
  6
PHANTOM
370
    -3
390
F
  0
LAYER
  5
7D
330
2
100
AcDbSymbolTableRecord
100
AcDbLayerTableRecord
  2
특수지정선
 70
     0
 62
     5
  6
CENTERX2
370
    60
390
F
  0
LAYER
  5
199
330
2
100
AcDbSymbolTableRecord
100
AcDbLayerTableRecord
  2
Defpoints
 70
     0
 62
     7
  6
Continuous
290
     0
370
    -3
390
F
  0
ENDTAB
  0
TABLE
  2
STYLE
  5
3
330
0
100
AcDbSymbolTable
 70
     2
  0
STYLE
  5
11
330
3
100
AcDbSymbolTableRecord
100
AcDbTextStyleTableRecord
  2
Standard
 70
     0
 40
0.0
 41
1.0
 50
0.0
 71
     0
 42
3.5
  3
txt
  4

  0
STYLE
  5
93
330
3
100
AcDbSymbolTableRecord
100
AcDbTextStyleTableRecord
  2
SLDTEXTSTYLE0
 70
     0
 40
0.0
 41
0.75
 50
0.0
 71
     0
 42
3.5
  3
TXT
  4

  0
ENDTAB
  0
TABLE
  2
VIEW
  5
6
330
0
100
AcDbSymbolTable
 70
     0
  0
ENDTAB
  0
TABLE
  2
UCS
  5
7
330
0
100
AcDbSymbolTable
 70
     0
  0
ENDTAB
  0
TABLE
  2
APPID
  5
9
330
0
100
AcDbSymbolTable
 70
     4
  0
APPID
  5
12
330
9
100
AcDbSymbolTableRecord
100
AcDbRegAppTableRecord
  2
ACAD
 70
     0
  0
APPID
  5
1A1
330
9
100
AcDbSymbolTableRecord
100
AcDbRegAppTableRecord
  2
ACAD_DSTYLE_DIMRADIAL_EXTENSION
 70
     0
  0
APPID
  5
1B0
330
9
100
AcDbSymbolTableRecord
100
AcDbRegAppTableRecord
  2
ACAD_DSTYLE_DIMFLIPARROW_SYMBOL
 70
     0
  0
APPID
  5
1B1
330
9
100
AcDbSymbolTableRecord
100
AcDbRegAppTableRecord
  2
ACAD_DSTYLE_DIMFLIPARROW_WHICH_SYMBOL
 70
     0
  0
ENDTAB
  0
TABLE
  2
DIMSTYLE
  5
A
330
0
100
AcDbSymbolTable
 70
     3
100
AcDbDimStyleTable
  0
DIMSTYLE
105
27
330
A
100
AcDbSymbolTableRecord
100
AcDbDimStyleTableRecord
  2
ISO-25
 70
     0
 41
2.5
 42
0.625
 43
3.75
 44
1.25
 73
     0
 74
     0
 77
     1
 78
     8
140
2.5
141
2.5
143
0.03937007874016
147
0.625
171
     3
172
     1
178
     0
271
     2
272
     2
274
     3
278
    44
283
     0
284
     8
340
11
  0
DIMSTYLE
105
11F
102
{ACAD_REACTORS
330
11E
330
15A
102
}
330
A
100
AcDbSymbolTableRecord
100
AcDbDimStyleTableRecord
  2
SLDDIMSTYLE0
 70
     0
 41
3.302
 44
0.0
 45
0.000000001
 73
     0
 74
     0
 77
     1
 78
    12
 79
     3
140
3.5
143
0.0393700787401575
147
0.875
148
0.000000001
170
     1
172
     1
173
     1
178
     0
271
     2
272
     2
276
     2
284
    12
289
     0
340
93
  0
DIMSTYLE
105
134
102
{ACAD_REACTORS
330
133
330
147
330
1A2
102
}
330
A
100
AcDbSymbolTableRecord
100
AcDbDimStyleTableRecord
  2
SLDDIMSTYLE1
 70
     0
 41
3.302
 44
0.0
 45
0.000000001
 73
     0
 74
     0
 77
     1
 78
     4
 79
     1
140
3.5
143
0.0393700787401575
147
0.875
148
0.000000001
170
     1
173
     1
178
     0
271
     2
272
     2
276
     2
284
    12
340
93
  0
ENDTAB
  0
TABLE
  2
BLOCK_RECORD
  5
1
330
0
100
AcDbSymbolTable
 70
     8
  0
BLOCK_RECORD
  5
1F
330
1
100
AcDbSymbolTableRecord
100
AcDbBlockTableRecord
  2
*Model_Space
340
22
  0
BLOCK_RECORD
  5
1B
330
1
100
AcDbSymbolTableRecord
100
AcDbBlockTableRecord
  2
*Paper_Space
340
1E
  0
BLOCK_RECORD
  5
23
330
1
100
AcDbSymbolTableRecord
100
AcDbBlockTableRecord
  2
*Paper_Space0
340
26
  0
BLOCK_RECORD
  5
7E
330
1
100
AcDbSymbolTableRecord
100
AcDbBlockTableRecord
  2
블럭10
340
0
102
{BLKREFS
331
116
102
}
  0
BLOCK_RECORD
  5
120
330
1
100
AcDbSymbolTableRecord
100
AcDbBlockTableRecord
  2
_D
340
0
  0
BLOCK_RECORD
  5
135
330
1
100
AcDbSymbolTableRecord
100
AcDbBlockTableRecord
  2
_D_1
340
0
  0
BLOCK_RECORD
  5
148
330
1
100
AcDbSymbolTableRecord
100
AcDbBlockTableRecord
  2
_D_2
340
0
  0
BLOCK_RECORD
  5
15B
330
1
100
AcDbSymbolTableRecord
100
AcDbBlockTableRecord
  2
_D_3
340
0
  0
BLOCK_RECORD
  5
16E
330
1
100
AcDbSymbolTableRecord
100
AcDbBlockTableRecord
  2
SW_DOWELSYMBOL_0
340
0
102
{BLKREFS
331
174
102
}
  0
BLOCK_RECORD
  5
1A5
330
1
100
AcDbSymbolTableRecord
100
AcDbBlockTableRecord
  2
*D7
340
0
  0
ENDTAB
  0
ENDSEC
  0
SECTION
  2
BLOCKS
  0
BLOCK
  5
20
330
1F
100
AcDbEntity
  8
0
100
AcDbBlockBegin
  2
*Model_Space
 70
     0
 10
0.0
 20
0.0
 30
0.0
  3
*Model_Space
  1
*Model_Space
  0
ENDBLK
  5
21
330
1F
100
AcDbEntity
  8
0
100
AcDbBlockEnd
  0
BLOCK
  5
1C
330
1B
100
AcDbEntity
 67
     1
  8
0
100
AcDbBlockBegin
  2
*Paper_Space
 70
     0
 10
0.0
 20
0.0
 30
0.0
  3
*Paper_Space
  1
*Paper_Space
  0
ENDBLK
  5
1D
330
1B
100
AcDbEntity
 67
     1
  8
0
100
AcDbBlockEnd
  0
BLOCK
  5
24
330
23
100
AcDbEntity
  8
0
100
AcDbBlockBegin
  2
*Paper_Space0
 70
     0
 10
0.0
 20
0.0
 30
0.0
  3
*Paper_Space0
  1
*Paper_Space0
  0
ENDBLK
  5
25
330
23
100
AcDbEntity
  8
0
100
AcDbBlockEnd
  0
BLOCK
  5
7F
330
7E
100
AcDbEntity
  8
0
100
AcDbBlockBegin
  2
블럭10
 70
     2
 10
0.0
 20
0.0
 30
0.0
  3
블럭10
  1
블럭10
  0
ELLIPSE
  5
81
330
7E
100
AcDbEntity
  8
중심선
100
AcDbEllipse
 10
20.54032771741204
 20
12.0471743016438
 30
0.0
 11
6.600054785286829
 21
-1.261213355974178E-13
 31
0.0
210
0.0
220
0.0
230
1.0
 40
0.636358354079598
 41
0.9219305317359503
 42
6.513795318482858
  0
ELLIPSE
  5
82
330
7E
100
AcDbEntity
  8
중심선
100
AcDbEllipse
 10
20.54032771746488
 20
12.04717430159265
 30
0.0
 11
3.960054785062283
 21
1.540847449632565E-10
 31
0.0
210
0.0
220
0.0
230
1.0
 40
0.3939339440162632
 41
1.131841032648279
 42
5.62031148352944
  0
LINE
  5
83
330
7E
100
AcDbEntity
  8
중심선
100
AcDbLine
 10
2.268634060543552
 20
16.24717430164393
 30
0.0
 11
5.714909304380834
 21
16.24717430164393
 31
0.0
  0
LINE
  5
84
330
7E
100
AcDbEntity
  8
중심선
100
AcDbLine
 10
5.245725140726316
 20
7.84717430164391
 30
0.0
 11
8.692000384563599
 21
7.84717430164391
 31
0.0
  0
LINE
  5
85
330
7E
100
AcDbEntity
  8
중심선
100
AcDbLine
 10
15.74043728645272
 20
16.24717430164393
 30
0.0
 11
8.692000384563599
 21
7.84717430164391
 31
0.0
  0
LINE
  5
86
330
7E
100
AcDbEntity
  8
중심선
100
AcDbLine
 10
0.1404042013395286
 20
13.71084872107135
 30
0.0
 11
3.58671253028996
 21
13.71088815037384
 31
0.0
  0
LINE
  5
87
330
7E
100
AcDbEntity
  8
중심선
100
AcDbLine
 10
2.750260043222114
 20
10.84717430164391
 30
0.0
 11
6.196535287059397
 21
10.84717430164391
 31
0.0
  0
LINE
  5
88
330
7E
100
AcDbEntity
  8
중심선
100
AcDbLine
 10
12.29416204261559
 20
16.24717430164393
 30
0.0
 11
5.245725140726316
 21
7.84717430164391
 31
0.0
  0
LINE
  5
89
330
7E
100
AcDbEntity
  8
중심선
100
AcDbLine
 10
10.72767329541681
 20
16.24717430164393
 30
0.0
 11
6.196535287059397
 21
10.84717430164391
 31
0.0
  0
LINE
  5
8A
330
7E
100
AcDbEntity
  8
중심선
100
AcDbLine
 10
7.28139805157953
 20
16.24717430164393
 30
0.0
 11
2.750260043222114
 21
10.84717430164391
 31
0.0
  0
LINE
  5
8B
330
7E
100
AcDbEntity
  8
중심선
100
AcDbLine
 10
5.714909304380834
 20
16.24717430164393
 30
0.0
 11
3.58671253028996
 21
13.71088815037384
 31
0.0
  0
LINE
  5
8C
330
7E
100
AcDbEntity
  8
중심선
100
AcDbLine
 10
2.268634060543552
 20
16.24717430164393
 30
0.0
 11
0.1404042013395286
 21
13.71084872107135
 31
0.0
  0
LINE
  5
8D
330
7E
100
AcDbEntity
  8
중심선
100
AcDbLine
 10
7.28139805157953
 20
16.24717430164393
 30
0.0
 11
10.72767329541681
 21
16.24717430164393
 31
0.0
  0
LINE
  5
8E
330
7E
100
AcDbEntity
  8
중심선
100
AcDbLine
 10
12.29416204261559
 20
16.24717430164393
 30
0.0
 11
15.74043728645272
 21
16.24717430164393
 31
0.0
  0
LINE
  5
8F
330
7E
100
AcDbEntity
  8
중심선
100
AcDbLine
 10
19.22036997980202
 20
11.08717430171403
 30
0.0
 11
23.66174974927406
 21
11.08717430171406
 31
0.0
  0
LINE
  5
90
330
7E
100
AcDbEntity
  8
중심선
100
AcDbLine
 10
19.22039502424796
 20
13.00717430171391
 30
0.0
 11
19.22036997980202
 21
11.08717430171403
 31
0.0
  0
LINE
  5
91
330
7E
100
AcDbEntity
  8
중심선
100
AcDbLine
 10
19.22039502424796
 20
13.00717430171391
 30
0.0
 11
26.96566020931264
 21
13.00717430171391
 31
0.0
  0
LINE
  5
92
330
7E
100
AcDbEntity
  8
중심선
100
AcDbLine
 10
22.22332737316547
 20
13.45928029700563
 30
0.0
 11
24.52862924686651
 21
15.39360700705356
 31
0.0
  0
ATTDEF
  5
94
330
7E
100
AcDbEntity
  8
FORMAT
 62
     2
100
AcDbText
 10
-11.05102035218446
 20
2.075366912832191
 30
0.0
 40
4.233333333333333
  1
GMG22904[ 6 FLUTE ]
 41
0.75
  7
SLDTEXTSTYLE0
 11
-11.05102035218446
 21
-0.0412997538344756
 31
0.0
100
AcDbAttributeDefinition
  3

  2
AUTOATTR0
 70
     0
 74
     1
  0
ENDBLK
  5
80
330
7E
100
AcDbEntity
  8
0
100
AcDbBlockEnd
  0
BLOCK
  5
121
330
120
100
AcDbEntity
  8
0
100
AcDbBlockBegin
  2
_D
 70
     0
 10
0.0
 20
0.0
 30
0.0
  3
_D
  1
_D
  0
LINE
  5
123
330
120
100
AcDbEntity
  8
치수문자_일반주서
 62
     0
370
    -2
100
AcDbLine
 10
47.09406059192466
 20
-3.437274431170688
 30
0.0
 11
66.74475979569849
 21
-3.437274431170619
 31
0.0
  0
LINE
  5
124
330
120
100
AcDbEntity
  8
치수문자_일반주서
 62
     0
370
    -2
100
AcDbLine
 10
47.40001407992553
 20
2.912725568829313
 30
0.0
 11
66.74475979569846
 21
2.91272556882938
 31
0.0
  0
LINE
  5
125
330
120
100
AcDbEntity
  8
치수문자_일반주서
 62
     0
370
    -2
100
AcDbLine
 10
66.74475979569847
 20
-0.1352744311706195
 30
0.0
 11
66.74475979569847
 21
-0.3892744311706196
 31
0.0
  0
SOLID
  5
126
330
120
100
AcDbEntity
  8
치수문자_일반주서
 62
     0
100
AcDbTrace
 10
66.19442646236514
 20
-0.135274431170622
 30
0.0
 11
67.2950931290318
 21
-0.1352744311706171
 31
0.0
 12
66.74475979569849
 22
-3.437274431170619
 32
0.0
 13
66.74475979569849
 23
-3.437274431170619
 33
0.0
  0
SOLID
  5
127
330
120
100
AcDbEntity
  8
치수문자_일반주서
 62
     0
100
AcDbTrace
 10
67.2950931290318
 20
-0.3892744311706171
 30
0.0
 11
66.19442646236514
 21
-0.389274431170622
 31
0.0
 12
66.74475979569846
 22
2.91272556882938
 32
0.0
 13
66.74475979569846
 23
2.91272556882938
 33
0.0
  0
MTEXT
  5
128
330
120
100
AcDbEntity
  8
치수문자_일반주서
 62
     0
100
AcDbMText
 10
62.36975979569847
 20
-0.7588282158242279
 30
0.0
 40
3.5
 41
0.0
 71
     2
 72
     1
  1
\A1;%%c6.35 [1/4]
  7
SLDTEXTSTYLE0
 11
-4.475859752819529E-15
 21
1.0
 31
0.0
 73
     1
 44
1.0
  0
POINT
  5
129
330
120
100
AcDbEntity
  8
Defpoints
 62
     0
100
AcDbPoint
 10
47.03156059192466
 20
-3.437274431170688
 30
0.0
  0
POINT
  5
12A
330
120
100
AcDbEntity
  8
Defpoints
 62
     0
100
AcDbPoint
 10
47.33751407992553
 20
2.912725568829313
 30
0.0
  0
POINT
  5
12B
330
120
100
AcDbEntity
  8
Defpoints
 62
     0
100
AcDbPoint
 10
66.74475979569846
 20
2.91272556882938
 30
0.0
  0
ENDBLK
  5
122
330
120
100
AcDbEntity
  8
0
100
AcDbBlockEnd
  0
BLOCK
  5
136
330
135
100
AcDbEntity
  8
0
100
AcDbBlockBegin
  2
_D_1
 70
     0
 10
0.0
 20
0.0
 30
0.0
  3
_D_1
  1
_D_1
  0
LINE
  5
138
330
135
100
AcDbEntity
  8
치수문자_일반주서
 62
     0
370
    -2
100
AcDbLine
 10
-53.50048592007446
 20
2.475225568829304
 30
0.0
 11
-53.50048592007446
 21
35.56827698690109
 31
0.0
  0
LINE
  5
139
330
135
100
AcDbEntity
  8
치수문자_일반주서
 62
     0
370
    -2
100
AcDbLine
 10
48.09951407992553
 20
2.594225568829312
 30
0.0
 11
48.09951407992553
 21
35.56827698690109
 31
0.0
  0
LINE
  5
13A
330
135
100
AcDbEntity
  8
치수문자_일반주서
 62
     0
370
    -2
100
AcDbLine
 10
-50.19848592007446
 20
35.56827698690109
 30
0.0
 11
44.79751407992553
 21
35.56827698690109
 31
0.0
  0
SOLID
  5
13B
330
135
100
AcDbEntity
  8
치수문자_일반주서
 62
     0
100
AcDbTrace
 10
-50.19848592007446
 20
36.11861032023442
 30
0.0
 11
-50.19848592007446
 21
35.01794365356776
 31
0.0
 12
-53.50048592007446
 22
35.56827698690109
 32
0.0
 13
-53.50048592007446
 23
35.56827698690109
 33
0.0
  0
SOLID
  5
13C
330
135
100
AcDbEntity
  8
치수문자_일반주서
 62
     0
100
AcDbTrace
 10
44.79751407992553
 20
35.01794365356776
 30
0.0
 11
44.79751407992553
 21
36.11861032023442
 31
0.0
 12
48.09951407992553
 22
35.56827698690109
 32
0.0
 13
48.09951407992553
 23
35.56827698690109
 33
0.0
  0
MTEXT
  5
13D
330
135
100
AcDbEntity
  8
치수문자_일반주서
 62
     0
100
AcDbMText
 10
-2.700485920074458
 20
39.94327698690109
 30
0.0
 40
3.5
 41
0.0
 71
     2
 72
     1
  1
\A1;101.60 [4]
  7
SLDTEXTSTYLE0
 73
     1
 44
1.0
  0
POINT
  5
13E
330
135
100
AcDbEntity
  8
Defpoints
 62
     0
100
AcDbPoint
 10
-53.50048592007446
 20
2.412725568829304
 30
0.0
  0
POINT
  5
13F
330
135
100
AcDbEntity
  8
Defpoints
 62
     0
100
AcDbPoint
 10
48.09951407992553
 20
2.531725568829312
 30
0.0
  0
POINT
  5
140
330
135
100
AcDbEntity
  8
Defpoints
 62
     0
100
AcDbPoint
 10
48.09951407992553
 20
35.5682769869011
 30
0.0
  0
ENDBLK
  5
137
330
135
100
AcDbEntity
  8
0
100
AcDbBlockEnd
  0
BLOCK
  5
149
330
148
100
AcDbEntity
  8
0
100
AcDbBlockBegin
  2
_D_2
 70
     0
 10
0.0
 20
0.0
 30
0.0
  3
_D_2
  1
_D_2
  0
LINE
  5
14B
330
148
100
AcDbEntity
  8
치수문자_일반주서
 62
     0
370
    -2
100
AcDbLine
 10
48.09951407992553
 20
2.594225568829312
 30
0.0
 11
48.09951407992553
 21
20.15872009916724
 31
0.0
  0
LINE
  5
14C
330
148
100
AcDbEntity
  8
치수문자_일반주서
 62
     0
370
    -2
100
AcDbLine
 10
9.999514079923859
 20
-3.371067873858494
 30
0.0
 11
9.999514079923848
 21
20.15872009916724
 31
0.0
  0
LINE
  5
14D
330
148
100
AcDbEntity
  8
치수문자_일반주서
 62
     0
370
    -2
100
AcDbLine
 10
44.79751407992553
 20
20.15872009916724
 30
0.0
 11
13.30151407992385
 21
20.15872009916724
 31
0.0
  0
SOLID
  5
14E
330
148
100
AcDbEntity
  8
치수문자_일반주서
 62
     0
100
AcDbTrace
 10
44.79751407992553
 20
19.60838676583391
 30
0.0
 11
44.79751407992553
 21
20.70905343250057
 31
0.0
 12
48.09951407992553
 22
20.15872009916724
 32
0.0
 13
48.09951407992553
 23
20.15872009916724
 33
0.0
  0
SOLID
  5
14F
330
148
100
AcDbEntity
  8
치수문자_일반주서
 62
     0
100
AcDbTrace
 10
13.30151407992385
 20
20.70905343250057
 30
0.0
 11
13.30151407992385
 21
19.60838676583391
 31
0.0
 12
9.999514079923848
 22
20.15872009916724
 32
0.0
 13
9.999514079923848
 23
20.15872009916724
 33
0.0
  0
MTEXT
  5
150
330
148
100
AcDbEntity
  8
치수문자_일반주서
 62
     0
100
AcDbMText
 10
28.63041577777775
 20
24.53372009916724
 30
0.0
 40
3.5
 41
0.0
 71
     2
 72
     1
  1
\A1;38.10 [1 1/2]
  7
SLDTEXTSTYLE0
 73
     1
 44
1.0
  0
POINT
  5
151
330
148
100
AcDbEntity
  8
Defpoints
 62
     0
100
AcDbPoint
 10
48.09951407992553
 20
2.531725568829312
 30
0.0
  0
POINT
  5
152
330
148
100
AcDbEntity
  8
Defpoints
 62
     0
100
AcDbPoint
 10
9.999514079923859
 20
-3.433567873858494
 30
0.0
  0
POINT
  5
153
330
148
100
AcDbEntity
  8
Defpoints
 62
     0
100
AcDbPoint
 10
9.999514079923859
 20
20.15872009916724
 30
0.0
  0
ENDBLK
  5
14A
330
148
100
AcDbEntity
  8
0
100
AcDbBlockEnd
  0
BLOCK
  5
15C
330
15B
100
AcDbEntity
  8
0
100
AcDbBlockBegin
  2
_D_3
 70
     0
 10
0.0
 20
0.0
 30
0.0
  3
_D_3
  1
_D_3
  0
LINE
  5
15E
330
15B
100
AcDbEntity
  8
치수문자_일반주서
 62
     0
370
    -2
100
AcDbLine
 10
-53.06298592007446
 20
2.912725568829309
 30
0.0
 11
-66.50048592007448
 21
2.912725568829261
 31
0.0
  0
LINE
  5
15F
330
15B
100
AcDbEntity
  8
치수문자_일반주서
 62
     0
370
    -2
100
AcDbLine
 10
-53.06298592007446
 20
-3.437274431170691
 30
0.0
 11
-66.50048592007445
 21
-3.437274431170738
 31
0.0
  0
LINE
  5
160
330
15B
100
AcDbEntity
  8
치수문자_일반주서
 62
     0
370
    -2
100
AcDbLine
 10
-66.50048592007448
 20
2.912725568829261
 30
0.0
 11
-66.50048592007445
 21
-3.437274431170738
 31
0.0
  0
LINE
  5
161
330
15B
100
AcDbEntity
  8
치수문자_일반주서
 62
     0
370
    -2
100
AcDbLine
 10
-66.5004859200745
 20
6.214725568829261
 30
0.0
 11
-66.50048592007451
 21
9.51672556882926
 31
0.0
  0
LINE
  5
162
330
15B
100
AcDbEntity
  8
치수문자_일반주서
 62
     0
370
    -2
100
AcDbLine
 10
-66.50048592007444
 20
-6.739274431170738
 30
0.0
 11
-66.50048592007442
 21
-10.04127443117074
 31
0.0
  0
SOLID
  5
163
330
15B
100
AcDbEntity
  8
치수문자_일반주서
 62
     0
100
AcDbTrace
 10
-67.05081925340782
 20
6.214725568829258
 30
0.0
 11
-65.95015258674117
 21
6.214725568829263
 31
0.0
 12
-66.50048592007448
 22
2.912725568829261
 32
0.0
 13
-66.50048592007448
 23
2.912725568829261
 33
0.0
  0
SOLID
  5
164
330
15B
100
AcDbEntity
  8
치수문자_일반주서
 62
     0
100
AcDbTrace
 10
-65.95015258674111
 20
-6.739274431170736
 30
0.0
 11
-67.05081925340777
 21
-6.739274431170741
 31
0.0
 12
-66.50048592007445
 22
-3.437274431170738
 32
0.0
 13
-66.50048592007445
 23
-3.437274431170738
 33
0.0
  0
MTEXT
  5
165
330
15B
100
AcDbEntity
  8
치수문자_일반주서
 62
     0
100
AcDbMText
 10
-70.87548592007447
 20
-0.2622744311707125
 30
0.0
 40
3.5
 41
0.0
 71
     2
 72
     1
  1
\A1;%%c6.35 [1/4]
  7
SLDTEXTSTYLE0
 11
-4.475859752819529E-15
 21
1.0
 31
0.0
 73
     1
 44
1.0
  0
POINT
  5
166
330
15B
100
AcDbEntity
  8
Defpoints
 62
     0
100
AcDbPoint
 10
-53.00048592007446
 20
2.912725568829309
 30
0.0
  0
POINT
  5
19A
330
15B
100
AcDbEntity
  8
Defpoints
 62
     0
100
AcDbPoint
 10
-53.00048592007446
 20
-3.437274431170691
 30
0.0
  0
POINT
  5
19B
330
15B
100
AcDbEntity
  8
Defpoints
 62
     0
100
AcDbPoint
 10
-66.50048592007445
 20
-3.437274431170738
 30
0.0
  0
ENDBLK
  5
15D
330
15B
100
AcDbEntity
  8
0
100
AcDbBlockEnd
  0
BLOCK
  5
16F
330
16E
100
AcDbEntity
  8
0
100
AcDbBlockBegin
  2
SW_DOWELSYMBOL_0
 70
     0
 10
0.0
 20
0.0
 30
0.0
  3
SW_DOWELSYMBOL_0
  1
SW_DOWELSYMBOL_0
  0
CIRCLE
  5
171
330
16E
100
AcDbEntity
  8
외형선
 62
     0
100
AcDbCircle
 10
0.0
 20
0.0
 30
0.0
 40
3.000000000000001
  0
HATCH
  5
172
330
16E
100
AcDbEntity
  8
0
  6
Continuous
 62
     0
370
    30
100
AcDbHatch
 10
0.0
 20
0.0
 30
0.0
210
0.0
220
0.0
230
1.0
  2
SOLID
 70
     1
 71
     0
 91
        1
 92
        0
 93
        3
 72
     2
 10
0.0
 20
0.0
 40
3.000000000000001
 50
0.0
 51
90.0
 73
     1
 72
     1
 10
0.0
 20
3.000000000000001
 11
0.0
 21
0.0
 72
     1
 10
0.0
 20
0.0
 11
3.000000000000001
 21
0.0
 97
        0
 75
     0
 76
     1
 98
        1
 10
0.0
 20
0.0
  0
HATCH
  5
173
330
16E
100
AcDbEntity
  8
0
  6
Continuous
 62
     0
370
    30
100
AcDbHatch
 10
0.0
 20
0.0
 30
0.0
210
0.0
220
0.0
230
1.0
  2
SOLID
 70
     1
 71
     0
 91
        1
 92
        0
 93
        3
 72
     2
 10
0.0
 20
0.0
 40
3.000000000000001
 50
180.0
 51
270.0000000000008
 73
     1
 72
     1
 10
0.0
 20
-3.000000000000001
 11
0.0
 21
0.0
 72
     1
 10
0.0
 20
0.0
 11
-3.000000000000001
 21
0.0
 97
        0
 75
     0
 76
     1
 98
        1
 10
0.0
 20
0.0
  0
ENDBLK
  5
170
330
16E
100
AcDbEntity
  8
0
100
AcDbBlockEnd
  0
BLOCK
  5
1A6
330
1A5
100
AcDbEntity
  8
0
100
AcDbBlockBegin
  2
*D7
 70
     1
 10
0.0
 20
0.0
 30
0.0
  3
*D7
  1
*D7
  0
LINE
  5
1A8
330
1A5
100
AcDbEntity
  8
치수문자_일반주서
 62
     0
370
    -2
100
AcDbLine
 10
50.02621951484419
 20
5.19817681277709
 30
0.0
 11
72.51863320600935
 21
30.69168502395198
 31
0.0
  0
MTEXT
  5
1A9
330
1A5
100
AcDbEntity
  8
치수문자_일반주서
 62
     0
100
AcDbMText
 10
61.86685703753733
 20
22.58638339743792
 30
0.0
 40
3.5
 41
0.0
 71
     5
 72
     1
  1
\A1;R.76 [R0.03]
  7
SLDTEXTSTYLE0
 11
0.6615909042614808
 21
0.7498649714438435
 31
0.0
 73
     1
 44
1.0
  0
SOLID
  5
1AA
330
1A5
100
AcDbEntity
  8
치수문자_일반주서
 62
     0
100
AcDbTrace
 10
49.61354382555959
 20
5.562272340422326
 30
0.0
 11
50.43889520412878
 21
4.834081285131856
 31
0.0
 12
47.84164634897278
 22
2.72212267706952
 32
0.0
 13
47.84164634897278
 23
2.72212267706952
 33
0.0
  0
LINE
  5
1AB
330
1A5
100
AcDbEntity
  8
치수문자_일반주서
 62
     0
100
AcDbLine
 10
47.24751407992553
 20
2.150725568829313
 30
0.0
 11
47.42751407992554
 21
2.150725568829313
 31
0.0
  0
LINE
  5
1AC
330
1A5
100
AcDbEntity
  8
치수문자_일반주서
 62
     0
100
AcDbLine
 10
47.33751407992553
 20
2.060725568829313
 30
0.0
 11
47.33751407992553
 21
2.240725568829313
 31
0.0
  0
POINT
  5
1AD
330
1A5
100
AcDbEntity
  8
Defpoints
 62
     0
100
AcDbPoint
 10
47.84164634897278
 20
2.72212267706952
 30
0.0
  0
POINT
  5
1AE
330
1A5
100
AcDbEntity
  8
Defpoints
 62
     0
100
AcDbPoint
 10
47.33751407992553
 20
2.150725568829313
 30
0.0
  0
ENDBLK
  5
1A7
330
1A5
100
AcDbEntity
  8
0
100
AcDbBlockEnd
  0
ENDSEC
  0
SECTION
  2
ENTITIES
  0
LINE
  5
95
330
1F
100
AcDbEntity
  8
0
  6
Continuous
 62
     4
370
    15
100
AcDbLine
 10
8.486633888282626
 20
2.912725568829313
 30
0.0
 11
-53.00048592007446
 21
2.912725568829309
 31
0.0
  0
LINE
  5
96
330
1F
100
AcDbEntity
  8
0
  6
Continuous
 62
     4
370
    15
100
AcDbLine
 10
-53.00048592007446
 20
-3.437274431170691
 30
0.0
 11
8.486633888282618
 21
-3.437274431170688
 31
0.0
  0
LINE
  5
97
330
1F
100
AcDbEntity
  8
0
  6
Continuous
 62
     4
370
    15
100
AcDbLine
 10
-53.00048592007446
 20
2.912725568829305
 30
0.0
 11
-53.50048592007446
 21
2.412725568829304
 31
0.0
  0
LINE
  5
98
330
1F
100
AcDbEntity
  8
0
  6
Continuous
 62
     4
370
    15
100
AcDbLine
 10
-53.50048592007446
 20
-2.937274431170688
 30
0.0
 11
-53.00048592007446
 21
-3.437274431170688
 31
0.0
  0
LINE
  5
99
330
1F
100
AcDbEntity
  8
0
  6
Continuous
 62
     1
370
    15
100
AcDbLine
 10
23.26894833285661
 20
-1.686678459873326
 30
0.0
 11
23.23495418043286
 21
-1.65906010506601
 31
0.0
  0
LINE
  5
9A
330
1F
100
AcDbEntity
  8
0
  6
Continuous
 62
     1
370
    15
100
AcDbLine
 10
43.31622371614129
 20
-1.767025015236229
 30
0.0
 11
43.18408585948245
 21
-1.659076646180802
 31
0.0
  0
LINE
  5
9B
330
1F
100
AcDbEntity
  8
0
  6
Continuous
 62
     1
370
    15
100
AcDbLine
 10
37.86214958422632
 20
1.289386684569856
 30
0.0
 11
38.05284642735948
 21
1.134763195407127
 31
0.0
  0
LINE
  5
9C
330
1F
100
AcDbEntity
  8
0
  6
Continuous
 62
     1
370
    15
100
AcDbLine
 10
18.06049530178544
 20
1.170602837532575
 30
0.0
 11
18.10407985073492
 21
1.134450249240118
 31
0.0
  0
LINE
  5
9D
330
1F
100
AcDbEntity
  8
0
  6
Continuous
 62
     1
370
    15
100
AcDbLine
 10
17.84734160495375
 20
1.347409940744867
 30
0.0
 11
18.00689862005532
 21
1.215060307327136
 31
0.0
  0
LINE
  5
9E
330
1F
100
AcDbEntity
  8
0
  6
Continuous
 62
     1
370
    15
100
AcDbLine
 10
13.32386549907819
 20
-1.711132729586212
 30
0.0
 11
13.26015220298601
 21
-1.658838721811602
 31
0.0
  0
LINE
  5
9F
330
1F
100
AcDbEntity
  8
0
  6
Continuous
 62
     1
370
    15
100
AcDbLine
 10
47.71288726593781
 20
1.401979972254677
 30
0.0
 11
47.77336822404679
 21
1.35830153015794
 31
0.0
  0
LINE
  5
A0
330
1F
100
AcDbEntity
  8
0
  6
Continuous
 62
     1
370
    15
100
AcDbLine
 10
27.88375045782213
 20
1.292457009773387
 30
0.0
 11
28.07882743361093
 21
1.134277955250176
 31
0.0
  0
LINE
  5
A1
330
1F
100
AcDbEntity
  8
0
  6
Continuous
 62
     1
370
    15
100
AcDbLine
 10
40.07600535399136
 20
-3.437274431170688
 30
0.0
 11
41.16138739807172
 21
-3.437274431170688
 31
0.0
  0
LINE
  5
A2
330
1F
100
AcDbEntity
  8
0
  6
Continuous
 62
     1
370
    15
100
AcDbLine
 10
20.12705645989273
 20
-3.437274431170688
 30
0.0
 11
21.21250500409034
 21
-3.437274431170688
 31
0.0
  0
LINE
  5
A3
330
1F
100
AcDbEntity
  8
0
  6
Continuous
 62
     1
370
    15
100
AcDbLine
 10
11.23800045668671
 20
2.912725568829313
 30
0.0
 11
10.15238888830723
 21
2.912725568829313
 31
0.0
  0
LINE
  5
A4
330
1F
100
AcDbEntity
  8
0
  6
Continuous
 62
     1
370
    15
100
AcDbLine
 10
31.18696018165396
 20
2.912725568829313
 30
0.0
 11
30.10155419989383
 21
2.912725568829313
 31
0.0
  0
LINE
  5
A5
330
1F
100
AcDbEntity
  8
0
  6
Continuous
 62
     1
370
    15
100
AcDbLine
 10
36.75008875128828
 20
-3.437274431170688
 30
0.0
 11
37.83606886167397
 21
-3.437274431170688
 31
0.0
  0
LINE
  5
A6
330
1F
100
AcDbEntity
  8
0
  6
Continuous
 62
     1
370
    15
100
AcDbLine
 10
16.80173659319177
 20
-3.437274431170688
 30
0.0
 11
17.88658149804246
 21
-3.437274431170688
 31
0.0
  0
LINE
  5
A7
330
1F
100
AcDbEntity
  8
0
  6
Continuous
 62
     1
370
    15
100
AcDbLine
 10
27.86122860385883
 20
2.912725568829313
 30
0.0
 11
26.77582508162098
 21
2.912725568829313
 31
0.0
  0
LINE
  5
A8
330
1F
100
AcDbEntity
  8
0
  6
Continuous
 62
     1
370
    15
100
AcDbLine
 10
47.33751407992553
 20
2.912725568829313
 30
0.0
 11
46.72560710392375
 21
2.912725568829313
 31
0.0
  0
LINE
  5
A9
330
1F
100
AcDbEntity
  8
0
  6
Continuous
 62
     1
370
    15
100
AcDbLine
 10
43.40033458411463
 20
-3.437274431170688
 30
0.0
 11
44.48716890052069
 21
-3.437274431170688
 31
0.0
  0
LINE
  5
AA
330
1F
100
AcDbEntity
  8
0
  6
Continuous
 62
     1
370
    15
100
AcDbLine
 10
23.45049625348098
 20
-3.437274431170688
 30
0.0
 11
24.5373336021193
 21
-3.437274431170688
 31
0.0
  0
LINE
  5
AB
330
1F
100
AcDbEntity
  8
0
  6
Continuous
 62
     1
370
    15
100
AcDbLine
 10
14.56218513398166
 20
2.912725568829313
 30
0.0
 11
13.47603618774436
 21
2.912725568829313
 31
0.0
  0
LINE
  5
AC
330
1F
100
AcDbEntity
  8
0
  6
Continuous
 62
     1
370
    15
100
AcDbLine
 10
34.51237496719922
 20
2.912725568829313
 30
0.0
 11
33.42530054707324
 21
2.912725568829313
 31
0.0
  0
LINE
  5
AD
330
1F
100
AcDbEntity
  8
0
  6
Continuous
 62
     1
370
    15
100
AcDbLine
 10
30.10155419989384
 20
-3.437274431170688
 30
0.0
 11
31.18696018165398
 21
-3.437274431170688
 31
0.0
  0
LINE
  5
AE
330
1F
100
AcDbEntity
  8
0
  6
Continuous
 62
     1
370
    15
100
AcDbLine
 10
10.15238888830726
 20
-3.437274431170688
 30
0.0
 11
11.23800045668672
 21
-3.437274431170688
 31
0.0
  0
LINE
  5
AF
330
1F
100
AcDbEntity
  8
0
  6
Continuous
 62
     1
370
    15
100
AcDbLine
 10
21.21250500409035
 20
2.912725568829313
 30
0.0
 11
20.12705645989276
 21
2.912725568829313
 31
0.0
  0
LINE
  5
B0
330
1F
100
AcDbEntity
  8
0
  6
Continuous
 62
     1
370
    15
100
AcDbLine
 10
41.16138739807177
 20
2.912725568829313
 30
0.0
 11
40.07600535399141
 21
2.912725568829313
 31
0.0
  0
LINE
  5
B1
330
1F
100
AcDbEntity
  8
0
  6
Continuous
 62
     1
370
    15
100
AcDbLine
 10
46.72560710392378
 20
-3.437274431170688
 30
0.0
 11
47.33751407992553
 21
-3.437274431170688
 31
0.0
  0
LINE
  5
B2
330
1F
100
AcDbEntity
  8
0
  6
Continuous
 62
     1
370
    15
100
AcDbLine
 10
26.77582508162097
 20
-3.437274431170688
 30
0.0
 11
27.86122860385886
 21
-3.437274431170688
 31
0.0
  0
LINE
  5
B3
330
1F
100
AcDbEntity
  8
0
  6
Continuous
 62
     1
370
    15
100
AcDbLine
 10
17.88658149804247
 20
2.912725568829313
 30
0.0
 11
16.80173659319177
 21
2.912725568829313
 31
0.0
  0
LINE
  5
B4
330
1F
100
AcDbEntity
  8
0
  6
Continuous
 62
     1
370
    15
100
AcDbLine
 10
37.83606886167399
 20
2.912725568829313
 30
0.0
 11
36.75008875128829
 21
2.912725568829313
 31
0.0
  0
LINE
  5
B5
330
1F
100
AcDbEntity
  8
0
  6
Continuous
 62
     1
370
    15
100
AcDbLine
 10
33.42530054707324
 20
-3.437274431170688
 30
0.0
 11
34.51237496719923
 21
-3.437274431170688
 31
0.0
  0
LINE
  5
B6
330
1F
100
AcDbEntity
  8
0
  6
Continuous
 62
     1
370
    15
100
AcDbLine
 10
13.47603618774437
 20
-3.437274431170688
 30
0.0
 11
14.56218513398165
 21
-3.437274431170688
 31
0.0
  0
LINE
  5
B7
330
1F
100
AcDbEntity
  8
0
  6
Continuous
 62
     1
370
    15
100
AcDbLine
 10
24.53733360211929
 20
2.912725568829313
 30
0.0
 11
23.45049625348101
 21
2.912725568829313
 31
0.0
  0
LINE
  5
B8
330
1F
100
AcDbEntity
  8
0
  6
Continuous
 62
     1
370
    15
100
AcDbLine
 10
44.48716890052071
 20
2.912725568829313
 30
0.0
 11
43.40033458411463
 21
2.912725568829313
 31
0.0
  0
SPLINE
  5
BB
330
1F
100
AcDbEntity
  8
0
  6
Continuous
 62
     4
370
    15
100
AcDbSpline
210
0.0
220
0.0
230
1.0
 70
     8
 71
     3
 72
    12
 73
     8
 74
     0
 42
0.000000001
 43
0.00000001
 40
0.0
 40
0.0
 40
0.0
 40
0.0
 40
0.5
 40
0.5
 40
0.75
 40
0.75
 40
1.0
 40
1.0
 40
1.0
 40
1.0
 10
9.999514079925522
 20
-0.6844753007488306
 30
0.0
 10
9.781735981704193
 20
-0.4685465243523081
 30
0.0
 10
9.560752979435167
 20
-0.2485641149171182
 30
0.0
 10
9.234913560133116
 20
0.0770915503418594
 30
0.0
 10
9.127727094252688
 20
0.1847647619272952
 30
0.0
 10
8.910118691573228
 20
0.3992272271857881
 30
0.0
 10
8.800468798881242
 20
0.505755025508031
 30
0.0
 10
8.690841874939128
 20
0.6107239717243313
 30
0.0
  0
SPLINE
  5
BC
330
1F
100
AcDbEntity
  8
0
  6
Continuous
 62
     4
370
    15
100
AcDbSpline
210
0.0
220
0.0
230
1.0
 70
     8
 71
     3
 72
     8
 73
     4
 74
     0
 42
0.000000001
 43
0.00000001
 40
0.0
 40
0.0
 40
0.0
 40
0.0
 40
1.0
 40
1.0
 40
1.0
 40
1.0
 10
9.999514079925524
 20
1.456196140779794
 30
0.0
 10
9.846368749364593
 20
1.585020680253944
 30
0.0
 10
9.691636823465595
 20
1.708254206298112
 30
0.0
 10
9.537743091717001
 20
1.823932247801349
 30
0.0
  0
SPLINE
  5
BD
330
1F
100
AcDbEntity
  8
0
  6
Continuous
 62
     4
370
    15
100
AcDbSpline
210
0.0
220
0.0
230
1.0
 70
    24
 71
     3
 72
    14
 73
    10
 74
     0
 42
0.000000001
 43
0.00000001
 40
0.0
 40
0.0
 40
0.0
 40
0.0
 40
0.25
 40
0.25
 40
0.4999999999999999
 40
0.4999999999999999
 40
0.75
 40
0.75
 40
1.0
 40
1.0
 40
1.0
 40
1.0
 10
9.999514079925522
 20
1.456196140779775
 30
0.0
 10
9.999514079925524
 20
1.3443046083755
 30
0.0
 10
9.999514079925524
 20
1.210110184919476
 30
0.0
 10
9.999514079925524
 20
0.8900246405068265
 30
0.0
 10
9.999514079925522
 20
0.7032837773613893
 30
0.0
 10
9.999514079925522
 20
0.2940557521592331
 30
0.0
 10
9.999514079925522
 20
0.0713863636713524
 30
0.0
 10
9.999514079925522
 20
-0.3480918167838492
 30
0.0
 10
9.999514079925522
 20
-0.5425159556570992
 30
0.0
 10
9.999514079925522
 20
-0.6844753007480858
 30
0.0
  0
LINE
  5
BE
330
1F
100
AcDbEntity
  8
0
  6
Continuous
 62
     4
370
    15
100
AcDbLine
 10
-53.00048592007446
 20
2.912725568829305
 30
0.0
 11
-53.00048592007446
 21
-3.437274431170691
 31
0.0
  0
SPLINE
  5
BF
330
1F
100
AcDbEntity
  8
0
  6
Continuous
 62
     4
370
    15
100
AcDbSpline
210
0.0
220
0.0
230
1.0
 70
     8
 71
     3
 72
    12
 73
     8
 74
     0
 42
0.000000001
 43
0.00000001
 40
0.0
 40
0.0
 40
0.0
 40
0.0
 40
0.5000000000000001
 40
0.5000000000000001
 40
0.75
 40
0.75
 40
1.0
 40
1.0
 40
1.0
 40
1.0
 10
9.999514079925522
 20
2.251836789911301
 30
0.0
 10
9.781735981704193
 20
2.384890601062773
 30
0.0
 10
9.560752979435165
 20
2.500640618302077
 30
0.0
 10
9.234913560133114
 20
2.642911509046649
 30
0.0
 10
9.127727094252688
 20
2.685117538513524
 30
0.0
 10
8.910118691573228
 20
2.759419615960562
 30
0.0
 10
8.800468798881242
 20
2.791385694242632
 30
0.0
 10
8.690841874939128
 20
2.817872646111843
 30
0.0
  0
SPLINE
  5
C0
330
1F
100
AcDbEntity
  8
0
  6
Continuous
 62
     4
370
    15
100
AcDbSpline
210
0.0
220
0.0
230
1.0
 70
     8
 71
     3
 72
    14
 73
    10
 74
     0
 42
0.000000001
 43
0.00000001
 40
0.0
 40
0.0
 40
0.0
 40
0.0
 40
0.25
 40
0.25
 40
0.5
 40
0.5
 40
0.75
 40
0.75
 40
1.0
 40
1.0
 40
1.0
 40
1.0
 10
8.479145221934697
 20
1.254470714393799
 30
0.0
 10
8.479145221934727
 20
1.377980429568852
 30
0.0
 10
8.482503411639623
 20
1.497781523131201
 30
0.0
 10
8.567574707450166
 20
1.715240229577084
 30
0.0
 10
8.647871647358686
 20
1.808189524570302
 30
0.0
 10
8.87810447528317
 20
1.932050917474407
 30
0.0
 10
9.020128271775082
 20
1.960150942227541
 30
0.0
 10
9.303025195731088
 20
1.94396009421579
 30
0.0
 10
9.436950083975956
 20
1.899695812695533
 30
0.0
 10
9.53774309171622
 20
1.823932247798415
 30
0.0
  0
SPLINE
  5
C1
330
1F
100
AcDbEntity
  8
0
  6
Continuous
 62
     4
370
    15
100
AcDbSpline
210
0.0
220
0.0
230
1.0
 70
     8
 71
     3
 72
    10
 73
     6
 74
     0
 42
0.000000001
 43
0.00000001
 40
0.0
 40
0.0
 40
0.0
 40
0.0
 40
0.5
 40
0.5
 40
1.0
 40
1.0
 40
1.0
 40
1.0
 10
8.690841874939128
 20
0.610723971724332
 30
0.0
 10
8.601425251498554
 20
0.6963413401522993
 30
0.0
 10
8.542820233435444
 20
0.8049203890022206
 30
0.0
 10
8.481341760767073
 20
1.029472756811723
 30
0.0
 10
8.479145221934672
 20
1.144430705517144
 30
0.0
 10
8.479145221934699
 20
1.254470714390374
 30
0.0
  0
SPLINE
  5
C2
330
1F
100
AcDbEntity
  8
0
  6
Continuous
 62
     4
370
    15
100
AcDbSpline
210
0.0
220
0.0
230
1.0
 70
     8
 71
     3
 72
     8
 73
     4
 74
     0
 42
0.000000001
 43
0.00000001
 40
0.0
 40
0.0
 40
0.0
 40
0.0
 40
1.0
 40
1.0
 40
1.0
 40
1.0
 10
9.999514079925524
 20
-1.7150973019081
 30
0.0
 10
9.846368749364595
 20
-1.578872009414009
 30
0.0
 10
9.691636823465595
 20
-1.437077842556302
 30
0.0
 10
9.537743091717001
 20
-1.29191685985686
 30
0.0
  0
SPLINE
  5
C3
330
1F
100
AcDbEntity
  8
0
  6
Continuous
 62
     4
370
    15
100
AcDbSpline
210
0.0
220
0.0
230
1.0
 70
     8
 71
     3
 72
    14
 73
    10
 74
     0
 42
0.000000001
 43
0.00000001
 40
0.0
 40
0.0
 40
0.0
 40
0.0
 40
0.2499999999999999
 40
0.2499999999999999
 40
0.4999999999999998
 40
0.4999999999999998
 40
0.7499999999999999
 40
0.7499999999999999
 40
1.0
 40
1.0
 40
1.0
 40
1.0
 10
8.479145221934697
 20
-1.919493270982096
 30
0.0
 10
8.479145221934727
 20
-1.799574781101927
 30
0.0
 10
8.482503411639625
 20
-1.673684350436021
 30
0.0
 10
8.567574707450168
 20
-1.427841166422382
 30
0.0
 10
8.647871647358688
 20
-1.312850053302179
 30
0.0
 10
8.878104475283171
 20
-1.153681918160836
 30
0.0
 10
9.020128271775084
 20
-1.114778512819474
 30
0.0
 10
9.30302519573109
 20
-1.136519392699011
 30
0.0
 10
9.436950083975956
 20
-1.196843383591295
 30
0.0
 10
9.53774309171622
 20
-1.291916859856598
 30
0.0
  0
SPLINE
  5
C4
330
1F
100
AcDbEntity
  8
0
  6
Continuous
 62
     4
370
    15
100
AcDbSpline
210
0.0
220
0.0
230
1.0
 70
     8
 71
     3
 72
    10
 73
     6
 74
     0
 42
0.000000001
 43
0.00000001
 40
0.0
 40
0.0
 40
0.0
 40
0.0
 40
0.5
 40
0.5
 40
1.0
 40
1.0
 40
1.0
 40
1.0
 10
8.690841874939128
 20
-2.469423105558211
 30
0.0
 10
8.601425251498554
 20
-2.405409679995851
 30
0.0
 10
8.542820233435444
 20
-2.320444418186921
 30
0.0
 10
8.481341760767073
 20
-2.130357624913114
 30
0.0
 10
8.479145221934667
 20
-2.026333705931973
 30
0.0
 10
8.479145221934695
 20
-1.919493270976883
 30
0.0
  0
SPLINE
  5
C5
330
1F
100
AcDbEntity
  8
0
  6
Continuous
 62
     4
370
    15
100
AcDbSpline
210
0.0
220
0.0
230
1.0
 70
     8
 71
     3
 72
    12
 73
     8
 74
     0
 42
0.000000001
 43
0.00000001
 40
0.0
 40
0.0
 40
0.0
 40
0.0
 40
0.5
 40
0.5
 40
0.75
 40
0.75
 40
1.0
 40
1.0
 40
1.0
 40
1.0
 10
9.999514079925524
 20
-3.198586521830844
 30
0.0
 10
9.781735981704193
 20
-3.115711556585793
 30
0.0
 10
9.560752979435167
 20
-3.011479164389903
 30
0.0
 10
9.234913560133116
 20
-2.828094389875496
 30
0.0
 10
9.127727094252688
 20
-2.762627207756936
 30
0.0
 10
8.910118691573228
 20
-2.622466819945478
 30
0.0
 10
8.800468798881242
 20
-2.547905099905304
 30
0.0
 10
8.690841874939128
 20
-2.469423105558213
 30
0.0
  0
SPLINE
  5
C6
330
1F
100
AcDbEntity
  8
0
  6
Continuous
 62
     4
370
    15
100
AcDbSpline
210
0.0
220
0.0
230
1.0
 70
     8
 71
     3
 72
     8
 73
     4
 74
     0
 42
0.000000001
 43
0.00000001
 40
0.0
 40
0.0
 40
0.0
 40
0.0
 40
1.0
 40
1.0
 40
1.0
 40
1.0
 10
9.999514079925524
 20
-3.433567873858577
 30
0.0
 10
9.846368749364595
 20
-3.426167120838636
 30
0.0
 10
9.691636823465595
 20
-3.407606480025096
 30
0.0
 10
9.537743091717001
 20
-3.378123538828892
 30
0.0
  0
SPLINE
  5
C7
330
1F
100
AcDbEntity
  8
0
  6
Continuous
 62
     4
370
    15
100
AcDbSpline
210
0.0
220
0.0
230
1.0
 70
     8
 71
     3
 72
    15
 73
    11
 74
     0
 42
0.000000001
 43
0.00000001
 40
0.0
 40
0.0
 40
0.0
 40
0.0
 40
0.1870671286947005
 40
0.3293807990164877
 40
0.4724026096395383
 40
0.6032607703478494
 40
0.7289466937727254
 40
0.8539651599871348
 40
0.9790238129381182
 40
1.0
 40
1.0
 40
1.0
 40
1.0
 10
8.486633888282624
 20
-3.433468333758276
 30
0.0
 10
8.488512386733833
 20
-3.432338867995681
 30
0.0
 10
8.49181997650189
 20
-3.430350146952379
 30
0.0
 10
8.59403272318542
 20
-3.397241151291762
 30
0.0
 10
8.74781394858125
 20
-3.365389779817844
 30
0.0
 10
8.9432984890457
 20
-3.34266846511265
 30
0.0
 10
9.149548127573105
 20
-3.336900447574773
 30
0.0
 10
9.348307797668967
 20
-3.348377985423658
 30
0.0
 10
9.473585253401435
 20
-3.366099880864434
 30
0.0
 10
9.529685020093352
 20
-3.376613396034643
 30
0.0
 10
9.53774309171622
 20
-3.378123538825696
 30
0.0
  0
SPLINE
  5
C8
330
1F
100
AcDbEntity
  8
0
  6
Continuous
 62
     4
370
    15
100
AcDbSpline
210
0.0
220
0.0
230
1.0
 70
     8
 71
     3
 72
     8
 73
     4
 74
     0
 42
0.000000001
 43
0.00000001
 40
0.0
 40
0.0
 40
0.0
 40
0.0
 40
1.0
 40
1.0
 40
1.0
 40
1.0
 10
9.999514079925522
 20
2.909019011517202
 30
0.0
 10
9.846368749364593
 20
2.901618258497263
 30
0.0
 10
9.691636823465595
 20
2.883057617683724
 30
0.0
 10
9.537743091717001
 20
2.853574676487521
 30
0.0
  0
LINE
  5
C9
330
1F
100
AcDbEntity
  8
0
  6
Continuous
 62
     4
370
    15
100
AcDbLine
 10
8.479145221934697
 20
2.911689554205202
 30
0.0
 11
8.486633888282626
 21
2.9089194714169
 31
0.0
  0
SPLINE
  5
CA
330
1F
100
AcDbEntity
  8
0
  6
Continuous
 62
     4
370
    15
100
AcDbSpline
210
0.0
220
0.0
230
1.0
 70
     8
 71
     3
 72
    14
 73
    10
 74
     0
 42
0.000000001
 43
0.00000001
 40
0.0
 40
0.0
 40
0.0
 40
0.0
 40
0.25
 40
0.25
 40
0.5
 40
0.5
 40
0.75
 40
0.75
 40
1.0
 40
1.0
 40
1.0
 40
1.0
 10
8.514189896034392
 20
2.898726411766353
 30
0.0
 10
8.5422767187445
 20
2.888777146380138
 30
0.0
 10
8.592070798831916
 20
2.873778545894403
 30
0.0
 10
8.735343660491406
 20
2.844072735744538
 30
0.0
 10
8.829004859364423
 20
2.829654165457947
 30
0.0
 10
9.037774177009855
 20
2.813862137233919
 30
0.0
 10
9.150806883470436
 20
2.812917205495063
 30
0.0
 10
9.361538697170715
 20
2.825380677440905
 30
0.0
 10
9.459836371694074
 20
2.838649317152951
 30
0.0
 10
9.53774309171622
 20
2.853574676484326
 30
0.0
  0
SPLINE
  5
CB
330
1F
100
AcDbEntity
  8
0
  6
Continuous
 62
     4
370
    15
100
AcDbSpline
210
0.0
220
0.0
230
1.0
 70
     8
 71
     3
 72
    10
 73
     6
 74
     0
 42
0.000000001
 43
0.00000001
 40
0.0
 40
0.0
 40
0.0
 40
0.0
 40
0.5
 40
0.5
 40
1.0
 40
1.0
 40
1.0
 40
1.0
 10
8.690841874939128
 20
2.817872646111842
 30
0.0
 10
8.601425251498553
 20
2.83947658897745
 30
0.0
 10
8.542820233435442
 20
2.863090376018442
 30
0.0
 10
8.481341760767073
 20
2.897555950554141
 30
0.0
 10
8.479145221934667
 20
2.908489980278423
 30
0.0
 10
8.479145221934695
 20
2.911689554196564
 30
0.0
  0
LINE
  5
CC
330
1F
100
AcDbEntity
  8
0
  6
Continuous
 62
     1
370
    15
100
AcDbLine
 10
9.999514079925524
 20
-3.198586521829506
 30
0.0
 11
9.999514079925524
 21
-3.433567873858577
 31
0.0
  0
LINE
  5
CD
330
1F
100
AcDbEntity
  8
0
  6
Continuous
 62
     4
370
    15
100
AcDbLine
 10
9.999514079925524
 20
-0.6844753007480859
 30
0.0
 11
9.999514079925524
 21
-1.7150973019081
 31
0.0
  0
LINE
  5
CE
330
1F
100
AcDbEntity
  8
0
  6
Continuous
 62
     4
370
    15
100
AcDbLine
 10
9.999514079925524
 20
2.251836789910707
 30
0.0
 11
9.999514079925524
 21
1.456196140779794
 31
0.0
  0
LINE
  5
CF
330
1F
100
AcDbEntity
  8
0
  6
Continuous
 62
     4
370
    15
100
AcDbLine
 10
-53.50048592007446
 20
2.412725568829304
 30
0.0
 11
-53.50048592007446
 21
-2.937274431170688
 31
0.0
  0
SPLINE
  5
D0
330
1F
100
AcDbEntity
  8
0
  6
Continuous
 62
     4
370
    15
100
AcDbSpline
210
0.0
220
0.0
230
1.0
 70
    24
 71
     3
 72
    12
 73
     8
 74
     0
 42
0.000000001
 43
0.00000001
 40
0.0
 40
0.0
 40
0.0
 40
0.0
 40
0.0437574279258214
 40
0.284788829607774
 40
0.5258202312897263
 40
0.7668516329716782
 40
1.0
 40
1.0
 40
1.0
 40
1.0
 10
9.999514079925525
 20
-1.729771656810682
 30
0.0
 10
9.999514079925525
 20
-1.731613644992573
 30
0.0
 10
9.999514079925525
 20
-1.74360195608255
 30
0.0
 10
9.999514079925524
 20
-1.890856893377834
 30
0.0
 10
9.999514079925525
 20
-2.223396148662618
 30
0.0
 10
9.999514079925525
 20
-2.679613885337113
 30
0.0
 10
9.999514079925524
 20
-3.027523592734739
 30
0.0
 10
9.999514079925524
 20
-3.198586521829506
 30
0.0
  0
SPLINE
  5
D1
330
1F
100
AcDbEntity
  8
0
  6
Continuous
 62
     1
370
    15
100
AcDbSpline
210
0.0
220
0.0
230
1.0
 70
    24
 71
     3
 72
    11
 73
     7
 74
     0
 42
0.000000001
 43
0.00000001
 40
0.0
 40
0.0
 40
0.0
 40
0.0
 40
0.1759770975268823
 40
0.4928254150533106
 40
0.8096737325797385
 40
1.0
 40
1.0
 40
1.0
 40
1.0
 10
9.999514079925522
 20
2.909019011517203
 30
0.0
 10
9.999514079925524
 20
2.825032927215338
 30
0.0
 10
9.999514079925525
 20
2.589829156744891
 30
0.0
 10
9.999514079925524
 20
2.295785326876053
 30
0.0
 10
9.999514079925524
 20
2.102718763542438
 30
0.0
 10
9.999514079925524
 20
2.107783479940811
 30
0.0
 10
9.999514079925524
 20
2.10968410468869
 30
0.0
  0
SPLINE
  5
D2
330
1F
100
AcDbEntity
  8
0
  6
Continuous
 62
     1
370
    15
100
AcDbSpline
210
0.0
220
0.0
230
1.0
 70
     8
 71
     3
 72
    21
 73
    17
 74
     0
 42
0.000000001
 43
0.00000001
 40
0.0
 40
0.0
 40
0.0
 40
0.0
 40
0.04703646619469
 40
0.1214509602546142
 40
0.1958052024809454
 40
0.2701448805169026
 40
0.3445158680065148
 40
0.4189636390815775
 40
0.4934523151556621
 40
0.5678509357512422
 40
0.6421985204249568
 40
0.71654084180979
 40
0.7909237397706086
 40
0.8653925367981691
 40
0.9398642099478357
 40
1.0
 40
1.0
 40
1.0
 40
1.0
 10
14.56218513398166
 20
2.887765697360606
 30
0.0
 10
14.73625358100314
 20
2.889337743086054
 30
0.0
 10
15.18570869000907
 20
2.893396858882076
 30
0.0
 10
15.9097932299116
 20
2.658742503164467
 30
0.0
 10
16.73455104595411
 20
2.227822258558668
 30
0.0
 10
17.55905979379505
 20
1.620867810315463
 30
0.0
 10
18.38407403997859
 20
0.8895795550689201
 30
0.0
 10
19.21013485757338
 20
0.0801743737870482
 30
0.0
 10
20.03671271465571
 20
-0.75178491136181
 30
0.0
 10
20.86212262001574
 20
-1.551259808210027
 30
0.0
 10
21.68677374980946
 20
-2.263899371449859
 30
0.0
 10
22.51133096169117
 20
-2.841637881804107
 30
0.0
 10
23.33652120226524
 20
-3.247779821939237
 30
0.0
 10
24.16284149742139
 20
-3.447222768634142
 30
0.0
 10
24.93650744615631
 20
-3.454384521092129
 30
0.0
 10
25.43416262890748
 20
-3.296764380184422
 30
0.0
 10
25.65648973378297
 20
-3.22634769246031
 30
0.0
  0
SPLINE
  5
D3
330
1F
100
AcDbEntity
  8
0
  6
Continuous
 62
     1
370
    15
100
AcDbSpline
210
0.0
220
0.0
230
1.0
 70
     8
 71
     3
 72
    21
 73
    17
 74
     0
 42
0.000000001
 43
0.00000001
 40
0.0
 40
0.0
 40
0.0
 40
0.0
 40
0.0344167010878026
 40
0.1087807797044584
 40
0.1831216107493454
 40
0.2574850788334818
 40
0.3319167795650489
 40
0.4064151858230071
 40
0.4808305001515925
 40
0.5551861659037247
 40
0.6295278782225395
 40
0.7039015104554146
 40
0.7783525286655761
 40
0.8528422838854466
 40
0.9272418460294044
 40
1.0
 40
1.0
 40
1.0
 40
1.0
 10
34.51237496719922
 20
2.886082479972095
 30
0.0
 10
34.63967905010053
 20
2.891855003438838
 30
0.0
 10
35.04204874155455
 20
2.910100203697065
 30
0.0
 10
35.71893287876109
 20
2.712016078665625
 30
0.0
 10
36.54344919575959
 20
2.315110529813561
 30
0.0
 10
37.36831610205999
 20
1.733116671688593
 30
0.0
 10
38.19414545464196
 20
1.019992926134692
 30
0.0
 10
39.02082108971857
 20
0.2202563120185714
 30
0.0
 10
39.84643196119202
 20
-0.6121579875199925
 30
0.0
 10
40.67118367978158
 20
-1.420799167104458
 30
0.0
 10
41.49569413615638
 20
-2.151604947028516
 30
0.0
 10
42.32071917873598
 20
-2.755331190279229
 30
0.0
 10
43.1467971265421
 20
-3.192579034736558
 30
0.0
 10
43.97336375745078
 20
-3.428731412489201
 30
0.0
 10
44.79288003308206
 20
-3.467040958225922
 30
0.0
 10
45.33683174984351
 20
-3.314977586339268
 30
0.0
 10
45.60577396915529
 20
-3.239793963508342
 30
0.0
  0
SPLINE
  5
D4
330
1F
100
AcDbEntity
  8
0
  6
Continuous
 62
     1
370
    15
100
AcDbSpline
210
0.0
220
0.0
230
1.0
 70
     8
 71
     3
 72
    22
 73
    18
 74
     0
 42
0.000000001
 43
0.00000001
 40
0.0
 40
0.0
 40
0.0
 40
0.0
 40
0.0205402368452967
 40
0.0948929277272892
 40
0.1692310547227785
 40
0.2436004905186749
 40
0.3180467082979908
 40
0.3925338302228774
 40
0.4669308985481983
 40
0.5412769320164788
 40
0.6156177023056925
 40
0.6899990483242924
 40
0.7644662916174162
 40
0.8389364109726373
 40
0.9133194612952982
 40
0.9876607192358288
 40
1.0
 40
1.0
 40
1.0
 40
1.0
 10
15.68206907539708
 20
2.697261725020372
 30
0.0
 10
15.75803848823462
 20
2.729308014375506
 30
0.0
 10
16.10900620375677
 20
2.877357242951017
 30
0.0
 10
16.73452816086917
 20
2.938476014086538
 30
0.0
 10
17.55906592814137
 20
2.860211094376411
 30
0.0
 10
18.38407239354329
 20
2.557038279483328
 30
0.0
 10
19.21013530140227
 20
2.068345465164057
 30
0.0
 10
20.03671258769876
 20
1.42216257869706
 30
0.0
 10
20.86212268440148
 20
0.6627220866786594
 30
0.0
 10
21.68677361915398
 20
-0.1586946620067932
 30
0.0
 10
22.51133142004656
 20
-0.9869206263386182
 30
0.0
 10
23.33651949765171
 20
-1.767090698931611
 30
0.0
 10
24.16284786518122
 20
-2.444545378864907
 30
0.0
 10
24.98921000901814
 20
-2.980608694957981
 30
0.0
 10
25.81442982561406
 20
-3.314437703768951
 30
0.0
 10
26.40977524769644
 20
-3.460139041337535
 30
0.0
 10
26.73021005526867
 20
-3.427174812932859
 30
0.0
 10
26.77582508162097
 20
-3.422482238618741
 30
0.0
  0
SPLINE
  5
D5
330
1F
100
AcDbEntity
  8
0
  6
Continuous
 62
     1
370
    15
100
AcDbSpline
210
0.0
220
0.0
230
1.0
 70
     8
 71
     3
 72
    22
 73
    18
 74
     0
 42
0.000000001
 43
0.00000001
 40
0.0
 40
0.0
 40
0.0
 40
0.0
 40
0.0079332142975108
 40
0.0822634856749939
 40
0.1566163908762704
 40
0.2310375190329412
 40
0.3055253432408846
 40
0.3799300873221636
 40
0.4542751912997106
 40
0.5286063438259412
 40
0.6029694117322005
 40
0.6774098546235346
 40
0.7518890290222178
 40
0.8262780231563728
 40
0.900616593933124
 40
0.9634894753355667
 40
1.0
 40
1.0
 40
1.0
 40
1.0
 10
35.63101657563899
 20
2.707787853630036
 30
0.0
 10
35.66034951354399
 20
2.720957628750818
 30
0.0
 10
35.96451748716227
 20
2.857521645095521
 30
0.0
 10
36.54343035991338
 20
2.929336738340728
 30
0.0
 10
37.36832115529254
 20
2.891370466003595
 30
0.0
 10
38.19414409678355
 20
2.621466042935801
 30
0.0
 10
39.0208214604195
 20
2.163305197573027
 30
0.0
 10
39.84643183529231
 20
1.540392110350525
 30
0.0
 10
40.67118381306979
 20
0.7969236480681653
 30
0.0
 10
41.49569372881827
 20
-0.0177432349522559
 30
0.0
 10
42.32072067617716
 20
-0.8489656064926083
 30
0.0
 10
43.14679153687707
 20
-1.640969391845906
 30
0.0
 10
43.97338461728377
 20
-2.339432401378494
 30
0.0
 10
44.79868477096365
 20
-2.900975169856752
 30
0.0
 10
45.58129919701108
 20
-3.256808617187785
 30
0.0
 10
46.2225749867717
 20
-3.427260250067147
 30
0.0
 10
46.59045782667902
 20
-3.420887795646979
 30
0.0
 10
46.72560710392376
 20
-3.418546744323744
 30
0.0
  0
SPLINE
  5
D6
330
1F
100
AcDbEntity
  8
0
  6
Continuous
 62
     1
370
    15
100
AcDbSpline
210
0.0
220
0.0
230
1.0
 70
     8
 71
     3
 72
    14
 73
    10
 74
     0
 42
0.000000001
 43
0.00000001
 40
0.0
 40
0.0
 40
0.0
 40
0.0
 40
0.25
 40
0.25
 40
0.5
 40
0.5
 40
0.75
 40
0.75
 40
1.0
 40
1.0
 40
1.0
 40
1.0
 10
48.09951407992552
 20
1.152760734368599
 30
0.0
 10
48.09951407992553
 20
1.13370452924826
 30
0.0
 10
48.09394419943981
 20
1.120550923504963
 30
0.0
 10
48.05572130234531
 20
1.125796362808845
 30
0.0
 10
48.02050254525258
 20
1.147896644843522
 30
0.0
 10
47.93759768574958
 20
1.213581806822176
 30
0.0
 10
47.89225861268643
 20
1.253659630022678
 30
0.0
 10
47.80371703780044
 20
1.331508592512211
 30
0.0
 10
47.76049422788876
 20
1.369481981824335
 30
0.0
 10
47.71851407992553
 20
1.405084976638338
 30
0.0
  0
SPLINE
  5
D7
330
1F
100
AcDbEntity
  8
0
  6
Continuous
 62
     1
370
    15
100
AcDbSpline
210
0.0
220
0.0
230
1.0
 70
     8
 71
     3
 72
    15
 73
    11
 74
     0
 42
0.000000001
 43
0.00000001
 40
0.0
 40
0.0
 40
0.0
 40
0.0
 40
0.0841011763342525
 40
0.1687346263155622
 40
0.3138878294191636
 40
0.4589944637512222
 40
0.6041440917437633
 40
0.7494257269200446
 40
0.8948404163940851
 40
1.0
 40
1.0
 40
1.0
 40
1.0
 10
9.999514079925227
 20
-0.6844753007485365
 30
0.0
 10
10.15830327013342
 20
-0.8417079058452318
 30
0.0
 10
10.47688662224069
 20
-1.157168236152264
 30
0.0
 10
11.07265222046652
 20
-1.712417104440413
 30
0.0
 10
11.78220347046337
 20
-2.318944727020634
 30
0.0
 10
12.60684120927413
 20
-2.882887095543166
 30
0.0
 10
13.43166958085928
 20
-3.273235728443378
 30
0.0
 10
14.25747921050825
 20
-3.454080111361054
 30
0.0
 10
15.00816900939435
 20
-3.44733999615472
 30
0.0
 10
15.48285539640384
 20
-3.288480032155416
 30
0.0
 10
15.68206907539708
 20
-3.221810587361747
 30
0.0
  0
SPLINE
  5
D8
330
1F
100
AcDbEntity
  8
0
  6
Continuous
 62
     1
370
    15
100
AcDbSpline
210
0.0
220
0.0
230
1.0
 70
     8
 71
     3
 72
    21
 73
    17
 74
     0
 42
0.000000001
 43
0.00000001
 40
0.0
 40
0.0
 40
0.0
 40
0.0
 40
0.040732413956192
 40
0.1151190432474856
 40
0.1894638781457924
 40
0.2638127535341629
 40
0.3382114526828231
 40
0.4127004336758079
 40
0.487152893170669
 40
0.561527366339927
 40
0.6358693099681694
 40
0.7102245958843952
 40
0.7846389255153364
 40
0.8591371453397492
 40
0.9335701668055486
 40
1.0
 40
1.0
 40
1.0
 40
1.0
 10
24.53733360211929
 20
2.886152803843821
 30
0.0
 10
24.68804373049403
 20
2.890284990632603
 30
0.0
 10
25.11398474653265
 20
2.901963488012014
 30
0.0
 10
25.81441494192184
 20
2.686142446095268
 30
0.0
 10
26.63899363706407
 20
2.272059678110546
 30
0.0
 10
27.46362891848602
 20
1.677490587613749
 30
0.0
 10
28.28901276091775
 20
0.9550226163737067
 30
0.0
 10
29.11556869021452
 20
0.1503633443257621
 30
0.0
 10
29.94166361177855
 20
-0.6820997016203126
 30
0.0
 10
30.76669948202035
 20
-1.486336854830664
 30
0.0
 10
31.59121230952423
 20
-2.208216788656651
 30
0.0
 10
32.41595605936575
 20
-2.79907749419172
 30
0.0
 10
33.24155307514703
 20
-3.220914820834261
 30
0.0
 10
34.06822201637549
 20
-3.438759451112197
 30
0.0
 10
34.86473326963465
 20
-3.460947220130891
 30
0.0
 10
35.38545040191442
 20
-3.305598140747079
 30
0.0
 10
35.63101657563899
 20
-3.232336715971408
 30
0.0
  0
SPLINE
  5
D9
330
1F
100
AcDbEntity
  8
0
  6
Continuous
 62
     1
370
    15
100
AcDbSpline
210
0.0
220
0.0
230
1.0
 70
     8
 71
     3
 72
    12
 73
     8
 74
     0
 42
0.000000001
 43
0.00000001
 40
0.0
 40
0.0
 40
0.0
 40
0.0
 40
0.0964482495596222
 40
0.3516242901659135
 40
0.5674429798467471
 40
0.7839338394277781
 40
1.0
 40
1.0
 40
1.0
 40
1.0
 10
44.48716890052071
 20
2.887550621721147
 30
0.0
 10
44.59108324025994
 20
2.894075962152347
 30
0.0
 10
44.96992688040585
 20
2.917865592422342
 30
0.0
 10
45.58128323628183
 20
2.747752560732814
 30
0.0
 10
46.32063428917451
 20
2.418864969636775
 30
0.0
 10
47.02024479542757
 20
1.975908450413953
 30
0.0
 10
47.48591005368912
 20
1.595234881865698
 30
0.0
 10
47.71851407992547
 20
1.405084976638389
 30
0.0
  0
SPLINE
  5
DA
330
1F
100
AcDbEntity
  8
0
  6
Continuous
 62
     1
370
    15
100
AcDbSpline
210
0.0
220
0.0
230
1.0
 70
    24
 71
     3
 72
    14
 73
    10
 74
     0
 42
0.000000001
 43
0.00000001
 40
0.0
 40
0.0
 40
0.0
 40
0.0
 40
0.25
 40
0.25
 40
0.5
 40
0.5
 40
0.75
 40
0.75
 40
1.0
 40
1.0
 40
1.0
 40
1.0
 10
9.999514079925524
 20
1.456196140786248
 30
0.0
 10
9.999514079925524
 20
1.344304608382277
 30
0.0
 10
9.999514079925522
 20
1.210110184926462
 30
0.0
 10
9.999514079925522
 20
0.8900246405137292
 30
0.0
 10
9.999514079925522
 20
0.7032837773679828
 30
0.0
 10
9.999514079925522
 20
0.2940557521644787
 30
0.0
 10
9.999514079925522
 20
0.0713863636755383
 30
0.0
 10
9.999514079925522
 20
-0.3480918167819652
 30
0.0
 10
9.999514079925522
 20
-0.5425159556564129
 30
0.0
 10
9.999514079925522
 20
-0.6844753007480844
 30
0.0
  0
SPLINE
  5
DB
330
1F
100
AcDbEntity
  8
0
  6
Continuous
 62
     1
370
    15
100
AcDbSpline
210
0.0
220
0.0
230
1.0
 70
     8
 71
     3
 72
    17
 73
    13
 74
     0
 42
0.000000001
 43
0.00000001
 40
0.0
 40
0.0
 40
0.0
 40
0.0
 40
0.0702570127442848
 40
0.140958679868385
 40
0.2622177500123944
 40
0.3834379172192707
 40
0.5046940007626848
 40
0.6260603613651674
 40
0.7475378737719505
 40
0.8688812739601435
 40
0.990126424977283
 40
1.0
 40
1.0
 40
1.0
 40
1.0
 10
9.999514079923859
 20
1.456196140781192
 30
0.0
 10
10.15830326831025
 20
1.318214613361278
 30
0.0
 10
10.47688661676236
 20
1.041378277860854
 30
0.0
 10
11.07265224911936
 20
0.4800963704095402
 30
0.0
 10
11.78220327442094
 20
-0.2292214970657409
 30
0.0
 10
12.6068419283632
 20
-1.055485646043656
 30
0.0
 10
13.43166689855778
 20
-1.828959486160456
 30
0.0
 10
14.25748923402563
 20
-2.495681156786506
 30
0.0
 10
15.08416576918795
 20
-3.018085064551765
 30
0.0
 10
15.9097918413205
 20
-3.332817068060117
 30
0.0
 10
16.48212547100892
 20
-3.466700692023886
 30
0.0
 10
16.77935448885569
 20
-3.431908806768129
 30
0.0
 10
16.80173659319177
 20
-3.429288888930077
 30
0.0
  0
SPLINE
  5
DC
330
1F
100
AcDbEntity
  8
0
  6
Continuous
 62
     1
370
    15
100
AcDbSpline
210
0.0
220
0.0
230
1.0
 70
     8
 71
     3
 72
    22
 73
    18
 74
     0
 42
0.000000001
 43
0.00000001
 40
0.0
 40
0.0
 40
0.0
 40
0.0
 40
0.0142485842518753
 40
0.0885902037328884
 40
0.1629358635292138
 40
0.237331344930949
 40
0.3118171042723152
 40
0.3862663436951138
 40
0.4606376001652219
 40
0.5349763285012178
 40
0.6093283985481429
 40
0.6837395097561396
 40
0.7582345075293542
 40
0.8326643097637869
 40
0.9070252794812719
 40
0.9813630025988873
 40
1.0
 40
1.0
 40
1.0
 40
1.0
 10
25.65648973378297
 20
2.701798830118937
 30
0.0
 10
25.70917715878587
 20
2.724769833387098
 30
0.0
 10
26.03675985982184
 20
2.867591451556453
 30
0.0
 10
26.63897039798168
 20
2.934795995880915
 30
0.0
 10
27.4636351500114
 20
2.876524230130773
 30
0.0
 10
28.28901108810143
 20
2.589919844789544
 30
0.0
 10
29.11556913965377
 20
2.116430927144327
 30
0.0
 10
29.94166348701046
 20
1.481675874523614
 30
0.0
 10
30.76669953220949
 20
0.7300493993455963
 30
0.0
 10
31.5912122334423
 20
-0.0881758823062142
 30
0.0
 10
32.41595631365288
 20
-0.9180566460863934
 30
0.0
 10
33.24155213284934
 20
-1.704477431109369
 30
0.0
 10
34.06822553394844
 20
-2.392327224530911
 30
0.0
 10
34.89406530270489
 20
-2.941922399939629
 30
0.0
 10
35.7189618285696
 20
-3.294275627401686
 30
0.0
 10
36.33744520281296
 20
-3.453290431780442
 30
0.0
 10
36.68118526262375
 20
-3.423212937783386
 30
0.0
 10
36.75008875128829
 20
-3.41718383466452
 30
0.0
  0
SPLINE
  5
DD
330
1F
100
AcDbEntity
  8
0
  6
Continuous
 62
     1
370
    15
100
AcDbSpline
210
0.0
220
0.0
230
1.0
 70
     8
 71
     3
 72
    11
 73
     7
 74
     0
 42
0.000000001
 43
0.00000001
 40
0.0
 40
0.0
 40
0.0
 40
0.0
 40
0.0083513972329342
 40
0.3384320878371228
 40
0.6695408187152526
 40
0.9999999999999999
 40
0.9999999999999999
 40
0.9999999999999999
 40
0.9999999999999999
 10
45.6057739691553
 20
2.715245101166971
 30
0.0
 10
45.61165519359177
 20
2.717955037027736
 30
0.0
 10
45.84998597939427
 20
2.827772499385603
 30
0.0
 10
46.32056697917922
 20
2.898598135838343
 30
0.0
 10
47.02026160617079
 20
2.93435906747606
 30
0.0
 10
47.48591565360113
 20
2.817314546243005
 30
0.0
 10
47.71851407992546
 20
2.758849744747285
 30
0.0
  0
SPLINE
  5
DE
330
1F
100
AcDbEntity
  8
0
  6
Continuous
 62
     1
370
    15
100
AcDbSpline
210
0.0
220
0.0
230
1.0
 70
     8
 71
     3
 72
     8
 73
     4
 74
     0
 42
0.000000001
 43
0.00000001
 40
0.0
 40
0.0
 40
0.0
 40
0.0
 40
1.0
 40
1.0
 40
1.0
 40
1.0
 10
47.71851407992553
 20
2.758849744743483
 30
0.0
 10
47.78178045565051
 20
2.739459497204114
 30
0.0
 10
47.83996719747945
 20
2.703276277758324
 30
0.0
 10
47.89247235372395
 20
2.65397816068766
 30
0.0
  0
SPLINE
  5
DF
330
1F
100
AcDbEntity
  8
0
  6
Continuous
 62
     1
370
    15
100
AcDbSpline
210
0.0
220
0.0
230
1.0
 70
     8
 71
     3
 72
    14
 73
    10
 74
     0
 42
0.000000001
 43
0.00000001
 40
0.0
 40
0.0
 40
0.0
 40
0.0
 40
0.25
 40
0.25
 40
0.5
 40
0.5
 40
0.75
 40
0.75
 40
1.0
 40
1.0
 40
1.0
 40
1.0
 10
47.89247235373606
 20
2.653978160686699
 30
0.0
 10
47.88369234195658
 20
2.537320678732795
 30
0.0
 10
47.86607472453694
 20
2.423317577045229
 30
0.0
 10
47.80333071277615
 20
2.203573651665243
 30
0.0
 10
47.75721177838884
 20
2.096905317642309
 30
0.0
 10
47.62681223838243
 20
1.921232887461685
 30
0.0
 10
47.54274315933245
 20
1.855352961052662
 30
0.0
 10
47.35771805384636
 20
1.790862436030272
 30
0.0
 10
47.2577654901537
 20
1.791591577611942
 30
0.0
 10
47.16303196541936
 20
1.817441251554701
 30
0.0
  0
SPLINE
  5
E0
330
1F
100
AcDbEntity
  8
0
  6
Continuous
 62
     1
370
    15
100
AcDbSpline
210
0.0
220
0.0
230
1.0
 70
     8
 71
     3
 72
     9
 73
     5
 74
     0
 42
0.000000001
 43
0.00000001
 40
0.0
 40
0.0
 40
0.0
 40
0.0
 40
0.602828914198963
 40
1.0
 40
1.0
 40
1.0
 40
1.0
 10
48.09951407992553
 20
1.299868872292373
 30
0.0
 10
47.93093075800145
 20
1.400933550279799
 30
0.0
 10
47.65127708188658
 20
1.568584231272298
 30
0.0
 10
47.36786203137395
 20
1.712394674725397
 30
0.0
 10
47.2552977680295
 20
1.769512024701191
 30
0.0
  0
LINE
  5
E1
330
1F
100
AcDbEntity
  8
0
  6
Continuous
 62
     1
370
    15
100
AcDbLine
 10
48.09951407992553
 20
1.152760734368589
 30
0.0
 11
48.09951407992553
 21
1.299868872292373
 31
0.0
  0
SPLINE
  5
E2
330
1F
100
AcDbEntity
  8
0
  6
Continuous
 62
     1
370
    15
100
AcDbSpline
210
0.0
220
0.0
230
1.0
 70
     8
 71
     3
 72
    21
 73
    17
 74
     0
 42
0.000000001
 43
0.00000001
 40
0.0
 40
0.0
 40
0.0
 40
0.0
 40
0.0490865299194673
 40
0.1234310651447152
 40
0.1977976279203982
 40
0.2722318238044275
 40
0.3467341892795452
 40
0.4211543035023437
 40
0.4955141613410229
 40
0.569859453889366
 40
0.644236058256014
 40
0.7186894520072012
 40
0.793183753846765
 40
0.8675879934063744
 40
0.9419411931896247
 40
1.0
 40
1.0
 40
1.0
 40
1.0
 10
11.23800045668671
 20
2.888707899722975
 30
0.0
 10
11.41946838976263
 20
2.889194199057689
 30
0.0
 10
11.87578054517306
 20
2.890417028313727
 30
0.0
 10
12.60680437610479
 20
2.649320339355699
 30
0.0
 10
13.43167696946532
 20
2.212927094745106
 30
0.0
 10
14.25748654045891
 20
1.601635802631401
 30
0.0
 10
15.08416645740651
 20
0.867697458000367
 30
0.0
 10
15.90979177985658
 20
0.0567738041159686
 30
0.0
 10
16.73455143133123
 20
-0.7751573124198683
 30
0.0
 10
17.55905970146871
 20
-1.572566826414326
 30
0.0
 10
18.38407402376685
 20
-2.282219075217371
 30
0.0
 10
19.21013501508989
 20
-2.855675819810755
 30
0.0
 10
20.03671210078915
 20
-3.256373489056508
 30
0.0
 10
20.86212491414077
 20
-3.449701795737654
 30
0.0
 10
21.62655744511918
 20
-3.451989058506698
 30
0.0
 10
22.11598584847578
 20
-3.293998272218036
 30
0.0
 10
22.33058594290075
 20
-3.224723915798803
 30
0.0
  0
SPLINE
  5
E3
330
1F
100
AcDbEntity
  8
0
  6
Continuous
 62
     1
370
    15
100
AcDbSpline
210
0.0
220
0.0
230
1.0
 70
     8
 71
     3
 72
    21
 73
    17
 74
     0
 42
0.000000001
 43
0.00000001
 40
0.0
 40
0.0
 40
0.0
 40
0.0
 40
0.0364527582243974
 40
0.1108100991268799
 40
0.1852264853758921
 40
0.2597267641368821
 40
0.3341618427373461
 40
0.4085280839412906
 40
0.4828710768974021
 40
0.5572367075510722
 40
0.631670572836452
 40
0.706171145588091
 40
0.7805886239939548
 40
0.8549464520887207
 40
0.9292903263443884
 40
1.0
 40
1.0
 40
1.0
 40
1.0
 10
31.18696018165396
 20
2.885972958039209
 30
0.0
 10
31.32169836023364
 20
2.891291841059212
 30
0.0
 10
31.73127918900606
 20
2.907460328257429
 30
0.0
 10
32.41595496247328
 20
2.70363884503913
 30
0.0
 10
33.24155269757071
 20
2.300813817461477
 30
0.0
 10
34.06822462776558
 20
1.714710092908637
 30
0.0
 10
34.89406835839419
 20
0.9984456231094203
 30
0.0
 10
35.71895052356927
 20
0.1967974621173363
 30
0.0
 10
36.54344445882037
 20
-0.6353484419561447
 30
0.0
 10
37.3683174033815
 20
-1.442595278489991
 30
0.0
 10
38.19414499095691
 20
-2.170752318708447
 30
0.0
 10
39.02082164143555
 20
-2.76999672574912
 30
0.0
 10
39.8464302205895
 20
-3.202175943785556
 30
0.0
 10
40.67119008533759
 20
-3.432256820496252
 30
0.0
 10
41.48212050242321
 20
-3.465033544225185
 30
0.0
 10
42.01842283564676
 20
-3.311862696711143
 30
0.0
 10
42.27985568930006
 20
-3.237196059478004
 30
0.0
  0
SPLINE
  5
E4
330
1F
100
AcDbEntity
  8
0
  6
Continuous
 62
     1
370
    15
100
AcDbSpline
210
0.0
220
0.0
230
1.0
 70
     8
 71
     3
 72
    22
 73
    18
 74
     0
 42
0.000000001
 43
0.00000001
 40
0.0
 40
0.0
 40
0.0
 40
0.0
 40
0.0225701831995231
 40
0.0969287336495512
 40
0.1713549099210688
 40
0.2458492484390169
 40
0.3202613445664755
 40
0.3946131908018962
 40
0.4689504733162593
 40
0.5433190642753618
 40
0.6177644363456403
 40
0.6922507120968184
 40
0.7666469352714397
 40
0.8409921241687766
 40
0.9153320499468364
 40
0.9897125509933421
 40
1.0
 40
1.0
 40
1.0
 40
1.0
 10
12.35645503049308
 20
2.696113703792731
 30
0.0
 10
12.43988628785161
 20
2.730942237231209
 30
0.0
 10
12.79818582184578
 20
2.8805150435846
 30
0.0
 10
13.43167589465487
 20
2.939310984870944
 30
0.0
 10
14.25748682885926
 20
2.854437739060939
 30
0.0
 10
15.08416638022946
 20
2.545799611108844
 30
0.0
 10
15.90979180037157
 20
2.052087281768112
 30
0.0
 10
16.73455142634587
 20
1.401953798434678
 30
0.0
 10
17.55905970090748
 20
0.6403727347492549
 30
0.0
 10
18.38407403100554
 20
-0.182148825798763
 30
0.0
 10
19.21013498665738
 20
-1.009987558830765
 30
0.0
 10
20.03671220727741
 20
-1.787694592823654
 30
0.0
 10
20.86212451728053
 20
-2.461756326835616
 30
0.0
 10
21.68676667263329
 20
-2.99324798983758
 30
0.0
 10
22.51135737925174
 20
-3.320716009315345
 30
0.0
 10
23.0991691959902
 20
-3.462338427154452
 30
0.0
 10
23.41243355010254
 20
-3.428630297652909
 30
0.0
 10
23.45049625348098
 20
-3.42453464323894
 30
0.0
  0
SPLINE
  5
E5
330
1F
100
AcDbEntity
  8
0
  6
Continuous
 62
     1
370
    15
100
AcDbSpline
210
0.0
220
0.0
230
1.0
 70
     8
 71
     3
 72
    22
 73
    18
 74
     0
 42
0.000000001
 43
0.00000001
 40
0.0
 40
0.0
 40
0.0
 40
0.0
 40
0.0099872026366175
 40
0.0843926895401481
 40
0.1588820566683971
 40
0.2333062331856172
 40
0.3076615823885404
 40
0.3819936867486699
 40
0.4563484254907424
 40
0.5307713888705856
 40
0.6052610499464244
 40
0.679667628846845
 40
0.7540145661728099
 40
0.8283475517034162
 40
0.9027124534010836
 40
0.977154731991891
 40
1.0
 40
1.0
 40
1.0
 40
1.0
 10
32.30501154098764
 20
2.705682692249703
 30
0.0
 10
32.34193503024849
 20
2.72211334306872
 30
0.0
 10
32.65394157295191
 20
2.86095370347433
 30
0.0
 10
33.24156484180417
 20
2.931348562607753
 30
0.0
 10
34.06822137508099
 20
2.886601531768404
 30
0.0
 10
34.89406922935799
 20
2.611126770722466
 30
0.0
 10
35.71895028805645
 20
2.14766693020779
 30
0.0
 10
36.54344453057171
 20
1.521018589079435
 30
0.0
 10
37.36831735188466
 20
0.7748232161576452
 30
0.0
 10
38.19414512530271
 20
-0.0414080918759932
 30
0.0
 10
39.02082115538273
 20
-0.8719342336544205
 30
0.0
 10
39.84643202747731
 20
-1.662262906055404
 30
0.0
 10
40.67118334937146
 20
-2.357101806863764
 30
0.0
 10
41.49569539158421
 20
-2.915294140475704
 30
0.0
 10
42.32071448308736
 20
-3.279887285652834
 30
0.0
 10
42.95577771630098
 20
-3.448589089914095
 30
0.0
 10
43.31579464535376
 20
-3.420966171063756
 30
0.0
 10
43.40033458411463
 20
-3.414479698679948
 30
0.0
  0
SPLINE
  5
E6
330
1F
100
AcDbEntity
  8
0
  6
Continuous
 62
     1
370
    15
100
AcDbSpline
210
0.0
220
0.0
230
1.0
 70
     8
 71
     3
 72
    14
 73
    10
 74
     0
 42
0.000000001
 43
0.00000001
 40
0.0
 40
0.0
 40
0.0
 40
0.0
 40
0.25
 40
0.25
 40
0.5
 40
0.5
 40
0.75
 40
0.75
 40
1.0
 40
1.0
 40
1.0
 40
1.0
 10
48.09951407992552
 20
-1.641161317868895
 30
0.0
 10
48.09951407992552
 20
-1.699399199178965
 30
0.0
 10
48.09394419943983
 20
-1.757241814212104
 30
0.0
 10
48.05572130234533
 20
-1.851418928219245
 30
0.0
 10
48.02050254525258
 20
-1.882862075466985
 30
0.0
 10
47.93759768574959
 20
-1.895972311117411
 30
0.0
 10
47.89225861268641
 20
-1.882297206818294
 30
0.0
 10
47.80371703780041
 20
-1.836995526168397
 30
0.0
 10
47.76049422788876
 20
-1.805381114597534
 30
0.0
 10
47.71851407992553
 20
-1.768552676438143
 30
0.0
  0
SPLINE
  5
E7
330
1F
100
AcDbEntity
  8
0
  6
Continuous
 62
     1
370
    15
100
AcDbSpline
210
0.0
220
0.0
230
1.0
 70
     8
 71
     3
 72
    11
 73
     7
 74
     0
 42
0.000000001
 43
0.00000001
 40
0.0
 40
0.0
 40
0.0
 40
0.0
 40
0.202684235793978
 40
0.4066512536141944
 40
0.7564711648978767
 40
1.0
 40
1.0
 40
1.0
 40
1.0
 10
9.999514079925227
 20
-3.198586521830731
 30
0.0
 10
10.15830312807386
 20
-3.252970869620132
 30
0.0
 10
10.4768861951629
 20
-3.362083761991444
 30
0.0
 10
11.07265445447498
 20
-3.451604872443752
 30
0.0
 10
11.69880365680261
 20
-3.44529701736666
 30
0.0
 10
12.16508047765419
 20
-3.286030509358497
 30
0.0
 10
12.3564550304931
 20
-3.220662566134105
 30
0.0
  0
SPLINE
  5
E8
330
1F
100
AcDbEntity
  8
0
  6
Continuous
 62
     1
370
    15
100
AcDbSpline
210
0.0
220
0.0
230
1.0
 70
     8
 71
     3
 72
    21
 73
    17
 74
     0
 42
0.000000001
 43
0.00000001
 40
0.0
 40
0.0
 40
0.0
 40
0.0
 40
0.0427702818286
 40
0.1171186776094268
 40
0.1915076532816883
 40
0.2659825350393715
 40
0.3404602931541643
 40
0.4148509733053055
 40
0.4891998567874698
 40
0.5635527809797302
 40
0.6379555316455242
 40
0.7124485690721056
 40
0.7869050830117185
 40
0.8612836063788402
 40
0.9356295984334907
 40
1.0
 40
1.0
 40
1.0
 40
1.0
 10
21.21250500409036
 20
2.886568507643582
 30
0.0
 10
21.37060130656718
 20
2.889935450859126
 30
0.0
 10
21.80351942375956
 20
2.899155215614725
 30
0.0
 10
22.51132755268201
 20
2.677254821312353
 30
0.0
 10
23.3365206346607
 20
2.257454777162275
 30
0.0
 10
24.16284718969946
 20
1.658638348277303
 30
0.0
 10
24.98921157238533
 20
0.9333775043048425
 30
0.0
 10
25.8144242556792
 20
0.1268572506808825
 30
0.0
 10
26.63899113703494
 20
-0.705358500607621
 30
0.0
 10
27.46362960722385
 20
-1.507854190052303
 30
0.0
 10
28.28901250742926
 20
-2.227005693875489
 30
0.0
 10
29.11556901460918
 20
-2.813425936111759
 30
0.0
 10
29.94166256885148
 20
-3.229993947755117
 30
0.0
 10
30.76670332453968
 20
-3.441773887226248
 30
0.0
 10
31.55427992917201
 20
-3.458748191011359
 30
0.0
 10
32.06705960877765
 20
-3.30266220000753
 30
0.0
 10
32.30501154098766
 20
-3.230231554591077
 30
0.0
  0
SPLINE
  5
E9
330
1F
100
AcDbEntity
  8
0
  6
Continuous
 62
     1
370
    15
100
AcDbSpline
210
0.0
220
0.0
230
1.0
 70
     8
 71
     3
 72
    16
 73
    12
 74
     0
 42
0.000000001
 43
0.00000001
 40
0.0
 40
0.0
 40
0.0
 40
0.0
 40
0.0509868660909765
 40
0.1768059602583661
 40
0.3027559695534849
 40
0.4287715108836272
 40
0.554634471107122
 40
0.6804121171910589
 40
0.7867903128260358
 40
0.8934998246285276
 40
1.0
 40
1.0
 40
1.0
 40
1.0
 10
41.16138739807177
 20
2.88692454041204
 30
0.0
 10
41.27279076350926
 20
2.893287456053782
 30
0.0
 10
41.65910160220727
 20
2.915351989458788
 30
0.0
 10
42.32072253197064
 20
2.728421176872562
 30
0.0
 10
43.14679116471154
 20
2.343067325540737
 30
0.0
 10
43.97338424802806
 20
1.769689607884652
 30
0.0
 10
44.79868661651537
 20
1.063047617378292
 30
0.0
 10
45.58129264352663
 20
0.3072301846369914
 30
0.0
 10
46.3206319516193
 20
-0.4362196741794703
 30
0.0
 10
47.0202453792345
 20
-1.132200827231822
 30
0.0
 10
47.485910248164
 20
-1.556574281405633
 30
0.0
 10
47.71851407992546
 20
-1.768552676438087
 30
0.0
  0
SPLINE
  5
EA
330
1F
100
AcDbEntity
  8
0
  6
Continuous
 62
     1
370
    15
100
AcDbSpline
210
0.0
220
0.0
230
1.0
 70
    24
 71
     3
 72
    12
 73
     8
 74
     0
 42
0.000000001
 43
0.00000001
 40
0.0
 40
0.0
 40
0.0
 40
0.0
 40
0.0334024875221807
 40
0.2770439652169687
 40
0.5206854429117567
 40
0.7643269206065445
 40
1.0
 40
1.0
 40
1.0
 40
1.0
 10
9.999514079925524
 20
-1.731516204438457
 30
0.0
 10
9.999514079925524
 20
-1.732992353109467
 30
0.0
 10
9.999514079925524
 20
-1.74523569518975
 30
0.0
 10
9.999514079925524
 20
-1.891433011511302
 30
0.0
 10
9.999514079925525
 20
-2.223242346700934
 30
0.0
 10
9.999514079925524
 20
-2.679650872182267
 30
0.0
 10
9.999514079925524
 20
-3.02753578427939
 30
0.0
 10
9.999514079925524
 20
-3.198586521829504
 30
0.0
  0
SPLINE
  5
EB
330
1F
100
AcDbEntity
  8
0
  6
Continuous
 62
     1
370
    15
100
AcDbSpline
210
0.0
220
0.0
230
1.0
 70
     8
 71
     3
 72
    13
 73
     9
 74
     0
 42
0.000000001
 43
0.00000001
 40
0.0
 40
0.0
 40
0.0
 40
0.0
 40
0.1374244459966695
 40
0.2757186469034792
 40
0.5129043723664132
 40
0.7500140027268893
 40
0.9871938863255567
 40
1.0
 40
1.0
 40
1.0
 40
1.0
 10
9.999514079923859
 20
-1.715097301906619
 30
0.0
 10
10.15830317978068
 20
-1.853821265827158
 30
0.0
 10
10.47688635061337
 20
-2.132147173185626
 30
0.0
 10
11.07265364132268
 20
-2.582929172991107
 30
0.0
 10
11.78219374905573
 20
-3.030912930188451
 30
0.0
 10
12.60687686766721
 20
-3.338350765765878
 30
0.0
 10
13.17129522364364
 20
-3.468788205375638
 30
0.0
 10
13.46118586589315
 20
-3.433624372402932
 30
0.0
 10
13.47603618774437
 20
-3.431823023338625
 30
0.0
  0
SPLINE
  5
EC
330
1F
100
AcDbEntity
  8
0
  6
Continuous
 62
     1
370
    15
100
AcDbSpline
210
0.0
220
0.0
230
1.0
 70
     8
 71
     3
 72
    22
 73
    18
 74
     0
 42
0.000000001
 43
0.00000001
 40
0.0
 40
0.0
 40
0.0
 40
0.0
 40
0.0162868248503013
 40
0.090664816784734
 40
0.1651287021203176
 40
0.2395954633883081
 40
0.3139751595499494
 40
0.3883130652140078
 40
0.46265501099154
 40
0.5370467758855891
 40
0.6115288142093361
 40
0.6859743344389079
 40
0.760341875611513
 40
0.8346768902749845
 40
0.9090252459828853
 40
0.983432639902392
 40
1.0
 40
1.0
 40
1.0
 40
1.0
 10
22.33058594290077
 20
2.700175053457431
 30
0.0
 10
22.39079376130139
 20
2.726171763082587
 30
0.0
 10
22.72595613177409
 20
2.870889161153396
 30
0.0
 10
23.33652474904206
 20
2.93621102283321
 30
0.0
 10
24.16284608655135
 20
2.87124810650662
 30
0.0
 10
24.98921186787211
 20
2.579165081428067
 30
0.0
 10
25.81442417557341
 20
2.100430144324827
 30
0.0
 10
26.63899116229674
 20
1.461901783994363
 30
0.0
 10
27.46362958625614
 20
0.7078619287633624
 30
0.0
 10
28.2890125660957
 20
-0.1118019919235426
 30
0.0
 10
29.11556880070071
 20
-0.9410785366845635
 30
0.0
 10
29.94166336493387
 20
-1.725353547634447
 30
0.0
 10
30.76670035787082
 20
-2.409965277276929
 30
0.0
 10
31.59120905386376
 20
-2.954883164663037
 30
0.0
 10
32.41596821319779
 20
-3.30114970457087
 30
0.0
 10
33.02731229396365
 20
-3.455624341518264
 30
0.0
 10
33.36398861585297
 20
-3.424427309810642
 30
0.0
 10
33.42530054707326
 20
-3.418746036320422
 30
0.0
  0
SPLINE
  5
ED
330
1F
100
AcDbEntity
  8
0
  6
Continuous
 62
     1
370
    15
100
AcDbSpline
210
0.0
220
0.0
230
1.0
 70
     8
 71
     3
 72
    15
 73
    11
 74
     0
 42
0.000000001
 43
0.00000001
 40
0.0
 40
0.0
 40
0.0
 40
0.0
 40
0.007477559838186
 40
0.1593350861672517
 40
0.3112716242628864
 40
0.4630241958026675
 40
0.6146739043552452
 40
0.7429337570927299
 40
0.871593076681495
 40
1.0
 40
1.0
 40
1.0
 40
1.0
 10
42.27985568930009
 20
2.712647197136635
 30
0.0
 10
42.29340939118217
 20
2.718838801745602
 30
0.0
 10
42.58221754571399
 20
2.850772196493623
 30
0.0
 10
43.14681874602663
 20
2.924658360160401
 30
0.0
 10
43.97337686287111
 20
2.900494761870869
 30
0.0
 10
44.79868860379913
 20
2.641661696193097
 30
0.0
 10
45.58129220198581
 20
2.216967852658065
 30
0.0
 10
46.32063206133537
 20
1.675939322940939
 30
0.0
 10
47.02024535183277
 20
1.076664279701246
 30
0.0
 10
47.48591023903606
 20
0.62718526508786
 30
0.0
 10
47.71851407992546
 20
0.4026664145767964
 30
0.0
  0
SPLINE
  5
EE
330
1F
100
AcDbEntity
  8
0
  6
Continuous
 62
     1
370
    15
100
AcDbSpline
210
0.0
220
0.0
230
1.0
 70
     8
 71
     3
 72
     8
 73
     4
 74
     0
 42
0.000000001
 43
0.00000001
 40
0.0
 40
0.0
 40
0.0
 40
0.0
 40
1.0
 40
1.0
 40
1.0
 40
1.0
 10
47.71851407992553
 20
0.4026664145743683
 30
0.0
 10
47.78178045565554
 20
0.3410150992799522
 30
0.0
 10
47.83996719748784
 20
0.2738136364887365
 30
0.0
 10
47.89247235373536
 20
0.2042768724962935
 30
0.0
  0
SPLINE
  5
EF
330
1F
100
AcDbEntity
  8
0
  6
Continuous
 62
     1
370
    15
100
AcDbSpline
210
0.0
220
0.0
230
1.0
 70
     8
 71
     3
 72
    14
 73
    10
 74
     0
 42
0.000000001
 43
0.00000001
 40
0.0
 40
0.0
 40
0.0
 40
0.0
 40
0.25
 40
0.25
 40
0.5
 40
0.5
 40
0.75
 40
0.75
 40
1.0
 40
1.0
 40
1.0
 40
1.0
 10
47.89247235373532
 20
0.204276872496309
 30
0.0
 10
47.88369234195539
 20
0.1406239541859395
 30
0.0
 10
47.86607472453537
 20
0.0729391239010684
 30
0.0
 10
47.8033307127738
 20
-0.0749806516647391
 30
0.0
 10
47.75721177838621
 20
-0.1562812259293258
 30
0.0
 10
47.62681223837957
 20
-0.3231913981675396
 30
0.0
 10
47.54274315932995
 20
-0.4071106420805213
 30
0.0
 10
47.35771805384496
 20
-0.5515546689568026
 30
0.0
 10
47.25776549015302
 20
-0.6118010845075177
 30
0.0
 10
47.16303196541934
 20
-0.6563224216176967
 30
0.0
  0
SPLINE
  5
F0
330
1F
100
AcDbEntity
  8
0
  6
Continuous
 62
     1
370
    15
100
AcDbSpline
210
0.0
220
0.0
230
1.0
 70
     8
 71
     3
 72
     8
 73
     4
 74
     0
 42
0.000000001
 43
0.00000001
 40
0.0
 40
0.0
 40
0.0
 40
0.0
 40
1.0
 40
1.0
 40
1.0
 40
1.0
 10
48.09951407992553
 20
-1.294508002096777
 30
0.0
 10
47.79029947472936
 20
-1.085980919889058
 30
0.0
 10
47.47772701405422
 20
-0.8726651863933349
 30
0.0
 10
47.16303196541931
 20
-0.656322421617937
 30
0.0
  0
LINE
  5
F1
330
1F
100
AcDbEntity
  8
0
  6
Continuous
 62
     1
370
    15
100
AcDbLine
 10
48.09951407992553
 20
-1.641161317868905
 30
0.0
 11
48.09951407992553
 21
-1.294508002096776
 31
0.0
  0
SPLINE
  5
F3
330
1F
100
AcDbEntity
  8
0
  6
Continuous
 62
     1
370
    15
100
AcDbSpline
210
0.0
220
0.0
230
1.0
 70
     8
 71
     3
 72
    19
 73
    15
 74
     0
 42
0.000000001
 43
0.00000001
 40
0.0
 40
0.0
 40
0.0
 40
0.0
 40
0.0530641262242617
 40
0.1064640936011017
 40
0.1980493511096626
 40
0.2896052257810388
 40
0.3811882275524883
 40
0.4728545200240898
 40
0.5646047638785223
 40
0.6562537146745469
 40
0.7478284592638089
 40
0.8393852665844804
 40
0.9309806346534811
 40
1.0
 40
1.0
 40
1.0
 40
1.0
 10
9.999514079925227
 20
2.251836789911482
 30
0.0
 10
10.15830326830114
 20
2.148824368647392
 30
0.0
 10
10.47688661673224
 20
1.942147563809666
 30
0.0
 10
11.07265224928073
 20
1.479494955800055
 30
0.0
 10
11.78220327331841
 20
0.8455745694736019
 30
0.0
 10
12.60684193240732
 20
0.0335039504195725
 30
0.0
 10
13.43166688347269
 20
-0.7982284883486659
 30
0.0
 10
14.25748929039726
 20
-1.594200033931491
 30
0.0
 10
15.0841655586978
 20
-2.300361536201361
 30
0.0
 10
15.90979262562055
 20
-2.869457658601422
 30
0.0
 10
16.73454894805847
 20
-3.264888627339415
 30
0.0
 10
17.55906878943514
 20
-3.451959118873206
 30
0.0
 10
18.31599170933483
 20
-3.449659503982223
 30
0.0
 10
18.79845390120726
 20
-3.291254741006189
 30
0.0
 10
19.00577756061638
 20
-3.223185044185865
 30
0.0
  0
SPLINE
  5
F4
330
1F
100
AcDbEntity
  8
0
  6
Continuous
 62
     1
370
    15
100
AcDbSpline
210
0.0
220
0.0
230
1.0
 70
     8
 71
     3
 72
    21
 73
    17
 74
     0
 42
0.000000001
 43
0.00000001
 40
0.0
 40
0.0
 40
0.0
 40
0.0
 40
0.0385418109627284
 40
0.1130265220087137
 40
0.1874747136501046
 40
0.2618449234363184
 40
0.336182605546214
 40
0.4105336291792706
 40
0.4849436931424674
 40
0.5594376424902813
 40
0.6338663972168606
 40
0.708226320395225
 40
0.7825629973008867
 40
0.8569223099808482
 40
0.9313498514954243
 40
1.0
 40
1.0
 40
1.0
 40
1.0
 10
27.86122860385884
 20
2.885977678544916
 30
0.0
 10
28.00373883713969
 20
2.890756910008991
 30
0.0
 10
28.4216599367466
 20
2.904772336289331
 30
0.0
 10
29.11558444554035
 20
2.69500025895435
 30
0.0
 10
29.94165939248242
 20
2.286541417269231
 30
0.0
 10
30.76670062421409
 20
1.695977886538443
 30
0.0
 10
31.59121195611078
 20
0.976875035249188
 30
0.0
 10
32.41595633102703
 20
0.1736924077545122
 30
0.0
 10
33.24155234122339
 20
-0.6588925476051489
 30
0.0
 10
34.06822468229612
 20
-1.464381743040674
 30
0.0
 10
34.89406849624313
 20
-2.189569110158696
 30
0.0
 10
35.71894991840853
 20
-2.784700854927684
 30
0.0
 10
36.54344674135417
 20
-3.211526691622649
 30
0.0
 10
37.36830887198548
 20
-3.435602529576663
 30
0.0
 10
38.17256084655159
 20
-3.463040927437837
 30
0.0
 10
38.70206075917221
 20
-3.30869173031296
 30
0.0
 10
38.95612026788878
 20
-3.234633396670821
 30
0.0
  0
SPLINE
  5
F5
330
1F
100
AcDbEntity
  8
0
  6
Continuous
 62
     1
370
    15
100
AcDbSpline
210
0.0
220
0.0
230
1.0
 70
    24
 71
     3
 72
    14
 73
    10
 74
     0
 42
0.000000001
 43
0.00000001
 40
0.0
 40
0.0
 40
0.0
 40
0.0
 40
0.1747146047749605
 40
0.3303070921243076
 40
0.490411772147369
 40
0.6460042594967166
 40
0.8061089395197778
 40
0.9617014268691482
 40
1.0
 40
1.0
 40
1.0
 40
1.0
 10
9.999514079925524
 20
2.909019011523823
 30
0.0
 10
9.999514079925524
 20
2.825035760383821
 30
0.0
 10
9.999514079925524
 20
2.666261034556348
 30
0.0
 10
9.999514079925524
 20
2.468525661291348
 30
0.0
 10
9.999514079925524
 20
2.311148928301382
 30
0.0
 10
9.999514079925524
 20
2.190698055039423
 30
0.0
 10
9.999514079925525
 20
2.116911523503446
 30
0.0
 10
9.999514079925525
 20
2.084267222471476
 30
0.0
 10
9.999514079925524
 20
2.090970018334589
 30
0.0
 10
9.999514079925524
 20
2.092293996432953
 30
0.0
  0
SPLINE
  5
F6
330
1F
100
AcDbEntity
  8
0
  6
Continuous
 62
     1
370
    15
100
AcDbSpline
210
0.0
220
0.0
230
1.0
 70
     8
 71
     3
 72
    21
 73
    17
 74
     0
 42
0.000000001
 43
0.00000001
 40
0.0
 40
0.0
 40
0.0
 40
0.0
 40
0.0471925111197753
 40
0.0946837021284932
 40
0.1761349308759081
 40
0.2575600280355779
 40
0.3390092506461489
 40
0.4205325477317519
 40
0.5021305068696618
 40
0.5836383811588155
 40
0.6650802602552287
 40
0.746506186865327
 40
0.8279664074264198
 40
0.9095107307810532
 40
0.991099858304017
 40
1.0
 40
1.0
 40
1.0
 40
1.0
 10
9.999514079923859
 20
2.90901901151712
 30
0.0
 10
10.15830326831105
 20
2.909723618513633
 30
0.0
 10
10.47688661676479
 20
2.91113729194174
 30
0.0
 10
11.07265224910667
 20
2.801346013615376
 30
0.0
 10
11.78220327450776
 20
2.535346725097456
 30
0.0
 10
12.60684192804476
 20
2.035520577043957
 30
0.0
 10
13.43166689974563
 20
1.382005683630589
 30
0.0
 10
14.25748922958674
 20
0.6175657863190043
 30
0.0
 10
15.08416578576265
 20
-0.205541933072993
 30
0.0
 10
15.90979177956207
 20
-1.032844877548169
 30
0.0
 10
16.73455210259311
 20
-1.808475915513537
 30
0.0
 10
17.55905701667678
 20
-2.478617559778797
 30
0.0
 10
18.3840841009003
 20
-3.00576409114809
 30
0.0
 10
19.21009734231135
 20
-3.326877954931077
 30
0.0
 10
19.79151916437635
 20
-3.464622608683317
 30
0.0
 10
20.09700970293048
 20
-3.430258134218081
 30
0.0
 10
20.12705645989273
 20
-3.426878189892212
 30
0.0
  0
SPLINE
  5
F7
330
1F
100
AcDbEntity
  8
0
  6
Continuous
 62
     1
370
    15
100
AcDbSpline
210
0.0
220
0.0
230
1.0
 70
     8
 71
     3
 72
    22
 73
    18
 74
     0
 42
0.000000001
 43
0.00000001
 40
0.0
 40
0.0
 40
0.0
 40
0.0
 40
0.0121427097251594
 40
0.0865867359208021
 40
0.1609527846244259
 40
0.2352863074716849
 40
0.3096331710956343
 40
0.384039071746362
 40
0.4585288530882418
 40
0.5329534434565867
 40
0.6073092061279058
 40
0.6816417238271738
 40
0.7559968760342478
 40
0.8304202532584698
 40
0.9049103285495738
 40
0.9793173212032638
 40
1.0
 40
1.0
 40
1.0
 40
1.0
 10
28.98084191988651
 20
2.703631932797187
 30
0.0
 10
29.02577567608271
 20
2.723399229594605
 30
0.0
 10
29.34618745975802
 20
2.864355057939884
 30
0.0
 10
29.94166724368233
 20
2.933194497881802
 30
0.0
 10
30.76669852265673
 20
2.881577821688996
 30
0.0
 10
31.59121251849501
 20
2.600633245148483
 30
0.0
 10
32.41595618288001
 20
2.132186178303677
 30
0.0
 10
33.24155237095805
 20
1.501270716485287
 30
0.0
 10
34.06822471178526
 20
0.7525911614879508
 30
0.0
 10
34.89406834878745
 20
-0.0648158509426907
 30
0.0
 10
35.71895047814731
 20
-0.8951913377453835
 30
0.0
 10
36.54344465007678
 20
-1.683230464775936
 30
0.0
 10
37.36831668323498
 20
-2.374755295791467
 30
0.0
 10
38.19414768388766
 20
-2.928767159719991
 30
0.0
 10
39.02081158589042
 20
-3.287106817154394
 30
0.0
 10
39.64799211525835
 20
-3.451009165592292
 30
0.0
 10
39.99954097956547
 20
-3.422083825041256
 30
0.0
 10
40.07600535399137
 20
-3.415792358065105
 30
0.0
  0
SPLINE
  5
F9
330
1F
100
AcDbEntity
  8
0
  6
Continuous
 62
     1
370
    15
100
AcDbSpline
210
0.0
220
0.0
230
1.0
 70
     8
 71
     3
 72
    21
 73
    17
 74
     0
 42
0.000000001
 43
0.00000001
 40
0.0
 40
0.0
 40
0.0
 40
0.0
 40
0.0448345979074495
 40
0.1192825974097596
 40
0.1937715020365999
 40
0.2681703509086197
 40
0.342518163702181
 40
0.4168607131907115
 40
0.491243839379728
 40
0.5657128648990497
 40
0.640184766549302
 40
0.7145695970831689
 40
0.788912634234687
 40
0.8632597117785652
 40
0.937656611877935
 40
1.0
 40
1.0
 40
1.0
 40
1.0
 10
17.88658149804248
 20
2.887089133117392
 30
0.0
 10
18.05233143151132
 20
2.889615780922682
 30
0.0
 10
18.49330968284909
 20
2.896337935843682
 30
0.0
 10
19.21014328386426
 20
2.66804067978301
 30
0.0
 10
20.03671045165999
 20
2.242816049984038
 30
0.0
 10
20.86212325407802
 20
1.639682668588183
 30
0.0
 10
21.68677347381979
 20
0.9114443190090427
 30
0.0
 10
22.51133143194499
 20
0.1037242568590406
 30
0.0
 10
23.3365195955764
 20
-0.7286895890711234
 30
0.0
 10
24.16284746103337
 20
-1.529600472799856
 30
0.0
 10
24.9892115268064
 20
-2.245426788446191
 30
0.0
 10
25.81442416715602
 20
-2.827714468229741
 30
0.0
 10
26.63899153644031
 20
-3.238915093570443
 30
0.0
 10
27.46362809751768
 20
-3.444574641773075
 30
0.0
 10
28.24411687308475
 20
-3.456584762322264
 30
0.0
 10
28.75013523224849
 20
-3.299705881656374
 30
0.0
 10
28.98084191988652
 20
-3.228180795138563
 30
0.0
  0
SPLINE
  5
FA
330
1F
100
AcDbEntity
  8
0
  6
Continuous
 62
     1
370
    15
100
AcDbSpline
210
0.0
220
0.0
230
1.0
 70
     8
 71
     3
 72
    20
 73
    16
 74
     0
 42
0.000000001
 43
0.00000001
 40
0.0
 40
0.0
 40
0.0
 40
0.0
 40
0.0362115135016782
 40
0.1198380498885544
 40
0.2033713132699508
 40
0.2868376194625998
 40
0.3702882625376379
 40
0.4537747366054274
 40
0.537348078588525
 40
0.6209649039441486
 40
0.7044804850594791
 40
0.7879394565103788
 40
0.8585260437849803
 40
0.9293324738331332
 40
0.9794371145445058
 40
0.9794371145445058
 40
0.9794371145445058
 40
0.9794371145445058
 10
37.83606886167399
 20
2.886407957148267
 30
0.0
 10
37.95537050384893
 20
2.892529099427056
 30
0.0
 10
38.35018626171787
 20
2.912786351412575
 30
0.0
 10
39.02084036681907
 20
2.720367801276053
 30
0.0
 10
39.84642677686706
 20
2.329103362857521
 30
0.0
 10
40.67118516529417
 20
1.751342153511204
 30
0.0
 10
41.49569337535839
 20
1.041706799196999
 30
0.0
 10
42.32072073739615
 20
0.2433714407477958
 30
0.0
 10
43.14679164609026
 20
-0.588741275946245
 30
0.0
 10
43.97338411913437
 20
-1.398767576439111
 30
0.0
 10
44.7986866511996
 20
-2.132507311484562
 30
0.0
 10
45.58129263582036
 20
-2.70995594410942
 30
0.0
 10
46.3206319535342
 20
-3.115580139926846
 30
0.0
 10
46.95240592833688
 20
-3.346077367603564
 30
0.0
 10
47.3505210942184
 20
-3.398933884075992
 30
0.0
 10
47.51545780271773
 20
-3.416206298159058
 30
0.0
  0
LINE
  5
FB
330
1F
100
AcDbEntity
  8
0
  6
Continuous
 62
     1
370
    15
100
AcDbLine
 10
9.999514079923859
 20
-3.433567873858494
 30
0.0
 11
10.15238888830726
 21
-3.429431856197622
 31
0.0
  0
SPLINE
  5
FC
330
1F
100
AcDbEntity
  8
0
  6
Continuous
 62
     1
370
    15
100
AcDbSpline
210
0.0
220
0.0
230
1.0
 70
     8
 71
     3
 72
    22
 73
    18
 74
     0
 42
0.000000001
 43
0.00000001
 40
0.0
 40
0.0
 40
0.0
 40
0.0
 40
0.0184053171672162
 40
0.0928855621146729
 40
0.1672757617767067
 40
0.2416149312934617
 40
0.3159488381170698
 40
0.3903233169239349
 40
0.4647836850749111
 40
0.5392469290224541
 40
0.6136231119760314
 40
0.6879575064059341
 40
0.7622959407584824
 40
0.8366841918744199
 40
0.9111627121561316
 40
0.9856047160685429
 40
1.0
 40
1.0
 40
1.0
 40
1.0
 10
19.0057775606164
 20
2.698636181844493
 30
0.0
 10
19.07386614400221
 20
2.727681474876809
 30
0.0
 10
19.41748675558543
 20
2.87426348406367
 30
0.0
 10
20.0367351654054
 20
2.93743762148598
 30
0.0
 10
20.86211664048448
 20
2.865777062476753
 30
0.0
 10
21.68677524523722
 20
2.56812155864011
 30
0.0
 10
22.51133095703511
 20
2.084581340570277
 30
0.0
 10
23.33651972303627
 20
1.441998958705959
 30
0.0
 10
24.16284742680517
 20
0.6853142327011772
 30
0.0
 10
24.98921153617479
 20
-0.1351304679543237
 30
0.0
 10
25.81442416387136
 20
-0.9642098199257667
 30
0.0
 10
26.63899154021929
 20
-1.746206583565869
 30
0.0
 10
27.46362808568108
 20
-2.427197055241611
 30
0.0
 10
28.28901819742543
 20
-2.967914294107614
 30
0.0
 10
29.11554775427426
 20
-3.307844181718921
 30
0.0
 10
29.71984640294002
 20
-3.457970388870629
 30
0.0
 10
30.04832688973867
 20
-3.425795833956043
 30
0.0
 10
30.10155419989384
 20
-3.420582236551113
 30
0.0
  0
SPLINE
  5
FD
330
1F
100
AcDbEntity
  8
0
  6
Continuous
 62
     1
370
    15
100
AcDbSpline
210
0.0
220
0.0
230
1.0
 70
     8
 71
     3
 72
    19
 73
    15
 74
     0
 42
0.000000001
 43
0.00000001
 40
0.0
 40
0.0
 40
0.0
 40
0.0
 40
0.0073986235880443
 40
0.1016031415157393
 40
0.1957321485698923
 40
0.2898434915656326
 40
0.3839952429120392
 40
0.4782449594252996
 40
0.5725437142495371
 40
0.666728291027047
 40
0.7608490263367155
 40
0.840452948860452
 40
0.9203047987566388
 40
1.0
 40
1.0
 40
1.0
 40
1.0
 10
38.95612026788881
 20
2.710084534329453
 30
0.0
 10
38.97774655019803
 20
2.719864372500463
 30
0.0
 10
39.27473398249217
 20
2.854168039914472
 30
0.0
 10
39.84641327459178
 20
2.927150349931142
 30
0.0
 10
40.67118878117515
 20
2.895938993418856
 30
0.0
 10
41.49569240613418
 20
2.631746947150079
 30
0.0
 10
42.32072099744381
 20
2.178585415980166
 30
0.0
 10
43.14679157633478
 20
1.559824494728115
 30
0.0
 10
43.97338413781205
 20
0.8192126432045381
 30
0.0
 10
44.79868664617359
 20
0.0056076444270335
 30
0.0
 10
45.58129263693715
 20
-0.7835615459568767
 30
0.0
 10
46.32063195325699
 20
-1.497137989706703
 30
0.0
 10
47.02024537882608
 20
-2.116921070685449
 30
0.0
 10
47.4859102480285
 20
-2.451388328184875
 30
0.0
 10
47.71851407992629
 20
-2.618457761341728
 30
0.0
  0
SPLINE
  5
FE
330
1F
100
AcDbEntity
  8
0
  6
Continuous
 62
     1
370
    15
100
AcDbSpline
210
0.0
220
0.0
230
1.0
 70
     8
 71
     3
 72
     8
 73
     4
 74
     0
 42
0.000000001
 43
0.00000001
 40
0.0
 40
0.0
 40
0.0
 40
0.0
 40
1.0
 40
1.0
 40
1.0
 40
1.0
 10
47.71851407992553
 20
-2.618457761339803
 30
0.0
 10
47.78178045565095
 20
-2.660718829090245
 30
0.0
 10
47.83996719747907
 20
-2.691737072430548
 30
0.0
 10
47.89247235372393
 20
-2.711975719346915
 30
0.0
  0
SPLINE
  5
FF
330
1F
100
AcDbEntity
  8
0
  6
Continuous
 62
     1
370
    15
100
AcDbSpline
210
0.0
220
0.0
230
1.0
 70
     8
 71
     3
 72
    11
 73
     7
 74
     0
 42
0.000000001
 43
0.00000001
 40
0.0
 40
0.0
 40
0.0
 40
0.0
 40
0.1990724098263698
 40
0.5860862820798394
 40
0.9686407150539273
 40
1.0
 40
1.0
 40
1.0
 40
1.0
 10
47.59384540212034
 20
-2.525427119846471
 30
0.0
 10
47.57015601164188
 20
-2.528194859808791
 30
0.0
 10
47.50041241029417
 20
-2.536343324107262
 30
0.0
 10
47.35031614901285
 20
-2.609690480554835
 30
0.0
 10
47.22888899845299
 20
-2.687383201544532
 30
0.0
 10
47.16767008507022
 20
-2.732611480786165
 30
0.0
 10
47.16303196541934
 20
-2.736038104343089
 30
0.0
  0
SPLINE
  5
100
330
1F
100
AcDbEntity
  8
0
  6
Continuous
 62
     1
370
    15
100
AcDbSpline
210
0.0
220
0.0
230
1.0
 70
     8
 71
     3
 72
     8
 73
     4
 74
     0
 42
0.000000001
 43
0.00000001
 40
0.0232794411619338
 40
0.0232794411619338
 40
0.0232794411619338
 40
0.0232794411619338
 40
1.0
 40
1.0
 40
1.0
 40
1.0
 10
48.07791360669346
 20
-2.855420318611542
 30
0.0
 10
47.77574530001596
 20
-2.837606817551472
 30
0.0
 10
47.47040108918557
 20
-2.794792537779593
 30
0.0
 10
47.16303196541931
 20
-2.736038104343285
 30
0.0
  0
LINE
  5
102
330
1F
100
AcDbEntity
  8
0
  6
Continuous
 62
     1
370
    15
100
AcDbLine
 10
48.09951407992553
 20
-1.128299834955126
 30
0.0
 11
48.09951407992553
 21
0.1761575234893678
 31
0.0
  0
LINE
  5
103
330
1F
100
AcDbEntity
  8
0
  6
Continuous
 62
     1
370
    15
100
AcDbLine
 10
47.16303196541928
 20
-0.6563224216178838
 30
0.0
 11
48.09951407992553
 21
-1.128299834955126
 31
0.0
  0
SPLINE
  5
104
330
1F
100
AcDbEntity
  8
0
  6
Continuous
 62
     1
370
    15
100
AcDbSpline
210
0.0
220
0.0
230
1.0
 70
     8
 71
     3
 72
    10
 73
     6
 74
     0
 42
0.000000001
 43
0.00000001
 40
0.0
 40
0.0
 40
0.0
 40
0.0
 40
0.5
 40
0.5
 40
1.0
 40
1.0
 40
1.0
 40
1.0
 10
48.09951407992553
 20
0.1761575234893658
 30
0.0
 10
48.09951407992553
 20
0.2119762767761272
 30
0.0
 10
48.0800193653427
 20
0.2365325013450505
 30
0.0
 10
48.00464486962372
 20
0.2458768673093509
 30
0.0
 10
47.94988428386085
 20
0.2311563408125595
 30
0.0
 10
47.8924723537266
 20
0.2042768724922672
 30
0.0
  0
LINE
  5
105
330
1F
100
AcDbEntity
  8
0
  6
Continuous
 62
     1
370
    15
100
AcDbLine
 10
9.999514079925524
 20
1.456196140786267
 30
0.0
 11
9.999514079925524
 21
2.251836789910706
 31
0.0
  0
LINE
  5
108
330
1F
100
AcDbEntity
  8
0
  6
Continuous
 62
     1
370
    15
100
AcDbLine
 10
9.999514079925524
 20
-1.715097301908249
 30
0.0
 11
9.999514079925524
 21
-0.6844753007480853
 31
0.0
  0
LINE
  5
109
330
1F
100
AcDbEntity
  8
0
  6
Continuous
 62
     1
370
    15
100
AcDbLine
 10
48.09951407992553
 20
0.1761575234893678
 30
0.0
 11
48.09951407992553
 21
1.152760734368589
 31
0.0
  0
LINE
  5
10A
330
1F
100
AcDbEntity
  8
0
  6
Continuous
 62
     1
370
    15
100
AcDbLine
 10
48.09951407992553
 20
-2.43275719339963
 30
0.0
 11
48.09951407992553
 21
-1.641161317868905
 31
0.0
  0
SPLINE
  5
10B
330
1F
100
AcDbEntity
  8
0
  6
Continuous
 62
     1
370
    15
100
AcDbSpline
210
0.0
220
0.0
230
1.0
 70
     8
 71
     3
 72
    10
 73
     6
 74
     0
 42
0.000000001
 43
0.00000001
 40
0.0
 40
0.0
 40
0.0
 40
0.0
 40
0.5
 40
0.5
 40
1.0
 40
1.0
 40
1.0
 40
1.0
 10
48.09951407992553
 20
-2.432757193399632
 30
0.0
 10
48.09951407992552
 20
-2.468575946686826
 30
0.0
 10
48.08001936534219
 20
-2.516775264253251
 30
0.0
 10
48.00464486962153
 20
-2.61753344416793
 30
0.0
 10
47.94988428385756
 20
-2.669226284035471
 30
0.0
 10
47.89247235372245
 20
-2.711975719360934
 30
0.0
  0
LINE
  5
10C
330
1F
100
AcDbEntity
  8
0
  6
Continuous
 62
     1
370
    15
100
AcDbLine
 10
48.09951407992553
 20
-1.128299834955126
 30
0.0
 11
48.09951407992553
 21
-1.294508002096777
 31
0.0
  0
SPLINE
  5
10D
330
1F
100
AcDbEntity
  8
0
  6
Continuous
 62
     1
370
    15
100
AcDbSpline
210
0.0
220
0.0
230
1.0
 70
     8
 71
     3
 72
     8
 73
     4
 74
     0
 42
0.000000001
 43
0.00000001
 40
0.9293502800086407
 40
0.9293502800086407
 40
0.9293502800086407
 40
0.9293502800086407
 40
1.0
 40
1.0
 40
1.0
 40
1.0
 10
47.91660968180705
 20
2.645995478960637
 30
0.0
 10
47.90864396538339
 20
2.649072006211069
 30
0.0
 10
47.90058462730743
 20
2.651735743227663
 30
0.0
 10
47.89247235373127
 20
2.653978160678135
 30
0.0
  0
LINE
  5
10E
330
1F
100
AcDbEntity
  8
0
  6
Continuous
 62
     1
370
    15
100
AcDbLine
 10
48.09951407992553
 20
1.299868872292373
 30
0.0
 11
48.09951407992553
 21
2.150725568829313
 31
0.0
  0
LINE
  5
110
330
1F
100
AcDbEntity
  8
0
  6
Continuous
 62
     1
370
    15
100
AcDbLine
 10
48.09951407992553
 20
-2.43275719339963
 30
0.0
 11
48.09951407992553
 21
-2.6752744311707
 31
0.0
  0
LINE
  5
113
330
1F
100
AcDbEntity
  8
0
  6
Continuous
 62
     8
370
    15
100
AcDbLine
 10
47.71851407992553
 20
-3.437274431170688
 30
0.0
 11
47.71851407992553
 21
-3.43591208424716
 31
0.0
  0
LINE
  5
114
330
1F
100
AcDbEntity
  8
중심선
100
AcDbLine
 10
-56.50048592007447
 20
-0.2622744311706934
 30
0.0
 11
51.09951407992553
 21
-0.2622744311706934
 31
0.0
  0
CIRCLE
  5
115
330
1F
100
AcDbEntity
  8
외형선
100
AcDbCircle
 10
-0.0004859200744764
 20
-0.2622744311706934
 30
0.0
 40
3.000000000000001
  0
INSERT
  5
116
330
1F
100
AcDbEntity
  8
0
  6
Continuous
 62
     7
100
AcDbBlockReference
 66
     1
  2
블럭10
 10
-16.62984641916796
 20
-52.04907070757051
 30
0.0
  0
ATTRIB
  5
117
330
116
100
AcDbEntity
  8
FORMAT
 62
     2
100
AcDbText
 10
-27.68086677135242
 20
-49.97370379473831
 30
0.0
 40
4.233333333333333
  1
GMG22904[ 6 FLUTE ]
 41
0.75
  7
SLDTEXTSTYLE0
 11
-27.68086677135242
 21
-52.09037046140498
 31
0.0
100
AcDbAttribute
  2
AUTOATTR0
 70
     0
 74
     1
  0
SEQEND
  5
118
330
116
100
AcDbEntity
  8
0
  6
Continuous
 62
     7
  0
HATCH
  5
119
330
1F
100
AcDbEntity
  8
중심선
100
AcDbHatch
 10
0.0
 20
0.0
 30
0.0
210
0.0
220
0.0
230
1.0
  2
SOLID
 70
     1
 71
     0
 91
        1
 92
        0
 93
        4
 72
     1
 10
-10.91493711478711
 20
-35.80189640592657
 11
-14.36121235862439
 21
-35.80189640592657
 72
     1
 10
-14.36121235862439
 20
-35.80189640592657
 11
-16.48944221782842
 21
-38.33822198649916
 72
     1
 10
-16.48944221782842
 20
-38.33822198649916
 11
-13.04313388887798
 21
-38.33818255719667
 72
     1
 10
-13.04313388887798
 20
-38.33818255719667
 11
-10.91493711478711
 21
-35.80189640592657
 97
        0
 75
     0
 76
     1
 98
        1
 10
0.0
 20
0.0
  0
HATCH
  5
11A
330
1F
100
AcDbEntity
  8
중심선
100
AcDbHatch
 10
0.0
 20
0.0
 30
0.0
210
0.0
220
0.0
230
1.0
  2
SOLID
 70
     1
 71
     0
 91
        1
 92
        0
 93
        4
 72
     1
 10
-5.902173123751159
 20
-35.80189640592657
 11
-9.348448367588441
 21
-35.80189640592657
 72
     1
 10
-9.348448367588441
 20
-35.80189640592657
 11
-13.87958637594583
 21
-41.20189640592658
 72
     1
 10
-13.87958637594583
 20
-41.20189640592658
 11
-10.43331113210855
 21
-41.20189640592658
 72
     1
 10
-10.43331113210855
 20
-41.20189640592658
 11
-5.902173123751159
 21
-35.80189640592657
 97
        0
 75
     0
 76
     1
 98
        1
 10
0.0
 20
0.0
  0
HATCH
  5
11B
330
1F
100
AcDbEntity
  8
중심선
100
AcDbHatch
 10
0.0
 20
0.0
 30
0.0
210
0.0
220
0.0
230
1.0
  2
SOLID
 70
     1
 71
     0
 91
        1
 92
        0
 93
        4
 72
     1
 10
-0.8894091327152631
 20
-35.8018964059266
 11
-4.335684376552379
 21
-35.80189640592657
 72
     1
 10
-4.335684376552379
 20
-35.80189640592657
 11
-11.38412127844163
 21
-44.20189640592659
 72
     1
 10
-11.38412127844163
 20
-44.20189640592659
 11
-7.937846034604346
 21
-44.20189640592659
 72
     1
 10
-7.937846034604346
 20
-44.20189640592659
 11
-0.8894091327152633
 21
-35.8018964059266
 97
        0
 75
     0
 76
     1
 98
        1
 10
0.0
 20
0.0
  0
HATCH
  5
11C
330
1F
100
AcDbEntity
  8
중심선
100
AcDbHatch
 10
0.0
 20
0.0
 30
0.0
210
0.0
220
0.0
230
1.0
  2
SOLID
 70
     1
 71
     0
 91
        1
 92
        0
 93
        6
 72
     3
 10
3.910481298296936
 20
-40.00189640597785
 11
3.960054785062284
 21
1.540850780301639E-10
 40
0.3939339440162633
 50
17.09539180608434
 51
320.0019657685079
 73
     0
 72
     1
 10
5.593480953997531
 20
-38.58979041056487
 11
7.89878282769857
 21
-36.65546370051695
 72
     3
 10
3.91048129824409
 20
-40.00189640592671
 11
6.600054785286829
 21
-1.249000902703301E-13
 40
0.6363583540795982
 50
39.99873849337408
 51
368.4976242363725
 73
     1
 72
     1
 10
10.3358137901447
 20
-39.04189640585659
 11
2.590548605080012
 21
-39.04189640585656
 72
     1
 10
2.590548605080012
 20
-39.04189640585656
 11
2.590523560634078
 21
-40.96189640585649
 72
     1
 10
2.590523560634078
 20
-40.96189640585649
 11
7.031903330106115
 21
-40.96189640585646
 97
        0
 75
     0
 76
     1
 98
        1
 10
0.0
 20
0.0
  0
POINT
  5
11D
330
1F
100
AcDbEntity
  8
치수문자_일반주서
100
AcDbPoint
 10
-0.0004859200744764
 20
-0.2622744311706934
 30
0.0
  0
DIMENSION
  5
11E
330
1F
100
AcDbEntity
  8
치수문자_일반주서
100
AcDbDimension
  2
_D
 10
66.74475979569846
 20
2.91272556882938
 30
0.0
 11
66.74475979569847
 21
-0.7588282158242085
 31
0.0
 70
   160
  1
%%c<>
 71
     2
 42
6.349999999999999
  3
SLDDIMSTYLE0
100
AcDbAlignedDimension
 13
47.03156059192466
 23
-3.437274431170688
 33
0.0
 14
47.33751407992553
 24
2.912725568829313
 34
0.0
 50
90.0000000000002
100
AcDbRotatedDimension
1001
ACAD
1000
DSTYLE
1002
{
1070
   273
1070
     7
1002
}
  0
DIMENSION
  5
133
330
1F
100
AcDbEntity
  8
치수문자_일반주서
100
AcDbDimension
  2
_D_1
 10
48.09951407992553
 20
35.56827698690109
 30
0.0
 11
-2.700485920074458
 21
35.56827698690109
 31
0.0
 70
   160
  1
<>
 71
     2
 42
101.6
  3
SLDDIMSTYLE1
100
AcDbAlignedDimension
 13
-53.50048592007446
 23
2.412725568829304
 33
0.0
 14
48.09951407992553
 24
2.531725568829312
 34
0.0
 50
0.000000000000004
100
AcDbRotatedDimension
1001
ACAD
1000
DSTYLE
1002
{
1070
   273
1070
     7
1002
}
  0
DIMENSION
  5
147
330
1F
100
AcDbEntity
  8
치수문자_일반주서
100
AcDbDimension
  2
_D_2
 10
9.999514079923848
 20
20.15872009916724
 30
0.0
 11
28.63041577777775
 21
20.15872009916724
 31
0.0
 70
   160
  1
<>
 71
     2
 42
38.10000000000167
  3
SLDDIMSTYLE1
100
AcDbAlignedDimension
 13
48.09951407992553
 23
2.531725568829312
 33
0.0
 14
9.999514079923859
 24
-3.433567873858494
 34
0.0
 50
0.0000000000000214
100
AcDbRotatedDimension
1001
ACAD
1000
DSTYLE
1002
{
1070
   273
1070
     7
1002
}
  0
DIMENSION
  5
15A
330
1F
100
AcDbEntity
  8
치수문자_일반주서
100
AcDbDimension
  2
_D_3
 10
-66.50048592007445
 20
-3.437274431170738
 30
0.0
 11
-66.50048592007447
 21
-0.2622744311706931
 31
0.0
 70
   160
  1
%%c<>
 71
     2
 42
6.35
  3
SLDDIMSTYLE0
100
AcDbAlignedDimension
 13
-53.00048592007446
 23
2.912725568829309
 33
0.0
 14
-53.00048592007446
 24
-3.437274431170691
 34
0.0
 50
90.0000000000002
100
AcDbRotatedDimension
1001
ACAD
1000
DSTYLE
1002
{
1070
   273
1070
     7
1002
}
1001
ACAD_DSTYLE_DIMFLIPARROW_SYMBOL
1070
   385
1070
     0
1001
ACAD_DSTYLE_DIMFLIPARROW_WHICH_SYMBOL
1070
   386
1070
     3
  0
INSERT
  5
174
330
1F
100
AcDbEntity
  8
외형선
100
AcDbBlockReference
  2
SW_DOWELSYMBOL_0
 10
-0.0004859200744764
 20
-0.2622744311706934
 30
0.0
  0
ARC
  5
19D
102
{ACAD_REACTORS
102
}
330
1F
100
AcDbEntity
  8
0
  6
Continuous
 62
     1
370
    15
100
AcDbCircle
 10
47.33751407992553
 20
2.150725568829313
 30
0.0
 40
0.7619999999999998
100
AcDbArc
 50
0.0
 51
90.0
  0
ARC
  5
1A0
330
1F
100
AcDbEntity
  8
0
  6
Continuous
 62
     1
370
    15
100
AcDbCircle
 10
47.33751407992553
 20
-2.6752744311707
 30
0.0
 40
0.7619999999999998
100
AcDbArc
 50
270.0
 51
0.0
  0
DIMENSION
  5
1A2
102
{ACAD_REACTORS
102
}
102
{ACAD_XDICTIONARY
360
1A3
102
}
330
1F
100
AcDbEntity
  8
치수문자_일반주서
100
AcDbDimension
  2
*D7
 10
47.33751407992553
 20
2.150725568829313
 30
0.0
 11
63.83525258757742
 21
20.84970727375154
 31
0.0
 70
   164
  1
<>
 71
     5
 42
0.7619999999999979
  3
SLDDIMSTYLE1
100
AcDbRadialDimension
 15
47.84164634897278
 25
2.72212267706952
 35
0.0
 40
0.0
1001
ACAD
1000
DSTYLE
1002
{
1070
   273
1070
     2
1002
}
1001
ACAD_DSTYLE_DIMRADIAL_EXTENSION
1070
   387
1070
     1
1070
   388
1040
0.0
1070
   390
1040
1.570796326794897
  0
ENDSEC
  0
SECTION
  2
OBJECTS
  0
DICTIONARY
  5
C
330
0
100
AcDbDictionary
281
     1
  3
ACAD_GROUP
350
D
  3
ACAD_IMAGE_VARS
350
198
  3
ACAD_LAYOUT
350
1A
  3
ACAD_MLINESTYLE
350
17
  3
ACAD_PLOTSETTINGS
350
19
  3
ACAD_PLOTSTYLENAME
350
E
  3
ACAD_SCALELIST
350
47
  3
APPDATA
350
196
  3
DWGPROPS
350
1AF
  0
DICTIONARY
  5
1A3
330
1A2
100
AcDbDictionary
280
     1
281
     1
  0
DICTIONARY
  5
D
102
{ACAD_REACTORS
330
C
102
}
330
C
100
AcDbDictionary
281
     1
  0
RASTERVARIABLES
  5
198
102
{ACAD_REACTORS
330
C
102
}
330
C
100
AcDbRasterVariables
 90
        0
 70
     1
 71
     1
 72
     1
  0
DICTIONARY
  5
1A
102
{ACAD_REACTORS
330
C
102
}
330
C
100
AcDbDictionary
281
     1
  3
Layout1
350
1E
  3
Layout2
350
26
  3
Model
350
22
  0
DICTIONARY
  5
17
102
{ACAD_REACTORS
330
C
102
}
330
C
100
AcDbDictionary
281
     1
  3
Standard
350
18
  0
DICTIONARY
  5
19
102
{ACAD_REACTORS
330
C
102
}
330
C
100
AcDbDictionary
281
     1
  0
ACDBDICTIONARYWDFLT
  5
E
102
{ACAD_REACTORS
330
C
102
}
330
C
100
AcDbDictionary
281
     1
  3
Normal
350
F
100
AcDbDictionaryWithDefault
340
F
  0
DICTIONARY
  5
47
102
{ACAD_REACTORS
330
C
102
}
330
C
100
AcDbDictionary
281
     1
  3
A0
350
48
  3
A1
350
49
  3
A2
350
4A
  3
A3
350
4B
  3
A4
350
4C
  3
A5
350
4D
  3
A6
350
4E
  3
A7
350
4F
  3
A8
350
50
  3
A9
350
51
  3
B0
350
52
  3
B1
350
53
  3
B2
350
54
  3
B3
350
55
  3
B4
350
56
  3
B5
350
57
  3
B6
350
58
  3
B7
350
59
  3
B8
350
5A
  3
B9
350
5B
  3
C0
350
5C
  3
C1
350
5D
  3
C2
350
5E
  3
C3
350
5F
  3
C4
350
60
  3
C5
350
61
  3
C6
350
62
  3
C7
350
63
  3
C8
350
64
  3
C9
350
65
  3
D0
350
66
  3
D1
350
67
  3
D2
350
68
  0
DICTIONARY
  5
196
102
{ACAD_REACTORS
330
C
102
}
330
C
100
AcDbDictionary
281
     1
  0
XRECORD
  5
1AF
102
{ACAD_REACTORS
330
C
102
}
330
C
100
AcDbXrecord
280
     1
  1
DWGPROPS COOKIE
  2

  3

  4

  6

  7

  8
12016016
  9

300
=
301
=
302
=
303
=
304
=
305
=
306
=
307
=
308
=
309
=
 40
0.0
 41
2458236.364281933
 42
2458241.208488102
  1

 90
        0
  0
LAYOUT
  5
1E
102
{ACAD_REACTORS
330
1A
102
}
330
1A
100
AcDbPlotSettings
  1

  2
none_device
  4

  6

 40
0.0
 41
0.0
 42
0.0
 43
0.0
 44
0.0
 45
0.0
 46
0.0
 47
0.0
 48
0.0
 49
0.0
140
0.0
141
0.0
142
1.0
143
1.0
 70
   688
 72
     1
 73
     0
 74
     5
  7

 75
    16
147
1.0
148
0.0
149
0.0
100
AcDbLayout
  1
Layout1
 70
     1
 71
     1
 10
0.0
 20
0.0
 11
420.0
 21
297.0
 12
0.0
 22
0.0
 32
0.0
 14
1.000000000000000E+20
 24
1.000000000000000E+20
 34
1.000000000000000E+20
 15
-1.000000000000000E+20
 25
-1.000000000000000E+20
 35
-1.000000000000000E+20
146
0.0
 13
0.0
 23
0.0
 33
0.0
 16
1.0
 26
0.0
 36
0.0
 17
0.0
 27
1.0
 37
0.0
 76
     0
330
1B
  0
LAYOUT
  5
26
102
{ACAD_REACTORS
330
1A
102
}
330
1A
100
AcDbPlotSettings
  1

  2
none_device
  4

  6

 40
0.0
 41
0.0
 42
0.0
 43
0.0
 44
0.0
 45
0.0
 46
0.0
 47
0.0
 48
0.0
 49
0.0
140
0.0
141
0.0
142
1.0
143
1.0
 70
   688
 72
     1
 73
     0
 74
     5
  7

 75
    16
147
1.0
148
0.0
149
0.0
100
AcDbLayout
  1
Layout2
 70
     1
 71
     2
 10
0.0
 20
0.0
 11
0.0
 21
0.0
 12
0.0
 22
0.0
 32
0.0
 14
0.0
 24
0.0
 34
0.0
 15
0.0
 25
0.0
 35
0.0
146
0.0
 13
0.0
 23
0.0
 33
0.0
 16
1.0
 26
0.0
 36
0.0
 17
0.0
 27
1.0
 37
0.0
 76
     0
330
23
  0
LAYOUT
  5
22
102
{ACAD_REACTORS
330
1A
102
}
330
1A
100
AcDbPlotSettings
  1

  2
none_device
  4
ANSI_A_(11.00_x_8.50_Inches)
  6

 40
6.35
 41
19.05
 42
6.35000508
 43
19.05000254
 44
279.4
 45
215.9
 46
142.4551971308539
 47
93.05420650932273
 48
0.0
 49
0.0
140
0.0
141
0.0
142
0.0750837051803466
143
1.0
 70
  1696
 72
     0
 73
     0
 74
     0
  7

 75
     0
147
0.0235690232323232
148
0.0
149
0.0
100
AcDbLayout
  1
Model
 70
     1
 71
     0
 10
0.0
 20
0.0
 11
420.0
 21
297.0
 12
0.0
 22
0.0
 32
0.0
 14
-70.87548592007452
 24
-49.97370379473832
 34
0.0
 15
72.51863320600935
 25
39.94327698690109
 35
0.0
146
0.0
 13
0.0
 23
0.0
 33
0.0
 16
1.0
 26
0.0
 36
0.0
 17
0.0
 27
1.0
 37
0.0
 76
     0
330
1F
331
29
  0
MLINESTYLE
  5
18
102
{ACAD_REACTORS
330
17
102
}
330
17
100
AcDbMlineStyle
  2
Standard
 70
     0
  3

 62
   256
 51
90.0
 52
90.0
 71
     2
 49
0.5
 62
   256
  6
BYLAYER
 49
-0.5
 62
   256
  6
BYLAYER
  0
ACDBPLACEHOLDER
  5
F
102
{ACAD_REACTORS
330
E
102
}
330
E
  0
SCALE
  5
48
102
{ACAD_REACTORS
330
47
102
}
330
47
100
AcDbScale
 70
     0
300
1:1
140
1.0
141
1.0
290
     1
  0
SCALE
  5
49
102
{ACAD_REACTORS
330
47
102
}
330
47
100
AcDbScale
 70
     0
300
1:2
140
1.0
141
2.0
290
     0
  0
SCALE
  5
4A
102
{ACAD_REACTORS
330
47
102
}
330
47
100
AcDbScale
 70
     0
300
1:4
140
1.0
141
4.0
290
     0
  0
SCALE
  5
4B
102
{ACAD_REACTORS
330
47
102
}
330
47
100
AcDbScale
 70
     0
300
1:5
140
1.0
141
5.0
290
     0
  0
SCALE
  5
4C
102
{ACAD_REACTORS
330
47
102
}
330
47
100
AcDbScale
 70
     0
300
1:8
140
1.0
141
8.0
290
     0
  0
SCALE
  5
4D
102
{ACAD_REACTORS
330
47
102
}
330
47
100
AcDbScale
 70
     0
300
1:10
140
1.0
141
10.0
290
     0
  0
SCALE
  5
4E
102
{ACAD_REACTORS
330
47
102
}
330
47
100
AcDbScale
 70
     0
300
1:16
140
1.0
141
16.0
290
     0
  0
SCALE
  5
4F
102
{ACAD_REACTORS
330
47
102
}
330
47
100
AcDbScale
 70
     0
300
1:20
140
1.0
141
20.0
290
     0
  0
SCALE
  5
50
102
{ACAD_REACTORS
330
47
102
}
330
47
100
AcDbScale
 70
     0
300
1:30
140
1.0
141
30.0
290
     0
  0
SCALE
  5
51
102
{ACAD_REACTORS
330
47
102
}
330
47
100
AcDbScale
 70
     0
300
1:40
140
1.0
141
40.0
290
     0
  0
SCALE
  5
52
102
{ACAD_REACTORS
330
47
102
}
330
47
100
AcDbScale
 70
     0
300
1:50
140
1.0
141
50.0
290
     0
  0
SCALE
  5
53
102
{ACAD_REACTORS
330
47
102
}
330
47
100
AcDbScale
 70
     0
300
1:100
140
1.0
141
100.0
290
     0
  0
SCALE
  5
54
102
{ACAD_REACTORS
330
47
102
}
330
47
100
AcDbScale
 70
     0
300
2:1
140
2.0
141
1.0
290
     0
  0
SCALE
  5
55
102
{ACAD_REACTORS
330
47
102
}
330
47
100
AcDbScale
 70
     0
300
4:1
140
4.0
141
1.0
290
     0
  0
SCALE
  5
56
102
{ACAD_REACTORS
330
47
102
}
330
47
100
AcDbScale
 70
     0
300
8:1
140
8.0
141
1.0
290
     0
  0
SCALE
  5
57
102
{ACAD_REACTORS
330
47
102
}
330
47
100
AcDbScale
 70
     0
300
10:1
140
10.0
141
1.0
290
     0
  0
SCALE
  5
58
102
{ACAD_REACTORS
330
47
102
}
330
47
100
AcDbScale
 70
     0
300
100:1
140
100.0
141
1.0
290
     0
  0
SCALE
  5
59
102
{ACAD_REACTORS
330
47
102
}
330
47
100
AcDbScale
 70
     0
300
1/128" = 1'-0"
140
0.0078125
141
12.0
290
     0
  0
SCALE
  5
5A
102
{ACAD_REACTORS
330
47
102
}
330
47
100
AcDbScale
 70
     0
300
1/64" = 1'-0"
140
0.015625
141
12.0
290
     0
  0
SCALE
  5
5B
102
{ACAD_REACTORS
330
47
102
}
330
47
100
AcDbScale
 70
     0
300
1/32" = 1'-0"
140
0.03125
141
12.0
290
     0
  0
SCALE
  5
5C
102
{ACAD_REACTORS
330
47
102
}
330
47
100
AcDbScale
 70
     0
300
1/16" = 1'-0"
140
0.0625
141
12.0
290
     0
  0
SCALE
  5
5D
102
{ACAD_REACTORS
330
47
102
}
330
47
100
AcDbScale
 70
     0
300
3/32" = 1'-0"
140
0.09375
141
12.0
290
     0
  0
SCALE
  5
5E
102
{ACAD_REACTORS
330
47
102
}
330
47
100
AcDbScale
 70
     0
300
1/8" = 1'-0"
140
0.125
141
12.0
290
     0
  0
SCALE
  5
5F
102
{ACAD_REACTORS
330
47
102
}
330
47
100
AcDbScale
 70
     0
300
3/16" = 1'-0"
140
0.1875
141
12.0
290
     0
  0
SCALE
  5
60
102
{ACAD_REACTORS
330
47
102
}
330
47
100
AcDbScale
 70
     0
300
1/4" = 1'-0"
140
0.25
141
12.0
290
     0
  0
SCALE
  5
61
102
{ACAD_REACTORS
330
47
102
}
330
47
100
AcDbScale
 70
     0
300
3/8" = 1'-0"
140
0.375
141
12.0
290
     0
  0
SCALE
  5
62
102
{ACAD_REACTORS
330
47
102
}
330
47
100
AcDbScale
 70
     0
300
1/2" = 1'-0"
140
0.5
141
12.0
290
     0
  0
SCALE
  5
63
102
{ACAD_REACTORS
330
47
102
}
330
47
100
AcDbScale
 70
     0
300
3/4" = 1'-0"
140
0.75
141
12.0
290
     0
  0
SCALE
  5
64
102
{ACAD_REACTORS
330
47
102
}
330
47
100
AcDbScale
 70
     0
300
1" = 1'-0"
140
1.0
141
12.0
290
     0
  0
SCALE
  5
65
102
{ACAD_REACTORS
330
47
102
}
330
47
100
AcDbScale
 70
     0
300
1-1/2" = 1'-0"
140
1.5
141
12.0
290
     0
  0
SCALE
  5
66
102
{ACAD_REACTORS
330
47
102
}
330
47
100
AcDbScale
 70
     0
300
3" = 1'-0"
140
3.0
141
12.0
290
     0
  0
SCALE
  5
67
102
{ACAD_REACTORS
330
47
102
}
330
47
100
AcDbScale
 70
     0
300
6" = 1'-0"
140
6.0
141
12.0
290
     0
  0
SCALE
  5
68
102
{ACAD_REACTORS
330
47
102
}
330
47
100
AcDbScale
 70
     0
300
1'-0" = 1'-0"
140
12.0
141
12.0
290
     0
  0
ENDSEC
  0
EOF
