  0
SECTION
  2
HEADER
  9
$ACADVER
  1
AC1015
  9
$ACADMAINTVER
 70
     6
  9
$DWGCODEPAGE
  3
ANSI_949
  9
$INSBASE
 10
0.0
 20
0.0
 30
0.0
  9
$EXTMIN
 10
-70.87548592007454
 20
-49.97370379473832
 30
0.0
  9
$EXTMAX
 10
70.90702825471995
 20
39.94327698690109
 30
0.0
  9
$LIMMIN
 10
0.0
 20
0.0
  9
$LIMMAX
 10
420.0
 20
297.0
  9
$ORTHOMODE
 70
     1
  9
$REGENMODE
 70
     1
  9
$FILLMODE
 70
     1
  9
$QTEXTMODE
 70
     0
  9
$MIRRTEXT
 70
     1
  9
$LTSCALE
 40
1.0
  9
$ATTMODE
 70
     1
  9
$TEXTSIZE
 40
3.5
  9
$TRACEWID
 40
1.0
  9
$TEXTSTYLE
  7
Standard
  9
$CLAYER
  8
0
  9
$CELTYPE
  6
ByLayer
  9
$CECOLOR
 62
   256
  9
$CELTSCALE
 40
1.0
  9
$DISPSILH
 70
     0
  9
$DIMSCALE
 40
1.0
  9
$DIMASZ
 40
3.302
  9
$DIMEXO
 40
1.0
  9
$DIMDLI
 40
3.75
  9
$DIMRND
 40
0.0
  9
$DIMDLE
 40
0.0
  9
$DIMEXE
 40
1.0
  9
$DIMTP
 40
0.0
  9
$DIMTM
 40
0.0
  9
$DIMTXT
 40
3.5
  9
$DIMCEN
 40
2.5
  9
$DIMTSZ
 40
0.0
  9
$DIMTOL
 70
     0
  9
$DIMLIM
 70
     0
  9
$DIMTIH
 70
     1
  9
$DIMTOH
 70
     1
  9
$DIMSE1
 70
     0
  9
$DIMSE2
 70
     0
  9
$DIMTAD
 70
     1
  9
$DIMZIN
 70
     0
  9
$DIMBLK
  1

  9
$DIMASO
 70
     1
  9
$DIMSHO
 70
     1
  9
$DIMPOST
  1

  9
$DIMAPOST
  1

  9
$DIMALT
 70
     0
  9
$DIMALTD
 70
     3
  9
$DIMALTF
 40
0.0393700787401575
  9
$DIMLFAC
 40
1.0
  9
$DIMTOFL
 70
     1
  9
$DIMTVP
 40
0.0
  9
$DIMTIX
 70
     0
  9
$DIMSOXD
 70
     0
  9
$DIMSAH
 70
     0
  9
$DIMBLK1
  1

  9
$DIMBLK2
  1

  9
$DIMSTYLE
  2
ISO-25
  9
$DIMCLRD
 70
     0
  9
$DIMCLRE
 70
     0
  9
$DIMCLRT
 70
     0
  9
$DIMTFAC
 40
1.0
  9
$DIMGAP
 40
1.524
  9
$DIMJUST
 70
     0
  9
$DIMSD1
 70
     0
  9
$DIMSD2
 70
     0
  9
$DIMTOLJ
 70
     0
  9
$DIMTZIN
 70
     0
  9
$DIMALTZ
 70
     0
  9
$DIMALTTZ
 70
     0
  9
$DIMUPT
 70
     0
  9
$DIMDEC
 70
     2
  9
$DIMTDEC
 70
     2
  9
$DIMALTU
 70
     2
  9
$DIMALTTD
 70
     3
  9
$DIMTXSTY
  7
Standard
  9
$DIMAUNIT
 70
     0
  9
$DIMADEC
 70
     2
  9
$DIMALTRND
 40
0.0
  9
$DIMAZIN
 70
     0
  9
$DIMDSEP
 70
    44
  9
$DIMATFIT
 70
     3
  9
$DIMFRAC
 70
     0
  9
$DIMLDRBLK
  1

  9
$DIMLUNIT
 70
     2
  9
$DIMLWD
 70
    -2
  9
$DIMLWE
 70
    -2
  9
$DIMTMOVE
 70
     0
  9
$LUNITS
 70
     2
  9
$LUPREC
 70
     2
  9
$SKETCHINC
 40
1.0
  9
$FILLETRAD
 40
10.0
  9
$AUNITS
 70
     0
  9
$AUPREC
 70
     2
  9
$MENU
  1
.
  9
$ELEVATION
 40
0.0
  9
$PELEVATION
 40
0.0
  9
$THICKNESS
 40
0.0
  9
$LIMCHECK
 70
     0
  9
$CHAMFERA
 40
0.0
  9
$CHAMFERB
 40
0.0
  9
$CHAMFERC
 40
0.0
  9
$CHAMFERD
 40
0.0
  9
$SKPOLY
 70
     0
  9
$TDCREATE
 40
2458236.737226065
  9
$TDUCREATE
 40
2458236.362226065
  9
$TDUPDATE
 40
2458241.586345232
  9
$TDUUPDATE
 40
2458241.211345232
  9
$TDINDWG
 40
0.0028402894
  9
$TDUSRTIMER
 40
2458241.208505127
  9
$USRTIMER
 70
     1
  9
$ANGBASE
 50
0.0
  9
$ANGDIR
 70
     0
  9
$PDMODE
 70
     0
  9
$PDSIZE
 40
-1.0
  9
$PLINEWID
 40
0.0
  9
$SPLFRAME
 70
     0
  9
$SPLINETYPE
 70
     6
  9
$SPLINESEGS
 70
     8
  9
$HANDSEED
  5
18D
  9
$SURFTAB1
 70
     6
  9
$SURFTAB2
 70
     6
  9
$SURFTYPE
 70
     6
  9
$SURFU
 70
     6
  9
$SURFV
 70
     6
  9
$UCSBASE
  2

  9
$UCSNAME
  2

  9
$UCSORG
 10
0.0
 20
0.0
 30
0.0
  9
$UCSXDIR
 10
1.0
 20
0.0
 30
0.0
  9
$UCSYDIR
 10
0.0
 20
1.0
 30
0.0
  9
$UCSORTHOREF
  2

  9
$UCSORTHOVIEW
 70
     0
  9
$UCSORGTOP
 10
0.0
 20
0.0
 30
0.0
  9
$UCSORGBOTTOM
 10
0.0
 20
0.0
 30
0.0
  9
$UCSORGLEFT
 10
0.0
 20
0.0
 30
0.0
  9
$UCSORGRIGHT
 10
0.0
 20
0.0
 30
0.0
  9
$UCSORGFRONT
 10
0.0
 20
0.0
 30
0.0
  9
$UCSORGBACK
 10
0.0
 20
0.0
 30
0.0
  9
$PUCSBASE
  2

  9
$PUCSNAME
  2

  9
$PUCSORG
 10
0.0
 20
0.0
 30
0.0
  9
$PUCSXDIR
 10
1.0
 20
0.0
 30
0.0
  9
$PUCSYDIR
 10
0.0
 20
1.0
 30
0.0
  9
$PUCSORTHOREF
  2

  9
$PUCSORTHOVIEW
 70
     0
  9
$PUCSORGTOP
 10
0.0
 20
0.0
 30
0.0
  9
$PUCSORGBOTTOM
 10
0.0
 20
0.0
 30
0.0
  9
$PUCSORGLEFT
 10
0.0
 20
0.0
 30
0.0
  9
$PUCSORGRIGHT
 10
0.0
 20
0.0
 30
0.0
  9
$PUCSORGFRONT
 10
0.0
 20
0.0
 30
0.0
  9
$PUCSORGBACK
 10
0.0
 20
0.0
 30
0.0
  9
$USERI1
 70
     0
  9
$USERI2
 70
     0
  9
$USERI3
 70
     0
  9
$USERI4
 70
     0
  9
$USERI5
 70
     0
  9
$USERR1
 40
0.0
  9
$USERR2
 40
0.0
  9
$USERR3
 40
0.0
  9
$USERR4
 40
0.0
  9
$USERR5
 40
0.0
  9
$WORLDVIEW
 70
     1
  9
$SHADEDGE
 70
     3
  9
$SHADEDIF
 70
    70
  9
$TILEMODE
 70
     1
  9
$MAXACTVP
 70
    64
  9
$PINSBASE
 10
0.0
 20
0.0
 30
0.0
  9
$PLIMCHECK
 70
     0
  9
$PEXTMIN
 10
1.000000000000000E+20
 20
1.000000000000000E+20
 30
1.000000000000000E+20
  9
$PEXTMAX
 10
-1.000000000000000E+20
 20
-1.000000000000000E+20
 30
-1.000000000000000E+20
  9
$PLIMMIN
 10
0.0
 20
0.0
  9
$PLIMMAX
 10
0.0
 20
0.0
  9
$UNITMODE
 70
     0
  9
$VISRETAIN
 70
     1
  9
$PLINEGEN
 70
     0
  9
$PSLTSCALE
 70
     1
  9
$TREEDEPTH
 70
  3020
  9
$CMLSTYLE
  2
Standard
  9
$CMLJUST
 70
     0
  9
$CMLSCALE
 40
20.0
  9
$PROXYGRAPHICS
 70
     1
  9
$MEASUREMENT
 70
     1
  9
$CELWEIGHT
370
    -1
  9
$ENDCAPS
280
     0
  9
$JOINSTYLE
280
     0
  9
$LWDISPLAY
290
     1
  9
$INSUNITS
 70
     4
  9
$HYPERLINKBASE
  1

  9
$STYLESHEET
  1

  9
$XEDIT
290
     1
  9
$CEPSNTYPE
380
     0
  9
$PSTYLEMODE
290
     1
  9
$FINGERPRINTGUID
  2
{5ED08181-CE10-404F-9660-9C9154902656}
  9
$VERSIONGUID
  2
{FAEB1C32-E019-11D5-929B-00C0DF256EC4}
  9
$EXTNAMES
290
     1
  9
$PSVPSCALE
 40
0.0
  9
$OLESTARTUP
290
     0
  0
ENDSEC
  0
SECTION
  2
CLASSES
  0
CLASS
  1
ACDBDICTIONARYWDFLT
  2
AcDbDictionaryWithDefault
  3
ObjectDBX Classes
 90
        0
280
     0
281
     0
  0
CLASS
  1
VISUALSTYLE
  2
AcDbVisualStyle
  3
ObjectDBX Classes
 90
     4095
280
     0
281
     0
  0
CLASS
  1
MATERIAL
  2
AcDbMaterial
  3
ObjectDBX Classes
 90
     1153
280
     0
281
     0
  0
CLASS
  1
SCALE
  2
AcDbScale
  3
ObjectDBX Classes
 90
     1153
280
     0
281
     0
  0
CLASS
  1
SUN
  2
AcDbSun
  3
SCENEOE
 90
     1153
280
     0
281
     0
  0
CLASS
  1
ACDBPLACEHOLDER
  2
AcDbPlaceHolder
  3
ObjectDBX Classes
 90
        0
280
     0
281
     0
  0
CLASS
  1
LAYOUT
  2
AcDbLayout
  3
ObjectDBX Classes
 90
        0
280
     0
281
     0
  0
CLASS
  1
TABLESTYLE
  2
AcDbTableStyle
  3
ObjectDBX Classes
 90
     4095
280
     0
281
     0
  0
CLASS
  1
MLEADERSTYLE
  2
AcDbMLeaderStyle
  3
ACDB_MLEADERSTYLE_CLASS
 90
     4095
280
     0
281
     0
  0
CLASS
  1
RASTERVARIABLES
  2
AcDbRasterVariables
  3
ISM
 90
        0
280
     0
281
     0
  0
CLASS
  1
DIMASSOC
  2
AcDbDimAssoc
  3
"AcDbDimAssoc|Product Desc:     AcDim ARX App For Dimension|Company:          Autodesk, Inc.|WEB Address:      www.autodesk.com"
 90
        0
280
     0
281
     0
  0
ENDSEC
  0
SECTION
  2
TABLES
  0
TABLE
  2
VPORT
  5
8
330
0
100
AcDbSymbolTable
 70
     1
  0
VPORT
  5
29
330
8
100
AcDbSymbolTableRecord
100
AcDbViewportTableRecord
  2
*Active
 70
     0
 10
0.0
 20
0.0
 11
1.0
 21
1.0
 12
33.30975747287263
 22
1.198309995946746
 13
0.0
 23
0.0
 14
10.0
 24
10.0
 15
10.0
 25
10.0
 16
0.0
 26
0.0
 36
1.0
 17
0.0
 27
0.0
 37
0.0
 40
111.931122419172
 41
1.321695760598504
 42
50.0
 43
0.0
 44
0.0
 50
0.0
 51
0.0
 71
    16
 72
  2000
 73
     1
 74
     3
 75
     0
 76
     0
 77
     0
 78
     0
281
     0
 65
     1
110
0.0
120
0.0
130
0.0
111
1.0
121
0.0
131
0.0
112
0.0
122
1.0
132
0.0
 79
     0
146
0.0
  0
ENDTAB
  0
TABLE
  2
LTYPE
  5
5
330
0
100
AcDbSymbolTable
 70
     6
  0
LTYPE
  5
14
330
5
100
AcDbSymbolTableRecord
100
AcDbLinetypeTableRecord
  2
ByBlock
 70
     0
  3

 72
    65
 73
     0
 40
0.0
  0
LTYPE
  5
15
330
5
100
AcDbSymbolTableRecord
100
AcDbLinetypeTableRecord
  2
ByLayer
 70
     0
  3

 72
    65
 73
     0
 40
0.0
  0
LTYPE
  5
16
330
5
100
AcDbSymbolTableRecord
100
AcDbLinetypeTableRecord
  2
Continuous
 70
     0
  3
Solid line
 72
    65
 73
     0
 40
0.0
  0
LTYPE
  5
6A
330
5
100
AcDbSymbolTableRecord
100
AcDbLinetypeTableRecord
  2
HIDDEN
 70
     0
  3
Hidden __ __ __ __ __ __ __ __ __ __ __ __ __ __
 72
    65
 73
     2
 40
1.905
 49
1.27
 74
     0
 49
-0.635
 74
     0
  0
LTYPE
  5
6B
330
5
100
AcDbSymbolTableRecord
100
AcDbLinetypeTableRecord
  2
PHANTOM
 70
     0
  3
Phantom ______  __  __  ______  __  __  ______
 72
    65
 73
     6
 40
12.7
 49
6.35
 74
     0
 49
-1.27
 74
     0
 49
1.27
 74
     0
 49
-1.27
 74
     0
 49
1.27
 74
     0
 49
-1.27
 74
     0
  0
LTYPE
  5
6C
330
5
100
AcDbSymbolTableRecord
100
AcDbLinetypeTableRecord
  2
CENTER
 70
     0
  3
Center ____ _ ____ _ ____ _ ____ _ ____ _ ____
 72
    65
 73
     4
 40
10.16
 49
6.35
 74
     0
 49
-1.27
 74
     0
 49
1.27
 74
     0
 49
-1.27
 74
     0
  0
LTYPE
  5
6D
330
5
100
AcDbSymbolTableRecord
100
AcDbLinetypeTableRecord
  2
CENTERX2
 70
     0
  3
Center (2x) ________  __  ________  __  _____
 72
    65
 73
     4
 40
20.32
 49
12.7
 74
     0
 49
-2.54
 74
     0
 49
2.54
 74
     0
 49
-2.54
 74
     0
  0
LTYPE
  5
6E
330
5
100
AcDbSymbolTableRecord
100
AcDbLinetypeTableRecord
  2
DOT2
 70
     0
  3
Dot (.5x) ........................................
 72
    65
 73
     2
 40
0.635
 49
0.0
 74
     0
 49
-0.635
 74
     0
  0
ENDTAB
  0
TABLE
  2
LAYER
  5
2
330
0
100
AcDbSymbolTable
 70
    17
  0
LAYER
  5
10
330
2
100
AcDbSymbolTableRecord
100
AcDbLayerTableRecord
  2
0
 70
     0
 62
     7
  6
Continuous
370
    -3
390
F
  0
LAYER
  5
6F
330
2
100
AcDbSymbolTableRecord
100
AcDbLayerTableRecord
  2
FORMAT
 70
     0
 62
     2
  6
Continuous
370
    -3
390
F
  0
LAYER
  5
70
330
2
100
AcDbSymbolTableRecord
100
AcDbLayerTableRecord
  2
외형선
 70
     0
 62
   100
  6
Continuous
370
    30
390
F
  0
LAYER
  5
71
330
2
100
AcDbSymbolTableRecord
100
AcDbLayerTableRecord
  2
숨은선
 70
     0
 62
     2
  6
HIDDEN
370
    15
390
F
  0
LAYER
  5
72
330
2
100
AcDbSymbolTableRecord
100
AcDbLayerTableRecord
  2
중심선
 70
     0
 62
     1
  6
CENTERX2
370
    -3
390
F
  0
LAYER
  5
73
330
2
100
AcDbSymbolTableRecord
100
AcDbLayerTableRecord
  2
파단선
 70
     0
 62
     4
  6
Continuous
370
    -3
390
F
  0
LAYER
  5
74
330
2
100
AcDbSymbolTableRecord
100
AcDbLayerTableRecord
  2
해칭선
 70
     0
 62
     4
  6
Continuous
370
    -3
390
F
  0
LAYER
  5
75
330
2
100
AcDbSymbolTableRecord
100
AcDbLayerTableRecord
  2
가는실선
 70
     0
 62
     4
  6
Continuous
370
    -3
390
F
  0
LAYER
  5
76
330
2
100
AcDbSymbolTableRecord
100
AcDbLayerTableRecord
  2
치수_보조선
 70
     0
 62
     4
  6
Continuous
370
    -3
390
F
  0
LAYER
  5
77
330
2
100
AcDbSymbolTableRecord
100
AcDbLayerTableRecord
  2
치수문자_일반주서
 70
     0
 62
     7
  6
Continuous
370
    15
390
F
  0
LAYER
  5
78
330
2
100
AcDbSymbolTableRecord
100
AcDbLayerTableRecord
  2
개별주서
 70
     0
 62
   100
  6
Continuous
370
    30
390
F
  0
LAYER
  5
79
330
2
100
AcDbSymbolTableRecord
100
AcDbLayerTableRecord
  2
중간선
 70
     0
 62
     2
  6
Continuous
370
    15
390
F
  0
LAYER
  5
7A
330
2
100
AcDbSymbolTableRecord
100
AcDbLayerTableRecord
  2
윤곽선
 70
     0
 62
     3
  6
Continuous
370
    40
390
F
  0
LAYER
  5
7B
330
2
100
AcDbSymbolTableRecord
100
AcDbLayerTableRecord
  2
중심마크
 70
     0
 62
   100
  6
Continuous
370
    30
390
F
  0
LAYER
  5
7C
330
2
100
AcDbSymbolTableRecord
100
AcDbLayerTableRecord
  2
가상선
 70
     0
 62
     4
  6
PHANTOM
370
    -3
390
F
  0
LAYER
  5
7D
330
2
100
AcDbSymbolTableRecord
100
AcDbLayerTableRecord
  2
특수지정선
 70
     0
 62
     5
  6
CENTERX2
370
    60
390
F
  0
LAYER
  5
17B
330
2
100
AcDbSymbolTableRecord
100
AcDbLayerTableRecord
  2
Defpoints
 70
     0
 62
     7
  6
Continuous
290
     0
370
    -3
390
F
  0
ENDTAB
  0
TABLE
  2
STYLE
  5
3
330
0
100
AcDbSymbolTable
 70
     2
  0
STYLE
  5
11
330
3
100
AcDbSymbolTableRecord
100
AcDbTextStyleTableRecord
  2
Standard
 70
     0
 40
0.0
 41
1.0
 50
0.0
 71
     0
 42
3.5
  3
txt
  4

  0
STYLE
  5
93
330
3
100
AcDbSymbolTableRecord
100
AcDbTextStyleTableRecord
  2
SLDTEXTSTYLE0
 70
     0
 40
0.0
 41
0.75
 50
0.0
 71
     0
 42
3.5
  3
TXT
  4

  0
ENDTAB
  0
TABLE
  2
VIEW
  5
6
330
0
100
AcDbSymbolTable
 70
     0
  0
ENDTAB
  0
TABLE
  2
UCS
  5
7
330
0
100
AcDbSymbolTable
 70
     0
  0
ENDTAB
  0
TABLE
  2
APPID
  5
9
330
0
100
AcDbSymbolTable
 70
     2
  0
APPID
  5
12
330
9
100
AcDbSymbolTableRecord
100
AcDbRegAppTableRecord
  2
ACAD
 70
     0
  0
APPID
  5
17E
330
9
100
AcDbSymbolTableRecord
100
AcDbRegAppTableRecord
  2
ACAD_DSTYLE_DIMRADIAL_EXTENSION
 70
     0
  0
ENDTAB
  0
TABLE
  2
DIMSTYLE
  5
A
330
0
100
AcDbSymbolTable
 70
     3
100
AcDbDimStyleTable
  0
DIMSTYLE
105
27
330
A
100
AcDbSymbolTableRecord
100
AcDbDimStyleTableRecord
  2
ISO-25
 70
     0
 41
2.5
 42
0.625
 43
3.75
 44
1.25
 73
     0
 74
     0
 77
     1
 78
     8
140
2.5
141
2.5
143
0.03937007874016
147
0.625
171
     3
172
     1
178
     0
271
     2
272
     2
274
     3
278
    44
283
     0
284
     8
340
11
  0
DIMSTYLE
105
101
102
{ACAD_REACTORS
330
100
330
13C
102
}
330
A
100
AcDbSymbolTableRecord
100
AcDbDimStyleTableRecord
  2
SLDDIMSTYLE0
 70
     0
 41
3.302
 44
0.0
 45
0.000000001
 73
     0
 74
     0
 77
     1
 78
    12
 79
     3
140
3.5
143
0.0393700787401575
147
0.875
148
0.000000001
170
     1
172
     1
173
     1
178
     0
271
     2
272
     2
276
     2
284
    12
289
     0
340
93
  0
DIMSTYLE
105
116
102
{ACAD_REACTORS
330
115
330
129
330
17F
102
}
330
A
100
AcDbSymbolTableRecord
100
AcDbDimStyleTableRecord
  2
SLDDIMSTYLE1
 70
     0
 41
3.302
 44
0.0
 45
0.000000001
 73
     0
 74
     0
 77
     1
 78
     4
 79
     1
140
3.5
143
0.0393700787401575
147
0.875
148
0.000000001
170
     1
173
     1
178
     0
271
     2
272
     2
276
     2
284
    12
340
93
  0
ENDTAB
  0
TABLE
  2
BLOCK_RECORD
  5
1
330
0
100
AcDbSymbolTable
 70
     8
  0
BLOCK_RECORD
  5
1F
330
1
100
AcDbSymbolTableRecord
100
AcDbBlockTableRecord
  2
*Model_Space
340
22
  0
BLOCK_RECORD
  5
1B
330
1
100
AcDbSymbolTableRecord
100
AcDbBlockTableRecord
  2
*Paper_Space
340
1E
  0
BLOCK_RECORD
  5
23
330
1
100
AcDbSymbolTableRecord
100
AcDbBlockTableRecord
  2
*Paper_Space0
340
26
  0
BLOCK_RECORD
  5
7E
330
1
100
AcDbSymbolTableRecord
100
AcDbBlockTableRecord
  2
블럭10
340
0
102
{BLKREFS
331
F8
102
}
  0
BLOCK_RECORD
  5
102
330
1
100
AcDbSymbolTableRecord
100
AcDbBlockTableRecord
  2
_D
340
0
  0
BLOCK_RECORD
  5
117
330
1
100
AcDbSymbolTableRecord
100
AcDbBlockTableRecord
  2
_D_1
340
0
  0
BLOCK_RECORD
  5
12A
330
1
100
AcDbSymbolTableRecord
100
AcDbBlockTableRecord
  2
_D_2
340
0
  0
BLOCK_RECORD
  5
13D
330
1
100
AcDbSymbolTableRecord
100
AcDbBlockTableRecord
  2
_D_3
340
0
  0
BLOCK_RECORD
  5
150
330
1
100
AcDbSymbolTableRecord
100
AcDbBlockTableRecord
  2
SW_DOWELSYMBOL_0
340
0
102
{BLKREFS
331
156
102
}
  0
BLOCK_RECORD
  5
182
330
1
100
AcDbSymbolTableRecord
100
AcDbBlockTableRecord
  2
*D7
340
0
  0
ENDTAB
  0
ENDSEC
  0
SECTION
  2
BLOCKS
  0
BLOCK
  5
20
330
1F
100
AcDbEntity
  8
0
100
AcDbBlockBegin
  2
*Model_Space
 70
     0
 10
0.0
 20
0.0
 30
0.0
  3
*Model_Space
  1
*Model_Space
  0
ENDBLK
  5
21
330
1F
100
AcDbEntity
  8
0
100
AcDbBlockEnd
  0
BLOCK
  5
1C
330
1B
100
AcDbEntity
 67
     1
  8
0
100
AcDbBlockBegin
  2
*Paper_Space
 70
     0
 10
0.0
 20
0.0
 30
0.0
  3
*Paper_Space
  1
*Paper_Space
  0
ENDBLK
  5
1D
330
1B
100
AcDbEntity
 67
     1
  8
0
100
AcDbBlockEnd
  0
BLOCK
  5
24
330
23
100
AcDbEntity
  8
0
100
AcDbBlockBegin
  2
*Paper_Space0
 70
     0
 10
0.0
 20
0.0
 30
0.0
  3
*Paper_Space0
  1
*Paper_Space0
  0
ENDBLK
  5
25
330
23
100
AcDbEntity
  8
0
100
AcDbBlockEnd
  0
BLOCK
  5
7F
330
7E
100
AcDbEntity
  8
0
100
AcDbBlockBegin
  2
블럭10
 70
     2
 10
0.0
 20
0.0
 30
0.0
  3
블럭10
  1
블럭10
  0
ELLIPSE
  5
81
330
7E
100
AcDbEntity
  8
중심선
100
AcDbEllipse
 10
20.54032771741204
 20
12.0471743016438
 30
0.0
 11
6.600054785286829
 21
-1.261213355974178E-13
 31
0.0
210
0.0
220
0.0
230
1.0
 40
0.636358354079598
 41
0.9219305317359503
 42
6.513795318482858
  0
ELLIPSE
  5
82
330
7E
100
AcDbEntity
  8
중심선
100
AcDbEllipse
 10
20.54032771746488
 20
12.04717430159265
 30
0.0
 11
3.960054785062283
 21
1.540847449632565E-10
 31
0.0
210
0.0
220
0.0
230
1.0
 40
0.3939339440162632
 41
1.131841032648279
 42
5.62031148352944
  0
LINE
  5
83
330
7E
100
AcDbEntity
  8
중심선
100
AcDbLine
 10
2.268634060543552
 20
16.24717430164393
 30
0.0
 11
5.714909304380834
 21
16.24717430164393
 31
0.0
  0
LINE
  5
84
330
7E
100
AcDbEntity
  8
중심선
100
AcDbLine
 10
5.245725140726316
 20
7.84717430164391
 30
0.0
 11
8.692000384563599
 21
7.84717430164391
 31
0.0
  0
LINE
  5
85
330
7E
100
AcDbEntity
  8
중심선
100
AcDbLine
 10
15.74043728645272
 20
16.24717430164393
 30
0.0
 11
8.692000384563599
 21
7.84717430164391
 31
0.0
  0
LINE
  5
86
330
7E
100
AcDbEntity
  8
중심선
100
AcDbLine
 10
0.1404042013395286
 20
13.71084872107135
 30
0.0
 11
3.58671253028996
 21
13.71088815037384
 31
0.0
  0
LINE
  5
87
330
7E
100
AcDbEntity
  8
중심선
100
AcDbLine
 10
2.750260043222114
 20
10.84717430164391
 30
0.0
 11
6.196535287059397
 21
10.84717430164391
 31
0.0
  0
LINE
  5
88
330
7E
100
AcDbEntity
  8
중심선
100
AcDbLine
 10
12.29416204261559
 20
16.24717430164393
 30
0.0
 11
5.245725140726316
 21
7.84717430164391
 31
0.0
  0
LINE
  5
89
330
7E
100
AcDbEntity
  8
중심선
100
AcDbLine
 10
10.72767329541681
 20
16.24717430164393
 30
0.0
 11
6.196535287059397
 21
10.84717430164391
 31
0.0
  0
LINE
  5
8A
330
7E
100
AcDbEntity
  8
중심선
100
AcDbLine
 10
7.28139805157953
 20
16.24717430164393
 30
0.0
 11
2.750260043222114
 21
10.84717430164391
 31
0.0
  0
LINE
  5
8B
330
7E
100
AcDbEntity
  8
중심선
100
AcDbLine
 10
5.714909304380834
 20
16.24717430164393
 30
0.0
 11
3.58671253028996
 21
13.71088815037384
 31
0.0
  0
LINE
  5
8C
330
7E
100
AcDbEntity
  8
중심선
100
AcDbLine
 10
2.268634060543552
 20
16.24717430164393
 30
0.0
 11
0.1404042013395286
 21
13.71084872107135
 31
0.0
  0
LINE
  5
8D
330
7E
100
AcDbEntity
  8
중심선
100
AcDbLine
 10
7.28139805157953
 20
16.24717430164393
 30
0.0
 11
10.72767329541681
 21
16.24717430164393
 31
0.0
  0
LINE
  5
8E
330
7E
100
AcDbEntity
  8
중심선
100
AcDbLine
 10
12.29416204261559
 20
16.24717430164393
 30
0.0
 11
15.74043728645272
 21
16.24717430164393
 31
0.0
  0
LINE
  5
8F
330
7E
100
AcDbEntity
  8
중심선
100
AcDbLine
 10
19.22036997980202
 20
11.08717430171403
 30
0.0
 11
23.66174974927406
 21
11.08717430171406
 31
0.0
  0
LINE
  5
90
330
7E
100
AcDbEntity
  8
중심선
100
AcDbLine
 10
19.22039502424796
 20
13.00717430171391
 30
0.0
 11
19.22036997980202
 21
11.08717430171403
 31
0.0
  0
LINE
  5
91
330
7E
100
AcDbEntity
  8
중심선
100
AcDbLine
 10
19.22039502424796
 20
13.00717430171391
 30
0.0
 11
26.96566020931264
 21
13.00717430171391
 31
0.0
  0
LINE
  5
92
330
7E
100
AcDbEntity
  8
중심선
100
AcDbLine
 10
22.22332737316547
 20
13.45928029700563
 30
0.0
 11
24.52862924686651
 21
15.39360700705356
 31
0.0
  0
ATTDEF
  5
94
330
7E
100
AcDbEntity
  8
FORMAT
 62
     2
100
AcDbText
 10
-11.05102035218446
 20
2.075366912832191
 30
0.0
 40
4.233333333333333
  1
GMG22903[ 6 FLUTE ]
 41
0.75
  7
SLDTEXTSTYLE0
 11
-11.05102035218446
 21
-0.0412997538344756
 31
0.0
100
AcDbAttributeDefinition
  3

  2
AUTOATTR0
 70
     0
 74
     1
  0
ENDBLK
  5
80
330
7E
100
AcDbEntity
  8
0
100
AcDbBlockEnd
  0
BLOCK
  5
103
330
102
100
AcDbEntity
  8
0
100
AcDbBlockBegin
  2
_D
 70
     0
 10
0.0
 20
0.0
 30
0.0
  3
_D
  1
_D
  0
LINE
  5
105
330
102
100
AcDbEntity
  8
치수문자_일반주서
 62
     0
370
    -2
100
AcDbLine
 10
48.16201407992549
 20
-3.4372744311707
 30
0.0
 11
66.74475979569849
 21
-3.437274431170636
 31
0.0
  0
LINE
  5
106
330
102
100
AcDbEntity
  8
치수문자_일반주서
 62
     0
370
    -2
100
AcDbLine
 10
48.16201407992549
 20
2.912725568829322
 30
0.0
 11
66.74475979569846
 21
2.912725568829387
 31
0.0
  0
LINE
  5
107
330
102
100
AcDbEntity
  8
치수문자_일반주서
 62
     0
370
    -2
100
AcDbLine
 10
66.74475979569847
 20
-0.135274431170636
 30
0.0
 11
66.74475979569847
 21
-0.3892744311706129
 31
0.0
  0
SOLID
  5
108
330
102
100
AcDbEntity
  8
치수문자_일반주서
 62
     0
100
AcDbTrace
 10
66.19442646236514
 20
-0.1352744311706384
 30
0.0
 11
67.2950931290318
 21
-0.1352744311706335
 31
0.0
 12
66.74475979569849
 22
-3.437274431170636
 32
0.0
 13
66.74475979569849
 23
-3.437274431170636
 33
0.0
  0
SOLID
  5
109
330
102
100
AcDbEntity
  8
치수문자_일반주서
 62
     0
100
AcDbTrace
 10
67.2950931290318
 20
-0.3892744311706104
 30
0.0
 11
66.19442646236514
 21
-0.3892744311706153
 31
0.0
 12
66.74475979569846
 22
2.912725568829387
 32
0.0
 13
66.74475979569846
 23
2.912725568829387
 33
0.0
  0
MTEXT
  5
10A
330
102
100
AcDbEntity
  8
치수문자_일반주서
 62
     0
100
AcDbMText
 10
62.36975979569847
 20
-0.7588282158242279
 30
0.0
 40
3.5
 41
0.0
 71
     2
 72
     1
  1
\A1;%%c6.35 [1/4]
  7
SLDTEXTSTYLE0
 11
-4.475859752819513E-15
 21
1.0
 31
0.0
 73
     1
 44
1.0
  0
POINT
  5
10B
330
102
100
AcDbEntity
  8
Defpoints
 62
     0
100
AcDbPoint
 10
48.09951407992549
 20
-3.4372744311707
 30
0.0
  0
POINT
  5
10C
330
102
100
AcDbEntity
  8
Defpoints
 62
     0
100
AcDbPoint
 10
48.09951407992549
 20
2.912725568829322
 30
0.0
  0
POINT
  5
10D
330
102
100
AcDbEntity
  8
Defpoints
 62
     0
100
AcDbPoint
 10
66.74475979569847
 20
2.912725568829387
 30
0.0
  0
ENDBLK
  5
104
330
102
100
AcDbEntity
  8
0
100
AcDbBlockEnd
  0
BLOCK
  5
118
330
117
100
AcDbEntity
  8
0
100
AcDbBlockBegin
  2
_D_1
 70
     0
 10
0.0
 20
0.0
 30
0.0
  3
_D_1
  1
_D_1
  0
LINE
  5
11A
330
117
100
AcDbEntity
  8
치수문자_일반주서
 62
     0
370
    -2
100
AcDbLine
 10
-53.50048592007447
 20
2.475225568829304
 30
0.0
 11
-53.50048592007447
 21
35.56827698690109
 31
0.0
  0
LINE
  5
11B
330
117
100
AcDbEntity
  8
치수문자_일반주서
 62
     0
370
    -2
100
AcDbLine
 10
48.09951407992552
 20
2.213225568829313
 30
0.0
 11
48.09951407992552
 21
35.56827698690109
 31
0.0
  0
LINE
  5
11C
330
117
100
AcDbEntity
  8
치수문자_일반주서
 62
     0
370
    -2
100
AcDbLine
 10
-50.19848592007448
 20
35.56827698690109
 30
0.0
 11
44.79751407992552
 21
35.56827698690109
 31
0.0
  0
SOLID
  5
11D
330
117
100
AcDbEntity
  8
치수문자_일반주서
 62
     0
100
AcDbTrace
 10
-50.19848592007448
 20
36.11861032023442
 30
0.0
 11
-50.19848592007448
 21
35.01794365356776
 31
0.0
 12
-53.50048592007447
 22
35.56827698690109
 32
0.0
 13
-53.50048592007447
 23
35.56827698690109
 33
0.0
  0
SOLID
  5
11E
330
117
100
AcDbEntity
  8
치수문자_일반주서
 62
     0
100
AcDbTrace
 10
44.79751407992552
 20
35.01794365356776
 30
0.0
 11
44.79751407992552
 21
36.11861032023442
 31
0.0
 12
48.09951407992552
 22
35.56827698690109
 32
0.0
 13
48.09951407992552
 23
35.56827698690109
 33
0.0
  0
MTEXT
  5
11F
330
117
100
AcDbEntity
  8
치수문자_일반주서
 62
     0
100
AcDbMText
 10
-2.700485920074479
 20
39.94327698690109
 30
0.0
 40
3.5
 41
0.0
 71
     2
 72
     1
  1
\A1;101.60 [4]
  7
SLDTEXTSTYLE0
 73
     1
 44
1.0
  0
POINT
  5
120
330
117
100
AcDbEntity
  8
Defpoints
 62
     0
100
AcDbPoint
 10
-53.50048592007447
 20
2.412725568829304
 30
0.0
  0
POINT
  5
121
330
117
100
AcDbEntity
  8
Defpoints
 62
     0
100
AcDbPoint
 10
48.09951407992552
 20
2.150725568829313
 30
0.0
  0
POINT
  5
122
330
117
100
AcDbEntity
  8
Defpoints
 62
     0
100
AcDbPoint
 10
48.09951407992552
 20
35.56827698690109
 30
0.0
  0
ENDBLK
  5
119
330
117
100
AcDbEntity
  8
0
100
AcDbBlockEnd
  0
BLOCK
  5
12B
330
12A
100
AcDbEntity
  8
0
100
AcDbBlockBegin
  2
_D_2
 70
     0
 10
0.0
 20
0.0
 30
0.0
  3
_D_2
  1
_D_2
  0
LINE
  5
12D
330
12A
100
AcDbEntity
  8
치수문자_일반주서
 62
     0
370
    -2
100
AcDbLine
 10
48.09951407992552
 20
2.213225568829313
 30
0.0
 11
48.09951407992551
 21
19.77772009916724
 31
0.0
  0
LINE
  5
12E
330
12A
100
AcDbEntity
  8
치수문자_일반주서
 62
     0
370
    -2
100
AcDbLine
 10
9.999514079923859
 20
-3.371067873858495
 30
0.0
 11
9.999514079923848
 21
19.77772009916724
 31
0.0
  0
LINE
  5
12F
330
12A
100
AcDbEntity
  8
치수문자_일반주서
 62
     0
370
    -2
100
AcDbLine
 10
44.79751407992551
 20
19.77772009916724
 30
0.0
 11
13.30151407992385
 21
19.77772009916724
 31
0.0
  0
SOLID
  5
130
330
12A
100
AcDbEntity
  8
치수문자_일반주서
 62
     0
100
AcDbTrace
 10
44.79751407992551
 20
19.22738676583391
 30
0.0
 11
44.79751407992551
 21
20.32805343250058
 31
0.0
 12
48.09951407992551
 22
19.77772009916724
 32
0.0
 13
48.09951407992551
 23
19.77772009916724
 33
0.0
  0
SOLID
  5
131
330
12A
100
AcDbEntity
  8
치수문자_일반주서
 62
     0
100
AcDbTrace
 10
13.30151407992385
 20
20.32805343250058
 30
0.0
 11
13.30151407992385
 21
19.22738676583391
 31
0.0
 12
9.999514079923848
 22
19.77772009916724
 32
0.0
 13
9.999514079923848
 23
19.77772009916724
 33
0.0
  0
MTEXT
  5
132
330
12A
100
AcDbEntity
  8
치수문자_일반주서
 62
     0
100
AcDbMText
 10
28.63041577777775
 20
24.15272009916724
 30
0.0
 40
3.5
 41
0.0
 71
     2
 72
     1
  1
\A1;38.10 [1 1/2]
  7
SLDTEXTSTYLE0
 73
     1
 44
1.0
  0
POINT
  5
133
330
12A
100
AcDbEntity
  8
Defpoints
 62
     0
100
AcDbPoint
 10
48.09951407992552
 20
2.150725568829313
 30
0.0
  0
POINT
  5
134
330
12A
100
AcDbEntity
  8
Defpoints
 62
     0
100
AcDbPoint
 10
9.999514079923859
 20
-3.433567873858495
 30
0.0
  0
POINT
  5
135
330
12A
100
AcDbEntity
  8
Defpoints
 62
     0
100
AcDbPoint
 10
9.999514079923859
 20
19.77772009916724
 30
0.0
  0
ENDBLK
  5
12C
330
12A
100
AcDbEntity
  8
0
100
AcDbBlockEnd
  0
BLOCK
  5
13E
330
13D
100
AcDbEntity
  8
0
100
AcDbBlockBegin
  2
_D_3
 70
     0
 10
0.0
 20
0.0
 30
0.0
  3
_D_3
  1
_D_3
  0
LINE
  5
140
330
13D
100
AcDbEntity
  8
치수문자_일반주서
 62
     0
370
    -2
100
AcDbLine
 10
-53.06298592007447
 20
2.912725568829309
 30
0.0
 11
-66.5004859200745
 21
2.912725568829261
 31
0.0
  0
LINE
  5
141
330
13D
100
AcDbEntity
  8
치수문자_일반주서
 62
     0
370
    -2
100
AcDbLine
 10
-53.06298592007447
 20
-3.437274431170691
 30
0.0
 11
-66.50048592007447
 21
-3.437274431170738
 31
0.0
  0
LINE
  5
142
330
13D
100
AcDbEntity
  8
치수문자_일반주서
 62
     0
370
    -2
100
AcDbLine
 10
-66.50048592007448
 20
-0.3892744311707381
 30
0.0
 11
-66.50048592007448
 21
-0.1352744311707386
 31
0.0
  0
SOLID
  5
143
330
13D
100
AcDbEntity
  8
치수문자_일반주서
 62
     0
100
AcDbTrace
 10
-65.95015258674115
 20
-0.3892744311707357
 30
0.0
 11
-67.05081925340781
 21
-0.3892744311707406
 31
0.0
 12
-66.5004859200745
 22
2.912725568829261
 32
0.0
 13
-66.5004859200745
 23
2.912725568829261
 33
0.0
  0
SOLID
  5
144
330
13D
100
AcDbEntity
  8
치수문자_일반주서
 62
     0
100
AcDbTrace
 10
-67.05081925340781
 20
-0.135274431170741
 30
0.0
 11
-65.95015258674115
 21
-0.1352744311707361
 31
0.0
 12
-66.50048592007447
 22
-3.437274431170738
 32
0.0
 13
-66.50048592007447
 23
-3.437274431170738
 33
0.0
  0
MTEXT
  5
145
330
13D
100
AcDbEntity
  8
치수문자_일반주서
 62
     0
100
AcDbMText
 10
-70.87548592007448
 20
-0.2622744311707125
 30
0.0
 40
3.5
 41
0.0
 71
     2
 72
     1
  1
\A1;%%c6.35 [1/4]
  7
SLDTEXTSTYLE0
 11
-4.475859752819529E-15
 21
1.0
 31
0.0
 73
     1
 44
1.0
  0
POINT
  5
146
330
13D
100
AcDbEntity
  8
Defpoints
 62
     0
100
AcDbPoint
 10
-53.00048592007447
 20
2.912725568829309
 30
0.0
  0
POINT
  5
147
330
13D
100
AcDbEntity
  8
Defpoints
 62
     0
100
AcDbPoint
 10
-53.00048592007447
 20
-3.437274431170691
 30
0.0
  0
POINT
  5
148
330
13D
100
AcDbEntity
  8
Defpoints
 62
     0
100
AcDbPoint
 10
-66.50048592007448
 20
-3.437274431170738
 30
0.0
  0
ENDBLK
  5
13F
330
13D
100
AcDbEntity
  8
0
100
AcDbBlockEnd
  0
BLOCK
  5
151
330
150
100
AcDbEntity
  8
0
100
AcDbBlockBegin
  2
SW_DOWELSYMBOL_0
 70
     0
 10
0.0
 20
0.0
 30
0.0
  3
SW_DOWELSYMBOL_0
  1
SW_DOWELSYMBOL_0
  0
CIRCLE
  5
153
330
150
100
AcDbEntity
  8
외형선
 62
     0
100
AcDbCircle
 10
0.0
 20
0.0
 30
0.0
 40
3.000000000000001
  0
HATCH
  5
154
330
150
100
AcDbEntity
  8
0
  6
Continuous
 62
     0
370
    30
100
AcDbHatch
 10
0.0
 20
0.0
 30
0.0
210
0.0
220
0.0
230
1.0
  2
SOLID
 70
     1
 71
     0
 91
        1
 92
        0
 93
        3
 72
     2
 10
0.0
 20
0.0
 40
3.000000000000001
 50
0.0
 51
90.0
 73
     1
 72
     1
 10
0.0
 20
3.000000000000001
 11
0.0
 21
0.0
 72
     1
 10
0.0
 20
0.0
 11
3.000000000000001
 21
0.0
 97
        0
 75
     0
 76
     1
 98
        1
 10
0.0
 20
0.0
  0
HATCH
  5
155
330
150
100
AcDbEntity
  8
0
  6
Continuous
 62
     0
370
    30
100
AcDbHatch
 10
0.0
 20
0.0
 30
0.0
210
0.0
220
0.0
230
1.0
  2
SOLID
 70
     1
 71
     0
 91
        1
 92
        0
 93
        3
 72
     2
 10
0.0
 20
0.0
 40
3.000000000000001
 50
180.0
 51
270.0000000000008
 73
     1
 72
     1
 10
0.0
 20
-3.000000000000001
 11
0.0
 21
0.0
 72
     1
 10
0.0
 20
0.0
 11
-3.000000000000001
 21
0.0
 97
        0
 75
     0
 76
     1
 98
        1
 10
0.0
 20
0.0
  0
ENDBLK
  5
152
330
150
100
AcDbEntity
  8
0
100
AcDbBlockEnd
  0
BLOCK
  5
183
330
182
100
AcDbEntity
  8
0
100
AcDbBlockBegin
  2
*D7
 70
     1
 10
0.0
 20
0.0
 30
0.0
  3
*D7
  1
*D7
  0
LINE
  5
185
330
182
100
AcDbEntity
  8
치수문자_일반주서
 62
     0
370
    -2
100
AcDbLine
 10
50.08259171930056
 20
5.355840636422515
 30
0.0
 11
70.90702825471995
 21
30.23260610905028
 31
0.0
  0
MTEXT
  5
186
330
182
100
AcDbEntity
  8
치수문자_일반주서
 62
     0
100
AcDbMText
 10
59.90773718665514
 20
21.18240053127527
 30
0.0
 40
3.5
 41
0.0
 71
     5
 72
     1
  1
\A1;R.38 [R0.015]
  7
SLDTEXTSTYLE0
 11
0.6418891228278677
 21
0.7667974660855829
 31
0.0
 73
     1
 44
1.0
  0
SOLID
  5
187
330
182
100
AcDbEntity
  8
치수문자_일반주서
 62
     0
100
AcDbTrace
 10
49.66059751379813
 20
5.709093617018785
 30
0.0
 11
50.50458592480299
 21
5.002587655826246
 31
0.0
 12
47.96307383572294
 22
2.823875403407921
 32
0.0
 13
47.96307383572294
 23
2.823875403407921
 33
0.0
  0
LINE
  5
188
330
182
100
AcDbEntity
  8
치수문자_일반주서
 62
     0
100
AcDbLine
 10
47.62851407992552
 20
2.531725568829313
 30
0.0
 11
47.80851407992552
 21
2.531725568829313
 31
0.0
  0
LINE
  5
189
330
182
100
AcDbEntity
  8
치수문자_일반주서
 62
     0
100
AcDbLine
 10
47.71851407992552
 20
2.441725568829313
 30
0.0
 11
47.71851407992552
 21
2.621725568829313
 31
0.0
  0
POINT
  5
18A
330
182
100
AcDbEntity
  8
Defpoints
 62
     0
100
AcDbPoint
 10
47.96307383572294
 20
2.823875403407921
 30
0.0
  0
POINT
  5
18B
330
182
100
AcDbEntity
  8
Defpoints
 62
     0
100
AcDbPoint
 10
47.71851407992552
 20
2.531725568829313
 30
0.0
  0
ENDBLK
  5
184
330
182
100
AcDbEntity
  8
0
100
AcDbBlockEnd
  0
ENDSEC
  0
SECTION
  2
ENTITIES
  0
LINE
  5
95
330
1F
100
AcDbEntity
  8
0
  6
Continuous
 62
     4
370
    15
100
AcDbLine
 10
8.486633888282611
 20
2.912725568829313
 30
0.0
 11
-53.00048592007447
 21
2.912725568829309
 31
0.0
  0
LINE
  5
96
330
1F
100
AcDbEntity
  8
0
  6
Continuous
 62
     4
370
    15
100
AcDbLine
 10
-53.00048592007447
 20
-3.437274431170691
 30
0.0
 11
8.486633888282604
 21
-3.437274431170688
 31
0.0
  0
LINE
  5
97
330
1F
100
AcDbEntity
  8
0
  6
Continuous
 62
     4
370
    15
100
AcDbLine
 10
-53.00048592007447
 20
2.912725568829305
 30
0.0
 11
-53.50048592007447
 21
2.412725568829304
 31
0.0
  0
LINE
  5
98
330
1F
100
AcDbEntity
  8
0
  6
Continuous
 62
     4
370
    15
100
AcDbLine
 10
-53.50048592007447
 20
-2.937274431170688
 30
0.0
 11
-53.00048592007447
 21
-3.437274431170688
 31
0.0
  0
LINE
  5
99
330
1F
100
AcDbEntity
  8
0
  6
Continuous
 62
     1
370
    15
100
AcDbLine
 10
46.72451158382646
 20
-3.437274431170688
 30
0.0
 11
47.71851407992552
 21
-3.437274431170688
 31
0.0
  0
LINE
  5
9A
330
1F
100
AcDbEntity
  8
0
  6
Continuous
 62
     1
370
    15
100
AcDbLine
 10
26.77582508162096
 20
-3.437274431170688
 30
0.0
 11
27.86122860385886
 21
-3.437274431170688
 31
0.0
  0
LINE
  5
9B
330
1F
100
AcDbEntity
  8
0
  6
Continuous
 62
     1
370
    15
100
AcDbLine
 10
17.88658149804247
 20
2.912725568829313
 30
0.0
 11
16.80173659319177
 21
2.912725568829313
 31
0.0
  0
LINE
  5
9C
330
1F
100
AcDbEntity
  8
0
  6
Continuous
 62
     1
370
    15
100
AcDbLine
 10
37.83606886167398
 20
2.912725568829313
 30
0.0
 11
36.75008875128827
 21
2.912725568829313
 31
0.0
  0
LINE
  5
9D
330
1F
100
AcDbEntity
  8
0
  6
Continuous
 62
     1
370
    15
100
AcDbLine
 10
36.75008875128827
 20
-3.437274431170688
 30
0.0
 11
37.83606886167396
 21
-3.437274431170688
 31
0.0
  0
LINE
  5
9E
330
1F
100
AcDbEntity
  8
0
  6
Continuous
 62
     1
370
    15
100
AcDbLine
 10
16.80173659319176
 20
-3.437274431170688
 30
0.0
 11
17.88658149804245
 21
-3.437274431170688
 31
0.0
  0
LINE
  5
9F
330
1F
100
AcDbEntity
  8
0
  6
Continuous
 62
     1
370
    15
100
AcDbLine
 10
27.86122860385883
 20
2.912725568829313
 30
0.0
 11
26.77582508162094
 21
2.912725568829313
 31
0.0
  0
LINE
  5
A0
330
1F
100
AcDbEntity
  8
0
  6
Continuous
 62
     1
370
    15
100
AcDbLine
 10
47.71851407992552
 20
2.912725568829313
 30
0.0
 11
46.72451158382646
 21
2.912725568829313
 31
0.0
  0
LINE
  5
A1
330
1F
100
AcDbEntity
  8
0
  6
Continuous
 62
     1
370
    15
100
AcDbLine
 10
40.07600535399138
 20
-3.437274431170688
 30
0.0
 11
41.16138739807172
 21
-3.437274431170688
 31
0.0
  0
LINE
  5
A2
330
1F
100
AcDbEntity
  8
0
  6
Continuous
 62
     1
370
    15
100
AcDbLine
 10
20.12705645989272
 20
-3.437274431170688
 30
0.0
 11
21.21250500409033
 21
-3.437274431170688
 31
0.0
  0
LINE
  5
A3
330
1F
100
AcDbEntity
  8
0
  6
Continuous
 62
     1
370
    15
100
AcDbLine
 10
11.2380004566867
 20
2.912725568829313
 30
0.0
 11
10.15238888830722
 21
2.912725568829313
 31
0.0
  0
LINE
  5
A4
330
1F
100
AcDbEntity
  8
0
  6
Continuous
 62
     1
370
    15
100
AcDbLine
 10
31.18696018165394
 20
2.912725568829313
 30
0.0
 11
30.10155419989381
 21
2.912725568829313
 31
0.0
  0
LINE
  5
A5
330
1F
100
AcDbEntity
  8
0
  6
Continuous
 62
     1
370
    15
100
AcDbLine
 10
30.10155419989383
 20
-3.437274431170688
 30
0.0
 11
31.18696018165396
 21
-3.437274431170688
 31
0.0
  0
LINE
  5
A6
330
1F
100
AcDbEntity
  8
0
  6
Continuous
 62
     1
370
    15
100
AcDbLine
 10
10.15238888830725
 20
-3.437274431170688
 30
0.0
 11
11.23800045668671
 21
-3.437274431170688
 31
0.0
  0
LINE
  5
A7
330
1F
100
AcDbEntity
  8
0
  6
Continuous
 62
     1
370
    15
100
AcDbLine
 10
21.21250500409034
 20
2.912725568829313
 30
0.0
 11
20.12705645989274
 21
2.912725568829313
 31
0.0
  0
LINE
  5
A8
330
1F
100
AcDbEntity
  8
0
  6
Continuous
 62
     1
370
    15
100
AcDbLine
 10
41.16138739807175
 20
2.912725568829313
 30
0.0
 11
40.07600535399139
 21
2.912725568829313
 31
0.0
  0
LINE
  5
A9
330
1F
100
AcDbEntity
  8
0
  6
Continuous
 62
     1
370
    15
100
AcDbLine
 10
33.42530054707326
 20
-3.437274431170688
 30
0.0
 11
34.51237496719921
 21
-3.437274431170688
 31
0.0
  0
LINE
  5
AA
330
1F
100
AcDbEntity
  8
0
  6
Continuous
 62
     1
370
    15
100
AcDbLine
 10
13.47603618774436
 20
-3.437274431170688
 30
0.0
 11
14.56218513398164
 21
-3.437274431170688
 31
0.0
  0
LINE
  5
AB
330
1F
100
AcDbEntity
  8
0
  6
Continuous
 62
     1
370
    15
100
AcDbLine
 10
24.53733360211928
 20
2.912725568829313
 30
0.0
 11
23.45049625348098
 21
2.912725568829313
 31
0.0
  0
LINE
  5
AC
330
1F
100
AcDbEntity
  8
0
  6
Continuous
 62
     1
370
    15
100
AcDbLine
 10
44.48716890052069
 20
2.912725568829313
 30
0.0
 11
43.40033458411463
 21
2.912725568829313
 31
0.0
  0
LINE
  5
AD
330
1F
100
AcDbEntity
  8
0
  6
Continuous
 62
     1
370
    15
100
AcDbLine
 10
43.40033458411462
 20
-3.437274431170688
 30
0.0
 11
44.48716890052069
 21
-3.437274431170688
 31
0.0
  0
LINE
  5
AE
330
1F
100
AcDbEntity
  8
0
  6
Continuous
 62
     1
370
    15
100
AcDbLine
 10
23.45049625348097
 20
-3.437274431170688
 30
0.0
 11
24.53733360211927
 21
-3.437274431170688
 31
0.0
  0
LINE
  5
AF
330
1F
100
AcDbEntity
  8
0
  6
Continuous
 62
     1
370
    15
100
AcDbLine
 10
14.56218513398165
 20
2.912725568829313
 30
0.0
 11
13.47603618774434
 21
2.912725568829313
 31
0.0
  0
LINE
  5
B0
330
1F
100
AcDbEntity
  8
0
  6
Continuous
 62
     1
370
    15
100
AcDbLine
 10
34.51237496719922
 20
2.912725568829313
 30
0.0
 11
33.42530054707322
 21
2.912725568829313
 31
0.0
  0
LINE
  5
B3
330
1F
100
AcDbEntity
  8
0
  6
Continuous
 62
     4
370
    15
100
AcDbLine
 10
-53.00048592007447
 20
2.912725568829305
 30
0.0
 11
-53.00048592007447
 21
-3.437274431170691
 31
0.0
  0
SPLINE
  5
B4
330
1F
100
AcDbEntity
  8
0
  6
Continuous
 62
     4
370
    15
100
AcDbSpline
210
0.0
220
0.0
230
1.0
 70
     8
 71
     3
 72
    12
 73
     8
 74
     0
 42
0.000000001
 43
0.00000001
 40
0.0
 40
0.0
 40
0.0
 40
0.0
 40
0.5000000000000001
 40
0.5000000000000001
 40
0.75
 40
0.75
 40
1.0
 40
1.0
 40
1.0
 40
1.0
 10
9.999514079925522
 20
2.251836789911292
 30
0.0
 10
9.781735981704191
 20
2.384890601062766
 30
0.0
 10
9.560752979435163
 20
2.500640618302071
 30
0.0
 10
9.234913560133108
 20
2.642911509046646
 30
0.0
 10
9.127727094252679
 20
2.685117538513523
 30
0.0
 10
8.910118691573217
 20
2.759419615960561
 30
0.0
 10
8.800468798881228
 20
2.791385694242632
 30
0.0
 10
8.690841874939114
 20
2.817872646111843
 30
0.0
  0
LINE
  5
B5
330
1F
100
AcDbEntity
  8
0
  6
Continuous
 62
     4
370
    15
100
AcDbLine
 10
9.999514079925522
 20
2.251836789910698
 30
0.0
 11
9.999514079925522
 21
1.456196140779783
 31
0.0
  0
SPLINE
  5
B6
330
1F
100
AcDbEntity
  8
0
  6
Continuous
 62
     4
370
    15
100
AcDbSpline
210
0.0
220
0.0
230
1.0
 70
     8
 71
     3
 72
     8
 73
     4
 74
     0
 42
0.000000001
 43
0.00000001
 40
0.0
 40
0.0
 40
0.0
 40
0.0
 40
1.0
 40
1.0
 40
1.0
 40
1.0
 10
9.999514079925522
 20
1.456196140779783
 30
0.0
 10
9.846368749364588
 20
1.585020680253937
 30
0.0
 10
9.691636823465586
 20
1.708254206298108
 30
0.0
 10
9.537743091716989
 20
1.823932247801349
 30
0.0
  0
SPLINE
  5
B7
330
1F
100
AcDbEntity
  8
0
  6
Continuous
 62
     4
370
    15
100
AcDbSpline
210
0.0
220
0.0
230
1.0
 70
     8
 71
     3
 72
    14
 73
    10
 74
     0
 42
0.000000001
 43
0.00000001
 40
0.0
 40
0.0
 40
0.0
 40
0.0
 40
0.2499999999999999
 40
0.2499999999999999
 40
0.4999999999999999
 40
0.4999999999999999
 40
0.7499999999999999
 40
0.7499999999999999
 40
1.0
 40
1.0
 40
1.0
 40
1.0
 10
8.479145221934683
 20
1.2544707143938
 30
0.0
 10
8.479145221934715
 20
1.377980429568854
 30
0.0
 10
8.48250341163961
 20
1.497781523131201
 30
0.0
 10
8.567574707450152
 20
1.715240229577085
 30
0.0
 10
8.647871647358672
 20
1.808189524570303
 30
0.0
 10
8.878104475283155
 20
1.932050917474409
 30
0.0
 10
9.02012827177507
 20
1.960150942227541
 30
0.0
 10
9.303025195731076
 20
1.94396009421579
 30
0.0
 10
9.436950083975942
 20
1.899695812695534
 30
0.0
 10
9.537743091716205
 20
1.823932247798415
 30
0.0
  0
SPLINE
  5
B8
330
1F
100
AcDbEntity
  8
0
  6
Continuous
 62
     4
370
    15
100
AcDbSpline
210
0.0
220
0.0
230
1.0
 70
     8
 71
     3
 72
    10
 73
     6
 74
     0
 42
0.000000001
 43
0.00000001
 40
0.0
 40
0.0
 40
0.0
 40
0.0
 40
0.5
 40
0.5
 40
1.0
 40
1.0
 40
1.0
 40
1.0
 10
8.690841874939114
 20
0.610723971724332
 30
0.0
 10
8.60142525149854
 20
0.6963413401522994
 30
0.0
 10
8.54282023343543
 20
0.8049203890022206
 30
0.0
 10
8.481341760767059
 20
1.029472756811724
 30
0.0
 10
8.479145221934656
 20
1.144430705517145
 30
0.0
 10
8.479145221934685
 20
1.254470714390375
 30
0.0
  0
SPLINE
  5
B9
330
1F
100
AcDbEntity
  8
0
  6
Continuous
 62
     4
370
    15
100
AcDbSpline
210
0.0
220
0.0
230
1.0
 70
     8
 71
     3
 72
    12
 73
     8
 74
     0
 42
0.000000001
 43
0.00000001
 40
0.0
 40
0.0
 40
0.0
 40
0.0
 40
0.5
 40
0.5
 40
0.75
 40
0.75
 40
1.0
 40
1.0
 40
1.0
 40
1.0
 10
9.999514079925522
 20
-0.6844753007488438
 30
0.0
 10
9.78173598170419
 20
-0.4685465243523193
 30
0.0
 10
9.560752979435163
 20
-0.2485641149171293
 30
0.0
 10
9.234913560133108
 20
0.0770915503418518
 30
0.0
 10
9.127727094252679
 20
0.1847647619272895
 30
0.0
 10
8.910118691573217
 20
0.3992272271857848
 30
0.0
 10
8.800468798881228
 20
0.5057550255080299
 30
0.0
 10
8.690841874939114
 20
0.6107239717243313
 30
0.0
  0
LINE
  5
BA
330
1F
100
AcDbEntity
  8
0
  6
Continuous
 62
     4
370
    15
100
AcDbLine
 10
9.999514079925522
 20
-0.6844753007480984
 30
0.0
 11
9.999514079925522
 21
-1.715097301908112
 31
0.0
  0
SPLINE
  5
BB
330
1F
100
AcDbEntity
  8
0
  6
Continuous
 62
     4
370
    15
100
AcDbSpline
210
0.0
220
0.0
230
1.0
 70
     8
 71
     3
 72
     8
 73
     4
 74
     0
 42
0.000000001
 43
0.00000001
 40
0.0
 40
0.0
 40
0.0
 40
0.0
 40
1.0
 40
1.0
 40
1.0
 40
1.0
 10
9.999514079925522
 20
-1.715097301908112
 30
0.0
 10
9.84636874936459
 20
-1.578872009414018
 30
0.0
 10
9.691636823465586
 20
-1.437077842556306
 30
0.0
 10
9.537743091716989
 20
-1.29191685985686
 30
0.0
  0
SPLINE
  5
BC
330
1F
100
AcDbEntity
  8
0
  6
Continuous
 62
     4
370
    15
100
AcDbSpline
210
0.0
220
0.0
230
1.0
 70
     8
 71
     3
 72
    14
 73
    10
 74
     0
 42
0.000000001
 43
0.00000001
 40
0.0
 40
0.0
 40
0.0
 40
0.0
 40
0.2500000000000001
 40
0.2500000000000001
 40
0.5000000000000001
 40
0.5000000000000001
 40
0.7500000000000002
 40
0.7500000000000002
 40
1.0
 40
1.0
 40
1.0
 40
1.0
 10
8.479145221934683
 20
-1.919493270982097
 30
0.0
 10
8.479145221934715
 20
-1.799574781101929
 30
0.0
 10
8.482503411639613
 20
-1.673684350436024
 30
0.0
 10
8.567574707450152
 20
-1.427841166422384
 30
0.0
 10
8.647871647358672
 20
-1.31285005330218
 30
0.0
 10
8.878104475283155
 20
-1.153681918160837
 30
0.0
 10
9.02012827177507
 20
-1.114778512819474
 30
0.0
 10
9.303025195731076
 20
-1.136519392699011
 30
0.0
 10
9.436950083975942
 20
-1.196843383591295
 30
0.0
 10
9.537743091716205
 20
-1.291916859856598
 30
0.0
  0
SPLINE
  5
BD
330
1F
100
AcDbEntity
  8
0
  6
Continuous
 62
     4
370
    15
100
AcDbSpline
210
0.0
220
0.0
230
1.0
 70
     8
 71
     3
 72
    10
 73
     6
 74
     0
 42
0.000000001
 43
0.00000001
 40
0.0
 40
0.0
 40
0.0
 40
0.0
 40
0.5
 40
0.5
 40
1.0
 40
1.0
 40
1.0
 40
1.0
 10
8.690841874939114
 20
-2.469423105558211
 30
0.0
 10
8.60142525149854
 20
-2.405409679995852
 30
0.0
 10
8.54282023343543
 20
-2.320444418186922
 30
0.0
 10
8.481341760767059
 20
-2.130357624913115
 30
0.0
 10
8.479145221934655
 20
-2.026333705931975
 30
0.0
 10
8.479145221934683
 20
-1.919493270976885
 30
0.0
  0
SPLINE
  5
BE
330
1F
100
AcDbEntity
  8
0
  6
Continuous
 62
     4
370
    15
100
AcDbSpline
210
0.0
220
0.0
230
1.0
 70
     8
 71
     3
 72
    12
 73
     8
 74
     0
 42
0.000000001
 43
0.00000001
 40
0.0
 40
0.0
 40
0.0
 40
0.0
 40
0.5
 40
0.5
 40
0.75
 40
0.75
 40
1.0
 40
1.0
 40
1.0
 40
1.0
 10
9.999514079925522
 20
-3.198586521830848
 30
0.0
 10
9.781735981704191
 20
-3.115711556585797
 30
0.0
 10
9.560752979435163
 20
-3.01147916438991
 30
0.0
 10
9.234913560133108
 20
-2.828094389875501
 30
0.0
 10
9.127727094252679
 20
-2.762627207756939
 30
0.0
 10
8.910118691573217
 20
-2.622466819945481
 30
0.0
 10
8.800468798881228
 20
-2.547905099905305
 30
0.0
 10
8.690841874939114
 20
-2.469423105558213
 30
0.0
  0
LINE
  5
BF
330
1F
100
AcDbEntity
  8
0
  6
Continuous
 62
     1
370
    15
100
AcDbLine
 10
9.999514079925522
 20
-3.198586521829509
 30
0.0
 11
9.999514079925524
 21
-3.433567873858578
 31
0.0
  0
SPLINE
  5
C0
330
1F
100
AcDbEntity
  8
0
  6
Continuous
 62
     4
370
    15
100
AcDbSpline
210
0.0
220
0.0
230
1.0
 70
     8
 71
     3
 72
     8
 73
     4
 74
     0
 42
0.000000001
 43
0.00000001
 40
0.0
 40
0.0
 40
0.0
 40
0.0
 40
1.0
 40
1.0
 40
1.0
 40
1.0
 10
9.999514079925524
 20
-3.433567873858577
 30
0.0
 10
9.84636874936459
 20
-3.426167120838637
 30
0.0
 10
9.691636823465586
 20
-3.407606480025096
 30
0.0
 10
9.537743091716989
 20
-3.378123538828892
 30
0.0
  0
SPLINE
  5
C1
330
1F
100
AcDbEntity
  8
0
  6
Continuous
 62
     4
370
    15
100
AcDbSpline
210
0.0
220
0.0
230
1.0
 70
     8
 71
     3
 72
    15
 73
    11
 74
     0
 42
0.000000001
 43
0.00000001
 40
0.0
 40
0.0
 40
0.0
 40
0.0
 40
0.1870671286946996
 40
0.3293807990164873
 40
0.4724026096395385
 40
0.6032607703478494
 40
0.7289466937727265
 40
0.8539651599871345
 40
0.9790238129381179
 40
1.0
 40
1.0
 40
1.0
 40
1.0
 10
8.48663388828261
 20
-3.433468333758277
 30
0.0
 10
8.488512386733818
 20
-3.432338867995682
 30
0.0
 10
8.491819976501876
 20
-3.43035014695238
 30
0.0
 10
8.594032723185403
 20
-3.397241151291762
 30
0.0
 10
8.747813948581236
 20
-3.365389779817844
 30
0.0
 10
8.943298489045686
 20
-3.34266846511265
 30
0.0
 10
9.14954812757309
 20
-3.336900447574775
 30
0.0
 10
9.348307797668953
 20
-3.348377985423657
 30
0.0
 10
9.47358525340142
 20
-3.366099880864432
 30
0.0
 10
9.529685020093337
 20
-3.376613396034642
 30
0.0
 10
9.537743091716205
 20
-3.378123538825696
 30
0.0
  0
SPLINE
  5
C2
330
1F
100
AcDbEntity
  8
0
  6
Continuous
 62
     4
370
    15
100
AcDbSpline
210
0.0
220
0.0
230
1.0
 70
     8
 71
     3
 72
     8
 73
     4
 74
     0
 42
0.000000001
 43
0.00000001
 40
0.0
 40
0.0
 40
0.0
 40
0.0
 40
1.0
 40
1.0
 40
1.0
 40
1.0
 10
9.999514079925522
 20
2.909019011517203
 30
0.0
 10
9.846368749364588
 20
2.901618258497264
 30
0.0
 10
9.691636823465586
 20
2.883057617683725
 30
0.0
 10
9.537743091716989
 20
2.853574676487521
 30
0.0
  0
LINE
  5
C3
330
1F
100
AcDbEntity
  8
0
  6
Continuous
 62
     4
370
    15
100
AcDbLine
 10
8.479145221934683
 20
2.911689554205202
 30
0.0
 11
8.486633888282611
 21
2.9089194714169
 31
0.0
  0
SPLINE
  5
C4
330
1F
100
AcDbEntity
  8
0
  6
Continuous
 62
     4
370
    15
100
AcDbSpline
210
0.0
220
0.0
230
1.0
 70
     8
 71
     3
 72
    14
 73
    10
 74
     0
 42
0.000000001
 43
0.00000001
 40
0.0
 40
0.0
 40
0.0
 40
0.0
 40
0.25
 40
0.25
 40
0.5
 40
0.5
 40
0.75
 40
0.75
 40
1.0
 40
1.0
 40
1.0
 40
1.0
 10
8.514189896034377
 20
2.898726411766353
 30
0.0
 10
8.542276718744485
 20
2.888777146380138
 30
0.0
 10
8.592070798831907
 20
2.873778545894405
 30
0.0
 10
8.735343660491395
 20
2.844072735744541
 30
0.0
 10
8.829004859364408
 20
2.829654165457947
 30
0.0
 10
9.037774177009839
 20
2.813862137233919
 30
0.0
 10
9.150806883470421
 20
2.812917205495064
 30
0.0
 10
9.361538697170703
 20
2.825380677440904
 30
0.0
 10
9.45983637169406
 20
2.838649317152951
 30
0.0
 10
9.537743091716203
 20
2.853574676484326
 30
0.0
  0
SPLINE
  5
C5
330
1F
100
AcDbEntity
  8
0
  6
Continuous
 62
     4
370
    15
100
AcDbSpline
210
0.0
220
0.0
230
1.0
 70
     8
 71
     3
 72
    10
 73
     6
 74
     0
 42
0.000000001
 43
0.00000001
 40
0.0
 40
0.0
 40
0.0
 40
0.0
 40
0.5
 40
0.5
 40
1.0
 40
1.0
 40
1.0
 40
1.0
 10
8.690841874939114
 20
2.817872646111842
 30
0.0
 10
8.601425251498538
 20
2.83947658897745
 30
0.0
 10
8.54282023343543
 20
2.863090376018442
 30
0.0
 10
8.481341760767059
 20
2.897555950554141
 30
0.0
 10
8.479145221934655
 20
2.908489980278423
 30
0.0
 10
8.479145221934685
 20
2.911689554196564
 30
0.0
  0
SPLINE
  5
C6
330
1F
100
AcDbEntity
  8
0
  6
Continuous
 62
     4
370
    15
100
AcDbSpline
210
0.0
220
0.0
230
1.0
 70
    24
 71
     3
 72
    14
 73
    10
 74
     0
 42
0.000000001
 43
0.00000001
 40
0.0
 40
0.0
 40
0.0
 40
0.0
 40
0.25
 40
0.25
 40
0.5
 40
0.5
 40
0.75
 40
0.75
 40
1.0
 40
1.0
 40
1.0
 40
1.0
 10
9.999514079925522
 20
1.456196140779765
 30
0.0
 10
9.999514079925522
 20
1.344304608375491
 30
0.0
 10
9.999514079925522
 20
1.210110184919468
 30
0.0
 10
9.999514079925522
 20
0.8900246405068185
 30
0.0
 10
9.999514079925522
 20
0.7032837773613814
 30
0.0
 10
9.999514079925522
 20
0.294055752159225
 30
0.0
 10
9.999514079925522
 20
0.0713863636713441
 30
0.0
 10
9.999514079925522
 20
-0.3480918167838584
 30
0.0
 10
9.999514079925522
 20
-0.5425159556571092
 30
0.0
 10
9.999514079925522
 20
-0.6844753007480974
 30
0.0
  0
LINE
  5
C7
330
1F
100
AcDbEntity
  8
0
  6
Continuous
 62
     4
370
    15
100
AcDbLine
 10
-53.50048592007447
 20
2.412725568829304
 30
0.0
 11
-53.50048592007447
 21
-2.937274431170688
 31
0.0
  0
SPLINE
  5
C8
330
1F
100
AcDbEntity
  8
0
  6
Continuous
 62
     4
370
    15
100
AcDbSpline
210
0.0
220
0.0
230
1.0
 70
    24
 71
     3
 72
    12
 73
     8
 74
     0
 42
0.000000001
 43
0.00000001
 40
0.0
 40
0.0
 40
0.0
 40
0.0
 40
0.0437552209649977
 40
0.2847871789355718
 40
0.5258191369061452
 40
0.7668510948767187
 40
1.0
 40
1.0
 40
1.0
 40
1.0
 10
9.999514079925524
 20
-1.729772032653678
 30
0.0
 10
9.999514079925524
 20
-1.731613946933369
 30
0.0
 10
9.999514079925524
 20
-1.743602312206947
 30
0.0
 10
9.999514079925524
 20
-1.890857012231216
 30
0.0
 10
9.999514079925524
 20
-2.223396116933235
 30
0.0
 10
9.999514079925525
 20
-2.679613892967522
 30
0.0
 10
9.999514079925524
 20
-3.027523595249868
 30
0.0
 10
9.999514079925524
 20
-3.19858652182951
 30
0.0
  0
SPLINE
  5
C9
330
1F
100
AcDbEntity
  8
0
  6
Continuous
 62
     1
370
    15
100
AcDbSpline
210
0.0
220
0.0
230
1.0
 70
    24
 71
     3
 72
    11
 73
     7
 74
     0
 42
0.000000001
 43
0.00000001
 40
0.0
 40
0.0
 40
0.0
 40
0.0
 40
0.175977097526886
 40
0.4928254150533132
 40
0.8096737325797396
 40
1.0
 40
1.0
 40
1.0
 40
1.0
 10
9.999514079925522
 20
2.909019011517203
 30
0.0
 10
9.999514079925524
 20
2.825032927215338
 30
0.0
 10
9.999514079925524
 20
2.589829156744887
 30
0.0
 10
9.999514079925522
 20
2.295785326876046
 30
0.0
 10
9.999514079925524
 20
2.102718763542433
 30
0.0
 10
9.999514079925524
 20
2.107783479940807
 30
0.0
 10
9.999514079925524
 20
2.109684104688685
 30
0.0
  0
SPLINE
  5
CA
330
1F
100
AcDbEntity
  8
0
  6
Continuous
 62
     1
370
    15
100
AcDbSpline
210
0.0
220
0.0
230
1.0
 70
     8
 71
     3
 72
    26
 73
    22
 74
     0
 42
0.000000001
 43
0.00000001
 40
0.0
 40
0.0
 40
0.0
 40
0.0
 40
0.1249999999999999
 40
0.1249999999999999
 40
0.2499999999999998
 40
0.2499999999999998
 40
0.3749999999999998
 40
0.3749999999999998
 40
0.4999999999999997
 40
0.4999999999999997
 40
0.6249999999999996
 40
0.6249999999999996
 40
0.6874999999999997
 40
0.6874999999999997
 40
0.7499999999999997
 40
0.7499999999999997
 40
0.8124999999999998
 40
0.8124999999999998
 40
0.8749999999999999
 40
0.8749999999999999
 40
1.0
 40
1.0
 40
1.0
 40
1.0
 10
47.33751407992552
 20
2.853777985522707
 30
0.0
 10
47.4454460829083
 20
2.833090885389917
 30
0.0
 10
47.54584697539588
 20
2.784964605964199
 30
0.0
 10
47.73189943975889
 20
2.641884540226712
 30
0.0
 10
47.8142946062096
 20
2.548447056213495
 30
0.0
 10
47.94890796623413
 20
2.328912501145155
 30
0.0
 10
47.9991127408682
 20
2.204805545566856
 30
0.0
 10
48.06405441138104
 20
1.948523159335172
 30
0.0
 10
48.07839630213591
 20
1.819640081082451
 30
0.0
 10
48.09093574908007
 20
1.581120423872857
 30
0.0
 10
48.09131943480153
 20
1.472578870719557
 30
0.0
 10
48.07894973536918
 20
1.341189733547764
 30
0.0
 10
48.07245900679162
 20
1.303038765773946
 30
0.0
 10
48.04508592105797
 20
1.245523293489592
 30
0.0
 10
48.02398168916751
 20
1.227322947101425
 30
0.0
 10
47.95282345519013
 20
1.23310204158812
 30
0.0
 10
47.90212715047168
 20
1.2594507052213
 30
0.0
 10
47.79077170385837
 20
1.337615801176117
 30
0.0
 10
47.73160148808686
 20
1.386655617128361
 30
0.0
 10
47.55793244920176
 20
1.533253546449397
 30
0.0
 10
47.44527999761853
 20
1.631338660891365
 30
0.0
 10
47.3375140799255
 20
1.715581570174859
 30
0.0
  0
SPLINE
  5
CB
330
1F
100
AcDbEntity
  8
0
  6
Continuous
 62
     1
370
    15
100
AcDbSpline
210
0.0
220
0.0
230
1.0
 70
     8
 71
     3
 72
    15
 73
    11
 74
     0
 42
0.000000001
 43
0.00000001
 40
0.0
 40
0.0
 40
0.0
 40
0.0
 40
0.0841011763342519
 40
0.1687346263155603
 40
0.313887829419162
 40
0.458994463751221
 40
0.6041440917437625
 40
0.7494257269200442
 40
0.894840416394085
 40
1.0
 40
1.0
 40
1.0
 40
1.0
 10
9.999514079925225
 20
-0.6844753007485496
 30
0.0
 10
10.15830327013342
 20
-0.8417079058452436
 30
0.0
 10
10.47688662224068
 20
-1.157168236152271
 30
0.0
 10
11.07265222046651
 20
-1.712417104440416
 30
0.0
 10
11.78220347046336
 20
-2.318944727020634
 30
0.0
 10
12.60684120927411
 20
-2.882887095543165
 30
0.0
 10
13.43166958085926
 20
-3.273235728443376
 30
0.0
 10
14.25747921050824
 20
-3.454080111361055
 30
0.0
 10
15.00816900939433
 20
-3.44733999615472
 30
0.0
 10
15.48285539640382
 20
-3.288480032155415
 30
0.0
 10
15.68206907539706
 20
-3.221810587361747
 30
0.0
  0
SPLINE
  5
CC
330
1F
100
AcDbEntity
  8
0
  6
Continuous
 62
     1
370
    15
100
AcDbSpline
210
0.0
220
0.0
230
1.0
 70
     8
 71
     3
 72
    21
 73
    17
 74
     0
 42
0.000000001
 43
0.00000001
 40
0.0
 40
0.0
 40
0.0
 40
0.0
 40
0.0407324139561915
 40
0.1151190432474852
 40
0.1894638781457922
 40
0.2638127535341629
 40
0.3382114526828229
 40
0.4127004336758078
 40
0.4871528931706688
 40
0.561527366339927
 40
0.6358693099681695
 40
0.7102245958843952
 40
0.7846389255153364
 40
0.8591371453397496
 40
0.9335701668055488
 40
1.0
 40
1.0
 40
1.0
 40
1.0
 10
24.53733360211928
 20
2.886152803843821
 30
0.0
 10
24.68804373049402
 20
2.890284990632603
 30
0.0
 10
25.11398474653263
 20
2.901963488012013
 30
0.0
 10
25.81441494192183
 20
2.686142446095269
 30
0.0
 10
26.63899363706404
 20
2.272059678110545
 30
0.0
 10
27.46362891848602
 20
1.677490587613752
 30
0.0
 10
28.28901276091773
 20
0.9550226163737053
 30
0.0
 10
29.11556869021451
 20
0.1503633443257628
 30
0.0
 10
29.94166361177852
 20
-0.6820997016203143
 30
0.0
 10
30.76669948202035
 20
-1.486336854830664
 30
0.0
 10
31.59121230952421
 20
-2.208216788656649
 30
0.0
 10
32.41595605936575
 20
-2.799077494191722
 30
0.0
 10
33.24155307514702
 20
-3.220914820834262
 30
0.0
 10
34.06822201637546
 20
-3.438759451112196
 30
0.0
 10
34.86473326963463
 20
-3.460947220130892
 30
0.0
 10
35.3854504019144
 20
-3.305598140747078
 30
0.0
 10
35.63101657563897
 20
-3.232336715971407
 30
0.0
  0
SPLINE
  5
CD
330
1F
100
AcDbEntity
  8
0
  6
Continuous
 62
     1
370
    15
100
AcDbSpline
210
0.0
220
0.0
230
1.0
 70
     8
 71
     3
 72
    11
 73
     7
 74
     0
 42
0.000000001
 43
0.00000001
 40
0.0
 40
0.0
 40
0.0
 40
0.0
 40
0.1093517600184068
 40
0.3986670071300338
 40
0.6992916265104938
 40
1.0
 40
1.0
 40
1.0
 40
1.0
 10
44.48716890052069
 20
2.887550621721147
 30
0.0
 10
44.59108889333764
 20
2.894094878942812
 30
0.0
 10
44.96995314307934
 20
2.917953474725916
 30
0.0
 10
45.63410020907647
 20
2.73184909014356
 30
0.0
 10
46.48035178190339
 20
2.346693351154999
 30
0.0
 10
47.05176678488185
 20
1.925971696643778
 30
0.0
 10
47.3375140799256
 20
1.715581570174796
 30
0.0
  0
SPLINE
  5
CE
330
1F
100
AcDbEntity
  8
0
  6
Continuous
 62
     1
370
    15
100
AcDbSpline
210
0.0
220
0.0
230
1.0
 70
     8
 71
     3
 72
    17
 73
    13
 74
     0
 42
0.000000001
 43
0.00000001
 40
0.0
 40
0.0
 40
0.0
 40
0.0
 40
0.0702570127442843
 40
0.1409586798683833
 40
0.2622177500123931
 40
0.3834379172192697
 40
0.504694000762684
 40
0.6260603613651669
 40
0.7475378737719502
 40
0.8688812739601434
 40
0.9901264249772831
 40
1.0
 40
1.0
 40
1.0
 40
1.0
 10
9.999514079923859
 20
1.456196140781181
 30
0.0
 10
10.15830326831024
 20
1.318214613361268
 30
0.0
 10
10.47688661676236
 20
1.041378277860847
 30
0.0
 10
11.07265224911935
 20
0.4800963704095373
 30
0.0
 10
11.78220327442093
 20
-0.2292214970657401
 30
0.0
 10
12.60684192836319
 20
-1.055485646043657
 30
0.0
 10
13.43166689855776
 20
-1.828959486160455
 30
0.0
 10
14.25748923402562
 20
-2.495681156786508
 30
0.0
 10
15.08416576918793
 20
-3.018085064551765
 30
0.0
 10
15.9097918413205
 20
-3.332817068060118
 30
0.0
 10
16.4821254710089
 20
-3.466700692023886
 30
0.0
 10
16.77935448885568
 20
-3.43190880676813
 30
0.0
 10
16.80173659319176
 20
-3.429288888930078
 30
0.0
  0
SPLINE
  5
CF
330
1F
100
AcDbEntity
  8
0
  6
Continuous
 62
     1
370
    15
100
AcDbSpline
210
0.0
220
0.0
230
1.0
 70
     8
 71
     3
 72
    22
 73
    18
 74
     0
 42
0.000000001
 43
0.00000001
 40
0.0
 40
0.0
 40
0.0
 40
0.0
 40
0.0142485842518756
 40
0.0885902037328884
 40
0.1629358635292141
 40
0.2373313449309491
 40
0.3118171042723153
 40
0.3862663436951141
 40
0.4606376001652219
 40
0.534976328501218
 40
0.609328398548143
 40
0.6837395097561401
 40
0.7582345075293543
 40
0.8326643097637871
 40
0.9070252794812721
 40
0.9813630025988874
 40
1.0
 40
1.0
 40
1.0
 40
1.0
 10
25.65648973378296
 20
2.701798830118936
 30
0.0
 10
25.70917715878586
 20
2.724769833387097
 30
0.0
 10
26.03675985982184
 20
2.867591451556454
 30
0.0
 10
26.63897039798166
 20
2.934795995880914
 30
0.0
 10
27.46363515001141
 20
2.876524230130776
 30
0.0
 10
28.2890110881014
 20
2.589919844789543
 30
0.0
 10
29.11556913965377
 20
2.116430927144327
 30
0.0
 10
29.94166348701044
 20
1.481675874523617
 30
0.0
 10
30.76669953220946
 20
0.730049399345592
 30
0.0
 10
31.5912122334423
 20
-0.0881758823062109
 30
0.0
 10
32.41595631365286
 20
-0.918056646086397
 30
0.0
 10
33.24155213284934
 20
-1.704477431109365
 30
0.0
 10
34.06822553394842
 20
-2.392327224530914
 30
0.0
 10
34.89406530270488
 20
-2.941922399939628
 30
0.0
 10
35.7189618285696
 20
-3.294275627401687
 30
0.0
 10
36.33744520281294
 20
-3.453290431780441
 30
0.0
 10
36.68118526262373
 20
-3.423212937783386
 30
0.0
 10
36.75008875128827
 20
-3.41718383466452
 30
0.0
  0
SPLINE
  5
D0
330
1F
100
AcDbEntity
  8
0
  6
Continuous
 62
     1
370
    15
100
AcDbSpline
210
0.0
220
0.0
230
1.0
 70
     8
 71
     3
 72
    10
 73
     6
 74
     0
 42
0.000000001
 43
0.00000001
 40
0.0
 40
0.0
 40
0.0
 40
0.0
 40
0.0101905137660504
 40
0.5050263261802185
 40
1.0
 40
1.0
 40
1.0
 40
1.0
 10
45.60577396915527
 20
2.715245101166971
 30
0.0
 10
45.6116550907245
 20
2.717952266258531
 30
0.0
 10
45.90311450956381
 20
2.852115240956498
 30
0.0
 10
46.4803504735645
 20
2.939000195834789
 30
0.0
 10
47.05176634872839
 20
2.882188026576328
 30
0.0
 10
47.33751407992559
 20
2.853777985526383
 30
0.0
  0
SPLINE
  5
D1
330
1F
100
AcDbEntity
  8
0
  6
Continuous
 62
     1
370
    15
100
AcDbSpline
210
0.0
220
0.0
230
1.0
 70
    24
 71
     3
 72
    14
 73
    10
 74
     0
 42
0.000000001
 43
0.00000001
 40
0.0
 40
0.0
 40
0.0
 40
0.0
 40
0.25
 40
0.25
 40
0.5
 40
0.5
 40
0.75
 40
0.75
 40
1.0
 40
1.0
 40
1.0
 40
1.0
 10
9.999514079925522
 20
1.45619614077845
 30
0.0
 10
9.999514079925522
 20
1.344304608374113
 30
0.0
 10
9.999514079925522
 20
1.210110184918046
 30
0.0
 10
9.999514079925522
 20
0.8900246405054149
 30
0.0
 10
9.999514079925522
 20
0.7032837773600413
 30
0.0
 10
9.999514079925522
 20
0.2940557521581591
 30
0.0
 10
9.999514079925522
 20
0.0713863636704933
 30
0.0
 10
9.999514079925522
 20
-0.3480918167842411
 30
0.0
 10
9.999514079925522
 20
-0.5425159556572483
 30
0.0
 10
9.999514079925522
 20
-0.6844753007480974
 30
0.0
  0
SPLINE
  5
D2
330
1F
100
AcDbEntity
  8
0
  6
Continuous
 62
     1
370
    15
100
AcDbSpline
210
0.0
220
0.0
230
1.0
 70
     8
 71
     3
 72
    21
 73
    17
 74
     0
 42
0.000000001
 43
0.00000001
 40
0.0
 40
0.0
 40
0.0
 40
0.0
 40
0.04703646619469
 40
0.1214509602546141
 40
0.1958052024809454
 40
0.2701448805169025
 40
0.3445158680065147
 40
0.4189636390815774
 40
0.493452315155662
 40
0.5678509357512422
 40
0.6421985204249565
 40
0.71654084180979
 40
0.7909237397706084
 40
0.865392536798169
 40
0.9398642099478353
 40
1.0
 40
1.0
 40
1.0
 40
1.0
 10
14.56218513398164
 20
2.887765697360606
 30
0.0
 10
14.73625358100313
 20
2.889337743086055
 30
0.0
 10
15.18570869000906
 20
2.893396858882076
 30
0.0
 10
15.90979322991159
 20
2.658742503164468
 30
0.0
 10
16.73455104595409
 20
2.227822258558668
 30
0.0
 10
17.55905979379503
 20
1.620867810315463
 30
0.0
 10
18.38407403997857
 20
0.8895795550689201
 30
0.0
 10
19.21013485757337
 20
0.0801743737870483
 30
0.0
 10
20.03671271465569
 20
-0.7517849113618112
 30
0.0
 10
20.86212262001573
 20
-1.551259808210024
 30
0.0
 10
21.68677374980944
 20
-2.263899371449864
 30
0.0
 10
22.51133096169115
 20
-2.841637881804105
 30
0.0
 10
23.33652120226522
 20
-3.247779821939237
 30
0.0
 10
24.16284149742138
 20
-3.447222768634142
 30
0.0
 10
24.93650744615629
 20
-3.454384521092127
 30
0.0
 10
25.43416262890747
 20
-3.296764380184422
 30
0.0
 10
25.65648973378295
 20
-3.226347692460308
 30
0.0
  0
SPLINE
  5
D3
330
1F
100
AcDbEntity
  8
0
  6
Continuous
 62
     1
370
    15
100
AcDbSpline
210
0.0
220
0.0
230
1.0
 70
     8
 71
     3
 72
    21
 73
    17
 74
     0
 42
0.000000001
 43
0.00000001
 40
0.0
 40
0.0
 40
0.0
 40
0.0
 40
0.0344167010878025
 40
0.1087807797044582
 40
0.1831216107493457
 40
0.2574850788334817
 40
0.3319167795650488
 40
0.406415185823007
 40
0.4808305001515924
 40
0.5551861659037246
 40
0.6295278782225394
 40
0.7039015104554145
 40
0.7783525286655764
 40
0.8528422838854465
 40
0.9272418460294046
 40
1.0
 40
1.0
 40
1.0
 40
1.0
 10
34.51237496719921
 20
2.886082479972096
 30
0.0
 10
34.63967905010051
 20
2.891855003438839
 30
0.0
 10
35.04204874155456
 20
2.910100203697067
 30
0.0
 10
35.71893287876106
 20
2.712016078665622
 30
0.0
 10
36.54344919575959
 20
2.315110529813563
 30
0.0
 10
37.36831610205997
 20
1.733116671688591
 30
0.0
 10
38.19414545464195
 20
1.019992926134693
 30
0.0
 10
39.02082108971855
 20
0.2202563120185713
 30
0.0
 10
39.846431961192
 20
-0.6121579875199925
 30
0.0
 10
40.67118367978158
 20
-1.420799167104458
 30
0.0
 10
41.49569413615635
 20
-2.151604947028516
 30
0.0
 10
42.32071917873598
 20
-2.75533119027923
 30
0.0
 10
43.1467971265421
 20
-3.192579034736557
 30
0.0
 10
43.97336375745076
 20
-3.428731412489202
 30
0.0
 10
44.79288003308206
 20
-3.467040958225923
 30
0.0
 10
45.3368317498435
 20
-3.314977586339267
 30
0.0
 10
45.60577396915527
 20
-3.239793963508342
 30
0.0
  0
SPLINE
  5
D4
330
1F
100
AcDbEntity
  8
0
  6
Continuous
 62
     1
370
    15
100
AcDbSpline
210
0.0
220
0.0
230
1.0
 70
     8
 71
     3
 72
    22
 73
    18
 74
     0
 42
0.000000001
 43
0.00000001
 40
0.0
 40
0.0
 40
0.0
 40
0.0
 40
0.0205402368452967
 40
0.0948929277272891
 40
0.1692310547227783
 40
0.2436004905186748
 40
0.3180467082979909
 40
0.3925338302228772
 40
0.4669308985481983
 40
0.5412769320164786
 40
0.6156177023056923
 40
0.689999048324292
 40
0.764466291617416
 40
0.838936410972637
 40
0.9133194612952981
 40
0.9876607192358283
 40
1.0
 40
1.0
 40
1.0
 40
1.0
 10
15.68206907539706
 20
2.697261725020372
 30
0.0
 10
15.75803848823461
 20
2.729308014375505
 30
0.0
 10
16.10900620375676
 20
2.877357242951017
 30
0.0
 10
16.73452816086916
 20
2.938476014086539
 30
0.0
 10
17.55906592814135
 20
2.86021109437641
 30
0.0
 10
18.38407239354327
 20
2.557038279483327
 30
0.0
 10
19.21013530140226
 20
2.068345465164061
 30
0.0
 10
20.03671258769874
 20
1.422162578697056
 30
0.0
 10
20.86212268440147
 20
0.6627220866786617
 30
0.0
 10
21.68677361915396
 20
-0.1586946620067946
 30
0.0
 10
22.51133142004654
 20
-0.9869206263386162
 30
0.0
 10
23.3365194976517
 20
-1.767090698931614
 30
0.0
 10
24.1628478651812
 20
-2.444545378864905
 30
0.0
 10
24.98921000901813
 20
-2.980608694957982
 30
0.0
 10
25.81442982561403
 20
-3.314437703768947
 30
0.0
 10
26.40977524769643
 20
-3.460139041337538
 30
0.0
 10
26.73021005526865
 20
-3.427174812932858
 30
0.0
 10
26.77582508162095
 20
-3.42248223861874
 30
0.0
  0
SPLINE
  5
D5
330
1F
100
AcDbEntity
  8
0
  6
Continuous
 62
     1
370
    15
100
AcDbSpline
210
0.0
220
0.0
230
1.0
 70
     8
 71
     3
 72
    22
 73
    18
 74
     0
 42
0.000000001
 43
0.00000001
 40
0.0
 40
0.0
 40
0.0
 40
0.0
 40
0.0079342121023689
 40
0.0822738324149848
 40
0.1566360893981772
 40
0.2310665779175475
 40
0.3055637708769273
 40
0.3799778732601892
 40
0.4543323280384481
 40
0.5286728296106391
 40
0.6030452505770345
 40
0.6774950562603907
 40
0.751983598322575
 40
0.8263819487777535
 40
0.9007298695334996
 40
0.9779840606003853
 40
1.0
 40
1.0
 40
1.0
 40
1.0
 10
35.63101657563898
 20
2.707787853630035
 30
0.0
 10
35.66034951354368
 20
2.720957628755153
 30
0.0
 10
35.96451748715887
 20
2.857521645144813
 30
0.0
 10
36.54343036008804
 20
2.929336735812868
 30
0.0
 10
37.3683211546723
 20
2.891370474979473
 30
0.0
 10
38.19414409909276
 20
2.621466009515626
 30
0.0
 10
39.02082145179937
 20
2.163305322327022
 30
0.0
 10
39.84643186741054
 20
1.540391645521709
 30
0.0
 10
40.67118369331532
 20
0.7969253812055769
 30
0.0
 10
41.49569417574872
 20
-0.0177497031197764
 30
0.0
 10
42.32071900666485
 20
-0.8489414446009751
 30
0.0
 10
43.14679777608585
 20
-1.641059688327075
 30
0.0
 10
43.97336133150569
 20
-2.339095399702154
 30
0.0
 10
44.79877153095381
 20
-2.902230797305208
 30
0.0
 10
45.63412432297707
 20
-3.276216235701633
 30
0.0
 10
46.27602713376795
 20
-3.451484743912265
 30
0.0
 10
46.64310234626887
 20
-3.42058865059324
 30
0.0
 10
46.72451158382646
 20
-3.413736574193219
 30
0.0
  0
SPLINE
  5
D6
330
1F
100
AcDbEntity
  8
0
  6
Continuous
 62
     1
370
    15
100
AcDbSpline
210
0.0
220
0.0
230
1.0
 70
     8
 71
     3
 72
    21
 73
    17
 74
     0
 42
0.000000001
 43
0.00000001
 40
0.0
 40
0.0
 40
0.0
 40
0.0
 40
0.0490865299194673
 40
0.1234310651447153
 40
0.1977976279203983
 40
0.2722318238044277
 40
0.3467341892795454
 40
0.4211543035023439
 40
0.4955141613410232
 40
0.5698594538893662
 40
0.6442360582560144
 40
0.7186894520072017
 40
0.7931837538467654
 40
0.8675879934063748
 40
0.9419411931896249
 40
1.0
 40
1.0
 40
1.0
 40
1.0
 10
11.23800045668669
 20
2.888707899722974
 30
0.0
 10
11.41946838976261
 20
2.889194199057688
 30
0.0
 10
11.87578054517305
 20
2.890417028313727
 30
0.0
 10
12.60680437610478
 20
2.649320339355699
 30
0.0
 10
13.4316769694653
 20
2.212927094745106
 30
0.0
 10
14.25748654045889
 20
1.601635802631402
 30
0.0
 10
15.08416645740649
 20
0.8676974580003661
 30
0.0
 10
15.90979177985657
 20
0.0567738041159687
 30
0.0
 10
16.73455143133121
 20
-0.7751573124198678
 30
0.0
 10
17.5590597014687
 20
-1.572566826414328
 30
0.0
 10
18.38407402376683
 20
-2.282219075217371
 30
0.0
 10
19.21013501508988
 20
-2.855675819810755
 30
0.0
 10
20.03671210078913
 20
-3.256373489056508
 30
0.0
 10
20.86212491414076
 20
-3.449701795737655
 30
0.0
 10
21.62655744511915
 20
-3.451989058506697
 30
0.0
 10
22.11598584847576
 20
-3.293998272218037
 30
0.0
 10
22.33058594290073
 20
-3.224723915798803
 30
0.0
  0
SPLINE
  5
D7
330
1F
100
AcDbEntity
  8
0
  6
Continuous
 62
     1
370
    15
100
AcDbSpline
210
0.0
220
0.0
230
1.0
 70
     8
 71
     3
 72
    21
 73
    17
 74
     0
 42
0.000000001
 43
0.00000001
 40
0.0
 40
0.0
 40
0.0
 40
0.0
 40
0.0364527582243974
 40
0.1108100991268798
 40
0.1852264853758919
 40
0.2597267641368822
 40
0.334161842737346
 40
0.4085280839412904
 40
0.4828710768974023
 40
0.5572367075510722
 40
0.6316705728364519
 40
0.706171145588091
 40
0.7805886239939548
 40
0.8549464520887207
 40
0.9292903263443882
 40
1.0
 40
1.0
 40
1.0
 40
1.0
 10
31.18696018165394
 20
2.885972958039209
 30
0.0
 10
31.32169836023362
 20
2.891291841059212
 30
0.0
 10
31.73127918900605
 20
2.907460328257428
 30
0.0
 10
32.41595496247326
 20
2.703638845039129
 30
0.0
 10
33.24155269757069
 20
2.300813817461475
 30
0.0
 10
34.06822462776557
 20
1.714710092908639
 30
0.0
 10
34.89406835839418
 20
0.9984456231094199
 30
0.0
 10
35.71895052356926
 20
0.1967974621173315
 30
0.0
 10
36.54344445882035
 20
-0.6353484419561388
 30
0.0
 10
37.36831740338149
 20
-1.442595278489993
 30
0.0
 10
38.1941449909569
 20
-2.170752318708447
 30
0.0
 10
39.02082164143552
 20
-2.769996725749118
 30
0.0
 10
39.84643022058948
 20
-3.202175943785557
 30
0.0
 10
40.67119008533758
 20
-3.432256820496252
 30
0.0
 10
41.4821205024232
 20
-3.465033544225184
 30
0.0
 10
42.01842283564675
 20
-3.311862696711143
 30
0.0
 10
42.27985568930005
 20
-3.237196059478004
 30
0.0
  0
SPLINE
  5
D8
330
1F
100
AcDbEntity
  8
0
  6
Continuous
 62
     1
370
    15
100
AcDbSpline
210
0.0
220
0.0
230
1.0
 70
     8
 71
     3
 72
    22
 73
    18
 74
     0
 42
0.000000001
 43
0.00000001
 40
0.0
 40
0.0
 40
0.0
 40
0.0
 40
0.0225701831995231
 40
0.0969287336495512
 40
0.1713549099210687
 40
0.2458492484390169
 40
0.3202613445664755
 40
0.3946131908018962
 40
0.4689504733162592
 40
0.5433190642753617
 40
0.6177644363456405
 40
0.6922507120968184
 40
0.7666469352714398
 40
0.8409921241687767
 40
0.9153320499468365
 40
0.9897125509933421
 40
1.0
 40
1.0
 40
1.0
 40
1.0
 10
12.35645503049306
 20
2.696113703792731
 30
0.0
 10
12.4398862878516
 20
2.730942237231211
 30
0.0
 10
12.79818582184577
 20
2.8805150435846
 30
0.0
 10
13.43167589465485
 20
2.939310984870942
 30
0.0
 10
14.25748682885924
 20
2.85443773906094
 30
0.0
 10
15.08416638022944
 20
2.545799611108844
 30
0.0
 10
15.90979180037155
 20
2.052087281768112
 30
0.0
 10
16.73455142634585
 20
1.401953798434679
 30
0.0
 10
17.55905970090746
 20
0.6403727347492542
 30
0.0
 10
18.38407403100553
 20
-0.1821488257987654
 30
0.0
 10
19.21013498665737
 20
-1.009987558830761
 30
0.0
 10
20.03671220727739
 20
-1.787694592823656
 30
0.0
 10
20.86212451728052
 20
-2.461756326835614
 30
0.0
 10
21.68676667263328
 20
-2.99324798983758
 30
0.0
 10
22.51135737925174
 20
-3.320716009315345
 30
0.0
 10
23.09916919599018
 20
-3.462338427154453
 30
0.0
 10
23.41243355010252
 20
-3.428630297652909
 30
0.0
 10
23.45049625348097
 20
-3.42453464323894
 30
0.0
  0
SPLINE
  5
D9
330
1F
100
AcDbEntity
  8
0
  6
Continuous
 62
     1
370
    15
100
AcDbSpline
210
0.0
220
0.0
230
1.0
 70
     8
 71
     3
 72
    22
 73
    18
 74
     0
 42
0.000000001
 43
0.00000001
 40
0.0
 40
0.0
 40
0.0
 40
0.0
 40
0.0099872026366174
 40
0.0843926895401483
 40
0.1588820566683972
 40
0.2333062331856175
 40
0.3076615823885406
 40
0.38199368674867
 40
0.4563484254907424
 40
0.5307713888705855
 40
0.6052610499464244
 40
0.6796676288468453
 40
0.7540145661728099
 40
0.8283475517034166
 40
0.9027124534010836
 40
0.977154731991891
 40
1.0
 40
1.0
 40
1.0
 40
1.0
 10
32.30501154098761
 20
2.705682692249704
 30
0.0
 10
32.34193503024846
 20
2.72211334306872
 30
0.0
 10
32.6539415729519
 20
2.860953703474331
 30
0.0
 10
33.24156484180416
 20
2.931348562607752
 30
0.0
 10
34.06822137508097
 20
2.886601531768405
 30
0.0
 10
34.89406922935797
 20
2.611126770722465
 30
0.0
 10
35.71895028805645
 20
2.147666930207792
 30
0.0
 10
36.54344453057168
 20
1.521018589079433
 30
0.0
 10
37.36831735188466
 20
0.7748232161576472
 30
0.0
 10
38.19414512530268
 20
-0.0414080918759952
 30
0.0
 10
39.02082115538274
 20
-0.8719342336544226
 30
0.0
 10
39.8464320274773
 20
-1.6622629060554
 30
0.0
 10
40.67118334937145
 20
-2.357101806863768
 30
0.0
 10
41.49569539158419
 20
-2.9152941404757
 30
0.0
 10
42.32071448308734
 20
-3.279887285652836
 30
0.0
 10
42.95577771630098
 20
-3.448589089914095
 30
0.0
 10
43.31579464535375
 20
-3.420966171063756
 30
0.0
 10
43.40033458411462
 20
-3.414479698679948
 30
0.0
  0
SPLINE
  5
DA
330
1F
100
AcDbEntity
  8
0
  6
Continuous
 62
     1
370
    15
100
AcDbSpline
210
0.0
220
0.0
230
1.0
 70
     8
 71
     3
 72
    26
 73
    22
 74
     0
 42
0.000000001
 43
0.00000001
 40
0.0
 40
0.0
 40
0.0
 40
0.0
 40
0.1249999999999999
 40
0.1249999999999999
 40
0.2499999999999998
 40
0.2499999999999998
 40
0.3749999999999998
 40
0.3749999999999998
 40
0.4999999999999997
 40
0.4999999999999997
 40
0.6249999999999996
 40
0.6249999999999996
 40
0.6874999999999997
 40
0.6874999999999997
 40
0.7499999999999997
 40
0.7499999999999997
 40
0.8124999999999998
 40
0.8124999999999998
 40
0.8749999999999999
 40
0.8749999999999999
 40
1.0
 40
1.0
 40
1.0
 40
1.0
 10
47.33751407992552
 20
0.7683697976635842
 30
0.0
 10
47.44544608290832
 20
0.6663534788062163
 30
0.0
 10
47.54584697539586
 20
0.5534562959843063
 30
0.0
 10
47.73189943975888
 20
0.3147722552910324
 30
0.0
 10
47.8142946062096
 20
0.1925777524780113
 30
0.0
 10
47.94890796623412
 20
-0.055773937255072
 30
0.0
 10
47.99911274086818
 20
-0.1794824908990885
 30
0.0
 10
48.06405441138101
 20
-0.4363329839491706
 30
0.0
 10
48.07839630213592
 20
-0.5675232422312307
 30
0.0
 10
48.09093574908007
 20
-0.8485161277289789
 30
0.0
 10
48.09131943480155
 20
-0.9963408443661209
 30
0.0
 10
48.07894973536919
 20
-1.22310824668342
 30
0.0
 10
48.07245900679163
 20
-1.298534574896449
 30
0.0
 10
48.04508592105798
 20
-1.447790436108861
 30
0.0
 10
48.02398168916751
 20
-1.52039940578097
 30
0.0
 10
47.95282345519013
 20
-1.633865135448066
 30
0.0
 10
47.90212715047165
 20
-1.670007513812276
 30
0.0
 10
47.79077170385834
 20
-1.690896655406974
 30
0.0
 10
47.73160148808686
 20
-1.679035908655991
 30
0.0
 10
47.55793244920176
 20
-1.610927742631566
 30
0.0
 10
47.44527999761853
 20
-1.524503619548776
 30
0.0
 10
47.3375140799255
 20
-1.424284127981518
 30
0.0
  0
SPLINE
  5
DB
330
1F
100
AcDbEntity
  8
0
  6
Continuous
 62
     1
370
    15
100
AcDbSpline
210
0.0
220
0.0
230
1.0
 70
     8
 71
     3
 72
    11
 73
     7
 74
     0
 42
0.000000001
 43
0.00000001
 40
0.0
 40
0.0
 40
0.0
 40
0.0
 40
0.2026842357939775
 40
0.406651253614191
 40
0.7564711648978751
 40
1.0
 40
1.0
 40
1.0
 40
1.0
 10
9.999514079925225
 20
-3.198586521830735
 30
0.0
 10
10.15830312807385
 20
-3.252970869620134
 30
0.0
 10
10.47688619516289
 20
-3.362083761991445
 30
0.0
 10
11.07265445447497
 20
-3.451604872443752
 30
0.0
 10
11.6988036568026
 20
-3.44529701736666
 30
0.0
 10
12.16508047765418
 20
-3.286030509358498
 30
0.0
 10
12.35645503049308
 20
-3.220662566134106
 30
0.0
  0
SPLINE
  5
DC
330
1F
100
AcDbEntity
  8
0
  6
Continuous
 62
     1
370
    15
100
AcDbSpline
210
0.0
220
0.0
230
1.0
 70
     8
 71
     3
 72
    21
 73
    17
 74
     0
 42
0.000000001
 43
0.00000001
 40
0.0
 40
0.0
 40
0.0
 40
0.0
 40
0.0427702818285998
 40
0.117118677609427
 40
0.1915076532816883
 40
0.2659825350393715
 40
0.3404602931541641
 40
0.4148509733053053
 40
0.4891998567874699
 40
0.5635527809797304
 40
0.6379555316455242
 40
0.7124485690721056
 40
0.7869050830117184
 40
0.8612836063788403
 40
0.9356295984334908
 40
1.0
 40
1.0
 40
1.0
 40
1.0
 10
21.21250500409034
 20
2.886568507643582
 30
0.0
 10
21.37060130656716
 20
2.889935450859126
 30
0.0
 10
21.80351942375955
 20
2.899155215614724
 30
0.0
 10
22.511327552682
 20
2.677254821312354
 30
0.0
 10
23.33652063466068
 20
2.257454777162275
 30
0.0
 10
24.16284718969944
 20
1.658638348277304
 30
0.0
 10
24.98921157238532
 20
0.9333775043048413
 30
0.0
 10
25.81442425567918
 20
0.1268572506808819
 30
0.0
 10
26.63899113703493
 20
-0.7053585006076212
 30
0.0
 10
27.46362960722384
 20
-1.5078541900523
 30
0.0
 10
28.28901250742925
 20
-2.227005693875491
 30
0.0
 10
29.11556901460918
 20
-2.813425936111758
 30
0.0
 10
29.94166256885147
 20
-3.229993947755119
 30
0.0
 10
30.76670332453967
 20
-3.441773887226247
 30
0.0
 10
31.55427992917199
 20
-3.458748191011359
 30
0.0
 10
32.06705960877762
 20
-3.302662200007528
 30
0.0
 10
32.30501154098764
 20
-3.230231554591077
 30
0.0
  0
SPLINE
  5
DD
330
1F
100
AcDbEntity
  8
0
  6
Continuous
 62
     1
370
    15
100
AcDbSpline
210
0.0
220
0.0
230
1.0
 70
     8
 71
     3
 72
    15
 73
    11
 74
     0
 42
0.000000001
 43
0.00000001
 40
0.0
 40
0.0
 40
0.0
 40
0.0
 40
0.0541355435156358
 40
0.1877245551493993
 40
0.3214525665322633
 40
0.4552501568597774
 40
0.5888857434837538
 40
0.722430747421076
 40
0.8611960436839782
 40
1.0
 40
1.0
 40
1.0
 40
1.0
 10
41.16138739807175
 20
2.88692454041204
 30
0.0
 10
41.27279079645095
 20
2.893287331346218
 30
0.0
 10
41.65910174938017
 20
2.915351432305731
 30
0.0
 10
42.32072083986123
 20
2.728427582697059
 30
0.0
 10
43.14679733948034
 20
2.343043949696939
 30
0.0
 10
43.97336124263717
 20
1.769776699473165
 30
0.0
 10
44.79877232116028
 20
1.062723165004953
 30
0.0
 10
45.63412120273727
 20
0.2571261499339599
 30
0.0
 10
46.48034644817939
 20
-0.6017532444175083
 30
0.0
 10
47.05176500680877
 20
-1.150081709593972
 30
0.0
 10
47.3375140799256
 20
-1.424284127981592
 30
0.0
  0
SPLINE
  5
DE
330
1F
100
AcDbEntity
  8
0
  6
Continuous
 62
     1
370
    15
100
AcDbSpline
210
0.0
220
0.0
230
1.0
 70
     8
 71
     3
 72
    13
 73
     9
 74
     0
 42
0.000000001
 43
0.00000001
 40
0.0
 40
0.0
 40
0.0
 40
0.0
 40
0.1374244459966688
 40
0.2757186469034764
 40
0.5129043723664114
 40
0.7500140027268885
 40
0.9871938863255568
 40
1.0
 40
1.0
 40
1.0
 40
1.0
 10
9.999514079923859
 20
-1.715097301906631
 30
0.0
 10
10.15830317978068
 20
-1.853821265827168
 30
0.0
 10
10.47688635061336
 20
-2.132147173185631
 30
0.0
 10
11.07265364132267
 20
-2.582929172991109
 30
0.0
 10
11.78219374905572
 20
-3.030912930188451
 30
0.0
 10
12.60687686766719
 20
-3.338350765765876
 30
0.0
 10
13.17129522364364
 20
-3.46878820537564
 30
0.0
 10
13.46118586589314
 20
-3.433624372402932
 30
0.0
 10
13.47603618774436
 20
-3.431823023338625
 30
0.0
  0
SPLINE
  5
DF
330
1F
100
AcDbEntity
  8
0
  6
Continuous
 62
     1
370
    15
100
AcDbSpline
210
0.0
220
0.0
230
1.0
 70
     8
 71
     3
 72
    22
 73
    18
 74
     0
 42
0.000000001
 43
0.00000001
 40
0.0
 40
0.0
 40
0.0
 40
0.0
 40
0.0162868248503013
 40
0.0906648167847337
 40
0.1651287021203175
 40
0.2395954633883079
 40
0.3139751595499494
 40
0.3883130652140073
 40
0.4626550109915397
 40
0.5370467758855887
 40
0.6115288142093356
 40
0.6859743344389075
 40
0.7603418756115122
 40
0.8346768902749838
 40
0.9090252459828845
 40
0.9834326399023914
 40
1.0
 40
1.0
 40
1.0
 40
1.0
 10
22.33058594290076
 20
2.700175053457431
 30
0.0
 10
22.39079376130137
 20
2.726171763082587
 30
0.0
 10
22.72595613177408
 20
2.870889161153397
 30
0.0
 10
23.33652474904203
 20
2.936211022833208
 30
0.0
 10
24.16284608655134
 20
2.87124810650662
 30
0.0
 10
24.98921186787209
 20
2.579165081428065
 30
0.0
 10
25.8144241755734
 20
2.100430144324831
 30
0.0
 10
26.63899116229673
 20
1.461901783994359
 30
0.0
 10
27.46362958625613
 20
0.7078619287633655
 30
0.0
 10
28.28901256609568
 20
-0.111801991923543
 30
0.0
 10
29.1155688007007
 20
-0.9410785366845661
 30
0.0
 10
29.94166336493387
 20
-1.725353547634443
 30
0.0
 10
30.7667003578708
 20
-2.409965277276932
 30
0.0
 10
31.59120905386376
 20
-2.954883164663036
 30
0.0
 10
32.41596821319777
 20
-3.301149704570872
 30
0.0
 10
33.02731229396365
 20
-3.455624341518263
 30
0.0
 10
33.36398861585297
 20
-3.424427309810641
 30
0.0
 10
33.42530054707325
 20
-3.418746036320422
 30
0.0
  0
SPLINE
  5
E0
330
1F
100
AcDbEntity
  8
0
  6
Continuous
 62
     1
370
    15
100
AcDbSpline
210
0.0
220
0.0
230
1.0
 70
     8
 71
     3
 72
    14
 73
    10
 74
     0
 42
0.000000001
 43
0.00000001
 40
0.0
 40
0.0
 40
0.0
 40
0.0
 40
0.0080414830025874
 40
0.1713514053858219
 40
0.3347462982395868
 40
0.4979433506261465
 40
0.6610297825722027
 40
0.830491285273386
 40
1.0
 40
1.0
 40
1.0
 40
1.0
 10
42.27985568930008
 20
2.712647197136635
 30
0.0
 10
42.29340938865749
 20
2.718838793429363
 30
0.0
 10
42.58221748939232
 20
2.850772010971347
 30
0.0
 10
43.14682530289701
 20
2.924679958351392
 30
0.0
 10
43.97335375901906
 20
2.900418658275612
 30
0.0
 10
44.79877432060131
 20
2.641944045509357
 30
0.0
 10
45.63412064639314
 20
2.187053208348941
 30
0.0
 10
46.48034658952617
 20
1.557445826478025
 30
0.0
 10
47.05176505392875
 20
1.031419562380665
 30
0.0
 10
47.33751407992559
 20
0.7683697976662212
 30
0.0
  0
SPLINE
  5
E1
330
1F
100
AcDbEntity
  8
0
  6
Continuous
 62
     1
370
    15
100
AcDbSpline
210
0.0
220
0.0
230
1.0
 70
    24
 71
     3
 72
    12
 73
     8
 74
     0
 42
0.000000001
 43
0.00000001
 40
0.0
 40
0.0
 40
0.0
 40
0.0
 40
0.0334024875205916
 40
0.2770439652157808
 40
0.5206854429109702
 40
0.7643269206061596
 40
1.0
 40
1.0
 40
1.0
 40
1.0
 10
9.999514079925522
 20
-1.731516204437422
 30
0.0
 10
9.999514079925522
 20
-1.73299235310884
 30
0.0
 10
9.999514079925524
 20
-1.745235695193039
 30
0.0
 10
9.999514079925522
 20
-1.891433011510127
 30
0.0
 10
9.999514079925524
 20
-2.223242346701263
 30
0.0
 10
9.999514079925524
 20
-2.679650872182202
 30
0.0
 10
9.999514079925524
 20
-3.027535784279373
 30
0.0
 10
9.999514079925522
 20
-3.19858652182951
 30
0.0
  0
SPLINE
  5
E2
330
1F
100
AcDbEntity
  8
0
  6
Continuous
 62
     1
370
    15
100
AcDbSpline
210
0.0
220
0.0
230
1.0
 70
     8
 71
     3
 72
    19
 73
    15
 74
     0
 42
0.000000001
 43
0.00000001
 40
0.0
 40
0.0
 40
0.0
 40
0.0
 40
0.0530641262242613
 40
0.1064640936011004
 40
0.1980493511096613
 40
0.2896052257810378
 40
0.3811882275524873
 40
0.472854520024089
 40
0.5646047638785215
 40
0.6562537146745462
 40
0.7478284592638083
 40
0.8393852665844799
 40
0.9309806346534806
 40
1.0
 40
1.0
 40
1.0
 40
1.0
 10
9.999514079925225
 20
2.251836789911473
 30
0.0
 10
10.15830326830114
 20
2.148824368647384
 30
0.0
 10
10.47688661673224
 20
1.942147563809661
 30
0.0
 10
11.07265224928072
 20
1.479494955800053
 30
0.0
 10
11.7822032733184
 20
0.8455745694736007
 30
0.0
 10
12.6068419324073
 20
0.0335039504195737
 30
0.0
 10
13.43166688347267
 20
-0.7982284883486667
 30
0.0
 10
14.25748929039725
 20
-1.594200033931491
 30
0.0
 10
15.08416555869778
 20
-2.300361536201361
 30
0.0
 10
15.90979262562053
 20
-2.869457658601422
 30
0.0
 10
16.73454894805845
 20
-3.264888627339416
 30
0.0
 10
17.55906878943513
 20
-3.451959118873205
 30
0.0
 10
18.31599170933481
 20
-3.449659503982223
 30
0.0
 10
18.79845390120725
 20
-3.291254741006188
 30
0.0
 10
19.00577756061637
 20
-3.223185044185863
 30
0.0
  0
SPLINE
  5
E3
330
1F
100
AcDbEntity
  8
0
  6
Continuous
 62
     1
370
    15
100
AcDbSpline
210
0.0
220
0.0
230
1.0
 70
     8
 71
     3
 72
    21
 73
    17
 74
     0
 42
0.000000001
 43
0.00000001
 40
0.0
 40
0.0
 40
0.0
 40
0.0
 40
0.0385418109627279
 40
0.1130265220087132
 40
0.187474713650104
 40
0.2618449234363179
 40
0.3361826055462137
 40
0.41053362917927
 40
0.4849436931424669
 40
0.5594376424902812
 40
0.6338663972168603
 40
0.7082263203952247
 40
0.782562997300887
 40
0.8569223099808481
 40
0.9313498514954243
 40
1.0
 40
1.0
 40
1.0
 40
1.0
 10
27.86122860385883
 20
2.885977678544916
 30
0.0
 10
28.00373883713969
 20
2.890756910008991
 30
0.0
 10
28.4216599367466
 20
2.904772336289333
 30
0.0
 10
29.11558444554034
 20
2.69500025895435
 30
0.0
 10
29.9416593924824
 20
2.28654141726923
 30
0.0
 10
30.76670062421407
 20
1.695977886538443
 30
0.0
 10
31.59121195611078
 20
0.9768750352491897
 30
0.0
 10
32.41595633102702
 20
0.1736924077545104
 30
0.0
 10
33.24155234122338
 20
-0.6588925476051507
 30
0.0
 10
34.0682246822961
 20
-1.464381743040671
 30
0.0
 10
34.89406849624313
 20
-2.189569110158697
 30
0.0
 10
35.71894991840851
 20
-2.784700854927686
 30
0.0
 10
36.54344674135418
 20
-3.211526691622647
 30
0.0
 10
37.36830887198547
 20
-3.435602529576664
 30
0.0
 10
38.17256084655158
 20
-3.463040927437836
 30
0.0
 10
38.70206075917221
 20
-3.308691730312959
 30
0.0
 10
38.95612026788876
 20
-3.234633396670821
 30
0.0
  0
SPLINE
  5
E4
330
1F
100
AcDbEntity
  8
0
  6
Continuous
 62
     1
370
    15
100
AcDbSpline
210
0.0
220
0.0
230
1.0
 70
     8
 71
     3
 72
    21
 73
    17
 74
     0
 42
0.000000001
 43
0.00000001
 40
0.0
 40
0.0
 40
0.0
 40
0.0
 40
0.047192511119775
 40
0.094683702128492
 40
0.1761349308759071
 40
0.2575600280355769
 40
0.339009250646148
 40
0.4205325477317511
 40
0.5021305068696611
 40
0.5836383811588151
 40
0.6650802602552283
 40
0.7465061868653265
 40
0.8279664074264196
 40
0.9095107307810533
 40
0.991099858304017
 40
1.0
 40
1.0
 40
1.0
 40
1.0
 10
9.999514079923857
 20
2.909019011517121
 30
0.0
 10
10.15830326831105
 20
2.909723618513634
 30
0.0
 10
10.47688661676478
 20
2.911137291941738
 30
0.0
 10
11.07265224910666
 20
2.801346013615375
 30
0.0
 10
11.78220327450775
 20
2.535346725097454
 30
0.0
 10
12.60684192804474
 20
2.035520577043958
 30
0.0
 10
13.43166689974561
 20
1.382005683630589
 30
0.0
 10
14.25748922958673
 20
0.6175657863190039
 30
0.0
 10
15.08416578576264
 20
-0.2055419330729934
 30
0.0
 10
15.90979177956205
 20
-1.032844877548168
 30
0.0
 10
16.7345521025931
 20
-1.808475915513537
 30
0.0
 10
17.55905701667676
 20
-2.478617559778798
 30
0.0
 10
18.38408410090028
 20
-3.005764091148091
 30
0.0
 10
19.21009734231134
 20
-3.326877954931077
 30
0.0
 10
19.79151916437632
 20
-3.464622608683313
 30
0.0
 10
20.09700970293046
 20
-3.430258134218081
 30
0.0
 10
20.12705645989272
 20
-3.426878189892212
 30
0.0
  0
SPLINE
  5
E5
330
1F
100
AcDbEntity
  8
0
  6
Continuous
 62
     1
370
    15
100
AcDbSpline
210
0.0
220
0.0
230
1.0
 70
     8
 71
     3
 72
    22
 73
    18
 74
     0
 42
0.000000001
 43
0.00000001
 40
0.0
 40
0.0
 40
0.0
 40
0.0
 40
0.0121427097251594
 40
0.0865867359208021
 40
0.1609527846244256
 40
0.2352863074716846
 40
0.3096331710956336
 40
0.3840390717463616
 40
0.458528853088241
 40
0.5329534434565859
 40
0.6073092061279052
 40
0.6816417238271727
 40
0.7559968760342466
 40
0.8304202532584684
 40
0.9049103285495724
 40
0.9793173212032628
 40
1.0
 40
1.0
 40
1.0
 40
1.0
 10
28.98084191988649
 20
2.703631932797187
 30
0.0
 10
29.02577567608269
 20
2.723399229594604
 30
0.0
 10
29.34618745975799
 20
2.864355057939882
 30
0.0
 10
29.94166724368232
 20
2.933194497881803
 30
0.0
 10
30.7666985226567
 20
2.881577821688996
 30
0.0
 10
31.59121251849499
 20
2.600633245148485
 30
0.0
 10
32.41595618287999
 20
2.132186178303673
 30
0.0
 10
33.24155237095803
 20
1.50127071648529
 30
0.0
 10
34.06822471178523
 20
0.7525911614879492
 30
0.0
 10
34.89406834878744
 20
-0.0648158509426922
 30
0.0
 10
35.7189504781473
 20
-0.8951913377453793
 30
0.0
 10
36.54344465007676
 20
-1.683230464775939
 30
0.0
 10
37.36831668323498
 20
-2.374755295791466
 30
0.0
 10
38.19414768388762
 20
-2.928767159719991
 30
0.0
 10
39.02081158589041
 20
-3.287106817154394
 30
0.0
 10
39.64799211525835
 20
-3.451009165592294
 30
0.0
 10
39.99954097956547
 20
-3.422083825041255
 30
0.0
 10
40.07600535399138
 20
-3.415792358065104
 30
0.0
  0
SPLINE
  5
E6
330
1F
100
AcDbEntity
  8
0
  6
Continuous
 62
     1
370
    15
100
AcDbSpline
210
0.0
220
0.0
230
1.0
 70
    24
 71
     3
 72
    11
 73
     7
 74
     0
 42
0.000000001
 43
0.00000001
 40
0.0
 40
0.0
 40
0.0
 40
0.0
 40
0.1722714581985439
 40
0.4824477394041853
 40
0.7926240206098267
 40
1.0
 40
1.0
 40
1.0
 40
1.0
 10
9.999514079925522
 20
2.909019011513614
 30
0.0
 10
9.999514079925522
 20
2.825052173020846
 30
0.0
 10
9.999514079925522
 20
2.589902300608059
 30
0.0
 10
9.999514079925522
 20
2.295203063339193
 30
0.0
 10
9.999514079925522
 20
2.099519842744221
 30
0.0
 10
9.999514079925522
 20
2.105828735664618
 30
0.0
 10
9.999514079925522
 20
2.108356621151447
 30
0.0
  0
SPLINE
  5
E7
330
1F
100
AcDbEntity
  8
0
  6
Continuous
 62
     1
370
    15
100
AcDbSpline
210
0.0
220
0.0
230
1.0
 70
     8
 71
     3
 72
    26
 73
    22
 74
     0
 42
0.000000001
 43
0.00000001
 40
0.0
 40
0.0
 40
0.0
 40
0.0
 40
0.1250000000000004
 40
0.1250000000000004
 40
0.2500000000000008
 40
0.2500000000000008
 40
0.3750000000000012
 40
0.3750000000000012
 40
0.5000000000000017
 40
0.5000000000000017
 40
0.625000000000002
 40
0.625000000000002
 40
0.6875000000000024
 40
0.6875000000000024
 40
0.7500000000000029
 40
0.7500000000000029
 40
0.8125000000000032
 40
0.8125000000000032
 40
0.8750000000000037
 40
0.8750000000000037
 40
1.0
 40
1.0
 40
1.0
 40
1.0
 10
47.33751407992552
 20
-2.347682619029813
 30
0.0
 10
47.44544608290836
 20
-2.429011837754431
 30
0.0
 10
47.54584697539477
 20
-2.493782741149923
 30
0.0
 10
47.73189943975805
 20
-2.58938671610602
 30
0.0
 10
47.81429460620887
 20
-2.618143734905952
 30
0.0
 10
47.94890796623366
 20
-2.646960869570877
 30
0.0
 10
47.99911274086782
 20
-2.646562467636627
 30
0.0
 10
48.06405441138087
 20
-2.64713057445501
 30
0.0
 10
48.07839630213585
 20
-2.6494377544843
 30
0.0
 10
48.09093574908007
 20
-2.69191098277233
 30
0.0
 10
48.09131943480152
 20
-2.731194146256112
 30
0.0
 10
48.07894973536921
 20
-2.826572411401564
 30
0.0
 10
48.0724590067917
 20
-2.863847771840751
 30
0.0
 10
48.0450859210581
 20
-2.955588160768787
 30
0.0
 10
48.02398168916769
 20
-3.009996784052714
 30
0.0
 10
47.9528234551904
 20
-3.129241608206525
 30
0.0
 10
47.90212715047191
 20
-3.191732650203984
 30
0.0
 10
47.79077170385857
 20
-3.290786887753612
 30
0.0
 10
47.73160148808708
 20
-3.327965956954925
 30
0.0
 10
47.55793244920186
 20
-3.406455720251642
 30
0.0
 10
47.44527999761859
 20
-3.41811671161083
 30
0.0
 10
47.3375140799255
 20
-3.402140129327058
 30
0.0
  0
SPLINE
  5
E8
330
1F
100
AcDbEntity
  8
0
  6
Continuous
 62
     1
370
    15
100
AcDbSpline
210
0.0
220
0.0
230
1.0
 70
     8
 71
     3
 72
    21
 73
    17
 74
     0
 42
0.000000001
 43
0.00000001
 40
0.0
 40
0.0
 40
0.0
 40
0.0
 40
0.0448345979074491
 40
0.1192825974097593
 40
0.1937715020365996
 40
0.2681703509086195
 40
0.3425181637021805
 40
0.4168607131907114
 40
0.4912438393797278
 40
0.5657128648990495
 40
0.6401847665493018
 40
0.7145695970831686
 40
0.788912634234687
 40
0.8632597117785653
 40
0.9376566118779349
 40
1.0
 40
1.0
 40
1.0
 40
1.0
 10
17.88658149804247
 20
2.887089133117392
 30
0.0
 10
18.05233143151131
 20
2.889615780922682
 30
0.0
 10
18.49330968284908
 20
2.896337935843682
 30
0.0
 10
19.21014328386424
 20
2.668040679783009
 30
0.0
 10
20.03671045165999
 20
2.242816049984038
 30
0.0
 10
20.86212325407801
 20
1.639682668588185
 30
0.0
 10
21.68677347381977
 20
0.9114443190090379
 30
0.0
 10
22.51133143194498
 20
0.1037242568590448
 30
0.0
 10
23.33651959557638
 20
-0.7286895890711244
 30
0.0
 10
24.16284746103335
 20
-1.529600472799856
 30
0.0
 10
24.98921152680638
 20
-2.24542678844619
 30
0.0
 10
25.81442416715601
 20
-2.827714468229742
 30
0.0
 10
26.6389915364403
 20
-3.238915093570443
 30
0.0
 10
27.46362809751767
 20
-3.444574641773075
 30
0.0
 10
28.24411687308474
 20
-3.456584762322264
 30
0.0
 10
28.75013523224849
 20
-3.299705881656374
 30
0.0
 10
28.98084191988651
 20
-3.228180795138563
 30
0.0
  0
SPLINE
  5
E9
330
1F
100
AcDbEntity
  8
0
  6
Continuous
 62
     1
370
    15
100
AcDbSpline
210
0.0
220
0.0
230
1.0
 70
     8
 71
     3
 72
    19
 73
    15
 74
     0
 42
0.000000001
 43
0.00000001
 40
0.0
 40
0.0
 40
0.0
 40
0.0
 40
0.0376651469255995
 40
0.1246486909783691
 40
0.2115352177812128
 40
0.2983520995427968
 40
0.3851526894245594
 40
0.4719905486573092
 40
0.5589187629312271
 40
0.6458922061242544
 40
0.7327603408444445
 40
0.819569593426827
 40
0.9097722314724188
 40
1.0
 40
1.0
 40
1.0
 40
1.0
 10
37.83606886167398
 20
2.886407957148267
 30
0.0
 10
37.95537050403914
 20
2.892529097524308
 30
0.0
 10
38.3501862625376
 20
2.912786343212889
 30
0.0
 10
39.02084035810073
 20
2.720367888484855
 30
0.0
 10
39.84642680864855
 20
2.329103044948952
 30
0.0
 10
40.67118504698332
 20
1.751343336967201
 30
0.0
 10
41.49569381685067
 20
1.041702382976283
 30
0.0
 10
42.32071908821161
 20
0.2433879374403351
 30
0.0
 10
43.1467978093275
 20
-0.5888029264342126
 30
0.0
 10
43.97336111689587
 20
-1.398537486443959
 30
0.0
 10
44.79877235475531
 20
-2.133364598949106
 30
0.0
 10
45.63412119338947
 20
-2.745925446196784
 30
0.0
 10
46.48034645055432
 20
-3.208452728352389
 30
0.0
 10
47.0517650076005
 20
-3.337571667741359
 30
0.0
 10
47.3375140799256
 20
-3.402140129327074
 30
0.0
  0
LINE
  5
EA
330
1F
100
AcDbEntity
  8
0
  6
Continuous
 62
     1
370
    15
100
AcDbLine
 10
9.999514079923859
 20
-3.433567873858494
 30
0.0
 11
10.15238888830725
 21
-3.429431856197623
 31
0.0
  0
SPLINE
  5
EB
330
1F
100
AcDbEntity
  8
0
  6
Continuous
 62
     1
370
    15
100
AcDbSpline
210
0.0
220
0.0
230
1.0
 70
     8
 71
     3
 72
    22
 73
    18
 74
     0
 42
0.000000001
 43
0.00000001
 40
0.0
 40
0.0
 40
0.0
 40
0.0
 40
0.0184053171672167
 40
0.092885562114673
 40
0.1672757617767069
 40
0.2416149312934618
 40
0.3159488381170698
 40
0.3903233169239347
 40
0.4647836850749111
 40
0.539246929022454
 40
0.6136231119760314
 40
0.6879575064059338
 40
0.7622959407584823
 40
0.8366841918744197
 40
0.9111627121561314
 40
0.9856047160685429
 40
1.0
 40
1.0
 40
1.0
 40
1.0
 10
19.00577756061639
 20
2.698636181844491
 30
0.0
 10
19.0738661440022
 20
2.727681474876808
 30
0.0
 10
19.41748675558541
 20
2.874263484063669
 30
0.0
 10
20.03673516540538
 20
2.937437621485979
 30
0.0
 10
20.86211664048447
 20
2.865777062476754
 30
0.0
 10
21.6867752452372
 20
2.568121558640109
 30
0.0
 10
22.5113309570351
 20
2.084581340570279
 30
0.0
 10
23.33651972303625
 20
1.441998958705955
 30
0.0
 10
24.16284742680516
 20
0.6853142327011795
 30
0.0
 10
24.98921153617477
 20
-0.1351304679543257
 30
0.0
 10
25.81442416387135
 20
-0.9642098199257628
 30
0.0
 10
26.63899154021927
 20
-1.746206583565873
 30
0.0
 10
27.46362808568108
 20
-2.42719705524161
 30
0.0
 10
28.28901819742542
 20
-2.967914294107615
 30
0.0
 10
29.11554775427425
 20
-3.30784418171892
 30
0.0
 10
29.71984640294002
 20
-3.457970388870631
 30
0.0
 10
30.04832688973866
 20
-3.425795833956043
 30
0.0
 10
30.10155419989383
 20
-3.420582236551113
 30
0.0
  0
SPLINE
  5
EC
330
1F
100
AcDbEntity
  8
0
  6
Continuous
 62
     1
370
    15
100
AcDbSpline
210
0.0
220
0.0
230
1.0
 70
     8
 71
     3
 72
    18
 73
    14
 74
     0
 42
0.000000001
 43
0.00000001
 40
0.0
 40
0.0
 40
0.0
 40
0.0
 40
0.0077352935073129
 40
0.1062265313996114
 40
0.2046388223414541
 40
0.3030326454325241
 40
0.4014687156319685
 40
0.5000072088443006
 40
0.5985969718264752
 40
0.6970673611585351
 40
0.7954710039551327
 40
0.8977212585017891
 40
1.0
 40
1.0
 40
1.0
 40
1.0
 10
38.95612026788879
 20
2.710084534329453
 30
0.0
 10
38.97774655016596
 20
2.719864372715143
 30
0.0
 10
39.27473398201978
 20
2.85416804307729
 30
0.0
 10
39.84641330821832
 20
2.927150124792471
 30
0.0
 10
40.67118866237016
 20
2.895939788849807
 30
0.0
 10
41.49569284775912
 20
2.631743990353304
 30
0.0
 10
42.32071934822302
 20
2.178596457953207
 30
0.0
 10
43.14679773958432
 20
1.559783230128561
 30
0.0
 10
43.97336113556064
 20
0.8193666494126547
 30
0.0
 10
44.79877234976855
 20
0.0050338360004675
 30
0.0
 10
45.63412119477718
 20
-0.834985466242745
 30
0.0
 10
46.48034645020224
 20
-1.657004541588575
 30
0.0
 10
47.05176500748367
 20
-2.117435216840901
 30
0.0
 10
47.33751407992644
 20
-2.347682619031487
 30
0.0
  0
LINE
  5
ED
330
1F
100
AcDbEntity
  8
0
  6
Continuous
 62
     1
370
    15
100
AcDbLine
 10
9.999514079925522
 20
1.456196140780723
 30
0.0
 11
9.999514079925522
 21
2.251836789910699
 31
0.0
  0
LINE
  5
F0
330
1F
100
AcDbEntity
  8
0
  6
Continuous
 62
     1
370
    15
100
AcDbLine
 10
9.999514079925522
 20
-1.715097301903583
 30
0.0
 11
9.999514079925522
 21
-0.6844753007480991
 31
0.0
  0
LINE
  5
F1
330
1F
100
AcDbEntity
  8
0
  6
Continuous
 62
     1
370
    15
100
AcDbLine
 10
48.09951407992552
 20
-0.2622744311706875
 30
0.0
 11
48.09951407992552
 21
2.531725568829313
 31
0.0
  0
LINE
  5
F2
330
1F
100
AcDbEntity
  8
0
  6
Continuous
 62
     1
370
    15
100
AcDbLine
 10
48.09951407992552
 20
-3.056274431170688
 30
0.0
 11
48.09951407992552
 21
-0.2622744311706875
 31
0.0
  0
LINE
  5
F6
330
1F
100
AcDbEntity
  8
중심선
100
AcDbLine
 10
-56.50048592007447
 20
-0.2622744311706935
 30
0.0
 11
51.09951407992553
 21
-0.2622744311706935
 31
0.0
  0
CIRCLE
  5
F7
330
1F
100
AcDbEntity
  8
외형선
100
AcDbCircle
 10
-0.0004859200744764
 20
-0.2622744311706935
 30
0.0
 40
3.000000000000001
  0
INSERT
  5
F8
330
1F
100
AcDbEntity
  8
0
  6
Continuous
 62
     7
100
AcDbBlockReference
 66
     1
  2
블럭10
 10
-16.62984641916796
 20
-52.04907070757051
 30
0.0
  0
ATTRIB
  5
F9
330
F8
100
AcDbEntity
  8
FORMAT
 62
     2
100
AcDbText
 10
-27.68086677135242
 20
-49.97370379473831
 30
0.0
 40
4.233333333333333
  1
GMG22903[ 6 FLUTE ]
 41
0.75
  7
SLDTEXTSTYLE0
 11
-27.68086677135242
 21
-52.09037046140498
 31
0.0
100
AcDbAttribute
  2
AUTOATTR0
 70
     0
 74
     1
  0
SEQEND
  5
FA
330
F8
100
AcDbEntity
  8
0
  6
Continuous
 62
     7
  0
HATCH
  5
FB
330
1F
100
AcDbEntity
  8
중심선
100
AcDbHatch
 10
0.0
 20
0.0
 30
0.0
210
0.0
220
0.0
230
1.0
  2
SOLID
 70
     1
 71
     0
 91
        1
 92
        0
 93
        4
 72
     1
 10
-10.91493711478711
 20
-35.80189640592657
 11
-14.36121235862439
 21
-35.80189640592657
 72
     1
 10
-14.36121235862439
 20
-35.80189640592657
 11
-16.48944221782842
 21
-38.33822198649916
 72
     1
 10
-16.48944221782842
 20
-38.33822198649916
 11
-13.04313388887798
 21
-38.33818255719667
 72
     1
 10
-13.04313388887798
 20
-38.33818255719667
 11
-10.91493711478711
 21
-35.80189640592657
 97
        0
 75
     0
 76
     1
 98
        1
 10
0.0
 20
0.0
  0
HATCH
  5
FC
330
1F
100
AcDbEntity
  8
중심선
100
AcDbHatch
 10
0.0
 20
0.0
 30
0.0
210
0.0
220
0.0
230
1.0
  2
SOLID
 70
     1
 71
     0
 91
        1
 92
        0
 93
        4
 72
     1
 10
-5.902173123751159
 20
-35.80189640592657
 11
-9.348448367588441
 21
-35.80189640592657
 72
     1
 10
-9.348448367588441
 20
-35.80189640592657
 11
-13.87958637594583
 21
-41.20189640592658
 72
     1
 10
-13.87958637594583
 20
-41.20189640592658
 11
-10.43331113210855
 21
-41.20189640592658
 72
     1
 10
-10.43331113210855
 20
-41.20189640592658
 11
-5.902173123751159
 21
-35.80189640592657
 97
        0
 75
     0
 76
     1
 98
        1
 10
0.0
 20
0.0
  0
HATCH
  5
FD
330
1F
100
AcDbEntity
  8
중심선
100
AcDbHatch
 10
0.0
 20
0.0
 30
0.0
210
0.0
220
0.0
230
1.0
  2
SOLID
 70
     1
 71
     0
 91
        1
 92
        0
 93
        4
 72
     1
 10
-0.8894091327152631
 20
-35.8018964059266
 11
-4.335684376552379
 21
-35.80189640592657
 72
     1
 10
-4.335684376552379
 20
-35.80189640592657
 11
-11.38412127844163
 21
-44.20189640592659
 72
     1
 10
-11.38412127844163
 20
-44.20189640592659
 11
-7.937846034604346
 21
-44.20189640592659
 72
     1
 10
-7.937846034604346
 20
-44.20189640592659
 11
-0.8894091327152633
 21
-35.8018964059266
 97
        0
 75
     0
 76
     1
 98
        1
 10
0.0
 20
0.0
  0
HATCH
  5
FE
330
1F
100
AcDbEntity
  8
중심선
100
AcDbHatch
 10
0.0
 20
0.0
 30
0.0
210
0.0
220
0.0
230
1.0
  2
SOLID
 70
     1
 71
     0
 91
        1
 92
        0
 93
        6
 72
     3
 10
3.910481298296936
 20
-40.00189640597785
 11
3.960054785062284
 21
1.540850780301639E-10
 40
0.3939339440162633
 50
17.09539180608434
 51
320.0019657685079
 73
     0
 72
     1
 10
5.593480953997531
 20
-38.58979041056487
 11
7.89878282769857
 21
-36.65546370051695
 72
     3
 10
3.91048129824409
 20
-40.00189640592671
 11
6.600054785286829
 21
-1.249000902703301E-13
 40
0.6363583540795982
 50
39.99873849337408
 51
368.4976242363725
 73
     1
 72
     1
 10
10.3358137901447
 20
-39.04189640585659
 11
2.590548605080012
 21
-39.04189640585656
 72
     1
 10
2.590548605080012
 20
-39.04189640585656
 11
2.590523560634078
 21
-40.96189640585649
 72
     1
 10
2.590523560634078
 20
-40.96189640585649
 11
7.031903330106115
 21
-40.96189640585646
 97
        0
 75
     0
 76
     1
 98
        1
 10
0.0
 20
0.0
  0
POINT
  5
FF
330
1F
100
AcDbEntity
  8
치수문자_일반주서
100
AcDbPoint
 10
-0.0004859200744764
 20
-0.2622744311706935
 30
0.0
  0
DIMENSION
  5
100
330
1F
100
AcDbEntity
  8
치수문자_일반주서
100
AcDbDimension
  2
_D
 10
66.74475979569846
 20
2.912725568829387
 30
0.0
 11
66.74475979569847
 21
-0.7588282158242085
 31
0.0
 70
   160
  1
%%c<>
 71
     2
 42
6.350000000000023
  3
SLDDIMSTYLE0
100
AcDbAlignedDimension
 13
48.09951407992549
 23
-3.4372744311707
 33
0.0
 14
48.09951407992549
 24
2.912725568829322
 34
0.0
 50
90.0000000000002
100
AcDbRotatedDimension
1001
ACAD
1000
DSTYLE
1002
{
1070
   273
1070
     7
1002
}
  0
DIMENSION
  5
115
330
1F
100
AcDbEntity
  8
치수문자_일반주서
100
AcDbDimension
  2
_D_1
 10
48.09951407992552
 20
35.56827698690109
 30
0.0
 11
-2.700485920074479
 21
35.56827698690109
 31
0.0
 70
   160
  1
<>
 71
     2
 42
101.6
  3
SLDDIMSTYLE1
100
AcDbAlignedDimension
 13
-53.50048592007447
 23
2.412725568829304
 33
0.0
 14
48.09951407992552
 24
2.150725568829313
 34
0.0
100
AcDbRotatedDimension
1001
ACAD
1000
DSTYLE
1002
{
1070
   273
1070
     7
1002
}
  0
DIMENSION
  5
129
330
1F
100
AcDbEntity
  8
치수문자_일반주서
100
AcDbDimension
  2
_D_2
 10
9.999514079923848
 20
19.77772009916724
 30
0.0
 11
28.63041577777775
 21
19.77772009916724
 31
0.0
 70
   160
  1
<>
 71
     2
 42
38.10000000000166
  3
SLDDIMSTYLE1
100
AcDbAlignedDimension
 13
48.09951407992552
 23
2.150725568829313
 33
0.0
 14
9.999514079923859
 24
-3.433567873858495
 34
0.0
100
AcDbRotatedDimension
1001
ACAD
1000
DSTYLE
1002
{
1070
   273
1070
     7
1002
}
  0
DIMENSION
  5
13C
330
1F
100
AcDbEntity
  8
치수문자_일반주서
100
AcDbDimension
  2
_D_3
 10
-66.50048592007447
 20
-3.437274431170738
 30
0.0
 11
-66.50048592007448
 21
-0.2622744311706931
 31
0.0
 70
   160
  1
%%c<>
 71
     2
 42
6.35
  3
SLDDIMSTYLE0
100
AcDbAlignedDimension
 13
-53.00048592007447
 23
2.912725568829309
 33
0.0
 14
-53.00048592007447
 24
-3.437274431170691
 34
0.0
 50
90.0000000000002
100
AcDbRotatedDimension
1001
ACAD
1000
DSTYLE
1002
{
1070
   273
1070
     7
1002
}
  0
INSERT
  5
156
330
1F
100
AcDbEntity
  8
외형선
100
AcDbBlockReference
  2
SW_DOWELSYMBOL_0
 10
-0.0004859200744764
 20
-0.2622744311706935
 30
0.0
  0
ARC
  5
17C
102
{ACAD_REACTORS
102
}
330
1F
100
AcDbEntity
  8
0
  6
Continuous
 62
     1
370
    15
100
AcDbCircle
 10
47.71851407992552
 20
2.531725568829313
 30
0.0
 40
0.3809999999999999
100
AcDbArc
 50
0.0
 51
90.0
  0
ARC
  5
17D
330
1F
100
AcDbEntity
  8
0
  6
Continuous
 62
     1
370
    15
100
AcDbCircle
 10
47.71851407992552
 20
-3.056274431170688
 30
0.0
 40
0.3809999999999999
100
AcDbArc
 50
270.0
 51
0.0
  0
DIMENSION
  5
17F
102
{ACAD_REACTORS
102
}
102
{ACAD_XDICTIONARY
360
180
102
}
330
1F
100
AcDbEntity
  8
치수문자_일반주서
100
AcDbDimension
  2
*D7
 10
47.71851407992552
 20
2.531725568829313
 30
0.0
 11
61.92058053512979
 21
19.49744158385212
 31
0.0
 70
   164
  1
<>
 71
     5
 42
0.3810000000000009
  3
SLDDIMSTYLE1
100
AcDbRadialDimension
 15
47.96307383572294
 25
2.823875403407921
 35
0.0
 40
0.0
1001
ACAD
1000
DSTYLE
1002
{
1070
   171
1070
     3
1070
   273
1070
     2
1002
}
1001
ACAD_DSTYLE_DIMRADIAL_EXTENSION
1070
   387
1070
     1
1070
   388
1040
0.0
1070
   390
1040
1.570796326794897
  0
ENDSEC
  0
SECTION
  2
OBJECTS
  0
DICTIONARY
  5
C
330
0
100
AcDbDictionary
281
     1
  3
ACAD_GROUP
350
D
  3
ACAD_IMAGE_VARS
350
17A
  3
ACAD_LAYOUT
350
1A
  3
ACAD_MLINESTYLE
350
17
  3
ACAD_PLOTSETTINGS
350
19
  3
ACAD_PLOTSTYLENAME
350
E
  3
ACAD_SCALELIST
350
47
  3
APPDATA
350
178
  3
DWGPROPS
350
18C
  0
DICTIONARY
  5
180
330
17F
100
AcDbDictionary
280
     1
281
     1
  0
DICTIONARY
  5
D
102
{ACAD_REACTORS
330
C
102
}
330
C
100
AcDbDictionary
281
     1
  0
RASTERVARIABLES
  5
17A
102
{ACAD_REACTORS
330
C
102
}
330
C
100
AcDbRasterVariables
 90
        0
 70
     1
 71
     1
 72
     1
  0
DICTIONARY
  5
1A
102
{ACAD_REACTORS
330
C
102
}
330
C
100
AcDbDictionary
281
     1
  3
Layout1
350
1E
  3
Layout2
350
26
  3
Model
350
22
  0
DICTIONARY
  5
17
102
{ACAD_REACTORS
330
C
102
}
330
C
100
AcDbDictionary
281
     1
  3
Standard
350
18
  0
DICTIONARY
  5
19
102
{ACAD_REACTORS
330
C
102
}
330
C
100
AcDbDictionary
281
     1
  0
ACDBDICTIONARYWDFLT
  5
E
102
{ACAD_REACTORS
330
C
102
}
330
C
100
AcDbDictionary
281
     1
  3
Normal
350
F
100
AcDbDictionaryWithDefault
340
F
  0
DICTIONARY
  5
47
102
{ACAD_REACTORS
330
C
102
}
330
C
100
AcDbDictionary
281
     1
  3
A0
350
48
  3
A1
350
49
  3
A2
350
4A
  3
A3
350
4B
  3
A4
350
4C
  3
A5
350
4D
  3
A6
350
4E
  3
A7
350
4F
  3
A8
350
50
  3
A9
350
51
  3
B0
350
52
  3
B1
350
53
  3
B2
350
54
  3
B3
350
55
  3
B4
350
56
  3
B5
350
57
  3
B6
350
58
  3
B7
350
59
  3
B8
350
5A
  3
B9
350
5B
  3
C0
350
5C
  3
C1
350
5D
  3
C2
350
5E
  3
C3
350
5F
  3
C4
350
60
  3
C5
350
61
  3
C6
350
62
  3
C7
350
63
  3
C8
350
64
  3
C9
350
65
  3
D0
350
66
  3
D1
350
67
  3
D2
350
68
  0
DICTIONARY
  5
178
102
{ACAD_REACTORS
330
C
102
}
330
C
100
AcDbDictionary
281
     1
  0
XRECORD
  5
18C
102
{ACAD_REACTORS
330
C
102
}
330
C
100
AcDbXrecord
280
     1
  1
DWGPROPS COOKIE
  2

  3

  4

  6

  7

  8
12016016
  9

300
=
301
=
302
=
303
=
304
=
305
=
306
=
307
=
308
=
309
=
 40
0.0
 41
2458236.362226065
 42
2458241.211345232
  1

 90
        0
  0
LAYOUT
  5
1E
102
{ACAD_REACTORS
330
1A
102
}
330
1A
100
AcDbPlotSettings
  1

  2
none_device
  4

  6

 40
0.0
 41
0.0
 42
0.0
 43
0.0
 44
0.0
 45
0.0
 46
0.0
 47
0.0
 48
0.0
 49
0.0
140
0.0
141
0.0
142
1.0
143
1.0
 70
   688
 72
     1
 73
     0
 74
     5
  7

 75
    16
147
1.0
148
0.0
149
0.0
100
AcDbLayout
  1
Layout1
 70
     1
 71
     1
 10
0.0
 20
0.0
 11
420.0
 21
297.0
 12
0.0
 22
0.0
 32
0.0
 14
1.000000000000000E+20
 24
1.000000000000000E+20
 34
1.000000000000000E+20
 15
-1.000000000000000E+20
 25
-1.000000000000000E+20
 35
-1.000000000000000E+20
146
0.0
 13
0.0
 23
0.0
 33
0.0
 16
1.0
 26
0.0
 36
0.0
 17
0.0
 27
1.0
 37
0.0
 76
     0
330
1B
  0
LAYOUT
  5
26
102
{ACAD_REACTORS
330
1A
102
}
330
1A
100
AcDbPlotSettings
  1

  2
none_device
  4

  6

 40
0.0
 41
0.0
 42
0.0
 43
0.0
 44
0.0
 45
0.0
 46
0.0
 47
0.0
 48
0.0
 49
0.0
140
0.0
141
0.0
142
1.0
143
1.0
 70
   688
 72
     1
 73
     0
 74
     5
  7

 75
    16
147
1.0
148
0.0
149
0.0
100
AcDbLayout
  1
Layout2
 70
     1
 71
     2
 10
0.0
 20
0.0
 11
0.0
 21
0.0
 12
0.0
 22
0.0
 32
0.0
 14
0.0
 24
0.0
 34
0.0
 15
0.0
 25
0.0
 35
0.0
146
0.0
 13
0.0
 23
0.0
 33
0.0
 16
1.0
 26
0.0
 36
0.0
 17
0.0
 27
1.0
 37
0.0
 76
     0
330
23
  0
LAYOUT
  5
22
102
{ACAD_REACTORS
330
1A
102
}
330
1A
100
AcDbPlotSettings
  1

  2
none_device
  4
ANSI_A_(11.00_x_8.50_Inches)
  6

 40
6.35
 41
19.05
 42
6.35000508
 43
19.05000254
 44
279.4
 45
215.9
 46
142.4551971308539
 47
93.05420650932273
 48
0.0
 49
0.0
140
0.0
141
0.0
142
0.0750837051803466
143
1.0
 70
  1696
 72
     0
 73
     0
 74
     0
  7

 75
     0
147
0.0235690232323232
148
0.0
149
0.0
100
AcDbLayout
  1
Model
 70
     1
 71
     0
 10
0.0
 20
0.0
 11
420.0
 21
297.0
 12
0.0
 22
0.0
 32
0.0
 14
-70.87548592007454
 24
-49.97370379473832
 34
0.0
 15
70.90702825471995
 25
39.94327698690109
 35
0.0
146
0.0
 13
0.0
 23
0.0
 33
0.0
 16
1.0
 26
0.0
 36
0.0
 17
0.0
 27
1.0
 37
0.0
 76
     0
330
1F
331
29
  0
MLINESTYLE
  5
18
102
{ACAD_REACTORS
330
17
102
}
330
17
100
AcDbMlineStyle
  2
Standard
 70
     0
  3

 62
   256
 51
90.0
 52
90.0
 71
     2
 49
0.5
 62
   256
  6
BYLAYER
 49
-0.5
 62
   256
  6
BYLAYER
  0
ACDBPLACEHOLDER
  5
F
102
{ACAD_REACTORS
330
E
102
}
330
E
  0
SCALE
  5
48
102
{ACAD_REACTORS
330
47
102
}
330
47
100
AcDbScale
 70
     0
300
1:1
140
1.0
141
1.0
290
     1
  0
SCALE
  5
49
102
{ACAD_REACTORS
330
47
102
}
330
47
100
AcDbScale
 70
     0
300
1:2
140
1.0
141
2.0
290
     0
  0
SCALE
  5
4A
102
{ACAD_REACTORS
330
47
102
}
330
47
100
AcDbScale
 70
     0
300
1:4
140
1.0
141
4.0
290
     0
  0
SCALE
  5
4B
102
{ACAD_REACTORS
330
47
102
}
330
47
100
AcDbScale
 70
     0
300
1:5
140
1.0
141
5.0
290
     0
  0
SCALE
  5
4C
102
{ACAD_REACTORS
330
47
102
}
330
47
100
AcDbScale
 70
     0
300
1:8
140
1.0
141
8.0
290
     0
  0
SCALE
  5
4D
102
{ACAD_REACTORS
330
47
102
}
330
47
100
AcDbScale
 70
     0
300
1:10
140
1.0
141
10.0
290
     0
  0
SCALE
  5
4E
102
{ACAD_REACTORS
330
47
102
}
330
47
100
AcDbScale
 70
     0
300
1:16
140
1.0
141
16.0
290
     0
  0
SCALE
  5
4F
102
{ACAD_REACTORS
330
47
102
}
330
47
100
AcDbScale
 70
     0
300
1:20
140
1.0
141
20.0
290
     0
  0
SCALE
  5
50
102
{ACAD_REACTORS
330
47
102
}
330
47
100
AcDbScale
 70
     0
300
1:30
140
1.0
141
30.0
290
     0
  0
SCALE
  5
51
102
{ACAD_REACTORS
330
47
102
}
330
47
100
AcDbScale
 70
     0
300
1:40
140
1.0
141
40.0
290
     0
  0
SCALE
  5
52
102
{ACAD_REACTORS
330
47
102
}
330
47
100
AcDbScale
 70
     0
300
1:50
140
1.0
141
50.0
290
     0
  0
SCALE
  5
53
102
{ACAD_REACTORS
330
47
102
}
330
47
100
AcDbScale
 70
     0
300
1:100
140
1.0
141
100.0
290
     0
  0
SCALE
  5
54
102
{ACAD_REACTORS
330
47
102
}
330
47
100
AcDbScale
 70
     0
300
2:1
140
2.0
141
1.0
290
     0
  0
SCALE
  5
55
102
{ACAD_REACTORS
330
47
102
}
330
47
100
AcDbScale
 70
     0
300
4:1
140
4.0
141
1.0
290
     0
  0
SCALE
  5
56
102
{ACAD_REACTORS
330
47
102
}
330
47
100
AcDbScale
 70
     0
300
8:1
140
8.0
141
1.0
290
     0
  0
SCALE
  5
57
102
{ACAD_REACTORS
330
47
102
}
330
47
100
AcDbScale
 70
     0
300
10:1
140
10.0
141
1.0
290
     0
  0
SCALE
  5
58
102
{ACAD_REACTORS
330
47
102
}
330
47
100
AcDbScale
 70
     0
300
100:1
140
100.0
141
1.0
290
     0
  0
SCALE
  5
59
102
{ACAD_REACTORS
330
47
102
}
330
47
100
AcDbScale
 70
     0
300
1/128" = 1'-0"
140
0.0078125
141
12.0
290
     0
  0
SCALE
  5
5A
102
{ACAD_REACTORS
330
47
102
}
330
47
100
AcDbScale
 70
     0
300
1/64" = 1'-0"
140
0.015625
141
12.0
290
     0
  0
SCALE
  5
5B
102
{ACAD_REACTORS
330
47
102
}
330
47
100
AcDbScale
 70
     0
300
1/32" = 1'-0"
140
0.03125
141
12.0
290
     0
  0
SCALE
  5
5C
102
{ACAD_REACTORS
330
47
102
}
330
47
100
AcDbScale
 70
     0
300
1/16" = 1'-0"
140
0.0625
141
12.0
290
     0
  0
SCALE
  5
5D
102
{ACAD_REACTORS
330
47
102
}
330
47
100
AcDbScale
 70
     0
300
3/32" = 1'-0"
140
0.09375
141
12.0
290
     0
  0
SCALE
  5
5E
102
{ACAD_REACTORS
330
47
102
}
330
47
100
AcDbScale
 70
     0
300
1/8" = 1'-0"
140
0.125
141
12.0
290
     0
  0
SCALE
  5
5F
102
{ACAD_REACTORS
330
47
102
}
330
47
100
AcDbScale
 70
     0
300
3/16" = 1'-0"
140
0.1875
141
12.0
290
     0
  0
SCALE
  5
60
102
{ACAD_REACTORS
330
47
102
}
330
47
100
AcDbScale
 70
     0
300
1/4" = 1'-0"
140
0.25
141
12.0
290
     0
  0
SCALE
  5
61
102
{ACAD_REACTORS
330
47
102
}
330
47
100
AcDbScale
 70
     0
300
3/8" = 1'-0"
140
0.375
141
12.0
290
     0
  0
SCALE
  5
62
102
{ACAD_REACTORS
330
47
102
}
330
47
100
AcDbScale
 70
     0
300
1/2" = 1'-0"
140
0.5
141
12.0
290
     0
  0
SCALE
  5
63
102
{ACAD_REACTORS
330
47
102
}
330
47
100
AcDbScale
 70
     0
300
3/4" = 1'-0"
140
0.75
141
12.0
290
     0
  0
SCALE
  5
64
102
{ACAD_REACTORS
330
47
102
}
330
47
100
AcDbScale
 70
     0
300
1" = 1'-0"
140
1.0
141
12.0
290
     0
  0
SCALE
  5
65
102
{ACAD_REACTORS
330
47
102
}
330
47
100
AcDbScale
 70
     0
300
1-1/2" = 1'-0"
140
1.5
141
12.0
290
     0
  0
SCALE
  5
66
102
{ACAD_REACTORS
330
47
102
}
330
47
100
AcDbScale
 70
     0
300
3" = 1'-0"
140
3.0
141
12.0
290
     0
  0
SCALE
  5
67
102
{ACAD_REACTORS
330
47
102
}
330
47
100
AcDbScale
 70
     0
300
6" = 1'-0"
140
6.0
141
12.0
290
     0
  0
SCALE
  5
68
102
{ACAD_REACTORS
330
47
102
}
330
47
100
AcDbScale
 70
     0
300
1'-0" = 1'-0"
140
12.0
141
12.0
290
     0
  0
ENDSEC
  0
EOF
