  0
SECTION
  2
HEADER
  9
$ACADVER
  1
AC1015
  9
$ACADMAINTVER
 70
     6
  9
$DWGCODEPAGE
  3
ANSI_949
  9
$INSBASE
 10
0.0
 20
0.0
 30
0.0
  9
$EXTMIN
 10
-54.05000000000004
 20
-49.97180738881175
 30
0.0
  9
$EXTMAX
 10
68.10022049622913
 20
55.27974901411533
 30
0.0
  9
$LIMMIN
 10
0.0
 20
0.0
  9
$LIMMAX
 10
420.0
 20
297.0
  9
$ORTHOMODE
 70
     1
  9
$REGENMODE
 70
     1
  9
$FILLMODE
 70
     1
  9
$QTEXTMODE
 70
     0
  9
$MIRRTEXT
 70
     1
  9
$LTSCALE
 40
1.0
  9
$ATTMODE
 70
     1
  9
$TEXTSIZE
 40
3.5
  9
$TRACEWID
 40
1.0
  9
$TEXTSTYLE
  7
Standard
  9
$CLAYER
  8
0
  9
$CELTYPE
  6
ByLayer
  9
$CECOLOR
 62
   256
  9
$CELTSCALE
 40
1.0
  9
$DISPSILH
 70
     0
  9
$DIMSCALE
 40
1.0
  9
$DIMASZ
 40
3.302
  9
$DIMEXO
 40
1.0
  9
$DIMDLI
 40
3.75
  9
$DIMRND
 40
0.0
  9
$DIMDLE
 40
0.0
  9
$DIMEXE
 40
1.0
  9
$DIMTP
 40
0.0
  9
$DIMTM
 40
0.0
  9
$DIMTXT
 40
3.5
  9
$DIMCEN
 40
2.5
  9
$DIMTSZ
 40
0.0
  9
$DIMTOL
 70
     0
  9
$DIMLIM
 70
     0
  9
$DIMTIH
 70
     1
  9
$DIMTOH
 70
     1
  9
$DIMSE1
 70
     0
  9
$DIMSE2
 70
     0
  9
$DIMTAD
 70
     1
  9
$DIMZIN
 70
     0
  9
$DIMBLK
  1

  9
$DIMASO
 70
     1
  9
$DIMSHO
 70
     1
  9
$DIMPOST
  1

  9
$DIMAPOST
  1

  9
$DIMALT
 70
     0
  9
$DIMALTD
 70
     3
  9
$DIMALTF
 40
0.0393700787401575
  9
$DIMLFAC
 40
1.0
  9
$DIMTOFL
 70
     1
  9
$DIMTVP
 40
0.0
  9
$DIMTIX
 70
     0
  9
$DIMSOXD
 70
     0
  9
$DIMSAH
 70
     0
  9
$DIMBLK1
  1

  9
$DIMBLK2
  1

  9
$DIMSTYLE
  2
ISO-25
  9
$DIMCLRD
 70
     0
  9
$DIMCLRE
 70
     0
  9
$DIMCLRT
 70
     0
  9
$DIMTFAC
 40
1.0
  9
$DIMGAP
 40
1.524
  9
$DIMJUST
 70
     0
  9
$DIMSD1
 70
     0
  9
$DIMSD2
 70
     0
  9
$DIMTOLJ
 70
     0
  9
$DIMTZIN
 70
     0
  9
$DIMALTZ
 70
     0
  9
$DIMALTTZ
 70
     0
  9
$DIMUPT
 70
     0
  9
$DIMDEC
 70
     2
  9
$DIMTDEC
 70
     2
  9
$DIMALTU
 70
     2
  9
$DIMALTTD
 70
     3
  9
$DIMTXSTY
  7
Standard
  9
$DIMAUNIT
 70
     0
  9
$DIMADEC
 70
     2
  9
$DIMALTRND
 40
0.0
  9
$DIMAZIN
 70
     0
  9
$DIMDSEP
 70
    44
  9
$DIMATFIT
 70
     3
  9
$DIMFRAC
 70
     0
  9
$DIMLDRBLK
  1

  9
$DIMLUNIT
 70
     2
  9
$DIMLWD
 70
    -2
  9
$DIMLWE
 70
    -2
  9
$DIMTMOVE
 70
     0
  9
$LUNITS
 70
     2
  9
$LUPREC
 70
     2
  9
$SKETCHINC
 40
1.0
  9
$FILLETRAD
 40
0.381
  9
$AUNITS
 70
     0
  9
$AUPREC
 70
     2
  9
$MENU
  1
.
  9
$ELEVATION
 40
0.0
  9
$PELEVATION
 40
0.0
  9
$THICKNESS
 40
0.0
  9
$LIMCHECK
 70
     0
  9
$CHAMFERA
 40
0.0
  9
$CHAMFERB
 40
0.0
  9
$CHAMFERC
 40
0.0
  9
$CHAMFERD
 40
0.0
  9
$SKPOLY
 70
     0
  9
$TDCREATE
 40
2458236.727694352
  9
$TDUCREATE
 40
2458236.352694352
  9
$TDUPDATE
 40
2458246.742996377
  9
$TDUUPDATE
 40
2458246.367996377
  9
$TDINDWG
 40
0.0084663194
  9
$TDUSRTIMER
 40
2458246.361169641
  9
$USRTIMER
 70
     1
  9
$ANGBASE
 50
0.0
  9
$ANGDIR
 70
     0
  9
$PDMODE
 70
     0
  9
$PDSIZE
 40
-1.0
  9
$PLINEWID
 40
0.0
  9
$SPLFRAME
 70
     0
  9
$SPLINETYPE
 70
     6
  9
$SPLINESEGS
 70
     8
  9
$HANDSEED
  5
218
  9
$SURFTAB1
 70
     6
  9
$SURFTAB2
 70
     6
  9
$SURFTYPE
 70
     6
  9
$SURFU
 70
     6
  9
$SURFV
 70
     6
  9
$UCSBASE
  2

  9
$UCSNAME
  2

  9
$UCSORG
 10
0.0
 20
0.0
 30
0.0
  9
$UCSXDIR
 10
1.0
 20
0.0
 30
0.0
  9
$UCSYDIR
 10
0.0
 20
1.0
 30
0.0
  9
$UCSORTHOREF
  2

  9
$UCSORTHOVIEW
 70
     0
  9
$UCSORGTOP
 10
0.0
 20
0.0
 30
0.0
  9
$UCSORGBOTTOM
 10
0.0
 20
0.0
 30
0.0
  9
$UCSORGLEFT
 10
0.0
 20
0.0
 30
0.0
  9
$UCSORGRIGHT
 10
0.0
 20
0.0
 30
0.0
  9
$UCSORGFRONT
 10
0.0
 20
0.0
 30
0.0
  9
$UCSORGBACK
 10
0.0
 20
0.0
 30
0.0
  9
$PUCSBASE
  2

  9
$PUCSNAME
  2

  9
$PUCSORG
 10
0.0
 20
0.0
 30
0.0
  9
$PUCSXDIR
 10
1.0
 20
0.0
 30
0.0
  9
$PUCSYDIR
 10
0.0
 20
1.0
 30
0.0
  9
$PUCSORTHOREF
  2

  9
$PUCSORTHOVIEW
 70
     0
  9
$PUCSORGTOP
 10
0.0
 20
0.0
 30
0.0
  9
$PUCSORGBOTTOM
 10
0.0
 20
0.0
 30
0.0
  9
$PUCSORGLEFT
 10
0.0
 20
0.0
 30
0.0
  9
$PUCSORGRIGHT
 10
0.0
 20
0.0
 30
0.0
  9
$PUCSORGFRONT
 10
0.0
 20
0.0
 30
0.0
  9
$PUCSORGBACK
 10
0.0
 20
0.0
 30
0.0
  9
$USERI1
 70
     0
  9
$USERI2
 70
     0
  9
$USERI3
 70
     0
  9
$USERI4
 70
     0
  9
$USERI5
 70
     0
  9
$USERR1
 40
0.0
  9
$USERR2
 40
0.0
  9
$USERR3
 40
0.0
  9
$USERR4
 40
0.0
  9
$USERR5
 40
0.0
  9
$WORLDVIEW
 70
     1
  9
$SHADEDGE
 70
     3
  9
$SHADEDIF
 70
    70
  9
$TILEMODE
 70
     1
  9
$MAXACTVP
 70
    64
  9
$PINSBASE
 10
0.0
 20
0.0
 30
0.0
  9
$PLIMCHECK
 70
     0
  9
$PEXTMIN
 10
1.000000000000000E+20
 20
1.000000000000000E+20
 30
1.000000000000000E+20
  9
$PEXTMAX
 10
-1.000000000000000E+20
 20
-1.000000000000000E+20
 30
-1.000000000000000E+20
  9
$PLIMMIN
 10
0.0
 20
0.0
  9
$PLIMMAX
 10
0.0
 20
0.0
  9
$UNITMODE
 70
     0
  9
$VISRETAIN
 70
     1
  9
$PLINEGEN
 70
     0
  9
$PSLTSCALE
 70
     1
  9
$TREEDEPTH
 70
  3020
  9
$CMLSTYLE
  2
Standard
  9
$CMLJUST
 70
     0
  9
$CMLSCALE
 40
20.0
  9
$PROXYGRAPHICS
 70
     1
  9
$MEASUREMENT
 70
     1
  9
$CELWEIGHT
370
    -1
  9
$ENDCAPS
280
     0
  9
$JOINSTYLE
280
     0
  9
$LWDISPLAY
290
     1
  9
$INSUNITS
 70
     4
  9
$HYPERLINKBASE
  1

  9
$STYLESHEET
  1

  9
$XEDIT
290
     1
  9
$CEPSNTYPE
380
     0
  9
$PSTYLEMODE
290
     1
  9
$FINGERPRINTGUID
  2
{D0A0A66C-2E14-4BA6-A04A-1DFEE3B95F90}
  9
$VERSIONGUID
  2
{FAEB1C32-E019-11D5-929B-00C0DF256EC4}
  9
$EXTNAMES
290
     1
  9
$PSVPSCALE
 40
0.0
  9
$OLESTARTUP
290
     0
  0
ENDSEC
  0
SECTION
  2
CLASSES
  0
CLASS
  1
ACDBDICTIONARYWDFLT
  2
AcDbDictionaryWithDefault
  3
ObjectDBX Classes
 90
        0
280
     0
281
     0
  0
CLASS
  1
VISUALSTYLE
  2
AcDbVisualStyle
  3
ObjectDBX Classes
 90
     4095
280
     0
281
     0
  0
CLASS
  1
MATERIAL
  2
AcDbMaterial
  3
ObjectDBX Classes
 90
     1153
280
     0
281
     0
  0
CLASS
  1
SCALE
  2
AcDbScale
  3
ObjectDBX Classes
 90
     1153
280
     0
281
     0
  0
CLASS
  1
SUN
  2
AcDbSun
  3
SCENEOE
 90
     1153
280
     0
281
     0
  0
CLASS
  1
ACDBPLACEHOLDER
  2
AcDbPlaceHolder
  3
ObjectDBX Classes
 90
        0
280
     0
281
     0
  0
CLASS
  1
LAYOUT
  2
AcDbLayout
  3
ObjectDBX Classes
 90
        0
280
     0
281
     0
  0
CLASS
  1
TABLESTYLE
  2
AcDbTableStyle
  3
ObjectDBX Classes
 90
     4095
280
     0
281
     0
  0
CLASS
  1
MLEADERSTYLE
  2
AcDbMLeaderStyle
  3
ACDB_MLEADERSTYLE_CLASS
 90
     4095
280
     0
281
     0
  0
CLASS
  1
RASTERVARIABLES
  2
AcDbRasterVariables
  3
ISM
 90
        0
280
     0
281
     0
  0
CLASS
  1
DIMASSOC
  2
AcDbDimAssoc
  3
"AcDbDimAssoc|Product Desc:     AcDim ARX App For Dimension|Company:          Autodesk, Inc.|WEB Address:      www.autodesk.com"
 90
        0
280
     0
281
     0
  0
CLASS
  1
DICTIONARYVAR
  2
AcDbDictionaryVar
  3
ObjectDBX Classes
 90
        0
280
     0
281
     0
  0
ENDSEC
  0
SECTION
  2
TABLES
  0
TABLE
  2
VPORT
  5
8
330
0
100
AcDbSymbolTable
 70
     1
  0
VPORT
  5
29
330
8
100
AcDbSymbolTableRecord
100
AcDbViewportTableRecord
  2
*Active
 70
     0
 10
0.0
 20
0.0
 11
1.0
 21
1.0
 12
23.03570671920431
 22
2.120885376524264
 13
0.0
 23
0.0
 14
10.0
 24
10.0
 15
10.0
 25
10.0
 16
0.0
 26
0.0
 36
1.0
 17
0.0
 27
0.0
 37
0.0
 40
127.4838766381321
 41
2.22554347826087
 42
50.0
 43
0.0
 44
0.0
 50
0.0
 51
0.0
 71
    16
 72
  2000
 73
     1
 74
     3
 75
     0
 76
     0
 77
     0
 78
     0
281
     0
 65
     1
110
0.0
120
0.0
130
0.0
111
1.0
121
0.0
131
0.0
112
0.0
122
1.0
132
0.0
 79
     0
146
0.0
  0
ENDTAB
  0
TABLE
  2
LTYPE
  5
5
330
0
100
AcDbSymbolTable
 70
     6
  0
LTYPE
  5
14
330
5
100
AcDbSymbolTableRecord
100
AcDbLinetypeTableRecord
  2
ByBlock
 70
     0
  3

 72
    65
 73
     0
 40
0.0
  0
LTYPE
  5
15
330
5
100
AcDbSymbolTableRecord
100
AcDbLinetypeTableRecord
  2
ByLayer
 70
     0
  3

 72
    65
 73
     0
 40
0.0
  0
LTYPE
  5
16
330
5
100
AcDbSymbolTableRecord
100
AcDbLinetypeTableRecord
  2
Continuous
 70
     0
  3
Solid line
 72
    65
 73
     0
 40
0.0
  0
LTYPE
  5
6A
330
5
100
AcDbSymbolTableRecord
100
AcDbLinetypeTableRecord
  2
HIDDEN
 70
     0
  3
Hidden __ __ __ __ __ __ __ __ __ __ __ __ __ __
 72
    65
 73
     2
 40
1.905
 49
1.27
 74
     0
 49
-0.635
 74
     0
  0
LTYPE
  5
6B
330
5
100
AcDbSymbolTableRecord
100
AcDbLinetypeTableRecord
  2
PHANTOM
 70
     0
  3
Phantom ______  __  __  ______  __  __  ______
 72
    65
 73
     6
 40
12.7
 49
6.35
 74
     0
 49
-1.27
 74
     0
 49
1.27
 74
     0
 49
-1.27
 74
     0
 49
1.27
 74
     0
 49
-1.27
 74
     0
  0
LTYPE
  5
6C
330
5
100
AcDbSymbolTableRecord
100
AcDbLinetypeTableRecord
  2
CENTER
 70
     0
  3
Center ____ _ ____ _ ____ _ ____ _ ____ _ ____
 72
    65
 73
     4
 40
10.16
 49
6.35
 74
     0
 49
-1.27
 74
     0
 49
1.27
 74
     0
 49
-1.27
 74
     0
  0
LTYPE
  5
6D
330
5
100
AcDbSymbolTableRecord
100
AcDbLinetypeTableRecord
  2
CENTERX2
 70
     0
  3
Center (2x) ________  __  ________  __  _____
 72
    65
 73
     4
 40
20.32
 49
12.7
 74
     0
 49
-2.54
 74
     0
 49
2.54
 74
     0
 49
-2.54
 74
     0
  0
LTYPE
  5
6E
330
5
100
AcDbSymbolTableRecord
100
AcDbLinetypeTableRecord
  2
DOT2
 70
     0
  3
Dot (.5x) ........................................
 72
    65
 73
     2
 40
0.635
 49
0.0
 74
     0
 49
-0.635
 74
     0
  0
ENDTAB
  0
TABLE
  2
LAYER
  5
2
330
0
100
AcDbSymbolTable
 70
    17
  0
LAYER
  5
10
330
2
100
AcDbSymbolTableRecord
100
AcDbLayerTableRecord
  2
0
 70
     0
 62
     7
  6
Continuous
370
    -3
390
F
  0
LAYER
  5
6F
330
2
100
AcDbSymbolTableRecord
100
AcDbLayerTableRecord
  2
FORMAT
 70
     0
 62
     2
  6
Continuous
370
    -3
390
F
  0
LAYER
  5
70
330
2
100
AcDbSymbolTableRecord
100
AcDbLayerTableRecord
  2
외형선
 70
     0
 62
   100
  6
Continuous
370
    30
390
F
  0
LAYER
  5
71
330
2
100
AcDbSymbolTableRecord
100
AcDbLayerTableRecord
  2
숨은선
 70
     0
 62
     2
  6
HIDDEN
370
    15
390
F
  0
LAYER
  5
72
330
2
100
AcDbSymbolTableRecord
100
AcDbLayerTableRecord
  2
중심선
 70
     0
 62
     1
  6
CENTERX2
370
    -3
390
F
  0
LAYER
  5
73
330
2
100
AcDbSymbolTableRecord
100
AcDbLayerTableRecord
  2
파단선
 70
     0
 62
     4
  6
Continuous
370
    -3
390
F
  0
LAYER
  5
74
330
2
100
AcDbSymbolTableRecord
100
AcDbLayerTableRecord
  2
해칭선
 70
     0
 62
     4
  6
Continuous
370
    -3
390
F
  0
LAYER
  5
75
330
2
100
AcDbSymbolTableRecord
100
AcDbLayerTableRecord
  2
가는실선
 70
     0
 62
     4
  6
Continuous
370
    -3
390
F
  0
LAYER
  5
76
330
2
100
AcDbSymbolTableRecord
100
AcDbLayerTableRecord
  2
치수_보조선
 70
     0
 62
     4
  6
Continuous
370
    -3
390
F
  0
LAYER
  5
77
330
2
100
AcDbSymbolTableRecord
100
AcDbLayerTableRecord
  2
치수문자_일반주서
 70
     0
 62
     7
  6
Continuous
370
    15
390
F
  0
LAYER
  5
78
330
2
100
AcDbSymbolTableRecord
100
AcDbLayerTableRecord
  2
개별주서
 70
     0
 62
   100
  6
Continuous
370
    30
390
F
  0
LAYER
  5
79
330
2
100
AcDbSymbolTableRecord
100
AcDbLayerTableRecord
  2
중간선
 70
     0
 62
     2
  6
Continuous
370
    15
390
F
  0
LAYER
  5
7A
330
2
100
AcDbSymbolTableRecord
100
AcDbLayerTableRecord
  2
윤곽선
 70
     0
 62
     3
  6
Continuous
370
    40
390
F
  0
LAYER
  5
7B
330
2
100
AcDbSymbolTableRecord
100
AcDbLayerTableRecord
  2
중심마크
 70
     0
 62
   100
  6
Continuous
370
    30
390
F
  0
LAYER
  5
7C
330
2
100
AcDbSymbolTableRecord
100
AcDbLayerTableRecord
  2
가상선
 70
     0
 62
     4
  6
PHANTOM
370
    -3
390
F
  0
LAYER
  5
7D
330
2
100
AcDbSymbolTableRecord
100
AcDbLayerTableRecord
  2
특수지정선
 70
     0
 62
     5
  6
CENTERX2
370
    60
390
F
  0
LAYER
  5
18B
330
2
100
AcDbSymbolTableRecord
100
AcDbLayerTableRecord
  2
Defpoints
 70
     0
 62
     7
  6
Continuous
290
     0
370
    -3
390
F
  0
ENDTAB
  0
TABLE
  2
STYLE
  5
3
330
0
100
AcDbSymbolTable
 70
     2
  0
STYLE
  5
11
330
3
100
AcDbSymbolTableRecord
100
AcDbTextStyleTableRecord
  2
Standard
 70
     0
 40
0.0
 41
1.0
 50
0.0
 71
     0
 42
3.5
  3
txt
  4

  0
STYLE
  5
93
330
3
100
AcDbSymbolTableRecord
100
AcDbTextStyleTableRecord
  2
SLDTEXTSTYLE0
 70
     0
 40
0.0
 41
0.75
 50
0.0
 71
     0
 42
3.5
  3
TXT
  4

  0
ENDTAB
  0
TABLE
  2
VIEW
  5
6
330
0
100
AcDbSymbolTable
 70
     0
  0
ENDTAB
  0
TABLE
  2
UCS
  5
7
330
0
100
AcDbSymbolTable
 70
     0
  0
ENDTAB
  0
TABLE
  2
APPID
  5
9
330
0
100
AcDbSymbolTable
 70
     4
  0
APPID
  5
12
330
9
100
AcDbSymbolTableRecord
100
AcDbRegAppTableRecord
  2
ACAD
 70
     0
  0
APPID
  5
1A5
330
9
100
AcDbSymbolTableRecord
100
AcDbRegAppTableRecord
  2
ACAD_DSTYLE_DIMRADIAL_EXTENSION
 70
     0
  0
APPID
  5
1B4
330
9
100
AcDbSymbolTableRecord
100
AcDbRegAppTableRecord
  2
ACAD_DSTYLE_DIMFLIPARROW_SYMBOL
 70
     0
  0
APPID
  5
1B5
330
9
100
AcDbSymbolTableRecord
100
AcDbRegAppTableRecord
  2
ACAD_DSTYLE_DIMFLIPARROW_WHICH_SYMBOL
 70
     0
  0
ENDTAB
  0
TABLE
  2
DIMSTYLE
  5
A
330
0
100
AcDbSymbolTable
 70
     4
100
AcDbDimStyleTable
  0
DIMSTYLE
105
27
330
A
100
AcDbSymbolTableRecord
100
AcDbDimStyleTableRecord
  2
ISO-25
 70
     0
 41
2.5
 42
0.625
 43
3.75
 44
1.25
 73
     0
 74
     0
 77
     1
 78
     8
140
2.5
141
2.5
143
0.03937007874016
147
0.625
171
     3
172
     1
178
     0
271
     2
272
     2
274
     3
278
    44
283
     0
284
     8
340
11
  0
DIMSTYLE
105
10E
102
{ACAD_REACTORS
330
10D
102
}
330
A
100
AcDbSymbolTableRecord
100
AcDbDimStyleTableRecord
  2
SLDDIMSTYLE0
 70
     0
 41
3.302
 44
0.0
 45
0.000000001
 73
     0
 74
     0
 77
     1
 78
     4
 79
     1
140
3.5
143
0.0393700787401575
147
0.875
148
0.000000001
170
     1
173
     1
178
     0
271
     2
272
     2
276
     2
284
    12
340
93
  0
DIMSTYLE
105
122
330
A
100
AcDbSymbolTableRecord
100
AcDbDimStyleTableRecord
  2
SLDDIMSTYLE1
 70
     0
 41
3.302
 44
0.0
 45
0.000000001
 73
     0
 74
     0
 77
     1
 78
     4
 79
     1
140
3.5
143
0.0393700787401575
147
0.875
148
0.000000001
170
     1
172
     1
173
     1
178
     0
271
     2
272
     2
276
     2
284
    12
289
     0
340
93
  0
DIMSTYLE
105
137
102
{ACAD_REACTORS
330
136
330
14C
330
1EE
330
20A
102
}
330
A
100
AcDbSymbolTableRecord
100
AcDbDimStyleTableRecord
  2
SLDDIMSTYLE2
 70
     0
 41
3.302
 44
0.0
 45
0.000000001
 73
     0
 74
     0
 77
     1
 78
    12
 79
     3
140
3.5
143
0.0393700787401575
147
0.875
148
0.000000001
170
     1
172
     1
173
     1
178
     0
271
     2
272
     2
276
     2
284
    12
289
     0
340
93
  0
ENDTAB
  0
TABLE
  2
BLOCK_RECORD
  5
1
330
0
100
AcDbSymbolTable
 70
    10
  0
BLOCK_RECORD
  5
1F
330
1
100
AcDbSymbolTableRecord
100
AcDbBlockTableRecord
  2
*Model_Space
340
22
  0
BLOCK_RECORD
  5
1B
330
1
100
AcDbSymbolTableRecord
100
AcDbBlockTableRecord
  2
*Paper_Space
340
1E
  0
BLOCK_RECORD
  5
23
330
1
100
AcDbSymbolTableRecord
100
AcDbBlockTableRecord
  2
*Paper_Space0
340
26
  0
BLOCK_RECORD
  5
7E
330
1
100
AcDbSymbolTableRecord
100
AcDbBlockTableRecord
  2
블럭10
340
0
102
{BLKREFS
331
105
102
}
  0
BLOCK_RECORD
  5
10F
330
1
100
AcDbSymbolTableRecord
100
AcDbBlockTableRecord
  2
_D
340
0
  0
BLOCK_RECORD
  5
123
330
1
100
AcDbSymbolTableRecord
100
AcDbBlockTableRecord
  2
_D_1
340
0
  0
BLOCK_RECORD
  5
138
330
1
100
AcDbSymbolTableRecord
100
AcDbBlockTableRecord
  2
_D_2
340
0
  0
BLOCK_RECORD
  5
14D
330
1
100
AcDbSymbolTableRecord
100
AcDbBlockTableRecord
  2
_D_3
340
0
  0
BLOCK_RECORD
  5
160
330
1
100
AcDbSymbolTableRecord
100
AcDbBlockTableRecord
  2
SW_DOWELSYMBOL_0
340
0
102
{BLKREFS
331
166
102
}
  0
BLOCK_RECORD
  5
1A9
330
1
100
AcDbSymbolTableRecord
100
AcDbBlockTableRecord
  2
*D7
340
0
  0
BLOCK_RECORD
  5
1F1
330
1
100
AcDbSymbolTableRecord
100
AcDbBlockTableRecord
  2
*D8
340
0
  0
BLOCK_RECORD
  5
20D
330
1
100
AcDbSymbolTableRecord
100
AcDbBlockTableRecord
  2
*D9
340
0
  0
ENDTAB
  0
ENDSEC
  0
SECTION
  2
BLOCKS
  0
BLOCK
  5
20
330
1F
100
AcDbEntity
  8
0
100
AcDbBlockBegin
  2
*Model_Space
 70
     0
 10
0.0
 20
0.0
 30
0.0
  3
*Model_Space
  1
*Model_Space
  0
ENDBLK
  5
21
330
1F
100
AcDbEntity
  8
0
100
AcDbBlockEnd
  0
BLOCK
  5
1C
330
1B
100
AcDbEntity
 67
     1
  8
0
100
AcDbBlockBegin
  2
*Paper_Space
 70
     0
 10
0.0
 20
0.0
 30
0.0
  3
*Paper_Space
  1
*Paper_Space
  0
ENDBLK
  5
1D
330
1B
100
AcDbEntity
 67
     1
  8
0
100
AcDbBlockEnd
  0
BLOCK
  5
24
330
23
100
AcDbEntity
  8
0
100
AcDbBlockBegin
  2
*Paper_Space0
 70
     0
 10
0.0
 20
0.0
 30
0.0
  3
*Paper_Space0
  1
*Paper_Space0
  0
ENDBLK
  5
25
330
23
100
AcDbEntity
  8
0
100
AcDbBlockEnd
  0
BLOCK
  5
7F
330
7E
100
AcDbEntity
  8
0
100
AcDbBlockBegin
  2
블럭10
 70
     2
 10
0.0
 20
0.0
 30
0.0
  3
블럭10
  1
블럭10
  0
ELLIPSE
  5
81
330
7E
100
AcDbEntity
  8
중심선
100
AcDbEllipse
 10
20.54032771741204
 20
12.0471743016438
 30
0.0
 11
6.600054785286829
 21
-1.261213355974178E-13
 31
0.0
210
0.0
220
0.0
230
1.0
 40
0.636358354079598
 41
0.9219305317359503
 42
6.513795318482858
  0
ELLIPSE
  5
82
330
7E
100
AcDbEntity
  8
중심선
100
AcDbEllipse
 10
20.54032771746488
 20
12.04717430159265
 30
0.0
 11
3.960054785062283
 21
1.540847449632565E-10
 31
0.0
210
0.0
220
0.0
230
1.0
 40
0.3939339440162632
 41
1.131841032648279
 42
5.62031148352944
  0
LINE
  5
83
330
7E
100
AcDbEntity
  8
중심선
100
AcDbLine
 10
2.268634060543552
 20
16.24717430164393
 30
0.0
 11
5.714909304380834
 21
16.24717430164393
 31
0.0
  0
LINE
  5
84
330
7E
100
AcDbEntity
  8
중심선
100
AcDbLine
 10
5.245725140726316
 20
7.84717430164391
 30
0.0
 11
8.692000384563599
 21
7.84717430164391
 31
0.0
  0
LINE
  5
85
330
7E
100
AcDbEntity
  8
중심선
100
AcDbLine
 10
15.74043728645272
 20
16.24717430164393
 30
0.0
 11
8.692000384563599
 21
7.84717430164391
 31
0.0
  0
LINE
  5
86
330
7E
100
AcDbEntity
  8
중심선
100
AcDbLine
 10
0.1404042013395286
 20
13.71084872107135
 30
0.0
 11
3.58671253028996
 21
13.71088815037384
 31
0.0
  0
LINE
  5
87
330
7E
100
AcDbEntity
  8
중심선
100
AcDbLine
 10
2.750260043222114
 20
10.84717430164391
 30
0.0
 11
6.196535287059397
 21
10.84717430164391
 31
0.0
  0
LINE
  5
88
330
7E
100
AcDbEntity
  8
중심선
100
AcDbLine
 10
12.29416204261559
 20
16.24717430164393
 30
0.0
 11
5.245725140726316
 21
7.84717430164391
 31
0.0
  0
LINE
  5
89
330
7E
100
AcDbEntity
  8
중심선
100
AcDbLine
 10
10.72767329541681
 20
16.24717430164393
 30
0.0
 11
6.196535287059397
 21
10.84717430164391
 31
0.0
  0
LINE
  5
8A
330
7E
100
AcDbEntity
  8
중심선
100
AcDbLine
 10
7.28139805157953
 20
16.24717430164393
 30
0.0
 11
2.750260043222114
 21
10.84717430164391
 31
0.0
  0
LINE
  5
8B
330
7E
100
AcDbEntity
  8
중심선
100
AcDbLine
 10
5.714909304380834
 20
16.24717430164393
 30
0.0
 11
3.58671253028996
 21
13.71088815037384
 31
0.0
  0
LINE
  5
8C
330
7E
100
AcDbEntity
  8
중심선
100
AcDbLine
 10
2.268634060543552
 20
16.24717430164393
 30
0.0
 11
0.1404042013395286
 21
13.71084872107135
 31
0.0
  0
LINE
  5
8D
330
7E
100
AcDbEntity
  8
중심선
100
AcDbLine
 10
7.28139805157953
 20
16.24717430164393
 30
0.0
 11
10.72767329541681
 21
16.24717430164393
 31
0.0
  0
LINE
  5
8E
330
7E
100
AcDbEntity
  8
중심선
100
AcDbLine
 10
12.29416204261559
 20
16.24717430164393
 30
0.0
 11
15.74043728645272
 21
16.24717430164393
 31
0.0
  0
LINE
  5
8F
330
7E
100
AcDbEntity
  8
중심선
100
AcDbLine
 10
19.22036997980202
 20
11.08717430171403
 30
0.0
 11
23.66174974927406
 21
11.08717430171406
 31
0.0
  0
LINE
  5
90
330
7E
100
AcDbEntity
  8
중심선
100
AcDbLine
 10
19.22039502424796
 20
13.00717430171391
 30
0.0
 11
19.22036997980202
 21
11.08717430171403
 31
0.0
  0
LINE
  5
91
330
7E
100
AcDbEntity
  8
중심선
100
AcDbLine
 10
19.22039502424796
 20
13.00717430171391
 30
0.0
 11
26.96566020931264
 21
13.00717430171391
 31
0.0
  0
LINE
  5
92
330
7E
100
AcDbEntity
  8
중심선
100
AcDbLine
 10
22.22332737316547
 20
13.45928029700563
 30
0.0
 11
24.52862924686651
 21
15.39360700705356
 31
0.0
  0
ATTDEF
  5
94
330
7E
100
AcDbEntity
  8
FORMAT
 62
     2
100
AcDbText
 10
-11.05102035218446
 20
2.075366912832191
 30
0.0
 40
4.233333333333333
  1
GMG22902[ 6 FLUTE ]
 41
0.75
  7
SLDTEXTSTYLE0
 11
-11.05102035218446
 21
-0.0412997538344756
 31
0.0
100
AcDbAttributeDefinition
  3

  2
AUTOATTR0
 70
     0
 74
     1
  0
ENDBLK
  5
80
330
7E
100
AcDbEntity
  8
0
100
AcDbBlockEnd
  0
BLOCK
  5
110
330
10F
100
AcDbEntity
  8
0
100
AcDbBlockBegin
  2
_D
 70
     0
 10
0.0
 20
0.0
 30
0.0
  3
_D
  1
_D
  0
LINE
  5
112
330
10F
100
AcDbEntity
  8
치수문자_일반주서
 62
     0
370
    -2
100
AcDbLine
 10
-36.675
 20
2.754325020758404
 30
0.0
 11
-36.675
 21
37.38320150046829
 31
0.0
  0
LINE
  5
113
330
10F
100
AcDbEntity
  8
치수문자_일반주서
 62
     0
370
    -2
100
AcDbLine
 10
39.52500000000001
 20
2.688239737647407
 30
0.0
 11
39.52500000000001
 21
37.38320150046829
 31
0.0
  0
LINE
  5
114
330
10F
100
AcDbEntity
  8
치수문자_일반주서
 62
     0
370
    -2
100
AcDbLine
 10
-33.373
 20
37.38320150046829
 30
0.0
 11
36.22300000000001
 21
37.38320150046829
 31
0.0
  0
SOLID
  5
115
330
10F
100
AcDbEntity
  8
치수문자_일반주서
 62
     0
100
AcDbTrace
 10
-33.373
 20
37.93353483380162
 30
0.0
 11
-33.373
 21
36.83286816713495
 31
0.0
 12
-36.675
 22
37.38320150046829
 32
0.0
 13
-36.675
 23
37.38320150046829
 33
0.0
  0
SOLID
  5
116
330
10F
100
AcDbEntity
  8
치수문자_일반주서
 62
     0
100
AcDbTrace
 10
36.22300000000001
 20
36.83286816713495
 30
0.0
 11
36.22300000000001
 21
37.93353483380162
 31
0.0
 12
39.52500000000001
 22
37.38320150046829
 32
0.0
 13
39.52500000000001
 23
37.38320150046829
 33
0.0
  0
MTEXT
  5
117
330
10F
100
AcDbEntity
  8
치수문자_일반주서
 62
     0
100
AcDbMText
 10
3.680955115131819
 20
41.75820150046829
 30
0.0
 40
3.5
 41
0.0
 71
     2
 72
     1
  1
\A1;76.20 [3]
  7
SLDTEXTSTYLE0
 73
     1
 44
1.0
  0
POINT
  5
118
330
10F
100
AcDbEntity
  8
Defpoints
 62
     0
100
AcDbPoint
 10
-36.675
 20
2.691825020758404
 30
0.0
  0
POINT
  5
119
330
10F
100
AcDbEntity
  8
Defpoints
 62
     0
100
AcDbPoint
 10
39.52500000000001
 20
2.625739737647407
 30
0.0
  0
POINT
  5
11A
330
10F
100
AcDbEntity
  8
Defpoints
 62
     0
100
AcDbPoint
 10
39.52500000000001
 20
37.38320150046829
 30
0.0
  0
ENDBLK
  5
111
330
10F
100
AcDbEntity
  8
0
100
AcDbBlockEnd
  0
BLOCK
  5
124
330
123
100
AcDbEntity
  8
0
100
AcDbBlockBegin
  2
_D_1
 70
     0
 10
0.0
 20
0.0
 30
0.0
  3
_D_1
  1
_D_1
  0
LINE
  5
126
330
123
100
AcDbEntity
  8
치수문자_일반주서
 62
     0
370
    -2
100
AcDbLine
 10
38.20650000000001
 20
2.914621974755884
 30
0.0
 11
50.95881482125547
 21
2.914621974755931
 31
0.0
  0
LINE
  5
127
330
123
100
AcDbEntity
  8
치수문자_일반주서
 62
     0
370
    -2
100
AcDbLine
 10
38.82550000000001
 20
-3.435378025244116
 30
0.0
 11
50.95881482125549
 21
-3.435378025244071
 31
0.0
  0
LINE
  5
128
330
123
100
AcDbEntity
  8
치수문자_일반주서
 62
     0
370
    -2
100
AcDbLine
 10
50.95881482125547
 20
2.914621974755931
 30
0.0
 11
50.95881482125549
 21
-3.435378025244071
 31
0.0
  0
LINE
  5
129
330
123
100
AcDbEntity
  8
치수문자_일반주서
 62
     0
370
    -2
100
AcDbLine
 10
50.95881482125545
 20
6.216621974755931
 30
0.0
 11
50.95881482125544
 21
9.51862197475593
 31
0.0
  0
LINE
  5
12A
330
123
100
AcDbEntity
  8
치수문자_일반주서
 62
     0
370
    -2
100
AcDbLine
 10
50.9588148212555
 20
-6.73737802524407
 30
0.0
 11
50.95881482125552
 21
-10.03937802524407
 31
0.0
  0
SOLID
  5
12B
330
123
100
AcDbEntity
  8
치수문자_일반주서
 62
     0
100
AcDbTrace
 10
50.40848148792212
 20
6.216621974755929
 30
0.0
 11
51.50914815458879
 21
6.216621974755933
 31
0.0
 12
50.95881482125547
 22
2.914621974755931
 32
0.0
 13
50.95881482125547
 23
2.914621974755931
 33
0.0
  0
SOLID
  5
12C
330
123
100
AcDbEntity
  8
치수문자_일반주서
 62
     0
100
AcDbTrace
 10
51.50914815458884
 20
-6.737378025244069
 30
0.0
 11
50.40848148792217
 21
-6.737378025244072
 31
0.0
 12
50.95881482125549
 22
-3.435378025244071
 32
0.0
 13
50.95881482125549
 23
-3.435378025244071
 33
0.0
  0
MTEXT
  5
12D
330
123
100
AcDbEntity
  8
치수문자_일반주서
 62
     0
100
AcDbMText
 10
46.58381482125547
 20
-0.2603780252440767
 30
0.0
 40
3.5
 41
0.0
 71
     2
 72
     1
  1
\A1;%%c6.35 [1/4]
  7
SLDTEXTSTYLE0
 11
-3.356894814614646E-15
 21
1.0
 31
0.0
 73
     1
 44
1.0
  0
POINT
  5
12E
330
123
100
AcDbEntity
  8
Defpoints
 62
     0
100
AcDbPoint
 10
38.14400000000001
 20
2.914621974755883
 30
0.0
  0
POINT
  5
19E
330
123
100
AcDbEntity
  8
Defpoints
 62
     0
100
AcDbPoint
 10
38.76300000000001
 20
-3.435378025244116
 30
0.0
  0
POINT
  5
19F
330
123
100
AcDbEntity
  8
Defpoints
 62
     0
100
AcDbPoint
 10
50.95881482125549
 20
-3.43537802524407
 30
0.0
  0
ENDBLK
  5
125
330
123
100
AcDbEntity
  8
0
100
AcDbBlockEnd
  0
BLOCK
  5
139
330
138
100
AcDbEntity
  8
0
100
AcDbBlockBegin
  2
_D_2
 70
     0
 10
0.0
 20
0.0
 30
0.0
  3
_D_2
  1
_D_2
  0
LINE
  5
13B
330
138
100
AcDbEntity
  8
치수문자_일반주서
 62
     0
370
    -2
100
AcDbLine
 10
39.52500000000001
 20
2.49232502075841
 30
0.0
 11
39.52500000000001
 21
22.48274498213248
 31
0.0
  0
LINE
  5
13C
330
138
100
AcDbEntity
  8
치수문자_일반주서
 62
     0
370
    -2
100
AcDbLine
 10
10.95000000000086
 20
-3.03884095740531
 30
0.0
 11
10.95000000000086
 21
22.48274498213248
 31
0.0
  0
LINE
  5
13D
330
138
100
AcDbEntity
  8
치수문자_일반주서
 62
     0
370
    -2
100
AcDbLine
 10
36.22300000000001
 20
22.48274498213248
 30
0.0
 11
14.25200000000086
 21
22.48274498213248
 31
0.0
  0
SOLID
  5
13E
330
138
100
AcDbEntity
  8
치수문자_일반주서
 62
     0
100
AcDbTrace
 10
36.22300000000001
 20
21.93241164879914
 30
0.0
 11
36.22300000000001
 21
23.03307831546581
 31
0.0
 12
39.52500000000001
 22
22.48274498213248
 32
0.0
 13
39.52500000000001
 23
22.48274498213248
 33
0.0
  0
SOLID
  5
13F
330
138
100
AcDbEntity
  8
치수문자_일반주서
 62
     0
100
AcDbTrace
 10
14.25200000000086
 20
23.03307831546581
 30
0.0
 11
14.25200000000086
 21
21.93241164879914
 31
0.0
 12
10.95000000000086
 22
22.48274498213248
 32
0.0
 13
10.95000000000086
 23
22.48274498213248
 33
0.0
  0
MTEXT
  5
140
330
138
100
AcDbEntity
  8
치수문자_일반주서
 62
     0
100
AcDbMText
 10
24.9357281525238
 20
26.85774498213248
 30
0.0
 40
3.5
 41
0.0
 71
     2
 72
     1
  1
\A1;28.58 [1 1/8]
  7
SLDTEXTSTYLE0
 73
     1
 44
1.0
  0
POINT
  5
141
330
138
100
AcDbEntity
  8
Defpoints
 62
     0
100
AcDbPoint
 10
39.52500000000001
 20
2.42982502075841
 30
0.0
  0
POINT
  5
142
330
138
100
AcDbEntity
  8
Defpoints
 62
     0
100
AcDbPoint
 10
10.95000000000086
 20
-3.10134095740531
 30
0.0
  0
POINT
  5
143
330
138
100
AcDbEntity
  8
Defpoints
 62
     0
100
AcDbPoint
 10
10.95000000000086
 20
22.48274498213248
 30
0.0
  0
ENDBLK
  5
13A
330
138
100
AcDbEntity
  8
0
100
AcDbBlockEnd
  0
BLOCK
  5
14E
330
14D
100
AcDbEntity
  8
0
100
AcDbBlockBegin
  2
_D_3
 70
     0
 10
0.0
 20
0.0
 30
0.0
  3
_D_3
  1
_D_3
  0
LINE
  5
150
330
14D
100
AcDbEntity
  8
치수문자_일반주서
 62
     0
370
    -2
100
AcDbLine
 10
-36.23749999999998
 20
3.191825020758406
 30
0.0
 11
-49.675
 21
3.191825020758356
 31
0.0
  0
LINE
  5
151
330
14D
100
AcDbEntity
  8
치수문자_일반주서
 62
     0
370
    -2
100
AcDbLine
 10
-36.23749999999998
 20
-3.158174979241593
 30
0.0
 11
-49.67499999999998
 21
-3.158174979241644
 31
0.0
  0
LINE
  5
152
330
14D
100
AcDbEntity
  8
치수문자_일반주서
 62
     0
370
    -2
100
AcDbLine
 10
-49.67499999999999
 20
-0.110174979241644
 30
0.0
 11
-49.675
 21
0.1438250207583565
 31
0.0
  0
SOLID
  5
153
330
14D
100
AcDbEntity
  8
치수문자_일반주서
 62
     0
100
AcDbTrace
 10
-49.12466666666666
 20
-0.1101749792416421
 30
0.0
 11
-50.22533333333332
 21
-0.1101749792416458
 31
0.0
 12
-49.675
 22
3.191825020758356
 32
0.0
 13
-49.675
 23
3.191825020758356
 33
0.0
  0
SOLID
  5
154
330
14D
100
AcDbEntity
  8
치수문자_일반주서
 62
     0
100
AcDbTrace
 10
-50.22533333333333
 20
0.1438250207583546
 30
0.0
 11
-49.12466666666666
 21
0.1438250207583583
 31
0.0
 12
-49.67499999999998
 22
-3.158174979241644
 32
0.0
 13
-49.67499999999998
 23
-3.158174979241644
 33
0.0
  0
MTEXT
  5
155
330
14D
100
AcDbEntity
  8
치수문자_일반주서
 62
     0
100
AcDbMText
 10
-54.05
 20
0.0168250207583666
 30
0.0
 40
3.5
 41
0.0
 71
     2
 72
     1
  1
\A1;%%c6.35 [1/4]
  7
SLDTEXTSTYLE0
 11
-3.356894814614647E-15
 21
1.0
 31
0.0
 73
     1
 44
1.0
  0
POINT
  5
156
330
14D
100
AcDbEntity
  8
Defpoints
 62
     0
100
AcDbPoint
 10
-36.17499999999998
 20
3.191825020758407
 30
0.0
  0
POINT
  5
157
330
14D
100
AcDbEntity
  8
Defpoints
 62
     0
100
AcDbPoint
 10
-36.17499999999998
 20
-3.158174979241593
 30
0.0
  0
POINT
  5
158
330
14D
100
AcDbEntity
  8
Defpoints
 62
     0
100
AcDbPoint
 10
-49.67499999999998
 20
-3.158174979241644
 30
0.0
  0
ENDBLK
  5
14F
330
14D
100
AcDbEntity
  8
0
100
AcDbBlockEnd
  0
BLOCK
  5
161
330
160
100
AcDbEntity
  8
0
100
AcDbBlockBegin
  2
SW_DOWELSYMBOL_0
 70
     0
 10
0.0
 20
0.0
 30
0.0
  3
SW_DOWELSYMBOL_0
  1
SW_DOWELSYMBOL_0
  0
CIRCLE
  5
163
330
160
100
AcDbEntity
  8
외형선
 62
     0
100
AcDbCircle
 10
0.0
 20
0.0
 30
0.0
 40
3.000000000000001
  0
HATCH
  5
164
330
160
100
AcDbEntity
  8
0
  6
Continuous
 62
     0
370
    30
100
AcDbHatch
 10
0.0
 20
0.0
 30
0.0
210
0.0
220
0.0
230
1.0
  2
SOLID
 70
     1
 71
     0
 91
        1
 92
        0
 93
        3
 72
     2
 10
0.0000000000000139
 20
-0.0000000000000035
 40
3.000000000000001
 50
0.0
 51
90.0
 73
     1
 72
     1
 10
0.0000000000000139
 20
2.999999999999998
 11
0.0000000000000139
 21
-0.0000000000000036
 72
     1
 10
0.0000000000000139
 20
-0.0000000000000035
 11
3.000000000000015
 21
-0.0000000000000035
 97
        0
 75
     0
 76
     1
 98
        1
 10
0.0
 20
0.0
  0
HATCH
  5
165
330
160
100
AcDbEntity
  8
0
  6
Continuous
 62
     0
370
    30
100
AcDbHatch
 10
0.0
 20
0.0
 30
0.0
210
0.0
220
0.0
230
1.0
  2
SOLID
 70
     1
 71
     0
 91
        1
 92
        0
 93
        3
 72
     2
 10
0.0000000000000139
 20
-0.0000000000000035
 40
3.000000000000001
 50
180.0
 51
270.0000000000007
 73
     1
 72
     1
 10
0.0000000000000139
 20
-3.000000000000005
 11
0.0000000000000139
 21
-0.0000000000000036
 72
     1
 10
0.0000000000000139
 20
-0.0000000000000035
 11
-2.999999999999988
 21
-0.0000000000000035
 97
        0
 75
     0
 76
     1
 98
        1
 10
0.0
 20
0.0
  0
ENDBLK
  5
162
330
160
100
AcDbEntity
  8
0
100
AcDbBlockEnd
  0
BLOCK
  5
1AA
330
1A9
100
AcDbEntity
  8
0
100
AcDbBlockBegin
  2
*D7
 70
     1
 10
0.0
 20
0.0
 30
0.0
  3
*D7
  1
*D7
  0
LINE
  5
1AC
330
1A9
100
AcDbEntity
  8
치수문자_일반주서
 62
     0
370
    -2
100
AcDbLine
 10
71.53625879151049
 20
5.888064668178238
 30
0.0
 11
88.54017367248699
 21
35.20864440444988
 31
0.0
  0
MTEXT
  5
1AD
330
1A9
100
AcDbEntity
  8
치수문자_일반주서
 62
     0
100
AcDbMText
 10
79.1362292976381
 20
24.22550702220578
 30
0.0
 40
3.5
 41
0.0
 71
     5
 72
     1
  1
\A1;R.76 [R0.030]
  7
SLDTEXTSTYLE0
 11
0.5016734638493271
 21
0.8650570707585818
 31
0.0
 73
     1
 44
1.0
  0
LINE
  5
1AE
330
1A9
100
AcDbEntity
  8
치수문자_일반주서
 62
     0
370
    -2
100
AcDbLine
 10
69.49745783442683
 20
2.37247273261536
 30
0.0
 11
69.87973301388001
 21
3.031646220533401
 31
0.0
  0
SOLID
  5
1AF
330
1A9
100
AcDbEntity
  8
치수문자_일반주서
 62
     0
100
AcDbTrace
 10
71.06018905023635
 20
6.164152297783318
 30
0.0
 11
72.01232853278464
 21
5.611977038573158
 31
0.0
 12
69.87973301388001
 22
3.031646220533401
 32
0.0
 13
69.87973301388001
 23
3.031646220533401
 33
0.0
  0
POINT
  5
1B0
330
1A9
100
AcDbEntity
  8
Defpoints
 62
     0
100
AcDbPoint
 10
69.87973301388001
 20
3.031646220533401
 30
0.0
  0
POINT
  5
1B1
330
1A9
100
AcDbEntity
  8
Defpoints
 62
     0
100
AcDbPoint
 10
69.49745783442683
 20
2.37247273261536
 30
0.0
  0
ENDBLK
  5
1AB
330
1A9
100
AcDbEntity
  8
0
100
AcDbBlockEnd
  0
BLOCK
  5
1F2
330
1F1
100
AcDbEntity
  8
0
100
AcDbBlockBegin
  2
*D8
 70
     1
 10
0.0
 20
0.0
 30
0.0
  3
*D8
  1
*D8
  0
LINE
  5
1F4
330
1F1
100
AcDbEntity
  8
치수문자_일반주서
 62
     0
370
    -2
100
AcDbLine
 10
38.88022426754738
 20
3.18985742437118
 30
0.0
 11
53.36001333293918
 21
3.189857424371179
 31
0.0
  0
LINE
  5
1F5
330
1F1
100
AcDbEntity
  8
치수문자_일반주서
 62
     0
370
    -2
100
AcDbLine
 10
38.2134219961801
 20
-3.15817497924159
 30
0.0
 11
53.36001333293918
 21
-3.158174979241591
 31
0.0
  0
LINE
  5
1F6
330
1F1
100
AcDbEntity
  8
치수문자_일반주서
 62
     0
370
    -2
100
AcDbLine
 10
53.36001333293918
 20
3.189857424371179
 30
0.0
 11
53.36001333293918
 21
-3.158174979241591
 31
0.0
  0
LINE
  5
1F7
330
1F1
100
AcDbEntity
  8
치수문자_일반주서
 62
     0
370
    -2
100
AcDbLine
 10
53.36001333293918
 20
6.49185742437118
 30
0.0
 11
53.36001333293918
 21
9.79385742437118
 31
0.0
  0
LINE
  5
1F8
330
1F1
100
AcDbEntity
  8
치수문자_일반주서
 62
     0
370
    -2
100
AcDbLine
 10
53.36001333293918
 20
-6.460174979241591
 30
0.0
 11
53.36001333293918
 21
-9.76217497924159
 31
0.0
  0
SOLID
  5
1F9
330
1F1
100
AcDbEntity
  8
치수문자_일반주서
 62
     0
100
AcDbTrace
 10
52.80967999960585
 20
6.49185742437118
 30
0.0
 11
53.91034666627252
 21
6.49185742437118
 31
0.0
 12
53.36001333293918
 22
3.189857424371179
 32
0.0
 13
53.36001333293918
 23
3.189857424371179
 33
0.0
  0
SOLID
  5
1FA
330
1F1
100
AcDbEntity
  8
치수문자_일반주서
 62
     0
100
AcDbTrace
 10
53.91034666627252
 20
-6.460174979241591
 30
0.0
 11
52.80967999960585
 21
-6.460174979241591
 31
0.0
 12
53.36001333293918
 22
-3.158174979241591
 32
0.0
 13
53.36001333293918
 23
-3.158174979241591
 33
0.0
  0
MTEXT
  5
1FB
330
1F1
100
AcDbEntity
  8
치수문자_일반주서
 62
     0
100
AcDbMText
 10
50.73501333293918
 20
0.015841222564795
 30
0.0
 40
3.5
 41
0.0
 71
     5
 72
     1
  1
\A1;6.35 [1/4]
  7
SLDTEXTSTYLE0
 11
0.0
 21
1.0
 31
0.0
 73
     1
 44
1.0
  0
POINT
  5
1FC
330
1F1
100
AcDbEntity
  8
Defpoints
 62
     0
100
AcDbPoint
 10
38.81772426754738
 20
3.18985742437118
 30
0.0
  0
POINT
  5
206
330
1F1
100
AcDbEntity
  8
Defpoints
 62
     0
100
AcDbPoint
 10
38.1509219961801
 20
-3.15817497924159
 30
0.0
  0
POINT
  5
207
330
1F1
100
AcDbEntity
  8
Defpoints
 62
     0
100
AcDbPoint
 10
53.36001333293918
 20
-3.158174979241591
 30
0.0
  0
ENDBLK
  5
1F3
330
1F1
100
AcDbEntity
  8
0
100
AcDbBlockEnd
  0
BLOCK
  5
20E
330
20D
100
AcDbEntity
  8
0
100
AcDbBlockBegin
  2
*D9
 70
     1
 10
0.0
 20
0.0
 30
0.0
  3
*D9
  1
*D9
  0
LINE
  5
210
330
20D
100
AcDbEntity
  8
치수문자_일반주서
 62
     0
370
    -2
100
AcDbLine
 10
40.96048925836148
 20
6.014706381585832
 30
0.0
 11
68.10022049622913
 21
53.88313095421648
 31
0.0
  0
MTEXT
  5
211
330
20D
100
AcDbEntity
  8
치수문자_일반주서
 62
     0
100
AcDbMText
 10
58.91177678478938
 20
42.99905418300142
 30
0.0
 40
3.5
 41
0.0
 71
     5
 72
     1
  1
\A1;R.38 [R0.015]
  7
SLDTEXTSTYLE0
 11
0.4932091388437341
 21
0.8699107686199902
 31
0.0
 73
     1
 44
1.0
  0
LINE
  5
212
330
20D
100
AcDbEntity
  8
치수문자_일반주서
 62
     0
370
    -2
100
AcDbLine
 10
39.14400000000001
 20
2.81082502075841
 30
0.0
 11
39.33191268189947
 21
3.142261023602625
 31
0.0
  0
SOLID
  5
213
330
20D
100
AcDbEntity
  8
치수문자_일반주서
 62
     0
100
AcDbTrace
 10
40.48174836536428
 20
6.286135810996167
 30
0.0
 11
41.43923015135869
 21
5.743276952175496
 31
0.0
 12
39.33191268189947
 22
3.142261023602625
 32
0.0
 13
39.33191268189947
 23
3.142261023602625
 33
0.0
  0
POINT
  5
214
330
20D
100
AcDbEntity
  8
Defpoints
 62
     0
100
AcDbPoint
 10
39.33191268189947
 20
3.142261023602625
 30
0.0
  0
POINT
  5
215
330
20D
100
AcDbEntity
  8
Defpoints
 62
     0
100
AcDbPoint
 10
39.14400000000001
 20
2.81082502075841
 30
0.0
  0
ENDBLK
  5
20F
330
20D
100
AcDbEntity
  8
0
100
AcDbBlockEnd
  0
ENDSEC
  0
SECTION
  2
ENTITIES
  0
LINE
  5
95
330
1F
100
AcDbEntity
  8
0
  6
Continuous
 62
     4
370
    15
100
AcDbLine
 10
9.463523784816132
 20
3.19182502075841
 30
0.0
 11
-36.17499999999998
 21
3.191825020758407
 31
0.0
  0
LINE
  5
96
330
1F
100
AcDbEntity
  8
0
  6
Continuous
 62
     4
370
    15
100
AcDbLine
 10
-36.17499999999998
 20
-3.158174979241593
 30
0.0
 11
9.463523784816127
 21
-3.15817497924159
 31
0.0
  0
LINE
  5
97
330
1F
100
AcDbEntity
  8
0
  6
Continuous
 62
     4
370
    15
100
AcDbLine
 10
-36.17499999999998
 20
3.191825020758404
 30
0.0
 11
-36.675
 21
2.691825020758404
 31
0.0
  0
LINE
  5
98
330
1F
100
AcDbEntity
  8
0
  6
Continuous
 62
     4
370
    15
100
AcDbLine
 10
-36.675
 20
-2.658174979241591
 30
0.0
 11
-36.17499999999998
 21
-3.158174979241591
 31
0.0
  0
LINE
  5
99
330
1F
100
AcDbEntity
  8
0
  6
Continuous
 62
     1
370
    15
100
AcDbLine
 10
9.430388398766455
 20
-3.136389351396433
 30
0.0
 11
9.430388385012561
 21
-3.136271483448029
 31
0.0
  0
LINE
  5
9A
330
1F
100
AcDbEntity
  8
0
  6
Continuous
 62
     1
370
    15
100
AcDbLine
 10
31.50145886271609
 20
-3.15817497924159
 30
0.0
 11
32.58653479626778
 21
-3.15817497924159
 31
0.0
  0
LINE
  5
9B
330
1F
100
AcDbEntity
  8
0
  6
Continuous
 62
     1
370
    15
100
AcDbLine
 10
11.55194086765476
 20
-3.15817497924159
 30
0.0
 11
12.63806451632324
 21
-3.15817497924159
 31
0.0
  0
LINE
  5
9C
330
1F
100
AcDbEntity
  8
0
  6
Continuous
 62
     1
370
    15
100
AcDbLine
 10
22.61240683119969
 20
3.19182502075841
 30
0.0
 11
21.52714235430543
 21
3.19182502075841
 31
0.0
  0
LINE
  5
9D
330
1F
100
AcDbEntity
  8
0
  6
Continuous
 62
     1
370
    15
100
AcDbLine
 10
34.82659531999725
 20
-3.15817497924159
 30
0.0
 11
35.91096825397962
 21
-3.15817497924159
 31
0.0
  0
LINE
  5
9E
330
1F
100
AcDbEntity
  8
0
  6
Continuous
 62
     1
370
    15
100
AcDbLine
 10
14.87641668993151
 20
-3.15817497924159
 30
0.0
 11
15.9634041647297
 21
-3.15817497924159
 31
0.0
  0
LINE
  5
9F
330
1F
100
AcDbEntity
  8
0
  6
Continuous
 62
     1
370
    15
100
AcDbLine
 10
25.93706326547711
 20
3.19182502075841
 30
0.0
 11
24.85217790993657
 21
3.19182502075841
 31
0.0
  0
LINE
  5
A0
330
1F
100
AcDbEntity
  8
0
  6
Continuous
 62
     1
370
    15
100
AcDbLine
 10
21.52714235430545
 20
-3.15817497924159
 30
0.0
 11
22.61240683119971
 21
-3.15817497924159
 31
0.0
  0
LINE
  5
A1
330
1F
100
AcDbEntity
  8
0
  6
Continuous
 62
     1
370
    15
100
AcDbLine
 10
12.63806451632326
 20
3.19182502075841
 30
0.0
 11
11.55194086765479
 21
3.19182502075841
 31
0.0
  0
LINE
  5
A2
330
1F
100
AcDbEntity
  8
0
  6
Continuous
 62
     1
370
    15
100
AcDbLine
 10
32.5865347962678
 20
3.19182502075841
 30
0.0
 11
31.5014588627161
 21
3.19182502075841
 31
0.0
  0
LINE
  5
A3
330
1F
100
AcDbEntity
  8
0
  6
Continuous
 62
     1
370
    15
100
AcDbLine
 10
28.17732688985969
 20
-3.15817497924159
 30
0.0
 11
29.26133258442286
 21
-3.15817497924159
 31
0.0
  0
LINE
  5
A4
330
1F
100
AcDbEntity
  8
0
  6
Continuous
 62
     1
370
    15
100
AcDbLine
 10
19.28760072609041
 20
3.19182502075841
 30
0.0
 11
18.20236448418946
 21
3.19182502075841
 31
0.0
  0
LINE
  5
A5
330
1F
100
AcDbEntity
  8
0
  6
Continuous
 62
     1
370
    15
100
AcDbLine
 10
38.76300000000001
 20
3.19182502075841
 30
0.0
 11
38.1509219961801
 21
3.19182502075841
 31
0.0
  0
LINE
  5
A6
330
1F
100
AcDbEntity
  8
0
  6
Continuous
 62
     1
370
    15
100
AcDbLine
 10
24.85217790993659
 20
-3.15817497924159
 30
0.0
 11
25.93706326547711
 21
-3.15817497924159
 31
0.0
  0
LINE
  5
A7
330
1F
100
AcDbEntity
  8
0
  6
Continuous
 62
     1
370
    15
100
AcDbLine
 10
15.9634041647297
 20
3.19182502075841
 30
0.0
 11
14.87641668993152
 21
3.19182502075841
 31
0.0
  0
LINE
  5
A8
330
1F
100
AcDbEntity
  8
0
  6
Continuous
 62
     1
370
    15
100
AcDbLine
 10
35.9109682539796
 20
3.19182502075841
 30
0.0
 11
34.82659531999728
 21
3.19182502075841
 31
0.0
  0
LINE
  5
A9
102
{ACAD_REACTORS
102
}
330
1F
100
AcDbEntity
  8
0
  6
Continuous
 62
     1
370
    15
100
AcDbLine
 10
38.1509219961801
 20
-3.15817497924159
 30
0.0
 11
38.76300000000001
 21
-3.15817497924159
 31
0.0
  0
LINE
  5
AA
330
1F
100
AcDbEntity
  8
0
  6
Continuous
 62
     1
370
    15
100
AcDbLine
 10
18.20236448418946
 20
-3.15817497924159
 30
0.0
 11
19.28760072609043
 21
-3.15817497924159
 31
0.0
  0
LINE
  5
AB
330
1F
100
AcDbEntity
  8
0
  6
Continuous
 62
     1
370
    15
100
AcDbLine
 10
29.26133258442289
 20
3.19182502075841
 30
0.0
 11
28.1773268898597
 21
3.19182502075841
 31
0.0
  0
SPLINE
  5
AE
330
1F
100
AcDbEntity
  8
0
  6
Continuous
 62
     1
370
    15
100
AcDbSpline
210
0.0
220
0.0
230
1.0
 70
    24
 71
     3
 72
    14
 73
    10
 74
     0
 42
0.000000001
 43
0.00000001
 40
0.0
 40
0.0
 40
0.0
 40
0.0
 40
0.25
 40
0.25
 40
0.5
 40
0.5
 40
0.75
 40
0.75
 40
1.0
 40
1.0
 40
1.0
 40
1.0
 10
10.95000000000001
 20
-1.024329933280552
 30
0.0
 10
10.95000000000001
 20
-1.040171614808016
 30
0.0
 10
10.95000000000001
 20
-1.073657086793903
 30
0.0
 10
10.95000000000001
 20
-1.202965410273365
 30
0.0
 10
10.95000000000001
 20
-1.299604026096717
 30
0.0
 10
10.95000000000001
 20
-1.579923128940774
 30
0.0
 10
10.95000000000001
 20
-1.76504915983211
 30
0.0
 10
10.95000000000001
 20
-2.208153615413651
 30
0.0
 10
10.95000000000001
 20
-2.465526244686949
 30
0.0
 10
10.95000000000001
 20
-2.720342476394031
 30
0.0
  0
SPLINE
  5
AF
330
1F
100
AcDbEntity
  8
0
  6
Continuous
 62
     4
370
    15
100
AcDbSpline
210
0.0
220
0.0
230
1.0
 70
     8
 71
     3
 72
    10
 73
     6
 74
     0
 42
0.000000001
 43
0.00000001
 40
0.0
 40
0.0
 40
0.0
 40
0.0
 40
0.5
 40
0.5
 40
1.0
 40
1.0
 40
1.0
 40
1.0
 10
10.95000000000002
 20
-2.720342476394037
 30
0.0
 10
10.73053399780939
 20
-2.609468698654154
 30
0.0
 10
10.51564856553329
 20
-2.479974682415232
 30
0.0
 10
10.0772622226775
 20
-2.185797287250522
 30
0.0
 10
9.855985562484872
 20
-2.021357223846901
 30
0.0
 10
9.63961149751889
 20
-1.844958153953795
 30
0.0
  0
SPLINE
  5
B1
330
1F
100
AcDbEntity
  8
0
  6
Continuous
 62
     4
370
    15
100
AcDbSpline
210
0.0
220
0.0
230
1.0
 70
     8
 71
     3
 72
     8
 73
     4
 74
     0
 42
0.000000001
 43
0.00000001
 40
0.0
 40
0.0
 40
0.0
 40
0.0
 40
1.0
 40
1.0
 40
1.0
 40
1.0
 10
10.95000000000001
 20
-1.024329933280553
 30
0.0
 10
10.79552877539515
 20
-0.8788438207169191
 30
0.0
 10
10.64344272890717
 20
-0.730446804857193
 30
0.0
 10
10.49046534570061
 20
-0.5796758604111979
 30
0.0
  0
SPLINE
  5
B2
330
1F
100
AcDbEntity
  8
0
  6
Continuous
 62
     4
370
    15
100
AcDbSpline
210
0.0
220
0.0
230
1.0
 70
     8
 71
     3
 72
    10
 73
     6
 74
     0
 42
0.000000001
 43
0.00000001
 40
0.0
 40
0.0
 40
0.0
 40
0.0
 40
0.5
 40
0.5
 40
1.0
 40
1.0
 40
1.0
 40
1.0
 10
9.639611497518885
 20
-1.844958153953791
 30
0.0
 10
9.55113183988734
 20
-1.772825066686068
 30
0.0
 10
9.493224080637926
 20
-1.678275983853068
 30
0.0
 10
9.432499450841853
 20
-1.470001867148844
 30
0.0
 10
9.430388384831689
 20
-1.357334433571525
 30
0.0
 10
9.430388384831689
 20
-1.242945451487247
 30
0.0
  0
SPLINE
  5
B3
330
1F
100
AcDbEntity
  8
0
  6
Continuous
 62
     4
370
    15
100
AcDbSpline
210
0.0
220
0.0
230
1.0
 70
     8
 71
     3
 72
    14
 73
    10
 74
     0
 42
0.000000001
 43
0.00000001
 40
0.0
 40
0.0
 40
0.0
 40
0.0
 40
0.2499999999999999
 40
0.2499999999999999
 40
0.5
 40
0.5
 40
0.7500000000000001
 40
0.7500000000000001
 40
1.0
 40
1.0
 40
1.0
 40
1.0
 10
9.430388384831687
 20
-1.242945451487247
 30
0.0
 10
9.430388384831689
 20
-1.113600784460542
 30
0.0
 10
9.433482564882638
 20
-0.9793546245886022
 30
0.0
 10
9.518440260502466
 20
-0.7199223138410741
 30
0.0
 10
9.598938213477396
 20
-0.5999027701143475
 30
0.0
 10
9.829657606126482
 20
-0.4348736059347199
 30
0.0
 10
9.972215148976675
 20
-0.3949716555586442
 30
0.0
 10
10.25556183366456
 20
-0.4178991958561334
 30
0.0
 10
10.38975788625032
 20
-0.4804209349064626
 30
0.0
 10
10.49046534570061
 20
-0.579675860411198
 30
0.0
  0
LINE
  5
B4
330
1F
100
AcDbEntity
  8
0
  6
Continuous
 62
     4
370
    15
100
AcDbLine
 10
-36.17499999999998
 20
3.191825020758404
 30
0.0
 11
-36.17499999999998
 21
-3.158174979241593
 31
0.0
  0
SPLINE
  5
B5
330
1F
100
AcDbEntity
  8
0
  6
Continuous
 62
     4
370
    15
100
AcDbSpline
210
0.0
220
0.0
230
1.0
 70
     8
 71
     3
 72
     9
 73
     5
 74
     0
 42
0.000000001
 43
0.00000001
 40
0.0
 40
0.0
 40
0.0
 40
0.0
 40
0.8526081965650084
 40
1.0
 40
1.0
 40
1.0
 40
1.0
 10
9.63961149751889
 20
-3.141349958483178
 30
0.0
 10
9.858716136718225
 20
-3.11497097345138
 30
0.0
 10
10.11569776096494
 20
-3.084031809204456
 30
0.0
 10
10.3720328111683
 20
-2.977483839909505
 30
0.0
 10
10.40981449650137
 20
-2.961779542562787
 30
0.0
  0
SPLINE
  5
B6
330
1F
100
AcDbEntity
  8
0
  6
Continuous
 62
     4
370
    15
100
AcDbSpline
210
0.0
220
0.0
230
1.0
 70
     8
 71
     3
 72
     8
 73
     4
 74
     0
 42
0.000000001
 43
0.00000001
 40
0.0
 40
0.0
 40
0.0
 40
0.0
 40
1.0
 40
1.0
 40
1.0
 40
1.0
 10
10.95000000000001
 20
3.134990998918919
 30
0.0
 10
10.79552877539515
 20
3.105982810603956
 30
0.0
 10
10.64344272890717
 20
3.066153378713482
 30
0.0
 10
10.49046534570061
 20
3.015743670152451
 30
0.0
  0
SPLINE
  5
B7
330
1F
100
AcDbEntity
  8
0
  6
Continuous
 62
     4
370
    15
100
AcDbSpline
210
0.0
220
0.0
230
1.0
 70
     8
 71
     3
 72
     9
 73
     5
 74
     0
 42
0.000000001
 43
0.00000001
 40
0.0
 40
0.0
 40
0.0
 40
0.0
 40
0.6344001786773337
 40
0.9999999999999999
 40
0.9999999999999999
 40
0.9999999999999999
 40
0.9999999999999999
 10
10.4098144965014
 20
2.995429584079604
 30
0.0
 10
10.42860837725694
 20
2.999130818708026
 30
0.0
 10
10.45823302331981
 20
3.004965045672051
 30
0.0
 10
10.4818360744315
 20
3.012858005463126
 30
0.0
 10
10.49046534570061
 20
3.015743670152449
 30
0.0
  0
SPLINE
  5
B8
330
1F
100
AcDbEntity
  8
0
  6
Continuous
 62
     4
370
    15
100
AcDbSpline
210
0.0
220
0.0
230
1.0
 70
     8
 71
     3
 72
    11
 73
     7
 74
     0
 42
0.000000001
 43
0.00000001
 40
0.0
 40
0.0
 40
0.0
 40
0.0
 40
0.2973476276856303
 40
0.6042511673717251
 40
0.9012853376761918
 40
1.0
 40
1.0
 40
1.0
 40
1.0
 10
9.63961149751889
 20
3.175
 30
0.0
 10
9.614649635262023
 20
3.177685590059789
 30
0.0
 10
9.563923707075269
 20
3.183143077450356
 30
0.0
 10
9.509511898150034
 20
3.188983226665761
 30
0.0
 10
9.476238610288275
 20
3.191992525559961
 30
0.0
 10
9.466062171806886
 20
3.191515735961046
 30
0.0
 10
9.463523784816132
 20
3.191396806679706
 30
0.0
  0
SPLINE
  5
B9
330
1F
100
AcDbEntity
  8
0
  6
Continuous
 62
     4
370
    15
100
AcDbSpline
210
0.0
220
0.0
230
1.0
 70
     8
 71
     3
 72
    10
 73
     6
 74
     0
 42
0.000000001
 43
0.00000001
 40
0.0
 40
0.0
 40
0.0
 40
0.0
 40
0.5
 40
0.5
 40
1.0
 40
1.0
 40
1.0
 40
1.0
 10
10.95000000000002
 20
2.778751627140703
 30
0.0
 10
10.73053399780939
 20
2.886670135158126
 30
0.0
 10
10.51564856553329
 20
2.974270560752759
 30
0.0
 10
10.0772622226775
 20
3.107529288148563
 30
0.0
 10
9.855985562484872
 20
3.152610726998371
 30
0.0
 10
9.63961149751889
 20
3.175
 30
0.0
  0
SPLINE
  5
BA
330
1F
100
AcDbEntity
  8
0
  6
Continuous
 62
     4
370
    15
100
AcDbSpline
210
0.0
220
0.0
230
1.0
 70
     8
 71
     3
 72
     8
 73
     4
 74
     0
 42
0.000000001
 43
0.00000001
 40
0.0
 40
0.0
 40
0.0
 40
0.0
 40
1.0
 40
1.0
 40
1.0
 40
1.0
 10
10.95000000000001
 20
2.09383604487998
 30
0.0
 10
10.79552877539515
 20
2.210313969128651
 30
0.0
 10
10.64344272890717
 20
2.318881553097904
 30
0.0
 10
10.49046534570061
 20
2.419242788982867
 30
0.0
  0
SPLINE
  5
BB
330
1F
100
AcDbEntity
  8
0
  6
Continuous
 62
     4
370
    15
100
AcDbSpline
210
0.0
220
0.0
230
1.0
 70
     8
 71
     3
 72
    14
 73
    10
 74
     0
 42
0.000000001
 43
0.00000001
 40
0.0
 40
0.0
 40
0.0
 40
0.0
 40
0.25
 40
0.25
 40
0.5
 40
0.5
 40
0.75
 40
0.75
 40
1.0
 40
1.0
 40
1.0
 40
1.0
 10
9.430388384831687
 20
1.910865797406871
 30
0.0
 10
9.430388384831689
 20
2.023958109785939
 30
0.0
 10
9.433482564882647
 20
2.132128305473265
 30
0.0
 10
9.518440260502473
 20
2.325577886108586
 30
0.0
 10
9.598938213477396
 20
2.406693721579009
 30
0.0
 10
9.829657606126482
 20
2.513603166781271
 30
0.0
 10
9.972215148976675
 20
2.537350479422387
 30
0.0
 10
10.25556183366456
 20
2.523215881878803
 30
0.0
 10
10.38975788625032
 20
2.485312196639148
 30
0.0
 10
10.49046534570061
 20
2.419242788982866
 30
0.0
  0
SPLINE
  5
BC
330
1F
100
AcDbEntity
  8
0
  6
Continuous
 62
     4
370
    15
100
AcDbSpline
210
0.0
220
0.0
230
1.0
 70
     8
 71
     3
 72
    10
 73
     6
 74
     0
 42
0.000000001
 43
0.00000001
 40
0.0
 40
0.0
 40
0.0
 40
0.0
 40
0.5
 40
0.5
 40
1.0
 40
1.0
 40
1.0
 40
1.0
 10
9.639611497518885
 20
1.313216825287823
 30
0.0
 10
9.55113183988734
 20
1.394505331483016
 30
0.0
 10
9.493224080637926
 20
1.496569843622642
 30
0.0
 10
9.432499450841853
 20
1.70514726278736
 30
0.0
 10
9.430388384831685
 20
1.810849965351516
 30
0.0
 10
9.430388384831687
 20
1.910865797406872
 30
0.0
  0
SPLINE
  5
BD
330
1F
100
AcDbEntity
  8
0
  6
Continuous
 62
     4
370
    15
100
AcDbSpline
210
0.0
220
0.0
230
1.0
 70
     8
 71
     3
 72
    10
 73
     6
 74
     0
 42
0.000000001
 43
0.00000001
 40
0.0
 40
0.0
 40
0.0
 40
0.0
 40
0.5
 40
0.5
 40
1.0
 40
1.0
 40
1.0
 40
1.0
 10
10.95000000000002
 20
0.0415841299882771
 30
0.0
 10
10.73053399780939
 20
0.2603764157455848
 30
0.0
 10
10.51564856553329
 20
0.4774708575791398
 30
0.0
 10
10.0772622226775
 20
0.9049069801396563
 30
0.0
 10
9.855985562484872
 20
1.114428482393085
 30
0.0
 10
9.63961149751889
 20
1.313216825287819
 30
0.0
  0
SPLINE
  5
BE
330
1F
100
AcDbEntity
  8
0
  6
Continuous
 62
     4
370
    15
100
AcDbSpline
210
0.0
220
0.0
230
1.0
 70
     8
 71
     3
 72
     8
 73
     4
 74
     0
 42
0.000000001
 43
0.00000001
 40
0.0
 40
0.0
 40
0.0
 40
0.0
 40
1.0
 40
1.0
 40
1.0
 40
1.0
 10
10.95000000000001
 20
-3.101340957402102
 30
0.0
 10
10.79552877539515
 20
-3.072332769087141
 30
0.0
 10
10.64344272890717
 20
-3.032503337196668
 30
0.0
 10
10.49046534570061
 20
-2.982093628635638
 30
0.0
  0
SPLINE
  5
BF
330
1F
100
AcDbEntity
  8
0
  6
Continuous
 62
     4
370
    15
100
AcDbSpline
210
0.0
220
0.0
230
1.0
 70
     8
 71
     3
 72
    14
 73
    10
 74
     0
 42
0.000000001
 43
0.00000001
 40
0.0
 40
0.0
 40
0.0
 40
0.0
 40
0.25
 40
0.25
 40
0.5
 40
0.5
 40
0.75
 40
0.75
 40
1.0
 40
1.0
 40
1.0
 40
1.0
 10
9.430388384831687
 20
-3.136986228135686
 30
0.0
 10
9.430388384831689
 20
-3.120733873488048
 30
0.0
 10
9.433482564882647
 20
-3.094657909303439
 30
0.0
 10
9.518440260502475
 20
-3.028675179191235
 30
0.0
 10
9.598938213477398
 20
-2.98977147093493
 30
0.0
 10
9.829657606126483
 20
-2.931651751957565
 30
0.0
 10
9.972215148976677
 20
-2.915497114222607
 30
0.0
 10
10.25556183366456
 20
-2.924290056976513
 30
0.0
 10
10.38975788625032
 20
-2.948908110787185
 30
0.0
 10
10.49046534570061
 20
-2.982093628635637
 30
0.0
  0
SPLINE
  5
C0
330
1F
100
AcDbEntity
  8
0
  6
Continuous
 62
     4
370
    15
100
AcDbSpline
210
0.0
220
0.0
230
1.0
 70
     8
 71
     3
 72
     8
 73
     4
 74
     0
 42
0.000000001
 43
0.00000001
 40
0.0
 40
0.0
 40
0.0
 40
0.0
 40
1.0
 40
1.0
 40
1.0
 40
1.0
 10
9.639611497518885
 20
-3.141349958483177
 30
0.0
 10
9.559073936700406
 20
-3.149683570167801
 30
0.0
 10
9.503630961765046
 20
-3.156733803339563
 30
0.0
 10
9.471671777380218
 20
-3.157968432245186
 30
0.0
  0
SPLINE
  5
C1
330
1F
100
AcDbEntity
  8
0
  6
Continuous
 62
     1
370
    15
100
AcDbSpline
210
0.0
220
0.0
230
1.0
 70
     8
 71
     3
 72
    10
 73
     6
 74
     0
 42
0.000000001
 43
0.00000001
 40
0.0
 40
0.0
 40
0.0
 40
0.0
 40
0.2082453535344769
 40
0.6019931382170162
 40
1.0
 40
1.0
 40
1.0
 40
1.0
 10
9.463523784816127
 20
-3.157746765162886
 30
0.0
 10
9.45739982784834
 20
-3.157732648020374
 30
0.0
 10
9.439696767440157
 20
-3.157691838356297
 30
0.0
 10
9.430809153992973
 20
-3.151832029505313
 30
0.0
 10
9.430529143304925
 20
-3.141952543462593
 30
0.0
 10
9.430388384831687
 20
-3.136986228135686
 30
0.0
  0
LINE
  5
C2
330
1F
100
AcDbEntity
  8
0
  6
Continuous
 62
     1
370
    15
100
AcDbLine
 10
10.95000000000001
 20
0.0415841299882822
 30
0.0
 11
10.95000000000001
 21
-1.02432993328055
 31
0.0
  0
LINE
  5
C3
330
1F
100
AcDbEntity
  8
0
  6
Continuous
 62
     1
370
    15
100
AcDbLine
 10
10.95000000000001
 20
2.778751627140704
 30
0.0
 11
10.95000000000001
 21
2.093836044879984
 31
0.0
  0
LINE
  5
C4
330
1F
100
AcDbEntity
  8
0
  6
Continuous
 62
     1
370
    15
100
AcDbLine
 10
10.95000000000001
 20
-2.720342476394033
 30
0.0
 11
10.95000000000001
 21
-3.101340957402103
 31
0.0
  0
LINE
  5
C5
330
1F
100
AcDbEntity
  8
0
  6
Continuous
 62
     4
370
    15
100
AcDbLine
 10
-36.675
 20
2.691825020758404
 30
0.0
 11
-36.675
 21
-2.658174979241592
 31
0.0
  0
SPLINE
  5
C7
330
1F
100
AcDbEntity
  8
0
  6
Continuous
 62
     1
370
    15
100
AcDbSpline
210
0.0
220
0.0
230
1.0
 70
    24
 71
     3
 72
    14
 73
    10
 74
     0
 42
0.000000001
 43
0.00000001
 40
0.0
 40
0.0
 40
0.0
 40
0.0
 40
0.2500000000000001
 40
0.2500000000000001
 40
0.5000000000000001
 40
0.5000000000000001
 40
0.75
 40
0.75
 40
1.0
 40
1.0
 40
1.0
 40
1.0
 10
10.95000000000001
 20
2.093836044879965
 30
0.0
 10
10.95000000000001
 20
1.973550396089298
 30
0.0
 10
10.95000000000001
 20
1.831878355660709
 30
0.0
 10
10.95000000000001
 20
1.502794796265342
 30
0.0
 10
10.95000000000001
 20
1.314594113242736
 30
0.0
 10
10.95000000000001
 20
0.9144203621929612
 30
0.0
 10
10.95000000000001
 20
0.702505202712492
 30
0.0
 10
10.95000000000001
 20
0.3201537999652857
 30
0.0
 10
10.95000000000001
 20
0.1522331655752266
 30
0.0
 10
10.95000000000001
 20
0.0415841299882825
 30
0.0
  0
SPLINE
  5
C8
330
1F
100
AcDbEntity
  8
0
  6
Continuous
 62
     1
370
    15
100
AcDbSpline
210
0.0
220
0.0
230
1.0
 70
    24
 71
     3
 72
    12
 73
     8
 74
     0
 42
0.000000001
 43
0.00000001
 40
0.0
 40
0.0
 40
0.0
 40
0.0
 40
0.4999999999999998
 40
0.4999999999999998
 40
0.7499999999999999
 40
0.7499999999999999
 40
1.0
 40
1.0
 40
1.0
 40
1.0
 10
10.95000000000001
 20
3.134990998918903
 30
0.0
 10
10.95000000000001
 20
2.992109985025135
 30
0.0
 10
10.95000000000001
 20
2.840687779417841
 30
0.0
 10
10.95000000000001
 20
2.654967524305807
 30
0.0
 10
10.95000000000001
 20
2.600646263271245
 30
0.0
 10
10.95000000000001
 20
2.523372783008517
 30
0.0
 10
10.95000000000001
 20
2.50066228194648
 30
0.0
 10
10.95000000000001
 20
2.502074834094043
 30
0.0
  0
SPLINE
  5
C9
330
1F
100
AcDbEntity
  8
0
  6
Continuous
 62
     1
370
    15
100
AcDbSpline
210
0.0
220
0.0
230
1.0
 70
     8
 71
     3
 72
    16
 73
    12
 74
     0
 42
0.000000001
 43
0.00000001
 40
0.0
 40
0.0
 40
0.0
 40
0.0
 40
0.1217729480450134
 40
0.2437698812295252
 40
0.3654944814320127
 40
0.4880321871392044
 40
0.610712750697774
 40
0.7336204814322862
 40
0.8562704870771121
 40
0.9788071515090628
 40
1.0
 40
1.0
 40
1.0
 40
1.0
 10
10.95000000000002
 20
0.0415841299882771
 30
0.0
 10
11.19882993572581
 20
-0.2075315290907495
 30
0.0
 10
11.69694749674443
 20
-0.7062210623659189
 30
0.0
 10
12.44521831904449
 20
-1.413166219112297
 30
0.0
 10
13.19347656256068
 20
-2.043902016873621
 30
0.0
 10
13.94300370239587
 20
-2.561830686563951
 30
0.0
 10
14.69531500428073
 20
-2.935846983256756
 30
0.0
 10
15.44915423056055
 20
-3.148528414910151
 30
0.0
 10
16.20130999097296
 20
-3.169698245728473
 30
0.0
 10
16.74527975406143
 20
-3.096111601861464
 30
0.0
 10
17.03906147027853
 20
-2.969531916223639
 30
0.0
 10
17.08237944495598
 20
-2.950867801629497
 30
0.0
  0
SPLINE
  5
CA
330
1F
100
AcDbEntity
  8
0
  6
Continuous
 62
     1
370
    15
100
AcDbSpline
210
0.0
220
0.0
230
1.0
 70
     8
 71
     3
 72
    23
 73
    19
 74
     0
 42
0.000000001
 43
0.00000001
 40
0.0
 40
0.0
 40
0.0
 40
0.0
 40
0.0040022925669515
 40
0.0717793260244127
 40
0.1397085032024568
 40
0.2075454118416097
 40
0.275282634814685
 40
0.3430524138144295
 40
0.4109743868365076
 40
0.4788232198912726
 40
0.5465631366641752
 40
0.6143263106552883
 40
0.6822390913531392
 40
0.7501004884069596
 40
0.8178437521686491
 40
0.8856009714267905
 40
0.9466745209449405
 40
1.0
 40
1.0
 40
1.0
 40
1.0
 10
25.93706326547711
 20
3.186893992825274
 30
0.0
 10
25.95185492422794
 20
3.188521524678206
 30
0.0
 10
26.21713670414687
 20
3.217710580083935
 30
0.0
 10
26.73344889259603
 20
3.108712920751423
 30
0.0
 10
27.48720079200463
 20
2.850955045158668
 30
0.0
 10
28.23980625111468
 20
2.41482571852353
 30
0.0
 10
28.99122537166021
 20
1.849861921200829
 30
0.0
 10
29.74301868880239
 20
1.180761127767811
 30
0.0
 10
30.49667280568013
 20
0.4479305783520666
 30
0.0
 10
31.24942693801343
 20
-0.309720847991193
 30
0.0
 10
32.00087560328041
 20
-1.049233479967885
 30
0.0
 10
32.75258985297062
 20
-1.72927801101979
 30
0.0
 10
33.50613378220399
 20
-2.311070509942644
 30
0.0
 10
34.25903130129844
 20
-2.7628820154522
 30
0.0
 10
35.01055834634632
 20
-3.060529319271787
 30
0.0
 10
35.73682191724829
 20
-3.177861572851369
 30
0.0
 10
36.4115215082394
 20
-3.147682951001466
 30
0.0
 10
36.8342556288727
 20
-3.016555861379397
 30
0.0
 10
37.03130712290061
 20
-2.95543283473833
 30
0.0
  0
SPLINE
  5
CB
330
1F
100
AcDbEntity
  8
0
  6
Continuous
 62
     1
370
    15
100
AcDbSpline
210
0.0
220
0.0
230
1.0
 70
    24
 71
     3
 72
    14
 73
    10
 74
     0
 42
0.000000001
 43
0.00000001
 40
0.0
 40
0.0
 40
0.0
 40
0.0
 40
0.25
 40
0.25
 40
0.4999999999999999
 40
0.4999999999999999
 40
0.75
 40
0.75
 40
1.0
 40
1.0
 40
1.0
 40
1.0
 10
10.95000000000001
 20
2.09383604487997
 30
0.0
 10
10.95000000000001
 20
1.973550396089302
 30
0.0
 10
10.95000000000001
 20
1.831878355660714
 30
0.0
 10
10.95000000000001
 20
1.502794796265346
 30
0.0
 10
10.95000000000001
 20
1.314594113242739
 30
0.0
 10
10.95000000000001
 20
0.9144203621929639
 30
0.0
 10
10.95000000000001
 20
0.7025052027124936
 30
0.0
 10
10.95000000000001
 20
0.3201537999652859
 30
0.0
 10
10.95000000000001
 20
0.1522331655752263
 30
0.0
 10
10.95000000000001
 20
0.041584129988282
 30
0.0
  0
SPLINE
  5
CC
330
1F
100
AcDbEntity
  8
0
  6
Continuous
 62
     1
370
    15
100
AcDbSpline
210
0.0
220
0.0
230
1.0
 70
     8
 71
     3
 72
    23
 73
    19
 74
     0
 42
0.000000001
 43
0.00000001
 40
0.0
 40
0.0
 40
0.0
 40
0.0
 40
0.0325047967198554
 40
0.0933556557645944
 40
0.1542842756579439
 40
0.2153557189998957
 40
0.2831106015894863
 40
0.3508515291638926
 40
0.4187105859564976
 40
0.4866210246211213
 40
0.5543818617383298
 40
0.622119442439373
 40
0.6899659356662032
 40
0.7578855663380484
 40
0.8256530082361081
 40
0.8933878952302222
 40
0.9612224644526642
 40
1.0
 40
1.0
 40
1.0
 40
1.0
 10
38.1509219961801
 20
-3.140242537399493
 30
0.0
 10
38.03059640728929
 20
-3.143261755691427
 30
0.0
 10
37.68501435818506
 20
-3.151933125211723
 30
0.0
 10
37.11551847657932
 20
-3.009018301860129
 30
0.0
 10
36.43962987927161
 20
-2.729293751114331
 30
0.0
 10
35.73684032707011
 20
-2.304017675671032
 30
0.0
 10
35.01055320026122
 20
-1.744141800373872
 30
0.0
 10
34.2590326829748
 20
-1.065995764476601
 30
0.0
 10
33.50613341040886
 20
-0.3276833893425013
 30
0.0
 10
32.75258995597765
 20
0.4294340783696848
 30
0.0
 10
32.00087556233352
 20
1.164384955432434
 30
0.0
 10
31.24942699897113
 20
1.834929769996405
 30
0.0
 10
30.49667260238585
 20
2.403848711584662
 30
0.0
 10
29.74301944103484
 20
2.838470637043739
 30
0.0
 10
28.99122257373727
 20
3.117963345769297
 30
0.0
 10
28.23981669428901
 20
3.21623070727409
 30
0.0
 10
27.5949738411251
 20
3.171789674703247
 30
0.0
 10
27.20034185274717
 20
3.028173728897898
 30
0.0
 10
27.05680415606171
 20
2.975936954699909
 30
0.0
  0
SPLINE
  5
CD
330
1F
100
AcDbEntity
  8
0
  6
Continuous
 62
     1
370
    15
100
AcDbSpline
210
0.0
220
0.0
230
1.0
 70
     8
 71
     3
 72
    17
 73
    13
 74
     0
 42
0.000000001
 43
0.00000001
 40
0.0
 40
0.0
 40
0.0
 40
0.0
 40
0.0685826416285227
 40
0.1723078734275226
 40
0.2759264792074523
 40
0.3796409277990821
 40
0.4835733120966627
 40
0.5873136008597413
 40
0.690933087155631
 40
0.7938650008042265
 40
0.8970272027835515
 40
1.0
 40
1.0
 40
1.0
 40
1.0
 10
18.20236448418946
 20
-3.138161349896537
 30
0.0
 10
18.03639948373389
 20
-3.138582186023622
 30
0.0
 10
17.61942697271873
 20
-3.139639499891938
 30
0.0
 10
16.9526345736096
 20
-2.938998424969945
 30
0.0
 10
16.20127122891834
 20
-2.573412074285573
 30
0.0
 10
15.44916464586808
 20
-2.055858650018171
 30
0.0
 10
14.69531221663139
 20
-1.425194855986317
 30
0.0
 10
13.9430044479359
 20
-0.7127178196694978
 30
0.0
 10
13.19347636444914
 20
0.0390045289908283
 30
0.0
 10
12.44521837186084
 20
0.7856197776884877
 30
0.0
 10
11.69694748355697
 20
1.495111214836088
 30
0.0
 10
11.19882993133325
 20
1.894383390409402
 30
0.0
 10
10.95000000000086
 20
2.093836044882859
 30
0.0
  0
SPLINE
  5
CE
330
1F
100
AcDbEntity
  8
0
  6
Continuous
 62
     1
370
    15
100
AcDbSpline
210
0.0
220
0.0
230
1.0
 70
     8
 71
     3
 72
    14
 73
    10
 74
     0
 42
0.000000001
 43
0.00000001
 40
0.0
 40
0.0
 40
0.0
 40
0.0
 40
0.25
 40
0.25
 40
0.5
 40
0.5
 40
0.75
 40
0.75
 40
1.0
 40
1.0
 40
1.0
 40
1.0
 10
39.52500000000001
 20
1.431860186297702
 30
0.0
 10
39.525
 20
1.412803981177363
 30
0.0
 10
39.51943011951431
 20
1.399650375434059
 30
0.0
 10
39.48120722241981
 20
1.404895814737936
 30
0.0
 10
39.44598846532707
 20
1.426996096772614
 30
0.0
 10
39.36308360582407
 20
1.49268125875127
 30
0.0
 10
39.3177445327609
 20
1.532759081951772
 30
0.0
 10
39.22920295787491
 20
1.610608044441304
 30
0.0
 10
39.18598014796325
 20
1.648581433753424
 30
0.0
 10
39.14400000000001
 20
1.684184428567427
 30
0.0
  0
SPLINE
  5
CF
330
1F
100
AcDbEntity
  8
0
  6
Continuous
 62
     1
370
    15
100
AcDbSpline
210
0.0
220
0.0
230
1.0
 70
     8
 71
     3
 72
    23
 73
    19
 74
     0
 42
0.000000001
 43
0.00000001
 40
0.0
 40
0.0
 40
0.0
 40
0.0
 40
0.0214623094915164
 40
0.0891979084966609
 40
0.1570032090502563
 40
0.2249446819483121
 40
0.2927522858905414
 40
0.3604879633847392
 40
0.4282840665454038
 40
0.4962243051396928
 40
0.564041906539174
 40
0.6317783165959077
 40
0.6995658688736814
 40
0.7675028825258868
 40
0.8353311252088758
 40
0.9030689218097567
 40
0.9708485707831929
 40
1.0
 40
1.0
 40
1.0
 40
1.0
 10
15.9634041647297
 20
3.172575683183155
 30
0.0
 10
16.04276235237954
 20
3.177995990939244
 30
0.0
 10
16.37257701483467
 20
3.200522928939207
 30
0.0
 10
16.95260744129075
 20
3.059003522392189
 30
0.0
 10
17.70483995989161
 20
2.752689578834638
 30
0.0
 10
18.45869027658212
 20
2.281464490770235
 30
0.0
 10
19.21091145119414
 20
1.686371045815418
 30
0.0
 10
19.96228278031044
 20
0.9971656337611785
 30
0.0
 10
20.71436158841346
 20
0.2531345693069372
 30
0.0
 10
21.46820804681992
 20
-0.5030457220455147
 30
0.0
 10
22.22054791101888
 20
-1.231193152581952
 30
0.0
 10
22.97192828828176
 20
-1.889364516744449
 30
0.0
 10
23.72390328083735
 20
-2.441311152565683
 30
0.0
 10
24.4777112376868
 20
-2.854514625217951
 30
0.0
 10
25.23017688567687
 20
-3.110383416446377
 30
0.0
 10
25.98158813239113
 20
-3.1815843729352
 30
0.0
 10
26.59010224519074
 20
-3.123939911816456
 30
0.0
 10
26.94889840450348
 20
-2.984286748375018
 30
0.0
 10
27.05680415606171
 20
-2.942286913183087
 30
0.0
  0
SPLINE
  5
D0
330
1F
100
AcDbEntity
  8
0
  6
Continuous
 62
     1
370
    15
100
AcDbSpline
210
0.0
220
0.0
230
1.0
 70
     8
 71
     3
 72
    12
 73
     8
 74
     0
 42
0.000000001
 43
0.00000001
 40
0.0
 40
0.0
 40
0.0
 40
0.0
 40
0.1634742732395151
 40
0.3725428929986735
 40
0.5813446865385806
 40
0.7908455345306632
 40
1.0
 40
1.0
 40
1.0
 40
1.0
 10
35.9109682539796
 20
3.17947528694075
 30
0.0
 10
36.08732703462615
 20
3.175962761808517
 30
0.0
 10
36.48923253966864
 20
3.167958038811063
 30
0.0
 10
37.11551974407202
 20
2.986419079388443
 30
0.0
 10
37.79043692495912
 20
2.670979672688155
 30
0.0
 10
38.46773376089448
 20
2.237870832647165
 30
0.0
 10
38.91870229279322
 20
1.868644734490341
 30
0.0
 10
39.14399999999994
 20
1.684184428567492
 30
0.0
  0
SPLINE
  5
D1
330
1F
100
AcDbEntity
  8
0
  6
Continuous
 62
     1
370
    15
100
AcDbSpline
210
0.0
220
0.0
230
1.0
 70
     8
 71
     3
 72
    11
 73
     7
 74
     0
 42
0.000000001
 43
0.00000001
 40
0.0
 40
0.0
 40
0.0
 40
0.0
 40
0.3200269788638808
 40
0.6405839571807301
 40
0.9600713131785502
 40
1.0
 40
1.0
 40
1.0
 40
1.0
 10
39.14399999999994
 20
3.037949196676378
 30
0.0
 10
38.91870740480226
 20
3.094700694620335
 30
0.0
 10
38.46774910538767
 20
3.208297677155789
 30
0.0
 10
37.79037551389158
 20
3.185580639474123
 30
0.0
 10
37.31250434364581
 20
3.109603449931898
 30
0.0
 10
37.05942277068265
 20
3.001133187389118
 30
0.0
 10
37.03130712290061
 20
2.989082876255153
 30
0.0
  0
SPLINE
  5
D2
330
1F
100
AcDbEntity
  8
0
  6
Continuous
 62
     1
370
    15
100
AcDbSpline
210
0.0
220
0.0
230
1.0
 70
     8
 71
     3
 72
    22
 73
    18
 74
     0
 42
0.000000001
 43
0.00000001
 40
0.0
 40
0.0
 40
0.0
 40
0.0
 40
0.0621809106467624
 40
0.1301092015763287
 40
0.1978853507702787
 40
0.2656196497527065
 40
0.3334443901470893
 40
0.4013778958943356
 40
0.4691619479845385
 40
0.5368948604944133
 40
0.6047089601547471
 40
0.6726456906775586
 40
0.7404382932091299
 40
0.808170473194294
 40
0.8759745759135915
 40
0.9439125406764369
 40
1.0
 40
1.0
 40
1.0
 40
1.0
 10
28.1773268898597
 20
-3.151385336247327
 30
0.0
 10
27.94739920959936
 20
-3.139658530715392
 30
0.0
 10
27.4662916383559
 20
-3.115121011259164
 30
0.0
 10
26.7334465754851
 20
-2.860636764422498
 30
0.0
 10
25.98157847087677
 20
-2.453175673277671
 30
0.0
 10
25.23017947743589
 20
-1.903560820164396
 30
0.0
 10
24.47771054185427
 20
-1.247611365903417
 30
0.0
 10
23.72390346579501
 20
-0.5215957283521352
 30
0.0
 10
22.9719282431415
 20
0.2355104721571667
 30
0.0
 10
22.22054790697388
 20
0.9801518988020272
 30
0.0
 10
21.46820810831825
 20
1.67102634357077
 30
0.0
 10
20.71436134620445
 20
2.268724217515857
 30
0.0
 10
19.96228368503196
 20
2.741076428072112
 30
0.0
 10
19.21090807545149
 20
3.062200393242979
 30
0.0
 10
18.45870290111931
 20
3.20829656331547
 30
0.0
 10
17.74818175643452
 20
3.194679845662045
 30
0.0
 10
17.28971142118994
 20
3.049962649449423
 30
0.0
 10
17.08237944495598
 20
2.984517843146318
 30
0.0
  0
SPLINE
  5
D3
330
1F
100
AcDbEntity
  8
0
  6
Continuous
 62
     1
370
    15
100
AcDbSpline
210
0.0
220
0.0
230
1.0
 70
     8
 71
     3
 72
     8
 73
     4
 74
     0
 42
0.000000001
 43
0.00000001
 40
0.0
 40
0.0
 40
0.0
 40
0.0
 40
1.0
 40
1.0
 40
1.0
 40
1.0
 10
39.14400000000001
 20
3.037949196672574
 30
0.0
 10
39.20726637572959
 20
3.018558949131797
 30
0.0
 10
39.26545311756267
 20
2.982375729681989
 30
0.0
 10
39.31795827380985
 20
2.933077612606024
 30
0.0
  0
SPLINE
  5
D4
330
1F
100
AcDbEntity
  8
0
  6
Continuous
 62
     1
370
    15
100
AcDbSpline
210
0.0
220
0.0
230
1.0
 70
     8
 71
     3
 72
    14
 73
    10
 74
     0
 42
0.000000001
 43
0.00000001
 40
0.0
 40
0.0
 40
0.0
 40
0.0
 40
0.25
 40
0.25
 40
0.5
 40
0.5
 40
0.75
 40
0.75
 40
1.0
 40
1.0
 40
1.0
 40
1.0
 10
39.31795827380981
 20
2.933077612605998
 30
0.0
 10
39.30917826202987
 20
2.816420130652986
 30
0.0
 10
39.2915606446098
 20
2.70241702896634
 30
0.0
 10
39.22881663284825
 20
2.482673103588293
 30
0.0
 10
39.18269769846062
 20
2.376004769566547
 30
0.0
 10
39.05229815845407
 20
2.2003323393882
 30
0.0
 10
38.96822907940442
 20
2.134452412980391
 30
0.0
 10
38.78320397391943
 20
2.069961887959361
 30
0.0
 10
38.68325141022756
 20
2.070691029541208
 30
0.0
 10
38.58851788549385
 20
2.096540703483793
 30
0.0
  0
LINE
  5
D5
330
1F
100
AcDbEntity
  8
0
  6
Continuous
 62
     1
370
    15
100
AcDbLine
 10
39.52500000000001
 20
1.57896832422147
 30
0.0
 11
38.69788161174215
 21
2.036097857728581
 31
0.0
  0
LINE
  5
D6
330
1F
100
AcDbEntity
  8
0
  6
Continuous
 62
     1
370
    15
100
AcDbLine
 10
39.52500000000001
 20
1.431860186297687
 30
0.0
 11
39.52500000000001
 21
1.57896832422147
 31
0.0
  0
SPLINE
  5
D7
330
1F
100
AcDbEntity
  8
0
  6
Continuous
 62
     1
370
    15
100
AcDbSpline
210
0.0
220
0.0
230
1.0
 70
     8
 71
     3
 72
    11
 73
     7
 74
     0
 42
0.000000001
 43
0.00000001
 40
0.0
 40
0.0
 40
0.0
 40
0.0
 40
0.2660982823696567
 40
0.5326860171329172
 40
0.798678649782673
 40
1.0
 40
1.0
 40
1.0
 40
1.0
 10
10.95000000000002
 20
-2.720342476394037
 30
0.0
 10
11.19882959216743
 20
-2.832134572533895
 30
0.0
 10
11.69694646543735
 20
-3.055924391503697
 30
0.0
 10
12.44522244928088
 20
-3.176353911733445
 30
0.0
 10
13.13133945727014
 20
-3.154305256377751
 30
0.0
 10
13.56820889559078
 20
-3.009580778708982
 30
0.0
 10
13.75641457403378
 20
-2.947232703705925
 30
0.0
  0
SPLINE
  5
D8
330
1F
100
AcDbEntity
  8
0
  6
Continuous
 62
     1
370
    15
100
AcDbSpline
210
0.0
220
0.0
230
1.0
 70
     8
 71
     3
 72
    23
 73
    19
 74
     0
 42
0.000000001
 43
0.00000001
 40
0.0
 40
0.0
 40
0.0
 40
0.0
 40
0.0324095675592695
 40
0.1001898856154245
 40
0.1681196490956386
 40
0.2359406532145681
 40
0.3036712209037077
 40
0.371443636498958
 40
0.4393681854487616
 40
0.5072004721462193
 40
0.5749330799694969
 40
0.6426982416012995
 40
0.7106155868859789
 40
0.7784597971866009
 40
0.8461950986261688
 40
0.91395365569936
 40
0.9818618092861141
 40
1.0
 40
1.0
 40
1.0
 40
1.0
 10
22.61240683119969
 20
3.16963274975108
 30
0.0
 10
22.73219198664556
 20
3.17421892987254
 30
0.0
 10
23.10249192972871
 20
3.188396498300153
 30
0.0
 10
23.72389960859606
 20
3.02077344539128
 30
0.0
 10
24.47771140306346
 20
2.686387636792831
 30
0.0
 10
25.23017988549041
 20
2.192755935099555
 30
0.0
 10
25.98157598231086
 20
1.58006876852456
 30
0.0
 10
26.73345613858458
 20
0.8790265929533239
 30
0.0
 10
27.48719885442367
 20
0.131024382618937
 30
0.0
 10
28.23980675807394
 20
-0.6242056430977021
 30
0.0
 10
28.9912252770422
 20
-1.343621148960543
 30
0.0
 10
29.74301856022854
 20
-1.987085750377726
 30
0.0
 10
30.49667341616682
 20
-2.518042727823183
 30
0.0
 10
31.24942462949861
 20
-2.906915479442994
 30
0.0
 10
32.00088421414004
 20
-3.135785727102189
 30
0.0
 10
32.75255767024405
 20
-3.175587875964099
 30
0.0
 10
33.32213426074155
 20
-3.106912893198563
 30
0.0
 10
33.64043781251885
 20
-2.974366434200479
 30
0.0
 10
33.70753480047307
 20
-2.946426223941719
 30
0.0
  0
SPLINE
  5
D9
330
1F
100
AcDbEntity
  8
0
  6
Continuous
 62
     1
370
    15
100
AcDbSpline
210
0.0
220
0.0
230
1.0
 70
    24
 71
     3
 72
    14
 73
    10
 74
     0
 42
0.000000001
 43
0.00000001
 40
0.0
 40
0.0
 40
0.0
 40
0.0
 40
0.25
 40
0.25
 40
0.4999999999999999
 40
0.4999999999999999
 40
0.7499999999999998
 40
0.7499999999999998
 40
1.0
 40
1.0
 40
1.0
 40
1.0
 10
10.95000000000001
 20
-1.02432993328055
 30
0.0
 10
10.95000000000001
 20
-1.040171614808015
 30
0.0
 10
10.95000000000001
 20
-1.073657086793901
 30
0.0
 10
10.95000000000001
 20
-1.202965410273362
 30
0.0
 10
10.95000000000001
 20
-1.299604026096713
 30
0.0
 10
10.95000000000001
 20
-1.579923128940769
 30
0.0
 10
10.95000000000001
 20
-1.765049159832106
 30
0.0
 10
10.95000000000001
 20
-2.208153615413648
 30
0.0
 10
10.95000000000001
 20
-2.465526244686948
 30
0.0
 10
10.95000000000001
 20
-2.720342476394031
 30
0.0
  0
SPLINE
  5
DA
330
1F
100
AcDbEntity
  8
0
  6
Continuous
 62
     1
370
    15
100
AcDbSpline
210
0.0
220
0.0
230
1.0
 70
     8
 71
     3
 72
    22
 73
    18
 74
     0
 42
0.000000001
 43
0.00000001
 40
0.0
 40
0.0
 40
0.0
 40
0.0
 40
0.0511564684250507
 40
0.119013737568509
 40
0.1869223872304044
 40
0.2546814392859221
 40
0.3224172355379312
 40
0.3902619414465837
 40
0.4581797828735504
 40
0.525945439535926
 40
0.5936785421519679
 40
0.6615113243703528
 40
0.7294363695150679
 40
0.7972092801938818
 40
0.8649403426608822
 40
0.9327618422183191
 40
1.0
 40
1.0
 40
1.0
 40
1.0
 10
34.82659531999726
 20
-3.141746063803913
 30
0.0
 10
34.63753948604009
 20
-3.138515258961028
 30
0.0
 10
34.19770768957159
 20
-3.13099890430356
 30
0.0
 10
33.50612585535987
 20
-2.911164588137554
 30
0.0
 10
32.75259197265806
 20
-2.530236795678621
 30
0.0
 10
32.00087503530636
 20
-2.000600018858162
 30
0.0
 10
31.24942709337208
 20
-1.359819116545112
 30
0.0
 10
30.49667275302899
 20
-0.641775291041907
 30
0.0
 10
29.74301874373007
 20
0.1122996564680226
 30
0.0
 10
28.99122520497391
 20
0.8620719694776113
 30
0.0
 10
28.23980686316744
 20
1.564314329171507
 30
0.0
 10
27.48719850540947
 20
2.180065684009336
 30
0.0
 10
26.73345742998033
 20
2.67416972127994
 30
0.0
 10
25.98157117940914
 20
3.021282758157132
 30
0.0
 10
25.23019780838164
 20
3.196956573519216
 30
0.0
 10
24.48020401210387
 20
3.207066228372095
 30
0.0
 10
23.98020457796082
 20
3.065884875900756
 30
0.0
 10
23.7312846450511
 20
2.995599090786822
 30
0.0
  0
SPLINE
  5
DB
330
1F
100
AcDbEntity
  8
0
  6
Continuous
 62
     1
370
    15
100
AcDbSpline
210
0.0
220
0.0
230
1.0
 70
     8
 71
     3
 72
    13
 73
     9
 74
     0
 42
0.000000001
 43
0.00000001
 40
0.0
 40
0.0
 40
0.0
 40
0.0
 40
0.0461475629989253
 40
0.237758356108013
 40
0.4291460241725921
 40
0.6192637291221751
 40
0.8098067821233293
 40
1.0
 40
1.0
 40
1.0
 40
1.0
 10
14.87641668993151
 20
-3.141901638375503
 30
0.0
 10
14.81596171576488
 20
-3.14682826228942
 30
0.0
 10
14.50448968252347
 20
-3.172210881149767
 30
0.0
 10
13.94301545570602
 20
-3.041459419388726
 30
0.0
 10
13.19347343936514
 20
-2.750092044947306
 30
0.0
 10
12.4452191516811
 20
-2.290499898319516
 30
0.0
 10
11.6969472888383
 20
-1.713845441172101
 30
0.0
 10
11.19882986646679
 20
-1.254027603141634
 30
0.0
 10
10.95000000000086
 20
-1.024329933280882
 30
0.0
  0
SPLINE
  5
DC
330
1F
100
AcDbEntity
  8
0
  6
Continuous
 62
     1
370
    15
100
AcDbSpline
210
0.0
220
0.0
230
1.0
 70
     8
 71
     3
 72
    14
 73
    10
 74
     0
 42
0.000000001
 43
0.00000001
 40
0.0
 40
0.0
 40
0.0
 40
0.0
 40
0.25
 40
0.25
 40
0.5
 40
0.5
 40
0.75
 40
0.75
 40
1.0
 40
1.0
 40
1.0
 40
1.0
 10
39.52500000000001
 20
-1.362061865939788
 30
0.0
 10
39.52499999999999
 20
-1.420299747249855
 30
0.0
 10
39.5194301195143
 20
-1.478142362283002
 30
0.0
 10
39.4812072224198
 20
-1.572319476290132
 30
0.0
 10
39.44598846532707
 20
-1.603762623537889
 30
0.0
 10
39.36308360582408
 20
-1.616872859188316
 30
0.0
 10
39.31774453276091
 20
-1.603197754889203
 30
0.0
 10
39.22920295787492
 20
-1.557896074239309
 30
0.0
 10
39.18598014796325
 20
-1.526281662668443
 30
0.0
 10
39.14400000000001
 20
-1.489453224509051
 30
0.0
  0
SPLINE
  5
DD
330
1F
100
AcDbEntity
  8
0
  6
Continuous
 62
     1
370
    15
100
AcDbSpline
210
0.0
220
0.0
230
1.0
 70
     8
 71
     3
 72
    23
 73
    19
 74
     0
 42
0.000000001
 43
0.00000001
 40
0.0
 40
0.0
 40
0.0
 40
0.0
 40
0.0499251450434543
 40
0.1176605239211108
 40
0.1854748705796057
 40
0.2534147888296548
 40
0.3212122439374779
 40
0.388947047227624
 40
0.4567515512474113
 40
0.5246922260119924
 40
0.5924990333933547
 40
0.6602339151716321
 40
0.7280292219065336
 40
0.7959686623818477
 40
0.8637854671030182
 40
0.9315210814352257
 40
0.9993078373876869
 40
1.0
 40
1.0
 40
1.0
 40
1.0
 10
12.63806451632326
 20
3.17505174200708
 30
0.0
 10
12.82266045648412
 20
3.172429268673591
 30
0.0
 10
13.25770486174588
 20
3.166248784147828
 30
0.0
 10
13.94298150071529
 20
2.950652199396029
 30
0.0
 10
14.69531826900439
 20
2.572285027597533
 30
0.0
 10
15.44916344693376
 20
2.04586946153216
 30
0.0
 10
16.20126998568639
 20
1.406839006540502
 30
0.0
 10
16.9526407400981
 20
0.6898535698324817
 30
0.0
 10
17.70483100883355
 20
-0.0648706984305374
 30
0.0
 10
18.45869268765254
 20
-0.8139617991458532
 30
0.0
 10
19.21091074770469
 20
-1.517711961746096
 30
0.0
 10
19.96228318805332
 20
-2.13536042863062
 30
0.0
 10
20.7143606593581
 20
-2.633190592777693
 30
0.0
 10
21.46821135953774
 20
-2.98094924965274
 30
0.0
 10
22.22053562241075
 20
-3.16687261903323
 30
0.0
 10
22.97197409458251
 20
-3.155184265706377
 30
0.0
 10
23.4752723676797
 20
-3.077416780047302
 30
0.0
 10
23.7287228500976
 20
-2.963104480771324
 30
0.0
 10
23.73128464505113
 20
-2.961949049269999
 30
0.0
  0
SPLINE
  5
DE
330
1F
100
AcDbEntity
  8
0
  6
Continuous
 62
     1
370
    15
100
AcDbSpline
210
0.0
220
0.0
230
1.0
 70
     8
 71
     3
 72
    17
 73
    13
 74
     0
 42
0.000000001
 43
0.00000001
 40
0.0
 40
0.0
 40
0.0
 40
0.0
 40
0.0252833046098282
 40
0.1401776445929618
 40
0.254985054107248
 40
0.3695926065918269
 40
0.4842237688820638
 40
0.5875475481502735
 40
0.6906296914316752
 40
0.7935802749476956
 40
0.8968755301379426
 40
1.0
 40
1.0
 40
1.0
 40
1.0
 10
32.5865347962678
 20
3.176547015559837
 30
0.0
 10
32.64177230222884
 20
3.18123597412438
 30
0.0
 10
32.94802433685404
 20
3.207232859314619
 30
0.0
 10
33.50617823426761
 20
3.07905200127923
 30
0.0
 10
34.25902063247405
 20
2.790373867003034
 30
0.0
 10
35.01055667775094
 20
2.331694133353626
 30
0.0
 10
35.73683863674709
 20
1.766719189162575
 30
0.0
 10
36.43963313678691
 20
1.136739376376079
 30
0.0
 10
37.11550699612225
 20
0.4777384271897297
 30
0.0
 10
37.79044033547188
 20
-0.2016507530529077
 30
0.0
 10
38.46773290872577
 20
-0.8739396107392101
 30
0.0
 10
38.9187020088937
 20
-1.284395219365495
 30
0.0
 10
39.14399999999994
 20
-1.489453224508987
 30
0.0
  0
SPLINE
  5
DF
330
1F
100
AcDbEntity
  8
0
  6
Continuous
 62
     1
370
    15
100
AcDbSpline
210
0.0
220
0.0
230
1.0
 70
     8
 71
     3
 72
    15
 73
    11
 74
     0
 42
0.000000001
 43
0.00000001
 40
0.0
 40
0.0
 40
0.0
 40
0.0
 40
0.124376088827912
 40
0.2489581579743415
 40
0.3731245264162995
 40
0.4974495661133644
 40
0.6220660375045696
 40
0.7603200876104738
 40
0.8985456624641928
 40
0.9999999999999999
 40
0.9999999999999999
 40
0.9999999999999999
 40
0.9999999999999999
 10
39.14400000000077
 20
0.6817658665050711
 30
0.0
 10
38.91870201514097
 20
0.8992783381467562
 30
0.0
 10
38.46773292747624
 20
1.334663505719317
 30
0.0
 10
37.7904402604328
 20
1.918420215389267
 30
0.0
 10
37.11550727660848
 20
2.420293059351573
 30
0.0
 10
36.43963208699774
 20
2.811877433570937
 30
0.0
 10
35.73684274652701
 20
3.088308264840179
 30
0.0
 10
35.01053946271892
 20
3.212695733592409
 30
0.0
 10
34.32611278216088
 20
3.186487923466743
 30
0.0
 10
33.89150172657361
 20
3.041463704648458
 30
0.0
 10
33.70753480047309
 20
2.98007626545854
 30
0.0
  0
SPLINE
  5
E0
330
1F
100
AcDbEntity
  8
0
  6
Continuous
 62
     1
370
    15
100
AcDbSpline
210
0.0
220
0.0
230
1.0
 70
     8
 71
     3
 72
    23
 73
    19
 74
     0
 42
0.000000001
 43
0.00000001
 40
0.0
 40
0.0
 40
0.0
 40
0.0
 40
0.0337293314959826
 40
0.1016569936598349
 40
0.1694352150225225
 40
0.2371623012038659
 40
0.3049705675520176
 40
0.3729014542140427
 40
0.4406882252825969
 40
0.5084145790022407
 40
0.5762128492692846
 40
0.6441449700651752
 40
0.7119409372606458
 40
0.7796672125020403
 40
0.8474561316730288
 40
0.9153874960496351
 40
0.98319330464459
 40
1.0
 40
1.0
 40
1.0
 40
1.0
 10
24.85217790993659
 20
-3.135912098674117
 30
0.0
 10
24.72744960800784
 20
-3.140223908489973
 30
0.0
 10
24.35153038174383
 20
-3.153219292734841
 30
0.0
 10
23.72387648460841
 20
-2.98258633344878
 30
0.0
 10
22.97193545610532
 20
-2.644412574467514
 30
0.0
 10
22.22054598550333
 20
-2.148235754543549
 30
0.0
 10
21.46820857553977
 20
-1.533357129830483
 30
0.0
 10
20.71436140420959
 20
-0.8321206926566731
 30
0.0
 10
19.96228298865232
 20
-0.0825611081514886
 30
0.0
 10
19.21091080193325
 20
0.6723536177697789
 30
0.0
 10
18.45869267024229
 20
1.390808675217232
 30
0.0
 10
17.70483102410902
 20
2.031472551675272
 30
0.0
 10
16.95264069650958
 20
2.560703426423054
 30
0.0
 10
16.20127014469425
 20
2.94658144798748
 30
0.0
 10
15.44916285330197
 20
3.172218104512729
 30
0.0
 10
14.69532048759758
 20
3.208202259532393
 30
0.0
 10
14.13126028187664
 20
3.138352192302818
 30
0.0
 10
13.81853217760513
 20
3.006977814430308
 30
0.0
 10
13.7564145740338
 20
2.980882745222747
 30
0.0
  0
SPLINE
  5
E1
330
1F
100
AcDbEntity
  8
0
  6
Continuous
 62
     1
370
    15
100
AcDbSpline
210
0.0
220
0.0
230
1.0
 70
     8
 71
     3
 72
     8
 73
     4
 74
     0
 42
0.000000001
 43
0.00000001
 40
0.0
 40
0.0
 40
0.0
 40
0.0
 40
1.0
 40
1.0
 40
1.0
 40
1.0
 10
39.14400000000001
 20
0.6817658665034538
 30
0.0
 10
39.20726637573002
 20
0.6201145512090398
 30
0.0
 10
39.26545311756232
 20
0.5529130884178215
 30
0.0
 10
39.31795827380985
 20
0.4833763244253825
 30
0.0
  0
SPLINE
  5
E2
330
1F
100
AcDbEntity
  8
0
  6
Continuous
 62
     1
370
    15
100
AcDbSpline
210
0.0
220
0.0
230
1.0
 70
     8
 71
     3
 72
    14
 73
    10
 74
     0
 42
0.000000001
 43
0.00000001
 40
0.0
 40
0.0
 40
0.0
 40
0.0
 40
0.25
 40
0.25
 40
0.5
 40
0.5
 40
0.75
 40
0.75
 40
1.0
 40
1.0
 40
1.0
 40
1.0
 10
39.31795827380981
 20
0.483376324425398
 30
0.0
 10
39.30917826202985
 20
0.4197234061149852
 30
0.0
 10
39.29156064460981
 20
0.3520385758300913
 30
0.0
 10
39.22881663284825
 20
0.2041188002643006
 30
0.0
 10
39.18269769846063
 20
0.1228182259997038
 30
0.0
 10
39.05229815845406
 20
-0.044091946238433
 30
0.0
 10
38.9682290794044
 20
-0.1280111901514479
 30
0.0
 10
38.78320397391941
 20
-0.2724552170277303
 30
0.0
 10
38.68325141022752
 20
-0.3327016325784101
 30
0.0
 10
38.58851788549381
 20
-0.3772229696885993
 30
0.0
  0
SPLINE
  5
E3
330
1F
100
AcDbEntity
  8
0
  6
Continuous
 62
     1
370
    15
100
AcDbSpline
210
0.0
220
0.0
230
1.0
 70
     8
 71
     3
 72
     8
 73
     4
 74
     0
 42
0.000000001
 43
0.00000001
 40
0.0
 40
0.0
 40
0.0
 40
0.0
 40
1.0
 40
1.0
 40
1.0
 40
1.0
 10
39.52500000000001
 20
-1.01540855016768
 30
0.0
 10
39.21578539480383
 20
-0.8068814679599592
 30
0.0
 10
38.9032129341287
 20
-0.5935657344642338
 30
0.0
 10
38.58851788549378
 20
-0.3772229696888341
 30
0.0
  0
LINE
  5
E4
330
1F
100
AcDbEntity
  8
0
  6
Continuous
 62
     1
370
    15
100
AcDbLine
 10
39.52500000000001
 20
-2.39617497924159
 30
0.0
 11
39.52500000000001
 21
-1.01540855016768
 31
0.0
  0
SPLINE
  5
E6
330
1F
100
AcDbEntity
  8
0
  6
Continuous
 62
     1
370
    15
100
AcDbSpline
210
0.0
220
0.0
230
1.0
 70
     8
 71
     3
 72
    22
 73
    18
 74
     0
 42
0.000000001
 43
0.00000001
 40
0.0
 40
0.0
 40
0.0
 40
0.0
 40
0.0608381657701547
 40
0.1286347037462164
 40
0.196575378080326
 40
0.2643934144330848
 40
0.3321302589223694
 40
0.3999182459606985
 40
0.467855695332041
 40
0.5356843730365562
 40
0.6034226040788808
 40
0.671202687762184
 40
0.7391349220131196
 40
0.8069748835727265
 40
0.8747151549800196
 40
0.9424879838791276
 40
1.0
 40
1.0
 40
1.0
 40
1.0
 10
19.28760072609041
 20
3.183708781142432
 30
0.0
 10
19.51242604786221
 20
3.173143077896416
 30
0.0
 10
19.98779111343674
 20
3.150803217880643
 30
0.0
 10
20.71435818636107
 20
2.900178025865434
 30
0.0
 10
21.46820895319292
 20
2.496342338364295
 30
0.0
 10
22.22054768439127
 20
1.949027837354075
 30
0.0
 10
22.97192829042153
 20
1.294929685399135
 30
0.0
 10
23.72390349936522
 20
0.5687906216363581
 30
0.0
 10
24.47771035981611
 20
-0.1870086620985355
 30
0.0
 10
25.23018017023715
 20
-0.9323794822359621
 30
0.0
 10
25.98157588431349
 20
-1.624573456682646
 30
0.0
 10
26.73345624602332
 20
-2.225263997168048
 30
0.0
 10
27.48719852229612
 20
-2.699591741738572
 30
0.0
 10
28.23980797629362
 20
-3.023861861420987
 30
0.0
 10
28.99122074188465
 20
-3.173546082779805
 30
0.0
 10
29.70455374960692
 20
-3.162431664925989
 30
0.0
 10
30.16831514674399
 20
-3.018169178516062
 30
0.0
 10
30.38120484576649
 20
-2.951945474901139
 30
0.0
  0
SPLINE
  5
E7
330
1F
100
AcDbEntity
  8
0
  6
Continuous
 62
     1
370
    15
100
AcDbSpline
210
0.0
220
0.0
230
1.0
 70
     8
 71
     3
 72
    23
 73
    19
 74
     0
 42
0.000000001
 43
0.00000001
 40
0.0
 40
0.0
 40
0.0
 40
0.0
 40
0.0227039760993632
 40
0.0905494441391056
 40
0.1584680485187275
 40
0.2262344664241959
 40
0.2939683299176361
 40
0.3618018741331665
 40
0.4297276823114594
 40
0.4975013543148541
 40
0.5652331776363347
 40
0.6330554390641738
 40
0.700986461869547
 40
0.7687680364803471
 40
0.8364984733799496
 40
0.9043100944626541
 40
0.9722443419257285
 40
1.0
 40
1.0
 40
1.0
 40
1.0
 10
31.50145886271607
 20
-3.138363159728286
 30
0.0
 10
31.41754941850805
 20
-3.143813788443704
 30
0.0
 10
31.08289642654725
 20
-3.165552333191535
 30
0.0
 10
30.4966555594644
 20
-3.02100619873941
 30
0.0
 10
29.7430233352963
 20
-2.71175204221946
 30
0.0
 10
28.99122399923146
 20
-2.23722360651452
 30
0.0
 10
28.23980710205374
 20
-1.640061351224526
 30
0.0
 10
27.4871987578844
 20
-0.949392242575209
 30
0.0
 10
26.7334561799625
 20
-0.2057637078526182
 30
0.0
 10
25.98157591335194
 20
0.5514270048995117
 30
0.0
 10
25.23018012002644
 20
1.278458292540069
 30
0.0
 10
24.47771053197807
 20
1.93495145805496
 30
0.0
 10
23.72390286052226
 20
2.483763283432937
 30
0.0
 10
22.97193066676737
 20
2.894735485959846
 30
0.0
 10
22.22053881839283
 20
3.147326206542656
 30
0.0
 10
21.4682421119501
 20
3.214754551562167
 30
0.0
 10
20.8625437002609
 20
3.155822764047286
 30
0.0
 10
20.50879465182539
 20
3.016620967390841
 30
0.0
 10
20.40618677926726
 20
2.976244321080823
 30
0.0
  0
LINE
  5
E8
330
1F
100
AcDbEntity
  8
0
  6
Continuous
 62
     1
370
    15
100
AcDbLine
 10
11.55194086765476
 20
-3.144482076260557
 30
0.0
 11
10.95000000000086
 21
-3.101340957405311
 31
0.0
  0
SPLINE
  5
EA
330
1F
100
AcDbEntity
  8
0
  6
Continuous
 62
     1
370
    15
100
AcDbSpline
210
0.0
220
0.0
230
1.0
 70
     8
 71
     3
 72
    20
 73
    16
 74
     0
 42
0.000000001
 43
0.00000001
 40
0.0
 40
0.0
 40
0.0
 40
0.0
 40
0.0789701059045086
 40
0.1580854668141
 40
0.2370242190041274
 40
0.3164902724449573
 40
0.396048969611949
 40
0.47575498534378
 40
0.5552938656161057
 40
0.6347592437869568
 40
0.7143063937290492
 40
0.7940132969915211
 40
0.8735631492002436
 40
0.9530286194521037
 40
1.0
 40
1.0
 40
1.0
 40
1.0
 10
10.95000000000002
 20
2.778751627140703
 30
0.0
 10
11.19882993115625
 20
2.641141222995072
 30
0.0
 10
11.69694748302733
 20
2.365667298670535
 30
0.0
 10
12.44521837397949
 20
1.783461099594532
 30
0.0
 10
13.19347635650103
 20
1.11229715605445
 30
0.0
 10
13.94300447784616
 20
0.3757689908478958
 30
0.0
 10
14.69531210479393
 20
-0.3820213674268341
 30
0.0
 10
15.4491650637189
 20
-1.116726284156749
 30
0.0
 10
16.20126967382685
 20
-1.789055203491182
 30
0.0
 10
16.9526403742193
 20
-2.360337052259881
 30
0.0
 10
17.70483278816704
 20
-2.798270671457431
 30
0.0
 10
18.45868592758934
 20
-3.08042656949802
 30
0.0
 10
19.21093593766675
 20
-3.182432042605173
 30
0.0
 10
19.85963474101605
 20
-3.139895802518006
 30
0.0
 10
20.25814130542551
 20
-2.996037676370077
 30
0.0
 10
20.40618677926728
 20
-2.942594279564004
 30
0.0
  0
SPLINE
  5
EB
330
1F
100
AcDbEntity
  8
0
  6
Continuous
 62
     1
370
    15
100
AcDbSpline
210
0.0
220
0.0
230
1.0
 70
     8
 71
     3
 72
    21
 73
    17
 74
     0
 42
0.000000001
 43
0.00000001
 40
0.0
 40
0.0
 40
0.0
 40
0.0
 40
0.0487239505303617
 40
0.1249703009397869
 40
0.2011345474978579
 40
0.2771765292184591
 40
0.353244618514125
 40
0.4294806500069623
 40
0.5056590003819854
 40
0.5817047392914388
 40
0.6577661440543011
 40
0.7263247422533642
 40
0.7947230073263323
 40
0.8630339783305216
 40
0.931573649900943
 40
0.9793275345718675
 40
0.9793275345718675
 40
0.9793275345718675
 40
0.9793275345718675
 10
29.26133258442288
 20
3.171341137235713
 30
0.0
 10
29.42174618473592
 20
3.172351867221833
 30
0.0
 10
29.83318523447929
 20
3.174944252058435
 30
0.0
 10
30.49668912628311
 20
2.978089749851311
 30
0.0
 10
31.24942258107333
 20
2.615811509691511
 30
0.0
 10
32.00087674690214
 20
2.100911404117606
 30
0.0
 10
32.75258963313129
 20
1.471219040018565
 30
0.0
 10
33.50613351416046
 20
0.7605371719545839
 30
0.0
 10
34.25903259103804
 20
0.0079860998614703
 30
0.0
 10
35.01055346400447
 20
-0.7442983889855912
 30
0.0
 10
35.73683940397136
 20
-1.430600484577335
 30
0.0
 10
36.43963294080954
 20
-2.018253791104998
 30
0.0
 10
37.11550704848408
 20
-2.494669290214718
 30
0.0
 10
37.79044032146331
 20
-2.855052654982335
 30
0.0
 10
38.39952601049336
 20
-3.070992084468943
 30
0.0
 10
38.78254990657166
 20
-3.121156431766062
 30
0.0
 10
38.9397974333404
 20
-3.137381203961974
 30
0.0
  0
SPLINE
  5
EC
330
1F
100
AcDbEntity
  8
0
  6
Continuous
 62
     1
370
    15
100
AcDbSpline
210
0.0
220
0.0
230
1.0
 70
    24
 71
     3
 72
    10
 73
     6
 74
     0
 42
0.000000001
 43
0.00000001
 40
0.0
 40
0.0
 40
0.0
 40
0.0
 40
0.3451127385244536
 40
0.9577597969976228
 40
1.0
 40
1.0
 40
1.0
 40
1.0
 10
10.95000000000001
 20
3.134990998918929
 30
0.0
 10
10.95000000000002
 20
3.096585428002472
 30
0.0
 10
10.95000000000002
 20
2.99000196208408
 30
0.0
 10
10.95000000000001
 20
2.885578973383471
 30
0.0
 10
10.95000000000001
 20
2.834444447728036
 30
0.0
 10
10.95000000000001
 20
2.831146272803623
 30
0.0
  0
SPLINE
  5
ED
330
1F
100
AcDbEntity
  8
0
  6
Continuous
 62
     1
370
    15
100
AcDbSpline
210
0.0
220
0.0
230
1.0
 70
     8
 71
     3
 72
    20
 73
    16
 74
     0
 42
0.000000001
 43
0.00000001
 40
0.0
 40
0.0
 40
0.0
 40
0.0
 40
0.0771680742348953
 40
0.1544639471862491
 40
0.2315019022120231
 40
0.3086383034528893
 40
0.3859555209810315
 40
0.4717340568908672
 40
0.5574949255754734
 40
0.6434053473402119
 40
0.7293808192029744
 40
0.8151668936198754
 40
0.9009235251205919
 40
0.9868180412526028
 40
1.0
 40
1.0
 40
1.0
 40
1.0
 10
39.14399999999995
 20
-2.339358309412084
 30
0.0
 10
38.91870201006324
 20
-2.177913315069496
 30
0.0
 10
38.46773291223632
 20
-1.854755955930152
 30
0.0
 10
37.79044032142211
 20
-1.258552610618514
 30
0.0
 10
37.11550704863804
 20
-0.6104884944959045
 30
0.0
 10
36.4396329402333
 20
0.0672863484435023
 30
0.0
 10
35.73683940622726
 20
0.7662080557461026
 30
0.0
 10
35.01055345455502
 20
1.455458080927013
 30
0.0
 10
34.25903262620009
 20
2.087603805474947
 30
0.0
 10
33.50613338266891
 20
2.604162588570106
 30
0.0
 10
32.75259012378378
 20
2.974822130537873
 30
0.0
 10
32.00087492057306
 20
3.184649368198624
 30
0.0
 10
31.2494293995378
 20
3.201883358725035
 30
0.0
 10
30.70938523507416
 20
3.127680158947923
 30
0.0
 10
30.41974146358482
 20
3.00227982098162
 30
0.0
 10
30.38120484576652
 20
2.985595516417964
 30
0.0
  0
SPLINE
  5
EE
330
1F
100
AcDbEntity
  8
0
  6
Continuous
 62
     1
370
    15
100
AcDbSpline
210
0.0
220
0.0
230
1.0
 70
     8
 71
     3
 72
    22
 73
    18
 74
     0
 42
0.000000001
 43
0.00000001
 40
0.0
 40
0.0
 40
0.0
 40
0.0
 40
0.0055496491239644
 40
0.0768121006337875
 40
0.1479233686246522
 40
0.2189712561915502
 40
0.2900945873412376
 40
0.3613583335111051
 40
0.4324792486386503
 40
0.5035270538784551
 40
0.5746405753221023
 40
0.6459035279752765
 40
0.7170347671584613
 40
0.7880831761385496
 40
0.8586601395981595
 40
0.9293950040481128
 40
1.0
 40
1.0
 40
1.0
 40
1.0
 10
21.52714235430545
 20
-3.151786251177587
 30
0.0
 10
21.50757830876818
 20
-3.153884346018602
 30
0.0
 10
21.23679444459147
 20
-3.182923852565311
 30
0.0
 10
20.71429619594857
 20
-3.072055648538772
 30
0.0
 10
19.9623004282227
 20
-2.810212126170681
 30
0.0
 10
19.21090612266438
 20
-2.371364175158308
 30
0.0
 10
18.45869393819869
 20
-1.803898085919683
 30
0.0
 10
17.70483064466599
 20
-1.134256745193385
 30
0.0
 10
16.9526409474045
 20
-0.3996641488562599
 30
0.0
 10
16.20126952016103
 20
0.3581136606660262
 30
0.0
 10
15.44916510500868
 20
1.096998324602176
 30
0.0
 10
14.69531209374275
 20
1.77456563035507
 30
0.0
 10
13.94300448080173
 20
2.354580284963716
 30
0.0
 10
13.19347635571574
 20
2.803526402430739
 30
0.0
 10
12.44521837418915
 20
3.093583249180842
 30
0.0
 10
11.6969474829756
 20
3.225622232230836
 30
0.0
 10
11.19882993113958
 20
3.165182898697209
 30
0.0
 10
10.95000000000085
 20
3.134990998922127
 30
0.0
  0
SPLINE
  5
EF
330
1F
100
AcDbEntity
  8
0
  6
Continuous
 62
     1
370
    15
100
AcDbSpline
210
0.0
220
0.0
230
1.0
 70
     8
 71
     3
 72
     8
 73
     4
 74
     0
 42
0.000000001
 43
0.00000001
 40
0.0
 40
0.0
 40
0.0
 40
0.0
 40
1.0
 40
1.0
 40
1.0
 40
1.0
 10
39.14400000000001
 20
-2.339358309410712
 30
0.0
 10
39.20726637573002
 20
-2.381619377164218
 30
0.0
 10
39.26545311756232
 20
-2.412637620506087
 30
0.0
 10
39.31795827380984
 20
-2.432876267422228
 30
0.0
  0
SPLINE
  5
F0
330
1F
100
AcDbEntity
  8
0
  6
Continuous
 62
     1
370
    15
100
AcDbSpline
210
0.0
220
0.0
230
1.0
 70
     8
 71
     3
 72
    11
 73
     7
 74
     0
 42
0.000000001
 43
0.00000001
 40
0.0
 40
0.0
 40
0.0
 40
0.0
 40
0.1983814637692962
 40
0.5857292060421052
 40
0.9686136619569222
 40
1.0
 40
1.0
 40
1.0
 40
1.0
 10
39.01901308598364
 20
-2.246381717581026
 30
0.0
 10
38.99542407741816
 20
-2.249141235254302
 30
0.0
 10
38.92577658618659
 20
-2.257288821551512
 30
0.0
 10
38.77579789947478
 20
-2.330598197231437
 30
0.0
 10
38.6543749794625
 20
-2.408283644851963
 30
0.0
 10
38.59315600943577
 20
-2.453512021479191
 30
0.0
 10
38.58851788549382
 20
-2.456938652413995
 30
0.0
  0
SPLINE
  5
F1
330
1F
100
AcDbEntity
  8
0
  6
Continuous
 62
     1
370
    15
100
AcDbSpline
210
0.0
220
0.0
230
1.0
 70
     8
 71
     3
 72
     8
 73
     4
 74
     0
 42
0.000000001
 43
0.00000001
 40
0.0232794411619589
 40
0.0232794411619589
 40
0.0232794411619589
 40
0.0232794411619589
 40
1.0
 40
1.0
 40
1.0
 40
1.0
 10
39.50339952676791
 20
-2.576320866682444
 30
0.0
 10
39.20123122009041
 20
-2.558507365622374
 30
0.0
 10
38.89588700926004
 20
-2.515693085850499
 30
0.0
 10
38.58851788549378
 20
-2.456938652414193
 30
0.0
  0
LINE
  5
F3
330
1F
100
AcDbEntity
  8
0
  6
Continuous
 62
     1
370
    15
100
AcDbLine
 10
39.52500000000001
 20
-0.8492003830260291
 30
0.0
 11
39.52500000000001
 21
0.4552569754184642
 31
0.0
  0
LINE
  5
F4
330
1F
100
AcDbEntity
  8
0
  6
Continuous
 62
     1
370
    15
100
AcDbLine
 10
38.58851788549375
 20
-0.3772229696887863
 30
0.0
 11
39.52500000000001
 21
-0.8492003830260291
 31
0.0
  0
SPLINE
  5
F5
330
1F
100
AcDbEntity
  8
0
  6
Continuous
 62
     1
370
    15
100
AcDbSpline
210
0.0
220
0.0
230
1.0
 70
     8
 71
     3
 72
    10
 73
     6
 74
     0
 42
0.000000001
 43
0.00000001
 40
0.0
 40
0.0
 40
0.0
 40
0.0
 40
0.5
 40
0.5
 40
1.0
 40
1.0
 40
1.0
 40
1.0
 10
39.52500000000001
 20
0.4552569754184642
 30
0.0
 10
39.52500000000001
 20
0.4910757287052263
 30
0.0
 10
39.50550528541719
 20
0.5156319532741502
 30
0.0
 10
39.43013078969821
 20
0.5249763192384499
 30
0.0
 10
39.37537020393533
 20
0.510255792741657
 30
0.0
 10
39.31795827380108
 20
0.4833763244213637
 30
0.0
  0
LINE
  5
F8
330
1F
100
AcDbEntity
  8
0
  6
Continuous
 62
     1
370
    15
100
AcDbLine
 10
39.52500000000001
 20
0.4552569754184642
 30
0.0
 11
39.52500000000001
 21
1.431860186297687
 31
0.0
  0
LINE
  5
F9
330
1F
100
AcDbEntity
  8
0
  6
Continuous
 62
     1
370
    15
100
AcDbLine
 10
39.52500000000001
 20
-2.77717497924159
 30
0.0
 11
39.52500000000001
 21
-1.362061865939808
 31
0.0
  0
SPLINE
  5
FA
330
1F
100
AcDbEntity
  8
0
  6
Continuous
 62
     1
370
    15
100
AcDbSpline
210
0.0
220
0.0
230
1.0
 70
     8
 71
     3
 72
    10
 73
     6
 74
     0
 42
0.000000001
 43
0.00000001
 40
0.0
 40
0.0
 40
0.0
 40
0.0
 40
0.5
 40
0.5
 40
1.0
 40
1.0
 40
1.0
 40
1.0
 10
39.52500000000001
 20
-2.153657741470533
 30
0.0
 10
39.52500000000001
 20
-2.189476494757295
 30
0.0
 10
39.50550528541719
 20
-2.237675812322959
 30
0.0
 10
39.43013078969821
 20
-2.338433992236387
 30
0.0
 10
39.37537020393533
 20
-2.390126832103435
 30
0.0
 10
39.31795827380108
 20
-2.432876267428749
 30
0.0
  0
LINE
  5
FB
330
1F
100
AcDbEntity
  8
0
  6
Continuous
 62
     1
370
    15
100
AcDbLine
 10
39.52500000000001
 20
-0.8492003830260291
 30
0.0
 11
39.52500000000001
 21
-1.01540855016768
 31
0.0
  0
SPLINE
  5
FC
330
1F
100
AcDbEntity
  8
0
  6
Continuous
 62
     1
370
    15
100
AcDbSpline
210
0.0
220
0.0
230
1.0
 70
     8
 71
     3
 72
     8
 73
     4
 74
     0
 42
0.000000001
 43
0.00000001
 40
0.929350280019718
 40
0.929350280019718
 40
0.929350280019718
 40
0.929350280019718
 40
1.0
 40
1.0
 40
1.0
 40
1.0
 10
39.3420956018815
 20
2.925094930889767
 30
0.0
 10
39.33412988545918
 20
2.928171458139673
 30
0.0
 10
39.3260705473846
 20
2.930835195155879
 30
0.0
 10
39.31795827380984
 20
2.933077612606102
 30
0.0
  0
LINE
  5
FD
330
1F
100
AcDbEntity
  8
0
  6
Continuous
 62
     1
370
    15
100
AcDbLine
 10
39.52500000000001
 20
1.57896832422147
 30
0.0
 11
39.52500000000001
 21
2.81082502075841
 31
0.0
  0
LINE
  5
FF
330
1F
100
AcDbEntity
  8
0
  6
Continuous
 62
     1
370
    15
100
AcDbLine
 10
39.52500000000001
 20
-2.153657741470533
 30
0.0
 11
39.52500000000001
 21
-2.396174979241591
 31
0.0
  0
LINE
  5
102
330
1F
100
AcDbEntity
  8
0
  6
Continuous
 62
     8
370
    15
100
AcDbLine
 10
39.14400000000001
 20
-3.15817497924159
 30
0.0
 11
39.14400000000001
 21
-3.156812632318064
 31
0.0
  0
CIRCLE
  5
104
330
1F
100
AcDbEntity
  8
외형선
100
AcDbCircle
 10
0.0
 20
0.0
 30
0.0
 40
3.000000000000001
  0
INSERT
  5
105
330
1F
100
AcDbEntity
  8
0
  6
Continuous
 62
     7
100
AcDbBlockReference
 66
     1
  2
블럭10
 10
-15.67936049909347
 20
-52.04717430164393
 30
0.0
  0
ATTRIB
  5
106
330
105
100
AcDbEntity
  8
FORMAT
 62
     2
100
AcDbText
 10
-26.73038085127794
 20
-49.97180738881174
 30
0.0
 40
4.233333333333333
  1
GMG22901[ 6 FLUTE ]
 41
0.75
  7
SLDTEXTSTYLE0
 11
-26.73038085127794
 21
-52.08847405547841
 31
0.0
100
AcDbAttribute
  2
AUTOATTR0
 70
     0
 74
     1
  0
SEQEND
  5
107
330
105
100
AcDbEntity
  8
0
  6
Continuous
 62
     7
  0
HATCH
  5
108
330
1F
100
AcDbEntity
  8
중심선
100
AcDbHatch
 10
0.0
 20
0.0
 30
0.0
210
0.0
220
0.0
230
1.0
  2
SOLID
 70
     1
 71
     0
 91
        1
 92
        0
 93
        4
 72
     1
 10
-9.96445119471262
 20
-35.8
 11
-13.4107264385499
 21
-35.8
 72
     1
 10
-13.4107264385499
 20
-35.8
 11
-15.53895629775393
 21
-38.33632558057259
 72
     1
 10
-15.53895629775393
 20
-38.33632558057259
 11
-12.09264796880349
 21
-38.3362861512701
 72
     1
 10
-12.09264796880349
 20
-38.3362861512701
 11
-9.96445119471262
 21
-35.8
 97
        0
 75
     0
 76
     1
 98
        1
 10
0.0
 20
0.0
  0
HATCH
  5
109
330
1F
100
AcDbEntity
  8
중심선
100
AcDbHatch
 10
0.0
 20
0.0
 30
0.0
210
0.0
220
0.0
230
1.0
  2
SOLID
 70
     1
 71
     0
 91
        1
 92
        0
 93
        4
 72
     1
 10
-4.951687203676669
 20
-35.8
 11
-8.397962447513951
 21
-35.8
 72
     1
 10
-8.397962447513951
 20
-35.8
 11
-12.92910045587134
 21
-41.20000000000002
 72
     1
 10
-12.92910045587134
 20
-41.20000000000002
 11
-9.482825212034058
 21
-41.20000000000002
 72
     1
 10
-9.482825212034058
 20
-41.20000000000002
 11
-4.951687203676669
 21
-35.8
 97
        0
 75
     0
 76
     1
 98
        1
 10
0.0
 20
0.0
  0
HATCH
  5
10A
330
1F
100
AcDbEntity
  8
중심선
100
AcDbHatch
 10
0.0
 20
0.0
 30
0.0
210
0.0
220
0.0
230
1.0
  2
SOLID
 70
     1
 71
     0
 91
        1
 92
        0
 93
        4
 72
     1
 10
0.0610767873592266
 20
-35.80000000000003
 11
-3.385198456477889
 21
-35.8
 72
     1
 10
-3.385198456477889
 20
-35.8
 11
-10.43363535836714
 21
-44.20000000000002
 72
     1
 10
-10.43363535836714
 20
-44.20000000000002
 11
-6.987360114529856
 21
-44.20000000000002
 72
     1
 10
-6.987360114529856
 20
-44.20000000000002
 11
0.0610767873592266
 21
-35.80000000000003
 97
        0
 75
     0
 76
     1
 98
        1
 10
0.0
 20
0.0
  0
HATCH
  5
10B
330
1F
100
AcDbEntity
  8
중심선
100
AcDbHatch
 10
0.0
 20
0.0
 30
0.0
210
0.0
220
0.0
230
1.0
  2
SOLID
 70
     1
 71
     0
 91
        1
 92
        0
 93
        6
 72
     3
 10
4.860967218371426
 20
-40.00000000005127
 11
3.960054785062284
 21
1.540850780301639E-10
 40
0.3939339440162633
 50
17.09539180608434
 51
320.0019657685079
 73
     0
 72
     1
 10
6.543966874072021
 20
-38.5878940046383
 11
8.84926874777306
 21
-36.65356729459038
 72
     3
 10
4.86096721831858
 20
-40.00000000000015
 11
6.600054785286829
 21
-1.249000902703301E-13
 40
0.6363583540795982
 50
39.99873849337408
 51
368.4976242363724
 73
     1
 72
     1
 10
11.28629971021919
 20
-39.03999999993002
 11
3.541034525154502
 21
-39.03999999992999
 72
     1
 10
3.541034525154502
 20
-39.03999999992999
 11
3.541009480708568
 21
-40.95999999992991
 72
     1
 10
3.541009480708568
 20
-40.95999999992991
 11
7.982389250180605
 21
-40.95999999992988
 97
        0
 75
     0
 76
     1
 98
        1
 10
0.0
 20
0.0
  0
POINT
  5
10C
330
1F
100
AcDbEntity
  8
치수문자_일반주서
100
AcDbPoint
 10
0.0000000000000139
 20
0.2772030460025223
 30
0.0
  0
DIMENSION
  5
10D
330
1F
100
AcDbEntity
  8
치수문자_일반주서
100
AcDbDimension
  2
_D
 10
39.52500000000001
 20
37.38320150046829
 30
0.0
 11
3.680955115131819
 21
37.38320150046829
 31
0.0
 70
   160
  1
<>
 71
     2
 42
76.20000000000002
  3
SLDDIMSTYLE0
100
AcDbAlignedDimension
 13
-36.675
 23
2.691825020758404
 33
0.0
 14
39.52500000000001
 24
2.625739737647407
 34
0.0
100
AcDbRotatedDimension
1001
ACAD
1000
DSTYLE
1002
{
1070
   273
1070
     7
1002
}
  0
DIMENSION
  5
136
330
1F
100
AcDbEntity
  8
치수문자_일반주서
100
AcDbDimension
  2
_D_2
 10
10.95000000000086
 20
22.48274498213248
 30
0.0
 11
24.9357281525238
 21
22.48274498213248
 31
0.0
 70
   160
  1
<>
 71
     2
 42
28.57499999999915
  3
SLDDIMSTYLE2
100
AcDbAlignedDimension
 13
39.52500000000001
 23
2.42982502075841
 33
0.0
 14
10.95000000000086
 24
-3.10134095740531
 34
0.0
100
AcDbRotatedDimension
1001
ACAD
1000
DSTYLE
1002
{
1070
   171
1070
     3
1070
   273
1070
     7
1002
}
  0
DIMENSION
  5
14C
330
1F
100
AcDbEntity
  8
치수문자_일반주서
100
AcDbDimension
  2
_D_3
 10
-49.67499999999998
 20
-3.158174979241644
 30
0.0
 11
-49.675
 21
0.0168250207583811
 31
0.0
 70
   160
  1
%%c<>
 71
     2
 42
6.35
 52
-270.0
  3
SLDDIMSTYLE2
100
AcDbAlignedDimension
 13
-36.17499999999998
 23
3.191825020758407
 33
0.0
 14
-36.17499999999998
 24
-3.158174979241593
 34
0.0
 50
90.0000000000002
100
AcDbRotatedDimension
1001
ACAD
1000
DSTYLE
1002
{
1070
   273
1070
     7
1002
}
  0
INSERT
  5
166
330
1F
100
AcDbEntity
  8
외형선
100
AcDbBlockReference
  2
SW_DOWELSYMBOL_0
 10
0.0
 20
0.0
 30
0.0
  0
ARC
  5
1A4
330
1F
100
AcDbEntity
  8
0
  6
Continuous
 62
     1
370
    15
100
AcDbCircle
 10
38.76300000000001
 20
-2.396174979241591
 30
0.0
 40
0.7619999999999998
100
AcDbArc
 50
270.0
 51
0.0
  0
LINE
  5
1E0
330
1F
100
AcDbEntity
  8
중심선
100
AcDbLine
 10
-41.70199615420532
 20
0.0
 30
0.0
 11
42.52500000000003
 21
0.0
 31
0.0
  0
DIMENSION
  5
1EE
102
{ACAD_REACTORS
102
}
102
{ACAD_XDICTIONARY
360
1EF
102
}
330
1F
100
AcDbEntity
  8
치수문자_일반주서
100
AcDbDimension
  2
*D8
 10
53.36001333293918
 20
-3.158174979241591
 30
0.0
 11
53.36001333293918
 21
0.015841222564795
 31
0.0
 70
   160
 71
     5
 42
6.34803240361277
  3
SLDDIMSTYLE2
100
AcDbAlignedDimension
 13
38.81772426754738
 23
3.18985742437118
 33
0.0
 14
38.1509219961801
 24
-3.15817497924159
 34
0.0
 50
90.0
100
AcDbRotatedDimension
1001
ACAD
1000
DSTYLE
1002
{
1070
   171
1070
     3
1070
   273
1070
     7
1002
}
1001
ACAD_DSTYLE_DIMFLIPARROW_SYMBOL
1070
   385
1070
     0
1001
ACAD_DSTYLE_DIMFLIPARROW_WHICH_SYMBOL
1070
   386
1070
     3
  0
ARC
  5
205
330
1F
100
AcDbEntity
  8
0
  6
Continuous
 62
     1
370
    15
100
AcDbCircle
 10
39.14400000000001
 20
-2.77717497924159
 30
0.0
 40
0.381
100
AcDbArc
 50
270.0
 51
0.0
  0
ARC
  5
208
102
{ACAD_REACTORS
102
}
330
1F
100
AcDbEntity
  8
0
  6
Continuous
 62
     1
370
    15
100
AcDbCircle
 10
39.14400000000001
 20
2.81082502075841
 30
0.0
 40
0.381
100
AcDbArc
 50
0.0
 51
90.0
  0
LINE
  5
209
330
1F
100
AcDbEntity
  8
0
  6
Continuous
 62
     1
370
    15
100
AcDbLine
 10
39.14400000000001
 20
3.19182502075841
 30
0.0
 11
38.76300000000001
 21
3.19182502075841
 31
0.0
  0
DIMENSION
  5
20A
102
{ACAD_REACTORS
102
}
102
{ACAD_XDICTIONARY
360
20B
102
}
330
1F
100
AcDbEntity
  8
치수문자_일반주서
100
AcDbDimension
  2
*D9
 10
39.14400000000001
 20
2.81082502075841
 30
0.0
 11
61.19529255241685
 21
41.70438019353661
 31
0.0
 70
   164
 71
     5
 42
0.3809999999999987
  3
SLDDIMSTYLE2
100
AcDbRadialDimension
 15
39.33191268189947
 25
3.142261023602625
 35
0.0
 40
0.0
1001
ACAD
1000
DSTYLE
1002
{
1070
   171
1070
     3
1002
}
1001
ACAD_DSTYLE_DIMRADIAL_EXTENSION
1070
   387
1070
     1
1070
   388
1040
0.0
1070
   390
1040
1.570796326794897
  0
ENDSEC
  0
SECTION
  2
OBJECTS
  0
DICTIONARY
  5
C
330
0
100
AcDbDictionary
281
     1
  3
ACAD_DETAILVIEWSTYLE
350
1EC
  3
ACAD_GROUP
350
D
  3
ACAD_IMAGE_VARS
350
18A
  3
ACAD_LAYOUT
350
1A
  3
ACAD_MLINESTYLE
350
17
  3
ACAD_PLOTSETTINGS
350
19
  3
ACAD_PLOTSTYLENAME
350
E
  3
ACAD_SCALELIST
350
47
  3
ACAD_SECTIONVIEWSTYLE
350
1ED
  3
AcDbVariableDictionary
350
1E7
  3
APPDATA
350
188
  3
DWGPROPS
350
217
  0
DICTIONARY
  5
1EF
330
1EE
100
AcDbDictionary
280
     1
281
     1
  0
DICTIONARY
  5
20B
330
20A
100
AcDbDictionary
280
     1
281
     1
  0
DICTIONARY
  5
1EC
102
{ACAD_REACTORS
330
C
102
}
330
C
100
AcDbDictionary
281
     1
  0
DICTIONARY
  5
D
102
{ACAD_REACTORS
330
C
102
}
330
C
100
AcDbDictionary
281
     1
  0
RASTERVARIABLES
  5
18A
102
{ACAD_REACTORS
330
C
102
}
330
C
100
AcDbRasterVariables
 90
        0
 70
     1
 71
     1
 72
     1
  0
DICTIONARY
  5
1A
102
{ACAD_REACTORS
330
C
102
}
330
C
100
AcDbDictionary
281
     1
  3
Layout1
350
1E
  3
Layout2
350
26
  3
Model
350
22
  0
DICTIONARY
  5
17
102
{ACAD_REACTORS
330
C
102
}
330
C
100
AcDbDictionary
281
     1
  3
Standard
350
18
  0
DICTIONARY
  5
19
102
{ACAD_REACTORS
330
C
102
}
330
C
100
AcDbDictionary
281
     1
  0
ACDBDICTIONARYWDFLT
  5
E
102
{ACAD_REACTORS
330
C
102
}
330
C
100
AcDbDictionary
281
     1
  3
Normal
350
F
100
AcDbDictionaryWithDefault
340
F
  0
DICTIONARY
  5
47
102
{ACAD_REACTORS
330
C
102
}
330
C
100
AcDbDictionary
281
     1
  3
A0
350
48
  3
A1
350
49
  3
A2
350
4A
  3
A3
350
4B
  3
A4
350
4C
  3
A5
350
4D
  3
A6
350
4E
  3
A7
350
4F
  3
A8
350
50
  3
A9
350
51
  3
B0
350
52
  3
B1
350
53
  3
B2
350
54
  3
B3
350
55
  3
B4
350
56
  3
B5
350
57
  3
B6
350
58
  3
B7
350
59
  3
B8
350
5A
  3
B9
350
5B
  3
C0
350
5C
  3
C1
350
5D
  3
C2
350
5E
  3
C3
350
5F
  3
C4
350
60
  3
C5
350
61
  3
C6
350
62
  3
C7
350
63
  3
C8
350
64
  3
C9
350
65
  3
D0
350
66
  3
D1
350
67
  3
D2
350
68
  0
DICTIONARY
  5
1ED
102
{ACAD_REACTORS
330
C
102
}
330
C
100
AcDbDictionary
281
     1
  0
DICTIONARY
  5
1E7
102
{ACAD_REACTORS
330
C
102
}
330
C
100
AcDbDictionary
281
     1
  0
DICTIONARY
  5
188
102
{ACAD_REACTORS
330
C
102
}
330
C
100
AcDbDictionary
281
     1
  0
XRECORD
  5
217
102
{ACAD_REACTORS
330
C
102
}
330
C
100
AcDbXrecord
280
     1
  1
DWGPROPS COOKIE
  2

  3

  4

  6

  7

  8
12015048
  9

300
=
301
=
302
=
303
=
304
=
305
=
306
=
307
=
308
=
309
=
 40
0.0
 41
2458236.352694352
 42
2458246.367996377
  1

 90
        0
  0
LAYOUT
  5
1E
102
{ACAD_REACTORS
330
1A
102
}
330
1A
100
AcDbPlotSettings
  1

  2
none_device
  4

  6

 40
0.0
 41
0.0
 42
0.0
 43
0.0
 44
0.0
 45
0.0
 46
0.0
 47
0.0
 48
0.0
 49
0.0
140
0.0
141
0.0
142
1.0
143
1.0
 70
   688
 72
     1
 73
     0
 74
     5
  7

 75
    16
147
1.0
148
0.0
149
0.0
100
AcDbLayout
  1
Layout1
 70
     1
 71
     1
 10
0.0
 20
0.0
 11
420.0
 21
297.0
 12
0.0
 22
0.0
 32
0.0
 14
1.000000000000000E+20
 24
1.000000000000000E+20
 34
1.000000000000000E+20
 15
-1.000000000000000E+20
 25
-1.000000000000000E+20
 35
-1.000000000000000E+20
146
0.0
 13
0.0
 23
0.0
 33
0.0
 16
1.0
 26
0.0
 36
0.0
 17
0.0
 27
1.0
 37
0.0
 76
     0
330
1B
  0
LAYOUT
  5
26
102
{ACAD_REACTORS
330
1A
102
}
330
1A
100
AcDbPlotSettings
  1

  2
none_device
  4

  6

 40
0.0
 41
0.0
 42
0.0
 43
0.0
 44
0.0
 45
0.0
 46
0.0
 47
0.0
 48
0.0
 49
0.0
140
0.0
141
0.0
142
1.0
143
1.0
 70
   688
 72
     1
 73
     0
 74
     5
  7

 75
    16
147
1.0
148
0.0
149
0.0
100
AcDbLayout
  1
Layout2
 70
     1
 71
     2
 10
0.0
 20
0.0
 11
0.0
 21
0.0
 12
0.0
 22
0.0
 32
0.0
 14
0.0
 24
0.0
 34
0.0
 15
0.0
 25
0.0
 35
0.0
146
0.0
 13
0.0
 23
0.0
 33
0.0
 16
1.0
 26
0.0
 36
0.0
 17
0.0
 27
1.0
 37
0.0
 76
     0
330
23
  0
LAYOUT
  5
22
102
{ACAD_REACTORS
330
1A
102
}
330
1A
100
AcDbPlotSettings
  1

  2
none_device
  4
ANSI_A_(11.00_x_8.50_Inches)
  6

 40
6.35
 41
19.05
 42
6.35000508
 43
19.05000254
 44
279.4
 45
215.9
 46
129.5272353272447
 47
91.95271704931402
 48
0.0
 49
0.0
140
0.0
141
0.0
142
0.0853321460720423
143
1.0
 70
  1696
 72
     0
 73
     0
 74
     0
  7

 75
     0
147
0.0235690232323232
148
0.0
149
0.0
100
AcDbLayout
  1
Model
 70
     1
 71
     0
 10
0.0
 20
0.0
 11
420.0
 21
297.0
 12
0.0
 22
0.0
 32
0.0
 14
-54.05000000000004
 24
-49.97180738881175
 34
0.0
 15
68.10022049622913
 25
55.27974901411533
 35
0.0
146
0.0
 13
0.0
 23
0.0
 33
0.0
 16
1.0
 26
0.0
 36
0.0
 17
0.0
 27
1.0
 37
0.0
 76
     0
330
1F
331
29
  0
MLINESTYLE
  5
18
102
{ACAD_REACTORS
330
17
102
}
330
17
100
AcDbMlineStyle
  2
Standard
 70
     0
  3

 62
   256
 51
90.0
 52
90.0
 71
     2
 49
0.5
 62
   256
  6
BYLAYER
 49
-0.5
 62
   256
  6
BYLAYER
  0
ACDBPLACEHOLDER
  5
F
102
{ACAD_REACTORS
330
E
102
}
330
E
  0
SCALE
  5
48
102
{ACAD_REACTORS
330
47
102
}
330
47
100
AcDbScale
 70
     0
300
1:1
140
1.0
141
1.0
290
     1
  0
SCALE
  5
49
102
{ACAD_REACTORS
330
47
102
}
330
47
100
AcDbScale
 70
     0
300
1:2
140
1.0
141
2.0
290
     0
  0
SCALE
  5
4A
102
{ACAD_REACTORS
330
47
102
}
330
47
100
AcDbScale
 70
     0
300
1:4
140
1.0
141
4.0
290
     0
  0
SCALE
  5
4B
102
{ACAD_REACTORS
330
47
102
}
330
47
100
AcDbScale
 70
     0
300
1:5
140
1.0
141
5.0
290
     0
  0
SCALE
  5
4C
102
{ACAD_REACTORS
330
47
102
}
330
47
100
AcDbScale
 70
     0
300
1:8
140
1.0
141
8.0
290
     0
  0
SCALE
  5
4D
102
{ACAD_REACTORS
330
47
102
}
330
47
100
AcDbScale
 70
     0
300
1:10
140
1.0
141
10.0
290
     0
  0
SCALE
  5
4E
102
{ACAD_REACTORS
330
47
102
}
330
47
100
AcDbScale
 70
     0
300
1:16
140
1.0
141
16.0
290
     0
  0
SCALE
  5
4F
102
{ACAD_REACTORS
330
47
102
}
330
47
100
AcDbScale
 70
     0
300
1:20
140
1.0
141
20.0
290
     0
  0
SCALE
  5
50
102
{ACAD_REACTORS
330
47
102
}
330
47
100
AcDbScale
 70
     0
300
1:30
140
1.0
141
30.0
290
     0
  0
SCALE
  5
51
102
{ACAD_REACTORS
330
47
102
}
330
47
100
AcDbScale
 70
     0
300
1:40
140
1.0
141
40.0
290
     0
  0
SCALE
  5
52
102
{ACAD_REACTORS
330
47
102
}
330
47
100
AcDbScale
 70
     0
300
1:50
140
1.0
141
50.0
290
     0
  0
SCALE
  5
53
102
{ACAD_REACTORS
330
47
102
}
330
47
100
AcDbScale
 70
     0
300
1:100
140
1.0
141
100.0
290
     0
  0
SCALE
  5
54
102
{ACAD_REACTORS
330
47
102
}
330
47
100
AcDbScale
 70
     0
300
2:1
140
2.0
141
1.0
290
     0
  0
SCALE
  5
55
102
{ACAD_REACTORS
330
47
102
}
330
47
100
AcDbScale
 70
     0
300
4:1
140
4.0
141
1.0
290
     0
  0
SCALE
  5
56
102
{ACAD_REACTORS
330
47
102
}
330
47
100
AcDbScale
 70
     0
300
8:1
140
8.0
141
1.0
290
     0
  0
SCALE
  5
57
102
{ACAD_REACTORS
330
47
102
}
330
47
100
AcDbScale
 70
     0
300
10:1
140
10.0
141
1.0
290
     0
  0
SCALE
  5
58
102
{ACAD_REACTORS
330
47
102
}
330
47
100
AcDbScale
 70
     0
300
100:1
140
100.0
141
1.0
290
     0
  0
SCALE
  5
59
102
{ACAD_REACTORS
330
47
102
}
330
47
100
AcDbScale
 70
     0
300
1/128" = 1'-0"
140
0.0078125
141
12.0
290
     0
  0
SCALE
  5
5A
102
{ACAD_REACTORS
330
47
102
}
330
47
100
AcDbScale
 70
     0
300
1/64" = 1'-0"
140
0.015625
141
12.0
290
     0
  0
SCALE
  5
5B
102
{ACAD_REACTORS
330
47
102
}
330
47
100
AcDbScale
 70
     0
300
1/32" = 1'-0"
140
0.03125
141
12.0
290
     0
  0
SCALE
  5
5C
102
{ACAD_REACTORS
330
47
102
}
330
47
100
AcDbScale
 70
     0
300
1/16" = 1'-0"
140
0.0625
141
12.0
290
     0
  0
SCALE
  5
5D
102
{ACAD_REACTORS
330
47
102
}
330
47
100
AcDbScale
 70
     0
300
3/32" = 1'-0"
140
0.09375
141
12.0
290
     0
  0
SCALE
  5
5E
102
{ACAD_REACTORS
330
47
102
}
330
47
100
AcDbScale
 70
     0
300
1/8" = 1'-0"
140
0.125
141
12.0
290
     0
  0
SCALE
  5
5F
102
{ACAD_REACTORS
330
47
102
}
330
47
100
AcDbScale
 70
     0
300
3/16" = 1'-0"
140
0.1875
141
12.0
290
     0
  0
SCALE
  5
60
102
{ACAD_REACTORS
330
47
102
}
330
47
100
AcDbScale
 70
     0
300
1/4" = 1'-0"
140
0.25
141
12.0
290
     0
  0
SCALE
  5
61
102
{ACAD_REACTORS
330
47
102
}
330
47
100
AcDbScale
 70
     0
300
3/8" = 1'-0"
140
0.375
141
12.0
290
     0
  0
SCALE
  5
62
102
{ACAD_REACTORS
330
47
102
}
330
47
100
AcDbScale
 70
     0
300
1/2" = 1'-0"
140
0.5
141
12.0
290
     0
  0
SCALE
  5
63
102
{ACAD_REACTORS
330
47
102
}
330
47
100
AcDbScale
 70
     0
300
3/4" = 1'-0"
140
0.75
141
12.0
290
     0
  0
SCALE
  5
64
102
{ACAD_REACTORS
330
47
102
}
330
47
100
AcDbScale
 70
     0
300
1" = 1'-0"
140
1.0
141
12.0
290
     0
  0
SCALE
  5
65
102
{ACAD_REACTORS
330
47
102
}
330
47
100
AcDbScale
 70
     0
300
1-1/2" = 1'-0"
140
1.5
141
12.0
290
     0
  0
SCALE
  5
66
102
{ACAD_REACTORS
330
47
102
}
330
47
100
AcDbScale
 70
     0
300
3" = 1'-0"
140
3.0
141
12.0
290
     0
  0
SCALE
  5
67
102
{ACAD_REACTORS
330
47
102
}
330
47
100
AcDbScale
 70
     0
300
6" = 1'-0"
140
6.0
141
12.0
290
     0
  0
SCALE
  5
68
102
{ACAD_REACTORS
330
47
102
}
330
47
100
AcDbScale
 70
     0
300
1'-0" = 1'-0"
140
12.0
141
12.0
290
     0
  0
ENDSEC
  0
EOF
