  0
SECTION
  2
HEADER
  9
$ACADVER
  1
AC1015
  9
$ACADMAINTVER
 70
     6
  9
$DWGCODEPAGE
  3
ANSI_949
  9
$INSBASE
 10
0.0
 20
0.0
 30
0.0
  9
$EXTMIN
 10
-50.87500000000006
 20
-49.71142936356762
 30
0.0
  9
$EXTMAX
 10
54.7381800092516
 20
42.53512647970988
 30
0.0
  9
$LIMMIN
 10
0.0
 20
0.0
  9
$LIMMAX
 10
420.0
 20
297.0
  9
$ORTHOMODE
 70
     0
  9
$REGENMODE
 70
     1
  9
$FILLMODE
 70
     1
  9
$QTEXTMODE
 70
     0
  9
$MIRRTEXT
 70
     1
  9
$LTSCALE
 40
1.0
  9
$ATTMODE
 70
     1
  9
$TEXTSIZE
 40
3.5
  9
$TRACEWID
 40
1.0
  9
$TEXTSTYLE
  7
Standard
  9
$CLAYER
  8
0
  9
$CELTYPE
  6
ByLayer
  9
$CECOLOR
 62
   256
  9
$CELTSCALE
 40
1.0
  9
$DISPSILH
 70
     0
  9
$DIMSCALE
 40
1.0
  9
$DIMASZ
 40
3.302
  9
$DIMEXO
 40
1.0
  9
$DIMDLI
 40
3.75
  9
$DIMRND
 40
0.0
  9
$DIMDLE
 40
0.0
  9
$DIMEXE
 40
1.0
  9
$DIMTP
 40
0.0
  9
$DIMTM
 40
0.0
  9
$DIMTXT
 40
3.5
  9
$DIMCEN
 40
2.5
  9
$DIMTSZ
 40
0.0
  9
$DIMTOL
 70
     0
  9
$DIMLIM
 70
     0
  9
$DIMTIH
 70
     1
  9
$DIMTOH
 70
     1
  9
$DIMSE1
 70
     0
  9
$DIMSE2
 70
     0
  9
$DIMTAD
 70
     1
  9
$DIMZIN
 70
     0
  9
$DIMBLK
  1

  9
$DIMASO
 70
     1
  9
$DIMSHO
 70
     1
  9
$DIMPOST
  1

  9
$DIMAPOST
  1

  9
$DIMALT
 70
     0
  9
$DIMALTD
 70
     3
  9
$DIMALTF
 40
0.0393700787401575
  9
$DIMLFAC
 40
1.0
  9
$DIMTOFL
 70
     1
  9
$DIMTVP
 40
0.0
  9
$DIMTIX
 70
     0
  9
$DIMSOXD
 70
     0
  9
$DIMSAH
 70
     0
  9
$DIMBLK1
  1

  9
$DIMBLK2
  1

  9
$DIMSTYLE
  2
ISO-25
  9
$DIMCLRD
 70
     0
  9
$DIMCLRE
 70
     0
  9
$DIMCLRT
 70
     0
  9
$DIMTFAC
 40
1.0
  9
$DIMGAP
 40
1.524
  9
$DIMJUST
 70
     0
  9
$DIMSD1
 70
     0
  9
$DIMSD2
 70
     0
  9
$DIMTOLJ
 70
     0
  9
$DIMTZIN
 70
     0
  9
$DIMALTZ
 70
     0
  9
$DIMALTTZ
 70
     0
  9
$DIMUPT
 70
     0
  9
$DIMDEC
 70
     2
  9
$DIMTDEC
 70
     2
  9
$DIMALTU
 70
     2
  9
$DIMALTTD
 70
     3
  9
$DIMTXSTY
  7
Standard
  9
$DIMAUNIT
 70
     0
  9
$DIMADEC
 70
     2
  9
$DIMALTRND
 40
0.0
  9
$DIMAZIN
 70
     0
  9
$DIMDSEP
 70
    44
  9
$DIMATFIT
 70
     3
  9
$DIMFRAC
 70
     0
  9
$DIMLDRBLK
  1

  9
$DIMLUNIT
 70
     2
  9
$DIMLWD
 70
    -2
  9
$DIMLWE
 70
    -2
  9
$DIMTMOVE
 70
     0
  9
$LUNITS
 70
     2
  9
$LUPREC
 70
     2
  9
$SKETCHINC
 40
1.0
  9
$FILLETRAD
 40
10.0
  9
$AUNITS
 70
     0
  9
$AUPREC
 70
     2
  9
$MENU
  1
.
  9
$ELEVATION
 40
0.0
  9
$PELEVATION
 40
0.0
  9
$THICKNESS
 40
0.0
  9
$LIMCHECK
 70
     0
  9
$CHAMFERA
 40
0.0
  9
$CHAMFERB
 40
0.0
  9
$CHAMFERC
 40
0.0
  9
$CHAMFERD
 40
0.0
  9
$SKPOLY
 70
     0
  9
$TDCREATE
 40
2458236.72646213
  9
$TDUCREATE
 40
2458236.35146213
  9
$TDUPDATE
 40
2458241.570138634
  9
$TDUUPDATE
 40
2458241.195138634
  9
$TDINDWG
 40
0.0027130208
  9
$TDUSRTIMER
 40
2458241.194869074
  9
$USRTIMER
 70
     1
  9
$ANGBASE
 50
0.0
  9
$ANGDIR
 70
     0
  9
$PDMODE
 70
     0
  9
$PDSIZE
 40
-1.0
  9
$PLINEWID
 40
0.0
  9
$SPLFRAME
 70
     0
  9
$SPLINETYPE
 70
     6
  9
$SPLINESEGS
 70
     8
  9
$HANDSEED
  5
1AE
  9
$SURFTAB1
 70
     6
  9
$SURFTAB2
 70
     6
  9
$SURFTYPE
 70
     6
  9
$SURFU
 70
     6
  9
$SURFV
 70
     6
  9
$UCSBASE
  2

  9
$UCSNAME
  2

  9
$UCSORG
 10
0.0
 20
0.0
 30
0.0
  9
$UCSXDIR
 10
1.0
 20
0.0
 30
0.0
  9
$UCSYDIR
 10
0.0
 20
1.0
 30
0.0
  9
$UCSORTHOREF
  2

  9
$UCSORTHOVIEW
 70
     0
  9
$UCSORGTOP
 10
0.0
 20
0.0
 30
0.0
  9
$UCSORGBOTTOM
 10
0.0
 20
0.0
 30
0.0
  9
$UCSORGLEFT
 10
0.0
 20
0.0
 30
0.0
  9
$UCSORGRIGHT
 10
0.0
 20
0.0
 30
0.0
  9
$UCSORGFRONT
 10
0.0
 20
0.0
 30
0.0
  9
$UCSORGBACK
 10
0.0
 20
0.0
 30
0.0
  9
$PUCSBASE
  2

  9
$PUCSNAME
  2

  9
$PUCSORG
 10
0.0
 20
0.0
 30
0.0
  9
$PUCSXDIR
 10
1.0
 20
0.0
 30
0.0
  9
$PUCSYDIR
 10
0.0
 20
1.0
 30
0.0
  9
$PUCSORTHOREF
  2

  9
$PUCSORTHOVIEW
 70
     0
  9
$PUCSORGTOP
 10
0.0
 20
0.0
 30
0.0
  9
$PUCSORGBOTTOM
 10
0.0
 20
0.0
 30
0.0
  9
$PUCSORGLEFT
 10
0.0
 20
0.0
 30
0.0
  9
$PUCSORGRIGHT
 10
0.0
 20
0.0
 30
0.0
  9
$PUCSORGFRONT
 10
0.0
 20
0.0
 30
0.0
  9
$PUCSORGBACK
 10
0.0
 20
0.0
 30
0.0
  9
$USERI1
 70
     0
  9
$USERI2
 70
     0
  9
$USERI3
 70
     0
  9
$USERI4
 70
     0
  9
$USERI5
 70
     0
  9
$USERR1
 40
0.0
  9
$USERR2
 40
0.0
  9
$USERR3
 40
0.0
  9
$USERR4
 40
0.0
  9
$USERR5
 40
0.0
  9
$WORLDVIEW
 70
     1
  9
$SHADEDGE
 70
     3
  9
$SHADEDIF
 70
    70
  9
$TILEMODE
 70
     1
  9
$MAXACTVP
 70
    64
  9
$PINSBASE
 10
0.0
 20
0.0
 30
0.0
  9
$PLIMCHECK
 70
     0
  9
$PEXTMIN
 10
1.000000000000000E+20
 20
1.000000000000000E+20
 30
1.000000000000000E+20
  9
$PEXTMAX
 10
-1.000000000000000E+20
 20
-1.000000000000000E+20
 30
-1.000000000000000E+20
  9
$PLIMMIN
 10
0.0
 20
0.0
  9
$PLIMMAX
 10
0.0
 20
0.0
  9
$UNITMODE
 70
     0
  9
$VISRETAIN
 70
     1
  9
$PLINEGEN
 70
     0
  9
$PSLTSCALE
 70
     1
  9
$TREEDEPTH
 70
  3020
  9
$CMLSTYLE
  2
Standard
  9
$CMLJUST
 70
     0
  9
$CMLSCALE
 40
20.0
  9
$PROXYGRAPHICS
 70
     1
  9
$MEASUREMENT
 70
     1
  9
$CELWEIGHT
370
    -1
  9
$ENDCAPS
280
     0
  9
$JOINSTYLE
280
     0
  9
$LWDISPLAY
290
     1
  9
$INSUNITS
 70
     4
  9
$HYPERLINKBASE
  1

  9
$STYLESHEET
  1

  9
$XEDIT
290
     1
  9
$CEPSNTYPE
380
     0
  9
$PSTYLEMODE
290
     1
  9
$FINGERPRINTGUID
  2
{EE70790C-A1FE-4F91-A141-5D88D2AD7116}
  9
$VERSIONGUID
  2
{FAEB1C32-E019-11D5-929B-00C0DF256EC4}
  9
$EXTNAMES
290
     1
  9
$PSVPSCALE
 40
0.0
  9
$OLESTARTUP
290
     0
  0
ENDSEC
  0
SECTION
  2
CLASSES
  0
CLASS
  1
ACDBDICTIONARYWDFLT
  2
AcDbDictionaryWithDefault
  3
ObjectDBX Classes
 90
        0
280
     0
281
     0
  0
CLASS
  1
VISUALSTYLE
  2
AcDbVisualStyle
  3
ObjectDBX Classes
 90
     4095
280
     0
281
     0
  0
CLASS
  1
MATERIAL
  2
AcDbMaterial
  3
ObjectDBX Classes
 90
     1153
280
     0
281
     0
  0
CLASS
  1
SCALE
  2
AcDbScale
  3
ObjectDBX Classes
 90
     1153
280
     0
281
     0
  0
CLASS
  1
SUN
  2
AcDbSun
  3
SCENEOE
 90
     1153
280
     0
281
     0
  0
CLASS
  1
ACDBPLACEHOLDER
  2
AcDbPlaceHolder
  3
ObjectDBX Classes
 90
        0
280
     0
281
     0
  0
CLASS
  1
LAYOUT
  2
AcDbLayout
  3
ObjectDBX Classes
 90
        0
280
     0
281
     0
  0
CLASS
  1
TABLESTYLE
  2
AcDbTableStyle
  3
ObjectDBX Classes
 90
     4095
280
     0
281
     0
  0
CLASS
  1
MLEADERSTYLE
  2
AcDbMLeaderStyle
  3
ACDB_MLEADERSTYLE_CLASS
 90
     4095
280
     0
281
     0
  0
CLASS
  1
RASTERVARIABLES
  2
AcDbRasterVariables
  3
ISM
 90
        0
280
     0
281
     0
  0
CLASS
  1
DIMASSOC
  2
AcDbDimAssoc
  3
"AcDbDimAssoc|Product Desc:     AcDim ARX App For Dimension|Company:          Autodesk, Inc.|WEB Address:      www.autodesk.com"
 90
        0
280
     0
281
     0
  0
ENDSEC
  0
SECTION
  2
TABLES
  0
TABLE
  2
VPORT
  5
8
330
0
100
AcDbSymbolTable
 70
     1
  0
VPORT
  5
29
330
8
100
AcDbSymbolTableRecord
100
AcDbViewportTableRecord
  2
*Active
 70
     0
 10
0.0
 20
0.0
 11
1.0
 21
1.0
 12
-34.43639705919781
 22
12.01111400376319
 13
0.0
 23
0.0
 14
10.0
 24
10.0
 15
10.0
 25
10.0
 16
0.0
 26
0.0
 36
1.0
 17
0.0
 27
0.0
 37
0.0
 40
250.96857009401
 41
1.321695760598504
 42
50.0
 43
0.0
 44
0.0
 50
0.0
 51
0.0
 71
    16
 72
  2000
 73
     1
 74
     3
 75
     0
 76
     0
 77
     0
 78
     0
281
     0
 65
     1
110
0.0
120
0.0
130
0.0
111
1.0
121
0.0
131
0.0
112
0.0
122
1.0
132
0.0
 79
     0
146
0.0
  0
ENDTAB
  0
TABLE
  2
LTYPE
  5
5
330
0
100
AcDbSymbolTable
 70
     6
  0
LTYPE
  5
14
330
5
100
AcDbSymbolTableRecord
100
AcDbLinetypeTableRecord
  2
ByBlock
 70
     0
  3

 72
    65
 73
     0
 40
0.0
  0
LTYPE
  5
15
330
5
100
AcDbSymbolTableRecord
100
AcDbLinetypeTableRecord
  2
ByLayer
 70
     0
  3

 72
    65
 73
     0
 40
0.0
  0
LTYPE
  5
16
330
5
100
AcDbSymbolTableRecord
100
AcDbLinetypeTableRecord
  2
Continuous
 70
     0
  3
Solid line
 72
    65
 73
     0
 40
0.0
  0
LTYPE
  5
6A
330
5
100
AcDbSymbolTableRecord
100
AcDbLinetypeTableRecord
  2
HIDDEN
 70
     0
  3
Hidden __ __ __ __ __ __ __ __ __ __ __ __ __ __
 72
    65
 73
     2
 40
1.905
 49
1.27
 74
     0
 49
-0.635
 74
     0
  0
LTYPE
  5
6B
330
5
100
AcDbSymbolTableRecord
100
AcDbLinetypeTableRecord
  2
PHANTOM
 70
     0
  3
Phantom ______  __  __  ______  __  __  ______
 72
    65
 73
     6
 40
12.7
 49
6.35
 74
     0
 49
-1.27
 74
     0
 49
1.27
 74
     0
 49
-1.27
 74
     0
 49
1.27
 74
     0
 49
-1.27
 74
     0
  0
LTYPE
  5
6C
330
5
100
AcDbSymbolTableRecord
100
AcDbLinetypeTableRecord
  2
CENTER
 70
     0
  3
Center ____ _ ____ _ ____ _ ____ _ ____ _ ____
 72
    65
 73
     4
 40
10.16
 49
6.35
 74
     0
 49
-1.27
 74
     0
 49
1.27
 74
     0
 49
-1.27
 74
     0
  0
LTYPE
  5
6D
330
5
100
AcDbSymbolTableRecord
100
AcDbLinetypeTableRecord
  2
CENTERX2
 70
     0
  3
Center (2x) ________  __  ________  __  _____
 72
    65
 73
     4
 40
20.32
 49
12.7
 74
     0
 49
-2.54
 74
     0
 49
2.54
 74
     0
 49
-2.54
 74
     0
  0
LTYPE
  5
6E
330
5
100
AcDbSymbolTableRecord
100
AcDbLinetypeTableRecord
  2
DOT2
 70
     0
  3
Dot (.5x) ........................................
 72
    65
 73
     2
 40
0.635
 49
0.0
 74
     0
 49
-0.635
 74
     0
  0
ENDTAB
  0
TABLE
  2
LAYER
  5
2
330
0
100
AcDbSymbolTable
 70
    17
  0
LAYER
  5
10
330
2
100
AcDbSymbolTableRecord
100
AcDbLayerTableRecord
  2
0
 70
     0
 62
     7
  6
Continuous
370
    -3
390
F
  0
LAYER
  5
6F
330
2
100
AcDbSymbolTableRecord
100
AcDbLayerTableRecord
  2
FORMAT
 70
     0
 62
     2
  6
Continuous
370
    -3
390
F
  0
LAYER
  5
70
330
2
100
AcDbSymbolTableRecord
100
AcDbLayerTableRecord
  2
외형선
 70
     0
 62
   100
  6
Continuous
370
    30
390
F
  0
LAYER
  5
71
330
2
100
AcDbSymbolTableRecord
100
AcDbLayerTableRecord
  2
숨은선
 70
     0
 62
     2
  6
HIDDEN
370
    15
390
F
  0
LAYER
  5
72
330
2
100
AcDbSymbolTableRecord
100
AcDbLayerTableRecord
  2
중심선
 70
     0
 62
     1
  6
CENTERX2
370
    -3
390
F
  0
LAYER
  5
73
330
2
100
AcDbSymbolTableRecord
100
AcDbLayerTableRecord
  2
파단선
 70
     0
 62
     4
  6
Continuous
370
    -3
390
F
  0
LAYER
  5
74
330
2
100
AcDbSymbolTableRecord
100
AcDbLayerTableRecord
  2
해칭선
 70
     0
 62
     4
  6
Continuous
370
    -3
390
F
  0
LAYER
  5
75
330
2
100
AcDbSymbolTableRecord
100
AcDbLayerTableRecord
  2
가는실선
 70
     0
 62
     4
  6
Continuous
370
    -3
390
F
  0
LAYER
  5
76
330
2
100
AcDbSymbolTableRecord
100
AcDbLayerTableRecord
  2
치수_보조선
 70
     0
 62
     4
  6
Continuous
370
    -3
390
F
  0
LAYER
  5
77
330
2
100
AcDbSymbolTableRecord
100
AcDbLayerTableRecord
  2
치수문자_일반주서
 70
     0
 62
     7
  6
Continuous
370
    15
390
F
  0
LAYER
  5
78
330
2
100
AcDbSymbolTableRecord
100
AcDbLayerTableRecord
  2
개별주서
 70
     0
 62
   100
  6
Continuous
370
    30
390
F
  0
LAYER
  5
79
330
2
100
AcDbSymbolTableRecord
100
AcDbLayerTableRecord
  2
중간선
 70
     0
 62
     2
  6
Continuous
370
    15
390
F
  0
LAYER
  5
7A
330
2
100
AcDbSymbolTableRecord
100
AcDbLayerTableRecord
  2
윤곽선
 70
     0
 62
     3
  6
Continuous
370
    40
390
F
  0
LAYER
  5
7B
330
2
100
AcDbSymbolTableRecord
100
AcDbLayerTableRecord
  2
중심마크
 70
     0
 62
   100
  6
Continuous
370
    30
390
F
  0
LAYER
  5
7C
330
2
100
AcDbSymbolTableRecord
100
AcDbLayerTableRecord
  2
가상선
 70
     0
 62
     4
  6
PHANTOM
370
    -3
390
F
  0
LAYER
  5
7D
330
2
100
AcDbSymbolTableRecord
100
AcDbLayerTableRecord
  2
특수지정선
 70
     0
 62
     5
  6
CENTERX2
370
    60
390
F
  0
LAYER
  5
178
330
2
100
AcDbSymbolTableRecord
100
AcDbLayerTableRecord
  2
Defpoints
 70
     0
 62
     7
  6
Continuous
290
     0
370
    -3
390
F
  0
ENDTAB
  0
TABLE
  2
STYLE
  5
3
330
0
100
AcDbSymbolTable
 70
     2
  0
STYLE
  5
11
330
3
100
AcDbSymbolTableRecord
100
AcDbTextStyleTableRecord
  2
Standard
 70
     0
 40
0.0
 41
1.0
 50
0.0
 71
     0
 42
3.5
  3
txt
  4

  0
STYLE
  5
93
330
3
100
AcDbSymbolTableRecord
100
AcDbTextStyleTableRecord
  2
SLDTEXTSTYLE0
 70
     0
 40
0.0
 41
0.75
 50
0.0
 71
     0
 42
3.5
  3
TXT
  4

  0
ENDTAB
  0
TABLE
  2
VIEW
  5
6
330
0
100
AcDbSymbolTable
 70
     0
  0
ENDTAB
  0
TABLE
  2
UCS
  5
7
330
0
100
AcDbSymbolTable
 70
     0
  0
ENDTAB
  0
TABLE
  2
APPID
  5
9
330
0
100
AcDbSymbolTable
 70
     2
  0
APPID
  5
12
330
9
100
AcDbSymbolTableRecord
100
AcDbRegAppTableRecord
  2
ACAD
 70
     0
  0
APPID
  5
17C
330
9
100
AcDbSymbolTableRecord
100
AcDbRegAppTableRecord
  2
ACAD_DSTYLE_DIMRADIAL_EXTENSION
 70
     0
  0
ENDTAB
  0
TABLE
  2
DIMSTYLE
  5
A
330
0
100
AcDbSymbolTable
 70
     3
100
AcDbDimStyleTable
  0
DIMSTYLE
105
27
330
A
100
AcDbSymbolTableRecord
100
AcDbDimStyleTableRecord
  2
ISO-25
 70
     0
 41
2.5
 42
0.625
 43
3.75
 44
1.25
 73
     0
 74
     0
 77
     1
 78
     8
140
2.5
141
2.5
143
0.03937007874016
147
0.625
171
     3
172
     1
178
     0
271
     2
272
     2
274
     3
278
    44
283
     0
284
     8
340
11
  0
DIMSTYLE
105
FC
102
{ACAD_REACTORS
330
FB
102
}
330
A
100
AcDbSymbolTableRecord
100
AcDbDimStyleTableRecord
  2
SLDDIMSTYLE0
 70
     0
 41
3.302
 44
0.0
 45
0.000000001
 73
     0
 74
     0
 77
     1
 78
     4
 79
     1
140
3.5
143
0.0393700787401575
147
0.875
148
0.000000001
170
     1
173
     1
178
     0
271
     2
272
     2
276
     2
284
    12
340
93
  0
DIMSTYLE
105
110
102
{ACAD_REACTORS
330
10F
330
124
330
139
330
17D
102
}
330
A
100
AcDbSymbolTableRecord
100
AcDbDimStyleTableRecord
  2
SLDDIMSTYLE1
 70
     0
 41
3.302
 44
0.0
 45
0.000000001
 73
     0
 74
     0
 77
     1
 78
    12
 79
     3
140
3.5
143
0.0393700787401575
147
0.875
148
0.000000001
170
     1
172
     1
173
     1
178
     0
271
     2
272
     2
276
     2
284
    12
289
     0
340
93
  0
ENDTAB
  0
TABLE
  2
BLOCK_RECORD
  5
1
330
0
100
AcDbSymbolTable
 70
     8
  0
BLOCK_RECORD
  5
1F
330
1
100
AcDbSymbolTableRecord
100
AcDbBlockTableRecord
  2
*Model_Space
340
22
  0
BLOCK_RECORD
  5
1B
330
1
100
AcDbSymbolTableRecord
100
AcDbBlockTableRecord
  2
*Paper_Space
340
1E
  0
BLOCK_RECORD
  5
23
330
1
100
AcDbSymbolTableRecord
100
AcDbBlockTableRecord
  2
*Paper_Space0
340
26
  0
BLOCK_RECORD
  5
7E
330
1
100
AcDbSymbolTableRecord
100
AcDbBlockTableRecord
  2
블럭10
340
0
102
{BLKREFS
331
F3
102
}
  0
BLOCK_RECORD
  5
FD
330
1
100
AcDbSymbolTableRecord
100
AcDbBlockTableRecord
  2
_D
340
0
  0
BLOCK_RECORD
  5
111
330
1
100
AcDbSymbolTableRecord
100
AcDbBlockTableRecord
  2
_D_1
340
0
  0
BLOCK_RECORD
  5
125
330
1
100
AcDbSymbolTableRecord
100
AcDbBlockTableRecord
  2
_D_2
340
0
  0
BLOCK_RECORD
  5
13A
330
1
100
AcDbSymbolTableRecord
100
AcDbBlockTableRecord
  2
_D_3
340
0
  0
BLOCK_RECORD
  5
14D
330
1
100
AcDbSymbolTableRecord
100
AcDbBlockTableRecord
  2
SW_DOWELSYMBOL_0
340
0
102
{BLKREFS
331
153
102
}
  0
BLOCK_RECORD
  5
180
330
1
100
AcDbSymbolTableRecord
100
AcDbBlockTableRecord
  2
*D7
340
0
  0
ENDTAB
  0
ENDSEC
  0
SECTION
  2
BLOCKS
  0
BLOCK
  5
20
330
1F
100
AcDbEntity
  8
0
100
AcDbBlockBegin
  2
*Model_Space
 70
     0
 10
0.0
 20
0.0
 30
0.0
  3
*Model_Space
  1
*Model_Space
  0
ENDBLK
  5
21
330
1F
100
AcDbEntity
  8
0
100
AcDbBlockEnd
  0
BLOCK
  5
1C
330
1B
100
AcDbEntity
 67
     1
  8
0
100
AcDbBlockBegin
  2
*Paper_Space
 70
     0
 10
0.0
 20
0.0
 30
0.0
  3
*Paper_Space
  1
*Paper_Space
  0
ENDBLK
  5
1D
330
1B
100
AcDbEntity
 67
     1
  8
0
100
AcDbBlockEnd
  0
BLOCK
  5
24
330
23
100
AcDbEntity
  8
0
100
AcDbBlockBegin
  2
*Paper_Space0
 70
     0
 10
0.0
 20
0.0
 30
0.0
  3
*Paper_Space0
  1
*Paper_Space0
  0
ENDBLK
  5
25
330
23
100
AcDbEntity
  8
0
100
AcDbBlockEnd
  0
BLOCK
  5
7F
330
7E
100
AcDbEntity
  8
0
100
AcDbBlockBegin
  2
블럭10
 70
     2
 10
0.0
 20
0.0
 30
0.0
  3
블럭10
  1
블럭10
  0
ELLIPSE
  5
81
330
7E
100
AcDbEntity
  8
중심선
100
AcDbEllipse
 10
20.54032771741204
 20
12.0471743016438
 30
0.0
 11
6.600054785286829
 21
-1.261213355974178E-13
 31
0.0
210
0.0
220
0.0
230
1.0
 40
0.636358354079598
 41
0.9219305317359503
 42
6.513795318482858
  0
ELLIPSE
  5
82
330
7E
100
AcDbEntity
  8
중심선
100
AcDbEllipse
 10
20.54032771746488
 20
12.04717430159265
 30
0.0
 11
3.960054785062283
 21
1.540847449632565E-10
 31
0.0
210
0.0
220
0.0
230
1.0
 40
0.3939339440162632
 41
1.131841032648279
 42
5.62031148352944
  0
LINE
  5
83
330
7E
100
AcDbEntity
  8
중심선
100
AcDbLine
 10
2.268634060543552
 20
16.24717430164393
 30
0.0
 11
5.714909304380834
 21
16.24717430164393
 31
0.0
  0
LINE
  5
84
330
7E
100
AcDbEntity
  8
중심선
100
AcDbLine
 10
5.245725140726316
 20
7.84717430164391
 30
0.0
 11
8.692000384563599
 21
7.84717430164391
 31
0.0
  0
LINE
  5
85
330
7E
100
AcDbEntity
  8
중심선
100
AcDbLine
 10
15.74043728645272
 20
16.24717430164393
 30
0.0
 11
8.692000384563599
 21
7.84717430164391
 31
0.0
  0
LINE
  5
86
330
7E
100
AcDbEntity
  8
중심선
100
AcDbLine
 10
0.1404042013395286
 20
13.71084872107135
 30
0.0
 11
3.58671253028996
 21
13.71088815037384
 31
0.0
  0
LINE
  5
87
330
7E
100
AcDbEntity
  8
중심선
100
AcDbLine
 10
2.750260043222114
 20
10.84717430164391
 30
0.0
 11
6.196535287059397
 21
10.84717430164391
 31
0.0
  0
LINE
  5
88
330
7E
100
AcDbEntity
  8
중심선
100
AcDbLine
 10
12.29416204261559
 20
16.24717430164393
 30
0.0
 11
5.245725140726316
 21
7.84717430164391
 31
0.0
  0
LINE
  5
89
330
7E
100
AcDbEntity
  8
중심선
100
AcDbLine
 10
10.72767329541681
 20
16.24717430164393
 30
0.0
 11
6.196535287059397
 21
10.84717430164391
 31
0.0
  0
LINE
  5
8A
330
7E
100
AcDbEntity
  8
중심선
100
AcDbLine
 10
7.28139805157953
 20
16.24717430164393
 30
0.0
 11
2.750260043222114
 21
10.84717430164391
 31
0.0
  0
LINE
  5
8B
330
7E
100
AcDbEntity
  8
중심선
100
AcDbLine
 10
5.714909304380834
 20
16.24717430164393
 30
0.0
 11
3.58671253028996
 21
13.71088815037384
 31
0.0
  0
LINE
  5
8C
330
7E
100
AcDbEntity
  8
중심선
100
AcDbLine
 10
2.268634060543552
 20
16.24717430164393
 30
0.0
 11
0.1404042013395286
 21
13.71084872107135
 31
0.0
  0
LINE
  5
8D
330
7E
100
AcDbEntity
  8
중심선
100
AcDbLine
 10
7.28139805157953
 20
16.24717430164393
 30
0.0
 11
10.72767329541681
 21
16.24717430164393
 31
0.0
  0
LINE
  5
8E
330
7E
100
AcDbEntity
  8
중심선
100
AcDbLine
 10
12.29416204261559
 20
16.24717430164393
 30
0.0
 11
15.74043728645272
 21
16.24717430164393
 31
0.0
  0
LINE
  5
8F
330
7E
100
AcDbEntity
  8
중심선
100
AcDbLine
 10
19.22036997980202
 20
11.08717430171403
 30
0.0
 11
23.66174974927406
 21
11.08717430171406
 31
0.0
  0
LINE
  5
90
330
7E
100
AcDbEntity
  8
중심선
100
AcDbLine
 10
19.22039502424796
 20
13.00717430171391
 30
0.0
 11
19.22036997980202
 21
11.08717430171403
 31
0.0
  0
LINE
  5
91
330
7E
100
AcDbEntity
  8
중심선
100
AcDbLine
 10
19.22039502424796
 20
13.00717430171391
 30
0.0
 11
26.96566020931264
 21
13.00717430171391
 31
0.0
  0
LINE
  5
92
330
7E
100
AcDbEntity
  8
중심선
100
AcDbLine
 10
22.22332737316547
 20
13.45928029700563
 30
0.0
 11
24.52862924686651
 21
15.39360700705356
 31
0.0
  0
ATTDEF
  5
94
330
7E
100
AcDbEntity
  8
FORMAT
 62
     2
100
AcDbText
 10
-11.05102035218446
 20
2.075366912832191
 30
0.0
 40
4.233333333333333
  1
GMG22020[ 6 FLUTE ]
 41
0.75
  7
SLDTEXTSTYLE0
 11
-11.05102035218446
 21
-0.0412997538344756
 31
0.0
100
AcDbAttributeDefinition
  3

  2
AUTOATTR0
 70
     0
 74
     1
  0
ENDBLK
  5
80
330
7E
100
AcDbEntity
  8
0
100
AcDbBlockEnd
  0
BLOCK
  5
FE
330
FD
100
AcDbEntity
  8
0
100
AcDbBlockBegin
  2
_D
 70
     0
 10
0.0
 20
0.0
 30
0.0
  3
_D
  1
_D
  0
LINE
  5
100
330
FD
100
AcDbEntity
  8
치수문자_일반주서
 62
     0
370
    -2
100
AcDbLine
 10
-33.50000000000001
 20
3.53125
 30
0.0
 11
-33.5
 21
38.16012647970988
 31
0.0
  0
LINE
  5
101
330
FD
100
AcDbEntity
  8
치수문자_일반주서
 62
     0
370
    -2
100
AcDbLine
 10
30.0
 20
3.508069628160202
 30
0.0
 11
30.0
 21
38.16012647970988
 31
0.0
  0
LINE
  5
102
330
FD
100
AcDbEntity
  8
치수문자_일반주서
 62
     0
370
    -2
100
AcDbLine
 10
-30.198
 20
38.16012647970988
 30
0.0
 11
26.698
 21
38.16012647970988
 31
0.0
  0
SOLID
  5
103
330
FD
100
AcDbEntity
  8
치수문자_일반주서
 62
     0
100
AcDbTrace
 10
-30.198
 20
38.71045981304322
 30
0.0
 11
-30.198
 21
37.60979314637655
 31
0.0
 12
-33.5
 22
38.16012647970988
 32
0.0
 13
-33.5
 23
38.16012647970988
 33
0.0
  0
SOLID
  5
104
330
FD
100
AcDbEntity
  8
치수문자_일반주서
 62
     0
100
AcDbTrace
 10
26.698
 20
37.60979314637655
 30
0.0
 11
26.698
 21
38.71045981304322
 31
0.0
 12
30.0
 22
38.16012647970988
 32
0.0
 13
30.0
 23
38.16012647970988
 33
0.0
  0
MTEXT
  5
105
330
FD
100
AcDbEntity
  8
치수문자_일반주서
 62
     0
100
AcDbMText
 10
0.1299625959431724
 20
42.53512647970988
 30
0.0
 40
3.5
 41
0.0
 71
     2
 72
     1
  1
\A1;63.50 [2 1/2]
  7
SLDTEXTSTYLE0
 73
     1
 44
1.0
  0
POINT
  5
106
330
FD
100
AcDbEntity
  8
Defpoints
 62
     0
100
AcDbPoint
 10
-33.50000000000001
 20
3.46875
 30
0.0
  0
POINT
  5
107
330
FD
100
AcDbEntity
  8
Defpoints
 62
     0
100
AcDbPoint
 10
30.0
 20
3.445569628160202
 30
0.0
  0
POINT
  5
108
330
FD
100
AcDbEntity
  8
Defpoints
 62
     0
100
AcDbPoint
 10
30.0
 20
38.16012647970988
 30
0.0
  0
ENDBLK
  5
FF
330
FD
100
AcDbEntity
  8
0
100
AcDbBlockEnd
  0
BLOCK
  5
112
330
111
100
AcDbEntity
  8
0
100
AcDbBlockBegin
  2
_D_1
 70
     0
 10
0.0
 20
0.0
 30
0.0
  3
_D_1
  1
_D_1
  0
LINE
  5
114
330
111
100
AcDbEntity
  8
치수문자_일반주서
 62
     0
370
    -2
100
AcDbLine
 10
29.6815
 20
3.968750000000006
 30
0.0
 11
44.71795635494104
 21
3.968750000000062
 31
0.0
  0
LINE
  5
115
330
111
100
AcDbEntity
  8
치수문자_일반주서
 62
     0
370
    -2
100
AcDbLine
 10
29.6815
 20
-3.968749999999995
 30
0.0
 11
44.71795635494107
 21
-3.968749999999938
 31
0.0
  0
LINE
  5
116
330
111
100
AcDbEntity
  8
치수문자_일반주서
 62
     0
370
    -2
100
AcDbLine
 10
44.71795635494106
 20
0.6667500000000621
 30
0.0
 11
44.71795635494106
 21
-0.6667499999999382
 31
0.0
  0
SOLID
  5
117
330
111
100
AcDbEntity
  8
치수문자_일반주서
 62
     0
100
AcDbTrace
 10
45.26828968827439
 20
0.6667500000000641
 30
0.0
 11
44.16762302160772
 21
0.6667500000000601
 31
0.0
 12
44.71795635494104
 22
3.968750000000062
 32
0.0
 13
44.71795635494104
 23
3.968750000000062
 33
0.0
  0
SOLID
  5
118
330
111
100
AcDbEntity
  8
치수문자_일반주서
 62
     0
100
AcDbTrace
 10
44.16762302160772
 20
-0.6667499999999402
 30
0.0
 11
45.26828968827439
 21
-0.6667499999999362
 31
0.0
 12
44.71795635494107
 22
-3.968749999999938
 32
0.0
 13
44.71795635494107
 23
-3.968749999999938
 33
0.0
  0
MTEXT
  5
119
330
111
100
AcDbEntity
  8
치수문자_일반주서
 62
     0
100
AcDbMText
 10
40.34295635494106
 20
-0.0000000000000114
 30
0.0
 40
3.5
 41
0.0
 71
     2
 72
     1
  1
\A1;%%c7.94 [5/16]
  7
SLDTEXTSTYLE0
 11
-3.580687802255623E-15
 21
1.0
 31
0.0
 73
     1
 44
1.0
  0
POINT
  5
11A
330
111
100
AcDbEntity
  8
Defpoints
 62
     0
100
AcDbPoint
 10
29.619
 20
3.968750000000005
 30
0.0
  0
POINT
  5
11B
330
111
100
AcDbEntity
  8
Defpoints
 62
     0
100
AcDbPoint
 10
29.619
 20
-3.968749999999995
 30
0.0
  0
POINT
  5
11C
330
111
100
AcDbEntity
  8
Defpoints
 62
     0
100
AcDbPoint
 10
44.71795635494107
 20
-3.968749999999939
 30
0.0
  0
ENDBLK
  5
113
330
111
100
AcDbEntity
  8
0
100
AcDbBlockEnd
  0
BLOCK
  5
126
330
125
100
AcDbEntity
  8
0
100
AcDbBlockBegin
  2
_D_2
 70
     0
 10
0.0
 20
0.0
 30
0.0
  3
_D_2
  1
_D_2
  0
LINE
  5
128
330
125
100
AcDbEntity
  8
치수문자_일반주서
 62
     0
370
    -2
100
AcDbLine
 10
30.0
 20
3.508069628160202
 30
0.0
 11
29.99999999999999
 21
23.30257487264527
 31
0.0
  0
LINE
  5
129
330
125
100
AcDbEntity
  8
치수문자_일반주서
 62
     0
370
    -2
100
AcDbLine
 10
10.9500000000017
 20
-3.843350780080652
 30
0.0
 11
10.95000000000169
 21
23.30257487264527
 31
0.0
  0
LINE
  5
12A
330
125
100
AcDbEntity
  8
치수문자_일반주서
 62
     0
370
    -2
100
AcDbLine
 10
26.69799999999999
 20
23.30257487264527
 30
0.0
 11
14.25200000000169
 21
23.30257487264527
 31
0.0
  0
SOLID
  5
12B
330
125
100
AcDbEntity
  8
치수문자_일반주서
 62
     0
100
AcDbTrace
 10
26.69799999999999
 20
22.75224153931194
 30
0.0
 11
26.69799999999999
 21
23.85290820597861
 31
0.0
 12
29.99999999999999
 22
23.30257487264527
 32
0.0
 13
29.99999999999999
 23
23.30257487264527
 33
0.0
  0
SOLID
  5
12C
330
125
100
AcDbEntity
  8
치수문자_일반주서
 62
     0
100
AcDbTrace
 10
14.25200000000169
 20
23.85290820597861
 30
0.0
 11
14.25200000000169
 21
22.75224153931194
 31
0.0
 12
10.95000000000169
 22
23.30257487264527
 32
0.0
 13
10.95000000000169
 23
23.30257487264527
 33
0.0
  0
MTEXT
  5
12D
330
125
100
AcDbEntity
  8
치수문자_일반주서
 62
     0
100
AcDbMText
 10
20.27381876834919
 20
27.67757487264527
 30
0.0
 40
3.5
 41
0.0
 71
     2
 72
     1
  1
\A1;19.05 [3/4]
  7
SLDTEXTSTYLE0
 73
     1
 44
1.0
  0
POINT
  5
12E
330
125
100
AcDbEntity
  8
Defpoints
 62
     0
100
AcDbPoint
 10
30.0
 20
3.445569628160202
 30
0.0
  0
POINT
  5
12F
330
125
100
AcDbEntity
  8
Defpoints
 62
     0
100
AcDbPoint
 10
10.9500000000017
 20
-3.905850780080652
 30
0.0
  0
POINT
  5
130
330
125
100
AcDbEntity
  8
Defpoints
 62
     0
100
AcDbPoint
 10
10.9500000000017
 20
23.30257487264527
 30
0.0
  0
ENDBLK
  5
127
330
125
100
AcDbEntity
  8
0
100
AcDbBlockEnd
  0
BLOCK
  5
13B
330
13A
100
AcDbEntity
  8
0
100
AcDbBlockBegin
  2
_D_3
 70
     0
 10
0.0
 20
0.0
 30
0.0
  3
_D_3
  1
_D_3
  0
LINE
  5
13D
330
13A
100
AcDbEntity
  8
치수문자_일반주서
 62
     0
370
    -2
100
AcDbLine
 10
-33.06250000000001
 20
3.968750000000002
 30
0.0
 11
-46.50000000000003
 21
3.968749999999952
 31
0.0
  0
LINE
  5
13E
330
13A
100
AcDbEntity
  8
치수문자_일반주서
 62
     0
370
    -2
100
AcDbLine
 10
-33.06250000000001
 20
-3.968749999999998
 30
0.0
 11
-46.5
 21
-3.968750000000048
 31
0.0
  0
LINE
  5
13F
330
13A
100
AcDbEntity
  8
치수문자_일반주서
 62
     0
370
    -2
100
AcDbLine
 10
-46.50000000000001
 20
0.6667499999999515
 30
0.0
 11
-46.50000000000001
 21
-0.6667500000000484
 31
0.0
  0
SOLID
  5
140
330
13A
100
AcDbEntity
  8
치수문자_일반주서
 62
     0
100
AcDbTrace
 10
-45.94966666666668
 20
0.6667499999999535
 30
0.0
 11
-47.05033333333335
 21
0.6667499999999495
 31
0.0
 12
-46.50000000000003
 22
3.968749999999952
 32
0.0
 13
-46.50000000000003
 23
3.968749999999952
 33
0.0
  0
SOLID
  5
141
330
13A
100
AcDbEntity
  8
치수문자_일반주서
 62
     0
100
AcDbTrace
 10
-47.05033333333335
 20
-0.6667500000000504
 30
0.0
 11
-45.94966666666668
 21
-0.6667500000000464
 31
0.0
 12
-46.5
 22
-3.968750000000048
 32
0.0
 13
-46.5
 23
-3.968750000000048
 33
0.0
  0
MTEXT
  5
142
330
13A
100
AcDbEntity
  8
치수문자_일반주서
 62
     0
100
AcDbMText
 10
-50.87500000000001
 20
-0.000000000000046
 30
0.0
 40
3.5
 41
0.0
 71
     2
 72
     1
  1
\A1;%%c7.94 [5/16]
  7
SLDTEXTSTYLE0
 11
-3.580687802255623E-15
 21
1.0
 31
0.0
 73
     1
 44
1.0
  0
POINT
  5
143
330
13A
100
AcDbEntity
  8
Defpoints
 62
     0
100
AcDbPoint
 10
-33.00000000000001
 20
3.968750000000002
 30
0.0
  0
POINT
  5
144
330
13A
100
AcDbEntity
  8
Defpoints
 62
     0
100
AcDbPoint
 10
-33.00000000000001
 20
-3.968749999999998
 30
0.0
  0
POINT
  5
145
330
13A
100
AcDbEntity
  8
Defpoints
 62
     0
100
AcDbPoint
 10
-46.50000000000001
 20
-3.968750000000048
 30
0.0
  0
ENDBLK
  5
13C
330
13A
100
AcDbEntity
  8
0
100
AcDbBlockEnd
  0
BLOCK
  5
14E
330
14D
100
AcDbEntity
  8
0
100
AcDbBlockBegin
  2
SW_DOWELSYMBOL_0
 70
     0
 10
0.0
 20
0.0
 30
0.0
  3
SW_DOWELSYMBOL_0
  1
SW_DOWELSYMBOL_0
  0
CIRCLE
  5
150
330
14D
100
AcDbEntity
  8
외형선
 62
     0
100
AcDbCircle
 10
0.0
 20
0.0
 30
0.0
 40
3.000000000000001
  0
HATCH
  5
151
330
14D
100
AcDbEntity
  8
0
  6
Continuous
 62
     0
370
    30
100
AcDbHatch
 10
0.0
 20
0.0
 30
0.0
210
0.0
220
0.0
230
1.0
  2
SOLID
 70
     1
 71
     0
 91
        1
 92
        0
 93
        3
 72
     2
 10
0.0000000000000139
 20
-0.0000000000000035
 40
3.000000000000001
 50
0.0
 51
90.0
 73
     1
 72
     1
 10
0.0000000000000139
 20
2.999999999999998
 11
0.0000000000000139
 21
-0.0000000000000036
 72
     1
 10
0.0000000000000139
 20
-0.0000000000000035
 11
3.000000000000015
 21
-0.0000000000000035
 97
        0
 75
     0
 76
     1
 98
        1
 10
0.0
 20
0.0
  0
HATCH
  5
152
330
14D
100
AcDbEntity
  8
0
  6
Continuous
 62
     0
370
    30
100
AcDbHatch
 10
0.0
 20
0.0
 30
0.0
210
0.0
220
0.0
230
1.0
  2
SOLID
 70
     1
 71
     0
 91
        1
 92
        0
 93
        3
 72
     2
 10
0.0000000000000139
 20
-0.0000000000000035
 40
3.000000000000001
 50
180.0
 51
270.0000000000007
 73
     1
 72
     1
 10
0.0000000000000139
 20
-3.000000000000005
 11
0.0000000000000139
 21
-0.0000000000000036
 72
     1
 10
0.0000000000000139
 20
-0.0000000000000035
 11
-2.999999999999988
 21
-0.0000000000000035
 97
        0
 75
     0
 76
     1
 98
        1
 10
0.0
 20
0.0
  0
ENDBLK
  5
14F
330
14D
100
AcDbEntity
  8
0
100
AcDbBlockEnd
  0
BLOCK
  5
181
330
180
100
AcDbEntity
  8
0
100
AcDbBlockBegin
  2
*D7
 70
     1
 10
0.0
 20
0.0
 30
0.0
  3
*D7
  1
*D7
  0
LINE
  5
183
330
180
100
AcDbEntity
  8
치수문자_일반주서
 62
     0
370
    -2
100
AcDbLine
 10
32.00662294137231
 20
6.391987095866301
 30
0.0
 11
54.7381800092516
 21
33.08995287261943
 31
0.0
  0
MTEXT
  5
184
330
180
100
AcDbEntity
  8
치수문자_일반주서
 62
     0
100
AcDbMText
 10
43.6635550959034
 20
24.13208995623991
 30
0.0
 40
3.5
 41
0.0
 71
     5
 72
     1
  1
\A1;R.38 [R0.015]
  7
SLDTEXTSTYLE0
 11
0.6482820910595479
 21
0.7614002432436309
 31
0.0
 73
     1
 44
1.0
  0
LINE
  5
185
330
180
100
AcDbEntity
  8
치수문자_일반주서
 62
     0
370
    -2
100
AcDbLine
 10
29.619
 20
3.587750000000005
 30
0.0
 11
29.86599547669369
 21
3.877843492675832
 31
0.0
  0
SOLID
  5
186
330
180
100
AcDbEntity
  8
치수문자_일반주서
 62
     0
100
AcDbTrace
 10
31.58759900750724
 20
6.748758339979407
 30
0.0
 11
32.42564687523739
 21
6.035215851753197
 31
0.0
 12
29.86599547669369
 22
3.877843492675832
 32
0.0
 13
29.86599547669369
 23
3.877843492675832
 33
0.0
  0
POINT
  5
187
330
180
100
AcDbEntity
  8
Defpoints
 62
     0
100
AcDbPoint
 10
29.86599547669369
 20
3.877843492675832
 30
0.0
  0
POINT
  5
188
330
180
100
AcDbEntity
  8
Defpoints
 62
     0
100
AcDbPoint
 10
29.619
 20
3.587750000000005
 30
0.0
  0
ENDBLK
  5
182
330
180
100
AcDbEntity
  8
0
100
AcDbBlockEnd
  0
ENDSEC
  0
SECTION
  2
ENTITIES
  0
LINE
  5
95
330
1F
100
AcDbEntity
  8
0
  6
Continuous
 62
     4
370
    15
100
AcDbLine
 10
9.430854308871846
 20
3.968750000000005
 30
0.0
 11
-33.00000000000001
 21
3.968750000000002
 31
0.0
  0
LINE
  5
96
330
1F
100
AcDbEntity
  8
0
  6
Continuous
 62
     4
370
    15
100
AcDbLine
 10
-33.00000000000001
 20
-3.968749999999998
 30
0.0
 11
9.430854308871858
 21
-3.968749999999995
 31
0.0
  0
LINE
  5
97
330
1F
100
AcDbEntity
  8
0
  6
Continuous
 62
     4
370
    15
100
AcDbLine
 10
-33.00000000000001
 20
3.96875
 30
0.0
 11
-33.50000000000001
 21
3.46875
 31
0.0
  0
LINE
  5
98
330
1F
100
AcDbEntity
  8
0
  6
Continuous
 62
     4
370
    15
100
AcDbLine
 10
-33.50000000000001
 20
-3.468749999999996
 30
0.0
 11
-33.00000000000001
 21
-3.968749999999995
 31
0.0
  0
LINE
  5
99
330
1F
100
AcDbEntity
  8
0
  6
Continuous
 62
     1
370
    15
100
AcDbLine
 10
9.43034652980062
 20
-3.968859415817973
 30
0.0
 11
9.430346485483115
 21
-3.96859761428155
 31
0.0
  0
LINE
  5
9A
330
1F
100
AcDbEntity
  8
0
  6
Continuous
 62
     4
370
    15
100
AcDbLine
 10
9.430346485483115
 20
3.968597614293672
 30
0.0
 11
9.43034652980062
 21
3.968859415817896
 31
0.0
  0
LINE
  5
9B
330
1F
100
AcDbEntity
  8
0
  6
Continuous
 62
     1
370
    15
100
AcDbLine
 10
24.12717573628111
 20
-3.968749999999995
 30
0.0
 11
25.4830447363266
 21
-3.968749999999995
 31
0.0
  0
LINE
  5
9C
330
1F
100
AcDbEntity
  8
0
  6
Continuous
 62
     1
370
    15
100
AcDbLine
 10
13.01484439954266
 20
3.968750000000005
 30
0.0
 11
11.65898518586663
 21
3.968750000000005
 31
0.0
  0
LINE
  5
9D
330
1F
100
AcDbEntity
  8
0
  6
Continuous
 62
     1
370
    15
100
AcDbLine
 10
19.9706371821816
 20
-3.968749999999995
 30
0.0
 11
21.32664262405232
 21
-3.968749999999995
 31
0.0
  0
LINE
  5
9E
330
1F
100
AcDbEntity
  8
0
  6
Continuous
 62
     1
370
    15
100
AcDbLine
 10
21.32664262405235
 20
3.968750000000005
 30
0.0
 11
19.97063718218163
 21
3.968750000000005
 31
0.0
  0
LINE
  5
9F
330
1F
100
AcDbEntity
  8
0
  6
Continuous
 62
     1
370
    15
100
AcDbLine
 10
28.28198095848206
 20
-3.968749999999995
 30
0.0
 11
29.619
 21
-3.968749999999995
 31
0.0
  0
LINE
  5
A0
330
1F
100
AcDbEntity
  8
0
  6
Continuous
 62
     1
370
    15
100
AcDbLine
 10
17.17109822152732
 20
3.968750000000005
 30
0.0
 11
15.81484537128953
 21
3.968750000000005
 31
0.0
  0
LINE
  5
A1
330
1F
100
AcDbEntity
  8
0
  6
Continuous
 62
     1
370
    15
100
AcDbLine
 10
15.81484537128954
 20
-3.968749999999995
 30
0.0
 11
17.17109822152728
 21
-3.968749999999995
 31
0.0
  0
LINE
  5
A2
330
1F
100
AcDbEntity
  8
0
  6
Continuous
 62
     1
370
    15
100
AcDbLine
 10
29.619
 20
3.968750000000005
 30
0.0
 11
28.28198095848206
 21
3.968750000000005
 31
0.0
  0
LINE
  5
A3
330
1F
100
AcDbEntity
  8
0
  6
Continuous
 62
     1
370
    15
100
AcDbLine
 10
11.65898518586666
 20
-3.968749999999995
 30
0.0
 11
13.01484439954265
 21
-3.968749999999995
 31
0.0
  0
LINE
  5
A4
330
1F
100
AcDbEntity
  8
0
  6
Continuous
 62
     1
370
    15
100
AcDbLine
 10
25.4830447363266
 20
3.968750000000005
 30
0.0
 11
24.12717573628112
 21
3.968750000000005
 31
0.0
  0
SPLINE
  5
A5
330
1F
100
AcDbEntity
  8
0
  6
Continuous
 62
     1
370
    15
100
AcDbSpline
210
0.0
220
0.0
230
1.0
 70
    24
 71
     3
 72
    14
 73
    10
 74
     0
 42
0.000000001
 43
0.00000001
 40
0.0
 40
0.0
 40
0.0
 40
0.0
 40
0.2500000000000002
 40
0.2500000000000002
 40
0.5000000000000001
 40
0.5000000000000001
 40
0.75
 40
0.75
 40
1.0
 40
1.0
 40
1.0
 40
1.0
 10
10.95
 20
2.562416722800313
 30
0.0
 10
10.95
 20
2.412786659926527
 30
0.0
 10
10.95
 20
2.236312714114275
 30
0.0
 10
10.95
 20
1.825554829432726
 30
0.0
 10
10.95
 20
1.590277675848232
 30
0.0
 10
10.95
 20
1.088792485994289
 30
0.0
 10
10.95
 20
0.8226329488782367
 30
0.0
 10
10.95
 20
0.3406433782928659
 30
0.0
 10
10.95
 20
0.1279470975549613
 30
0.0
 10
10.95
 20
-0.0135865917671586
 30
0.0
  0
SPLINE
  5
A6
330
1F
100
AcDbEntity
  8
0
  6
Continuous
 62
     4
370
    15
100
AcDbSpline
210
0.0
220
0.0
230
1.0
 70
     8
 71
     3
 72
    10
 73
     6
 74
     0
 42
0.000000001
 43
0.00000001
 40
0.0
 40
0.0
 40
0.0
 40
0.0
 40
0.5
 40
0.5
 40
1.0
 40
1.0
 40
1.0
 40
1.0
 10
10.9500000000017
 20
-0.0135865917688526
 30
0.0
 10
10.74052011623157
 20
0.1959812158862171
 30
0.0
 10
10.53344784335138
 20
0.4048068988213822
 30
0.0
 10
10.1125797229339
 20
0.8195559697522199
 30
0.0
 10
9.901152794259765
 20
1.024664142802344
 30
0.0
 10
9.692685678330045
 20
1.223701363335522
 30
0.0
  0
SPLINE
  5
A8
330
1F
100
AcDbEntity
  8
0
  6
Continuous
 62
     1
370
    15
100
AcDbSpline
210
0.0
220
0.0
230
1.0
 70
     8
 71
     3
 72
     8
 73
     4
 74
     0
 42
0.000000001
 43
0.00000001
 40
0.0
 40
0.0
 40
0.0
 40
0.0
 40
1.0
 40
1.0
 40
1.0
 40
1.0
 10
10.9500000000017
 20
2.562416722799039
 30
0.0
 10
10.88514374209281
 20
2.611964302733034
 30
0.0
 10
10.82049670798079
 20
2.660430674177395
 30
0.0
 10
10.75617333039096
 20
2.707737619721915
 30
0.0
  0
SPLINE
  5
A9
330
1F
100
AcDbEntity
  8
0
  6
Continuous
 62
     4
370
    15
100
AcDbSpline
210
0.0
220
0.0
230
1.0
 70
     8
 71
     3
 72
     8
 73
     4
 74
     0
 42
0.000000001
 43
0.00000001
 40
0.0
 40
0.0
 40
0.0
 40
0.0
 40
1.0
 40
1.0
 40
1.0
 40
1.0
 10
10.9500000000017
 20
-1.343434057281582
 30
0.0
 10
10.88514374209281
 20
-1.282380597417431
 30
0.0
 10
10.82049670798079
 20
-1.220853860013726
 30
0.0
 10
10.75617333039096
 20
-1.15896826383828
 30
0.0
  0
SPLINE
  5
AA
330
1F
100
AcDbEntity
  8
0
  6
Continuous
 62
     4
370
    15
100
AcDbSpline
210
0.0
220
0.0
230
1.0
 70
     8
 71
     3
 72
    16
 73
    12
 74
     0
 42
0.000000001
 43
0.00000001
 40
0.0
 40
0.0
 40
0.0
 40
0.0
 40
0.1249999999999999
 40
0.1249999999999999
 40
0.2499999999999998
 40
0.2499999999999998
 40
0.4999999999999998
 40
0.4999999999999998
 40
0.7499999999999998
 40
0.7499999999999998
 40
1.0
 40
1.0
 40
1.0
 40
1.0
 10
9.430346485475487
 20
-1.954166239632921
 30
0.0
 10
9.430346485475487
 20
-1.877524000522291
 30
0.0
 10
9.430511857602475
 20
-1.799599404021229
 30
0.0
 10
9.445842828128464
 20
-1.642451085146873
 30
0.0
 10
9.46098461217671
 20
-1.562253117918907
 30
0.0
 10
9.540946952843708
 20
-1.327912563965498
 30
0.0
 10
9.641839165482482
 20
-1.18214738603171
 30
0.0
 10
9.930501405626979
 20
-0.9812909135459817
 30
0.0
 10
10.10877735626809
 20
-0.9325513575999318
 30
0.0
 10
10.46284205817075
 20
-0.9611296042751367
 30
0.0
 10
10.63046347859651
 20
-1.038022669641252
 30
0.0
 10
10.75617333038999
 20
-1.158968263838102
 30
0.0
  0
SPLINE
  5
AB
330
1F
100
AcDbEntity
  8
0
  6
Continuous
 62
     4
370
    15
100
AcDbSpline
210
0.0
220
0.0
230
1.0
 70
     8
 71
     3
 72
    10
 73
     6
 74
     0
 42
0.000000001
 43
0.00000001
 40
0.0
 40
0.0
 40
0.0
 40
0.0
 40
0.5
 40
0.5
 40
1.0
 40
1.0
 40
1.0
 40
1.0
 10
9.692685678330044
 20
-2.657728595839178
 30
0.0
 10
9.581734043561573
 20
-2.57502669414124
 30
0.0
 10
9.509109172452362
 20
-2.465811425567267
 30
0.0
 10
9.432979212017864
 20
-2.222635503631212
 30
0.0
 10
9.430346485475486
 20
-2.089983517617394
 30
0.0
 10
9.430346485475487
 20
-1.954166239632919
 30
0.0
  0
SPLINE
  5
AC
330
1F
100
AcDbEntity
  8
0
  6
Continuous
 62
     4
370
    15
100
AcDbSpline
210
0.0
220
0.0
230
1.0
 70
     8
 71
     3
 72
    10
 73
     6
 74
     0
 42
0.000000001
 43
0.00000001
 40
0.0
 40
0.0
 40
0.0
 40
0.0
 40
0.5
 40
0.5
 40
1.0
 40
1.0
 40
1.0
 40
1.0
 10
10.9500000000017
 20
-3.443811476701615
 30
0.0
 10
10.74052011623157
 20
-3.339648891725342
 30
0.0
 10
10.53344784335138
 20
-3.221537293499906
 30
0.0
 10
10.1125797229339
 20
-2.958087465122717
 30
0.0
 10
9.901152794259765
 20
-2.813117265549635
 30
0.0
 10
9.692685678330045
 20
-2.657728595839187
 30
0.0
  0
LINE
  5
AD
330
1F
100
AcDbEntity
  8
0
  6
Continuous
 62
     4
370
    15
100
AcDbLine
 10
10.95
 20
-3.44381147670078
 30
0.0
 11
10.95
 21
-3.905850780080351
 31
0.0
  0
SPLINE
  5
AE
330
1F
100
AcDbEntity
  8
0
  6
Continuous
 62
     4
370
    15
100
AcDbSpline
210
0.0
220
0.0
230
1.0
 70
     8
 71
     3
 72
     8
 73
     4
 74
     0
 42
0.000000001
 43
0.00000001
 40
0.0
 40
0.0
 40
0.0
 40
0.0
 40
1.0
 40
1.0
 40
1.0
 40
1.0
 10
10.9500000000017
 20
-3.905850780080652
 30
0.0
 10
10.88514374209281
 20
-3.894344900150496
 30
0.0
 10
10.82049670798079
 20
-3.881284534191152
 30
0.0
 10
10.75617333039096
 20
-3.866705883560224
 30
0.0
  0
SPLINE
  5
AF
330
1F
100
AcDbEntity
  8
0
  6
Continuous
 62
     4
370
    15
100
AcDbSpline
210
0.0
220
0.0
230
1.0
 70
     8
 71
     3
 72
    16
 73
    12
 74
     0
 42
0.000000001
 43
0.00000001
 40
0.0
 40
0.0
 40
0.0
 40
0.0
 40
0.1250000000000001
 40
0.1250000000000001
 40
0.2500000000000001
 40
0.2500000000000001
 40
0.5
 40
0.5
 40
0.75
 40
0.75
 40
1.0
 40
1.0
 40
1.0
 40
1.0
 10
9.430346485475487
 20
-3.968597477593169
 30
0.0
 10
9.430346485475487
 20
-3.967825486578016
 30
0.0
 10
9.430511857602271
 20
-3.964113121851994
 30
0.0
 10
9.445842828128669
 20
-3.951034014494691
 30
0.0
 10
9.46098461217671
 20
-3.941518404721647
 30
0.0
 10
9.540946952843708
 20
-3.906177710202055
 30
0.0
 10
9.641839165482484
 20
-3.873344173223331
 30
0.0
 10
9.930501405626982
 20
-3.822192386385673
 30
0.0
 10
10.10877735626809
 20
-3.807107277713783
 30
0.0
 10
10.46284205817075
 20
-3.815316248806661
 30
0.0
 10
10.6304634785965
 20
-3.838214220356594
 30
0.0
 10
10.75617333038998
 20
-3.866705883556298
 30
0.0
  0
LINE
  5
B0
330
1F
100
AcDbEntity
  8
0
  6
Continuous
 62
     4
370
    15
100
AcDbLine
 10
9.430854308871847
 20
-3.968092377859755
 30
0.0
 11
9.430346485475487
 21
-3.968597477593169
 31
0.0
  0
LINE
  5
B1
330
1F
100
AcDbEntity
  8
0
  6
Continuous
 62
     4
370
    15
100
AcDbLine
 10
9.82963512061185
 20
-3.842444421524925
 30
0.0
 11
9.692685678330045
 21
-3.881429959174745
 31
0.0
  0
SPLINE
  5
B2
330
1F
100
AcDbEntity
  8
0
  6
Continuous
 62
     4
370
    15
100
AcDbSpline
210
0.0
220
0.0
230
1.0
 70
     8
 71
     3
 72
     8
 73
     4
 74
     0
 42
0.000000001
 43
0.00000001
 40
0.0
 40
0.0
 40
0.0
 40
0.0
 40
1.0
 40
1.0
 40
1.0
 40
1.0
 10
10.9500000000017
 20
3.905850780080667
 30
0.0
 10
10.88514374209281
 20
3.894344900150511
 30
0.0
 10
10.82049670798079
 20
3.881284534191167
 30
0.0
 10
10.75617333039096
 20
3.86670588356024
 30
0.0
  0
SPLINE
  5
B3
330
1F
100
AcDbEntity
  8
0
  6
Continuous
 62
     4
370
    15
100
AcDbSpline
210
0.0
220
0.0
230
1.0
 70
     8
 71
     3
 72
    12
 73
     8
 74
     0
 42
0.000000001
 43
0.00000001
 40
0.0
 40
0.0
 40
0.0
 40
0.0
 40
0.207427279028313
 40
0.4571754651092082
 40
0.705600582166319
 40
0.9541012781436347
 40
1.0
 40
1.0
 40
1.0
 40
1.0
 10
9.82963512061177
 20
3.842444421524951
 30
0.0
 10
9.89047462106929
 20
3.833417265072289
 30
0.0
 10
10.02456656427452
 20
3.813521162355267
 30
0.0
 10
10.26832030824231
 20
3.807047961986234
 30
0.0
 10
10.51583580870315
 20
3.822900566994838
 30
0.0
 10
10.67413017824065
 20
3.848591656390817
 30
0.0
 10
10.74510751667689
 20
3.864262673390461
 30
0.0
 10
10.75617333038998
 20
3.866705883556315
 30
0.0
  0
SPLINE
  5
B4
330
1F
100
AcDbEntity
  8
0
  6
Continuous
 62
     4
370
    15
100
AcDbSpline
210
0.0
220
0.0
230
1.0
 70
     8
 71
     3
 72
    13
 73
     9
 74
     0
 42
0.000000001
 43
0.00000001
 40
0.0
 40
0.0
 40
0.0
 40
0.0
 40
0.1554128824154379
 40
0.3158193877328591
 40
0.4710689784669769
 40
0.6296419659823834
 40
0.8330596284100567
 40
1.0
 40
1.0
 40
1.0
 40
1.0
 10
9.692685678330044
 20
3.881429959174751
 30
0.0
 10
9.661514612416168
 20
3.888445964325334
 30
0.0
 10
9.598170912724749
 20
3.902703408216406
 30
0.0
 10
9.529025807262908
 20
3.923489766225166
 30
0.0
 10
9.478857388448953
 20
3.941626979785681
 30
0.0
 10
9.445394732069483
 20
3.956889303553249
 30
0.0
 10
9.43104135684941
 20
3.967192725041661
 30
0.0
 10
9.430912425290122
 20
3.967812852787313
 30
0.0
 10
9.430854308871846
 20
3.968092377859766
 30
0.0
  0
SPLINE
  5
B5
330
1F
100
AcDbEntity
  8
0
  6
Continuous
 62
     4
370
    15
100
AcDbSpline
210
0.0
220
0.0
230
1.0
 70
     8
 71
     3
 72
    10
 73
     6
 74
     0
 42
0.000000001
 43
0.00000001
 40
0.0
 40
0.0
 40
0.0
 40
0.0
 40
0.5
 40
0.5
 40
1.0
 40
1.0
 40
1.0
 40
1.0
 10
10.9500000000017
 20
3.430224884932795
 30
0.0
 10
10.74052011623157
 20
3.535630107611594
 30
0.0
 10
10.53344784335138
 20
3.626344192321324
 30
0.0
 10
10.1125797229339
 20
3.777643434874977
 30
0.0
 10
9.901152794259765
 20
3.83778140835202
 30
0.0
 10
9.692685678330045
 20
3.88142995917475
 30
0.0
  0
LINE
  5
B6
330
1F
100
AcDbEntity
  8
0
  6
Continuous
 62
     1
370
    15
100
AcDbLine
 10
10.95
 20
3.430224884933655
 30
0.0
 11
10.95
 21
2.562416722800337
 31
0.0
  0
SPLINE
  5
B7
330
1F
100
AcDbEntity
  8
0
  6
Continuous
 62
     4
370
    15
100
AcDbSpline
210
0.0
220
0.0
230
1.0
 70
     8
 71
     3
 72
    16
 73
    12
 74
     0
 42
0.000000001
 43
0.00000001
 40
0.0
 40
0.0
 40
0.0
 40
0.0
 40
0.1250000000000002
 40
0.1250000000000002
 40
0.2500000000000003
 40
0.2500000000000003
 40
0.5000000000000002
 40
0.5000000000000002
 40
0.7500000000000001
 40
0.7500000000000001
 40
1.0
 40
1.0
 40
1.0
 40
1.0
 10
9.430346485475487
 20
2.01443123796021
 30
0.0
 10
9.430346485475487
 20
2.090301486055689
 30
0.0
 10
9.430511857602475
 20
2.16451371783073
 30
0.0
 10
9.445842828128463
 20
2.308582929347781
 30
0.0
 10
9.46098461217671
 20
2.379265286802706
 30
0.0
 10
9.540946952843706
 20
2.578265146236524
 30
0.0
 10
9.64183916548248
 20
2.691196787191587
 30
0.0
 10
9.930501405626975
 20
2.840901472839662
 30
0.0
 10
10.10877735626809
 20
2.874555920113822
 30
0.0
 10
10.46284205817075
 20
2.854186644531495
 30
0.0
 10
10.6304634785965
 20
2.800191550715313
 30
0.0
 10
10.75617333038998
 20
2.707737619718168
 30
0.0
  0
SPLINE
  5
B8
330
1F
100
AcDbEntity
  8
0
  6
Continuous
 62
     4
370
    15
100
AcDbSpline
210
0.0
220
0.0
230
1.0
 70
     8
 71
     3
 72
    10
 73
     6
 74
     0
 42
0.000000001
 43
0.00000001
 40
0.0
 40
0.0
 40
0.0
 40
0.0
 40
0.5
 40
0.5
 40
1.0
 40
1.0
 40
1.0
 40
1.0
 10
9.692685678330044
 20
1.223701363335525
 30
0.0
 10
9.581734043561573
 20
1.329634161894382
 30
0.0
 10
9.509109172452362
 20
1.46340508741505
 30
0.0
 10
9.432979212017866
 20
1.739152382146533
 30
0.0
 10
9.430346485475486
 20
1.879982000882719
 30
0.0
 10
9.430346485475486
 20
2.014431237960208
 30
0.0
  0
LINE
  5
B9
330
1F
100
AcDbEntity
  8
0
  6
Continuous
 62
     4
370
    15
100
AcDbLine
 10
10.95
 20
-0.0135865917671572
 30
0.0
 11
10.95
 21
-1.34343405727998
 31
0.0
  0
LINE
  5
BA
330
1F
100
AcDbEntity
  8
0
  6
Continuous
 62
     4
370
    15
100
AcDbLine
 10
-33.00000000000001
 20
3.96875
 30
0.0
 11
-33.00000000000001
 21
-3.968749999999998
 31
0.0
  0
LINE
  5
BB
330
1F
100
AcDbEntity
  8
0
  6
Continuous
 62
     4
370
    15
100
AcDbLine
 10
-33.50000000000001
 20
3.46875
 30
0.0
 11
-33.50000000000001
 21
-3.468749999999996
 31
0.0
  0
SPLINE
  5
BC
330
1F
100
AcDbEntity
  8
0
  6
Continuous
 62
     4
370
    15
100
AcDbSpline
210
0.0
220
0.0
230
1.0
 70
    24
 71
     3
 72
    14
 73
    10
 74
     0
 42
0.000000001
 43
0.00000001
 40
0.0
 40
0.0
 40
0.0
 40
0.0
 40
0.25
 40
0.25
 40
0.5
 40
0.5
 40
0.75
 40
0.75
 40
1.0
 40
1.0
 40
1.0
 40
1.0
 10
10.95
 20
-1.343434057279985
 30
0.0
 10
10.95
 20
-1.361414975739792
 30
0.0
 10
10.95
 20
-1.401245740558269
 30
0.0
 10
10.95
 20
-1.558588090109349
 30
0.0
 10
10.95
 20
-1.677113140551515
 30
0.0
 10
10.95
 20
-2.023278590972022
 30
0.0
 10
10.95
 20
-2.252738451452002
 30
0.0
 10
10.95
 20
-2.803979735090927
 30
0.0
 10
10.95
 20
-3.125039800227648
 30
0.0
 10
10.95
 20
-3.443811476700781
 30
0.0
  0
SPLINE
  5
BD
330
1F
100
AcDbEntity
  8
0
  6
Continuous
 62
     1
370
    15
100
AcDbSpline
210
0.0
220
0.0
230
1.0
 70
    24
 71
     3
 72
    10
 73
     6
 74
     0
 42
0.000000001
 43
0.00000001
 40
0.0
 40
0.0
 40
0.0
 40
0.0
 40
0.3095132001009642
 40
0.6219895879833297
 40
1.0
 40
1.0
 40
1.0
 40
1.0
 10
10.95
 20
3.905850780076519
 30
0.0
 10
10.95
 20
3.855317686662385
 30
0.0
 10
10.95
 20
3.753767710952377
 30
0.0
 10
10.95
 20
3.604595506434007
 30
0.0
 10
10.95
 20
3.520379938517866
 30
0.0
 10
10.95
 20
3.47427570954368
 30
0.0
  0
LINE
  5
BE
330
1F
100
AcDbEntity
  8
0
  6
Continuous
 62
     1
370
    15
100
AcDbLine
 10
30.0
 20
-0.8660254037844348
 30
0.0
 11
30.0
 21
0.8567594102956575
 31
0.0
  0
LINE
  5
BF
330
1F
100
AcDbEntity
  8
0
  6
Continuous
 62
     1
370
    15
100
AcDbLine
 10
28.80027689802652
 20
-0.2613772235157496
 30
0.0
 11
30.0
 21
-0.8660254037844348
 31
0.0
  0
SPLINE
  5
C0
330
1F
100
AcDbEntity
  8
0
  6
Continuous
 62
     1
370
    15
100
AcDbSpline
210
0.0
220
0.0
230
1.0
 70
     8
 71
     3
 72
    14
 73
    10
 74
     0
 42
0.000000001
 43
0.00000001
 40
0.0
 40
0.0
 40
0.0
 40
0.0
 40
0.2500000000000001
 40
0.2500000000000001
 40
0.5
 40
0.5
 40
0.75
 40
0.75
 40
1.0
 40
1.0
 40
1.0
 40
1.0
 10
29.5921866688656
 20
0.764064589581464
 30
0.0
 10
29.58153046109523
 20
0.6900301066255842
 30
0.0
 10
29.56144304747022
 20
0.6118619110315271
 30
0.0
 10
29.49424042395923
 20
0.4436791934342381
 30
0.0
 10
29.44578447656212
 20
0.3515688561332124
 30
0.0
 10
29.31233306518219
 20
0.1623519356242065
 30
0.0
 10
29.22632699512538
 20
0.0645381509803622
 30
0.0
 10
29.02485087560155
 20
-0.116503814363463
 30
0.0
 10
28.91147052588281
 20
-0.1975288068554862
 30
0.0
 10
28.80027689802623
 20
-0.2613772235161145
 30
0.0
  0
ELLIPSE
  5
C1
330
1F
100
AcDbEntity
  8
0
  6
Continuous
 62
     1
370
    15
100
AcDbEllipse
 10
31.42814800674211
 20
0.0000000000000057
 30
0.0
 11
5.591613229025622
 21
3.715348930515086
 31
0.0
210
0.0
220
0.0
230
1.0
 40
0.2495534463455926
 41
1.731348575643378
 42
1.736344596962232
  0
SPLINE
  5
C2
330
1F
100
AcDbEntity
  8
0
  6
Continuous
 62
     1
370
    15
100
AcDbSpline
210
0.0
220
0.0
230
1.0
 70
     8
 71
     3
 72
    12
 73
     8
 74
     0
 42
0.000000001
 43
0.00000001
 40
0.0
 40
0.0
 40
0.0
 40
0.0
 40
0.2499999999999976
 40
0.2499999999999976
 40
0.4999999999999951
 40
0.4999999999999951
 40
1.0
 40
1.0
 40
1.0
 40
1.0
 10
30.0
 20
0.8567594102956582
 30
0.0
 10
30.0
 20
0.8836851340292717
 30
0.0
 10
29.98897666841254
 20
0.9038738083840525
 30
0.0
 10
29.94558760875418
 20
0.9240976333815569
 30
0.0
 10
29.91332517742197
 20
0.9241731885076934
 30
0.0
 10
29.79940382611064
 20
0.897394853240395
 30
0.0
 10
29.70619765513726
 20
0.8466705532620933
 30
0.0
 10
29.61899999999972
 20
0.7835120111807332
 30
0.0
  0
SPLINE
  5
C3
330
1F
100
AcDbEntity
  8
0
  6
Continuous
 62
     1
370
    15
100
AcDbSpline
210
0.0
220
0.0
230
1.0
 70
     8
 71
     3
 72
    27
 73
    23
 74
     0
 42
0.000000001
 43
0.00000001
 40
0.0
 40
0.0
 40
0.0
 40
0.0
 40
0.0315515523548374
 40
0.0888628571189111
 40
0.1460344500237231
 40
0.198950069461634
 40
0.2520331800493344
 40
0.3049553101323748
 40
0.3578927125487253
 40
0.4109713915278798
 40
0.463876549897142
 40
0.5168429614087365
 40
0.5699038678335682
 40
0.6227993137794873
 40
0.6758019306902894
 40
0.728831746977399
 40
0.7817247497902766
 40
0.8347662318124526
 40
0.8877561794583394
 40
0.9398978240109064
 40
0.9922159380476596
 40
1.0
 40
1.0
 40
1.0
 40
1.0
 10
26.88273171634729
 20
-3.706310986832107
 30
0.0
 10
26.73694867224268
 20
-3.759476964778733
 30
0.0
 10
26.32636038571604
 20
-3.909215419759503
 30
0.0
 10
25.65007065512054
 20
-3.987210822861461
 30
0.0
 10
24.8766709326713
 20
-3.947956107343929
 30
0.0
 10
24.12339897227714
 20
-3.758589452424912
 30
0.0
 10
23.38727685027022
 20
-3.44841126918225
 30
0.0
 10
22.65340339456784
 20
-3.018915943341608
 30
0.0
 10
21.91931566303003
 20
-2.486238107775327
 30
0.0
 10
21.18325903872845
 20
-1.87038467432175
 30
0.0
 10
20.44961866961179
 20
-1.188337719452785
 30
0.0
 10
19.71512587700371
 20
-0.4665301866116789
 30
0.0
 10
18.97931165561647
 20
0.2697965204916165
 30
0.0
 10
18.24580260126444
 20
0.9994956217049984
 30
0.0
 10
17.51080106333388
 20
1.693291966699365
 30
0.0
 10
16.77541673383168
 20
2.328956826564794
 30
0.0
 10
16.04193521409189
 20
2.88699421225808
 30
0.0
 10
15.30640081654252
 20
3.343708070593609
 30
0.0
 10
14.57502377111242
 20
3.688660054023983
 30
0.0
 10
13.84861010059241
 20
3.895698296533559
 30
0.0
 10
13.32849067163352
 20
3.983724121344137
 30
0.0
 10
13.05080812484412
 20
3.963061349839109
 30
0.0
 10
13.01484439954266
 20
3.960385235524522
 30
0.0
  0
SPLINE
  5
C4
330
1F
100
AcDbEntity
  8
0
  6
Continuous
 62
     1
370
    15
100
AcDbSpline
210
0.0
220
0.0
230
1.0
 70
     8
 71
     3
 72
    27
 73
    23
 74
     0
 42
0.000000001
 43
0.00000001
 40
0.0
 40
0.0
 40
0.0
 40
0.0
 40
0.0113427674390388
 40
0.0643315898375463
 40
0.1173719455180052
 40
0.1702638251421381
 40
0.223292515335254
 40
0.276294006729644
 40
0.3291883294349381
 40
0.3822481091055736
 40
0.4352133958695816
 40
0.4881174307919747
 40
0.5411949826395304
 40
0.5941312609243057
 40
0.6470522672000804
 40
0.7001342505620766
 40
0.7530487463309762
 40
0.8098990411275363
 40
0.8668894128751918
 40
0.9237453440029765
 40
0.9805695968488234
 40
1.0
 40
1.0
 40
1.0
 40
1.0
 10
14.41420648356613
 20
3.713995794449013
 30
0.0
 10
14.46659287490351
 20
3.735312988327796
 30
0.0
 10
14.76370730122834
 20
3.856215491219414
 30
0.0
 10
15.30638693054744
 20
3.952275241061152
 30
0.0
 10
16.04193892444898
 20
3.986772429046016
 30
0.0
 10
16.77541573794358
 20
3.874259314262947
 30
0.0
 10
17.51080133032741
 20
3.632534237089317
 30
0.0
 10
18.24580252993998
 20
3.266101881384778
 30
0.0
 10
18.97931167465756
 20
2.787034866454495
 30
0.0
 10
19.71512587236018
 20
2.2145236702948
 30
0.0
 10
20.44961866915913
 20
1.565384345043225
 30
0.0
 10
21.18325904517273
 20
0.8616850987468088
 30
0.0
 10
21.91931563763606
 20
0.1311521253079731
 30
0.0
 10
22.65340348937798
 20
-0.6059487973057489
 30
0.0
 10
23.3872764959726
 20
-1.322540169581363
 30
0.0
 10
24.12340029728762
 20
-1.99169311760125
 30
0.0
 10
24.87518815873478
 20
-2.610052024763332
 30
0.0
 10
25.64565575797407
 20
-3.145476548718693
 30
0.0
 10
26.43604529562581
 20
-3.571566967538688
 30
0.0
 10
27.22461915285627
 20
-3.847120954805296
 30
0.0
 10
27.83924497266802
 20
-3.974865358670266
 30
0.0
 10
28.19207623594249
 20
-3.955940153279004
 30
0.0
 10
28.28198095848206
 20
-3.951117833046053
 30
0.0
  0
SPLINE
  5
C5
330
1F
100
AcDbEntity
  8
0
  6
Continuous
 62
     1
370
    15
100
AcDbSpline
210
0.0
220
0.0
230
1.0
 70
     8
 71
     3
 72
    26
 73
    22
 74
     0
 42
0.000000001
 43
0.00000001
 40
0.0
 40
0.0
 40
0.0
 40
0.0
 40
0.0550710018360947
 40
0.1099693305868545
 40
0.1648933489697894
 40
0.2199538831801267
 40
0.2748286976975811
 40
0.3305962818102676
 40
0.3864181016373129
 40
0.4420836592455528
 40
0.4978932018409638
 40
0.5536741193183394
 40
0.6093422481242016
 40
0.6651845105456837
 40
0.7209273248028197
 40
0.7766056751395533
 40
0.83246664172026
 40
0.8881789262782563
 40
0.9438751379550683
 40
0.9997407684411633
 40
1.0
 40
1.0
 40
1.0
 40
1.0
 10
10.9500000000035
 20
3.90585078007714
 30
0.0
 10
11.19221641269752
 20
3.936136961609512
 30
0.0
 10
11.67588977750004
 20
3.996614363474463
 30
0.0
 10
12.39937785986476
 20
3.919900679681952
 30
0.0
 10
13.12302032113927
 20
3.722038066440671
 30
0.0
 10
13.84853210072137
 20
3.399091688083318
 30
0.0
 10
14.57504501907353
 20
2.960395706335942
 30
0.0
 10
15.30639507773302
 20
2.420182236004823
 30
0.0
 10
16.04193674731246
 20
1.795554702774512
 30
0.0
 10
16.77541632303796
 20
1.107354065229015
 30
0.0
 10
17.51080117071654
 20
0.3834142949688009
 30
0.0
 10
18.24580258282342
 20
-0.3539926627152254
 30
0.0
 10
18.97931162233585
 20
-1.081020433620155
 30
0.0
 10
19.71512602908791
 20
-1.768617953938359
 30
0.0
 10
20.44961809615302
 20
-2.397094134380403
 30
0.0
 10
21.18326118119004
 20
-2.944560125042595
 30
0.0
 10
21.9193076462148
 20
-3.388507252054618
 30
0.0
 10
22.65343321843777
 20
-3.72245336648687
 30
0.0
 10
23.38716542969319
 20
-3.912328076844819
 30
0.0
 10
23.87967620700448
 20
-3.991175846662997
 30
0.0
 10
24.12603783222546
 20
-3.968540751573036
 30
0.0
 10
24.1271757362811
 20
-3.968436203770674
 30
0.0
  0
SPLINE
  5
C6
330
1F
100
AcDbEntity
  8
0
  6
Continuous
 62
     1
370
    15
100
AcDbSpline
210
0.0
220
0.0
230
1.0
 70
     8
 71
     3
 72
    20
 73
    16
 74
     0
 42
0.000000001
 43
0.00000001
 40
0.0
 40
0.0
 40
0.0
 40
0.0
 40
0.0804470273287824
 40
0.1606418159847292
 40
0.24087413173248
 40
0.3213058680851173
 40
0.4014663074445872
 40
0.4829308934081028
 40
0.5644747062214989
 40
0.6457902531496271
 40
0.7273161315373565
 40
0.8088001947124314
 40
0.8901194976137303
 40
0.9716931727121492
 40
1.0
 40
1.0
 40
1.0
 40
1.0
 10
10.9500000000035
 20
2.562416722793287
 30
0.0
 10
11.1922164126686
 20
2.369740241610325
 30
0.0
 10
11.67588977741337
 20
1.984991409210593
 30
0.0
 10
12.39937786021026
 20
1.317896935209546
 30
0.0
 10
13.12302031984148
 20
0.6132694650142954
 30
0.0
 10
13.84853210557289
 20
-0.1113002499263915
 30
0.0
 10
14.57504500091246
 20
-0.8380746706386788
 30
0.0
 10
15.30639514677576
 20
-1.538678525722065
 30
0.0
 10
16.04193648980426
 20
-2.189430528766816
 30
0.0
 10
16.77541728205691
 20
-2.767487454079658
 30
0.0
 10
17.51079758176195
 20
-3.248580060640717
 30
0.0
 10
18.24581595683093
 20
-3.621668878824459
 30
0.0
 10
18.97926175580648
 20
-3.862302164154392
 30
0.0
 10
19.55527679026454
 20
-3.97369305563853
 30
0.0
 10
19.8855531523799
 20
-3.95751461498216
 30
0.0
 10
19.9706371821816
 20
-3.953346811636697
 30
0.0
  0
SPLINE
  5
C7
330
1F
100
AcDbEntity
  8
0
  6
Continuous
 62
     1
370
    15
100
AcDbSpline
210
0.0
220
0.0
230
1.0
 70
     8
 71
     3
 72
    24
 73
    20
 74
     0
 42
0.000000001
 43
0.00000001
 40
0.0
 40
0.0
 40
0.0
 40
0.0
 40
0.0062652665528337
 40
0.0685986890276876
 40
0.1310984636708212
 40
0.1933939190049067
 40
0.2557614994872736
 40
0.318240347071532
 40
0.3805243660948077
 40
0.4429345781824605
 40
0.5053768173461891
 40
0.5676579595973321
 40
0.6301139350828138
 40
0.6925092291993087
 40
0.7539056523344371
 40
0.8155098670575467
 40
0.8769613417016692
 40
0.9383840736239961
 40
1.0
 40
1.0
 40
1.0
 40
1.0
 10
22.7271807000787
 20
-3.718766534100377
 30
0.0
 10
22.70259831881075
 20
-3.729108943576145
 30
0.0
 10
22.43344470596108
 20
-3.842348456283588
 30
0.0
 10
21.91936019957823
 20
-3.93923273974317
 30
0.0
 10
21.18324713558706
 20
-3.991060458764233
 30
0.0
 10
20.44962185909965
 20
-3.893602898118992
 30
0.0
 10
19.71512501821259
 20
-3.666417256408142
 30
0.0
 10
18.97931189244385
 20
-3.313883000999775
 30
0.0
 10
18.24580251038152
 20
-2.846885423889214
 30
0.0
 10
17.51080119015655
 20
-2.283576256572335
 30
0.0
 10
16.77541631784331
 20
-1.642796517811264
 30
0.0
 10
16.04193674870728
 20
-0.9437637088147337
 30
0.0
 10
15.30639507735903
 20
-0.2147956694140306
 30
0.0
 10
14.57504501917178
 20
0.5187726291572061
 30
0.0
 10
13.84853210069473
 20
1.232637919654783
 30
0.0
 10
13.12302032114558
 20
1.900038197374578
 30
0.0
 10
12.39937785986181
 20
2.504085580094696
 30
0.0
 10
11.67588977749907
 20
3.033135122924259
 30
0.0
 10
11.19221641269599
 20
3.297723146166146
 30
0.0
 10
10.9500000000017
 20
3.430224884932796
 30
0.0
  0
SPLINE
  5
C8
330
1F
100
AcDbEntity
  8
0
  6
Continuous
 62
     1
370
    15
100
AcDbSpline
210
0.0
220
0.0
230
1.0
 70
     8
 71
     3
 72
    22
 73
    18
 74
     0
 42
0.000000001
 43
0.00000001
 40
0.0
 40
0.0
 40
0.0
 40
0.0
 40
0.0370571146458052
 40
0.103824152369503
 40
0.1704722862549155
 40
0.2370433447350938
 40
0.3038327458310903
 40
0.3704443772990548
 40
0.4370367914463406
 40
0.5038317688770612
 40
0.570415990618332
 40
0.6419527704701697
 40
0.7136658142103246
 40
0.7852096864613739
 40
0.8567136967857752
 40
0.9284003114193876
 40
1.0
 40
1.0
 40
1.0
 40
1.0
 10
18.57089275041584
 20
3.708807743706408
 30
0.0
 10
18.70686902403209
 20
3.758179327019325
 30
0.0
 10
19.08783827880296
 20
3.896505336413157
 30
0.0
 10
19.71513457950845
 20
3.979349054621083
 30
0.0
 10
20.44961634122862
 20
3.963542178432008
 30
0.0
 10
21.18325967042892
 20
3.80577395611344
 30
0.0
 10
21.91931547237916
 20
3.520479254502407
 30
0.0
 10
22.65340352609631
 20
3.113705336571992
 30
0.0
 10
23.38727651409611
 20
2.600178317324997
 30
0.0
 10
24.12340018769311
 20
1.999728437929617
 30
0.0
 10
24.87518859046384
 20
1.31243293546305
 30
0.0
 10
25.64565400723843
 20
0.559357255476288
 30
0.0
 10
26.43605182615856
 20
-0.2315945707415454
 30
0.0
 10
27.22459485619613
 20
-1.015657793455347
 30
0.0
 10
28.0126683954506
 20
-1.75761071158711
 30
0.0
 10
28.80284831064088
 20
-2.437344874547475
 30
0.0
 10
29.32918031762988
 20
-2.806329160266231
 30
0.0
 10
29.59218666886554
 20
-2.990709379142448
 30
0.0
  0
SPLINE
  5
C9
330
1F
100
AcDbEntity
  8
0
  6
Continuous
 62
     1
370
    15
100
AcDbSpline
210
0.0
220
0.0
230
1.0
 70
     8
 71
     3
 72
    18
 73
    14
 74
     0
 42
0.000000001
 43
0.00000001
 40
0.0
 40
0.0
 40
0.0
 40
0.0
 40
0.0957254525209625
 40
0.1915296973950768
 40
0.2871034201605352
 40
0.382740639441817
 40
0.4785941240041764
 40
0.5742139396839295
 40
0.6627156154314866
 40
0.7514974210837243
 40
0.8400099859224472
 40
0.9285480938258622
 40
1.0
 40
1.0
 40
1.0
 40
1.0
 10
29.61899999999997
 20
-1.966152714100996
 30
0.0
 10
29.35440667968928
 20
-1.728715232607296
 30
0.0
 10
28.82500225027934
 20
-1.253644833010293
 30
0.0
 10
28.03049091610002
 20
-0.4714651903333835
 30
0.0
 10
27.23799739074911
 20
0.3253469710431891
 30
0.0
 10
26.44494309339635
 20
1.110410002892235
 30
0.0
 10
25.65010098311474
 20
1.849381560789951
 30
0.0
 10
24.87666302986285
 20
2.499935847280181
 30
0.0
 10
24.12340257690211
 20
3.041989521675281
 30
0.0
 10
23.38727004798015
 20
3.465690153387538
 30
0.0
 10
22.65342692034226
 20
3.768303934359661
 30
0.0
 10
21.96707225703977
 20
3.944472318912265
 30
0.0
 10
21.52435926068236
 20
3.953869722607928
 30
0.0
 10
21.32664262405235
 20
3.958066624589685
 30
0.0
  0
ELLIPSE
  5
CB
330
1F
100
AcDbEntity
  8
0
  6
Continuous
 62
     1
370
    15
100
AcDbEllipse
 10
31.42814800674211
 20
0.000000000000007
 30
0.0
 11
5.591613229025616
 21
3.715348930515081
 31
0.0
210
0.0
220
0.0
230
1.0
 40
0.2495534463455961
 41
4.218199216429461
 42
4.223195237748326
  0
SPLINE
  5
CD
330
1F
100
AcDbEntity
  8
0
  6
Continuous
 62
     1
370
    15
100
AcDbSpline
210
0.0
220
0.0
230
1.0
 70
     8
 71
     3
 72
    18
 73
    14
 74
     0
 42
0.000000001
 43
0.00000001
 40
0.0
 40
0.0
 40
0.0
 40
0.0
 40
0.0426637054958409
 40
0.1391123112344748
 40
0.235610411546674
 40
0.3318595530412705
 40
0.4283788814351688
 40
0.5248044329736888
 40
0.6196863314746213
 40
0.714889350642743
 40
0.8098563256256913
 40
0.9047788816690211
 40
1.0
 40
1.0
 40
1.0
 40
1.0
 10
18.57089275041582
 20
-3.708807743706397
 30
0.0
 10
18.462618668722
 20
-3.749835585519497
 30
0.0
 10
18.10957250041194
 20
-3.883613883331424
 30
0.0
 10
17.5108122588495
 20
-3.972278384718228
 30
0.0
 10
16.77541336013343
 20
-3.973017602286294
 30
0.0
 10
16.0419375428882
 20
-3.830277729396724
 30
0.0
 10
15.30639486442436
 20
-3.55915938749276
 30
0.0
 10
14.57504507518232
 20
-3.167762880490911
 30
0.0
 10
13.84853208573216
 20
-2.670780566966653
 30
0.0
 10
13.12302032514809
 20
-2.089624951838296
 30
0.0
 10
12.39937785879626
 20
-1.437495730557252
 30
0.0
 10
11.67588977776639
 20
-0.7373046807074122
 30
0.0
 10
11.19221641278519
 20
-0.2550783509020816
 30
0.0
 10
10.9500000000017
 20
-0.0135865917688561
 30
0.0
  0
SPLINE
  5
CE
330
1F
100
AcDbEntity
  8
0
  6
Continuous
 62
     1
370
    15
100
AcDbSpline
210
0.0
220
0.0
230
1.0
 70
    24
 71
     3
 72
    14
 73
    10
 74
     0
 42
0.000000001
 43
0.00000001
 40
0.0
 40
0.0
 40
0.0
 40
0.0
 40
0.25
 40
0.25
 40
0.5
 40
0.5
 40
0.75
 40
0.75
 40
1.0
 40
1.0
 40
1.0
 40
1.0
 10
10.95
 20
2.56241672278844
 30
0.0
 10
10.95
 20
2.41278665991426
 30
0.0
 10
10.95
 20
2.236312714101806
 30
0.0
 10
10.95
 20
1.82555482942075
 30
0.0
 10
10.95
 20
1.59027767583698
 30
0.0
 10
10.95
 20
1.088792485985647
 30
0.0
 10
10.95
 20
0.8226329488715103
 30
0.0
 10
10.95
 20
0.340643378290036
 30
0.0
 10
10.95
 20
0.1279470975540273
 30
0.0
 10
10.95
 20
-0.0135865917671571
 30
0.0
  0
SPLINE
  5
CF
330
1F
100
AcDbEntity
  8
0
  6
Continuous
 62
     1
370
    15
100
AcDbSpline
210
0.0
220
0.0
230
1.0
 70
     8
 71
     3
 72
     8
 73
     4
 74
     0
 42
0.000000001
 43
0.00000001
 40
0.0
 40
0.0
 40
0.0
 40
0.0
 40
0.0007695537966313
 40
0.0007695537966313
 40
0.0007695537966313
 40
0.0007695537966313
 10
30.0
 20
-3.586979308061883
 30
0.0
 10
30.0
 20
-3.587107199864769
 30
0.0
 10
29.9999999345991
 20
-3.587235144374748
 30
0.0
 10
29.99999980359643
 20
-3.587363141527564
 30
0.0
  0
SPLINE
  5
D0
330
1F
100
AcDbEntity
  8
0
  6
Continuous
 62
     1
370
    15
100
AcDbSpline
210
0.0
220
0.0
230
1.0
 70
     8
 71
     3
 72
    24
 73
    20
 74
     0
 42
0.000000001
 43
0.00000001
 40
0.0
 40
0.0
 40
0.0
 40
0.0
 40
0.0637654581365658
 40
0.1275834021101178
 40
0.1912477887226754
 40
0.2549544721780784
 40
0.3188052161144065
 40
0.3825003065337309
 40
0.4414538006283238
 40
0.5005938972537933
 40
0.5595546448830375
 40
0.6185324074772616
 40
0.6776675668306926
 40
0.7366094062086753
 40
0.7956194879469124
 40
0.8547348468295667
 40
0.9136658655595388
 40
0.9727162838715709
 40
1.0
 40
1.0
 40
1.0
 40
1.0
 10
29.61899999999997
 20
-3.968694391980607
 30
0.0
 10
29.35440667947327
 20
-3.951951375102099
 30
0.0
 10
28.82500224963117
 20
-3.918451560039654
 30
0.0
 10
28.03049091869262
 20
-3.670029508075444
 30
0.0
 10
27.23799738105054
 20
-3.286240610162652
 30
0.0
 10
26.44494312966862
 20
-2.768387266805297
 30
0.0
 10
25.65010084754273
 20
-2.142301891892718
 30
0.0
 10
24.87666351854282
 20
-1.446971083427281
 30
0.0
 10
24.12340090124066
 20
-0.7167058229281817
 30
0.0
 10
23.38727633189567
 20
0.0166779279018194
 30
0.0
 10
22.6534035428934
 20
0.7518882381398586
 30
0.0
 10
21.91931558737695
 20
1.461097734131977
 30
0.0
 10
21.18325919275994
 20
2.118487392510916
 30
0.0
 10
20.44961813084788
 20
2.705935966727895
 30
0.0
 10
19.7151278827939
 20
3.199390777721695
 30
0.0
 10
18.97930416763194
 20
3.584992902887899
 30
0.0
 10
18.24583047127716
 20
3.841636299133949
 30
0.0
 10
17.64271284985563
 20
3.967116395003917
 30
0.0
 10
17.28434978874935
 20
3.955512710451345
 30
0.0
 10
17.17109822152732
 20
3.951845659899116
 30
0.0
  0
SPLINE
  5
D1
330
1F
100
AcDbEntity
  8
0
  6
Continuous
 62
     1
370
    15
100
AcDbSpline
210
0.0
220
0.0
230
1.0
 70
     8
 71
     3
 72
    12
 73
     8
 74
     0
 42
0.000000001
 43
0.00000001
 40
0.0
 40
0.0
 40
0.0
 40
0.0
 40
0.1001386367284879
 40
0.3677158038710094
 40
0.5963702053967121
 40
0.831946384983721
 40
1.0
 40
1.0
 40
1.0
 40
1.0
 10
29.24898203985656
 20
-2.74099519836977
 30
0.0
 10
29.23681979429817
 20
-2.74191325165284
 30
0.0
 10
29.19215921124561
 20
-2.745284405005917
 30
0.0
 10
29.1053787469194
 20
-2.771113527761784
 30
0.0
 10
28.99356186909916
 20
-2.816369354212392
 30
0.0
 10
28.8922174166951
 20
-2.868767587465365
 30
0.0
 10
28.82730398376772
 20
-2.908958204518616
 30
0.0
 10
28.80027689802624
 20
-2.925691801928519
 30
0.0
  0
SPLINE
  5
D2
330
1F
100
AcDbEntity
  8
0
  6
Continuous
 62
     1
370
    15
100
AcDbSpline
210
0.0
220
0.0
230
1.0
 70
     8
 71
     3
 72
     8
 73
     4
 74
     0
 42
0.000000001
 43
0.00000001
 40
0.0
 40
0.0
 40
0.0
 40
0.0
 40
1.0
 40
1.0
 40
1.0
 40
1.0
 10
30.0
 20
-3.154023337650052
 30
0.0
 10
29.60266445351133
 20
-3.110083849871107
 30
0.0
 10
29.20259286701069
 20
-3.031923548154858
 30
0.0
 10
28.80027689802651
 20
-2.92569180192816
 30
0.0
  0
LINE
  5
D3
330
1F
100
AcDbEntity
  8
0
  6
Continuous
 62
     1
370
    15
100
AcDbLine
 10
30.0
 20
-3.586979308061884
 30
0.0
 11
30.0
 21
-3.154023337650053
 31
0.0
  0
SPLINE
  5
D4
330
1F
100
AcDbEntity
  8
0
  6
Continuous
 62
     1
370
    15
100
AcDbSpline
210
0.0
220
0.0
230
1.0
 70
    24
 71
     3
 72
     9
 73
     5
 74
     0
 42
0.000000001
 43
0.00000001
 40
0.0
 40
0.0
 40
0.0
 40
0.0
 40
0.6217098530477905
 40
1.0
 40
1.0
 40
1.0
 40
1.0
 10
10.95
 20
3.90585078006992
 30
0.0
 10
10.95
 20
3.804682061490048
 30
0.0
 10
10.95
 20
3.64195548078055
 30
0.0
 10
10.95
 20
3.520297663224749
 30
0.0
 10
10.95
 20
3.47427570954368
 30
0.0
  0
SPLINE
  5
D5
330
1F
100
AcDbEntity
  8
0
  6
Continuous
 62
     1
370
    15
100
AcDbSpline
210
0.0
220
0.0
230
1.0
 70
     8
 71
     3
 72
    14
 73
    10
 74
     0
 42
0.000000001
 43
0.00000001
 40
0.0
 40
0.0
 40
0.0
 40
0.0
 40
0.25
 40
0.25
 40
0.5
 40
0.5
 40
0.75
 40
0.75
 40
1.0
 40
1.0
 40
1.0
 40
1.0
 10
30.0
 20
-1.857887864618604
 30
0.0
 10
30.0
 20
-1.914308012308118
 30
0.0
 10
29.99309782736805
 20
-1.969511781119347
 30
0.0
 10
29.9517170086446
 20
-2.055581908229744
 30
0.0
 10
29.91640846430544
 20
-2.081609091221899
 30
0.0
 10
29.8340014069273
 20
-2.09068805127658
 30
0.0
 10
29.78962319179216
 20
-2.076884466668205
 30
0.0
 10
29.7032653767386
 20
-2.032860502845231
 30
0.0
 10
29.66031041834204
 20
-2.001954553843255
 30
0.0
 10
29.619
 20
-1.966152714101008
 30
0.0
  0
LINE
  5
D6
330
1F
100
AcDbEntity
  8
0
  6
Continuous
 62
     1
370
    15
100
AcDbLine
 10
10.9500000000035
 20
-3.905850780077125
 30
0.0
 11
11.65898518586666
 21
-3.967208643822889
 31
0.0
  0
SPLINE
  5
D7
330
1F
100
AcDbEntity
  8
0
  6
Continuous
 62
     1
370
    15
100
AcDbSpline
210
0.0
220
0.0
230
1.0
 70
     8
 71
     3
 72
    16
 73
    12
 74
     0
 42
0.000000001
 43
0.00000001
 40
0.0
 40
0.0
 40
0.0
 40
0.0
 40
0.0961646316971979
 40
0.2034037231859239
 40
0.3103044471875719
 40
0.4251564850866336
 40
0.5402915140124535
 40
0.6551549387324578
 40
0.7699543652753081
 40
0.8850469623674256
 40
1.0
 40
1.0
 40
1.0
 40
1.0
 10
22.72718070007874
 20
3.718766534100386
 30
0.0
 10
22.94698675710713
 20
3.787215863309556
 30
0.0
 10
23.41191205853369
 20
3.931997246703859
 30
0.0
 10
24.12340317313797
 20
3.989509183058727
 30
0.0
 10
24.87518772523016
 20
3.922920846021732
 30
0.0
 10
25.64565424673745
 20
3.705195842612343
 30
0.0
 10
26.4360517620877
 20
3.338081704578708
 30
0.0
 10
27.22459487332878
 20
2.838641550292566
 30
0.0
 10
28.01266839086977
 20
2.226437554803706
 30
0.0
 10
28.80284831178568
 20
1.53010978378205
 30
0.0
 10
29.32918031801132
 20
1.019309693672798
 30
0.0
 10
29.59218666886555
 20
0.7640645895815064
 30
0.0
  0
SPLINE
  5
D8
330
1F
100
AcDbEntity
  8
0
  6
Continuous
 62
     1
370
    15
100
AcDbSpline
210
0.0
220
0.0
230
1.0
 70
     8
 71
     3
 72
     8
 73
     4
 74
     0
 42
0.000000001
 43
0.00000001
 40
0.0
 40
0.0
 40
0.0
 40
0.0
 40
1.0
 40
1.0
 40
1.0
 40
1.0
 10
30.0
 20
-1.086052377163082
 30
0.0
 10
29.60266445351133
 20
-0.8159754004361648
 30
0.0
 10
29.2025928670107
 20
-0.5407769093744013
 30
0.0
 10
28.80027689802651
 20
-0.2613772235157074
 30
0.0
  0
LINE
  5
D9
330
1F
100
AcDbEntity
  8
0
  6
Continuous
 62
     1
370
    15
100
AcDbLine
 10
30.0
 20
-1.857887864618603
 30
0.0
 11
30.0
 21
-1.086052377163081
 31
0.0
  0
SPLINE
  5
DA
330
1F
100
AcDbEntity
  8
0
  6
Continuous
 62
     1
370
    15
100
AcDbSpline
210
0.0
220
0.0
230
1.0
 70
     8
 71
     3
 72
    14
 73
    10
 74
     0
 42
0.000000001
 43
0.00000001
 40
0.0
 40
0.0
 40
0.0
 40
0.0
 40
0.1491751478815558
 40
0.2978825626153357
 40
0.4466595648734197
 40
0.5958063582749725
 40
0.7444500781582192
 40
0.8955121131610866
 40
1.0
 40
1.0
 40
1.0
 40
1.0
 10
10.9500000000035
 20
-1.343434057283806
 30
0.0
 10
11.19221637218113
 20
-1.566391785197836
 30
0.0
 10
11.67588965607793
 20
-2.011608165332798
 30
0.0
 10
12.39937834387141
 20
-2.602062695355472
 30
0.0
 10
13.12301850306972
 20
-3.108547164785361
 30
0.0
 10
13.84853889720899
 20
-3.511219734388434
 30
0.0
 10
14.57501957724783
 20
-3.795371621801928
 30
0.0
 10
15.23070106158282
 20
-3.952480884001887
 30
0.0
 10
15.64531871864745
 20
-3.953721844911105
 30
0.0
 10
15.81484537128954
 20
-3.95422924237818
 30
0.0
  0
SPLINE
  5
DB
330
1F
100
AcDbEntity
  8
0
  6
Continuous
 62
     1
370
    15
100
AcDbSpline
210
0.0
220
0.0
230
1.0
 70
     8
 71
     3
 72
    11
 73
     7
 74
     0
 42
0.000000001
 43
0.00000001
 40
0.0
 40
0.0
 40
0.0
 40
0.0
 40
0.1262460130144929
 40
0.417119996468889
 40
0.7087368031939647
 40
1.0
 40
1.0
 40
1.0
 40
1.0
 10
26.88273171634729
 20
3.706310986832119
 30
0.0
 10
26.99672674367158
 20
3.749939135558512
 30
0.0
 10
27.37336917585294
 20
3.894087634256906
 30
0.0
 10
28.01263153338664
 20
3.978668067722965
 30
0.0
 10
28.80285752289966
 20
3.968799232591677
 30
0.0
 10
29.32918338714062
 20
3.826086864056581
 30
0.0
 10
29.59218666886555
 20
3.75477396872396
 30
0.0
  0
LINE
  5
DC
330
1F
100
AcDbEntity
  8
0
  6
Continuous
 62
     1
370
    15
100
AcDbLine
 10
10.95
 20
-1.343434057281409
 30
0.0
 11
10.95
 21
-0.0135865917671572
 31
0.0
  0
ELLIPSE
  5
DE
330
1F
100
AcDbEntity
  8
0
  6
Continuous
 62
     1
370
    15
100
AcDbEllipse
 10
31.42814800674211
 20
0.000000000000005
 30
0.0
 11
5.667962401757751
 21
0.0
 31
0.0
210
0.0
220
0.0
230
1.0
 40
0.7002075382097117
 41
1.895669322537326
 42
1.900665343856184
  0
SPLINE
  5
E0
330
1F
100
AcDbEntity
  8
0
  6
Continuous
 62
     1
370
    15
100
AcDbSpline
210
0.0
220
0.0
230
1.0
 70
     8
 71
     3
 72
    14
 73
    10
 74
     0
 42
0.000000001
 43
0.00000001
 40
0.0
 40
0.0
 40
0.0
 40
0.0
 40
0.25
 40
0.25
 40
0.5
 40
0.5
 40
0.75
 40
0.75
 40
1.0
 40
1.0
 40
1.0
 40
1.0
 10
30.0
 20
1.729091443443292
 30
0.0
 10
30.0
 20
1.714218684463182
 30
0.0
 10
29.99309782736804
 20
1.706124818310967
 30
0.0
 10
29.95171700864459
 20
1.720993458947235
 30
0.0
 10
29.91640846430542
 20
1.745837113318514
 30
0.0
 10
29.8340014069273
 20
1.813249846940946
 30
0.0
 10
29.78962319179216
 20
1.852616461774941
 30
0.0
 10
29.70326537673861
 20
1.928970219756085
 30
0.0
 10
29.66031041834204
 20
1.966958016054694
 30
0.0
 10
29.619
 20
2.002541677879613
 30
0.0
  0
LINE
  5
E1
330
1F
100
AcDbEntity
  8
0
  6
Continuous
 62
     1
370
    15
100
AcDbLine
 10
30.0
 20
0.8567594102956575
 30
0.0
 11
30.0
 21
1.729091443443294
 31
0.0
  0
SPLINE
  5
E2
330
1F
100
AcDbEntity
  8
0
  6
Continuous
 62
     1
370
    15
100
AcDbSpline
210
0.0
220
0.0
230
1.0
 70
     8
 71
     3
 72
    13
 73
     9
 74
     0
 42
0.000000001
 43
0.00000001
 40
0.0
 40
0.0
 40
0.0
 40
0.0
 40
0.1919486490037282
 40
0.3840552924106276
 40
0.5756996929536213
 40
0.7674714166913109
 40
0.9596767955064754
 40
1.0
 40
1.0
 40
1.0
 40
1.0
 10
29.61899999999997
 20
2.002541677879627
 30
0.0
 10
29.35440626345303
 20
2.223286587927084
 30
0.0
 10
28.82500100122797
 20
2.66495810484819
 30
0.0
 10
28.03049591208939
 20
3.197958832656514
 30
0.0
 10
27.23797870139222
 20
3.613852623432751
 30
0.0
 10
26.44501299082594
 20
3.870326104508662
 30
0.0
 10
25.8589714852897
 20
3.983101145217274
 30
0.0
 10
25.53860079954731
 20
3.959671269747252
 30
0.0
 10
25.4830447363266
 20
3.955608252433886
 30
0.0
  0
SPLINE
  5
E3
330
1F
100
AcDbEntity
  8
0
  6
Continuous
 62
     1
370
    15
100
AcDbSpline
210
0.0
220
0.0
230
1.0
 70
     8
 71
     3
 72
    12
 73
     8
 74
     0
 42
0.000000001
 43
0.00000001
 40
0.0
 40
0.0
 40
0.0
 40
0.0
 40
0.1633270385561161
 40
0.3727693977924785
 40
0.5816924704404669
 40
0.7905178234195855
 40
1.0
 40
1.0
 40
1.0
 40
1.0
 10
14.41420648356613
 20
-3.713995794449003
 30
0.0
 10
14.22585875503879
 20
-3.776108235897082
 30
0.0
 10
13.79598339600818
 20
-3.917870540526549
 30
0.0
 10
13.12302440416997
 20
-3.987245905529628
 30
0.0
 10
12.39937677287868
 20
-3.942224829489595
 30
0.0
 10
11.67589005018911
 20
-3.770278364901591
 30
0.0
 10
11.19221650368777
 20
-3.55274762785654
 30
0.0
 10
10.9500000000017
 20
-3.443811476701619
 30
0.0
  0
LINE
  5
E4
330
1F
100
AcDbEntity
  8
0
  6
Continuous
 62
     1
370
    15
100
AcDbLine
 10
10.95
 20
-3.905850780069905
 30
0.0
 11
10.95
 21
-3.44381147670078
 31
0.0
  0
SPLINE
  5
E5
330
1F
100
AcDbEntity
  8
0
  6
Continuous
 62
     1
370
    15
100
AcDbSpline
210
0.0
220
0.0
230
1.0
 70
     8
 71
     3
 72
    14
 73
    10
 74
     0
 42
0.000000001
 43
0.00000001
 40
0.0
 40
0.0
 40
0.0
 40
0.0
 40
0.25
 40
0.25
 40
0.5
 40
0.5
 40
0.75
 40
0.75
 40
1.0
 40
1.0
 40
1.0
 40
1.0
 10
29.5921866688656
 20
3.754773968723948
 30
0.0
 10
29.58153046109522
 20
3.619628798656312
 30
0.0
 10
29.56144304747023
 20
3.48765432291879
 30
0.0
 10
29.49424042395927
 20
3.232791895657211
 30
0.0
 10
29.44578447656217
 20
3.107338353330321
 30
0.0
 10
29.3123330651823
 20
2.890753721050224
 30
0.0
 10
29.2263269951255
 20
2.799433886251117
 30
0.0
 10
29.02485087560176
 20
2.681699192392979
 30
0.0
 10
28.91147052588305
 20
2.657156332276739
 30
0.0
 10
28.80027689802649
 20
2.664314578412389
 30
0.0
  0
SPLINE
  5
E6
330
1F
100
AcDbEntity
  8
0
  6
Continuous
 62
     1
370
    15
100
AcDbSpline
210
0.0
220
0.0
230
1.0
 70
     8
 71
     3
 72
     8
 73
     4
 74
     0
 42
0.000000001
 43
0.00000001
 40
0.0
 40
0.0
 40
0.0
 40
0.0
 40
1.0
 40
1.0
 40
1.0
 40
1.0
 10
30.0
 20
2.06797096048698
 30
0.0
 10
29.60266445351132
 20
2.294108449434954
 30
0.0
 10
29.20259286701068
 20
2.49114663878047
 30
0.0
 10
28.80027689802649
 20
2.664314578412468
 30
0.0
  0
LINE
  5
E7
330
1F
100
AcDbEntity
  8
0
  6
Continuous
 62
     1
370
    15
100
AcDbLine
 10
30.0
 20
1.729091443443294
 30
0.0
 11
30.0
 21
2.06797096048698
 31
0.0
  0
SPLINE
  5
E8
330
1F
100
AcDbEntity
  8
0
  6
Continuous
 62
     1
370
    15
100
AcDbSpline
210
0.0
220
0.0
230
1.0
 70
    24
 71
     3
 72
    14
 73
    10
 74
     0
 42
0.000000001
 43
0.00000001
 40
0.0
 40
0.0
 40
0.0
 40
0.0
 40
0.25
 40
0.25
 40
0.5
 40
0.5
 40
0.75
 40
0.75
 40
1.0
 40
1.0
 40
1.0
 40
1.0
 10
10.95
 20
-1.343434057281412
 30
0.0
 10
10.95
 20
-1.361414975742276
 30
0.0
 10
10.95
 20
-1.401245740561921
 30
0.0
 10
10.95
 20
-1.558588090115063
 30
0.0
 10
10.95
 20
-1.677113140558114
 30
0.0
 10
10.95
 20
-2.023278590979156
 30
0.0
 10
10.95
 20
-2.252738451458728
 30
0.0
 10
10.95
 20
-2.80397973509514
 30
0.0
 10
10.95
 20
-3.125039800229756
 30
0.0
 10
10.95
 20
-3.44381147670078
 30
0.0
  0
SPLINE
  5
E9
330
1F
100
AcDbEntity
  8
0
  6
Continuous
 62
     1
370
    15
100
AcDbSpline
210
0.0
220
0.0
230
1.0
 70
     8
 71
     3
 72
    12
 73
     8
 74
     0
 42
0.000000001
 43
0.00000001
 40
0.0
 40
0.0
 40
0.0
 40
0.0
 40
0.2499999999999974
 40
0.2499999999999974
 40
0.4999999999999949
 40
0.4999999999999949
 40
1.0
 40
1.0
 40
1.0
 40
1.0
 10
30.0
 20
-2.588810217864543
 30
0.0
 10
30.0
 20
-2.615735941598156
 30
0.0
 10
29.98897666841254
 20
-2.649293657738541
 30
0.0
 10
29.94558760875418
 20
-2.72213951873381
 30
0.0
 10
29.91332517742197
 20
-2.7613427903006
 30
0.0
 10
29.79940382611064
 20
-2.872727703944906
 30
0.0
 10
29.70619765513723
 20
-2.935043385076924
 30
0.0
 10
29.61899999999972
 20
-2.977637725950328
 30
0.0
  0
LINE
  5
EA
330
1F
100
AcDbEntity
  8
0
  6
Continuous
 62
     1
370
    15
100
AcDbLine
 10
30.0
 20
-2.588810217864543
 30
0.0
 11
30.0
 21
-1.857887864618603
 31
0.0
  0
LINE
  5
EB
330
1F
100
AcDbEntity
  8
0
  6
Continuous
 62
     1
370
    15
100
AcDbLine
 10
30.0
 20
-0.8660254037844348
 30
0.0
 11
30.0
 21
-1.086052377163081
 31
0.0
  0
SPLINE
  5
EC
330
1F
100
AcDbEntity
  8
0
  6
Continuous
 62
     1
370
    15
100
AcDbSpline
210
0.0
220
0.0
230
1.0
 70
     8
 71
     3
 72
    12
 73
     8
 74
     0
 42
0.000000001
 43
0.00000001
 40
0.0
 40
0.0
 40
0.0
 40
0.0
 40
0.2499999999999973
 40
0.2499999999999973
 40
0.4999999999999947
 40
0.4999999999999947
 40
1.0
 40
1.0
 40
1.0
 40
1.0
 10
30.0
 20
3.445569628160202
 30
0.0
 10
30.0
 20
3.499421075627429
 30
0.0
 10
29.98897666841254
 20
3.553167466122595
 30
0.0
 10
29.94558760875418
 20
3.646237152115367
 30
0.0
 10
29.91332517742197
 20
3.685515978808292
 30
0.0
 10
29.79940382611064
 20
3.770122557185303
 30
0.0
 10
29.70619765513725
 20
3.781713938339019
 30
0.0
 10
29.61899999999972
 20
3.761149737131062
 30
0.0
  0
LINE
  5
ED
330
1F
100
AcDbEntity
  8
0
  6
Continuous
 62
     1
370
    15
100
AcDbLine
 10
30.0
 20
2.06797096048698
 30
0.0
 11
30.0
 21
3.445569628160202
 31
0.0
  0
LINE
  5
EE
330
1F
100
AcDbEntity
  8
0
  6
Continuous
 62
     1
370
    15
100
AcDbLine
 10
30.0
 20
-2.588810217864544
 30
0.0
 11
30.0
 21
-3.154023337650053
 31
0.0
  0
LINE
  5
EF
330
1F
100
AcDbEntity
  8
0
  6
Continuous
 62
     1
370
    15
100
AcDbLine
 10
30.0
 20
3.445569628160202
 30
0.0
 11
30.0
 21
3.586979308061892
 31
0.0
  0
LINE
  5
F1
330
1F
100
AcDbEntity
  8
중심선
100
AcDbLine
 10
-36.49999999999999
 20
0.0
 30
0.0
 11
33.00000000000001
 21
-0.0000000000000004
 31
0.0
  0
CIRCLE
  5
F2
330
1F
100
AcDbEntity
  8
외형선
100
AcDbCircle
 10
0.0
 20
0.0
 30
0.0
 40
3.000000000000001
  0
INSERT
  5
F3
330
1F
100
AcDbEntity
  8
0
  6
Continuous
 62
     7
100
AcDbBlockReference
 66
     1
  2
블럭10
 10
-15.67936049909348
 20
-51.78679627639981
 30
0.0
  0
ATTRIB
  5
F4
330
F3
100
AcDbEntity
  8
FORMAT
 62
     2
100
AcDbText
 10
-26.73038085127795
 20
-49.71142936356762
 30
0.0
 40
4.233333333333333
  1
GMG22020[ 6 FLUTE ]
 41
0.75
  7
SLDTEXTSTYLE0
 11
-26.73038085127795
 21
-51.82809603023428
 31
0.0
100
AcDbAttribute
  2
AUTOATTR0
 70
     0
 74
     1
  0
SEQEND
  5
F5
330
F3
100
AcDbEntity
  8
0
  6
Continuous
 62
     7
  0
HATCH
  5
F6
330
1F
100
AcDbEntity
  8
중심선
100
AcDbHatch
 10
0.0
 20
0.0
 30
0.0
210
0.0
220
0.0
230
1.0
  2
SOLID
 70
     1
 71
     0
 91
        1
 92
        0
 93
        4
 72
     1
 10
-9.964451194712634
 20
-35.53962197475587
 11
-13.41072643854991
 21
-35.53962197475587
 72
     1
 10
-13.41072643854991
 20
-35.53962197475587
 11
-15.53895629775394
 21
-38.07594755532847
 72
     1
 10
-15.53895629775394
 20
-38.07594755532847
 11
-12.0926479688035
 21
-38.07590812602598
 72
     1
 10
-12.0926479688035
 20
-38.07590812602598
 11
-9.964451194712634
 21
-35.53962197475587
 97
        0
 75
     0
 76
     1
 98
        1
 10
-0.0000000000000139
 20
0.2603780252441212
  0
HATCH
  5
F7
330
1F
100
AcDbEntity
  8
중심선
100
AcDbHatch
 10
0.0
 20
0.0
 30
0.0
210
0.0
220
0.0
230
1.0
  2
SOLID
 70
     1
 71
     0
 91
        1
 92
        0
 93
        4
 72
     1
 10
-4.951687203676683
 20
-35.53962197475587
 11
-8.397962447513965
 21
-35.53962197475587
 72
     1
 10
-8.397962447513965
 20
-35.53962197475587
 11
-12.92910045587135
 21
-40.93962197475589
 72
     1
 10
-12.92910045587135
 20
-40.93962197475589
 11
-9.482825212034072
 21
-40.93962197475589
 72
     1
 10
-9.482825212034072
 20
-40.93962197475589
 11
-4.951687203676683
 21
-35.53962197475587
 97
        0
 75
     0
 76
     1
 98
        1
 10
-0.0000000000000139
 20
0.2603780252441212
  0
HATCH
  5
F8
330
1F
100
AcDbEntity
  8
중심선
100
AcDbHatch
 10
0.0
 20
0.0
 30
0.0
210
0.0
220
0.0
230
1.0
  2
SOLID
 70
     1
 71
     0
 91
        1
 92
        0
 93
        4
 72
     1
 10
0.0610767873592127
 20
-35.53962197475591
 11
-3.385198456477903
 21
-35.53962197475587
 72
     1
 10
-3.385198456477903
 20
-35.53962197475587
 11
-10.43363535836715
 21
-43.93962197475589
 72
     1
 10
-10.43363535836715
 20
-43.93962197475589
 11
-6.98736011452987
 21
-43.93962197475589
 72
     1
 10
-6.98736011452987
 20
-43.93962197475589
 11
0.0610767873592124
 21
-35.53962197475591
 97
        0
 75
     0
 76
     1
 98
        1
 10
-0.0000000000000139
 20
0.2603780252441212
  0
HATCH
  5
F9
330
1F
100
AcDbEntity
  8
중심선
100
AcDbHatch
 10
0.0
 20
0.0
 30
0.0
210
0.0
220
0.0
230
1.0
  2
SOLID
 70
     1
 71
     0
 91
        1
 92
        0
 93
        6
 72
     3
 10
4.860967218371412
 20
-39.73962197480715
 11
3.960054785062285
 21
1.540882976769353E-10
 40
0.3939339440162626
 50
17.09539180608438
 51
320.0019657685079
 73
     0
 72
     1
 10
6.543966874072007
 20
-38.32751597939418
 11
8.849268747773046
 21
-36.39318926934626
 72
     3
 10
4.860967218318565
 20
-39.73962197475603
 11
6.600054785286829
 21
-1.278976924368180E-13
 40
0.636358354079598
 50
39.9987384933741
 51
368.4976242363725
 73
     1
 72
     1
 10
11.28629971021918
 20
-38.7796219746859
 11
3.541034525154488
 21
-38.77962197468587
 72
     1
 10
3.541034525154488
 20
-38.77962197468587
 11
3.541009480708554
 21
-40.69962197468579
 72
     1
 10
3.541009480708554
 20
-40.69962197468579
 11
7.98238925018059
 21
-40.69962197468575
 97
        0
 75
     0
 76
     1
 98
        1
 10
-0.0000000000000139
 20
0.2603780252441212
  0
POINT
  5
FA
330
1F
100
AcDbEntity
  8
치수문자_일반주서
100
AcDbPoint
 10
0.0
 20
0.0
 30
0.0
  0
DIMENSION
  5
FB
330
1F
100
AcDbEntity
  8
치수문자_일반주서
100
AcDbDimension
  2
_D
 10
30.0
 20
38.16012647970988
 30
0.0
 11
0.1299625959431724
 21
38.16012647970988
 31
0.0
 70
   160
  1
<>
 71
     2
 42
63.5
  3
SLDDIMSTYLE0
100
AcDbAlignedDimension
 13
-33.50000000000001
 23
3.46875
 33
0.0
 14
30.0
 24
3.445569628160202
 34
0.0
 50
-0.0000000000000064
100
AcDbRotatedDimension
1001
ACAD
1000
DSTYLE
1002
{
1070
   171
1070
     4
1070
   273
1070
     7
1002
}
  0
DIMENSION
  5
10F
330
1F
100
AcDbEntity
  8
치수문자_일반주서
100
AcDbDimension
  2
_D_1
 10
44.71795635494107
 20
-3.968749999999938
 30
0.0
 11
44.71795635494106
 21
0.0000000000000041
 31
0.0
 70
   160
  1
%%c<>
 71
     2
 42
7.9375
 52
-270.0
  3
SLDDIMSTYLE1
100
AcDbAlignedDimension
 13
29.619
 23
3.968750000000005
 33
0.0
 14
29.619
 24
-3.968749999999995
 34
0.0
 50
90.0000000000002
100
AcDbRotatedDimension
1001
ACAD
1000
DSTYLE
1002
{
1070
   171
1070
     4
1070
   273
1070
     7
1002
}
  0
DIMENSION
  5
124
330
1F
100
AcDbEntity
  8
치수문자_일반주서
100
AcDbDimension
  2
_D_2
 10
10.95000000000169
 20
23.30257487264527
 30
0.0
 11
20.27381876834919
 21
23.30257487264527
 31
0.0
 70
   160
  1
<>
 71
     2
 42
19.0499999999983
  3
SLDDIMSTYLE1
100
AcDbAlignedDimension
 13
30.0
 23
3.445569628160202
 33
0.0
 14
10.9500000000017
 24
-3.905850780080652
 34
0.0
100
AcDbRotatedDimension
1001
ACAD
1000
DSTYLE
1002
{
1070
   171
1070
     4
1070
   273
1070
     7
1002
}
  0
DIMENSION
  5
139
330
1F
100
AcDbEntity
  8
치수문자_일반주서
100
AcDbDimension
  2
_D_3
 10
-46.5
 20
-3.968750000000048
 30
0.0
 11
-46.50000000000001
 21
-0.0000000000000305
 31
0.0
 70
   160
  1
%%c<>
 71
     2
 42
7.9375
 52
-270.0
  3
SLDDIMSTYLE1
100
AcDbAlignedDimension
 13
-33.00000000000001
 23
3.968750000000002
 33
0.0
 14
-33.00000000000001
 24
-3.968749999999998
 34
0.0
 50
90.0000000000002
100
AcDbRotatedDimension
1001
ACAD
1000
DSTYLE
1002
{
1070
   171
1070
     4
1070
   273
1070
     7
1002
}
  0
INSERT
  5
153
330
1F
100
AcDbEntity
  8
외형선
100
AcDbBlockReference
  2
SW_DOWELSYMBOL_0
 10
0.0
 20
0.0
 30
0.0
  0
ARC
  5
179
330
1F
100
AcDbEntity
  8
0
  6
Continuous
 62
     1
370
    15
100
AcDbCircle
 10
29.619
 20
3.587750000000005
 30
0.0
 40
0.3809999999999999
100
AcDbArc
 50
359.9418231980076
 51
90.0
  0
ARC
  5
17A
330
1F
100
AcDbEntity
  8
0
  6
Continuous
 62
     1
370
    15
100
AcDbCircle
 10
29.619
 20
-3.587749999999996
 30
0.0
 40
0.3809999999999999
100
AcDbArc
 50
270.0
 51
0.058176802194311
  0
SPLINE
  5
17B
330
1F
100
AcDbEntity
  8
0
  6
Continuous
 62
     1
370
    15
100
AcDbSpline
210
0.0
220
0.0
230
1.0
 70
     8
 71
     3
 72
     8
 73
     4
 74
     0
 42
0.000000001
 43
0.00000001
 40
0.941319357680682
 40
0.941319357680682
 40
0.941319357680682
 40
0.941319357680682
 40
1.0
 40
1.0
 40
1.0
 40
1.0
 10
29.64834290780658
 20
-3.967618390052989
 30
0.0
 10
29.63848358047781
 20
-3.968394621957027
 30
0.0
 10
29.62869648753115
 20
-3.968745603261923
 30
0.0
 10
29.619
 20
-3.968694391980608
 30
0.0
  0
DIMENSION
  5
17D
330
1F
100
AcDbEntity
  8
치수문자_일반주서
100
AcDbDimension
  2
*D7
 10
29.619
 20
3.587750000000005
 30
0.0
 11
45.66223073441793
 21
22.4303494672086
 31
0.0
 70
   164
  1
<>
 71
     5
 42
0.3810000000000048
  3
SLDDIMSTYLE1
100
AcDbRadialDimension
 15
29.86599547669369
 25
3.877843492675832
 35
0.0
 40
0.0
1001
ACAD
1000
DSTYLE
1002
{
1070
   171
1070
     3
1070
   273
1070
     2
1002
}
1001
ACAD_DSTYLE_DIMRADIAL_EXTENSION
1070
   387
1070
     1
1070
   388
1040
6.282169930436539
1070
   390
1040
1.570796326794897
  0
ENDSEC
  0
SECTION
  2
OBJECTS
  0
DICTIONARY
  5
C
330
0
100
AcDbDictionary
281
     1
  3
ACAD_GROUP
350
D
  3
ACAD_IMAGE_VARS
350
177
  3
ACAD_LAYOUT
350
1A
  3
ACAD_MLINESTYLE
350
17
  3
ACAD_PLOTSETTINGS
350
19
  3
ACAD_PLOTSTYLENAME
350
E
  3
ACAD_SCALELIST
350
47
  3
APPDATA
350
175
  3
DWGPROPS
350
1AD
  0
DICTIONARY
  5
D
102
{ACAD_REACTORS
330
C
102
}
330
C
100
AcDbDictionary
281
     1
  0
RASTERVARIABLES
  5
177
102
{ACAD_REACTORS
330
C
102
}
330
C
100
AcDbRasterVariables
 90
        0
 70
     1
 71
     1
 72
     1
  0
DICTIONARY
  5
1A
102
{ACAD_REACTORS
330
C
102
}
330
C
100
AcDbDictionary
281
     1
  3
Layout1
350
1E
  3
Layout2
350
26
  3
Model
350
22
  0
DICTIONARY
  5
17
102
{ACAD_REACTORS
330
C
102
}
330
C
100
AcDbDictionary
281
     1
  3
Standard
350
18
  0
DICTIONARY
  5
19
102
{ACAD_REACTORS
330
C
102
}
330
C
100
AcDbDictionary
281
     1
  0
ACDBDICTIONARYWDFLT
  5
E
102
{ACAD_REACTORS
330
C
102
}
330
C
100
AcDbDictionary
281
     1
  3
Normal
350
F
100
AcDbDictionaryWithDefault
340
F
  0
DICTIONARY
  5
47
102
{ACAD_REACTORS
330
C
102
}
330
C
100
AcDbDictionary
281
     1
  3
A0
350
48
  3
A1
350
49
  3
A2
350
4A
  3
A3
350
4B
  3
A4
350
4C
  3
A5
350
4D
  3
A6
350
4E
  3
A7
350
4F
  3
A8
350
50
  3
A9
350
51
  3
B0
350
52
  3
B1
350
53
  3
B2
350
54
  3
B3
350
55
  3
B4
350
56
  3
B5
350
57
  3
B6
350
58
  3
B7
350
59
  3
B8
350
5A
  3
B9
350
5B
  3
C0
350
5C
  3
C1
350
5D
  3
C2
350
5E
  3
C3
350
5F
  3
C4
350
60
  3
C5
350
61
  3
C6
350
62
  3
C7
350
63
  3
C8
350
64
  3
C9
350
65
  3
D0
350
66
  3
D1
350
67
  3
D2
350
68
  0
DICTIONARY
  5
175
102
{ACAD_REACTORS
330
C
102
}
330
C
100
AcDbDictionary
281
     1
  0
XRECORD
  5
1AD
102
{ACAD_REACTORS
330
C
102
}
330
C
100
AcDbXrecord
280
     1
  1
DWGPROPS COOKIE
  2

  3

  4

  6

  7

  8
12016016
  9

300
=
301
=
302
=
303
=
304
=
305
=
306
=
307
=
308
=
309
=
 40
0.0
 41
2458236.35146213
 42
2458241.195138634
  1

 90
        0
  0
LAYOUT
  5
1E
102
{ACAD_REACTORS
330
1A
102
}
330
1A
100
AcDbPlotSettings
  1

  2
none_device
  4

  6

 40
0.0
 41
0.0
 42
0.0
 43
0.0
 44
0.0
 45
0.0
 46
0.0
 47
0.0
 48
0.0
 49
0.0
140
0.0
141
0.0
142
1.0
143
1.0
 70
   688
 72
     1
 73
     0
 74
     5
  7

 75
    16
147
1.0
148
0.0
149
0.0
100
AcDbLayout
  1
Layout1
 70
     1
 71
     1
 10
0.0
 20
0.0
 11
420.0
 21
297.0
 12
0.0
 22
0.0
 32
0.0
 14
1.000000000000000E+20
 24
1.000000000000000E+20
 34
1.000000000000000E+20
 15
-1.000000000000000E+20
 25
-1.000000000000000E+20
 35
-1.000000000000000E+20
146
0.0
 13
0.0
 23
0.0
 33
0.0
 16
1.0
 26
0.0
 36
0.0
 17
0.0
 27
1.0
 37
0.0
 76
     0
330
1B
  0
LAYOUT
  5
26
102
{ACAD_REACTORS
330
1A
102
}
330
1A
100
AcDbPlotSettings
  1

  2
none_device
  4

  6

 40
0.0
 41
0.0
 42
0.0
 43
0.0
 44
0.0
 45
0.0
 46
0.0
 47
0.0
 48
0.0
 49
0.0
140
0.0
141
0.0
142
1.0
143
1.0
 70
   688
 72
     1
 73
     0
 74
     5
  7

 75
    16
147
1.0
148
0.0
149
0.0
100
AcDbLayout
  1
Layout2
 70
     1
 71
     2
 10
0.0
 20
0.0
 11
0.0
 21
0.0
 12
0.0
 22
0.0
 32
0.0
 14
0.0
 24
0.0
 34
0.0
 15
0.0
 25
0.0
 35
0.0
146
0.0
 13
0.0
 23
0.0
 33
0.0
 16
1.0
 26
0.0
 36
0.0
 17
0.0
 27
1.0
 37
0.0
 76
     0
330
23
  0
LAYOUT
  5
22
102
{ACAD_REACTORS
330
1A
102
}
330
1A
100
AcDbPlotSettings
  1

  2
none_device
  4
ANSI_A_(11.00_x_8.50_Inches)
  6

 40
6.35
 41
19.05
 42
6.35000508
 43
19.05000254
 44
279.4
 45
215.9
 46
145.7937951649626
 47
91.07500901209602
 48
0.0
 49
0.0
140
0.0
141
0.0
142
0.0846507912901715
143
1.0
 70
  1696
 72
     0
 73
     0
 74
     0
  7

 75
     0
147
0.0235690232323232
148
0.0
149
0.0
100
AcDbLayout
  1
Model
 70
     1
 71
     0
 10
0.0
 20
0.0
 11
420.0
 21
297.0
 12
0.0
 22
0.0
 32
0.0
 14
-50.87500000000006
 24
-49.71142936356762
 34
0.0
 15
54.7381800092516
 25
42.53512647970988
 35
0.0
146
0.0
 13
0.0
 23
0.0
 33
0.0
 16
1.0
 26
0.0
 36
0.0
 17
0.0
 27
1.0
 37
0.0
 76
     0
330
1F
331
29
  0
MLINESTYLE
  5
18
102
{ACAD_REACTORS
330
17
102
}
330
17
100
AcDbMlineStyle
  2
Standard
 70
     0
  3

 62
   256
 51
90.0
 52
90.0
 71
     2
 49
0.5
 62
   256
  6
BYLAYER
 49
-0.5
 62
   256
  6
BYLAYER
  0
ACDBPLACEHOLDER
  5
F
102
{ACAD_REACTORS
330
E
102
}
330
E
  0
SCALE
  5
48
102
{ACAD_REACTORS
330
47
102
}
330
47
100
AcDbScale
 70
     0
300
1:1
140
1.0
141
1.0
290
     1
  0
SCALE
  5
49
102
{ACAD_REACTORS
330
47
102
}
330
47
100
AcDbScale
 70
     0
300
1:2
140
1.0
141
2.0
290
     0
  0
SCALE
  5
4A
102
{ACAD_REACTORS
330
47
102
}
330
47
100
AcDbScale
 70
     0
300
1:4
140
1.0
141
4.0
290
     0
  0
SCALE
  5
4B
102
{ACAD_REACTORS
330
47
102
}
330
47
100
AcDbScale
 70
     0
300
1:5
140
1.0
141
5.0
290
     0
  0
SCALE
  5
4C
102
{ACAD_REACTORS
330
47
102
}
330
47
100
AcDbScale
 70
     0
300
1:8
140
1.0
141
8.0
290
     0
  0
SCALE
  5
4D
102
{ACAD_REACTORS
330
47
102
}
330
47
100
AcDbScale
 70
     0
300
1:10
140
1.0
141
10.0
290
     0
  0
SCALE
  5
4E
102
{ACAD_REACTORS
330
47
102
}
330
47
100
AcDbScale
 70
     0
300
1:16
140
1.0
141
16.0
290
     0
  0
SCALE
  5
4F
102
{ACAD_REACTORS
330
47
102
}
330
47
100
AcDbScale
 70
     0
300
1:20
140
1.0
141
20.0
290
     0
  0
SCALE
  5
50
102
{ACAD_REACTORS
330
47
102
}
330
47
100
AcDbScale
 70
     0
300
1:30
140
1.0
141
30.0
290
     0
  0
SCALE
  5
51
102
{ACAD_REACTORS
330
47
102
}
330
47
100
AcDbScale
 70
     0
300
1:40
140
1.0
141
40.0
290
     0
  0
SCALE
  5
52
102
{ACAD_REACTORS
330
47
102
}
330
47
100
AcDbScale
 70
     0
300
1:50
140
1.0
141
50.0
290
     0
  0
SCALE
  5
53
102
{ACAD_REACTORS
330
47
102
}
330
47
100
AcDbScale
 70
     0
300
1:100
140
1.0
141
100.0
290
     0
  0
SCALE
  5
54
102
{ACAD_REACTORS
330
47
102
}
330
47
100
AcDbScale
 70
     0
300
2:1
140
2.0
141
1.0
290
     0
  0
SCALE
  5
55
102
{ACAD_REACTORS
330
47
102
}
330
47
100
AcDbScale
 70
     0
300
4:1
140
4.0
141
1.0
290
     0
  0
SCALE
  5
56
102
{ACAD_REACTORS
330
47
102
}
330
47
100
AcDbScale
 70
     0
300
8:1
140
8.0
141
1.0
290
     0
  0
SCALE
  5
57
102
{ACAD_REACTORS
330
47
102
}
330
47
100
AcDbScale
 70
     0
300
10:1
140
10.0
141
1.0
290
     0
  0
SCALE
  5
58
102
{ACAD_REACTORS
330
47
102
}
330
47
100
AcDbScale
 70
     0
300
100:1
140
100.0
141
1.0
290
     0
  0
SCALE
  5
59
102
{ACAD_REACTORS
330
47
102
}
330
47
100
AcDbScale
 70
     0
300
1/128" = 1'-0"
140
0.0078125
141
12.0
290
     0
  0
SCALE
  5
5A
102
{ACAD_REACTORS
330
47
102
}
330
47
100
AcDbScale
 70
     0
300
1/64" = 1'-0"
140
0.015625
141
12.0
290
     0
  0
SCALE
  5
5B
102
{ACAD_REACTORS
330
47
102
}
330
47
100
AcDbScale
 70
     0
300
1/32" = 1'-0"
140
0.03125
141
12.0
290
     0
  0
SCALE
  5
5C
102
{ACAD_REACTORS
330
47
102
}
330
47
100
AcDbScale
 70
     0
300
1/16" = 1'-0"
140
0.0625
141
12.0
290
     0
  0
SCALE
  5
5D
102
{ACAD_REACTORS
330
47
102
}
330
47
100
AcDbScale
 70
     0
300
3/32" = 1'-0"
140
0.09375
141
12.0
290
     0
  0
SCALE
  5
5E
102
{ACAD_REACTORS
330
47
102
}
330
47
100
AcDbScale
 70
     0
300
1/8" = 1'-0"
140
0.125
141
12.0
290
     0
  0
SCALE
  5
5F
102
{ACAD_REACTORS
330
47
102
}
330
47
100
AcDbScale
 70
     0
300
3/16" = 1'-0"
140
0.1875
141
12.0
290
     0
  0
SCALE
  5
60
102
{ACAD_REACTORS
330
47
102
}
330
47
100
AcDbScale
 70
     0
300
1/4" = 1'-0"
140
0.25
141
12.0
290
     0
  0
SCALE
  5
61
102
{ACAD_REACTORS
330
47
102
}
330
47
100
AcDbScale
 70
     0
300
3/8" = 1'-0"
140
0.375
141
12.0
290
     0
  0
SCALE
  5
62
102
{ACAD_REACTORS
330
47
102
}
330
47
100
AcDbScale
 70
     0
300
1/2" = 1'-0"
140
0.5
141
12.0
290
     0
  0
SCALE
  5
63
102
{ACAD_REACTORS
330
47
102
}
330
47
100
AcDbScale
 70
     0
300
3/4" = 1'-0"
140
0.75
141
12.0
290
     0
  0
SCALE
  5
64
102
{ACAD_REACTORS
330
47
102
}
330
47
100
AcDbScale
 70
     0
300
1" = 1'-0"
140
1.0
141
12.0
290
     0
  0
SCALE
  5
65
102
{ACAD_REACTORS
330
47
102
}
330
47
100
AcDbScale
 70
     0
300
1-1/2" = 1'-0"
140
1.5
141
12.0
290
     0
  0
SCALE
  5
66
102
{ACAD_REACTORS
330
47
102
}
330
47
100
AcDbScale
 70
     0
300
3" = 1'-0"
140
3.0
141
12.0
290
     0
  0
SCALE
  5
67
102
{ACAD_REACTORS
330
47
102
}
330
47
100
AcDbScale
 70
     0
300
6" = 1'-0"
140
6.0
141
12.0
290
     0
  0
SCALE
  5
68
102
{ACAD_REACTORS
330
47
102
}
330
47
100
AcDbScale
 70
     0
300
1'-0" = 1'-0"
140
12.0
141
12.0
290
     0
  0
ENDSEC
  0
EOF
