  0
SECTION
  2
HEADER
  9
$ACADVER
  1
AC1015
  9
$ACADMAINTVER
 70
     6
  9
$DWGCODEPAGE
  3
ANSI_949
  9
$INSBASE
 10
0.0
 20
0.0
 30
0.0
  9
$EXTMIN
 10
-50.87500000000004
 20
-49.71142936356762
 30
0.0
  9
$EXTMAX
 10
50.24591423857419
 20
41.74137647970986
 30
0.0
  9
$LIMMIN
 10
0.0
 20
0.0
  9
$LIMMAX
 10
420.0
 20
297.0
  9
$ORTHOMODE
 70
     1
  9
$REGENMODE
 70
     1
  9
$FILLMODE
 70
     1
  9
$QTEXTMODE
 70
     0
  9
$MIRRTEXT
 70
     1
  9
$LTSCALE
 40
1.0
  9
$ATTMODE
 70
     1
  9
$TEXTSIZE
 40
3.5
  9
$TRACEWID
 40
1.0
  9
$TEXTSTYLE
  7
Standard
  9
$CLAYER
  8
0
  9
$CELTYPE
  6
ByLayer
  9
$CECOLOR
 62
   256
  9
$CELTSCALE
 40
1.0
  9
$DISPSILH
 70
     0
  9
$DIMSCALE
 40
1.0
  9
$DIMASZ
 40
3.302
  9
$DIMEXO
 40
1.0
  9
$DIMDLI
 40
3.75
  9
$DIMRND
 40
0.0
  9
$DIMDLE
 40
0.0
  9
$DIMEXE
 40
1.0
  9
$DIMTP
 40
0.0
  9
$DIMTM
 40
0.0
  9
$DIMTXT
 40
3.5
  9
$DIMCEN
 40
2.5
  9
$DIMTSZ
 40
0.0
  9
$DIMTOL
 70
     0
  9
$DIMLIM
 70
     0
  9
$DIMTIH
 70
     1
  9
$DIMTOH
 70
     1
  9
$DIMSE1
 70
     0
  9
$DIMSE2
 70
     0
  9
$DIMTAD
 70
     1
  9
$DIMZIN
 70
     0
  9
$DIMBLK
  1

  9
$DIMASO
 70
     1
  9
$DIMSHO
 70
     1
  9
$DIMPOST
  1

  9
$DIMAPOST
  1

  9
$DIMALT
 70
     0
  9
$DIMALTD
 70
     3
  9
$DIMALTF
 40
0.0393700787401575
  9
$DIMLFAC
 40
1.0
  9
$DIMTOFL
 70
     1
  9
$DIMTVP
 40
0.0
  9
$DIMTIX
 70
     0
  9
$DIMSOXD
 70
     0
  9
$DIMSAH
 70
     0
  9
$DIMBLK1
  1

  9
$DIMBLK2
  1

  9
$DIMSTYLE
  2
ISO-25
  9
$DIMCLRD
 70
     0
  9
$DIMCLRE
 70
     0
  9
$DIMCLRT
 70
     0
  9
$DIMTFAC
 40
1.0
  9
$DIMGAP
 40
1.524
  9
$DIMJUST
 70
     0
  9
$DIMSD1
 70
     0
  9
$DIMSD2
 70
     0
  9
$DIMTOLJ
 70
     0
  9
$DIMTZIN
 70
     0
  9
$DIMALTZ
 70
     0
  9
$DIMALTTZ
 70
     0
  9
$DIMUPT
 70
     0
  9
$DIMDEC
 70
     2
  9
$DIMTDEC
 70
     2
  9
$DIMALTU
 70
     2
  9
$DIMALTTD
 70
     3
  9
$DIMTXSTY
  7
Standard
  9
$DIMAUNIT
 70
     0
  9
$DIMADEC
 70
     2
  9
$DIMALTRND
 40
0.0
  9
$DIMAZIN
 70
     0
  9
$DIMDSEP
 70
    44
  9
$DIMATFIT
 70
     3
  9
$DIMFRAC
 70
     0
  9
$DIMLDRBLK
  1

  9
$DIMLUNIT
 70
     2
  9
$DIMLWD
 70
    -2
  9
$DIMLWE
 70
    -2
  9
$DIMTMOVE
 70
     0
  9
$LUNITS
 70
     2
  9
$LUPREC
 70
     2
  9
$SKETCHINC
 40
1.0
  9
$FILLETRAD
 40
10.0
  9
$AUNITS
 70
     0
  9
$AUPREC
 70
     2
  9
$MENU
  1
.
  9
$ELEVATION
 40
0.0
  9
$PELEVATION
 40
0.0
  9
$THICKNESS
 40
0.0
  9
$LIMCHECK
 70
     0
  9
$CHAMFERA
 40
0.0
  9
$CHAMFERB
 40
0.0
  9
$CHAMFERC
 40
0.0
  9
$CHAMFERD
 40
0.0
  9
$SKPOLY
 70
     0
  9
$TDCREATE
 40
2458236.726336088
  9
$TDUCREATE
 40
2458236.351336088
  9
$TDUPDATE
 40
2458241.56985316
  9
$TDUUPDATE
 40
2458241.19485316
  9
$TDINDWG
 40
0.0006398958
  9
$TDUSRTIMER
 40
2458241.194535868
  9
$USRTIMER
 70
     1
  9
$ANGBASE
 50
0.0
  9
$ANGDIR
 70
     0
  9
$PDMODE
 70
     0
  9
$PDSIZE
 40
-1.0
  9
$PLINEWID
 40
0.0
  9
$SPLFRAME
 70
     0
  9
$SPLINETYPE
 70
     6
  9
$SPLINESEGS
 70
     8
  9
$HANDSEED
  5
1BD
  9
$SURFTAB1
 70
     6
  9
$SURFTAB2
 70
     6
  9
$SURFTYPE
 70
     6
  9
$SURFU
 70
     6
  9
$SURFV
 70
     6
  9
$UCSBASE
  2

  9
$UCSNAME
  2

  9
$UCSORG
 10
0.0
 20
0.0
 30
0.0
  9
$UCSXDIR
 10
1.0
 20
0.0
 30
0.0
  9
$UCSYDIR
 10
0.0
 20
1.0
 30
0.0
  9
$UCSORTHOREF
  2

  9
$UCSORTHOVIEW
 70
     0
  9
$UCSORGTOP
 10
0.0
 20
0.0
 30
0.0
  9
$UCSORGBOTTOM
 10
0.0
 20
0.0
 30
0.0
  9
$UCSORGLEFT
 10
0.0
 20
0.0
 30
0.0
  9
$UCSORGRIGHT
 10
0.0
 20
0.0
 30
0.0
  9
$UCSORGFRONT
 10
0.0
 20
0.0
 30
0.0
  9
$UCSORGBACK
 10
0.0
 20
0.0
 30
0.0
  9
$PUCSBASE
  2

  9
$PUCSNAME
  2

  9
$PUCSORG
 10
0.0
 20
0.0
 30
0.0
  9
$PUCSXDIR
 10
1.0
 20
0.0
 30
0.0
  9
$PUCSYDIR
 10
0.0
 20
1.0
 30
0.0
  9
$PUCSORTHOREF
  2

  9
$PUCSORTHOVIEW
 70
     0
  9
$PUCSORGTOP
 10
0.0
 20
0.0
 30
0.0
  9
$PUCSORGBOTTOM
 10
0.0
 20
0.0
 30
0.0
  9
$PUCSORGLEFT
 10
0.0
 20
0.0
 30
0.0
  9
$PUCSORGRIGHT
 10
0.0
 20
0.0
 30
0.0
  9
$PUCSORGFRONT
 10
0.0
 20
0.0
 30
0.0
  9
$PUCSORGBACK
 10
0.0
 20
0.0
 30
0.0
  9
$USERI1
 70
     0
  9
$USERI2
 70
     0
  9
$USERI3
 70
     0
  9
$USERI4
 70
     0
  9
$USERI5
 70
     0
  9
$USERR1
 40
0.0
  9
$USERR2
 40
0.0
  9
$USERR3
 40
0.0
  9
$USERR4
 40
0.0
  9
$USERR5
 40
0.0
  9
$WORLDVIEW
 70
     1
  9
$SHADEDGE
 70
     3
  9
$SHADEDIF
 70
    70
  9
$TILEMODE
 70
     1
  9
$MAXACTVP
 70
    64
  9
$PINSBASE
 10
0.0
 20
0.0
 30
0.0
  9
$PLIMCHECK
 70
     0
  9
$PEXTMIN
 10
1.000000000000000E+20
 20
1.000000000000000E+20
 30
1.000000000000000E+20
  9
$PEXTMAX
 10
-1.000000000000000E+20
 20
-1.000000000000000E+20
 30
-1.000000000000000E+20
  9
$PLIMMIN
 10
0.0
 20
0.0
  9
$PLIMMAX
 10
0.0
 20
0.0
  9
$UNITMODE
 70
     0
  9
$VISRETAIN
 70
     1
  9
$PLINEGEN
 70
     0
  9
$PSLTSCALE
 70
     1
  9
$TREEDEPTH
 70
  3020
  9
$CMLSTYLE
  2
Standard
  9
$CMLJUST
 70
     0
  9
$CMLSCALE
 40
20.0
  9
$PROXYGRAPHICS
 70
     1
  9
$MEASUREMENT
 70
     1
  9
$CELWEIGHT
370
    -1
  9
$ENDCAPS
280
     0
  9
$JOINSTYLE
280
     0
  9
$LWDISPLAY
290
     1
  9
$INSUNITS
 70
     4
  9
$HYPERLINKBASE
  1

  9
$STYLESHEET
  1

  9
$XEDIT
290
     1
  9
$CEPSNTYPE
380
     0
  9
$PSTYLEMODE
290
     1
  9
$FINGERPRINTGUID
  2
{8F2AF723-2496-42FC-AABF-E23D10D2DC44}
  9
$VERSIONGUID
  2
{FAEB1C32-E019-11D5-929B-00C0DF256EC4}
  9
$EXTNAMES
290
     1
  9
$PSVPSCALE
 40
0.0
  9
$OLESTARTUP
290
     0
  0
ENDSEC
  0
SECTION
  2
CLASSES
  0
CLASS
  1
ACDBDICTIONARYWDFLT
  2
AcDbDictionaryWithDefault
  3
ObjectDBX Classes
 90
        0
280
     0
281
     0
  0
CLASS
  1
VISUALSTYLE
  2
AcDbVisualStyle
  3
ObjectDBX Classes
 90
     4095
280
     0
281
     0
  0
CLASS
  1
MATERIAL
  2
AcDbMaterial
  3
ObjectDBX Classes
 90
     1153
280
     0
281
     0
  0
CLASS
  1
SCALE
  2
AcDbScale
  3
ObjectDBX Classes
 90
     1153
280
     0
281
     0
  0
CLASS
  1
SUN
  2
AcDbSun
  3
SCENEOE
 90
     1153
280
     0
281
     0
  0
CLASS
  1
ACDBPLACEHOLDER
  2
AcDbPlaceHolder
  3
ObjectDBX Classes
 90
        0
280
     0
281
     0
  0
CLASS
  1
LAYOUT
  2
AcDbLayout
  3
ObjectDBX Classes
 90
        0
280
     0
281
     0
  0
CLASS
  1
TABLESTYLE
  2
AcDbTableStyle
  3
ObjectDBX Classes
 90
     4095
280
     0
281
     0
  0
CLASS
  1
MLEADERSTYLE
  2
AcDbMLeaderStyle
  3
ACDB_MLEADERSTYLE_CLASS
 90
     4095
280
     0
281
     0
  0
CLASS
  1
RASTERVARIABLES
  2
AcDbRasterVariables
  3
ISM
 90
        0
280
     0
281
     0
  0
CLASS
  1
DIMASSOC
  2
AcDbDimAssoc
  3
"AcDbDimAssoc|Product Desc:     AcDim ARX App For Dimension|Company:          Autodesk, Inc.|WEB Address:      www.autodesk.com"
 90
        0
280
     0
281
     0
  0
ENDSEC
  0
SECTION
  2
TABLES
  0
TABLE
  2
VPORT
  5
8
330
0
100
AcDbSymbolTable
 70
     1
  0
VPORT
  5
29
330
8
100
AcDbSymbolTableRecord
100
AcDbViewportTableRecord
  2
*Active
 70
     0
 10
0.0
 20
0.0
 11
1.0
 21
1.0
 12
150.3850999626489
 22
29.76489440465584
 13
0.0
 23
0.0
 14
10.0
 24
10.0
 15
10.0
 25
10.0
 16
0.0
 26
0.0
 36
1.0
 17
0.0
 27
0.0
 37
0.0
 40
389.0499164982059
 41
1.321695760598504
 42
50.0
 43
0.0
 44
0.0
 50
0.0
 51
0.0
 71
    16
 72
  2000
 73
     1
 74
     3
 75
     0
 76
     0
 77
     0
 78
     0
281
     0
 65
     1
110
0.0
120
0.0
130
0.0
111
1.0
121
0.0
131
0.0
112
0.0
122
1.0
132
0.0
 79
     0
146
0.0
  0
ENDTAB
  0
TABLE
  2
LTYPE
  5
5
330
0
100
AcDbSymbolTable
 70
     6
  0
LTYPE
  5
14
330
5
100
AcDbSymbolTableRecord
100
AcDbLinetypeTableRecord
  2
ByBlock
 70
     0
  3

 72
    65
 73
     0
 40
0.0
  0
LTYPE
  5
15
330
5
100
AcDbSymbolTableRecord
100
AcDbLinetypeTableRecord
  2
ByLayer
 70
     0
  3

 72
    65
 73
     0
 40
0.0
  0
LTYPE
  5
16
330
5
100
AcDbSymbolTableRecord
100
AcDbLinetypeTableRecord
  2
Continuous
 70
     0
  3
Solid line
 72
    65
 73
     0
 40
0.0
  0
LTYPE
  5
6A
330
5
100
AcDbSymbolTableRecord
100
AcDbLinetypeTableRecord
  2
HIDDEN
 70
     0
  3
Hidden __ __ __ __ __ __ __ __ __ __ __ __ __ __
 72
    65
 73
     2
 40
1.905
 49
1.27
 74
     0
 49
-0.635
 74
     0
  0
LTYPE
  5
6B
330
5
100
AcDbSymbolTableRecord
100
AcDbLinetypeTableRecord
  2
PHANTOM
 70
     0
  3
Phantom ______  __  __  ______  __  __  ______
 72
    65
 73
     6
 40
12.7
 49
6.35
 74
     0
 49
-1.27
 74
     0
 49
1.27
 74
     0
 49
-1.27
 74
     0
 49
1.27
 74
     0
 49
-1.27
 74
     0
  0
LTYPE
  5
6C
330
5
100
AcDbSymbolTableRecord
100
AcDbLinetypeTableRecord
  2
CENTER
 70
     0
  3
Center ____ _ ____ _ ____ _ ____ _ ____ _ ____
 72
    65
 73
     4
 40
10.16
 49
6.35
 74
     0
 49
-1.27
 74
     0
 49
1.27
 74
     0
 49
-1.27
 74
     0
  0
LTYPE
  5
6D
330
5
100
AcDbSymbolTableRecord
100
AcDbLinetypeTableRecord
  2
CENTERX2
 70
     0
  3
Center (2x) ________  __  ________  __  _____
 72
    65
 73
     4
 40
20.32
 49
12.7
 74
     0
 49
-2.54
 74
     0
 49
2.54
 74
     0
 49
-2.54
 74
     0
  0
LTYPE
  5
6E
330
5
100
AcDbSymbolTableRecord
100
AcDbLinetypeTableRecord
  2
DOT2
 70
     0
  3
Dot (.5x) ........................................
 72
    65
 73
     2
 40
0.635
 49
0.0
 74
     0
 49
-0.635
 74
     0
  0
ENDTAB
  0
TABLE
  2
LAYER
  5
2
330
0
100
AcDbSymbolTable
 70
    17
  0
LAYER
  5
10
330
2
100
AcDbSymbolTableRecord
100
AcDbLayerTableRecord
  2
0
 70
     0
 62
     7
  6
Continuous
370
    -3
390
F
  0
LAYER
  5
6F
330
2
100
AcDbSymbolTableRecord
100
AcDbLayerTableRecord
  2
FORMAT
 70
     0
 62
     2
  6
Continuous
370
    -3
390
F
  0
LAYER
  5
70
330
2
100
AcDbSymbolTableRecord
100
AcDbLayerTableRecord
  2
외형선
 70
     0
 62
   100
  6
Continuous
370
    30
390
F
  0
LAYER
  5
71
330
2
100
AcDbSymbolTableRecord
100
AcDbLayerTableRecord
  2
숨은선
 70
     0
 62
     2
  6
HIDDEN
370
    15
390
F
  0
LAYER
  5
72
330
2
100
AcDbSymbolTableRecord
100
AcDbLayerTableRecord
  2
중심선
 70
     0
 62
     1
  6
CENTERX2
370
    -3
390
F
  0
LAYER
  5
73
330
2
100
AcDbSymbolTableRecord
100
AcDbLayerTableRecord
  2
파단선
 70
     0
 62
     4
  6
Continuous
370
    -3
390
F
  0
LAYER
  5
74
330
2
100
AcDbSymbolTableRecord
100
AcDbLayerTableRecord
  2
해칭선
 70
     0
 62
     4
  6
Continuous
370
    -3
390
F
  0
LAYER
  5
75
330
2
100
AcDbSymbolTableRecord
100
AcDbLayerTableRecord
  2
가는실선
 70
     0
 62
     4
  6
Continuous
370
    -3
390
F
  0
LAYER
  5
76
330
2
100
AcDbSymbolTableRecord
100
AcDbLayerTableRecord
  2
치수_보조선
 70
     0
 62
     4
  6
Continuous
370
    -3
390
F
  0
LAYER
  5
77
330
2
100
AcDbSymbolTableRecord
100
AcDbLayerTableRecord
  2
치수문자_일반주서
 70
     0
 62
     7
  6
Continuous
370
    15
390
F
  0
LAYER
  5
78
330
2
100
AcDbSymbolTableRecord
100
AcDbLayerTableRecord
  2
개별주서
 70
     0
 62
   100
  6
Continuous
370
    30
390
F
  0
LAYER
  5
79
330
2
100
AcDbSymbolTableRecord
100
AcDbLayerTableRecord
  2
중간선
 70
     0
 62
     2
  6
Continuous
370
    15
390
F
  0
LAYER
  5
7A
330
2
100
AcDbSymbolTableRecord
100
AcDbLayerTableRecord
  2
윤곽선
 70
     0
 62
     3
  6
Continuous
370
    40
390
F
  0
LAYER
  5
7B
330
2
100
AcDbSymbolTableRecord
100
AcDbLayerTableRecord
  2
중심마크
 70
     0
 62
   100
  6
Continuous
370
    30
390
F
  0
LAYER
  5
7C
330
2
100
AcDbSymbolTableRecord
100
AcDbLayerTableRecord
  2
가상선
 70
     0
 62
     4
  6
PHANTOM
370
    -3
390
F
  0
LAYER
  5
7D
330
2
100
AcDbSymbolTableRecord
100
AcDbLayerTableRecord
  2
특수지정선
 70
     0
 62
     5
  6
CENTERX2
370
    60
390
F
  0
LAYER
  5
177
330
2
100
AcDbSymbolTableRecord
100
AcDbLayerTableRecord
  2
Defpoints
 70
     0
 62
     7
  6
Continuous
290
     0
370
    -3
390
F
  0
ENDTAB
  0
TABLE
  2
STYLE
  5
3
330
0
100
AcDbSymbolTable
 70
     2
  0
STYLE
  5
11
330
3
100
AcDbSymbolTableRecord
100
AcDbTextStyleTableRecord
  2
Standard
 70
     0
 40
0.0
 41
1.0
 50
0.0
 71
     0
 42
3.5
  3
txt
  4

  0
STYLE
  5
93
330
3
100
AcDbSymbolTableRecord
100
AcDbTextStyleTableRecord
  2
SLDTEXTSTYLE0
 70
     0
 40
0.0
 41
0.75
 50
0.0
 71
     0
 42
3.5
  3
TXT
  4

  0
ENDTAB
  0
TABLE
  2
VIEW
  5
6
330
0
100
AcDbSymbolTable
 70
     0
  0
ENDTAB
  0
TABLE
  2
UCS
  5
7
330
0
100
AcDbSymbolTable
 70
     0
  0
ENDTAB
  0
TABLE
  2
APPID
  5
9
330
0
100
AcDbSymbolTable
 70
     2
  0
APPID
  5
12
330
9
100
AcDbSymbolTableRecord
100
AcDbRegAppTableRecord
  2
ACAD
 70
     0
  0
APPID
  5
17A
330
9
100
AcDbSymbolTableRecord
100
AcDbRegAppTableRecord
  2
ACAD_DSTYLE_DIMRADIAL_EXTENSION
 70
     0
  0
ENDTAB
  0
TABLE
  2
DIMSTYLE
  5
A
330
0
100
AcDbSymbolTable
 70
     3
100
AcDbDimStyleTable
  0
DIMSTYLE
105
27
330
A
100
AcDbSymbolTableRecord
100
AcDbDimStyleTableRecord
  2
ISO-25
 70
     0
 41
2.5
 42
0.625
 43
3.75
 44
1.25
 73
     0
 74
     0
 77
     1
 78
     8
140
2.5
141
2.5
143
0.03937007874016
147
0.625
171
     3
172
     1
178
     0
271
     2
272
     2
274
     3
278
    44
283
     0
284
     8
340
11
  0
DIMSTYLE
105
FB
102
{ACAD_REACTORS
330
FA
102
}
330
A
100
AcDbSymbolTableRecord
100
AcDbDimStyleTableRecord
  2
SLDDIMSTYLE0
 70
     0
 41
3.302
 44
0.0
 45
0.000000001
 73
     0
 74
     0
 77
     1
 78
     4
 79
     1
140
3.5
143
0.0393700787401575
147
0.875
148
0.000000001
170
     1
173
     1
178
     0
271
     2
272
     2
276
     2
284
    12
340
93
  0
DIMSTYLE
105
10F
102
{ACAD_REACTORS
330
10E
330
123
330
138
330
18B
102
}
330
A
100
AcDbSymbolTableRecord
100
AcDbDimStyleTableRecord
  2
SLDDIMSTYLE1
 70
     0
 41
3.302
 44
0.0
 45
0.000000001
 73
     0
 74
     0
 77
     1
 78
    12
 79
     3
140
3.5
143
0.0393700787401575
147
0.875
148
0.000000001
170
     1
172
     1
173
     1
178
     0
271
     2
272
     2
276
     2
284
    12
289
     0
340
93
  0
ENDTAB
  0
TABLE
  2
BLOCK_RECORD
  5
1
330
0
100
AcDbSymbolTable
 70
     9
  0
BLOCK_RECORD
  5
1F
330
1
100
AcDbSymbolTableRecord
100
AcDbBlockTableRecord
  2
*Model_Space
340
22
  0
BLOCK_RECORD
  5
1B
330
1
100
AcDbSymbolTableRecord
100
AcDbBlockTableRecord
  2
*Paper_Space
340
1E
  0
BLOCK_RECORD
  5
23
330
1
100
AcDbSymbolTableRecord
100
AcDbBlockTableRecord
  2
*Paper_Space0
340
26
  0
BLOCK_RECORD
  5
7E
330
1
100
AcDbSymbolTableRecord
100
AcDbBlockTableRecord
  2
블럭10
340
0
102
{BLKREFS
331
F2
102
}
  0
BLOCK_RECORD
  5
FC
330
1
100
AcDbSymbolTableRecord
100
AcDbBlockTableRecord
  2
_D
340
0
  0
BLOCK_RECORD
  5
110
330
1
100
AcDbSymbolTableRecord
100
AcDbBlockTableRecord
  2
_D_1
340
0
  0
BLOCK_RECORD
  5
124
330
1
100
AcDbSymbolTableRecord
100
AcDbBlockTableRecord
  2
_D_2
340
0
  0
BLOCK_RECORD
  5
139
330
1
100
AcDbSymbolTableRecord
100
AcDbBlockTableRecord
  2
_D_3
340
0
  0
BLOCK_RECORD
  5
14C
330
1
100
AcDbSymbolTableRecord
100
AcDbBlockTableRecord
  2
SW_DOWELSYMBOL_0
340
0
102
{BLKREFS
331
152
102
}
  0
BLOCK_RECORD
  5
17E
330
1
100
AcDbSymbolTableRecord
100
AcDbBlockTableRecord
  2
*D7
340
0
  0
BLOCK_RECORD
  5
18E
330
1
100
AcDbSymbolTableRecord
100
AcDbBlockTableRecord
  2
*D8
340
0
  0
ENDTAB
  0
ENDSEC
  0
SECTION
  2
BLOCKS
  0
BLOCK
  5
20
330
1F
100
AcDbEntity
  8
0
100
AcDbBlockBegin
  2
*Model_Space
 70
     0
 10
0.0
 20
0.0
 30
0.0
  3
*Model_Space
  1
*Model_Space
  0
ENDBLK
  5
21
330
1F
100
AcDbEntity
  8
0
100
AcDbBlockEnd
  0
BLOCK
  5
1C
330
1B
100
AcDbEntity
 67
     1
  8
0
100
AcDbBlockBegin
  2
*Paper_Space
 70
     0
 10
0.0
 20
0.0
 30
0.0
  3
*Paper_Space
  1
*Paper_Space
  0
ENDBLK
  5
1D
330
1B
100
AcDbEntity
 67
     1
  8
0
100
AcDbBlockEnd
  0
BLOCK
  5
24
330
23
100
AcDbEntity
  8
0
100
AcDbBlockBegin
  2
*Paper_Space0
 70
     0
 10
0.0
 20
0.0
 30
0.0
  3
*Paper_Space0
  1
*Paper_Space0
  0
ENDBLK
  5
25
330
23
100
AcDbEntity
  8
0
100
AcDbBlockEnd
  0
BLOCK
  5
7F
330
7E
100
AcDbEntity
  8
0
100
AcDbBlockBegin
  2
블럭10
 70
     2
 10
0.0
 20
0.0
 30
0.0
  3
블럭10
  1
블럭10
  0
ELLIPSE
  5
81
330
7E
100
AcDbEntity
  8
중심선
100
AcDbEllipse
 10
20.54032771741204
 20
12.0471743016438
 30
0.0
 11
6.600054785286829
 21
-1.261213355974178E-13
 31
0.0
210
0.0
220
0.0
230
1.0
 40
0.636358354079598
 41
0.9219305317359503
 42
6.513795318482858
  0
ELLIPSE
  5
82
330
7E
100
AcDbEntity
  8
중심선
100
AcDbEllipse
 10
20.54032771746488
 20
12.04717430159265
 30
0.0
 11
3.960054785062283
 21
1.540847449632565E-10
 31
0.0
210
0.0
220
0.0
230
1.0
 40
0.3939339440162632
 41
1.131841032648279
 42
5.62031148352944
  0
LINE
  5
83
330
7E
100
AcDbEntity
  8
중심선
100
AcDbLine
 10
2.268634060543552
 20
16.24717430164393
 30
0.0
 11
5.714909304380834
 21
16.24717430164393
 31
0.0
  0
LINE
  5
84
330
7E
100
AcDbEntity
  8
중심선
100
AcDbLine
 10
5.245725140726316
 20
7.84717430164391
 30
0.0
 11
8.692000384563599
 21
7.84717430164391
 31
0.0
  0
LINE
  5
85
330
7E
100
AcDbEntity
  8
중심선
100
AcDbLine
 10
15.74043728645272
 20
16.24717430164393
 30
0.0
 11
8.692000384563599
 21
7.84717430164391
 31
0.0
  0
LINE
  5
86
330
7E
100
AcDbEntity
  8
중심선
100
AcDbLine
 10
0.1404042013395286
 20
13.71084872107135
 30
0.0
 11
3.58671253028996
 21
13.71088815037384
 31
0.0
  0
LINE
  5
87
330
7E
100
AcDbEntity
  8
중심선
100
AcDbLine
 10
2.750260043222114
 20
10.84717430164391
 30
0.0
 11
6.196535287059397
 21
10.84717430164391
 31
0.0
  0
LINE
  5
88
330
7E
100
AcDbEntity
  8
중심선
100
AcDbLine
 10
12.29416204261559
 20
16.24717430164393
 30
0.0
 11
5.245725140726316
 21
7.84717430164391
 31
0.0
  0
LINE
  5
89
330
7E
100
AcDbEntity
  8
중심선
100
AcDbLine
 10
10.72767329541681
 20
16.24717430164393
 30
0.0
 11
6.196535287059397
 21
10.84717430164391
 31
0.0
  0
LINE
  5
8A
330
7E
100
AcDbEntity
  8
중심선
100
AcDbLine
 10
7.28139805157953
 20
16.24717430164393
 30
0.0
 11
2.750260043222114
 21
10.84717430164391
 31
0.0
  0
LINE
  5
8B
330
7E
100
AcDbEntity
  8
중심선
100
AcDbLine
 10
5.714909304380834
 20
16.24717430164393
 30
0.0
 11
3.58671253028996
 21
13.71088815037384
 31
0.0
  0
LINE
  5
8C
330
7E
100
AcDbEntity
  8
중심선
100
AcDbLine
 10
2.268634060543552
 20
16.24717430164393
 30
0.0
 11
0.1404042013395286
 21
13.71084872107135
 31
0.0
  0
LINE
  5
8D
330
7E
100
AcDbEntity
  8
중심선
100
AcDbLine
 10
7.28139805157953
 20
16.24717430164393
 30
0.0
 11
10.72767329541681
 21
16.24717430164393
 31
0.0
  0
LINE
  5
8E
330
7E
100
AcDbEntity
  8
중심선
100
AcDbLine
 10
12.29416204261559
 20
16.24717430164393
 30
0.0
 11
15.74043728645272
 21
16.24717430164393
 31
0.0
  0
LINE
  5
8F
330
7E
100
AcDbEntity
  8
중심선
100
AcDbLine
 10
19.22036997980202
 20
11.08717430171403
 30
0.0
 11
23.66174974927406
 21
11.08717430171406
 31
0.0
  0
LINE
  5
90
330
7E
100
AcDbEntity
  8
중심선
100
AcDbLine
 10
19.22039502424796
 20
13.00717430171391
 30
0.0
 11
19.22036997980202
 21
11.08717430171403
 31
0.0
  0
LINE
  5
91
330
7E
100
AcDbEntity
  8
중심선
100
AcDbLine
 10
19.22039502424796
 20
13.00717430171391
 30
0.0
 11
26.96566020931264
 21
13.00717430171391
 31
0.0
  0
LINE
  5
92
330
7E
100
AcDbEntity
  8
중심선
100
AcDbLine
 10
22.22332737316547
 20
13.45928029700563
 30
0.0
 11
24.52862924686651
 21
15.39360700705356
 31
0.0
  0
ATTDEF
  5
94
330
7E
100
AcDbEntity
  8
FORMAT
 62
     2
100
AcDbText
 10
-11.05102035218446
 20
2.075366912832191
 30
0.0
 40
4.233333333333333
  1
GMG22016[ 6 FLUTE ]
 41
0.75
  7
SLDTEXTSTYLE0
 11
-11.05102035218446
 21
-0.0412997538344756
 31
0.0
100
AcDbAttributeDefinition
  3

  2
AUTOATTR0
 70
     0
 74
     1
  0
ENDBLK
  5
80
330
7E
100
AcDbEntity
  8
0
100
AcDbBlockEnd
  0
BLOCK
  5
FD
330
FC
100
AcDbEntity
  8
0
100
AcDbBlockBegin
  2
_D
 70
     0
 10
0.0
 20
0.0
 30
0.0
  3
_D
  1
_D
  0
LINE
  5
FF
330
FC
100
AcDbEntity
  8
치수문자_일반주서
 62
     0
370
    -2
100
AcDbLine
 10
-33.49999999999999
 20
2.737499999999998
 30
0.0
 11
-33.49999999999999
 21
37.36637647970986
 31
0.0
  0
LINE
  5
100
330
FC
100
AcDbEntity
  8
치수문자_일반주서
 62
     0
370
    -2
100
AcDbLine
 10
30.00000000000001
 20
2.671414716889002
 30
0.0
 11
30.00000000000001
 21
37.36637647970986
 31
0.0
  0
LINE
  5
101
330
FC
100
AcDbEntity
  8
치수문자_일반주서
 62
     0
370
    -2
100
AcDbLine
 10
-30.19799999999999
 20
37.36637647970986
 30
0.0
 11
26.69800000000001
 21
37.36637647970986
 31
0.0
  0
SOLID
  5
102
330
FC
100
AcDbEntity
  8
치수문자_일반주서
 62
     0
100
AcDbTrace
 10
-30.19799999999999
 20
37.9167098130432
 30
0.0
 11
-30.19799999999999
 21
36.81604314637653
 31
0.0
 12
-33.49999999999999
 22
37.36637647970986
 32
0.0
 13
-33.49999999999999
 23
37.36637647970986
 33
0.0
  0
SOLID
  5
103
330
FC
100
AcDbEntity
  8
치수문자_일반주서
 62
     0
100
AcDbTrace
 10
26.69800000000001
 20
36.81604314637653
 30
0.0
 11
26.69800000000001
 21
37.9167098130432
 31
0.0
 12
30.00000000000001
 22
37.36637647970986
 32
0.0
 13
30.00000000000001
 23
37.36637647970986
 33
0.0
  0
MTEXT
  5
104
330
FC
100
AcDbEntity
  8
치수문자_일반주서
 62
     0
100
AcDbMText
 10
0.1299625959432088
 20
41.74137647970986
 30
0.0
 40
3.5
 41
0.0
 71
     2
 72
     1
  1
\A1;63.50 [2 1/2]
  7
SLDTEXTSTYLE0
 73
     1
 44
1.0
  0
POINT
  5
105
330
FC
100
AcDbEntity
  8
Defpoints
 62
     0
100
AcDbPoint
 10
-33.49999999999999
 20
2.674999999999998
 30
0.0
  0
POINT
  5
106
330
FC
100
AcDbEntity
  8
Defpoints
 62
     0
100
AcDbPoint
 10
30.00000000000001
 20
2.608914716889002
 30
0.0
  0
POINT
  5
107
330
FC
100
AcDbEntity
  8
Defpoints
 62
     0
100
AcDbPoint
 10
30.00000000000001
 20
37.36637647970986
 30
0.0
  0
ENDBLK
  5
FE
330
FC
100
AcDbEntity
  8
0
100
AcDbBlockEnd
  0
BLOCK
  5
111
330
110
100
AcDbEntity
  8
0
100
AcDbBlockBegin
  2
_D_1
 70
     0
 10
0.0
 20
0.0
 30
0.0
  3
_D_1
  1
_D_1
  0
LINE
  5
113
330
110
100
AcDbEntity
  8
치수문자_일반주서
 62
     0
370
    -2
100
AcDbLine
 10
29.68150000000001
 20
3.175000000000005
 30
0.0
 11
44.71795635494105
 21
3.175000000000061
 31
0.0
  0
LINE
  5
114
330
110
100
AcDbEntity
  8
치수문자_일반주서
 62
     0
370
    -2
100
AcDbLine
 10
29.68150000000001
 20
-3.174999999999995
 30
0.0
 11
44.71795635494107
 21
-3.174999999999939
 31
0.0
  0
LINE
  5
115
330
110
100
AcDbEntity
  8
치수문자_일반주서
 62
     0
370
    -2
100
AcDbLine
 10
44.71795635494107
 20
-0.1269999999999389
 30
0.0
 11
44.71795635494106
 21
0.1270000000000611
 31
0.0
  0
SOLID
  5
116
330
110
100
AcDbEntity
  8
치수문자_일반주서
 62
     0
100
AcDbTrace
 10
45.2682896882744
 20
-0.1269999999999371
 30
0.0
 11
44.16762302160773
 21
-0.1269999999999408
 31
0.0
 12
44.71795635494105
 22
3.175000000000061
 32
0.0
 13
44.71795635494105
 23
3.175000000000061
 33
0.0
  0
SOLID
  5
117
330
110
100
AcDbEntity
  8
치수문자_일반주서
 62
     0
100
AcDbTrace
 10
44.16762302160772
 20
0.1270000000000592
 30
0.0
 11
45.26828968827439
 21
0.1270000000000629
 31
0.0
 12
44.71795635494107
 22
-3.174999999999939
 32
0.0
 13
44.71795635494107
 23
-3.174999999999939
 33
0.0
  0
MTEXT
  5
118
330
110
100
AcDbEntity
  8
치수문자_일반주서
 62
     0
100
AcDbMText
 10
40.34295635494107
 20
-0.0000000000000113
 30
0.0
 40
3.5
 41
0.0
 71
     2
 72
     1
  1
\A1;%%c6.35 [1/4]
  7
SLDTEXTSTYLE0
 11
-3.356894814614646E-15
 21
1.0
 31
0.0
 73
     1
 44
1.0
  0
POINT
  5
119
330
110
100
AcDbEntity
  8
Defpoints
 62
     0
100
AcDbPoint
 10
29.61900000000001
 20
3.175000000000004
 30
0.0
  0
POINT
  5
11A
330
110
100
AcDbEntity
  8
Defpoints
 62
     0
100
AcDbPoint
 10
29.61900000000001
 20
-3.174999999999996
 30
0.0
  0
POINT
  5
11B
330
110
100
AcDbEntity
  8
Defpoints
 62
     0
100
AcDbPoint
 10
44.71795635494107
 20
-3.174999999999939
 30
0.0
  0
ENDBLK
  5
112
330
110
100
AcDbEntity
  8
0
100
AcDbBlockEnd
  0
BLOCK
  5
125
330
124
100
AcDbEntity
  8
0
100
AcDbBlockBegin
  2
_D_2
 70
     0
 10
0.0
 20
0.0
 30
0.0
  3
_D_2
  1
_D_2
  0
LINE
  5
127
330
124
100
AcDbEntity
  8
치수문자_일반주서
 62
     0
370
    -2
100
AcDbLine
 10
30.00000000000001
 20
2.671414716889002
 30
0.0
 11
30.00000000000001
 21
22.46591996137407
 31
0.0
  0
LINE
  5
128
330
124
100
AcDbEntity
  8
치수문자_일반주서
 62
     0
370
    -2
100
AcDbLine
 10
10.95000000000092
 20
-2.939692354950096
 30
0.0
 11
10.95000000000092
 21
22.46591996137407
 31
0.0
  0
LINE
  5
129
330
124
100
AcDbEntity
  8
치수문자_일반주서
 62
     0
370
    -2
100
AcDbLine
 10
26.69800000000001
 20
22.46591996137407
 30
0.0
 11
14.25200000000092
 21
22.46591996137407
 31
0.0
  0
SOLID
  5
12A
330
124
100
AcDbEntity
  8
치수문자_일반주서
 62
     0
100
AcDbTrace
 10
26.69800000000001
 20
21.91558662804074
 30
0.0
 11
26.69800000000001
 21
23.0162532947074
 31
0.0
 12
30.00000000000001
 22
22.46591996137407
 32
0.0
 13
30.00000000000001
 23
22.46591996137407
 33
0.0
  0
SOLID
  5
12B
330
124
100
AcDbEntity
  8
치수문자_일반주서
 62
     0
100
AcDbTrace
 10
14.25200000000092
 20
23.0162532947074
 30
0.0
 11
14.25200000000092
 21
21.91558662804074
 31
0.0
 12
10.95000000000092
 22
22.46591996137407
 32
0.0
 13
10.95000000000092
 23
22.46591996137407
 33
0.0
  0
MTEXT
  5
12C
330
124
100
AcDbEntity
  8
치수문자_일반주서
 62
     0
100
AcDbMText
 10
20.27381876834919
 20
26.84091996137407
 30
0.0
 40
3.5
 41
0.0
 71
     2
 72
     1
  1
\A1;19.05 [3/4]
  7
SLDTEXTSTYLE0
 73
     1
 44
1.0
  0
POINT
  5
12D
330
124
100
AcDbEntity
  8
Defpoints
 62
     0
100
AcDbPoint
 10
30.00000000000001
 20
2.608914716889002
 30
0.0
  0
POINT
  5
12E
330
124
100
AcDbEntity
  8
Defpoints
 62
     0
100
AcDbPoint
 10
10.95000000000092
 20
-3.002192354950096
 30
0.0
  0
POINT
  5
12F
330
124
100
AcDbEntity
  8
Defpoints
 62
     0
100
AcDbPoint
 10
10.95000000000092
 20
22.46591996137407
 30
0.0
  0
ENDBLK
  5
126
330
124
100
AcDbEntity
  8
0
100
AcDbBlockEnd
  0
BLOCK
  5
13A
330
139
100
AcDbEntity
  8
0
100
AcDbBlockBegin
  2
_D_3
 70
     0
 10
0.0
 20
0.0
 30
0.0
  3
_D_3
  1
_D_3
  0
LINE
  5
13C
330
139
100
AcDbEntity
  8
치수문자_일반주서
 62
     0
370
    -2
100
AcDbLine
 10
-33.06249999999999
 20
3.175000000000001
 30
0.0
 11
-46.50000000000001
 21
3.174999999999951
 31
0.0
  0
LINE
  5
13D
330
139
100
AcDbEntity
  8
치수문자_일반주서
 62
     0
370
    -2
100
AcDbLine
 10
-33.06249999999999
 20
-3.174999999999999
 30
0.0
 11
-46.49999999999999
 21
-3.175000000000049
 31
0.0
  0
LINE
  5
13E
330
139
100
AcDbEntity
  8
치수문자_일반주서
 62
     0
370
    -2
100
AcDbLine
 10
-46.5
 20
-0.1270000000000495
 30
0.0
 11
-46.50000000000001
 21
0.1269999999999509
 31
0.0
  0
SOLID
  5
13F
330
139
100
AcDbEntity
  8
치수문자_일반주서
 62
     0
100
AcDbTrace
 10
-45.94966666666667
 20
-0.1270000000000477
 30
0.0
 11
-47.05033333333333
 21
-0.1270000000000514
 31
0.0
 12
-46.50000000000001
 22
3.174999999999951
 32
0.0
 13
-46.50000000000001
 23
3.174999999999951
 33
0.0
  0
SOLID
  5
140
330
139
100
AcDbEntity
  8
치수문자_일반주서
 62
     0
100
AcDbTrace
 10
-47.05033333333334
 20
0.1269999999999491
 30
0.0
 11
-45.94966666666667
 21
0.1269999999999528
 31
0.0
 12
-46.49999999999999
 22
-3.175000000000049
 32
0.0
 13
-46.49999999999999
 23
-3.175000000000049
 33
0.0
  0
MTEXT
  5
141
330
139
100
AcDbEntity
  8
치수문자_일반주서
 62
     0
100
AcDbMText
 10
-50.87500000000001
 20
-0.0000000000000385
 30
0.0
 40
3.5
 41
0.0
 71
     2
 72
     1
  1
\A1;%%c6.35 [1/4]
  7
SLDTEXTSTYLE0
 11
-3.356894814614647E-15
 21
1.0
 31
0.0
 73
     1
 44
1.0
  0
POINT
  5
142
330
139
100
AcDbEntity
  8
Defpoints
 62
     0
100
AcDbPoint
 10
-32.99999999999999
 20
3.175000000000001
 30
0.0
  0
POINT
  5
143
330
139
100
AcDbEntity
  8
Defpoints
 62
     0
100
AcDbPoint
 10
-32.99999999999999
 20
-3.174999999999998
 30
0.0
  0
POINT
  5
144
330
139
100
AcDbEntity
  8
Defpoints
 62
     0
100
AcDbPoint
 10
-46.49999999999999
 20
-3.175000000000049
 30
0.0
  0
ENDBLK
  5
13B
330
139
100
AcDbEntity
  8
0
100
AcDbBlockEnd
  0
BLOCK
  5
14D
330
14C
100
AcDbEntity
  8
0
100
AcDbBlockBegin
  2
SW_DOWELSYMBOL_0
 70
     0
 10
0.0
 20
0.0
 30
0.0
  3
SW_DOWELSYMBOL_0
  1
SW_DOWELSYMBOL_0
  0
CIRCLE
  5
14F
330
14C
100
AcDbEntity
  8
외형선
 62
     0
100
AcDbCircle
 10
0.0
 20
0.0
 30
0.0
 40
3.000000000000001
  0
HATCH
  5
150
330
14C
100
AcDbEntity
  8
0
  6
Continuous
 62
     0
370
    30
100
AcDbHatch
 10
0.0
 20
0.0
 30
0.0
210
0.0
220
0.0
230
1.0
  2
SOLID
 70
     1
 71
     0
 91
        1
 92
        0
 93
        3
 72
     2
 10
0.0000000000000139
 20
-0.0000000000000035
 40
3.000000000000001
 50
0.0
 51
90.0
 73
     1
 72
     1
 10
0.0000000000000139
 20
2.999999999999998
 11
0.0000000000000139
 21
-0.0000000000000036
 72
     1
 10
0.0000000000000139
 20
-0.0000000000000035
 11
3.000000000000015
 21
-0.0000000000000035
 97
        0
 75
     0
 76
     1
 98
        1
 10
0.0
 20
0.0
  0
HATCH
  5
151
330
14C
100
AcDbEntity
  8
0
  6
Continuous
 62
     0
370
    30
100
AcDbHatch
 10
0.0
 20
0.0
 30
0.0
210
0.0
220
0.0
230
1.0
  2
SOLID
 70
     1
 71
     0
 91
        1
 92
        0
 93
        3
 72
     2
 10
0.0000000000000139
 20
-0.0000000000000035
 40
3.000000000000001
 50
180.0
 51
270.0000000000007
 73
     1
 72
     1
 10
0.0000000000000139
 20
-3.000000000000005
 11
0.0000000000000139
 21
-0.0000000000000036
 72
     1
 10
0.0000000000000139
 20
-0.0000000000000035
 11
-2.999999999999988
 21
-0.0000000000000035
 97
        0
 75
     0
 76
     1
 98
        1
 10
0.0
 20
0.0
  0
ENDBLK
  5
14E
330
14C
100
AcDbEntity
  8
0
100
AcDbBlockEnd
  0
BLOCK
  5
17F
330
17E
100
AcDbEntity
  8
0
100
AcDbBlockBegin
  2
*D7
 70
     1
 10
0.0
 20
0.0
 30
0.0
  3
*D7
  1
*D7
  0
LINE
  5
181
330
17E
100
AcDbEntity
  8
치수문자_일반주서
 62
     0
370
    -2
100
AcDbLine
 10
31.96613309111959
 20
5.405026507947733
 30
0.0
 11
55.6409871171973
 21
34.51391146215254
 31
0.0
  0
MTEXT
  5
182
330
17E
100
AcDbEntity
  8
치수문자_일반주서
 62
     0
100
AcDbMText
 10
44.77084204114684
 20
25.3089904399158
 30
0.0
 40
3.5
 41
0.0
 71
     5
 72
     1
  1
\A1;R.32 [R0.013]
  7
SLDTEXTSTYLE0
 11
0.6309759920219824
 21
0.7758023572353175
 31
0.0
 73
     1
 44
1.0
  0
LINE
  5
183
330
17E
100
AcDbEntity
  8
치수문자_일반주서
 62
     0
370
    -2
100
AcDbLine
 10
29.68200000000001
 20
2.596621974755884
 30
0.0
 11
29.882650365463
 21
2.843327124356716
 31
0.0
  0
SOLID
  5
184
330
17E
100
AcDbEntity
  8
치수문자_일반주서
 62
     0
100
AcDbTrace
 10
31.53918319385442
 20
5.752273628890498
 30
0.0
 11
32.39308298838476
 21
5.057779387004969
 31
0.0
 12
29.882650365463
 22
2.843327124356716
 32
0.0
 13
29.882650365463
 23
2.843327124356716
 33
0.0
  0
POINT
  5
185
330
17E
100
AcDbEntity
  8
Defpoints
 62
     0
100
AcDbPoint
 10
29.882650365463
 20
2.843327124356716
 30
0.0
  0
POINT
  5
186
330
17E
100
AcDbEntity
  8
Defpoints
 62
     0
100
AcDbPoint
 10
29.68200000000001
 20
2.596621974755884
 30
0.0
  0
ENDBLK
  5
180
330
17E
100
AcDbEntity
  8
0
100
AcDbBlockEnd
  0
BLOCK
  5
18F
330
18E
100
AcDbEntity
  8
0
100
AcDbBlockBegin
  2
*D8
 70
     1
 10
0.0
 20
0.0
 30
0.0
  3
*D8
  1
*D8
  0
LINE
  5
191
330
18E
100
AcDbEntity
  8
치수문자_일반주서
 62
     0
370
    -2
100
AcDbLine
 10
31.66071017217816
 20
5.859274632528744
 30
0.0
 11
50.24591423857419
 21
33.76174352424099
 31
0.0
  0
MTEXT
  5
192
330
18E
100
AcDbEntity
  8
치수문자_일반주서
 62
     0
100
AcDbMText
 10
40.30013951121001
 20
23.56506808209202
 30
0.0
 40
3.5
 41
0.0
 71
     5
 72
     1
  1
\A1;R.38 [R0.015]
  7
SLDTEXTSTYLE0
 11
0.5543606223671373
 21
0.8322765768473364
 31
0.0
 73
     1
 44
1.0
  0
LINE
  5
193
330
18E
100
AcDbEntity
  8
치수문자_일반주서
 62
     0
370
    -2
100
AcDbLine
 10
29.619
 20
2.794000000000004
 30
0.0
 11
29.83021139712188
 21
3.111097375778839
 31
0.0
  0
SOLID
  5
194
330
18E
100
AcDbEntity
  8
치수문자_일반주서
 62
     0
100
AcDbTrace
 10
31.20268062938651
 20
6.164357761704792
 30
0.0
 11
32.11873971496981
 21
5.554191503352695
 31
0.0
 12
29.83021139712188
 22
3.111097375778839
 32
0.0
 13
29.83021139712188
 23
3.111097375778839
 33
0.0
  0
POINT
  5
195
330
18E
100
AcDbEntity
  8
Defpoints
 62
     0
100
AcDbPoint
 10
29.83021139712188
 20
3.111097375778839
 30
0.0
  0
POINT
  5
196
330
18E
100
AcDbEntity
  8
Defpoints
 62
     0
100
AcDbPoint
 10
29.619
 20
2.794000000000004
 30
0.0
  0
ENDBLK
  5
190
330
18E
100
AcDbEntity
  8
0
100
AcDbBlockEnd
  0
ENDSEC
  0
SECTION
  2
ENTITIES
  0
LINE
  5
95
330
1F
100
AcDbEntity
  8
0
  6
Continuous
 62
     4
370
    15
100
AcDbLine
 10
9.762368699896161
 20
3.175000000000004
 30
0.0
 11
-32.99999999999999
 21
3.175000000000001
 31
0.0
  0
LINE
  5
96
330
1F
100
AcDbEntity
  8
0
  6
Continuous
 62
     4
370
    15
100
AcDbLine
 10
-32.99999999999999
 20
-3.174999999999998
 30
0.0
 11
9.762368699896166
 21
-3.174999999999996
 31
0.0
  0
LINE
  5
97
330
1F
100
AcDbEntity
  8
0
  6
Continuous
 62
     4
370
    15
100
AcDbLine
 10
-32.99999999999999
 20
3.174999999999998
 30
0.0
 11
-33.49999999999999
 21
2.674999999999998
 31
0.0
  0
LINE
  5
98
330
1F
100
AcDbEntity
  8
0
  6
Continuous
 62
     4
370
    15
100
AcDbLine
 10
-33.49999999999999
 20
-2.674999999999996
 30
0.0
 11
-32.99999999999999
 21
-3.174999999999996
 31
0.0
  0
LINE
  5
99
330
1F
100
AcDbEntity
  8
0
  6
Continuous
 62
     1
370
    15
100
AcDbLine
 10
18.65093836277934
 20
-3.174999999999996
 30
0.0
 11
19.73755862641078
 21
-3.174999999999996
 31
0.0
  0
LINE
  5
9A
330
1F
100
AcDbEntity
  8
0
  6
Continuous
 62
     1
370
    15
100
AcDbLine
 10
29.682
 20
3.175000000000004
 30
0.0
 11
29.68150000000001
 21
3.175000000000004
 31
0.0
  0
LINE
  5
9B
330
1F
100
AcDbEntity
  8
0
  6
Continuous
 62
     1
370
    15
100
AcDbLine
 10
21.97617180413024
 20
-3.174999999999996
 30
0.0
 11
23.06212123771677
 21
-3.174999999999996
 31
0.0
  0
LINE
  5
9C
330
1F
100
AcDbEntity
  8
0
  6
Continuous
 62
     1
370
    15
100
AcDbLine
 10
13.08706083212719
 20
3.175000000000004
 30
0.0
 11
12.0020720117972
 21
3.175000000000004
 31
0.0
  0
LINE
  5
9D
330
1F
100
AcDbEntity
  8
0
  6
Continuous
 62
     1
370
    15
100
AcDbLine
 10
28.62637031490764
 20
-3.174999999999996
 30
0.0
 11
29.61900000000001
 21
-3.174999999999996
 31
0.0
  0
LINE
  5
9E
330
1F
100
AcDbEntity
  8
0
  6
Continuous
 62
     1
370
    15
100
AcDbLine
 10
19.73755862641081
 20
3.175000000000004
 30
0.0
 11
18.65093836277932
 21
3.175000000000004
 31
0.0
  0
LINE
  5
9F
330
1F
100
AcDbEntity
  8
0
  6
Continuous
 62
     1
370
    15
100
AcDbLine
 10
15.32589492895279
 20
-3.174999999999996
 30
0.0
 11
16.41232672698613
 21
-3.174999999999996
 31
0.0
  0
LINE
  5
A0
330
1F
100
AcDbEntity
  8
0
  6
Continuous
 62
     1
370
    15
100
AcDbLine
 10
26.38644545512004
 20
3.175000000000004
 30
0.0
 11
25.30154210092724
 21
3.175000000000004
 31
0.0
  0
LINE
  5
A1
330
1F
100
AcDbEntity
  8
0
  6
Continuous
 62
     1
370
    15
100
AcDbLine
 10
12.00207201179722
 20
-3.174999999999996
 30
0.0
 11
13.08706083212722
 21
-3.174999999999996
 31
0.0
  0
LINE
  5
A2
330
1F
100
AcDbEntity
  8
0
  6
Continuous
 62
     1
370
    15
100
AcDbLine
 10
23.06212123771678
 20
3.175000000000004
 30
0.0
 11
21.97617180413026
 21
3.175000000000004
 31
0.0
  0
LINE
  5
A3
330
1F
100
AcDbEntity
  8
0
  6
Continuous
 62
     1
370
    15
100
AcDbLine
 10
25.30154210092721
 20
-3.174999999999996
 30
0.0
 11
26.38644545512005
 21
-3.174999999999996
 31
0.0
  0
LINE
  5
A4
330
1F
100
AcDbEntity
  8
0
  6
Continuous
 62
     1
370
    15
100
AcDbLine
 10
16.41232672698613
 20
3.175000000000004
 30
0.0
 11
15.32589492895277
 21
3.175000000000004
 31
0.0
  0
ARC
  5
A6
330
1F
100
AcDbEntity
  8
0
  6
Continuous
 62
     1
370
    15
100
AcDbCircle
 10
29.61900000000001
 20
-2.793999999999996
 30
0.0
 40
0.3809999999999986
100
AcDbArc
 50
276.6346782398184
 51
285.3971990818337
  0
SPLINE
  5
A7
330
1F
100
AcDbEntity
  8
0
  6
Continuous
 62
     4
370
    15
100
AcDbSpline
210
0.0
220
0.0
230
1.0
 70
     8
 71
     3
 72
    10
 73
     6
 74
     0
 42
0.000000001
 43
0.00000001
 40
0.0
 40
0.0
 40
0.0
 40
0.0
 40
0.5
 40
0.5
 40
1.0
 40
1.0
 40
1.0
 40
1.0
 10
9.641367114455946
 20
-1.481202367321588
 30
0.0
 10
9.552107265142103
 20
-1.402544574442572
 30
0.0
 10
9.493560431097027
 20
-1.299819292951619
 30
0.0
 10
9.43204847836605
 20
-1.075912462881194
 30
0.0
 10
9.42976159403679
 20
-0.9559118323112947
 30
0.0
 10
9.42976159403679
 20
-0.8352512794225837
 30
0.0
  0
SPLINE
  5
A8
330
1F
100
AcDbEntity
  8
0
  6
Continuous
 62
     4
370
    15
100
AcDbSpline
210
0.0
220
0.0
230
1.0
 70
     8
 71
     3
 72
    14
 73
    10
 74
     0
 42
0.000000001
 43
0.00000001
 40
0.0
 40
0.0
 40
0.0
 40
0.0
 40
0.25
 40
0.25
 40
0.5
 40
0.5
 40
0.75
 40
0.75
 40
1.0
 40
1.0
 40
1.0
 40
1.0
 10
9.429761594036771
 20
-0.8352512794225877
 30
0.0
 10
9.429761594036771
 20
-0.699563037868395
 30
0.0
 10
9.433010906890509
 20
-0.5602894785404775
 30
0.0
 10
9.5178329068771
 20
-0.2935583235259302
 30
0.0
 10
9.598001054803841
 20
-0.1715709794849617
 30
0.0
 10
9.828137523127426
 20
-0.0041320328326703
 30
0.0
 10
9.970176808125888
 20
0.0361689841696795
 30
0.0
 10
10.25319665328422
 20
0.0138094594959779
 30
0.0
 10
10.3872235668057
 20
-0.0485940354535476
 30
0.0
 10
10.48810774475289
 20
-0.1489718839980497
 30
0.0
  0
SPLINE
  5
A9
330
1F
100
AcDbEntity
  8
0
  6
Continuous
 62
     4
370
    15
100
AcDbSpline
210
0.0
220
0.0
230
1.0
 70
     8
 71
     3
 72
    10
 73
     6
 74
     0
 42
0.000000001
 43
0.00000001
 40
0.0
 40
0.0
 40
0.0
 40
0.0
 40
0.5
 40
0.5
 40
1.0
 40
1.0
 40
1.0
 40
1.0
 10
10.95
 20
-2.482016054749677
 30
0.0
 10
10.73320124708368
 20
-2.346299411434988
 30
0.0
 10
10.5121494618533
 20
-2.192026715602354
 30
0.0
 10
10.07547432767955
 20
-1.855875610341242
 30
0.0
 10
9.860635758567033
 20
-1.674426843118204
 30
0.0
 10
9.641367114455948
 20
-1.481202367321587
 30
0.0
  0
SPLINE
  5
AA
330
1F
100
AcDbEntity
  8
0
  6
Continuous
 62
     4
370
    15
100
AcDbSpline
210
0.0
220
0.0
230
1.0
 70
     8
 71
     3
 72
     8
 73
     4
 74
     0
 42
0.000000001
 43
0.00000001
 40
0.0
 40
0.0
 40
0.0
 40
0.0
 40
1.0
 40
1.0
 40
1.0
 40
1.0
 10
10.95
 20
-0.6063338917669492
 30
0.0
 10
10.79733355768373
 20
-0.4559016372749544
 30
0.0
 10
10.64256104897531
 20
-0.3026499997730591
 30
0.0
 10
10.48810774475289
 20
-0.1489718839980496
 30
0.0
  0
SPLINE
  5
AB
330
1F
100
AcDbEntity
  8
0
  6
Continuous
 62
     4
370
    15
100
AcDbSpline
210
0.0
220
0.0
230
1.0
 70
    24
 71
     3
 72
    14
 73
    10
 74
     0
 42
0.000000001
 43
0.00000001
 40
0.0
 40
0.0
 40
0.0
 40
0.0
 40
0.25
 40
0.25
 40
0.5
 40
0.5
 40
0.75
 40
0.75
 40
1.0
 40
1.0
 40
1.0
 40
1.0
 10
10.95
 20
-0.6063338917669545
 30
0.0
 10
10.95
 20
-0.6403724380234699
 30
0.0
 10
10.95
 20
-0.6939298762055048
 30
0.0
 10
10.95
 20
-0.8651354435399716
 30
0.0
 10
10.95
 20
-0.9836534189867228
 30
0.0
 10
10.95
 20
-1.303629570422955
 30
0.0
 10
10.95
 20
-1.506391216534923
 30
0.0
 10
10.95
 20
-1.971307347949633
 30
0.0
 10
10.95
 20
-2.232500656909304
 30
0.0
 10
10.95
 20
-2.482016054749672
 30
0.0
  0
SPLINE
  5
AC
330
1F
100
AcDbEntity
  8
0
  6
Continuous
 62
     4
370
    15
100
AcDbSpline
210
0.0
220
0.0
230
1.0
 70
     8
 71
     3
 72
     8
 73
     4
 74
     0
 42
0.000000001
 43
0.00000001
 40
0.0
 40
0.0
 40
0.0
 40
0.0
 40
1.0
 40
1.0
 40
1.0
 40
1.0
 10
10.95
 20
2.395858463180154
 30
0.0
 10
10.79733355768372
 20
2.496420454346266
 30
0.0
 10
10.64256104897531
 20
2.589025851098879
 30
0.0
 10
10.48810774475289
 20
2.67211637419704
 30
0.0
  0
SPLINE
  5
AD
330
1F
100
AcDbEntity
  8
0
  6
Continuous
 62
     4
370
    15
100
AcDbSpline
210
0.0
220
0.0
230
1.0
 70
     8
 71
     3
 72
    14
 73
    10
 74
     0
 42
0.000000001
 43
0.00000001
 40
0.0
 40
0.0
 40
0.0
 40
0.0
 40
0.2500000000000002
 40
0.2500000000000002
 40
0.5000000000000001
 40
0.5000000000000001
 40
0.75
 40
0.75
 40
1.0
 40
1.0
 40
1.0
 40
1.0
 10
9.429761594036771
 20
2.235153134549241
 30
0.0
 10
9.429761594036771
 20
2.335039253643461
 30
0.0
 10
9.433010906890509
 20
2.428842329904607
 30
0.0
 10
9.5178329068771
 20
2.593553263107305
 30
0.0
 10
9.59800105480384
 20
2.660785470494325
 30
0.0
 10
9.828137523127426
 20
2.748518773241254
 30
0.0
 10
9.970176808125888
 20
2.767553777157838
 30
0.0
 10
10.25319665328422
 20
2.756526425589628
 30
0.0
 10
10.38722356680569
 20
2.726388564488865
 30
0.0
 10
10.48810774475289
 20
2.67211637419704
 30
0.0
  0
SPLINE
  5
AE
330
1F
100
AcDbEntity
  8
0
  6
Continuous
 62
     4
370
    15
100
AcDbSpline
210
0.0
220
0.0
230
1.0
 70
     8
 71
     3
 72
    10
 73
     6
 74
     0
 42
0.000000001
 43
0.00000001
 40
0.0
 40
0.0
 40
0.0
 40
0.0
 40
0.5000000000000003
 40
0.5000000000000003
 40
1.0
 40
1.0
 40
1.0
 40
1.0
 10
9.641367114455946
 20
1.691475790918903
 30
0.0
 10
9.552107265142103
 20
1.766733271313127
 30
0.0
 10
9.493560431097027
 20
1.860917151650814
 30
0.0
 10
9.43204847836605
 20
2.051099220862506
 30
0.0
 10
9.429761594036789
 20
2.146329562088085
 30
0.0
 10
9.429761594036789
 20
2.235153134549244
 30
0.0
  0
SPLINE
  5
AF
330
1F
100
AcDbEntity
  8
0
  6
Continuous
 62
     4
370
    15
100
AcDbSpline
210
0.0
220
0.0
230
1.0
 70
     8
 71
     3
 72
    10
 73
     6
 74
     0
 42
0.000000001
 43
0.00000001
 40
0.0
 40
0.0
 40
0.0
 40
0.0
 40
0.5
 40
0.5
 40
1.0
 40
1.0
 40
1.0
 40
1.0
 10
10.95
 20
0.4736831920502967
 30
0.0
 10
10.73320124708368
 20
0.6888789251557165
 30
0.0
 10
10.5121494618533
 20
0.9020915080719822
 30
0.0
 10
10.07547432767955
 20
1.311024719229291
 30
0.0
 10
9.860635758567033
 20
1.506604252235959
 30
0.0
 10
9.641367114455946
 20
1.691475790918903
 30
0.0
  0
SPLINE
  5
B0
330
1F
100
AcDbEntity
  8
0
  6
Continuous
 62
     4
370
    15
100
AcDbSpline
210
0.0
220
0.0
230
1.0
 70
     8
 71
     3
 72
     8
 73
     4
 74
     0
 42
0.000000001
 43
0.00000001
 40
0.0
 40
0.0
 40
0.0
 40
0.0
 40
1.0
 40
1.0
 40
1.0
 40
1.0
 10
10.95
 20
-3.0021923549471
 30
0.0
 10
10.79733355768373
 20
-2.952322091621216
 30
0.0
 10
10.64256104897531
 20
-2.891675850871934
 30
0.0
 10
10.48810774475289
 20
-2.821088258195084
 30
0.0
  0
SPLINE
  5
B1
330
1F
100
AcDbEntity
  8
0
  6
Continuous
 62
     4
370
    15
100
AcDbSpline
210
0.0
220
0.0
230
1.0
 70
     8
 71
     3
 72
    14
 73
    10
 74
     0
 42
0.000000001
 43
0.00000001
 40
0.0
 40
0.0
 40
0.0
 40
0.0
 40
0.25
 40
0.25
 40
0.5
 40
0.5
 40
0.75
 40
0.75
 40
1.0
 40
1.0
 40
1.0
 40
1.0
 10
9.429761594036771
 20
-3.070404413971822
 30
0.0
 10
9.429761594036771
 20
-3.034602291511848
 30
0.0
 10
9.433010906890509
 20
-2.989131808445078
 30
0.0
 10
9.517832906877102
 20
-2.887111586633229
 30
0.0
 10
9.598001054803841
 20
-2.832356449979281
 30
0.0
 10
9.828137523127427
 20
-2.752650806073923
 30
0.0
 10
9.970176808125888
 20
-2.731384792988156
 30
0.0
 10
10.25319665328422
 20
-2.742716966093646
 30
0.0
 10
10.3872235668057
 20
-2.774982599942409
 30
0.0
 10
10.48810774475289
 20
-2.821088258195084
 30
0.0
  0
SPLINE
  5
B2
330
1F
100
AcDbEntity
  8
0
  6
Continuous
 62
     4
370
    15
100
AcDbSpline
210
0.0
220
0.0
230
1.0
 70
     8
 71
     3
 72
    10
 73
     6
 74
     0
 42
0.000000001
 43
0.00000001
 40
0.0
 40
0.0
 40
0.0
 40
0.0
 40
0.4999999999999999
 40
0.4999999999999999
 40
1.0
 40
1.0
 40
1.0
 40
1.0
 10
9.641367114455946
 20
-3.172678158240481
 30
0.0
 10
9.552107265142103
 20
-3.169277845755689
 30
0.0
 10
9.493560431097027
 20
-3.160736444602425
 30
0.0
 10
9.43204847836605
 20
-3.12701168374369
 30
0.0
 10
9.429761594036792
 20
-3.102241394399372
 30
0.0
 10
9.429761594036792
 20
-3.070404413971822
 30
0.0
  0
SPLINE
  5
B3
330
1F
100
AcDbEntity
  8
0
  6
Continuous
 62
     4
370
    15
100
AcDbSpline
210
0.0
220
0.0
230
1.0
 70
     8
 71
     3
 72
     9
 73
     5
 74
     0
 42
0.000000001
 43
0.00000001
 40
0.0
 40
0.0
 40
0.0
 40
0.0
 40
0.4725211984529437
 40
0.9999999999999999
 40
0.9999999999999999
 40
0.9999999999999999
 40
0.9999999999999999
 10
10.87939478472168
 20
-2.974508639548753
 30
0.0
 10
10.68411261328966
 20
-3.035819511838427
 30
0.0
 10
10.27083555382357
 20
-3.165572150429901
 30
0.0
 10
9.858739203464998
 20
-3.170224265931198
 30
0.0
 10
9.641367114455948
 20
-3.172678158240481
 30
0.0
  0
LINE
  5
B4
330
1F
100
AcDbEntity
  8
0
  6
Continuous
 62
     1
370
    15
100
AcDbLine
 10
10.87939478472166
 20
2.974508639548759
 30
0.0
 11
10.95
 21
3.002192354947114
 31
0.0
  0
SPLINE
  5
B5
330
1F
100
AcDbEntity
  8
0
  6
Continuous
 62
     4
370
    15
100
AcDbSpline
210
0.0
220
0.0
230
1.0
 70
     8
 71
     3
 72
     9
 73
     5
 74
     0
 42
0.000000001
 43
0.00000001
 40
0.0
 40
0.0
 40
0.0
 40
0.0
 40
0.5520467534867478
 40
1.0
 40
1.0
 40
1.0
 40
1.0
 10
10.95
 20
2.955699246799959
 30
0.0
 10
10.73115558896175
 20
3.026158451124264
 30
0.0
 10
10.3347318990188
 20
3.153791126942537
 30
0.0
 10
9.939440683296935
 20
3.161433945359015
 30
0.0
 10
9.76236869989616
 20
3.164857570681189
 30
0.0
  0
LINE
  5
B6
330
1F
100
AcDbEntity
  8
0
  6
Continuous
 62
     4
370
    15
100
AcDbLine
 10
-32.99999999999999
 20
3.174999999999998
 30
0.0
 11
-32.99999999999999
 21
-3.174999999999998
 31
0.0
  0
LINE
  5
B7
330
1F
100
AcDbEntity
  8
0
  6
Continuous
 62
     1
370
    15
100
AcDbLine
 10
10.95
 20
-2.482016054749675
 30
0.0
 11
10.95
 21
-3.002192354947099
 31
0.0
  0
LINE
  5
B8
330
1F
100
AcDbEntity
  8
0
  6
Continuous
 62
     4
370
    15
100
AcDbLine
 10
10.95
 20
0.473683192050297
 30
0.0
 11
10.95
 21
-0.6063338917669496
 31
0.0
  0
LINE
  5
B9
330
1F
100
AcDbEntity
  8
0
  6
Continuous
 62
     4
370
    15
100
AcDbLine
 10
10.95
 20
2.955699246799957
 30
0.0
 11
10.95
 21
2.395858463180154
 31
0.0
  0
LINE
  5
BA
330
1F
100
AcDbEntity
  8
0
  6
Continuous
 62
     4
370
    15
100
AcDbLine
 10
-33.49999999999999
 20
2.674999999999998
 30
0.0
 11
-33.49999999999999
 21
-2.674999999999996
 31
0.0
  0
SPLINE
  5
BB
330
1F
100
AcDbEntity
  8
0
  6
Continuous
 62
     4
370
    15
100
AcDbSpline
210
0.0
220
0.0
230
1.0
 70
    24
 71
     3
 72
    14
 73
    10
 74
     0
 42
0.000000001
 43
0.00000001
 40
0.0
 40
0.0
 40
0.0
 40
0.0
 40
0.2499999999999998
 40
0.2499999999999998
 40
0.4999999999999998
 40
0.4999999999999998
 40
0.7499999999999998
 40
0.7499999999999998
 40
1.0
 40
1.0
 40
1.0
 40
1.0
 10
10.95
 20
2.395858463180134
 30
0.0
 10
10.95
 20
2.269545538522153
 30
0.0
 10
10.95
 20
2.123196800848319
 30
0.0
 10
10.95
 20
1.791667445781029
 30
0.0
 10
10.95
 20
1.605774407438883
 30
0.0
 10
10.95
 20
1.222732682442007
 30
0.0
 10
10.95
 20
1.025882199701059
 30
0.0
 10
10.95
 20
0.6885323485831434
 30
0.0
 10
10.95
 20
0.5506298001248224
 30
0.0
 10
10.95
 20
0.4736831920502979
 30
0.0
  0
SPLINE
  5
BC
330
1F
100
AcDbEntity
  8
0
  6
Continuous
 62
     1
370
    15
100
AcDbSpline
210
0.0
220
0.0
230
1.0
 70
     8
 71
     3
 72
    26
 73
    22
 74
     0
 42
0.000000001
 43
0.00000001
 40
0.0
 40
0.0
 40
0.0
 40
0.0
 40
0.0070440362797504
 40
0.0648841366193275
 40
0.1229574145909401
 40
0.1808381858006037
 40
0.2387064937331719
 40
0.2967839989197246
 40
0.3546318975280492
 40
0.4125424536335198
 40
0.4705987082370008
 40
0.5284278113998333
 40
0.5863945806187223
 40
0.6444041555482535
 40
0.7022285741257154
 40
0.7602566886226473
 40
0.8182029905735964
 40
0.8760368438293455
 40
0.9341030908939916
 40
0.9919978685418958
 40
1.0
 40
1.0
 40
1.0
 40
1.0
 10
27.5064852215325
 20
-2.972111216116146
 30
0.0
 10
27.48043451229881
 20
-2.983519018618719
 30
0.0
 10
27.2404758139303
 20
-3.088598746591027
 30
0.0
 10
26.78687410616557
 20
-3.163084176286539
 30
0.0
 10
26.14248446943127
 20
-3.189670170812921
 30
0.0
 10
25.5003729763224
 20
-3.072478085748527
 30
0.0
 10
24.85836662654152
 20
-2.832905363665626
 30
0.0
 10
24.21403260355584
 20
-2.478052213704244
 30
0.0
 10
23.57225909190016
 20
-2.020582442740362
 30
0.0
 10
22.92978784749307
 20
-1.480864403149681
 30
0.0
 10
22.28568308253064
 20
-0.8823950060617987
 30
0.0
 10
21.64411447983687
 20
-0.2450818652066782
 30
0.0
 10
21.00101015579192
 20
0.4004203109867104
 30
0.0
 10
20.35742065787397
 20
1.029131290088231
 30
0.0
 10
19.71590005587978
 20
1.61801335940826
 30
0.0
 10
19.07210417177468
 20
2.138639874010059
 30
0.0
 10
18.42922762356973
 20
2.572014144393862
 30
0.0
 10
17.78762174483609
 20
2.904262440267293
 30
0.0
 10
17.14335724888075
 20
3.104137595473966
 30
0.0
 10
16.68542361750918
 20
3.19022301372317
 30
0.0
 10
16.44189892714031
 20
3.169758159542635
 30
0.0
 10
16.41232672698613
 20
3.167273028515319
 30
0.0
  0
SPLINE
  5
BD
330
1F
100
AcDbEntity
  8
0
  6
Continuous
 62
     1
370
    15
100
AcDbSpline
210
0.0
220
0.0
230
1.0
 70
     8
 71
     3
 72
    25
 73
    21
 74
     0
 42
0.000000001
 43
0.00000001
 40
0.0
 40
0.0
 40
0.0
 40
0.0
 40
0.0230679262959684
 40
0.0809018112850643
 40
0.1388481450310602
 40
0.1968762913679297
 40
0.2547007416735616
 40
0.3127103484328575
 40
0.3706771494580241
 40
0.4285062843515967
 40
0.486562570810456
 40
0.5444731586913598
 40
0.6023210890407378
 40
0.6603986260943283
 40
0.7182669657791485
 40
0.7761477687479025
 40
0.8342210785842336
 40
0.8920612106605855
 40
0.9577910865159657
 40
1.0
 40
1.0
 40
1.0
 40
1.0
 10
17.5318041560617
 20
2.964975741734687
 30
0.0
 10
17.61723413752321
 20
2.998052610727596
 30
0.0
 10
17.91684668828352
 20
3.114056909459587
 30
0.0
 10
18.42920659729898
 20
3.184313362923784
 30
0.0
 10
19.07210981984336
 20
3.169884607446033
 30
0.0
 10
19.71589854769224
 20
3.018961346008795
 30
0.0
 10
20.35742106270703
 20
2.745712420884773
 30
0.0
 10
21.00101004775667
 20
2.360840117447226
 30
0.0
 10
21.64411450681715
 20
1.879653223593957
 30
0.0
 10
22.28568308227732
 20
1.319947226406443
 30
0.0
 10
22.92978782132623
 20
0.708972225050702
 30
0.0
 10
23.57225919643222
 20
0.0674191612713177
 30
0.0
 10
24.2140322112907
 20
-0.5777452693720224
 30
0.0
 10
24.85836809530844
 20
-1.196528949714223
 30
0.0
 10
25.50036751685303
 20
-1.769000391823554
 30
0.0
 10
26.14250488028432
 20
-2.268394741916383
 30
0.0
 10
26.78679777944967
 20
-2.67522835174937
 30
0.0
 10
27.45727326972943
 20
-2.981998027442756
 30
0.0
 10
28.07034907223369
 20
-3.15918485646645
 30
0.0
 10
28.47006387740652
 20
-3.156662690357696
 30
0.0
 10
28.62637031490764
 20
-3.155676410154553
 30
0.0
  0
SPLINE
  5
BE
330
1F
100
AcDbEntity
  8
0
  6
Continuous
 62
     1
370
    15
100
AcDbSpline
210
0.0
220
0.0
230
1.0
 70
     8
 71
     3
 72
    14
 73
    10
 74
     0
 42
0.000000001
 43
0.00000001
 40
0.0
 40
0.0
 40
0.0
 40
0.0
 40
0.25
 40
0.25
 40
0.5
 40
0.5
 40
0.75
 40
0.75
 40
1.0
 40
1.0
 40
1.0
 40
1.0
 10
30.0
 20
1.415035165539282
 30
0.0
 10
30.0
 20
1.395978960418943
 30
0.0
 10
29.99443011951427
 20
1.382825354675659
 30
0.0
 10
29.95620722241976
 20
1.388070793979543
 30
0.0
 10
29.92098846532705
 20
1.410171076014218
 30
0.0
 10
29.83808360582406
 20
1.475856237992871
 30
0.0
 10
29.7927445327609
 20
1.515934061193368
 30
0.0
 10
29.70420295787491
 20
1.593783023682898
 30
0.0
 10
29.66098014796324
 20
1.631756412995024
 30
0.0
 10
29.61900000000001
 20
1.667359407809027
 30
0.0
  0
SPLINE
  5
BF
330
1F
100
AcDbEntity
  8
0
  6
Continuous
 62
     1
370
    15
100
AcDbSpline
210
0.0
220
0.0
230
1.0
 70
     8
 71
     3
 72
    12
 73
     8
 74
     0
 42
0.000000001
 43
0.00000001
 40
0.0
 40
0.0
 40
0.0
 40
0.0
 40
0.2257221468759131
 40
0.4519288809077059
 40
0.6775757857890444
 40
0.8761376514720493
 40
1.0
 40
1.0
 40
1.0
 40
1.0
 10
29.61899999999993
 20
1.667359407809084
 30
0.0
 10
29.37589806456504
 20
1.865807759598219
 30
0.0
 10
28.8891722950818
 20
2.263130498121282
 30
0.0
 10
28.15790632385767
 20
2.716828800127443
 30
0.0
 10
27.45728264687185
 20
3.015883285511461
 30
0.0
 10
26.86796902878708
 20
3.163874451171161
 30
0.0
 10
26.52008748175858
 20
3.160836948515041
 30
0.0
 10
26.38644545512005
 20
3.159670062791004
 30
0.0
  0
SPLINE
  5
C0
330
1F
100
AcDbEntity
  8
0
  6
Continuous
 62
     1
370
    15
100
AcDbSpline
210
0.0
220
0.0
230
1.0
 70
     8
 71
     3
 72
    18
 73
    14
 74
     0
 42
0.000000001
 43
0.00000001
 40
0.0
 40
0.0
 40
0.0
 40
0.0
 40
0.0589890035524841
 40
0.1565695141091595
 40
0.2540870089820859
 40
0.3519779007373744
 40
0.4494951533197306
 40
0.5470760174696463
 40
0.6449453342643787
 40
0.7424230274010782
 40
0.8400908454214555
 40
0.9201581877580319
 40
1.0
 40
1.0
 40
1.0
 40
1.0
 10
17.5318041560617
 20
-2.964975741734678
 30
0.0
 10
17.40220287951734
 20
-3.011092495072567
 30
0.0
 10
17.05821319204241
 20
-3.133496286077118
 30
0.0
 10
16.50108477196398
 20
-3.192215309686678
 30
0.0
 10
15.85922976255504
 20
-3.148998371096906
 30
0.0
 10
15.21487238768683
 20
-2.972496873861012
 30
0.0
 10
14.57299688216128
 20
-2.675220287915901
 30
0.0
 10
13.93070248767653
 20
-2.268149813470465
 30
0.0
 10
13.28647890080911
 20
-1.770251578799737
 30
0.0
 10
12.64490334690592
 20
-1.197513215742086
 30
0.0
 10
12.04080049668172
 20
-0.615014540324377
 30
0.0
 10
11.47525804551991
 20
-0.0507299612059924
 30
0.0
 10
11.12492131441697
 20
0.2990432434620905
 30
0.0
 10
10.95
 20
0.4736831920502967
 30
0.0
  0
SPLINE
  5
C1
330
1F
100
AcDbEntity
  8
0
  6
Continuous
 62
     1
370
    15
100
AcDbSpline
210
0.0
220
0.0
230
1.0
 70
    24
 71
     3
 72
    14
 73
    10
 74
     0
 42
0.000000001
 43
0.00000001
 40
0.0
 40
0.0
 40
0.0
 40
0.0
 40
0.25
 40
0.25
 40
0.5
 40
0.5
 40
0.75
 40
0.75
 40
1.0
 40
1.0
 40
1.0
 40
1.0
 10
10.95
 20
2.395858463179776
 30
0.0
 10
10.95
 20
2.269545538521788
 30
0.0
 10
10.95
 20
2.123196800847953
 30
0.0
 10
10.95
 20
1.791667445780689
 30
0.0
 10
10.95
 20
1.60577440743857
 30
0.0
 10
10.95
 20
1.222732682441776
 30
0.0
 10
10.95
 20
1.025882199700886
 30
0.0
 10
10.95
 20
0.6885323485830761
 30
0.0
 10
10.95
 20
0.5506298001248027
 30
0.0
 10
10.95
 20
0.4736831920502958
 30
0.0
  0
SPLINE
  5
C2
330
1F
100
AcDbEntity
  8
0
  6
Continuous
 62
     1
370
    15
100
AcDbSpline
210
0.0
220
0.0
230
1.0
 70
     8
 71
     3
 72
    20
 73
    16
 74
     0
 42
0.000000001
 43
0.00000001
 40
0.0
 40
0.0
 40
0.0
 40
0.0
 40
0.0682369779990616
 40
0.1366667057826248
 40
0.2201387182825554
 40
0.3034482401382944
 40
0.3870924640027521
 40
0.4704901611887004
 40
0.5538334926104695
 40
0.6374961555617595
 40
0.7208396940576897
 40
0.8042370890444083
 40
0.8878814856305316
 40
0.9711911190642522
 40
0.9999999999999999
 40
0.9999999999999999
 40
0.9999999999999999
 40
0.9999999999999999
 10
10.95000000000092
 20
2.395858463183238
 30
0.0
 10
11.1249213145498
 20
2.274440244277687
 30
0.0
 10
11.47525804591693
 20
2.031260835013059
 30
0.0
 10
12.04080049494458
 20
1.562043191251404
 30
0.0
 10
12.64490335503187
 20
1.009881279255928
 30
0.0
 10
13.28647887068532
 20
0.3776128686214848
 30
0.0
 10
13.93070260041875
 20
-0.2667082382072776
 30
0.0
 10
14.57299646296488
 20
-0.9023469706448997
 30
0.0
 10
15.21487395368103
 20
-1.501398093415643
 30
0.0
 10
15.85922390255225
 20
-2.03701111519235
 30
0.0
 10
16.50110655216633
 20
-2.491007875170962
 30
0.0
 10
17.14338379391589
 20
-2.844929958628744
 30
0.0
 10
17.78766244502314
 20
-3.073158058013826
 30
0.0
 10
18.28903989185367
 20
-3.179867363578766
 30
0.0
 10
18.57695778620552
 20
-3.164306161878506
 30
0.0
 10
18.65093836277934
 20
-3.160307707122651
 30
0.0
  0
SPLINE
  5
C3
330
1F
100
AcDbEntity
  8
0
  6
Continuous
 62
     1
370
    15
100
AcDbSpline
210
0.0
220
0.0
230
1.0
 70
     8
 71
     3
 72
    10
 73
     6
 74
     0
 42
0.000000001
 43
0.00000001
 40
0.0
 40
0.0
 40
0.0
 40
0.0
 40
0.3083363457034778
 40
0.6545389959361007
 40
1.0
 40
1.0
 40
1.0
 40
1.0
 10
27.5064852215325
 20
2.972111216116157
 30
0.0
 10
27.72341893269068
 20
3.037555570861065
 30
0.0
 10
28.18392764489652
 20
3.176481399234258
 30
0.0
 10
28.8891923090074
 20
3.197087588020923
 30
0.0
 10
29.37590473110293
 20
3.079736702901656
 30
0.0
 10
29.61899999999994
 20
3.02112417591797
 30
0.0
  0
SPLINE
  5
C4
330
1F
100
AcDbEntity
  8
0
  6
Continuous
 62
     1
370
    15
100
AcDbSpline
210
0.0
220
0.0
230
1.0
 70
     8
 71
     3
 72
     8
 73
     4
 74
     0
 42
0.000000001
 43
0.00000001
 40
0.0
 40
0.0
 40
0.0
 40
0.0
 40
1.0
 40
1.0
 40
1.0
 40
1.0
 10
29.61900000000001
 20
3.02112417591417
 30
0.0
 10
29.68226637572959
 20
3.001733928373393
 30
0.0
 10
29.74045311756267
 20
2.965550708923584
 30
0.0
 10
29.79295827380983
 20
2.916252591847617
 30
0.0
  0
SPLINE
  5
C5
330
1F
100
AcDbEntity
  8
0
  6
Continuous
 62
     1
370
    15
100
AcDbSpline
210
0.0
220
0.0
230
1.0
 70
     8
 71
     3
 72
    14
 73
    10
 74
     0
 42
0.000000001
 43
0.00000001
 40
0.0
 40
0.0
 40
0.0
 40
0.0
 40
0.25
 40
0.25
 40
0.5
 40
0.5
 40
0.75
 40
0.75
 40
1.0
 40
1.0
 40
1.0
 40
1.0
 10
29.79295827380981
 20
2.916252591847589
 30
0.0
 10
29.78417826202985
 20
2.799595109894578
 30
0.0
 10
29.76656064460978
 20
2.685592008207933
 30
0.0
 10
29.70381663284824
 20
2.465848082829889
 30
0.0
 10
29.65769769846062
 20
2.359179748808143
 30
0.0
 10
29.52729815845406
 20
2.183507318629797
 30
0.0
 10
29.44322907940442
 20
2.117627392221986
 30
0.0
 10
29.25820397391943
 20
2.053136867200954
 30
0.0
 10
29.15825141022756
 20
2.053866008782805
 30
0.0
 10
29.06351788549384
 20
2.07971568272539
 30
0.0
  0
SPLINE
  5
C6
330
1F
100
AcDbEntity
  8
0
  6
Continuous
 62
     1
370
    15
100
AcDbSpline
210
0.0
220
0.0
230
1.0
 70
     8
 71
     3
 72
     9
 73
     5
 74
     0
 42
0.000000001
 43
0.00000001
 40
0.0
 40
0.0
 40
0.0
 40
0.0
 40
0.5990122969510238
 40
1.0
 40
1.0
 40
1.0
 40
1.0
 10
30.0
 20
1.562143303463064
 30
0.0
 10
29.8314137933936
 20
1.663189697838048
 30
0.0
 10
29.54997348329563
 20
1.831878045121252
 30
0.0
 10
29.26474783313764
 20
1.976574256377739
 30
0.0
 10
29.15037585483013
 20
2.034595657769366
 30
0.0
  0
LINE
  5
C7
330
1F
100
AcDbEntity
  8
0
  6
Continuous
 62
     1
370
    15
100
AcDbLine
 10
30.0
 20
1.415035165539279
 30
0.0
 11
30.0
 21
1.562143303463064
 31
0.0
  0
SPLINE
  5
C8
330
1F
100
AcDbEntity
  8
0
  6
Continuous
 62
     1
370
    15
100
AcDbSpline
210
0.0
220
0.0
230
1.0
 70
     8
 71
     3
 72
    25
 73
    21
 74
     0
 42
0.000000001
 43
0.00000001
 40
0.0
 40
0.0
 40
0.0
 40
0.0
 40
0.0548690786423171
 40
0.1127829353390641
 40
0.170842498837855
 40
0.2286748979495828
 40
0.2866449709635944
 40
0.3446578521279442
 40
0.4024855663873051
 40
0.4605169881757117
 40
0.5184665927552587
 40
0.5763037422306331
 40
0.6343732987601057
 40
0.6922713760999989
 40
0.7501320639354663
 40
0.8082143017653961
 40
0.8660748458410277
 40
0.923973132980692
 40
0.9820425695993168
 40
1.0
 40
1.0
 40
1.0
 40
1.0
 10
24.18057966131369
 20
-2.97664324878786
 30
0.0
 10
23.97784276255452
 20
-3.037421848927173
 30
0.0
 10
23.56111875133767
 20
-3.16235175661154
 30
0.0
 10
22.9298203251899
 20
-3.192252728707765
 30
0.0
 10
22.28567441054395
 20
-3.102563804475019
 30
0.0
 10
21.64411680205778
 20
-2.882789402651995
 30
0.0
 10
21.00100954617045
 20
-2.546448555291803
 30
0.0
 10
20.35742076914246
 20
-2.106555039372654
 30
0.0
 10
19.71590021778913
 20
-1.578650810459299
 30
0.0
 10
19.07210340967011
 20
-0.9885162058046866
 30
0.0
 10
18.42923050216245
 20
-0.3572066749726355
 30
0.0
 10
17.78761099526333
 20
0.2902355174639345
 30
0.0
 10
17.14339750174874
 20
0.9229255424202258
 30
0.0
 10
16.50110309585629
 20
1.519939409461479
 30
0.0
 10
15.85922405169213
 20
2.055258508325264
 30
0.0
 10
15.21487683745397
 20
2.50402164001413
 30
0.0
 10
14.57298483170915
 20
2.854861027570819
 30
0.0
 10
13.93074634574854
 20
3.079083967270934
 30
0.0
 10
13.43418047971941
 20
3.181691058670967
 30
0.0
 10
13.15338443174396
 20
3.165044063924036
 30
0.0
 10
13.08706083212719
 20
3.161112069074471
 30
0.0
  0
SPLINE
  5
C9
330
1F
100
AcDbEntity
  8
0
  6
Continuous
 62
     1
370
    15
100
AcDbSpline
210
0.0
220
0.0
230
1.0
 70
     8
 71
     3
 72
    25
 73
    21
 74
     0
 42
0.000000001
 43
0.00000001
 40
0.0
 40
0.0
 40
0.0
 40
0.0
 40
0.0329615070161108
 40
0.0908196985901622
 40
0.1488995749048577
 40
0.2067579102328995
 40
0.2646536335451796
 40
0.3227208290750162
 40
0.3805556269999908
 40
0.4385028754569236
 40
0.4965319377961812
 40
0.5543573008887608
 40
0.6123678233577886
 40
0.6703355394169779
 40
0.7281655871714466
 40
0.7862227900768995
 40
0.8441342921044744
 40
0.9019831356114439
 40
0.9600615894470791
 40
1.0
 40
1.0
 40
1.0
 40
1.0
 10
14.20751945369306
 20
2.964667597895212
 30
0.0
 10
14.32938934880761
 20
3.008810376531954
 30
0.0
 10
14.66518064427557
 20
3.130438123975708
 30
0.0
 10
15.21483604530094
 20
3.191283968742578
 30
0.0
 10
15.85923495281567
 20
3.153082204445626
 30
0.0
 10
16.50110017773082
 20
2.98021732749678
 30
0.0
 10
17.14339828677524
 20
2.686855253255077
 30
0.0
 10
17.78761078476899
 20
2.284742368909483
 30
0.0
 10
18.42923056169645
 20
1.787402649455788
 30
0.0
 10
19.07210338204074
 20
1.218050973031841
 30
0.0
 10
19.7159002686098
 20
0.6000154434846571
 30
0.0
 10
20.35742059389153
 20
-0.045207663351038
 30
0.0
 10
21.00101019865557
 20
-0.6861089463616126
 30
0.0
 10
21.6441143726347
 20
-1.299551254467629
 30
0.0
 10
22.28568346820569
 20
-1.861548941193949
 30
0.0
 10
22.92978640704487
 20
-2.344792316104653
 30
0.0
 10
23.57226444858376
 20
-2.735008798529407
 30
0.0
 10
24.21401260150224
 20
-3.008726066152299
 30
0.0
 10
24.79195482891194
 20
-3.159435258913513
 30
0.0
 10
25.154015261588
 20
-3.160631849062215
 30
0.0
 10
25.30154210092721
 20
-3.161119417287545
 30
0.0
  0
SPLINE
  5
CB
330
1F
100
AcDbEntity
  8
0
  6
Continuous
 62
     1
370
    15
100
AcDbSpline
210
0.0
220
0.0
230
1.0
 70
     8
 71
     3
 72
    23
 73
    19
 74
     0
 42
0.000000001
 43
0.00000001
 40
0.0
 40
0.0
 40
0.0
 40
0.0
 40
0.0503498395830688
 40
0.115105448514396
 40
0.1800891696105597
 40
0.2449812716059407
 40
0.3097474461141055
 40
0.3747738705820141
 40
0.4396082722545814
 40
0.504400805073127
 40
0.5694414300907834
 40
0.6342338019267306
 40
0.6990684385335696
 40
0.7640947287250318
 40
0.8288608164907788
 40
0.8937532269515598
 40
0.9469515367809546
 40
0.9999999999999999
 40
0.9999999999999999
 40
0.9999999999999999
 40
0.9999999999999999
 10
20.8562275543145
 20
-2.96897353670613
 30
0.0
 10
20.68977567338914
 20
-3.023579682100912
 30
0.0
 10
20.30924777958386
 20
-3.148415528835616
 30
0.0
 10
19.71590749962166
 20
-3.194281890835909
 30
0.0
 10
19.07210145748599
 20
-3.127653606138895
 30
0.0
 10
18.42923102776657
 20
-2.929611869434677
 30
0.0
 10
17.78761083888926
 20
-2.611967761280368
 30
0.0
 10
17.14339759982726
 20
-2.189084402192769
 30
0.0
 10
16.50110286060177
 20
-1.675590516498598
 30
0.0
 10
15.85922489577437
 20
-1.09295287996615
 30
0.0
 10
15.21487368825793
 20
-0.4682930452689311
 30
0.0
 10
14.57299653401521
 20
0.1781341068829388
 30
0.0
 10
13.93070258130987
 20
0.8167922137162147
 30
0.0
 10
13.28647887579105
 20
1.420036135853824
 30
0.0
 10
12.64490335365459
 20
1.96848113307389
 30
0.0
 10
12.04080049523889
 20
2.404859135810538
 30
0.0
 10
11.47525804584925
 20
2.739850773027579
 30
0.0
 10
11.12492131452665
 20
2.883817437336593
 30
0.0
 10
10.95
 20
2.955699246799961
 30
0.0
  0
SPLINE
  5
CC
330
1F
100
AcDbEntity
  8
0
  6
Continuous
 62
     1
370
    15
100
AcDbSpline
210
0.0
220
0.0
230
1.0
 70
     8
 71
     3
 72
    25
 73
    21
 74
     0
 42
0.000000001
 43
0.00000001
 40
0.0
 40
0.0
 40
0.0
 40
0.0
 40
0.0476602109849384
 40
0.0954550483215416
 40
0.153756190074021
 40
0.2119438400129362
 40
0.2703652630294464
 40
0.3286144991488266
 40
0.3868257634255621
 40
0.4452600652475904
 40
0.503471474155558
 40
0.5617204992034714
 40
0.620142042857666
 40
0.6783297707283759
 40
0.7366306353469824
 40
0.7950138131073575
 40
0.8531920485707345
 40
0.9115565733235366
 40
0.9698780304454975
 40
0.9999999999999999
 40
0.9999999999999999
 40
0.9999999999999999
 40
0.9999999999999999
 10
10.95000000000092
 20
3.00219235495011
 30
0.0
 10
11.12492131452747
 20
3.051282551834492
 30
0.0
 10
11.47525804584987
 20
3.149601611252705
 30
0.0
 10
12.04080049523839
 20
3.191546127215657
 30
0.0
 10
12.64490335365766
 20
3.131982355548457
 30
0.0
 10
13.28647887577968
 20
2.937833377761277
 30
0.0
 10
13.93070258135242
 20
2.625449317449373
 30
0.0
 10
14.57299653385699
 20
2.204779392762196
 30
0.0
 10
15.21487368884898
 20
1.693390047469219
 30
0.0
 10
15.85922489356265
 20
1.115233869145839
 30
0.0
 10
16.50110286882219
 20
0.4890650324728034
 30
0.0
 10
17.1433975690841
 20
-0.1566574511089573
 30
0.0
 10
17.78761095380636
 20
-0.7939492476693157
 30
0.0
 10
18.42923060049219
 20
-1.401624072938308
 30
0.0
 10
19.07210305670396
 20
-1.950641114280931
 30
0.0
 10
19.71590153107979
 20
-2.41898965724039
 30
0.0
 10
20.35741588174245
 20
-2.791930163606715
 30
0.0
 10
21.00102784730873
 20
-3.042849683714523
 30
0.0
 10
21.54086396288957
 20
-3.170214160168252
 30
0.0
 10
21.86558026597904
 20
-3.161698227878506
 30
0.0
 10
21.97617180413024
 20
-3.158797880585335
 30
0.0
  0
SPLINE
  5
CE
330
1F
100
AcDbEntity
  8
0
  6
Continuous
 62
     1
370
    15
100
AcDbSpline
210
0.0
220
0.0
230
1.0
 70
     8
 71
     3
 72
    22
 73
    18
 74
     0
 42
0.000000001
 43
0.00000001
 40
0.0
 40
0.0
 40
0.0
 40
0.0
 40
0.0738256968012958
 40
0.1478098848491923
 40
0.2216109726665886
 40
0.2865535061977428
 40
0.3517578502392225
 40
0.4167460487904721
 40
0.4817202536455504
 40
0.5469293439797642
 40
0.6118806333624237
 40
0.676902274224169
 40
0.742087504525368
 40
0.8070176904894313
 40
0.8721024471131074
 40
0.9372352657436329
 40
1.0
 40
1.0
 40
1.0
 40
1.0
 10
29.61899999999994
 20
-3.173637653076468
 30
0.0
 10
29.3758980037356
 20
-3.150271905788998
 30
0.0
 10
28.88917211246288
 20
-3.103490248918602
 30
0.0
 10
28.15790705540799
 20
-2.82571430716464
 30
0.0
 10
27.4572800499405
 20
-2.427445746001903
 30
0.0
 10
26.78679605397819
 20
-1.932165013925009
 30
0.0
 10
26.14250534099337
 20
-1.382256075803158
 30
0.0
 10
25.50036739624856
 20
-0.7737509145526837
 30
0.0
 10
24.85836811794332
 20
-0.1334053703088432
 30
0.0
 10
24.21403224197237
 20
0.5098574417865671
 30
0.0
 10
23.57225905179119
 20
1.135096829694595
 30
0.0
 10
22.92978837067619
 20
1.713072162341753
 30
0.0
 10
22.28568102757271
 20
2.219606172886193
 30
0.0
 10
21.64412214930088
 20
2.638278297433618
 30
0.0
 10
21.00098143736649
 20
2.945143185141714
 30
0.0
 10
20.36465068891984
 20
3.139833545656922
 30
0.0
 10
19.9439930883455
 20
3.162026562105154
 30
0.0
 10
19.73755862641081
 20
3.172917613171254
 30
0.0
  0
SPLINE
  5
CF
330
1F
100
AcDbEntity
  8
0
  6
Continuous
 62
     1
370
    15
100
AcDbSpline
210
0.0
220
0.0
230
1.0
 70
     8
 71
     3
 72
    10
 73
     6
 74
     0
 42
0.000000001
 43
0.00000001
 40
0.0
 40
0.0
 40
0.0
 40
0.0
 40
0.5
 40
0.5
 40
1.0
 40
1.0
 40
1.0
 40
1.0
 10
12.00207238882879
 20
-3.175000000003426
 30
0.0
 10
11.82827330757279
 20
-3.175000003299373
 30
0.0
 10
11.6513546501113
 20
-3.16045233887424
 30
0.0
 10
11.2984902011758
 20
-3.102425403424216
 30
0.0
 10
11.12440939958789
 20
-3.059165207346223
 30
0.0
 10
10.95000000000092
 20
-3.002192354950096
 30
0.0
  0
SPLINE
  5
D0
330
1F
100
AcDbEntity
  8
0
  6
Continuous
 62
     1
370
    15
100
AcDbSpline
210
0.0
220
0.0
230
1.0
 70
     8
 71
     3
 72
    21
 73
    17
 74
     0
 42
0.000000001
 43
0.00000001
 40
0.0
 40
0.0
 40
0.0
 40
0.0
 40
0.0165224317768954
 40
0.089919081888971
 40
0.1631414213143398
 40
0.236651376472592
 40
0.3099768503871168
 40
0.3832229883224784
 40
0.4567598506489473
 40
0.530031830563269
 40
0.6033195912913314
 40
0.6768511011819117
 40
0.7500873650668402
 40
0.8333134982111029
 40
0.9167461150890479
 40
1.0
 40
1.0
 40
1.0
 40
1.0
 10
20.85622755431453
 20
2.968973536706141
 30
0.0
 10
20.90451274754549
 20
2.988844294691016
 30
0.0
 10
21.16729248256192
 20
3.096985780070693
 30
0.0
 10
21.64414551211497
 20
3.172932149819703
 30
0.0
 10
22.28567474592636
 20
3.183128693561224
 30
0.0
 10
22.92979005196318
 20
3.053529715927273
 30
0.0
 10
23.57225860236782
 20
2.801739266183363
 30
0.0
 10
24.21403236288625
 20
2.433971566488411
 30
0.0
 10
24.85836808562093
 20
1.968936409021616
 30
0.0
 10
25.50036740489712
 20
1.421594678517297
 30
0.0
 10
26.14250533866761
 20
0.8160999317454616
 30
0.0
 10
26.78679605459678
 20
0.1796981048934561
 30
0.0
 10
27.45728004974979
 20
-0.4963739509545649
 30
0.0
 10
28.15790705546171
 20
-1.17630124178068
 30
0.0
 10
28.88917211244948
 20
-1.830349793553919
 30
0.0
 10
29.37589800373113
 20
-2.181030825535986
 30
0.0
 10
29.61899999999994
 20
-2.35618333017049
 30
0.0
  0
SPLINE
  5
D1
330
1F
100
AcDbEntity
  8
0
  6
Continuous
 62
     1
370
    15
100
AcDbSpline
210
0.0
220
0.0
230
1.0
 70
     8
 71
     3
 72
     8
 73
     4
 74
     0
 42
0.000000001
 43
0.00000001
 40
0.0
 40
0.0
 40
0.0
 40
0.0
 40
1.0
 40
1.0
 40
1.0
 40
1.0
 10
29.61900000000001
 20
-2.356183330169115
 30
0.0
 10
29.68226637573001
 20
-2.398444397922621
 30
0.0
 10
29.74045311756231
 20
-2.429462641264497
 30
0.0
 10
29.79295827380984
 20
-2.449701288180638
 30
0.0
  0
SPLINE
  5
D2
330
1F
100
AcDbEntity
  8
0
  6
Continuous
 62
     1
370
    15
100
AcDbSpline
210
0.0
220
0.0
230
1.0
 70
     8
 71
     3
 72
    11
 73
     7
 74
     0
 42
0.000000001
 43
0.00000001
 40
0.0
 40
0.0
 40
0.0
 40
0.0
 40
0.2000337995805087
 40
0.5865831215111956
 40
0.9686783570306903
 40
1.0
 40
1.0
 40
1.0
 40
1.0
 10
29.49477503406928
 20
-2.263077328057713
 30
0.0
 10
29.47094570243737
 20
-2.265856498171511
 30
0.0
 10
29.40106809294594
 20
-2.274006192293109
 30
0.0
 10
29.25080786017205
 20
-2.347406093058626
 30
0.0
 10
29.12937483389394
 20
-2.425108915879151
 30
0.0
 10
29.06815599918379
 20
-2.470337059863299
 30
0.0
 10
29.06351788549381
 20
-2.473763673172399
 30
0.0
  0
SPLINE
  5
D3
330
1F
100
AcDbEntity
  8
0
  6
Continuous
 62
     1
370
    15
100
AcDbSpline
210
0.0
220
0.0
230
1.0
 70
     8
 71
     3
 72
     8
 73
     4
 74
     0
 42
0.000000001
 43
0.00000001
 40
0.0
 40
0.0
 40
0.0
 40
0.0
 40
1.0
 40
1.0
 40
1.0
 40
1.0
 10
30.0
 20
-2.594376874389141
 30
0.0
 10
29.69078539480383
 20
-2.577364227134136
 30
0.0
 10
29.37821293412869
 20
-2.533918476821052
 30
0.0
 10
29.06351788549378
 20
-2.473763673172602
 30
0.0
  0
LINE
  5
D4
330
1F
100
AcDbEntity
  8
0
  6
Continuous
 62
     1
370
    15
100
AcDbLine
 10
30.0
 20
-2.793922052237486
 30
0.0
 11
30.0
 21
-2.594376874389141
 31
0.0
  0
LINE
  5
D5
330
1F
100
AcDbEntity
  8
0
  6
Continuous
 62
     1
370
    15
100
AcDbLine
 10
30.0
 20
-0.8660254037844357
 30
0.0
 11
30.0
 21
0.4384319546600588
 31
0.0
  0
LINE
  5
D6
330
1F
100
AcDbEntity
  8
0
  6
Continuous
 62
     1
370
    15
100
AcDbLine
 10
29.06351788549375
 20
-0.3940479904471932
 30
0.0
 11
30.0
 21
-0.8660254037844357
 31
0.0
  0
SPLINE
  5
D7
330
1F
100
AcDbEntity
  8
0
  6
Continuous
 62
     1
370
    15
100
AcDbSpline
210
0.0
220
0.0
230
1.0
 70
     8
 71
     3
 72
    14
 73
    10
 74
     0
 42
0.000000001
 43
0.00000001
 40
0.0
 40
0.0
 40
0.0
 40
0.0
 40
0.25
 40
0.25
 40
0.5
 40
0.5
 40
0.75
 40
0.75
 40
1.0
 40
1.0
 40
1.0
 40
1.0
 10
29.79295827381058
 20
0.4665513036725824
 30
0.0
 10
29.78417826203111
 20
0.4028983853619502
 30
0.0
 10
29.76656064461145
 20
0.335213555076817
 30
0.0
 10
29.70381663285069
 20
0.1872937795105159
 30
0.0
 10
29.65769769846337
 20
0.1059932052454668
 30
0.0
 10
29.52729815845701
 20
-0.0609169669936725
 30
0.0
 10
29.443229079407
 20
-0.1448362109075613
 30
0.0
 10
29.25820397392085
 20
-0.2892802377852501
 30
0.0
 10
29.15825141022821
 20
-0.34952665333649
 30
0.0
 10
29.06351788549381
 20
-0.3940479904470048
 30
0.0
  0
SPLINE
  5
D8
330
1F
100
AcDbEntity
  8
0
  6
Continuous
 62
     1
370
    15
100
AcDbSpline
210
0.0
220
0.0
230
1.0
 70
     8
 71
     3
 72
    10
 73
     6
 74
     0
 42
0.000000001
 43
0.00000001
 40
0.0
 40
0.0
 40
0.0
 40
0.0
 40
0.5
 40
0.5
 40
1.0
 40
1.0
 40
1.0
 40
1.0
 10
30.0
 20
0.4384319546600589
 30
0.0
 10
30.0
 20
0.4742507079472463
 30
0.0
 10
29.98050528541665
 20
0.4988069325162932
 30
0.0
 10
29.90513078969603
 20
0.5081512984798284
 30
0.0
 10
29.85037020393208
 20
0.4934307719822149
 30
0.0
 10
29.79295827379698
 20
0.4665513036610433
 30
0.0
  0
SPLINE
  5
D9
330
1F
100
AcDbEntity
  8
0
  6
Continuous
 62
     1
370
    15
100
AcDbSpline
210
0.0
220
0.0
230
1.0
 70
     8
 71
     3
 72
    14
 73
    10
 74
     0
 42
0.000000001
 43
0.00000001
 40
0.0
 40
0.0
 40
0.0
 40
0.0
 40
0.25
 40
0.25
 40
0.5
 40
0.5
 40
0.75
 40
0.75
 40
1.0
 40
1.0
 40
1.0
 40
1.0
 10
30.0
 20
-1.378886886698212
 30
0.0
 10
30.00000000000001
 20
-1.437124768008282
 30
0.0
 10
29.99443011951428
 20
-1.49496738304141
 30
0.0
 10
29.95620722241977
 20
-1.589144497048544
 30
0.0
 10
29.92098846532704
 20
-1.620587644296294
 30
0.0
 10
29.83808360582406
 20
-1.633697879946714
 30
0.0
 10
29.7927445327609
 20
-1.620022775647604
 30
0.0
 10
29.70420295787491
 20
-1.574721094997712
 30
0.0
 10
29.66098014796324
 20
-1.543106683426847
 30
0.0
 10
29.61900000000001
 20
-1.506278245267456
 30
0.0
  0
SPLINE
  5
DA
330
1F
100
AcDbEntity
  8
0
  6
Continuous
 62
     1
370
    15
100
AcDbSpline
210
0.0
220
0.0
230
1.0
 70
     8
 71
     3
 72
    17
 73
    13
 74
     0
 42
0.000000001
 43
0.00000001
 40
0.0
 40
0.0
 40
0.0
 40
0.0
 40
0.1112616900114064
 40
0.2227622399958696
 40
0.3339868421468594
 40
0.4318608392422966
 40
0.5301294073489627
 40
0.628072225566724
 40
0.7259939540778794
 40
0.8242696752569006
 40
0.9221568681754478
 40
0.9999999999999999
 40
0.9999999999999999
 40
0.9999999999999999
 40
0.9999999999999999
 10
29.61899999999994
 20
-1.506278245267395
 30
0.0
 10
29.37589800474323
 20
-1.284372232699259
 30
0.0
 10
28.88917211548792
 20
-0.8400838130000636
 30
0.0
 10
28.15790704329003
 20
-0.1099908820120792
 30
0.0
 10
27.457280092958
 20
0.5923615114723354
 30
0.0
 10
26.78679591444041
 20
1.239367724607076
 30
0.0
 10
26.14250586561591
 20
1.805198975463363
 30
0.0
 10
25.5003654453941
 20
2.29915564786391
 30
0.0
 10
24.85837540890445
 20
2.699997681004771
 30
0.0
 10
24.21400496743277
 20
2.985482265693334
 30
0.0
 10
23.61631393365631
 20
3.15256460670392
 30
0.0
 10
23.23224982952669
 20
3.160763276007216
 30
0.0
 10
23.06212123771678
 20
3.164395034477448
 30
0.0
  0
SPLINE
  5
DB
330
1F
100
AcDbEntity
  8
0
  6
Continuous
 62
     1
370
    15
100
AcDbSpline
210
0.0
220
0.0
230
1.0
 70
     8
 71
     3
 72
    13
 73
     9
 74
     0
 42
0.000000001
 43
0.00000001
 40
0.0
 40
0.0
 40
0.0
 40
0.0
 40
0.0849092181135284
 40
0.2826450702272646
 40
0.4795896831634409
 40
0.6769184257442623
 40
0.8386870441623412
 40
1.0
 40
1.0
 40
1.0
 40
1.0
 10
14.2075194536931
 20
-2.964667597895204
 30
0.0
 10
14.11537783398241
 20
-3.00001876705648
 30
0.0
 10
13.80865760792688
 20
-3.117695432937975
 30
0.0
 10
13.28643142946138
 20
-3.185794794950167
 30
0.0
 10
12.64491615239179
 20
-3.167206322406906
 30
0.0
 10
12.0407977589285
 20
-3.019614561827109
 30
0.0
 10
11.47525867045429
 20
-2.790639881069468
 30
0.0
 10
11.12492152253248
 20
-2.584793890940301
 30
0.0
 10
10.95
 20
-2.482016054749677
 30
0.0
  0
SPLINE
  5
DC
330
1F
100
AcDbEntity
  8
0
  6
Continuous
 62
     1
370
    15
100
AcDbSpline
210
0.0
220
0.0
230
1.0
 70
    24
 71
     3
 72
    14
 73
    10
 74
     0
 42
0.000000001
 43
0.00000001
 40
0.0
 40
0.0
 40
0.0
 40
0.0
 40
0.2499999999999999
 40
0.2499999999999999
 40
0.4999999999999999
 40
0.4999999999999999
 40
0.7499999999999999
 40
0.7499999999999999
 40
1.0
 40
1.0
 40
1.0
 40
1.0
 10
10.95
 20
-0.6063338917670533
 30
0.0
 10
10.95
 20
-0.6403724380235976
 30
0.0
 10
10.95
 20
-0.6939298762056636
 30
0.0
 10
10.95
 20
-0.8651354435401817
 30
0.0
 10
10.95
 20
-0.9836534189869506
 30
0.0
 10
10.95
 20
-1.303629570423184
 30
0.0
 10
10.95
 20
-1.506391216535133
 30
0.0
 10
10.95
 20
-1.97130734794976
 30
0.0
 10
10.95
 20
-2.232500656909365
 30
0.0
 10
10.95
 20
-2.482016054749675
 30
0.0
  0
SPLINE
  5
DD
330
1F
100
AcDbEntity
  8
0
  6
Continuous
 62
     1
370
    15
100
AcDbSpline
210
0.0
220
0.0
230
1.0
 70
     8
 71
     3
 72
    15
 73
    11
 74
     0
 42
0.000000001
 43
0.00000001
 40
0.0
 40
0.0
 40
0.0
 40
0.0
 40
0.1200760796637735
 40
0.240491339624765
 40
0.3873763910520865
 40
0.533975508956138
 40
0.6811635993827281
 40
0.827917878729813
 40
0.9745764910643491
 40
1.0
 40
1.0
 40
1.0
 40
1.0
 10
10.95000000000092
 20
-0.6063338917668637
 30
0.0
 10
11.12492130292973
 20
-0.7768446453863926
 30
0.0
 10
11.4752580110239
 20
-1.11834779633212
 30
0.0
 10
12.04080064780627
 20
-1.629472181886273
 30
0.0
 10
12.64490264004117
 20
-2.122244924506246
 30
0.0
 10
13.2864815212347
 20
-2.559687247954483
 30
0.0
 10
13.93069268039344
 20
-2.894153354902651
 30
0.0
 10
14.57303334745229
 20
-3.09970561296607
 30
0.0
 10
15.03736084227517
 20
-3.188565121013813
 30
0.0
 10
15.28875396784072
 20
-3.168642819339344
 30
0.0
 10
15.32589492895279
 20
-3.165699487336571
 30
0.0
  0
SPLINE
  5
DE
330
1F
100
AcDbEntity
  8
0
  6
Continuous
 62
     1
370
    15
100
AcDbSpline
210
0.0
220
0.0
230
1.0
 70
     8
 71
     3
 72
    16
 73
    12
 74
     0
 42
0.000000001
 43
0.00000001
 40
0.0
 40
0.0
 40
0.0
 40
0.0
 40
0.0060844088965449
 40
0.1245866108322424
 40
0.242661963591888
 40
0.3607627466067481
 40
0.4792563232704603
 40
0.5972741208395036
 40
0.7313902596598402
 40
0.8658391401328814
 40
1.0
 40
1.0
 40
1.0
 40
1.0
 10
24.18057966131371
 20
2.976643248787872
 30
0.0
 10
24.19159773595284
 20
2.981416059948307
 30
0.0
 10
24.41720791444772
 20
3.079145909590471
 30
0.0
 10
24.85847438412237
 20
3.15706911429593
 30
0.0
 10
25.50033896243223
 20
3.192771323249446
 30
0.0
 10
26.1425129873971
 20
3.084172441896731
 30
0.0
 10
26.78679402020694
 20
2.85402780034517
 30
0.0
 10
27.45728067692312
 20
2.489738189154879
 30
0.0
 10
28.15790687878826
 20
1.990272940600231
 30
0.0
 10
28.88917215655296
 20
1.369020584149537
 30
0.0
 10
29.37589801842179
 20
0.8994662631201058
 30
0.0
 10
29.61899999999994
 20
0.6649408457474765
 30
0.0
  0
SPLINE
  5
DF
330
1F
100
AcDbEntity
  8
0
  6
Continuous
 62
     1
370
    15
100
AcDbSpline
210
0.0
220
0.0
230
1.0
 70
     8
 71
     3
 72
     8
 73
     4
 74
     0
 42
0.000000001
 43
0.00000001
 40
0.0
 40
0.0
 40
0.0
 40
0.0
 40
1.0
 40
1.0
 40
1.0
 40
1.0
 10
29.61900000000001
 20
0.6649408457450534
 30
0.0
 10
29.68226637572548
 20
0.6032895304550533
 30
0.0
 10
29.74045311755366
 20
0.5360880676693474
 30
0.0
 10
29.79295827379855
 20
0.4665513036819192
 30
0.0
  0
SPLINE
  5
E0
330
1F
100
AcDbEntity
  8
0
  6
Continuous
 62
     1
370
    15
100
AcDbSpline
210
0.0
220
0.0
230
1.0
 70
     8
 71
     3
 72
     8
 73
     4
 74
     0
 42
0.000000001
 43
0.00000001
 40
0.0
 40
0.0
 40
0.0
 40
0.0
 40
1.0
 40
1.0
 40
1.0
 40
1.0
 10
30.0
 20
-1.032233570926086
 30
0.0
 10
29.69078539480383
 20
-0.8237064887183647
 30
0.0
 10
29.37821293412869
 20
-0.610390755222642
 30
0.0
 10
29.06351788549378
 20
-0.394047990447242
 30
0.0
  0
LINE
  5
E1
330
1F
100
AcDbEntity
  8
0
  6
Continuous
 62
     1
370
    15
100
AcDbLine
 10
30.0
 20
-1.378886886698216
 30
0.0
 11
30.0
 21
-1.032233570926086
 31
0.0
  0
LINE
  5
E2
330
1F
100
AcDbEntity
  8
0
  6
Continuous
 62
     1
370
    15
100
AcDbLine
 10
10.95
 20
2.395858463179796
 30
0.0
 11
10.95
 21
2.955699246799957
 31
0.0
  0
LINE
  5
E4
330
1F
100
AcDbEntity
  8
0
  6
Continuous
 62
     1
370
    15
100
AcDbLine
 10
10.95
 20
-0.606333891767048
 30
0.0
 11
10.95
 21
0.4736831920502953
 31
0.0
  0
LINE
  5
E6
330
1F
100
AcDbEntity
  8
0
  6
Continuous
 62
     1
370
    15
100
AcDbLine
 10
30.0
 20
0.4384319546600588
 30
0.0
 11
30.0
 21
1.415035165539279
 31
0.0
  0
LINE
  5
E7
330
1F
100
AcDbEntity
  8
0
  6
Continuous
 62
     1
370
    15
100
AcDbLine
 10
30.0
 20
-2.170482762228941
 30
0.0
 11
30.0
 21
-1.378886886698216
 31
0.0
  0
SPLINE
  5
E8
330
1F
100
AcDbEntity
  8
0
  6
Continuous
 62
     1
370
    15
100
AcDbSpline
210
0.0
220
0.0
230
1.0
 70
     8
 71
     3
 72
    10
 73
     6
 74
     0
 42
0.000000001
 43
0.00000001
 40
0.0
 40
0.0
 40
0.0
 40
0.0
 40
0.5
 40
0.5
 40
1.0
 40
1.0
 40
1.0
 40
1.0
 10
30.0
 20
-2.170482762228941
 30
0.0
 10
30.00000000000001
 20
-2.206301515515704
 30
0.0
 10
29.98050528541718
 20
-2.254500833081368
 30
0.0
 10
29.90513078969819
 20
-2.355259012994797
 30
0.0
 10
29.85037020393532
 20
-2.406951852861843
 30
0.0
 10
29.79295827380108
 20
-2.449701288187156
 30
0.0
  0
LINE
  5
E9
330
1F
100
AcDbEntity
  8
0
  6
Continuous
 62
     1
370
    15
100
AcDbLine
 10
30.0
 20
-0.8660254037844357
 30
0.0
 11
30.0
 21
-1.032233570926086
 31
0.0
  0
SPLINE
  5
EA
330
1F
100
AcDbEntity
  8
0
  6
Continuous
 62
     1
370
    15
100
AcDbSpline
210
0.0
220
0.0
230
1.0
 70
     8
 71
     3
 72
    10
 73
     6
 74
     0
 42
0.000000001
 43
0.00000001
 40
0.0
 40
0.0
 40
0.0
 40
0.0
 40
0.5
 40
0.5
 40
1.0
 40
1.0
 40
1.0
 40
1.0
 10
30.0
 20
2.608914716889002
 30
0.0
 10
30.00000000000001
 20
2.680552223460707
 30
0.0
 10
29.98050528541829
 20
2.753307765593422
 30
0.0
 10
29.90513078970283
 20
2.863410311470144
 30
0.0
 10
29.85037020394225
 20
2.900382624841114
 30
0.0
 10
29.79295827380982
 20
2.916252591847698
 30
0.0
  0
LINE
  5
EB
330
1F
100
AcDbEntity
  8
0
  6
Continuous
 62
     1
370
    15
100
AcDbLine
 10
30.0
 20
1.562143303463064
 30
0.0
 11
30.0
 21
2.608914716889002
 31
0.0
  0
LINE
  5
EC
330
1F
100
AcDbEntity
  8
0
  6
Continuous
 62
     1
370
    15
100
AcDbLine
 10
30.0
 20
2.608914716889002
 30
0.0
 11
30.0
 21
2.793922052237495
 31
0.0
  0
LINE
  5
ED
330
1F
100
AcDbEntity
  8
0
  6
Continuous
 62
     1
370
    15
100
AcDbLine
 10
30.0
 20
-2.170482762228941
 30
0.0
 11
30.0
 21
-2.594376874389142
 31
0.0
  0
LINE
  5
EF
330
1F
100
AcDbEntity
  8
0
  6
Continuous
 62
     8
370
    15
100
AcDbLine
 10
29.61900000000001
 20
-3.174999999999996
 30
0.0
 11
29.61900000000001
 21
-3.17363765307647
 31
0.0
  0
LINE
  5
F0
330
1F
100
AcDbEntity
  8
중심선
100
AcDbLine
 10
-36.49999999999999
 20
0.0
 30
0.0
 11
33.00000000000001
 21
-0.0000000000000004
 31
0.0
  0
CIRCLE
  5
F1
330
1F
100
AcDbEntity
  8
외형선
100
AcDbCircle
 10
0.0
 20
0.0
 30
0.0
 40
3.000000000000001
  0
INSERT
  5
F2
330
1F
100
AcDbEntity
  8
0
  6
Continuous
 62
     7
100
AcDbBlockReference
 66
     1
  2
블럭10
 10
-15.67936049909348
 20
-51.78679627639981
 30
0.0
  0
ATTRIB
  5
F3
330
F2
100
AcDbEntity
  8
FORMAT
 62
     2
100
AcDbText
 10
-26.73038085127795
 20
-49.71142936356762
 30
0.0
 40
4.233333333333333
  1
GMG22016[ 6 FLUTE ]
 41
0.75
  7
SLDTEXTSTYLE0
 11
-26.73038085127795
 21
-51.82809603023428
 31
0.0
100
AcDbAttribute
  2
AUTOATTR0
 70
     0
 74
     1
  0
SEQEND
  5
F4
330
F2
100
AcDbEntity
  8
0
  6
Continuous
 62
     7
  0
HATCH
  5
F5
330
1F
100
AcDbEntity
  8
중심선
100
AcDbHatch
 10
0.0
 20
0.0
 30
0.0
210
0.0
220
0.0
230
1.0
  2
SOLID
 70
     1
 71
     0
 91
        1
 92
        0
 93
        4
 72
     1
 10
-9.964451194712634
 20
-35.53962197475587
 11
-13.41072643854991
 21
-35.53962197475587
 72
     1
 10
-13.41072643854991
 20
-35.53962197475587
 11
-15.53895629775394
 21
-38.07594755532847
 72
     1
 10
-15.53895629775394
 20
-38.07594755532847
 11
-12.0926479688035
 21
-38.07590812602598
 72
     1
 10
-12.0926479688035
 20
-38.07590812602598
 11
-9.964451194712634
 21
-35.53962197475587
 97
        0
 75
     0
 76
     1
 98
        1
 10
-0.0000000000000139
 20
0.2603780252441203
  0
HATCH
  5
F6
330
1F
100
AcDbEntity
  8
중심선
100
AcDbHatch
 10
0.0
 20
0.0
 30
0.0
210
0.0
220
0.0
230
1.0
  2
SOLID
 70
     1
 71
     0
 91
        1
 92
        0
 93
        4
 72
     1
 10
-4.951687203676683
 20
-35.53962197475587
 11
-8.397962447513965
 21
-35.53962197475587
 72
     1
 10
-8.397962447513965
 20
-35.53962197475587
 11
-12.92910045587135
 21
-40.93962197475589
 72
     1
 10
-12.92910045587135
 20
-40.93962197475589
 11
-9.482825212034072
 21
-40.93962197475589
 72
     1
 10
-9.482825212034072
 20
-40.93962197475589
 11
-4.951687203676683
 21
-35.53962197475587
 97
        0
 75
     0
 76
     1
 98
        1
 10
-0.0000000000000139
 20
0.2603780252441203
  0
HATCH
  5
F7
330
1F
100
AcDbEntity
  8
중심선
100
AcDbHatch
 10
0.0
 20
0.0
 30
0.0
210
0.0
220
0.0
230
1.0
  2
SOLID
 70
     1
 71
     0
 91
        1
 92
        0
 93
        4
 72
     1
 10
0.0610767873592127
 20
-35.53962197475591
 11
-3.385198456477903
 21
-35.53962197475587
 72
     1
 10
-3.385198456477903
 20
-35.53962197475587
 11
-10.43363535836715
 21
-43.93962197475589
 72
     1
 10
-10.43363535836715
 20
-43.93962197475589
 11
-6.98736011452987
 21
-43.93962197475589
 72
     1
 10
-6.98736011452987
 20
-43.93962197475589
 11
0.0610767873592124
 21
-35.53962197475591
 97
        0
 75
     0
 76
     1
 98
        1
 10
-0.0000000000000139
 20
0.2603780252441203
  0
HATCH
  5
F8
330
1F
100
AcDbEntity
  8
중심선
100
AcDbHatch
 10
0.0
 20
0.0
 30
0.0
210
0.0
220
0.0
230
1.0
  2
SOLID
 70
     1
 71
     0
 91
        1
 92
        0
 93
        6
 72
     3
 10
4.860967218371412
 20
-39.73962197480715
 11
3.960054785062285
 21
1.540882976769353E-10
 40
0.3939339440162626
 50
17.09539180608438
 51
320.0019657685079
 73
     0
 72
     1
 10
6.543966874072007
 20
-38.32751597939418
 11
8.849268747773046
 21
-36.39318926934626
 72
     3
 10
4.860967218318565
 20
-39.73962197475603
 11
6.600054785286829
 21
-1.278976924368180E-13
 40
0.636358354079598
 50
39.9987384933741
 51
368.4976242363725
 73
     1
 72
     1
 10
11.28629971021918
 20
-38.7796219746859
 11
3.541034525154488
 21
-38.77962197468587
 72
     1
 10
3.541034525154488
 20
-38.77962197468587
 11
3.541009480708554
 21
-40.69962197468579
 72
     1
 10
3.541009480708554
 20
-40.69962197468579
 11
7.98238925018059
 21
-40.69962197468575
 97
        0
 75
     0
 76
     1
 98
        1
 10
-0.0000000000000139
 20
0.2603780252441203
  0
POINT
  5
F9
330
1F
100
AcDbEntity
  8
치수문자_일반주서
100
AcDbPoint
 10
0.0
 20
0.0
 30
0.0
  0
DIMENSION
  5
FA
330
1F
100
AcDbEntity
  8
치수문자_일반주서
100
AcDbDimension
  2
_D
 10
30.00000000000001
 20
37.36637647970986
 30
0.0
 11
0.1299625959432088
 21
37.36637647970986
 31
0.0
 70
   160
  1
<>
 71
     2
 42
63.49999999999999
  3
SLDDIMSTYLE0
100
AcDbAlignedDimension
 13
-33.49999999999999
 23
2.674999999999998
 33
0.0
 14
30.00000000000001
 24
2.608914716889002
 34
0.0
 50
-0.0000000000000385
100
AcDbRotatedDimension
1001
ACAD
1000
DSTYLE
1002
{
1070
   273
1070
     7
1002
}
  0
DIMENSION
  5
10E
330
1F
100
AcDbEntity
  8
치수문자_일반주서
100
AcDbDimension
  2
_D_1
 10
44.71795635494107
 20
-3.174999999999939
 30
0.0
 11
44.71795635494107
 21
0.0000000000000032
 31
0.0
 70
   160
  1
%%c<>
 71
     2
 42
6.35
 52
-270.0
  3
SLDDIMSTYLE1
100
AcDbAlignedDimension
 13
29.61900000000001
 23
3.175000000000004
 33
0.0
 14
29.61900000000001
 24
-3.174999999999996
 34
0.0
 50
90.0000000000002
100
AcDbRotatedDimension
1001
ACAD
1000
DSTYLE
1002
{
1070
   273
1070
     7
1002
}
  0
DIMENSION
  5
123
330
1F
100
AcDbEntity
  8
치수문자_일반주서
100
AcDbDimension
  2
_D_2
 10
10.95000000000092
 20
22.46591996137407
 30
0.0
 11
20.27381876834919
 21
22.46591996137407
 31
0.0
 70
   160
  1
<>
 71
     2
 42
19.04999999999909
  3
SLDDIMSTYLE1
100
AcDbAlignedDimension
 13
30.00000000000001
 23
2.608914716889002
 33
0.0
 14
10.95000000000092
 24
-3.002192354950096
 34
0.0
100
AcDbRotatedDimension
1001
ACAD
1000
DSTYLE
1002
{
1070
   273
1070
     7
1002
}
  0
DIMENSION
  5
138
330
1F
100
AcDbEntity
  8
치수문자_일반주서
100
AcDbDimension
  2
_D_3
 10
-46.49999999999999
 20
-3.175000000000049
 30
0.0
 11
-46.50000000000001
 21
-0.000000000000024
 31
0.0
 70
   160
  1
%%c<>
 71
     2
 42
6.35
 52
-270.0
  3
SLDDIMSTYLE1
100
AcDbAlignedDimension
 13
-32.99999999999999
 23
3.175000000000001
 33
0.0
 14
-32.99999999999999
 24
-3.174999999999998
 34
0.0
 50
90.0000000000002
100
AcDbRotatedDimension
1001
ACAD
1000
DSTYLE
1002
{
1070
   273
1070
     7
1002
}
  0
INSERT
  5
152
330
1F
100
AcDbEntity
  8
외형선
100
AcDbBlockReference
  2
SW_DOWELSYMBOL_0
 10
0.0
 20
0.0
 30
0.0
  0
ARC
  5
179
330
1F
100
AcDbEntity
  8
0
  6
Continuous
 62
     1
370
    15
100
AcDbCircle
 10
29.619
 20
-2.793999999999996
 30
0.0
 40
0.3809999999999999
100
AcDbArc
 50
270.0
 51
0.0057413833729244
  0
ARC
  5
189
330
1F
100
AcDbEntity
  8
0
  6
Continuous
 62
     1
370
    15
100
AcDbCircle
 10
29.619
 20
2.794000000000004
 30
0.0
 40
0.3809999999999999
100
AcDbArc
 50
0.0
 51
90.0
  0
LINE
  5
18A
330
1F
100
AcDbEntity
  8
0
  6
Continuous
 62
     1
370
    15
100
AcDbLine
 10
29.619
 20
3.175000000000004
 30
0.0
 11
28.62637031490764
 21
3.175000000000004
 31
0.0
  0
DIMENSION
  5
18B
330
1F
100
AcDbEntity
  8
치수문자_일반주서
100
AcDbDimension
  2
*D8
 10
29.619
 20
2.794000000000004
 30
0.0
 11
42.48486552543427
 21
22.10987144837828
 31
0.0
 70
   164
  1
<>
 71
     5
 42
0.3809999999999995
  3
SLDDIMSTYLE1
100
AcDbRadialDimension
 15
29.83021139712188
 25
3.111097375778839
 35
0.0
 40
0.0
1001
ACAD
1000
DSTYLE
1002
{
1070
   171
1070
     3
1070
   273
1070
     2
1002
}
1001
ACAD_DSTYLE_DIMRADIAL_EXTENSION
1070
   387
1070
     1
1070
   388
1040
0.0
1070
   390
1040
1.570796326794897
  0
ENDSEC
  0
SECTION
  2
OBJECTS
  0
DICTIONARY
  5
C
330
0
100
AcDbDictionary
281
     1
  3
ACAD_GROUP
350
D
  3
ACAD_IMAGE_VARS
350
176
  3
ACAD_LAYOUT
350
1A
  3
ACAD_MLINESTYLE
350
17
  3
ACAD_PLOTSETTINGS
350
19
  3
ACAD_PLOTSTYLENAME
350
E
  3
ACAD_SCALELIST
350
47
  3
APPDATA
350
174
  3
DWGPROPS
350
1BC
  0
DICTIONARY
  5
D
102
{ACAD_REACTORS
330
C
102
}
330
C
100
AcDbDictionary
281
     1
  0
RASTERVARIABLES
  5
176
102
{ACAD_REACTORS
330
C
102
}
330
C
100
AcDbRasterVariables
 90
        0
 70
     1
 71
     1
 72
     1
  0
DICTIONARY
  5
1A
102
{ACAD_REACTORS
330
C
102
}
330
C
100
AcDbDictionary
281
     1
  3
Layout1
350
1E
  3
Layout2
350
26
  3
Model
350
22
  0
DICTIONARY
  5
17
102
{ACAD_REACTORS
330
C
102
}
330
C
100
AcDbDictionary
281
     1
  3
Standard
350
18
  0
DICTIONARY
  5
19
102
{ACAD_REACTORS
330
C
102
}
330
C
100
AcDbDictionary
281
     1
  0
ACDBDICTIONARYWDFLT
  5
E
102
{ACAD_REACTORS
330
C
102
}
330
C
100
AcDbDictionary
281
     1
  3
Normal
350
F
100
AcDbDictionaryWithDefault
340
F
  0
DICTIONARY
  5
47
102
{ACAD_REACTORS
330
C
102
}
330
C
100
AcDbDictionary
281
     1
  3
A0
350
48
  3
A1
350
49
  3
A2
350
4A
  3
A3
350
4B
  3
A4
350
4C
  3
A5
350
4D
  3
A6
350
4E
  3
A7
350
4F
  3
A8
350
50
  3
A9
350
51
  3
B0
350
52
  3
B1
350
53
  3
B2
350
54
  3
B3
350
55
  3
B4
350
56
  3
B5
350
57
  3
B6
350
58
  3
B7
350
59
  3
B8
350
5A
  3
B9
350
5B
  3
C0
350
5C
  3
C1
350
5D
  3
C2
350
5E
  3
C3
350
5F
  3
C4
350
60
  3
C5
350
61
  3
C6
350
62
  3
C7
350
63
  3
C8
350
64
  3
C9
350
65
  3
D0
350
66
  3
D1
350
67
  3
D2
350
68
  0
DICTIONARY
  5
174
102
{ACAD_REACTORS
330
C
102
}
330
C
100
AcDbDictionary
281
     1
  0
XRECORD
  5
1BC
102
{ACAD_REACTORS
330
C
102
}
330
C
100
AcDbXrecord
280
     1
  1
DWGPROPS COOKIE
  2

  3

  4

  6

  7

  8
12016016
  9

300
=
301
=
302
=
303
=
304
=
305
=
306
=
307
=
308
=
309
=
 40
0.0
 41
2458236.351336088
 42
2458241.19485316
  1

 90
        0
  0
LAYOUT
  5
1E
102
{ACAD_REACTORS
330
1A
102
}
330
1A
100
AcDbPlotSettings
  1

  2
none_device
  4

  6

 40
0.0
 41
0.0
 42
0.0
 43
0.0
 44
0.0
 45
0.0
 46
0.0
 47
0.0
 48
0.0
 49
0.0
140
0.0
141
0.0
142
1.0
143
1.0
 70
   688
 72
     1
 73
     0
 74
     5
  7

 75
    16
147
1.0
148
0.0
149
0.0
100
AcDbLayout
  1
Layout1
 70
     1
 71
     1
 10
0.0
 20
0.0
 11
420.0
 21
297.0
 12
0.0
 22
0.0
 32
0.0
 14
1.000000000000000E+20
 24
1.000000000000000E+20
 34
1.000000000000000E+20
 15
-1.000000000000000E+20
 25
-1.000000000000000E+20
 35
-1.000000000000000E+20
146
0.0
 13
0.0
 23
0.0
 33
0.0
 16
1.0
 26
0.0
 36
0.0
 17
0.0
 27
1.0
 37
0.0
 76
     0
330
1B
  0
LAYOUT
  5
26
102
{ACAD_REACTORS
330
1A
102
}
330
1A
100
AcDbPlotSettings
  1

  2
none_device
  4

  6

 40
0.0
 41
0.0
 42
0.0
 43
0.0
 44
0.0
 45
0.0
 46
0.0
 47
0.0
 48
0.0
 49
0.0
140
0.0
141
0.0
142
1.0
143
1.0
 70
   688
 72
     1
 73
     0
 74
     5
  7

 75
    16
147
1.0
148
0.0
149
0.0
100
AcDbLayout
  1
Layout2
 70
     1
 71
     2
 10
0.0
 20
0.0
 11
0.0
 21
0.0
 12
0.0
 22
0.0
 32
0.0
 14
0.0
 24
0.0
 34
0.0
 15
0.0
 25
0.0
 35
0.0
146
0.0
 13
0.0
 23
0.0
 33
0.0
 16
1.0
 26
0.0
 36
0.0
 17
0.0
 27
1.0
 37
0.0
 76
     0
330
23
  0
LAYOUT
  5
22
102
{ACAD_REACTORS
330
1A
102
}
330
1A
100
AcDbPlotSettings
  1

  2
none_device
  4
ANSI_A_(11.00_x_8.50_Inches)
  6

 40
6.35
 41
19.05
 42
6.35000508
 43
19.05000254
 44
279.4
 45
215.9
 46
145.8939553754189
 47
91.95271704931501
 48
0.0
 49
0.0
140
0.0
141
0.0
142
0.0853321460720431
143
1.0
 70
  1696
 72
     0
 73
     0
 74
     0
  7

 75
     0
147
0.0235690232323232
148
0.0
149
0.0
100
AcDbLayout
  1
Model
 70
     1
 71
     0
 10
0.0
 20
0.0
 11
420.0
 21
297.0
 12
0.0
 22
0.0
 32
0.0
 14
-50.87500000000004
 24
-49.71142936356762
 34
0.0
 15
50.24591423857419
 25
41.74137647970986
 35
0.0
146
0.0
 13
0.0
 23
0.0
 33
0.0
 16
1.0
 26
0.0
 36
0.0
 17
0.0
 27
1.0
 37
0.0
 76
     0
330
1F
331
29
  0
MLINESTYLE
  5
18
102
{ACAD_REACTORS
330
17
102
}
330
17
100
AcDbMlineStyle
  2
Standard
 70
     0
  3

 62
   256
 51
90.0
 52
90.0
 71
     2
 49
0.5
 62
   256
  6
BYLAYER
 49
-0.5
 62
   256
  6
BYLAYER
  0
ACDBPLACEHOLDER
  5
F
102
{ACAD_REACTORS
330
E
102
}
330
E
  0
SCALE
  5
48
102
{ACAD_REACTORS
330
47
102
}
330
47
100
AcDbScale
 70
     0
300
1:1
140
1.0
141
1.0
290
     1
  0
SCALE
  5
49
102
{ACAD_REACTORS
330
47
102
}
330
47
100
AcDbScale
 70
     0
300
1:2
140
1.0
141
2.0
290
     0
  0
SCALE
  5
4A
102
{ACAD_REACTORS
330
47
102
}
330
47
100
AcDbScale
 70
     0
300
1:4
140
1.0
141
4.0
290
     0
  0
SCALE
  5
4B
102
{ACAD_REACTORS
330
47
102
}
330
47
100
AcDbScale
 70
     0
300
1:5
140
1.0
141
5.0
290
     0
  0
SCALE
  5
4C
102
{ACAD_REACTORS
330
47
102
}
330
47
100
AcDbScale
 70
     0
300
1:8
140
1.0
141
8.0
290
     0
  0
SCALE
  5
4D
102
{ACAD_REACTORS
330
47
102
}
330
47
100
AcDbScale
 70
     0
300
1:10
140
1.0
141
10.0
290
     0
  0
SCALE
  5
4E
102
{ACAD_REACTORS
330
47
102
}
330
47
100
AcDbScale
 70
     0
300
1:16
140
1.0
141
16.0
290
     0
  0
SCALE
  5
4F
102
{ACAD_REACTORS
330
47
102
}
330
47
100
AcDbScale
 70
     0
300
1:20
140
1.0
141
20.0
290
     0
  0
SCALE
  5
50
102
{ACAD_REACTORS
330
47
102
}
330
47
100
AcDbScale
 70
     0
300
1:30
140
1.0
141
30.0
290
     0
  0
SCALE
  5
51
102
{ACAD_REACTORS
330
47
102
}
330
47
100
AcDbScale
 70
     0
300
1:40
140
1.0
141
40.0
290
     0
  0
SCALE
  5
52
102
{ACAD_REACTORS
330
47
102
}
330
47
100
AcDbScale
 70
     0
300
1:50
140
1.0
141
50.0
290
     0
  0
SCALE
  5
53
102
{ACAD_REACTORS
330
47
102
}
330
47
100
AcDbScale
 70
     0
300
1:100
140
1.0
141
100.0
290
     0
  0
SCALE
  5
54
102
{ACAD_REACTORS
330
47
102
}
330
47
100
AcDbScale
 70
     0
300
2:1
140
2.0
141
1.0
290
     0
  0
SCALE
  5
55
102
{ACAD_REACTORS
330
47
102
}
330
47
100
AcDbScale
 70
     0
300
4:1
140
4.0
141
1.0
290
     0
  0
SCALE
  5
56
102
{ACAD_REACTORS
330
47
102
}
330
47
100
AcDbScale
 70
     0
300
8:1
140
8.0
141
1.0
290
     0
  0
SCALE
  5
57
102
{ACAD_REACTORS
330
47
102
}
330
47
100
AcDbScale
 70
     0
300
10:1
140
10.0
141
1.0
290
     0
  0
SCALE
  5
58
102
{ACAD_REACTORS
330
47
102
}
330
47
100
AcDbScale
 70
     0
300
100:1
140
100.0
141
1.0
290
     0
  0
SCALE
  5
59
102
{ACAD_REACTORS
330
47
102
}
330
47
100
AcDbScale
 70
     0
300
1/128" = 1'-0"
140
0.0078125
141
12.0
290
     0
  0
SCALE
  5
5A
102
{ACAD_REACTORS
330
47
102
}
330
47
100
AcDbScale
 70
     0
300
1/64" = 1'-0"
140
0.015625
141
12.0
290
     0
  0
SCALE
  5
5B
102
{ACAD_REACTORS
330
47
102
}
330
47
100
AcDbScale
 70
     0
300
1/32" = 1'-0"
140
0.03125
141
12.0
290
     0
  0
SCALE
  5
5C
102
{ACAD_REACTORS
330
47
102
}
330
47
100
AcDbScale
 70
     0
300
1/16" = 1'-0"
140
0.0625
141
12.0
290
     0
  0
SCALE
  5
5D
102
{ACAD_REACTORS
330
47
102
}
330
47
100
AcDbScale
 70
     0
300
3/32" = 1'-0"
140
0.09375
141
12.0
290
     0
  0
SCALE
  5
5E
102
{ACAD_REACTORS
330
47
102
}
330
47
100
AcDbScale
 70
     0
300
1/8" = 1'-0"
140
0.125
141
12.0
290
     0
  0
SCALE
  5
5F
102
{ACAD_REACTORS
330
47
102
}
330
47
100
AcDbScale
 70
     0
300
3/16" = 1'-0"
140
0.1875
141
12.0
290
     0
  0
SCALE
  5
60
102
{ACAD_REACTORS
330
47
102
}
330
47
100
AcDbScale
 70
     0
300
1/4" = 1'-0"
140
0.25
141
12.0
290
     0
  0
SCALE
  5
61
102
{ACAD_REACTORS
330
47
102
}
330
47
100
AcDbScale
 70
     0
300
3/8" = 1'-0"
140
0.375
141
12.0
290
     0
  0
SCALE
  5
62
102
{ACAD_REACTORS
330
47
102
}
330
47
100
AcDbScale
 70
     0
300
1/2" = 1'-0"
140
0.5
141
12.0
290
     0
  0
SCALE
  5
63
102
{ACAD_REACTORS
330
47
102
}
330
47
100
AcDbScale
 70
     0
300
3/4" = 1'-0"
140
0.75
141
12.0
290
     0
  0
SCALE
  5
64
102
{ACAD_REACTORS
330
47
102
}
330
47
100
AcDbScale
 70
     0
300
1" = 1'-0"
140
1.0
141
12.0
290
     0
  0
SCALE
  5
65
102
{ACAD_REACTORS
330
47
102
}
330
47
100
AcDbScale
 70
     0
300
1-1/2" = 1'-0"
140
1.5
141
12.0
290
     0
  0
SCALE
  5
66
102
{ACAD_REACTORS
330
47
102
}
330
47
100
AcDbScale
 70
     0
300
3" = 1'-0"
140
3.0
141
12.0
290
     0
  0
SCALE
  5
67
102
{ACAD_REACTORS
330
47
102
}
330
47
100
AcDbScale
 70
     0
300
6" = 1'-0"
140
6.0
141
12.0
290
     0
  0
SCALE
  5
68
102
{ACAD_REACTORS
330
47
102
}
330
47
100
AcDbScale
 70
     0
300
1'-0" = 1'-0"
140
12.0
141
12.0
290
     0
  0
ENDSEC
  0
EOF
