  0
SECTION
  2
HEADER
  9
$ACADVER
  1
AC1015
  9
$ACADMAINTVER
 70
     6
  9
$DWGCODEPAGE
  3
ANSI_949
  9
$INSBASE
 10
0.0
 20
0.0
 30
0.0
  9
$EXTMIN
 10
-60.69470000000007
 20
-49.97180738881174
 30
0.0
  9
$EXTMAX
 10
96.0087838153456
 20
57.49683979564885
 30
0.0
  9
$LIMMIN
 10
0.0
 20
0.0
  9
$LIMMAX
 10
420.0
 20
297.0
  9
$ORTHOMODE
 70
     1
  9
$REGENMODE
 70
     1
  9
$FILLMODE
 70
     1
  9
$QTEXTMODE
 70
     0
  9
$MIRRTEXT
 70
     1
  9
$LTSCALE
 40
1.0
  9
$ATTMODE
 70
     1
  9
$TEXTSIZE
 40
3.5
  9
$TRACEWID
 40
1.0
  9
$TEXTSTYLE
  7
Standard
  9
$CLAYER
  8
0
  9
$CELTYPE
  6
ByLayer
  9
$CECOLOR
 62
   256
  9
$CELTSCALE
 40
1.0
  9
$DISPSILH
 70
     0
  9
$DIMSCALE
 40
1.0
  9
$DIMASZ
 40
3.302
  9
$DIMEXO
 40
1.0
  9
$DIMDLI
 40
3.75
  9
$DIMRND
 40
0.0
  9
$DIMDLE
 40
0.0
  9
$DIMEXE
 40
1.0
  9
$DIMTP
 40
0.0
  9
$DIMTM
 40
0.0
  9
$DIMTXT
 40
3.5
  9
$DIMCEN
 40
2.5
  9
$DIMTSZ
 40
0.0
  9
$DIMTOL
 70
     0
  9
$DIMLIM
 70
     0
  9
$DIMTIH
 70
     1
  9
$DIMTOH
 70
     1
  9
$DIMSE1
 70
     0
  9
$DIMSE2
 70
     0
  9
$DIMTAD
 70
     1
  9
$DIMZIN
 70
     0
  9
$DIMBLK
  1

  9
$DIMASO
 70
     1
  9
$DIMSHO
 70
     1
  9
$DIMPOST
  1

  9
$DIMAPOST
  1

  9
$DIMALT
 70
     0
  9
$DIMALTD
 70
     3
  9
$DIMALTF
 40
0.0393700787401575
  9
$DIMLFAC
 40
1.0
  9
$DIMTOFL
 70
     1
  9
$DIMTVP
 40
0.0
  9
$DIMTIX
 70
     0
  9
$DIMSOXD
 70
     0
  9
$DIMSAH
 70
     0
  9
$DIMBLK1
  1

  9
$DIMBLK2
  1

  9
$DIMSTYLE
  2
ISO-25
  9
$DIMCLRD
 70
     0
  9
$DIMCLRE
 70
     0
  9
$DIMCLRT
 70
     0
  9
$DIMTFAC
 40
1.0
  9
$DIMGAP
 40
1.524
  9
$DIMJUST
 70
     0
  9
$DIMSD1
 70
     0
  9
$DIMSD2
 70
     0
  9
$DIMTOLJ
 70
     0
  9
$DIMTZIN
 70
     0
  9
$DIMALTZ
 70
     0
  9
$DIMALTTZ
 70
     0
  9
$DIMUPT
 70
     0
  9
$DIMDEC
 70
     2
  9
$DIMTDEC
 70
     2
  9
$DIMALTU
 70
     2
  9
$DIMALTTD
 70
     3
  9
$DIMTXSTY
  7
Standard
  9
$DIMAUNIT
 70
     0
  9
$DIMADEC
 70
     2
  9
$DIMALTRND
 40
0.0
  9
$DIMAZIN
 70
     0
  9
$DIMDSEP
 70
    44
  9
$DIMATFIT
 70
     3
  9
$DIMFRAC
 70
     0
  9
$DIMLDRBLK
  1

  9
$DIMLUNIT
 70
     2
  9
$DIMLWD
 70
    -2
  9
$DIMLWE
 70
    -2
  9
$DIMTMOVE
 70
     0
  9
$LUNITS
 70
     2
  9
$LUPREC
 70
     2
  9
$SKETCHINC
 40
1.0
  9
$FILLETRAD
 40
10.0
  9
$AUNITS
 70
     0
  9
$AUPREC
 70
     2
  9
$MENU
  1
.
  9
$ELEVATION
 40
0.0
  9
$PELEVATION
 40
0.0
  9
$THICKNESS
 40
0.0
  9
$LIMCHECK
 70
     0
  9
$CHAMFERA
 40
0.0
  9
$CHAMFERB
 40
0.0
  9
$CHAMFERC
 40
0.0
  9
$CHAMFERD
 40
0.0
  9
$SKPOLY
 70
     0
  9
$TDCREATE
 40
2458290.44907456
  9
$TDUCREATE
 40
2458290.07407456
  9
$TDUPDATE
 40
2458302.599911273
  9
$TDUUPDATE
 40
2458302.224911273
  9
$TDINDWG
 40
0.0025625579
  9
$TDUSRTIMER
 40
0.0025625579
  9
$USRTIMER
 70
     1
  9
$ANGBASE
 50
0.0
  9
$ANGDIR
 70
     0
  9
$PDMODE
 70
     0
  9
$PDSIZE
 40
-1.0
  9
$PLINEWID
 40
0.0
  9
$SPLFRAME
 70
     0
  9
$SPLINETYPE
 70
     6
  9
$SPLINESEGS
 70
     8
  9
$HANDSEED
  5
1A6
  9
$SURFTAB1
 70
     6
  9
$SURFTAB2
 70
     6
  9
$SURFTYPE
 70
     6
  9
$SURFU
 70
     6
  9
$SURFV
 70
     6
  9
$UCSBASE
  2

  9
$UCSNAME
  2

  9
$UCSORG
 10
0.0
 20
0.0
 30
0.0
  9
$UCSXDIR
 10
1.0
 20
0.0
 30
0.0
  9
$UCSYDIR
 10
0.0
 20
1.0
 30
0.0
  9
$UCSORTHOREF
  2

  9
$UCSORTHOVIEW
 70
     0
  9
$UCSORGTOP
 10
0.0
 20
0.0
 30
0.0
  9
$UCSORGBOTTOM
 10
0.0
 20
0.0
 30
0.0
  9
$UCSORGLEFT
 10
0.0
 20
0.0
 30
0.0
  9
$UCSORGRIGHT
 10
0.0
 20
0.0
 30
0.0
  9
$UCSORGFRONT
 10
0.0
 20
0.0
 30
0.0
  9
$UCSORGBACK
 10
0.0
 20
0.0
 30
0.0
  9
$PUCSBASE
  2

  9
$PUCSNAME
  2

  9
$PUCSORG
 10
0.0
 20
0.0
 30
0.0
  9
$PUCSXDIR
 10
1.0
 20
0.0
 30
0.0
  9
$PUCSYDIR
 10
0.0
 20
1.0
 30
0.0
  9
$PUCSORTHOREF
  2

  9
$PUCSORTHOVIEW
 70
     0
  9
$PUCSORGTOP
 10
0.0
 20
0.0
 30
0.0
  9
$PUCSORGBOTTOM
 10
0.0
 20
0.0
 30
0.0
  9
$PUCSORGLEFT
 10
0.0
 20
0.0
 30
0.0
  9
$PUCSORGRIGHT
 10
0.0
 20
0.0
 30
0.0
  9
$PUCSORGFRONT
 10
0.0
 20
0.0
 30
0.0
  9
$PUCSORGBACK
 10
0.0
 20
0.0
 30
0.0
  9
$USERI1
 70
     0
  9
$USERI2
 70
     0
  9
$USERI3
 70
     0
  9
$USERI4
 70
     0
  9
$USERI5
 70
     0
  9
$USERR1
 40
0.0
  9
$USERR2
 40
0.0
  9
$USERR3
 40
0.0
  9
$USERR4
 40
0.0
  9
$USERR5
 40
0.0
  9
$WORLDVIEW
 70
     1
  9
$SHADEDGE
 70
     3
  9
$SHADEDIF
 70
    70
  9
$TILEMODE
 70
     1
  9
$MAXACTVP
 70
    64
  9
$PINSBASE
 10
0.0
 20
0.0
 30
0.0
  9
$PLIMCHECK
 70
     0
  9
$PEXTMIN
 10
1.000000000000000E+20
 20
1.000000000000000E+20
 30
1.000000000000000E+20
  9
$PEXTMAX
 10
-1.000000000000000E+20
 20
-1.000000000000000E+20
 30
-1.000000000000000E+20
  9
$PLIMMIN
 10
0.0
 20
0.0
  9
$PLIMMAX
 10
0.0
 20
0.0
  9
$UNITMODE
 70
     0
  9
$VISRETAIN
 70
     1
  9
$PLINEGEN
 70
     0
  9
$PSLTSCALE
 70
     1
  9
$TREEDEPTH
 70
  3020
  9
$CMLSTYLE
  2
Standard
  9
$CMLJUST
 70
     0
  9
$CMLSCALE
 40
20.0
  9
$PROXYGRAPHICS
 70
     1
  9
$MEASUREMENT
 70
     1
  9
$CELWEIGHT
370
    -1
  9
$ENDCAPS
280
     0
  9
$JOINSTYLE
280
     0
  9
$LWDISPLAY
290
     1
  9
$INSUNITS
 70
     4
  9
$HYPERLINKBASE
  1

  9
$STYLESHEET
  1

  9
$XEDIT
290
     1
  9
$CEPSNTYPE
380
     0
  9
$PSTYLEMODE
290
     1
  9
$FINGERPRINTGUID
  2
{2D0EA03A-A70D-4A13-ABA4-9E7D1F652184}
  9
$VERSIONGUID
  2
{FAEB1C32-E019-11D5-929B-00C0DF256EC4}
  9
$EXTNAMES
290
     1
  9
$PSVPSCALE
 40
0.0
  9
$OLESTARTUP
290
     0
  0
ENDSEC
  0
SECTION
  2
CLASSES
  0
CLASS
  1
ACDBDICTIONARYWDFLT
  2
AcDbDictionaryWithDefault
  3
ObjectDBX Classes
 90
        0
280
     0
281
     0
  0
CLASS
  1
VISUALSTYLE
  2
AcDbVisualStyle
  3
ObjectDBX Classes
 90
     4095
280
     0
281
     0
  0
CLASS
  1
MATERIAL
  2
AcDbMaterial
  3
ObjectDBX Classes
 90
     1153
280
     0
281
     0
  0
CLASS
  1
SCALE
  2
AcDbScale
  3
ObjectDBX Classes
 90
     1153
280
     0
281
     0
  0
CLASS
  1
SUN
  2
AcDbSun
  3
SCENEOE
 90
     1153
280
     0
281
     0
  0
CLASS
  1
ACDBPLACEHOLDER
  2
AcDbPlaceHolder
  3
ObjectDBX Classes
 90
        0
280
     0
281
     0
  0
CLASS
  1
LAYOUT
  2
AcDbLayout
  3
ObjectDBX Classes
 90
        0
280
     0
281
     0
  0
CLASS
  1
TABLESTYLE
  2
AcDbTableStyle
  3
ObjectDBX Classes
 90
     4095
280
     0
281
     0
  0
CLASS
  1
MLEADERSTYLE
  2
AcDbMLeaderStyle
  3
ACDB_MLEADERSTYLE_CLASS
 90
     4095
280
     0
281
     0
  0
CLASS
  1
DICTIONARYVAR
  2
AcDbDictionaryVar
  3
ObjectDBX Classes
 90
        0
280
     0
281
     0
  0
ENDSEC
  0
SECTION
  2
TABLES
  0
TABLE
  2
VPORT
  5
8
330
0
100
AcDbSymbolTable
 70
     1
  0
VPORT
  5
29
330
8
100
AcDbSymbolTableRecord
100
AcDbViewportTableRecord
  2
*Active
 70
     0
 10
0.0
 20
0.0
 11
1.0
 21
1.0
 12
17.65704190767276
 22
3.762516203418556
 13
0.0
 23
0.0
 14
10.0
 24
10.0
 15
10.0
 25
10.0
 16
0.0
 26
0.0
 36
1.0
 17
0.0
 27
0.0
 37
0.0
 40
109.6180201281498
 41
2.148876404494382
 42
50.0
 43
0.0
 44
0.0
 50
0.0
 51
0.0
 71
    16
 72
  2000
 73
     1
 74
     3
 75
     0
 76
     0
 77
     0
 78
     0
281
     0
 65
     1
110
0.0
120
0.0
130
0.0
111
1.0
121
0.0
131
0.0
112
0.0
122
1.0
132
0.0
 79
     0
146
0.0
  0
ENDTAB
  0
TABLE
  2
LTYPE
  5
5
330
0
100
AcDbSymbolTable
 70
     6
  0
LTYPE
  5
14
330
5
100
AcDbSymbolTableRecord
100
AcDbLinetypeTableRecord
  2
ByBlock
 70
     0
  3

 72
    65
 73
     0
 40
0.0
  0
LTYPE
  5
15
330
5
100
AcDbSymbolTableRecord
100
AcDbLinetypeTableRecord
  2
ByLayer
 70
     0
  3

 72
    65
 73
     0
 40
0.0
  0
LTYPE
  5
16
330
5
100
AcDbSymbolTableRecord
100
AcDbLinetypeTableRecord
  2
Continuous
 70
     0
  3
Solid line
 72
    65
 73
     0
 40
0.0
  0
LTYPE
  5
6A
330
5
100
AcDbSymbolTableRecord
100
AcDbLinetypeTableRecord
  2
HIDDEN
 70
     0
  3
Hidden __ __ __ __ __ __ __ __ __ __ __ __ __ __
 72
    65
 73
     2
 40
1.905
 49
1.27
 74
     0
 49
-0.635
 74
     0
  0
LTYPE
  5
6B
330
5
100
AcDbSymbolTableRecord
100
AcDbLinetypeTableRecord
  2
PHANTOM
 70
     0
  3
Phantom ______  __  __  ______  __  __  ______
 72
    65
 73
     6
 40
12.7
 49
6.35
 74
     0
 49
-1.27
 74
     0
 49
1.27
 74
     0
 49
-1.27
 74
     0
 49
1.27
 74
     0
 49
-1.27
 74
     0
  0
LTYPE
  5
6C
330
5
100
AcDbSymbolTableRecord
100
AcDbLinetypeTableRecord
  2
CENTER
 70
     0
  3
Center ____ _ ____ _ ____ _ ____ _ ____ _ ____
 72
    65
 73
     4
 40
10.16
 49
6.35
 74
     0
 49
-1.27
 74
     0
 49
1.27
 74
     0
 49
-1.27
 74
     0
  0
LTYPE
  5
6D
330
5
100
AcDbSymbolTableRecord
100
AcDbLinetypeTableRecord
  2
CENTERX2
 70
     0
  3
Center (2x) ________  __  ________  __  _____
 72
    65
 73
     4
 40
20.32
 49
12.7
 74
     0
 49
-2.54
 74
     0
 49
2.54
 74
     0
 49
-2.54
 74
     0
  0
LTYPE
  5
6E
330
5
100
AcDbSymbolTableRecord
100
AcDbLinetypeTableRecord
  2
DOT2
 70
     0
  3
Dot (.5x) ........................................
 72
    65
 73
     2
 40
0.635
 49
0.0
 74
     0
 49
-0.635
 74
     0
  0
ENDTAB
  0
TABLE
  2
LAYER
  5
2
330
0
100
AcDbSymbolTable
 70
    18
  0
LAYER
  5
10
330
2
100
AcDbSymbolTableRecord
100
AcDbLayerTableRecord
  2
0
 70
     0
 62
     7
  6
Continuous
370
    -3
390
F
  0
LAYER
  5
6F
330
2
100
AcDbSymbolTableRecord
100
AcDbLayerTableRecord
  2
FORMAT
 70
     0
 62
     2
  6
Continuous
370
    -3
390
F
  0
LAYER
  5
70
330
2
100
AcDbSymbolTableRecord
100
AcDbLayerTableRecord
  2
외형선
 70
     0
 62
     4
  6
Continuous
370
    30
390
F
  0
LAYER
  5
71
330
2
100
AcDbSymbolTableRecord
100
AcDbLayerTableRecord
  2
숨은선
 70
     0
 62
     2
  6
HIDDEN
370
    15
390
F
  0
LAYER
  5
72
330
2
100
AcDbSymbolTableRecord
100
AcDbLayerTableRecord
  2
중심선
 70
     0
 62
     1
  6
CENTERX2
370
    -3
390
F
  0
LAYER
  5
73
330
2
100
AcDbSymbolTableRecord
100
AcDbLayerTableRecord
  2
파단선
 70
     0
 62
     4
  6
Continuous
370
    -3
390
F
  0
LAYER
  5
74
330
2
100
AcDbSymbolTableRecord
100
AcDbLayerTableRecord
  2
해칭선
 70
     0
 62
   100
  6
Continuous
370
    -3
390
F
  0
LAYER
  5
75
330
2
100
AcDbSymbolTableRecord
100
AcDbLayerTableRecord
  2
가는실선
 70
     0
 62
     4
  6
Continuous
370
    -3
390
F
  0
LAYER
  5
76
330
2
100
AcDbSymbolTableRecord
100
AcDbLayerTableRecord
  2
치수_보조선
 70
     0
 62
     4
  6
Continuous
370
    -3
390
F
  0
LAYER
  5
77
330
2
100
AcDbSymbolTableRecord
100
AcDbLayerTableRecord
  2
치수문자_일반주서
 70
     0
 62
     7
  6
Continuous
370
    15
390
F
  0
LAYER
  5
78
330
2
100
AcDbSymbolTableRecord
100
AcDbLayerTableRecord
  2
개별주서
 70
     0
 62
   100
  6
Continuous
370
    30
390
F
  0
LAYER
  5
79
330
2
100
AcDbSymbolTableRecord
100
AcDbLayerTableRecord
  2
중간선
 70
     0
 62
     2
  6
Continuous
370
    15
390
F
  0
LAYER
  5
7A
330
2
100
AcDbSymbolTableRecord
100
AcDbLayerTableRecord
  2
윤곽선
 70
     0
 62
     3
  6
Continuous
370
    40
390
F
  0
LAYER
  5
7B
330
2
100
AcDbSymbolTableRecord
100
AcDbLayerTableRecord
  2
중심마크
 70
     0
 62
   100
  6
Continuous
370
    30
390
F
  0
LAYER
  5
7C
330
2
100
AcDbSymbolTableRecord
100
AcDbLayerTableRecord
  2
가상선
 70
     0
 62
     4
  6
PHANTOM
370
    -3
390
F
  0
LAYER
  5
7D
330
2
100
AcDbSymbolTableRecord
100
AcDbLayerTableRecord
  2
특수지정선
 70
     0
 62
     5
  6
CENTERX2
370
    60
390
F
  0
LAYER
  5
7E
330
2
100
AcDbSymbolTableRecord
100
AcDbLayerTableRecord
  2
참조1
 70
     0
 62
    -4
  6
Continuous
370
    -3
390
F
  0
LAYER
  5
166
330
2
100
AcDbSymbolTableRecord
100
AcDbLayerTableRecord
  2
Defpoints
 70
     0
 62
     7
  6
Continuous
290
     0
370
    -3
390
F
  0
ENDTAB
  0
TABLE
  2
STYLE
  5
3
330
0
100
AcDbSymbolTable
 70
     2
  0
STYLE
  5
11
330
3
100
AcDbSymbolTableRecord
100
AcDbTextStyleTableRecord
  2
Standard
 70
     0
 40
0.0
 41
1.0
 50
0.0
 71
     0
 42
3.5
  3
txt
  4

  0
STYLE
  5
94
330
3
100
AcDbSymbolTableRecord
100
AcDbTextStyleTableRecord
  2
SLDTEXTSTYLE0
 70
     0
 40
0.0
 41
0.75
 50
0.0
 71
     0
 42
3.5
  3
TXT
  4

  0
ENDTAB
  0
TABLE
  2
VIEW
  5
6
330
0
100
AcDbSymbolTable
 70
     0
  0
ENDTAB
  0
TABLE
  2
UCS
  5
7
330
0
100
AcDbSymbolTable
 70
     0
  0
ENDTAB
  0
TABLE
  2
APPID
  5
9
330
0
100
AcDbSymbolTable
 70
     4
  0
APPID
  5
12
330
9
100
AcDbSymbolTableRecord
100
AcDbRegAppTableRecord
  2
ACAD
 70
     0
  0
APPID
  5
167
330
9
100
AcDbSymbolTableRecord
100
AcDbRegAppTableRecord
  2
PE_URL
 70
     0
  0
APPID
  5
1A4
330
9
100
AcDbSymbolTableRecord
100
AcDbRegAppTableRecord
  2
ACAD_DSTYLE_DIMFLIPARROW_SYMBOL
 70
     0
  0
APPID
  5
1A5
330
9
100
AcDbSymbolTableRecord
100
AcDbRegAppTableRecord
  2
ACAD_DSTYLE_DIMFLIPARROW_WHICH_SYMBOL
 70
     0
  0
ENDTAB
  0
TABLE
  2
DIMSTYLE
  5
A
330
0
100
AcDbSymbolTable
 70
     4
100
AcDbDimStyleTable
  0
DIMSTYLE
105
27
102
{ACAD_REACTORS
330
194
330
19A
102
}
330
A
100
AcDbSymbolTableRecord
100
AcDbDimStyleTableRecord
  2
ISO-25
 70
     0
 41
2.5
 42
0.625
 43
3.75
 44
1.25
 73
     0
 74
     0
 77
     1
 78
     8
140
2.5
141
2.5
143
0.03937007874016
147
0.625
171
     3
172
     1
178
     0
271
     2
272
     2
274
     3
278
    44
283
     0
284
     8
340
11
  0
DIMSTYLE
105
D3
102
{ACAD_REACTORS
330
D2
330
FC
330
123
330
E6
330
10F
102
}
330
A
100
AcDbSymbolTableRecord
100
AcDbDimStyleTableRecord
  2
SLDDIMSTYLE0
 70
     0
 41
3.302
 44
0.0
 45
0.000000001
 73
     0
 74
     0
 77
     1
 78
     4
 79
     1
140
3.5
143
0.0393700787401575
147
0.875
148
0.000000001
170
     1
173
     1
178
     0
271
     2
272
     2
276
     2
284
    12
340
94
  0
DIMSTYLE
105
E7
330
A
100
AcDbSymbolTableRecord
100
AcDbDimStyleTableRecord
  2
SLDDIMSTYLE1
 70
     0
 41
3.302
 44
0.0
 45
0.000000001
 73
     0
 74
     0
 77
     1
 78
     4
 79
     1
140
3.5
143
0.0393700787401575
147
0.875
148
0.000000001
170
     1
172
     1
173
     1
178
     0
271
     2
272
     2
276
     2
284
    12
289
     0
340
94
  0
DIMSTYLE
105
110
330
A
100
AcDbSymbolTableRecord
100
AcDbDimStyleTableRecord
  2
SLDDIMSTYLE2
 70
     0
 41
3.302
 44
0.0
 45
0.000000001
 73
     0
 74
     0
 77
     1
 78
    12
 79
     3
140
3.5
143
0.0393700787401575
147
0.875
148
0.000000001
170
     1
173
     1
178
     0
271
     2
272
     2
276
     2
284
    12
340
94
  0
ENDTAB
  0
TABLE
  2
BLOCK_RECORD
  5
1
330
0
100
AcDbSymbolTable
 70
     9
  0
BLOCK_RECORD
  5
1F
330
1
100
AcDbSymbolTableRecord
100
AcDbBlockTableRecord
  2
*Model_Space
340
22
  0
BLOCK_RECORD
  5
1B
330
1
100
AcDbSymbolTableRecord
100
AcDbBlockTableRecord
  2
*Paper_Space
340
1E
  0
BLOCK_RECORD
  5
23
330
1
100
AcDbSymbolTableRecord
100
AcDbBlockTableRecord
  2
*Paper_Space0
340
26
  0
BLOCK_RECORD
  5
7F
330
1
100
AcDbSymbolTableRecord
100
AcDbBlockTableRecord
  2
블럭10
340
0
102
{BLKREFS
331
CB
102
}
  0
BLOCK_RECORD
  5
D4
330
1
100
AcDbSymbolTableRecord
100
AcDbBlockTableRecord
  2
_D
340
0
  0
BLOCK_RECORD
  5
E8
330
1
100
AcDbSymbolTableRecord
100
AcDbBlockTableRecord
  2
_D_1
340
0
  0
BLOCK_RECORD
  5
FD
330
1
100
AcDbSymbolTableRecord
100
AcDbBlockTableRecord
  2
_D_2
340
0
  0
BLOCK_RECORD
  5
111
330
1
100
AcDbSymbolTableRecord
100
AcDbBlockTableRecord
  2
_D_3
340
0
  0
BLOCK_RECORD
  5
124
330
1
100
AcDbSymbolTableRecord
100
AcDbBlockTableRecord
  2
_D_4
340
0
  0
BLOCK_RECORD
  5
13D
330
1
100
AcDbSymbolTableRecord
100
AcDbBlockTableRecord
  2
SW_DOWELSYMBOL_0
340
0
102
{BLKREFS
331
143
102
}
  0
ENDTAB
  0
ENDSEC
  0
SECTION
  2
BLOCKS
  0
BLOCK
  5
20
330
1F
100
AcDbEntity
  8
0
100
AcDbBlockBegin
  2
*Model_Space
 70
     0
 10
0.0
 20
0.0
 30
0.0
  3
*Model_Space
  1

  0
ENDBLK
  5
21
330
1F
100
AcDbEntity
  8
0
100
AcDbBlockEnd
  0
BLOCK
  5
1C
330
1B
100
AcDbEntity
 67
     1
  8
0
100
AcDbBlockBegin
  2
*Paper_Space
 70
     0
 10
0.0
 20
0.0
 30
0.0
  3
*Paper_Space
  1

  0
ENDBLK
  5
1D
330
1B
100
AcDbEntity
 67
     1
  8
0
100
AcDbBlockEnd
  0
BLOCK
  5
24
330
23
100
AcDbEntity
  8
0
100
AcDbBlockBegin
  2
*Paper_Space0
 70
     0
 10
0.0
 20
0.0
 30
0.0
  3
*Paper_Space0
  1

  0
ENDBLK
  5
25
330
23
100
AcDbEntity
  8
0
100
AcDbBlockEnd
  0
BLOCK
  5
80
330
7F
100
AcDbEntity
  8
0
100
AcDbBlockBegin
  2
블럭10
 70
     2
 10
0.0
 20
0.0
 30
0.0
  3
블럭10
  1

  0
ELLIPSE
  5
82
330
7F
100
AcDbEntity
  8
중심선
100
AcDbEllipse
 10
20.54032771741204
 20
12.0471743016438
 30
0.0
 11
6.600054785286829
 21
-1.261213355974178E-13
 31
0.0
210
0.0
220
0.0
230
1.0
 40
0.636358354079598
 41
0.9219305317359503
 42
6.513795318482858
  0
ELLIPSE
  5
83
330
7F
100
AcDbEntity
  8
중심선
100
AcDbEllipse
 10
20.54032771746488
 20
12.04717430159265
 30
0.0
 11
3.960054785062283
 21
1.540847449632565E-10
 31
0.0
210
0.0
220
0.0
230
1.0
 40
0.3939339440162632
 41
1.131841032648279
 42
5.62031148352944
  0
LINE
  5
84
330
7F
100
AcDbEntity
  8
중심선
100
AcDbLine
 10
2.268634060543552
 20
16.24717430164393
 30
0.0
 11
5.714909304380834
 21
16.24717430164393
 31
0.0
  0
LINE
  5
85
330
7F
100
AcDbEntity
  8
중심선
100
AcDbLine
 10
5.245725140726316
 20
7.84717430164391
 30
0.0
 11
8.692000384563599
 21
7.84717430164391
 31
0.0
  0
LINE
  5
86
330
7F
100
AcDbEntity
  8
중심선
100
AcDbLine
 10
15.74043728645272
 20
16.24717430164393
 30
0.0
 11
8.692000384563599
 21
7.84717430164391
 31
0.0
  0
LINE
  5
87
330
7F
100
AcDbEntity
  8
중심선
100
AcDbLine
 10
0.1404042013395286
 20
13.71084872107135
 30
0.0
 11
3.58671253028996
 21
13.71088815037384
 31
0.0
  0
LINE
  5
88
330
7F
100
AcDbEntity
  8
중심선
100
AcDbLine
 10
2.750260043222114
 20
10.84717430164391
 30
0.0
 11
6.196535287059397
 21
10.84717430164391
 31
0.0
  0
LINE
  5
89
330
7F
100
AcDbEntity
  8
중심선
100
AcDbLine
 10
12.29416204261559
 20
16.24717430164393
 30
0.0
 11
5.245725140726316
 21
7.84717430164391
 31
0.0
  0
LINE
  5
8A
330
7F
100
AcDbEntity
  8
중심선
100
AcDbLine
 10
10.72767329541681
 20
16.24717430164393
 30
0.0
 11
6.196535287059397
 21
10.84717430164391
 31
0.0
  0
LINE
  5
8B
330
7F
100
AcDbEntity
  8
중심선
100
AcDbLine
 10
7.28139805157953
 20
16.24717430164393
 30
0.0
 11
2.750260043222114
 21
10.84717430164391
 31
0.0
  0
LINE
  5
8C
330
7F
100
AcDbEntity
  8
중심선
100
AcDbLine
 10
5.714909304380834
 20
16.24717430164393
 30
0.0
 11
3.58671253028996
 21
13.71088815037384
 31
0.0
  0
LINE
  5
8D
330
7F
100
AcDbEntity
  8
중심선
100
AcDbLine
 10
2.268634060543552
 20
16.24717430164393
 30
0.0
 11
0.1404042013395286
 21
13.71084872107135
 31
0.0
  0
LINE
  5
8E
330
7F
100
AcDbEntity
  8
중심선
100
AcDbLine
 10
7.28139805157953
 20
16.24717430164393
 30
0.0
 11
10.72767329541681
 21
16.24717430164393
 31
0.0
  0
LINE
  5
8F
330
7F
100
AcDbEntity
  8
중심선
100
AcDbLine
 10
12.29416204261559
 20
16.24717430164393
 30
0.0
 11
15.74043728645272
 21
16.24717430164393
 31
0.0
  0
LINE
  5
90
330
7F
100
AcDbEntity
  8
중심선
100
AcDbLine
 10
19.22036997980202
 20
11.08717430171403
 30
0.0
 11
23.66174974927406
 21
11.08717430171406
 31
0.0
  0
LINE
  5
91
330
7F
100
AcDbEntity
  8
중심선
100
AcDbLine
 10
19.22039502424796
 20
13.00717430171391
 30
0.0
 11
19.22036997980202
 21
11.08717430171403
 31
0.0
  0
LINE
  5
92
330
7F
100
AcDbEntity
  8
중심선
100
AcDbLine
 10
19.22039502424796
 20
13.00717430171391
 30
0.0
 11
26.96566020931264
 21
13.00717430171391
 31
0.0
  0
LINE
  5
93
330
7F
100
AcDbEntity
  8
중심선
100
AcDbLine
 10
22.22332737316547
 20
13.45928029700563
 30
0.0
 11
24.52862924686651
 21
15.39360700705356
 31
0.0
  0
ATTDEF
  5
95
330
7F
100
AcDbEntity
  8
FORMAT
 62
     2
100
AcDbText
 10
3.448148490846466
 20
2.075366912832191
 30
0.0
 40
4.233333333333333
  1
EM965032
 41
0.75
  7
SLDTEXTSTYLE0
 11
3.448148490846466
 21
-0.0412997538344756
 31
0.0
100
AcDbAttributeDefinition
  3

  2
AUTOATTR0
 70
     0
 74
     1
  0
ENDBLK
  5
81
330
7F
100
AcDbEntity
  8
0
100
AcDbBlockEnd
  0
BLOCK
  5
D5
330
D4
100
AcDbEntity
  8
0
100
AcDbBlockBegin
  2
_D
 70
     0
 10
0.0
 20
0.0
 30
0.0
  3
_D
  1

  0
LINE
  5
D7
330
D4
100
AcDbEntity
  8
치수문자_일반주서
 62
     0
370
    -2
100
AcDbLine
 10
38.65780000000001
 20
6.351697685293892
 30
0.0
 11
75.80272906349464
 21
6.351697685294031
 31
0.0
  0
LINE
  5
D8
330
D4
100
AcDbEntity
  8
치수문자_일반주서
 62
     0
370
    -2
100
AcDbLine
 10
38.65780000000002
 20
-6.349999999999953
 30
0.0
 11
75.80272906349468
 21
-6.349999999999817
 31
0.0
  0
LINE
  5
D9
330
D4
100
AcDbEntity
  8
치수문자_일반주서
 62
     0
370
    -2
100
AcDbLine
 10
75.80272906349464
 20
6.351697685294031
 30
0.0
 11
75.80272906349452
 21
39.74202749523124
 31
0.0
  0
LINE
  5
DA
330
D4
100
AcDbEntity
  8
치수문자_일반주서
 62
     0
370
    -2
100
AcDbLine
 10
75.80272906349464
 20
6.351697685294031
 30
0.0
 11
75.80272906349468
 21
-6.349999999999817
 31
0.0
  0
LINE
  5
DB
330
D4
100
AcDbEntity
  8
치수문자_일반주서
 62
     0
370
    -2
100
AcDbLine
 10
75.80272906349462
 20
9.65369768529403
 30
0.0
 11
75.80272906349461
 21
12.95569768529403
 31
0.0
  0
LINE
  5
DC
330
D4
100
AcDbEntity
  8
치수문자_일반주서
 62
     0
370
    -2
100
AcDbLine
 10
75.8027290634947
 20
-9.651999999999816
 30
0.0
 11
75.80272906349471
 21
-12.95399999999982
 31
0.0
  0
SOLID
  5
DD
330
D4
100
AcDbEntity
  8
치수문자_일반주서
 62
     0
100
AcDbTrace
 10
75.2523957301613
 20
9.653697685294029
 30
0.0
 11
76.35306239682795
 21
9.653697685294032
 31
0.0
 12
75.80272906349464
 22
6.351697685294031
 32
0.0
 13
75.80272906349464
 23
6.351697685294031
 33
0.0
  0
SOLID
  5
DE
330
D4
100
AcDbEntity
  8
치수문자_일반주서
 62
     0
100
AcDbTrace
 10
76.35306239682802
 20
-9.651999999999815
 30
0.0
 11
75.25239573016137
 21
-9.651999999999818
 31
0.0
 12
75.80272906349468
 22
-6.349999999999817
 32
0.0
 13
75.80272906349468
 23
-6.349999999999817
 33
0.0
  0
MTEXT
  5
DF
330
D4
100
AcDbEntity
  8
치수문자_일반주서
 62
     0
100
AcDbMText
 10
71.42772906349457
 20
26.39827749523123
 30
0.0
 40
3.5
 41
0.0
 71
     2
 72
     1
  1
\A1;%%c12.70 [1/2]
  7
SLDTEXTSTYLE0
 11
-3.356446138295862E-15
 21
1.0
 31
0.0
 73
     1
 44
1.0
  0
POINT
  5
E0
330
D4
100
AcDbEntity
  8
Defpoints
 62
     0
100
AcDbPoint
 10
38.59530000000001
 20
6.351697685293892
 30
0.0
  0
POINT
  5
19F
330
D4
100
AcDbEntity
  8
Defpoints
 62
     0
100
AcDbPoint
 10
38.59530000000002
 20
-6.349999999999953
 30
0.0
  0
POINT
  5
1A0
330
D4
100
AcDbEntity
  8
Defpoints
 62
     0
100
AcDbPoint
 10
75.80272906349468
 20
-6.349999999999814
 30
0.0
  0
ENDBLK
  5
D6
330
D4
100
AcDbEntity
  8
0
100
AcDbBlockEnd
  0
BLOCK
  5
E9
330
E8
100
AcDbEntity
  8
0
100
AcDbBlockBegin
  2
_D_1
 70
     0
 10
0.0
 20
0.0
 30
0.0
  3
_D_1
  1

  0
LINE
  5
EB
330
E8
100
AcDbEntity
  8
치수문자_일반주서
 62
     0
370
    -2
100
AcDbLine
 10
38.59530000000001
 20
6.414197685293892
 30
0.0
 11
38.59530000000001
 21
25.54539486932735
 31
0.0
  0
LINE
  5
EC
330
E8
100
AcDbEntity
  8
치수문자_일반주서
 62
     0
370
    -2
100
AcDbLine
 10
25.8953
 20
6.412499999999998
 30
0.0
 11
25.8953
 21
25.54539486932735
 31
0.0
  0
LINE
  5
ED
330
E8
100
AcDbEntity
  8
치수문자_일반주서
 62
     0
370
    -2
100
AcDbLine
 10
38.59530000000001
 20
25.54539486932735
 30
0.0
 11
65.95980000000002
 21
25.54539486932735
 31
0.0
  0
LINE
  5
EE
330
E8
100
AcDbEntity
  8
치수문자_일반주서
 62
     0
370
    -2
100
AcDbLine
 10
35.29330000000001
 20
25.54539486932735
 30
0.0
 11
29.19729999999999
 21
25.54539486932735
 31
0.0
  0
SOLID
  5
EF
330
E8
100
AcDbEntity
  8
치수문자_일반주서
 62
     0
100
AcDbTrace
 10
35.29330000000001
 20
24.99506153599401
 30
0.0
 11
35.29330000000001
 21
26.09572820266068
 31
0.0
 12
38.59530000000001
 22
25.54539486932735
 32
0.0
 13
38.59530000000001
 23
25.54539486932735
 33
0.0
  0
SOLID
  5
F0
330
E8
100
AcDbEntity
  8
치수문자_일반주서
 62
     0
100
AcDbTrace
 10
29.19729999999999
 20
26.09572820266068
 30
0.0
 11
29.19729999999999
 21
24.99506153599401
 31
0.0
 12
25.8953
 22
25.54539486932735
 32
0.0
 13
25.8953
 23
25.54539486932735
 33
0.0
  0
MTEXT
  5
F1
330
E8
100
AcDbEntity
  8
치수문자_일반주서
 62
     0
100
AcDbMText
 10
53.92855000000002
 20
29.92039486932735
 30
0.0
 40
3.5
 41
0.0
 71
     2
 72
     1
  1
\A1;12.70 [1/2]
  7
SLDTEXTSTYLE0
 73
     1
 44
1.0
  0
POINT
  5
F2
330
E8
100
AcDbEntity
  8
Defpoints
 62
     0
100
AcDbPoint
 10
38.59530000000001
 20
6.351697685293892
 30
0.0
  0
POINT
  5
F3
330
E8
100
AcDbEntity
  8
Defpoints
 62
     0
100
AcDbPoint
 10
25.8953
 20
6.349999999999998
 30
0.0
  0
POINT
  5
168
330
E8
100
AcDbEntity
  8
Defpoints
 62
     0
100
AcDbPoint
 10
25.8953
 20
25.54539486932735
 30
0.0
  0
ENDBLK
  5
EA
330
E8
100
AcDbEntity
  8
0
100
AcDbBlockEnd
  0
BLOCK
  5
FE
330
FD
100
AcDbEntity
  8
0
100
AcDbBlockBegin
  2
_D_2
 70
     0
 10
0.0
 20
0.0
 30
0.0
  3
_D_2
  1

  0
LINE
  5
100
330
FD
100
AcDbEntity
  8
치수문자_일반주서
 62
     0
370
    -2
100
AcDbLine
 10
38.59530000000001
 20
6.351697685293892
 30
0.0
 11
38.59530000000001
 21
38.79791647569173
 31
0.0
  0
LINE
  5
101
330
FD
100
AcDbEntity
  8
치수문자_일반주서
 62
     0
370
    -2
100
AcDbLine
 10
0.4952999999999967
 20
5.9172
 30
0.0
 11
0.4952999999999967
 21
38.79791647569173
 31
0.0
  0
LINE
  5
102
330
FD
100
AcDbEntity
  8
치수문자_일반주서
 62
     0
370
    -2
100
AcDbLine
 10
35.29330000000001
 20
38.79791647569173
 30
0.0
 11
3.797299999999996
 21
38.79791647569173
 31
0.0
  0
SOLID
  5
103
330
FD
100
AcDbEntity
  8
치수문자_일반주서
 62
     0
100
AcDbTrace
 10
35.29330000000001
 20
38.24758314235839
 30
0.0
 11
35.29330000000001
 21
39.34824980902506
 31
0.0
 12
38.59530000000001
 22
38.79791647569173
 32
0.0
 13
38.59530000000001
 23
38.79791647569173
 33
0.0
  0
SOLID
  5
104
330
FD
100
AcDbEntity
  8
치수문자_일반주서
 62
     0
100
AcDbTrace
 10
3.797299999999996
 20
39.34824980902506
 30
0.0
 11
3.797299999999996
 21
38.24758314235839
 31
0.0
 12
0.4952999999999967
 22
38.79791647569173
 32
0.0
 13
0.4952999999999967
 23
38.79791647569173
 33
0.0
  0
MTEXT
  5
105
330
FD
100
AcDbEntity
  8
치수문자_일반주서
 62
     0
100
AcDbMText
 10
19.5453
 20
43.17291647569173
 30
0.0
 40
3.5
 41
0.0
 71
     2
 72
     1
  1
\A1;38.10 [1 1/2]
  7
SLDTEXTSTYLE0
 73
     1
 44
1.0
  0
POINT
  5
106
330
FD
100
AcDbEntity
  8
Defpoints
 62
     0
100
AcDbPoint
 10
38.59530000000001
 20
6.289197685293892
 30
0.0
  0
POINT
  5
107
330
FD
100
AcDbEntity
  8
Defpoints
 62
     0
100
AcDbPoint
 10
0.4952999999999967
 20
5.8547
 30
0.0
  0
POINT
  5
108
330
FD
100
AcDbEntity
  8
Defpoints
 62
     0
100
AcDbPoint
 10
0.4952999999999967
 20
38.79791647569173
 30
0.0
  0
ENDBLK
  5
FF
330
FD
100
AcDbEntity
  8
0
100
AcDbBlockEnd
  0
BLOCK
  5
112
330
111
100
AcDbEntity
  8
0
100
AcDbBlockBegin
  2
_D_3
 70
     0
 10
0.0
 20
0.0
 30
0.0
  3
_D_3
  1

  0
LINE
  5
114
330
111
100
AcDbEntity
  8
치수문자_일반주서
 62
     0
370
    -2
100
AcDbLine
 10
38.59530000000001
 20
3.237499999999998
 30
0.0
 11
38.59530000000001
 21
53.12183979564885
 31
0.0
  0
LINE
  5
115
330
111
100
AcDbEntity
  8
치수문자_일반주서
 62
     0
370
    -2
100
AcDbLine
 10
-43.9547
 20
5.142500000000013
 30
0.0
 11
-43.9547
 21
53.12183979564885
 31
0.0
  0
LINE
  5
116
330
111
100
AcDbEntity
  8
치수문자_일반주서
 62
     0
370
    -2
100
AcDbLine
 10
35.29330000000001
 20
53.12183979564885
 30
0.0
 11
-40.6527
 21
53.12183979564885
 31
0.0
  0
SOLID
  5
117
330
111
100
AcDbEntity
  8
치수문자_일반주서
 62
     0
100
AcDbTrace
 10
35.29330000000001
 20
52.57150646231552
 30
0.0
 11
35.29330000000001
 21
53.67217312898219
 31
0.0
 12
38.59530000000001
 22
53.12183979564885
 32
0.0
 13
38.59530000000001
 23
53.12183979564885
 33
0.0
  0
SOLID
  5
118
330
111
100
AcDbEntity
  8
치수문자_일반주서
 62
     0
100
AcDbTrace
 10
-40.6527
 20
53.67217312898219
 30
0.0
 11
-40.6527
 21
52.57150646231552
 31
0.0
 12
-43.9547
 22
53.12183979564885
 32
0.0
 13
-43.9547
 23
53.12183979564885
 33
0.0
  0
MTEXT
  5
119
330
111
100
AcDbEntity
  8
치수문자_일반주서
 62
     0
100
AcDbMText
 10
-2.679699999999993
 20
57.49683979564885
 30
0.0
 40
3.5
 41
0.0
 71
     2
 72
     1
  1
\A1;82.55 [3 1/4]
  7
SLDTEXTSTYLE0
 73
     1
 44
1.0
  0
POINT
  5
11A
330
111
100
AcDbEntity
  8
Defpoints
 62
     0
100
AcDbPoint
 10
38.59530000000001
 20
3.174999999999998
 30
0.0
  0
POINT
  5
11B
330
111
100
AcDbEntity
  8
Defpoints
 62
     0
100
AcDbPoint
 10
-43.9547
 20
5.080000000000013
 30
0.0
  0
POINT
  5
11C
330
111
100
AcDbEntity
  8
Defpoints
 62
     0
100
AcDbPoint
 10
-43.9547
 20
53.12183979564885
 30
0.0
  0
ENDBLK
  5
113
330
111
100
AcDbEntity
  8
0
100
AcDbBlockEnd
  0
BLOCK
  5
125
330
124
100
AcDbEntity
  8
0
100
AcDbBlockBegin
  2
_D_4
 70
     0
 10
0.0
 20
0.0
 30
0.0
  3
_D_4
  1

  0
LINE
  5
127
330
124
100
AcDbEntity
  8
치수문자_일반주서
 62
     0
370
    -2
100
AcDbLine
 10
-42.74720000000001
 20
6.349999999999994
 30
0.0
 11
-56.31969999999997
 21
6.349999999999941
 31
0.0
  0
LINE
  5
128
330
124
100
AcDbEntity
  8
치수문자_일반주서
 62
     0
370
    -2
100
AcDbLine
 10
-42.74720000000001
 20
-6.349999999999994
 30
0.0
 11
-56.31969999999993
 21
-6.350000000000048
 31
0.0
  0
LINE
  5
129
330
124
100
AcDbEntity
  8
치수문자_일반주서
 62
     0
370
    -2
100
AcDbLine
 10
-56.31969999999997
 20
6.349999999999941
 30
0.0
 11
-56.31970000000007
 21
36.33949999999994
 31
0.0
  0
LINE
  5
12A
330
124
100
AcDbEntity
  8
치수문자_일반주서
 62
     0
370
    -2
100
AcDbLine
 10
-56.31969999999997
 20
6.349999999999941
 30
0.0
 11
-56.31969999999993
 21
-6.350000000000048
 31
0.0
  0
LINE
  5
12B
330
124
100
AcDbEntity
  8
치수문자_일반주서
 62
     0
370
    -2
100
AcDbLine
 10
-56.31969999999998
 20
9.65199999999994
 30
0.0
 11
-56.3197
 21
12.95399999999994
 31
0.0
  0
LINE
  5
12C
330
124
100
AcDbEntity
  8
치수문자_일반주서
 62
     0
370
    -2
100
AcDbLine
 10
-56.31969999999991
 20
-9.652000000000047
 30
0.0
 11
-56.3196999999999
 21
-12.95400000000005
 31
0.0
  0
SOLID
  5
12D
330
124
100
AcDbEntity
  8
치수문자_일반주서
 62
     0
100
AcDbTrace
 10
-56.87003333333332
 20
9.651999999999939
 30
0.0
 11
-55.76936666666665
 21
9.651999999999942
 31
0.0
 12
-56.31969999999997
 22
6.349999999999941
 32
0.0
 13
-56.31969999999997
 23
6.349999999999941
 33
0.0
  0
SOLID
  5
12E
330
124
100
AcDbEntity
  8
치수문자_일반주서
 62
     0
100
AcDbTrace
 10
-55.76936666666658
 20
-9.652000000000045
 30
0.0
 11
-56.87003333333325
 21
-9.652000000000049
 31
0.0
 12
-56.31969999999993
 22
-6.350000000000048
 32
0.0
 13
-56.31969999999993
 23
-6.350000000000048
 33
0.0
  0
MTEXT
  5
12F
330
124
100
AcDbEntity
  8
치수문자_일반주서
 62
     0
100
AcDbMText
 10
-60.69470000000003
 20
22.99574999999993
 30
0.0
 40
3.5
 41
0.0
 71
     2
 72
     1
  1
\A1;%%c12.70 [1/2]
  7
SLDTEXTSTYLE0
 11
-3.356894814614650E-15
 21
1.0
 31
0.0
 73
     1
 44
1.0
  0
POINT
  5
130
330
124
100
AcDbEntity
  8
Defpoints
 62
     0
100
AcDbPoint
 10
-42.68470000000001
 20
6.349999999999994
 30
0.0
  0
POINT
  5
1A1
330
124
100
AcDbEntity
  8
Defpoints
 62
     0
100
AcDbPoint
 10
-42.68470000000001
 20
-6.349999999999994
 30
0.0
  0
POINT
  5
1A2
330
124
100
AcDbEntity
  8
Defpoints
 62
     0
100
AcDbPoint
 10
-56.31969999999993
 20
-6.350000000000045
 30
0.0
  0
ENDBLK
  5
126
330
124
100
AcDbEntity
  8
0
100
AcDbBlockEnd
  0
BLOCK
  5
13E
330
13D
100
AcDbEntity
  8
0
100
AcDbBlockBegin
  2
SW_DOWELSYMBOL_0
 70
     0
 10
0.0
 20
0.0
 30
0.0
  3
SW_DOWELSYMBOL_0
  1

  0
CIRCLE
  5
140
330
13D
100
AcDbEntity
  8
해칭선
 62
     0
100
AcDbCircle
 10
0.0
 20
0.0
 30
0.0
 40
3.000000000000001
  0
HATCH
  5
141
330
13D
100
AcDbEntity
  8
0
  6
Continuous
 62
     0
370
     0
100
AcDbHatch
 10
0.0
 20
0.0
 30
0.0
210
0.0
220
0.0
230
1.0
  2
SOLID
 70
     1
 71
     0
 91
        1
 92
        0
 93
        3
 72
     2
 10
0.0
 20
0.0
 40
3.000000000000001
 50
0.0
 51
90.0
 73
     1
 72
     1
 10
0.0
 20
3.000000000000001
 11
0.0
 21
0.0
 72
     1
 10
0.0
 20
0.0
 11
3.000000000000001
 21
0.0
 97
        0
 75
     0
 76
     1
 98
        1
 10
0.0
 20
0.0
  0
HATCH
  5
142
330
13D
100
AcDbEntity
  8
0
  6
Continuous
 62
     0
370
     0
100
AcDbHatch
 10
0.0
 20
0.0
 30
0.0
210
0.0
220
0.0
230
1.0
  2
SOLID
 70
     1
 71
     0
 91
        1
 92
        0
 93
        3
 72
     2
 10
0.0
 20
0.0
 40
3.000000000000001
 50
180.0
 51
270.0000000000008
 73
     1
 72
     1
 10
0.0
 20
-3.000000000000001
 11
0.0
 21
0.0
 72
     1
 10
0.0
 20
0.0
 11
-3.000000000000001
 21
0.0
 97
        0
 75
     0
 76
     1
 98
        1
 10
0.0
 20
0.0
  0
ENDBLK
  5
13F
330
13D
100
AcDbEntity
  8
0
100
AcDbBlockEnd
  0
ENDSEC
  0
SECTION
  2
ENTITIES
  0
LINE
  5
96
330
1F
100
AcDbEntity
  8
외형선
  6
Continuous
 62
     1
370
    15
100
AcDbLine
 10
26.13382858298334
 20
6.349999999999998
 30
0.0
 11
25.8953
 21
6.349999999999998
 31
0.0
1001
PE_URL
1000

  0
ARC
  5
97
330
1F
100
AcDbEntity
  8
외형선
  6
Continuous
 62
     1
370
    15
100
AcDbCircle
 10
35.4203
 20
-3.174999999999998
 30
0.0
 40
3.175000000000013
100
AcDbArc
 50
355.8988743982841
 51
0.0000000000008174
  0
LINE
  5
99
330
1F
100
AcDbEntity
  8
외형선
  6
Continuous
370
    15
100
AcDbLine
 10
25.8953
 20
-6.349999999999996
 30
0.0
 11
26.13382858298334
 21
-6.349999999999996
 31
0.0
  0
LINE
  5
9A
330
1F
100
AcDbEntity
  8
외형선
  6
Continuous
370
    15
100
AcDbLine
 10
-42.68469999999999
 20
-6.35
 30
0.0
 11
0.0
 21
-6.35
 31
0.0
  0
LINE
  5
9B
330
1F
100
AcDbEntity
  8
외형선
  6
Continuous
370
    15
100
AcDbLine
 10
0.0
 20
6.35
 30
0.0
 11
-42.68469999999999
 21
6.35
 31
0.0
  0
LINE
  5
9C
330
1F
100
AcDbEntity
  8
외형선
  6
Continuous
370
    15
100
AcDbLine
 10
0.0
 20
-6.35
 30
0.0
 11
0.4952999999999967
 21
-5.8547
 31
0.0
  0
LINE
  5
9D
330
1F
100
AcDbEntity
  8
외형선
  6
Continuous
370
    15
100
AcDbLine
 10
0.4952999999999967
 20
5.8547
 30
0.0
 11
0.0
 21
6.35
 31
0.0
  0
LINE
  5
9E
330
1F
100
AcDbEntity
  8
외형선
  6
Continuous
370
    15
100
AcDbLine
 10
-42.68469999999999
 20
6.35
 30
0.0
 11
-43.9547
 21
5.080000000000013
 31
0.0
  0
LINE
  5
9F
330
1F
100
AcDbEntity
  8
외형선
  6
Continuous
370
    15
100
AcDbLine
 10
-43.9547
 20
-5.080000000000013
 30
0.0
 11
-42.68469999999999
 21
-6.35
 31
0.0
  0
LINE
  5
A0
330
1F
100
AcDbEntity
  8
외형선
  6
Continuous
370
    15
100
AcDbLine
 10
0.4952999999999967
 20
-5.8547
 30
0.0
 11
25.8953
 21
-5.8547
 31
0.0
  0
LINE
  5
A1
330
1F
100
AcDbEntity
  8
외형선
  6
Continuous
370
    15
100
AcDbLine
 10
25.8953
 20
5.8547
 30
0.0
 11
0.4952999999999967
 21
5.8547
 31
0.0
  0
SPLINE
  5
A2
330
1F
100
AcDbEntity
  8
외형선
  6
Continuous
 62
     1
370
    15
100
AcDbSpline
210
0.0
220
0.0
230
1.0
 70
     8
 71
     3
 72
    22
 73
    18
 74
     0
 42
0.000000001
 43
0.00000001
 40
0.0
 40
0.0
 40
0.0
 40
0.0
 40
0.125
 40
0.125
 40
0.25
 40
0.25
 40
0.375
 40
0.375
 40
0.5000000000000001
 40
0.5000000000000001
 40
0.6250000000000001
 40
0.6250000000000001
 40
0.75
 40
0.75
 40
0.875
 40
0.875
 40
1.0
 40
1.0
 40
1.0
 40
1.0
 10
35.4203
 20
2.322908263030828
 30
0.0
 10
35.61790322857344
 20
2.216889111572025
 30
0.0
 10
35.81489622893773
 20
2.108808230221622
 30
0.0
 10
36.20955692731165
 20
1.891928721478738
 30
0.0
 10
36.4096555301233
 20
1.781698332249684
 30
0.0
 10
36.7960089072202
 20
1.570721674650339
 30
0.0
 10
36.98261055706743
 20
1.469616330706906
 30
0.0
 10
37.34072398677883
 20
1.272922268204874
 30
0.0
 10
37.5113330499198
 20
1.17772385438915
 30
0.0
 10
37.81773456232811
 20
0.994751658232625
 30
0.0
 10
37.95678864025031
 20
0.9050426077015691
 30
0.0
 10
38.19632053607137
 20
0.7229423580351235
 30
0.0
 10
38.29532169202487
 20
0.6318058028721262
 30
0.0
 10
38.45201422206551
 20
0.4365496604053333
 30
0.0
 10
38.50937211753657
 20
0.33158007270281
 30
0.0
 10
38.58064340217113
 20
0.1038478047714351
 30
0.0
 10
38.59529999999998
 20
-0.0197512106213323
 30
0.0
 10
38.59529999999998
 20
-0.1591519631513204
 30
0.0
  0
LINE
  5
A3
330
1F
100
AcDbEntity
  8
외형선
  6
Continuous
 62
     1
370
    15
100
AcDbLine
 10
38.59530000000001
 20
-2.666598036848634
 30
0.0
 11
38.59530000000001
 21
-0.1591519631513195
 31
0.0
  0
SPLINE
  5
A4
330
1F
100
AcDbEntity
  8
외형선
  6
Continuous
 62
     1
370
    15
100
AcDbSpline
210
0.0
220
0.0
230
1.0
 70
     8
 71
     3
 72
    22
 73
    18
 74
     0
 42
0.000000001
 43
0.00000001
 40
0.0
 40
0.0
 40
0.0
 40
0.0
 40
0.1250000000000011
 40
0.1250000000000011
 40
0.1875000000000015
 40
0.1875000000000015
 40
0.2500000000000019
 40
0.2500000000000019
 40
0.3750000000000026
 40
0.3750000000000026
 40
0.5000000000000033
 40
0.5000000000000033
 40
0.625000000000004
 40
0.625000000000004
 40
0.7500000000000048
 40
0.7500000000000048
 40
1.0
 40
1.0
 40
1.0
 40
1.0
 10
38.59530000000001
 20
-2.666598036848634
 30
0.0
 10
38.59530000000004
 20
-2.895918824081506
 30
0.0
 10
38.58057804368694
 20
-3.123723542958858
 30
0.0
 10
38.5210020445401
 20
-3.461624469605788
 30
0.0
 10
38.4946737140482
 20
-3.57374259553032
 30
0.0
 10
38.43013077287578
 20
-3.786710077994321
 30
0.0
 10
38.39176611546831
 20
-3.888806935688307
 30
0.0
 10
38.25726698812989
 20
-4.181540399877314
 30
0.0
 10
38.14543730827981
 20
-4.35029001948983
 30
0.0
 10
37.88585038581063
 20
-4.632146727406487
 30
0.0
 10
37.74253714970898
 20
-4.741179019920851
 30
0.0
 10
37.43273133762276
 20
-4.906598910214353
 30
0.0
 10
37.27099430453745
 20
-4.960619725512548
 30
0.0
 10
36.93134727394767
 20
-5.023853980456749
 30
0.0
 10
36.75263692829284
 20
-5.032383300684217
 30
0.0
 10
36.20725690210902
 20
-4.999170520824567
 30
0.0
 10
35.82092127162649
 20
-4.899934392298517
 30
0.0
 10
35.42030000000003
 20
-4.746518075532229
 30
0.0
  0
SPLINE
  5
A5
330
1F
100
AcDbEntity
  8
외형선
  6
Continuous
 62
     1
370
    15
100
AcDbSpline
210
0.0
220
0.0
230
1.0
 70
     8
 71
     3
 72
    20
 73
    16
 74
     0
 42
0.000000001
 43
0.00000001
 40
0.0
 40
0.0
 40
0.0
 40
0.0
 40
0.125
 40
0.125
 40
0.25
 40
0.25
 40
0.375
 40
0.375
 40
0.5
 40
0.5
 40
0.625
 40
0.625
 40
0.75
 40
0.75
 40
1.0
 40
1.0
 40
1.0
 40
1.0
 10
35.4202999999878
 20
-4.746518075527546
 30
0.0
 10
35.02256176773477
 20
-4.594205807180599
 30
0.0
 10
34.62400414722244
 20
-4.432480223649184
 30
0.0
 10
33.8322319627014
 20
-4.093119768429323
 30
0.0
 10
33.43689735771711
 20
-3.915212407545294
 30
0.0
 10
32.64123640368638
 20
-3.544038941498837
 30
0.0
 10
32.24281549349698
 20
-3.351045576543966
 30
0.0
 10
31.45176670641661
 20
-2.953705963083124
 30
0.0
 10
31.0557116787978
 20
-2.748802707451019
 30
0.0
 10
30.2599256019124
 20
-2.32841060895426
 30
0.0
 10
29.8616712311949
 20
-2.113172473187029
 30
0.0
 10
29.07140406490047
 20
-1.676442857371769
 30
0.0
 10
28.6744869802178
 20
-1.45405463413603
 30
0.0
 10
27.48070927730856
 20
-0.7790893113291539
 30
0.0
 10
26.69115811283838
 20
-0.3206868249823137
 30
0.0
 10
25.89529999999997
 20
0.1378563949442953
 30
0.0
  0
SPLINE
  5
A6
330
1F
100
AcDbEntity
  8
외형선
  6
Continuous
370
    15
100
AcDbSpline
210
0.0
220
0.0
230
1.0
 70
    24
 71
     3
 72
    19
 73
    15
 74
     0
 42
0.000000001
 43
0.00000001
 40
0.0
 40
0.0
 40
0.0
 40
0.0
 40
0.0201521563131305
 40
0.1082645164276961
 40
0.1989321409547396
 40
0.287044501069305
 40
0.3777121255963483
 40
0.4658244857109138
 40
0.5564921102379573
 40
0.6446044703525254
 40
0.7352720948795676
 40
0.8233844549941205
 40
0.9140520795211499
 40
1.0
 40
1.0
 40
1.0
 40
1.0
 10
25.8953
 20
0.1378563949442756
 30
0.0
 10
25.8953
 20
0.1501418137916623
 30
0.0
 10
25.89530000000001
 20
0.2161434321771545
 30
0.0
 10
25.89529999999997
 20
0.4390351764223271
 30
0.0
 10
25.89530000000005
 20
0.7990575190680497
 30
0.0
 10
25.89530000000004
 20
1.255340184796503
 30
0.0
 10
25.89530000000004
 20
1.775567665803869
 30
0.0
 10
25.89529999999994
 20
2.357374315377112
 30
0.0
 10
25.8953
 20
2.973046937800342
 30
0.0
 10
25.89530000000007
 20
3.616345100737307
 30
0.0
 10
25.8953
 20
4.257836133508265
 30
0.0
 10
25.89530000000002
 20
4.889384173125253
 30
0.0
 10
25.8953
 20
5.482627341955689
 30
0.0
 10
25.8953
 20
5.835163918670004
 30
0.0
 10
25.89530000000001
 20
6.006721782731853
 30
0.0
  0
SPLINE
  5
A7
330
1F
100
AcDbEntity
  8
외형선
  6
Continuous
 62
     1
370
    15
100
AcDbSpline
210
0.0
220
0.0
230
1.0
 70
     8
 71
     3
 72
    20
 73
    16
 74
     0
 42
0.000000001
 43
0.00000001
 40
0.0
 40
0.0
 40
0.0
 40
0.0
 40
0.125
 40
0.125
 40
0.2500000000000001
 40
0.2500000000000001
 40
0.3750000000000001
 40
0.3750000000000001
 40
0.5000000000000001
 40
0.5000000000000001
 40
0.625
 40
0.625
 40
0.75
 40
0.75
 40
1.0
 40
1.0
 40
1.0
 40
1.0
 10
35.4202999999878
 20
2.322908263037359
 30
0.0
 10
35.0225617677348
 20
2.536304927609072
 30
0.0
 10
34.62400414722244
 20
2.745289976153022
 30
0.0
 10
33.83223196270143
 20
3.150820822122515
 30
0.0
 10
33.43689735771714
 20
3.347749693835967
 30
0.0
 10
32.64123640368638
 20
3.728575143727598
 30
0.0
 10
32.24281549349699
 20
3.912139269789089
 30
0.0
 10
31.45176670641665
 20
4.262439498807651
 30
0.0
 10
31.05571167879775
 20
4.429702639818577
 30
0.0
 10
30.25992560191242
 20
4.746764199925574
 30
0.0
 10
29.86167123119494
 20
4.89633947428755
 30
0.0
 10
29.07140406490051
 20
5.175089033517033
 30
0.0
 10
28.67448698021781
 20
5.304854156437665
 30
0.0
 10
27.48070927730859
 20
5.662576467740189
 30
0.0
 10
26.69115811283841
 20
5.857962636890381
 30
0.0
 10
25.89529999999998
 20
6.00672178273185
 30
0.0
  0
SPLINE
  5
A8
330
1F
100
AcDbEntity
  8
외형선
  6
Continuous
 62
     1
370
    15
100
AcDbSpline
210
0.0
220
0.0
230
1.0
 70
     8
 71
     3
 72
    20
 73
    16
 74
     0
 42
0.000000001
 43
0.00000001
 40
0.0
 40
0.0
 40
0.0
 40
0.0
 40
0.125
 40
0.125
 40
0.25
 40
0.25
 40
0.375
 40
0.375
 40
0.5
 40
0.5
 40
0.625
 40
0.625
 40
0.75
 40
0.75
 40
1.0
 40
1.0
 40
1.0
 40
1.0
 10
35.42030000000001
 20
-6.346008617557665
 30
0.0
 10
35.02256176773476
 20
-6.321537215415407
 30
0.0
 10
34.48673072872919
 20
-6.105194807036966
 30
0.0
 10
33.83389619255023
 20
-5.821451104985825
 30
0.0
 10
33.49857216073035
 20
-5.6432745296884
 30
0.0
 10
32.78946376075463
 20
-5.205828226448274
 30
0.0
 10
32.24281549349699
 20
-5.006999565959525
 30
0.0
 10
31.45176670641665
 20
-4.712376029005875
 30
0.0
 10
31.05571167879777
 20
-4.555526490624959
 30
0.0
 10
30.2599256019124
 20
-4.224135025576993
 30
0.0
 10
29.86167123119492
 20
-4.049778217908254
 30
0.0
 10
29.07140406490051
 20
-3.686908916271509
 30
0.0
 10
28.67448698021781
 20
-3.497658124852211
 30
0.0
 10
27.48070927730859
 20
-2.909997880526467
 30
0.0
 10
26.69115811283841
 20
-2.493418291128132
 30
0.0
 10
25.89529999999998
 20
-2.059561464209053
 30
0.0
  0
LINE
  5
A9
330
1F
100
AcDbEntity
  8
외형선
  6
Continuous
370
    15
100
AcDbLine
 10
25.89530000000004
 20
0.1378563949444258
 30
0.0
 11
25.8953
 21
-2.059561464209042
 31
0.0
  0
SPLINE
  5
AA
330
1F
100
AcDbEntity
  8
외형선
  6
Continuous
 62
     1
370
    15
100
AcDbSpline
210
0.0
220
0.0
230
1.0
 70
     8
 71
     3
 72
    22
 73
    18
 74
     0
 42
0.000000001
 43
0.00000001
 40
0.0
 40
0.0
 40
0.0
 40
0.0
 40
0.1249999999999999
 40
0.1249999999999999
 40
0.1874999999999998
 40
0.1874999999999998
 40
0.2499999999999998
 40
0.2499999999999998
 40
0.3749999999999998
 40
0.3749999999999998
 40
0.4999999999999998
 40
0.4999999999999998
 40
0.6249999999999998
 40
0.6249999999999998
 40
0.7499999999999998
 40
0.7499999999999998
 40
1.0
 40
1.0
 40
1.0
 40
1.0
 10
38.59530000000001
 20
1.723333951930064
 30
0.0
 10
38.59530000000002
 20
1.692457526819034
 30
0.0
 10
38.58057804368698
 20
1.685905223299144
 30
0.0
 10
38.52100204454013
 20
1.722476553823022
 30
0.0
 10
38.49467371404828
 20
1.742747959443514
 30
0.0
 10
38.43013077287584
 20
1.798325968360749
 30
0.0
 10
38.39176611546827
 20
1.833697238009337
 30
0.0
 10
38.25726698812983
 20
1.962598606862194
 30
0.0
 10
38.14543730827981
 20
2.07545200618917
 30
0.0
 10
37.8858503858106
 20
2.337170279709065
 30
0.0
 10
37.74253714970897
 20
2.48144341029667
 30
0.0
 10
37.43273133762274
 20
2.782479745303166
 30
0.0
 10
37.27099430453745
 20
2.934638453561102
 30
0.0
 10
36.93134727394767
 20
3.235495870153261
 30
0.0
 10
36.75263692829286
 20
3.384640928296448
 30
0.0
 10
36.20725690210899
 20
3.801132906909342
 30
0.0
 10
35.82092127162652
 20
4.0455508059816
 30
0.0
 10
35.42030000000003
 20
4.218182802895742
 30
0.0
  0
LINE
  5
AB
330
1F
100
AcDbEntity
  8
외형선
  6
Continuous
 62
     1
370
    15
100
AcDbLine
 10
38.59530000000001
 20
1.723333951930063
 30
0.0
 11
38.59530000000001
 21
-0.1591519631513195
 31
0.0
  0
SPLINE
  5
AD
330
1F
100
AcDbEntity
  8
외형선
  6
Continuous
 62
     1
370
    15
100
AcDbSpline
210
0.0
220
0.0
230
1.0
 70
     8
 71
     3
 72
    12
 73
     8
 74
     0
 42
0.000000001
 43
0.00000001
 40
0.0
 40
0.0
 40
0.0
 40
0.0
 40
0.1379561421994585
 40
0.3947741967963072
 40
0.5963014108953341
 40
0.7983140501515985
 40
0.9999999999999999
 40
0.9999999999999999
 40
0.9999999999999999
 40
0.9999999999999999
 10
32.81842269796277
 20
-5.196034170494562
 30
0.0
 10
32.49998675303245
 20
-5.303734283037723
 30
0.0
 10
31.58875299144184
 20
-5.611928066556452
 30
0.0
 10
30.2123304471654
 20
-5.936154108845701
 30
0.0
 10
28.68934394624479
 20
-6.195810567447412
 30
0.0
 10
27.29197425991521
 20
-6.336148167002713
 30
0.0
 10
26.36060685310684
 20
-6.344387221676504
 30
0.0
 10
25.89529999999997
 20
-6.348503415323409
 30
0.0
  0
SPLINE
  5
AE
330
1F
100
AcDbEntity
  8
외형선
  6
Continuous
370
    15
100
AcDbSpline
210
0.0
220
0.0
230
1.0
 70
    24
 71
     3
 72
    15
 73
    11
 74
     0
 42
0.000000001
 43
0.00000001
 40
0.0
 40
0.0
 40
0.0
 40
0.0
 40
0.1372017451531538
 40
0.2785881865136102
 40
0.412544627570752
 40
0.5503858144934055
 40
0.6843422555505373
 40
0.8221834424731798
 40
0.956139883530311
 40
1.0
 40
1.0
 40
1.0
 40
1.0
 10
25.89530000000004
 20
-6.34850341532387
 30
0.0
 10
25.89529999999998
 20
-6.140216862959299
 30
0.0
 10
25.89529999999991
 20
-5.717290953134722
 30
0.0
 10
25.89530000000004
 20
-5.063823203700171
 30
0.0
 10
25.89530000000005
 20
-4.414177512585676
 30
0.0
 10
25.89529999999997
 20
-3.795827995649117
 30
0.0
 10
25.8953
 20
-3.20830988444622
 30
0.0
 10
25.89530000000002
 20
-2.686551865633422
 30
0.0
 10
25.89530000000005
 20
-2.316429456770632
 30
0.0
 10
25.89530000000002
 20
-2.156662864458589
 30
0.0
 10
25.89530000000002
 20
-2.117254940673343
 30
0.0
  0
SPLINE
  5
AF
330
1F
100
AcDbEntity
  8
외형선
  6
Continuous
 62
     1
370
    15
100
AcDbSpline
210
0.0
220
0.0
230
1.0
 70
     8
 71
     3
 72
    13
 73
     9
 74
     0
 42
0.000000001
 43
0.00000001
 40
0.0
 40
0.0
 40
0.0
 40
0.0
 40
0.1914033591747642
 40
0.3830131928309543
 40
0.5744779294043413
 40
0.7247218638520568
 40
0.8753276957528251
 40
0.9999999999999999
 40
0.9999999999999999
 40
0.9999999999999999
 40
0.9999999999999999
 10
35.42029999998783
 20
4.21818280290101
 30
0.0
 10
34.82785289860146
 20
4.463335707338288
 30
0.0
 10
33.64231959937526
 20
4.953905972484832
 30
0.0
 10
31.86353908998715
 20
5.530035376078539
 30
0.0
 10
30.21233463753621
 20
5.939850929320081
 30
0.0
 10
28.68934726703849
 20
6.194397089911945
 30
0.0
 10
27.37151789926324
 20
6.330322382208655
 30
0.0
 10
26.51964033218477
 20
6.338878205094006
 30
0.0
 10
26.13382858298335
 20
6.342753101112899
 30
0.0
  0
LINE
  5
B0
330
1F
100
AcDbEntity
  8
외형선
  6
Continuous
370
    15
100
AcDbLine
 10
25.8953
 20
6.349999999999998
 30
0.0
 11
25.8953
 21
6.006721782731853
 31
0.0
  0
LINE
  5
B2
330
1F
100
AcDbEntity
  8
외형선
  6
Continuous
 62
     1
370
    15
100
AcDbLine
 10
38.59530000000001
 20
1.723333951930063
 30
0.0
 11
38.59530000000001
 21
3.171008617557676
 31
0.0
  0
SPLINE
  5
B3
330
1F
100
AcDbEntity
  8
외형선
  6
Continuous
 62
     1
370
    15
100
AcDbSpline
210
0.0
220
0.0
230
1.0
 70
     8
 71
     3
 72
     9
 73
     5
 74
     0
 42
0.000000001
 43
0.00000001
 40
0.0
 40
0.0
 40
0.0
 40
0.0
 40
0.4627939598554045
 40
1.0
 40
1.0
 40
1.0
 40
1.0
 10
32.81842269796276
 20
5.196034170494566
 30
0.0
 10
33.21978113896915
 20
5.525918565668822
 30
0.0
 10
33.99022645610768
 20
6.005706954075906
 30
0.0
 10
34.95436399254402
 20
6.268499264697528
 30
0.0
 10
35.42030000000001
 20
6.346008617557676
 30
0.0
  0
LINE
  5
B4
330
1F
100
AcDbEntity
  8
외형선
  6
Continuous
 62
     1
370
    15
100
AcDbLine
 10
38.59530000000001
 20
-2.666598036848634
 30
0.0
 11
38.59530000000001
 21
-3.174999999999999
 31
0.0
  0
LINE
  5
B5
330
1F
100
AcDbEntity
  8
외형선
  6
Continuous
 62
     1
370
    15
100
AcDbLine
 10
38.59530000000001
 20
3.174999999999998
 30
0.0
 11
38.59530000000001
 21
3.171008617557676
 31
0.0
  0
LINE
  5
B6
330
1F
100
AcDbEntity
  8
외형선
  6
Continuous
370
    15
100
AcDbLine
 10
25.89530000000004
 20
-6.34850341532387
 30
0.0
 11
25.8953
 21
-6.349999999999996
 31
0.0
  0
LINE
  5
B7
330
1F
100
AcDbEntity
  8
외형선
  6
Continuous
370
    15
100
AcDbLine
 10
0.0
 20
0.0
 30
0.0
 11
0.0
 21
6.35
 31
0.0
  0
LINE
  5
B8
330
1F
100
AcDbEntity
  8
외형선
  6
Continuous
370
    15
100
AcDbLine
 10
0.0
 20
-6.35
 30
0.0
 11
0.0
 21
0.0
 31
0.0
  0
LINE
  5
B9
330
1F
100
AcDbEntity
  8
외형선
  6
Continuous
370
    15
100
AcDbLine
 10
-42.68469999999999
 20
0.0
 30
0.0
 11
-42.68469999999999
 21
6.35
 31
0.0
  0
LINE
  5
BA
330
1F
100
AcDbEntity
  8
외형선
  6
Continuous
370
    15
100
AcDbLine
 10
-42.68469999999999
 20
-6.35
 30
0.0
 11
-42.68469999999999
 21
0.0
 31
0.0
  0
LINE
  5
BB
330
1F
100
AcDbEntity
  8
외형선
  6
Continuous
370
    15
100
AcDbLine
 10
0.4952999999999967
 20
0.0
 30
0.0
 11
0.4952999999999967
 21
5.8547
 31
0.0
  0
LINE
  5
BC
330
1F
100
AcDbEntity
  8
외형선
  6
Continuous
370
    15
100
AcDbLine
 10
0.4952999999999967
 20
-5.8547
 30
0.0
 11
0.4952999999999967
 21
0.0
 31
0.0
  0
LINE
  5
BD
330
1F
100
AcDbEntity
  8
외형선
  6
Continuous
370
    15
100
AcDbLine
 10
-43.9547
 20
0.0
 30
0.0
 11
-43.9547
 21
5.080000000000013
 31
0.0
  0
LINE
  5
BE
330
1F
100
AcDbEntity
  8
외형선
  6
Continuous
370
    15
100
AcDbLine
 10
-43.9547
 20
-5.080000000000013
 30
0.0
 11
-43.9547
 21
0.0
 31
0.0
  0
SPLINE
  5
BF
330
1F
100
AcDbEntity
  8
외형선
  6
Continuous
370
    15
100
AcDbSpline
210
0.0
220
0.0
230
1.0
 70
     8
 71
     3
 72
     8
 73
     4
 74
     0
 42
0.000000001
 43
0.00000001
 40
0.0
 40
0.0
 40
0.0
 40
0.0
 40
1.0
 40
1.0
 40
1.0
 40
1.0
 10
25.8953
 20
5.576030029220577
 30
0.0
 10
25.72841825410294
 20
5.603061157623068
 30
0.0
 10
25.56155240960141
 20
5.628171845949028
 30
0.0
 10
25.39496037352034
 20
5.651326610646915
 30
0.0
  0
SPLINE
  5
C0
330
1F
100
AcDbEntity
  8
외형선
  6
Continuous
370
    15
100
AcDbSpline
210
0.0
220
0.0
230
1.0
 70
    24
 71
     3
 72
    17
 73
    13
 74
     0
 42
0.000000001
 43
0.00000001
 40
0.0
 40
0.0
 40
0.0
 40
0.0
 40
0.0962853121989746
 40
0.1915323168164579
 40
0.2895414910203386
 40
0.3847884956378213
 40
0.4827976698417017
 40
0.5780446744591863
 40
0.6760538486630675
 40
0.7713008532805518
 40
0.8693100274844334
 40
1.0
 40
1.0
 40
1.0
 40
1.0
 10
25.89530000000002
 20
0.1378563949442634
 30
0.0
 10
25.89530000000001
 20
0.2156131789740976
 30
0.0
 10
25.89529999999997
 20
0.3702882447063941
 30
0.0
 10
25.89530000000005
 20
0.7276404072079843
 30
0.0
 10
25.89529999999997
 20
1.161546735508224
 30
0.0
 10
25.89530000000004
 20
1.675207772225503
 30
0.0
 10
25.89529999999997
 20
2.242243370374617
 30
0.0
 10
25.89530000000005
 20
2.857414530430175
 30
0.0
 10
25.89529999999992
 20
3.492416480622766
 30
0.0
 10
25.89530000000004
 20
4.13937940753756
 30
0.0
 10
25.89530000000004
 20
4.851354651998342
 30
0.0
 10
25.89529999999998
 20
5.312505620542163
 30
0.0
 10
25.89529999999997
 20
5.576030029220659
 30
0.0
  0
SPLINE
  5
C1
330
1F
100
AcDbEntity
  8
외형선
  6
Continuous
370
    15
100
AcDbSpline
210
0.0
220
0.0
230
1.0
 70
     8
 71
     3
 72
     8
 73
     4
 74
     0
 42
0.000000001
 43
0.00000001
 40
0.0
 40
0.0
 40
0.0
 40
0.0
 40
1.0
 40
1.0
 40
1.0
 40
1.0
 10
25.89530000000002
 20
0.0068587691357227
 30
0.0
 10
25.72841825410297
 20
0.0955307588965173
 30
0.0
 10
25.56155240960142
 20
0.1841975377386464
 30
0.0
 10
25.39496037352034
 20
0.2727220571085702
 30
0.0
  0
SPLINE
  5
C2
330
1F
100
AcDbEntity
  8
외형선
  6
Continuous
370
    15
100
AcDbSpline
210
0.0
220
0.0
230
1.0
 70
     8
 71
     3
 72
     8
 73
     4
 74
     0
 42
0.000000001
 43
0.00000001
 40
0.0
 40
0.0
 40
0.0
 40
0.0
 40
1.0
 40
1.0
 40
1.0
 40
1.0
 10
25.8953
 20
-1.784769229685046
 30
0.0
 10
25.72841825410294
 20
-1.70031776044798
 30
0.0
 10
25.56155240960141
 20
-1.615254591158696
 30
0.0
 10
25.39496037352034
 20
-1.52971227026333
 30
0.0
  0
LINE
  5
C3
330
1F
100
AcDbEntity
  8
외형선
  6
Continuous
370
    15
100
AcDbLine
 10
25.39496037352033
 20
-5.848346040078371
 30
0.0
 11
25.39496037352034
 21
-1.529687767683406
 31
0.0
  0
SPLINE
  5
C4
330
1F
100
AcDbEntity
  8
외형선
  6
Continuous
370
    15
100
AcDbSpline
210
0.0
220
0.0
230
1.0
 70
     8
 71
     3
 72
     8
 73
     4
 74
     0
 42
0.000000001
 43
0.00000001
 40
0.0
 40
0.0
 40
0.0
 40
0.0
 40
1.0
 40
1.0
 40
1.0
 40
1.0
 10
25.89530000000002
 20
-5.854695982481579
 30
0.0
 10
25.72841825410297
 20
-5.854592103354739
 30
0.0
 10
25.56155240960142
 20
-5.852472724317768
 30
0.0
 10
25.39496037352034
 20
-5.848344617886887
 30
0.0
  0
LINE
  5
C5
330
1F
100
AcDbEntity
  8
외형선
  6
Continuous
370
    15
100
AcDbLine
 10
25.39496037352033
 20
0.2726915574411365
 30
0.0
 11
25.39496037352034
 21
5.65133324299673
 31
0.0
  0
SPLINE
  5
C6
330
1F
100
AcDbEntity
  8
외형선
  6
Continuous
370
    15
100
AcDbSpline
210
0.0
220
0.0
230
1.0
 70
    24
 71
     3
 72
    14
 73
    10
 74
     0
 42
0.000000001
 43
0.00000001
 40
0.0
 40
0.0
 40
0.0
 40
0.0
 40
0.1573638688485674
 40
0.3147277376971349
 40
0.4670323098473791
 40
0.6193368819976236
 40
0.7716414541478106
 40
0.9239460262979975
 40
1.0
 40
1.0
 40
1.0
 40
1.0
 10
25.89530000000001
 20
-5.85469598248158
 30
0.0
 10
25.89530000000001
 20
-5.635283478479359
 30
0.0
 10
25.89530000000001
 20
-5.196458470474916
 30
0.0
 10
25.89529999999997
 20
-4.537155527169923
 30
0.0
 10
25.8953
 20
-3.904750374073047
 30
0.0
 10
25.89529999999998
 20
-3.311613490840637
 30
0.0
 10
25.89530000000001
 20
-2.775672608402584
 30
0.0
 10
25.89529999999997
 20
-2.369643504887364
 30
0.0
 10
25.8953
 20
-2.18031132630929
 30
0.0
 10
25.8953
 20
-2.117254940673343
 30
0.0
  0
LINE
  5
C7
330
1F
100
AcDbEntity
  8
중심선
 62
     1
100
AcDbLine
 10
-46.95469999999999
 20
0.0
 30
0.0
 11
41.59530000000002
 21
0.0000000000000065
 31
0.0
  0
LINE
  5
C8
330
1F
100
AcDbEntity
  8
참조1
100
AcDbLine
 10
-2.679699999999979
 20
-0.0000000000000039
 30
0.0
 11
-2.679699999999975
 21
-40.00000000000001
 31
0.0
  0
LINE
  5
C9
330
1F
100
AcDbEntity
  8
참조1
100
AcDbLine
 10
-2.679699999999975
 20
-40.00000000000001
 30
0.0
 11
-14.66355681430867
 21
-40.0
 31
0.0
  0
CIRCLE
  5
CA
330
1F
100
AcDbEntity
  8
해칭선
100
AcDbCircle
 10
0.0000000000000142
 20
-0.0010749287238931
 30
0.0
 40
3.000000000000001
  0
INSERT
  5
CB
330
1F
100
AcDbEntity
  8
0
  6
Continuous
 62
     7
100
AcDbBlockReference
 66
     1
  2
블럭10
 10
-16.61997293212519
 20
-52.04717430164393
 30
0.0
  0
ATTRIB
  5
CC
330
CB
100
AcDbEntity
  8
FORMAT
 62
     2
100
AcDbText
 10
-26.76160894426181
 20
-49.97180738881174
 30
0.0
 40
4.233333333333333
  1
EM965032 [ 4 FLUTE ]
 41
0.75
  7
SLDTEXTSTYLE0
 11
-26.76160894426181
 21
-52.08847405547841
 31
0.0
100
AcDbAttribute
  2
AUTOATTR0
 70
     0
 74
     1
  0
SEQEND
  5
CD
330
CB
100
AcDbEntity
  8
0
  6
Continuous
 62
     7
  0
HATCH
  5
CE
330
1F
100
AcDbEntity
  8
중심선
100
AcDbHatch
 10
0.0
 20
0.0
 30
0.0
210
0.0
220
0.0
230
1.0
  2
SOLID
 70
     1
 71
     0
 91
        1
 92
        0
 93
        4
 72
     1
 10
-10.90506362774435
 20
-35.8
 11
-14.35133887158163
 21
-35.8
 72
     1
 10
-14.35133887158163
 20
-35.8
 11
-16.47956873078565
 21
-38.33632558057259
 72
     1
 10
-16.47956873078565
 20
-38.33632558057259
 11
-13.03326040183519
 21
-38.3362861512701
 72
     1
 10
-13.03326040183519
 20
-38.3362861512701
 11
-10.90506362774435
 21
-35.8
 97
        0
 75
     0
 76
     1
 98
        1
 10
-9.283699999999978
 20
0.0
  0
HATCH
  5
CF
330
1F
100
AcDbEntity
  8
중심선
100
AcDbHatch
 10
0.0
 20
0.0
 30
0.0
210
0.0
220
0.0
230
1.0
  2
SOLID
 70
     1
 71
     0
 91
        1
 92
        0
 93
        4
 72
     1
 10
-5.892299636708371
 20
-35.8
 11
-9.338574880545682
 21
-35.8
 72
     1
 10
-9.33857488054568
 20
-35.8
 11
-13.86971288890307
 21
-41.20000000000002
 72
     1
 10
-13.86971288890307
 20
-41.20000000000002
 11
-10.42343764506579
 21
-41.20000000000002
 72
     1
 10
-10.42343764506579
 20
-41.20000000000002
 11
-5.892299636708369
 21
-35.8
 97
        0
 75
     0
 76
     1
 98
        1
 10
-9.283699999999978
 20
0.0
  0
HATCH
  5
D0
330
1F
100
AcDbEntity
  8
중심선
100
AcDbHatch
 10
0.0
 20
0.0
 30
0.0
210
0.0
220
0.0
230
1.0
  2
SOLID
 70
     1
 71
     0
 91
        1
 92
        0
 93
        4
 72
     1
 10
-0.8795356456725294
 20
-35.8
 11
-4.32581088950959
 21
-35.8
 72
     1
 10
-4.32581088950959
 20
-35.8
 11
-11.37424779139887
 21
-44.20000000000002
 72
     1
 10
-11.37424779139887
 20
-44.20000000000002
 11
-7.927972547561584
 21
-44.20000000000002
 72
     1
 10
-7.927972547561585
 20
-44.20000000000002
 11
-0.8795356456725294
 21
-35.8
 97
        0
 75
     0
 76
     1
 98
        1
 10
-9.283699999999978
 20
0.0
  0
HATCH
  5
D1
330
1F
100
AcDbEntity
  8
중심선
100
AcDbHatch
 10
0.0
 20
0.0
 30
0.0
210
0.0
220
0.0
230
1.0
  2
SOLID
 70
     1
 71
     0
 91
        1
 92
        0
 93
        6
 72
     3
 10
3.920354785339697
 20
-40.00000000005127
 11
3.960054785062283
 21
1.540882976769353E-10
 40
0.3939339440162628
 50
17.09539180608437
 51
320.0019657685077
 73
     0
 72
     1
 10
5.603354441040265
 20
-38.5878940046383
 11
7.908656314741329
 21
-36.65356729459035
 72
     3
 10
3.92035478528685
 20
-40.00000000000015
 11
6.600054785286829
 21
-1.278976924368180E-13
 40
0.636358354079598
 50
39.99873849337431
 51
368.4976242363725
 73
     1
 72
     1
 10
10.34568727718746
 20
-39.03999999993002
 11
2.600422092122773
 21
-39.03999999993002
 72
     1
 10
2.600422092122773
 20
-39.03999999993002
 11
2.600397047676839
 21
-40.95999999992991
 72
     1
 10
2.600397047676839
 20
-40.95999999992991
 11
7.041776817148875
 21
-40.95999999992988
 97
        0
 75
     0
 76
     1
 98
        1
 10
-9.283699999999978
 20
0.0
  0
DIMENSION
  5
D2
330
1F
100
AcDbEntity
  8
치수문자_일반주서
100
AcDbDimension
  2
_D
 10
75.80272906349468
 20
-6.349999999999817
 30
0.0
 11
75.80272906349457
 21
26.39827749523124
 31
0.0
 70
   160
  1
%%c<>
 71
     2
 42
12.70169768529384
 52
-270.0
  3
SLDDIMSTYLE0
100
AcDbAlignedDimension
 13
38.59530000000001
 23
6.351697685293892
 33
0.0
 14
38.59530000000002
 24
-6.349999999999953
 34
0.0
 50
90.0000000000002
100
AcDbRotatedDimension
1001
PE_URL
1000

1001
ACAD
1000
DSTYLE
1002
{
1070
   171
1070
     6
1070
   273
1070
     7
1002
}
1001
ACAD_DSTYLE_DIMFLIPARROW_SYMBOL
1070
   385
1070
     0
1001
ACAD_DSTYLE_DIMFLIPARROW_WHICH_SYMBOL
1070
   386
1070
     3
  0
DIMENSION
  5
E6
330
1F
100
AcDbEntity
  8
치수문자_일반주서
100
AcDbDimension
  2
_D_1
 10
25.8953
 20
25.54539486932735
 30
0.0
 11
53.92855000000002
 21
25.54539486932735
 31
0.0
 70
   160
  1
<>
 71
     2
 42
12.70000000000001
  3
SLDDIMSTYLE0
100
AcDbAlignedDimension
 13
38.59530000000001
 23
6.351697685293892
 33
0.0
 14
25.8953
 24
6.349999999999998
 34
0.0
 50
0.0000000000001923
100
AcDbRotatedDimension
1001
PE_URL
1000

1001
ACAD
1000
DSTYLE
1002
{
1070
   171
1070
     6
1070
   273
1070
     7
1002
}
  0
DIMENSION
  5
FC
330
1F
100
AcDbEntity
  8
치수문자_일반주서
100
AcDbDimension
  2
_D_2
 10
0.4952999999999967
 20
38.79791647569173
 30
0.0
 11
19.5453
 21
38.79791647569173
 31
0.0
 70
   160
  1
<>
 71
     2
 42
38.10000000000001
  3
SLDDIMSTYLE0
100
AcDbAlignedDimension
 13
38.59530000000001
 23
6.289197685293892
 33
0.0
 14
0.4952999999999967
 24
5.8547
 34
0.0
100
AcDbRotatedDimension
1001
PE_URL
1000

1001
ACAD
1000
DSTYLE
1002
{
1070
   171
1070
     6
1070
   273
1070
     7
1002
}
  0
DIMENSION
  5
10F
330
1F
100
AcDbEntity
  8
치수문자_일반주서
100
AcDbDimension
  2
_D_3
 10
-43.9547
 20
53.12183979564885
 30
0.0
 11
-2.679699999999993
 21
53.12183979564885
 31
0.0
 70
   160
  1
<>
 71
     2
 42
82.55000000000001
  3
SLDDIMSTYLE0
100
AcDbAlignedDimension
 13
38.59530000000001
 23
3.174999999999998
 33
0.0
 14
-43.9547
 24
5.080000000000013
 34
0.0
100
AcDbRotatedDimension
1001
PE_URL
1000

1001
ACAD
1000
DSTYLE
1002
{
1070
   171
1070
     6
1070
   273
1070
     7
1002
}
  0
DIMENSION
  5
123
330
1F
100
AcDbEntity
  8
치수문자_일반주서
100
AcDbDimension
  2
_D_4
 10
-56.31969999999993
 20
-6.350000000000048
 30
0.0
 11
-56.31970000000003
 21
22.99574999999994
 31
0.0
 70
   160
  1
%%c<>
 71
     2
 42
12.69999999999999
 52
-270.0
  3
SLDDIMSTYLE0
100
AcDbAlignedDimension
 13
-42.68470000000001
 23
6.349999999999994
 33
0.0
 14
-42.68470000000001
 24
-6.349999999999994
 34
0.0
 50
90.0000000000002
100
AcDbRotatedDimension
1001
ACAD
1000
DSTYLE
1002
{
1070
   171
1070
     6
1070
   273
1070
     7
1002
}
1001
ACAD_DSTYLE_DIMFLIPARROW_SYMBOL
1070
   385
1070
     0
1001
ACAD_DSTYLE_DIMFLIPARROW_WHICH_SYMBOL
1070
   386
1070
     3
  0
LINE
  5
136
330
1F
100
AcDbEntity
  8
참조1
100
AcDbLine
 10
83.30878381534559
 20
7.440000000000002
 30
0.0
 11
83.30878381534559
 21
-7.440000000000002
 31
0.0
  0
LINE
  5
137
330
1F
100
AcDbEntity
  8
참조1
100
AcDbLine
 10
96.0087838153456
 20
5.440000000000002
 30
0.0
 11
83.30878381534559
 21
5.440000000000002
 31
0.0
  0
SOLID
  5
138
330
1F
100
AcDbEntity
  8
참조1
100
AcDbTrace
 10
83.30878381534559
 20
5.440000000000002
 30
0.0
 11
89.65878381534559
 21
4.424000000000002
 31
0.0
 12
89.65878381534559
 22
6.456000000000002
 32
0.0
 13
89.65878381534559
 23
6.456000000000002
 33
0.0
  0
LINE
  5
139
330
1F
100
AcDbEntity
  8
참조1
100
AcDbLine
 10
96.0087838153456
 20
-5.440000000000002
 30
0.0
 11
83.30878381534559
 21
-5.440000000000002
 31
0.0
  0
SOLID
  5
13A
330
1F
100
AcDbEntity
  8
참조1
100
AcDbTrace
 10
83.30878381534559
 20
-5.440000000000002
 30
0.0
 11
89.65878381534559
 21
-6.456000000000002
 31
0.0
 12
89.65878381534559
 22
-4.424000000000002
 32
0.0
 13
89.65878381534559
 23
-4.424000000000002
 33
0.0
  0
MTEXT
  5
13B
330
1F
100
AcDbEntity
  8
참조1
100
AcDbMText
 10
92.70627390781587
 20
10.98821664464994
 30
0.0
 40
3.5
 41
0.0
 71
     1
 72
     1
  1
A
  7
SLDTEXTSTYLE0
 73
     1
 44
1.0
  0
MTEXT
  5
13C
330
1F
100
AcDbEntity
  8
참조1
100
AcDbMText
 10
92.70627390781587
 20
0.1082166446499328
 30
0.0
 40
3.5
 41
0.0
 71
     1
 72
     1
  1
A
  7
SLDTEXTSTYLE0
 73
     1
 44
1.0
  0
INSERT
  5
143
330
1F
100
AcDbEntity
  8
해칭선
100
AcDbBlockReference
  2
SW_DOWELSYMBOL_0
 10
0.0000000000000142
 20
-0.0010749287238931
 30
0.0
  0
MTEXT
  5
199
102
{ACAD_REACTORS
330
19A
102
}
330
1F
100
AcDbEntity
  8
0
100
AcDbMText
 10
48.08429668922341
 20
-19.25760413072613
 30
0.0
 40
3.5
 41
0.0
 71
     7
 72
     1
  1
{R3.18[.125"]}
 73
     1
 44
1.0
1001
ACAD
1000
ACAD_MTEXT_DEFINED_HEIGHT_BEGIN
1070
    46
1040
3.5
1000
ACAD_MTEXT_DEFINED_HEIGHT_END
  0
LEADER
  5
19A
102
{ACAD_XDICTIONARY
360
19B
102
}
330
1F
100
AcDbEntity
  8
0
100
AcDbLeader
  3
ISO-25
 73
     0
 74
     0
 75
     1
 40
3.5
 41
30.33333333333333
 76
     3
 10
37.6653640302673
 20
-5.416072647824954
 30
0.0
 10
43.25829668922341
 20
-17.50760413072613
 30
0.0
 10
46.56029668922341
 20
-17.50760413072613
 30
0.0
340
199
213
0.0
223
1.75
233
0.0
1001
ACAD
1000
DSTYLE
1002
{
1070
    77
1070
     0
1070
   179
1070
     2
1070
   143
1040
0.0393700787401575
1070
    41
1040
3.302
1070
    44
1040
1.0
1070
    42
1040
1.0
1070
   147
1040
1.524
1070
    73
1070
     1
1070
    74
1070
     1
1070
   140
1040
3.5
1070
   284
1070
     0
1070
    78
1070
     0
1002
}
  0
ARC
  5
19D
330
1F
100
AcDbEntity
  8
0
 62
     1
100
AcDbCircle
 10
35.42030000000001
 20
3.171008617557677
 30
0.0
 40
3.175
100
AcDbArc
 50
0.0
 51
90.0
  0
ARC
  5
19E
330
1F
100
AcDbEntity
  8
0
 62
     1
100
AcDbCircle
 10
35.42030000000001
 20
-3.171008617557665
 30
0.0
 40
3.175
100
AcDbArc
 50
270.0
 51
0.000000000000008
  0
ENDSEC
  0
SECTION
  2
OBJECTS
  0
DICTIONARY
  5
C
330
0
100
AcDbDictionary
281
     1
  3
ACAD_DETAILVIEWSTYLE
350
16F
  3
ACAD_GROUP
350
D
  3
ACAD_LAYOUT
350
1A
  3
ACAD_MLINESTYLE
350
17
  3
ACAD_PLOTSETTINGS
350
19
  3
ACAD_PLOTSTYLENAME
350
E
  3
ACAD_SCALELIST
350
47
  3
ACAD_SECTIONVIEWSTYLE
350
170
  3
AcDbVariableDictionary
350
16A
  3
APPDATA
350
165
  3
DWGPROPS
350
1A3
  0
DICTIONARY
  5
19B
330
19A
100
AcDbDictionary
280
     1
281
     1
  0
DICTIONARY
  5
16F
102
{ACAD_REACTORS
330
C
102
}
330
C
100
AcDbDictionary
281
     1
  0
DICTIONARY
  5
D
102
{ACAD_REACTORS
330
C
102
}
330
C
100
AcDbDictionary
281
     1
  0
DICTIONARY
  5
1A
102
{ACAD_REACTORS
330
C
102
}
330
C
100
AcDbDictionary
281
     1
  3
Layout1
350
1E
  3
Layout2
350
26
  3
Model
350
22
  0
DICTIONARY
  5
17
102
{ACAD_REACTORS
330
C
102
}
330
C
100
AcDbDictionary
281
     1
  3
Standard
350
18
  0
DICTIONARY
  5
19
102
{ACAD_REACTORS
330
C
102
}
330
C
100
AcDbDictionary
281
     1
  0
ACDBDICTIONARYWDFLT
  5
E
102
{ACAD_REACTORS
330
C
102
}
330
C
100
AcDbDictionary
281
     1
  3
Normal
350
F
100
AcDbDictionaryWithDefault
340
F
  0
DICTIONARY
  5
47
102
{ACAD_REACTORS
330
C
102
}
330
C
100
AcDbDictionary
281
     1
  3
A0
350
48
  3
A1
350
49
  3
A2
350
4A
  3
A3
350
4B
  3
A4
350
4C
  3
A5
350
4D
  3
A6
350
4E
  3
A7
350
4F
  3
A8
350
50
  3
A9
350
51
  3
B0
350
52
  3
B1
350
53
  3
B2
350
54
  3
B3
350
55
  3
B4
350
56
  3
B5
350
57
  3
B6
350
58
  3
B7
350
59
  3
B8
350
5A
  3
B9
350
5B
  3
C0
350
5C
  3
C1
350
5D
  3
C2
350
5E
  3
C3
350
5F
  3
C4
350
60
  3
C5
350
61
  3
C6
350
62
  3
C7
350
63
  3
C8
350
64
  3
C9
350
65
  3
D0
350
66
  3
D1
350
67
  3
D2
350
68
  0
DICTIONARY
  5
170
102
{ACAD_REACTORS
330
C
102
}
330
C
100
AcDbDictionary
281
     1
  0
DICTIONARY
  5
16A
102
{ACAD_REACTORS
330
C
102
}
330
C
100
AcDbDictionary
281
     1
  0
DICTIONARY
  5
165
102
{ACAD_REACTORS
330
C
102
}
330
C
100
AcDbDictionary
281
     1
  0
XRECORD
  5
1A3
102
{ACAD_REACTORS
330
C
102
}
330
C
100
AcDbXrecord
280
     1
  1
DWGPROPS COOKIE
  2

  3

  4

  6

  7

  8
12017103
  9

300
=
301
=
302
=
303
=
304
=
305
=
306
=
307
=
308
=
309
=
 40
0.0
 41
2458290.07407456
 42
2458302.224911273
  1

 90
        0
  0
LAYOUT
  5
1E
102
{ACAD_REACTORS
330
1A
102
}
330
1A
100
AcDbPlotSettings
  1

  2
none_device
  4

  6

 40
0.0
 41
0.0
 42
0.0
 43
0.0
 44
0.0
 45
0.0
 46
0.0
 47
0.0
 48
0.0
 49
0.0
140
0.0
141
0.0
142
1.0
143
1.0
 70
   688
 72
     1
 73
     0
 74
     5
  7

 75
    16
147
1.0
148
0.0
149
0.0
100
AcDbLayout
  1
Layout1
 70
     1
 71
     1
 10
0.0
 20
0.0
 11
420.0
 21
297.0
 12
0.0
 22
0.0
 32
0.0
 14
1.000000000000000E+20
 24
1.000000000000000E+20
 34
1.000000000000000E+20
 15
-1.000000000000000E+20
 25
-1.000000000000000E+20
 35
-1.000000000000000E+20
146
0.0
 13
0.0
 23
0.0
 33
0.0
 16
1.0
 26
0.0
 36
0.0
 17
0.0
 27
1.0
 37
0.0
 76
     0
330
1B
  0
LAYOUT
  5
26
102
{ACAD_REACTORS
330
1A
102
}
330
1A
100
AcDbPlotSettings
  1

  2
none_device
  4

  6

 40
0.0
 41
0.0
 42
0.0
 43
0.0
 44
0.0
 45
0.0
 46
0.0
 47
0.0
 48
0.0
 49
0.0
140
0.0
141
0.0
142
1.0
143
1.0
 70
   688
 72
     1
 73
     0
 74
     5
  7

 75
    16
147
1.0
148
0.0
149
0.0
100
AcDbLayout
  1
Layout2
 70
     1
 71
     2
 10
0.0
 20
0.0
 11
0.0
 21
0.0
 12
0.0
 22
0.0
 32
0.0
 14
0.0
 24
0.0
 34
0.0
 15
0.0
 25
0.0
 35
0.0
146
0.0
 13
0.0
 23
0.0
 33
0.0
 16
1.0
 26
0.0
 36
0.0
 17
0.0
 27
1.0
 37
0.0
 76
     0
330
23
  0
LAYOUT
  5
22
102
{ACAD_REACTORS
330
1A
102
}
330
1A
100
AcDbPlotSettings
  1

  2
none_device
  4
ANSI_A_(11.00_x_8.50_Inches)
  6

 40
6.35
 41
19.05
 42
6.35000508
 43
19.05000254
 44
279.4
 45
215.9
 46
93.10782231785576
 47
77.70922581962857
 48
0.0
 49
0.0
140
0.0
141
0.0
142
0.0667601081227125
143
1.0
 70
  1696
 72
     0
 73
     0
 74
     0
  7

 75
     0
147
0.0235690232323232
148
0.0
149
0.0
100
AcDbLayout
  1
Model
 70
     1
 71
     0
 10
0.0
 20
0.0
 11
420.0
 21
297.0
 12
0.0
 22
0.0
 32
0.0
 14
-60.69470000000007
 24
-49.97180738881174
 34
0.0
 15
96.0087838153456
 25
57.49683979564885
 35
0.0
146
0.0
 13
0.0
 23
0.0
 33
0.0
 16
1.0
 26
0.0
 36
0.0
 17
0.0
 27
1.0
 37
0.0
 76
     0
330
1F
331
29
  0
MLINESTYLE
  5
18
102
{ACAD_REACTORS
330
17
102
}
330
17
100
AcDbMlineStyle
  2
Standard
 70
     0
  3

 62
   256
 51
90.0
 52
90.0
 71
     2
 49
0.5
 62
   256
  6
BYLAYER
 49
-0.5
 62
   256
  6
BYLAYER
  0
ACDBPLACEHOLDER
  5
F
102
{ACAD_REACTORS
330
E
102
}
330
E
  0
SCALE
  5
48
102
{ACAD_REACTORS
330
47
102
}
330
47
100
AcDbScale
 70
     0
300
1:1
140
1.0
141
1.0
290
     1
  0
SCALE
  5
49
102
{ACAD_REACTORS
330
47
102
}
330
47
100
AcDbScale
 70
     0
300
1:2
140
1.0
141
2.0
290
     0
  0
SCALE
  5
4A
102
{ACAD_REACTORS
330
47
102
}
330
47
100
AcDbScale
 70
     0
300
1:4
140
1.0
141
4.0
290
     0
  0
SCALE
  5
4B
102
{ACAD_REACTORS
330
47
102
}
330
47
100
AcDbScale
 70
     0
300
1:5
140
1.0
141
5.0
290
     0
  0
SCALE
  5
4C
102
{ACAD_REACTORS
330
47
102
}
330
47
100
AcDbScale
 70
     0
300
1:8
140
1.0
141
8.0
290
     0
  0
SCALE
  5
4D
102
{ACAD_REACTORS
330
47
102
}
330
47
100
AcDbScale
 70
     0
300
1:10
140
1.0
141
10.0
290
     0
  0
SCALE
  5
4E
102
{ACAD_REACTORS
330
47
102
}
330
47
100
AcDbScale
 70
     0
300
1:16
140
1.0
141
16.0
290
     0
  0
SCALE
  5
4F
102
{ACAD_REACTORS
330
47
102
}
330
47
100
AcDbScale
 70
     0
300
1:20
140
1.0
141
20.0
290
     0
  0
SCALE
  5
50
102
{ACAD_REACTORS
330
47
102
}
330
47
100
AcDbScale
 70
     0
300
1:30
140
1.0
141
30.0
290
     0
  0
SCALE
  5
51
102
{ACAD_REACTORS
330
47
102
}
330
47
100
AcDbScale
 70
     0
300
1:40
140
1.0
141
40.0
290
     0
  0
SCALE
  5
52
102
{ACAD_REACTORS
330
47
102
}
330
47
100
AcDbScale
 70
     0
300
1:50
140
1.0
141
50.0
290
     0
  0
SCALE
  5
53
102
{ACAD_REACTORS
330
47
102
}
330
47
100
AcDbScale
 70
     0
300
1:100
140
1.0
141
100.0
290
     0
  0
SCALE
  5
54
102
{ACAD_REACTORS
330
47
102
}
330
47
100
AcDbScale
 70
     0
300
2:1
140
2.0
141
1.0
290
     0
  0
SCALE
  5
55
102
{ACAD_REACTORS
330
47
102
}
330
47
100
AcDbScale
 70
     0
300
4:1
140
4.0
141
1.0
290
     0
  0
SCALE
  5
56
102
{ACAD_REACTORS
330
47
102
}
330
47
100
AcDbScale
 70
     0
300
8:1
140
8.0
141
1.0
290
     0
  0
SCALE
  5
57
102
{ACAD_REACTORS
330
47
102
}
330
47
100
AcDbScale
 70
     0
300
10:1
140
10.0
141
1.0
290
     0
  0
SCALE
  5
58
102
{ACAD_REACTORS
330
47
102
}
330
47
100
AcDbScale
 70
     0
300
100:1
140
100.0
141
1.0
290
     0
  0
SCALE
  5
59
102
{ACAD_REACTORS
330
47
102
}
330
47
100
AcDbScale
 70
     0
300
1/128" = 1'-0"
140
0.0078125
141
12.0
290
     0
  0
SCALE
  5
5A
102
{ACAD_REACTORS
330
47
102
}
330
47
100
AcDbScale
 70
     0
300
1/64" = 1'-0"
140
0.015625
141
12.0
290
     0
  0
SCALE
  5
5B
102
{ACAD_REACTORS
330
47
102
}
330
47
100
AcDbScale
 70
     0
300
1/32" = 1'-0"
140
0.03125
141
12.0
290
     0
  0
SCALE
  5
5C
102
{ACAD_REACTORS
330
47
102
}
330
47
100
AcDbScale
 70
     0
300
1/16" = 1'-0"
140
0.0625
141
12.0
290
     0
  0
SCALE
  5
5D
102
{ACAD_REACTORS
330
47
102
}
330
47
100
AcDbScale
 70
     0
300
3/32" = 1'-0"
140
0.09375
141
12.0
290
     0
  0
SCALE
  5
5E
102
{ACAD_REACTORS
330
47
102
}
330
47
100
AcDbScale
 70
     0
300
1/8" = 1'-0"
140
0.125
141
12.0
290
     0
  0
SCALE
  5
5F
102
{ACAD_REACTORS
330
47
102
}
330
47
100
AcDbScale
 70
     0
300
3/16" = 1'-0"
140
0.1875
141
12.0
290
     0
  0
SCALE
  5
60
102
{ACAD_REACTORS
330
47
102
}
330
47
100
AcDbScale
 70
     0
300
1/4" = 1'-0"
140
0.25
141
12.0
290
     0
  0
SCALE
  5
61
102
{ACAD_REACTORS
330
47
102
}
330
47
100
AcDbScale
 70
     0
300
3/8" = 1'-0"
140
0.375
141
12.0
290
     0
  0
SCALE
  5
62
102
{ACAD_REACTORS
330
47
102
}
330
47
100
AcDbScale
 70
     0
300
1/2" = 1'-0"
140
0.5
141
12.0
290
     0
  0
SCALE
  5
63
102
{ACAD_REACTORS
330
47
102
}
330
47
100
AcDbScale
 70
     0
300
3/4" = 1'-0"
140
0.75
141
12.0
290
     0
  0
SCALE
  5
64
102
{ACAD_REACTORS
330
47
102
}
330
47
100
AcDbScale
 70
     0
300
1" = 1'-0"
140
1.0
141
12.0
290
     0
  0
SCALE
  5
65
102
{ACAD_REACTORS
330
47
102
}
330
47
100
AcDbScale
 70
     0
300
1-1/2" = 1'-0"
140
1.5
141
12.0
290
     0
  0
SCALE
  5
66
102
{ACAD_REACTORS
330
47
102
}
330
47
100
AcDbScale
 70
     0
300
3" = 1'-0"
140
3.0
141
12.0
290
     0
  0
SCALE
  5
67
102
{ACAD_REACTORS
330
47
102
}
330
47
100
AcDbScale
 70
     0
300
6" = 1'-0"
140
6.0
141
12.0
290
     0
  0
SCALE
  5
68
102
{ACAD_REACTORS
330
47
102
}
330
47
100
AcDbScale
 70
     0
300
1'-0" = 1'-0"
140
12.0
141
12.0
290
     0
  0
ENDSEC
  0
EOF
