  0
SECTION
  2
HEADER
  9
$ACADVER
  1
AC1015
  9
$ACADMAINTVER
 70
     6
  9
$DWGCODEPAGE
  3
ANSI_949
  9
$INSBASE
 10
0.0
 20
0.0
 30
0.0
  9
$EXTMIN
 10
-55.01780000000012
 20
-49.97073246008785
 30
0.0
  9
$EXTMAX
 10
102.1619338153456
 20
56.31209146544764
 30
0.0
  9
$LIMMIN
 10
0.0
 20
0.0
  9
$LIMMAX
 10
420.0
 20
297.0
  9
$ORTHOMODE
 70
     1
  9
$REGENMODE
 70
     1
  9
$FILLMODE
 70
     1
  9
$QTEXTMODE
 70
     0
  9
$MIRRTEXT
 70
     1
  9
$LTSCALE
 40
1.0
  9
$ATTMODE
 70
     1
  9
$TEXTSIZE
 40
3.5
  9
$TRACEWID
 40
1.0
  9
$TEXTSTYLE
  7
Standard
  9
$CLAYER
  8
0
  9
$CELTYPE
  6
ByLayer
  9
$CECOLOR
 62
   256
  9
$CELTSCALE
 40
1.0
  9
$DISPSILH
 70
     0
  9
$DIMSCALE
 40
1.0
  9
$DIMASZ
 40
3.302
  9
$DIMEXO
 40
1.0
  9
$DIMDLI
 40
3.75
  9
$DIMRND
 40
0.0
  9
$DIMDLE
 40
0.0
  9
$DIMEXE
 40
1.0
  9
$DIMTP
 40
0.0
  9
$DIMTM
 40
0.0
  9
$DIMTXT
 40
3.5
  9
$DIMCEN
 40
2.5
  9
$DIMTSZ
 40
0.0
  9
$DIMTOL
 70
     0
  9
$DIMLIM
 70
     0
  9
$DIMTIH
 70
     1
  9
$DIMTOH
 70
     1
  9
$DIMSE1
 70
     0
  9
$DIMSE2
 70
     0
  9
$DIMTAD
 70
     1
  9
$DIMZIN
 70
     0
  9
$DIMBLK
  1

  9
$DIMASO
 70
     1
  9
$DIMSHO
 70
     1
  9
$DIMPOST
  1

  9
$DIMAPOST
  1

  9
$DIMALT
 70
     0
  9
$DIMALTD
 70
     3
  9
$DIMALTF
 40
0.0393700787401575
  9
$DIMLFAC
 40
1.0
  9
$DIMTOFL
 70
     1
  9
$DIMTVP
 40
0.0
  9
$DIMTIX
 70
     0
  9
$DIMSOXD
 70
     0
  9
$DIMSAH
 70
     0
  9
$DIMBLK1
  1

  9
$DIMBLK2
  1

  9
$DIMSTYLE
  2
ISO-25
  9
$DIMCLRD
 70
     0
  9
$DIMCLRE
 70
     0
  9
$DIMCLRT
 70
     0
  9
$DIMTFAC
 40
1.0
  9
$DIMGAP
 40
1.524
  9
$DIMJUST
 70
     0
  9
$DIMSD1
 70
     0
  9
$DIMSD2
 70
     0
  9
$DIMTOLJ
 70
     0
  9
$DIMTZIN
 70
     0
  9
$DIMALTZ
 70
     0
  9
$DIMALTTZ
 70
     0
  9
$DIMUPT
 70
     0
  9
$DIMDEC
 70
     2
  9
$DIMTDEC
 70
     2
  9
$DIMALTU
 70
     2
  9
$DIMALTTD
 70
     3
  9
$DIMTXSTY
  7
Standard
  9
$DIMAUNIT
 70
     0
  9
$DIMADEC
 70
     2
  9
$DIMALTRND
 40
0.0
  9
$DIMAZIN
 70
     0
  9
$DIMDSEP
 70
    44
  9
$DIMATFIT
 70
     3
  9
$DIMFRAC
 70
     0
  9
$DIMLDRBLK
  1

  9
$DIMLUNIT
 70
     2
  9
$DIMLWD
 70
    -2
  9
$DIMLWE
 70
    -2
  9
$DIMTMOVE
 70
     0
  9
$LUNITS
 70
     2
  9
$LUPREC
 70
     2
  9
$SKETCHINC
 40
1.0
  9
$FILLETRAD
 40
10.0
  9
$AUNITS
 70
     0
  9
$AUPREC
 70
     2
  9
$MENU
  1
.
  9
$ELEVATION
 40
0.0
  9
$PELEVATION
 40
0.0
  9
$THICKNESS
 40
0.0
  9
$LIMCHECK
 70
     0
  9
$CHAMFERA
 40
0.0
  9
$CHAMFERB
 40
0.0
  9
$CHAMFERC
 40
0.0
  9
$CHAMFERD
 40
0.0
  9
$SKPOLY
 70
     0
  9
$TDCREATE
 40
2458290.44850743
  9
$TDUCREATE
 40
2458290.07350743
  9
$TDUPDATE
 40
2458302.591552558
  9
$TDUUPDATE
 40
2458302.216552558
  9
$TDINDWG
 40
0.0026582639
  9
$TDUSRTIMER
 40
0.0040289931
  9
$USRTIMER
 70
     1
  9
$ANGBASE
 50
0.0
  9
$ANGDIR
 70
     0
  9
$PDMODE
 70
     0
  9
$PDSIZE
 40
-1.0
  9
$PLINEWID
 40
0.0
  9
$SPLFRAME
 70
     0
  9
$SPLINETYPE
 70
     6
  9
$SPLINESEGS
 70
     8
  9
$HANDSEED
  5
1AC
  9
$SURFTAB1
 70
     6
  9
$SURFTAB2
 70
     6
  9
$SURFTYPE
 70
     6
  9
$SURFU
 70
     6
  9
$SURFV
 70
     6
  9
$UCSBASE
  2

  9
$UCSNAME
  2

  9
$UCSORG
 10
0.0
 20
0.0
 30
0.0
  9
$UCSXDIR
 10
1.0
 20
0.0
 30
0.0
  9
$UCSYDIR
 10
0.0
 20
1.0
 30
0.0
  9
$UCSORTHOREF
  2

  9
$UCSORTHOVIEW
 70
     0
  9
$UCSORGTOP
 10
0.0
 20
0.0
 30
0.0
  9
$UCSORGBOTTOM
 10
0.0
 20
0.0
 30
0.0
  9
$UCSORGLEFT
 10
0.0
 20
0.0
 30
0.0
  9
$UCSORGRIGHT
 10
0.0
 20
0.0
 30
0.0
  9
$UCSORGFRONT
 10
0.0
 20
0.0
 30
0.0
  9
$UCSORGBACK
 10
0.0
 20
0.0
 30
0.0
  9
$PUCSBASE
  2

  9
$PUCSNAME
  2

  9
$PUCSORG
 10
0.0
 20
0.0
 30
0.0
  9
$PUCSXDIR
 10
1.0
 20
0.0
 30
0.0
  9
$PUCSYDIR
 10
0.0
 20
1.0
 30
0.0
  9
$PUCSORTHOREF
  2

  9
$PUCSORTHOVIEW
 70
     0
  9
$PUCSORGTOP
 10
0.0
 20
0.0
 30
0.0
  9
$PUCSORGBOTTOM
 10
0.0
 20
0.0
 30
0.0
  9
$PUCSORGLEFT
 10
0.0
 20
0.0
 30
0.0
  9
$PUCSORGRIGHT
 10
0.0
 20
0.0
 30
0.0
  9
$PUCSORGFRONT
 10
0.0
 20
0.0
 30
0.0
  9
$PUCSORGBACK
 10
0.0
 20
0.0
 30
0.0
  9
$USERI1
 70
     0
  9
$USERI2
 70
     0
  9
$USERI3
 70
     0
  9
$USERI4
 70
     0
  9
$USERI5
 70
     0
  9
$USERR1
 40
0.0
  9
$USERR2
 40
0.0
  9
$USERR3
 40
0.0
  9
$USERR4
 40
0.0
  9
$USERR5
 40
0.0
  9
$WORLDVIEW
 70
     1
  9
$SHADEDGE
 70
     3
  9
$SHADEDIF
 70
    70
  9
$TILEMODE
 70
     1
  9
$MAXACTVP
 70
    64
  9
$PINSBASE
 10
0.0
 20
0.0
 30
0.0
  9
$PLIMCHECK
 70
     0
  9
$PEXTMIN
 10
1.000000000000000E+20
 20
1.000000000000000E+20
 30
1.000000000000000E+20
  9
$PEXTMAX
 10
-1.000000000000000E+20
 20
-1.000000000000000E+20
 30
-1.000000000000000E+20
  9
$PLIMMIN
 10
0.0
 20
0.0
  9
$PLIMMAX
 10
0.0
 20
0.0
  9
$UNITMODE
 70
     0
  9
$VISRETAIN
 70
     1
  9
$PLINEGEN
 70
     0
  9
$PSLTSCALE
 70
     1
  9
$TREEDEPTH
 70
  3020
  9
$CMLSTYLE
  2
Standard
  9
$CMLJUST
 70
     0
  9
$CMLSCALE
 40
20.0
  9
$PROXYGRAPHICS
 70
     1
  9
$MEASUREMENT
 70
     1
  9
$CELWEIGHT
370
    -1
  9
$ENDCAPS
280
     0
  9
$JOINSTYLE
280
     0
  9
$LWDISPLAY
290
     1
  9
$INSUNITS
 70
     4
  9
$HYPERLINKBASE
  1

  9
$STYLESHEET
  1

  9
$XEDIT
290
     1
  9
$CEPSNTYPE
380
     0
  9
$PSTYLEMODE
290
     1
  9
$FINGERPRINTGUID
  2
{67A2AB64-EE35-4D6F-AA99-1D062ECCDF1A}
  9
$VERSIONGUID
  2
{FAEB1C32-E019-11D5-929B-00C0DF256EC4}
  9
$EXTNAMES
290
     1
  9
$PSVPSCALE
 40
0.0
  9
$OLESTARTUP
290
     0
  0
ENDSEC
  0
SECTION
  2
CLASSES
  0
CLASS
  1
ACDBDICTIONARYWDFLT
  2
AcDbDictionaryWithDefault
  3
ObjectDBX Classes
 90
        0
280
     0
281
     0
  0
CLASS
  1
VISUALSTYLE
  2
AcDbVisualStyle
  3
ObjectDBX Classes
 90
     4095
280
     0
281
     0
  0
CLASS
  1
MATERIAL
  2
AcDbMaterial
  3
ObjectDBX Classes
 90
     1153
280
     0
281
     0
  0
CLASS
  1
SCALE
  2
AcDbScale
  3
ObjectDBX Classes
 90
     1153
280
     0
281
     0
  0
CLASS
  1
SUN
  2
AcDbSun
  3
SCENEOE
 90
     1153
280
     0
281
     0
  0
CLASS
  1
ACDBPLACEHOLDER
  2
AcDbPlaceHolder
  3
ObjectDBX Classes
 90
        0
280
     0
281
     0
  0
CLASS
  1
LAYOUT
  2
AcDbLayout
  3
ObjectDBX Classes
 90
        0
280
     0
281
     0
  0
CLASS
  1
TABLESTYLE
  2
AcDbTableStyle
  3
ObjectDBX Classes
 90
     4095
280
     0
281
     0
  0
CLASS
  1
MLEADERSTYLE
  2
AcDbMLeaderStyle
  3
ACDB_MLEADERSTYLE_CLASS
 90
     4095
280
     0
281
     0
  0
CLASS
  1
DICTIONARYVAR
  2
AcDbDictionaryVar
  3
ObjectDBX Classes
 90
        0
280
     0
281
     0
  0
ENDSEC
  0
SECTION
  2
TABLES
  0
TABLE
  2
VPORT
  5
8
330
0
100
AcDbSymbolTable
 70
     1
  0
VPORT
  5
29
330
8
100
AcDbSymbolTableRecord
100
AcDbViewportTableRecord
  2
*Active
 70
     0
 10
0.0
 20
0.0
 11
1.0
 21
1.0
 12
23.57206690767272
 22
3.170679502679903
 13
0.0
 23
0.0
 14
10.0
 24
10.0
 15
10.0
 25
10.0
 16
0.0
 26
0.0
 36
1.0
 17
0.0
 27
0.0
 37
0.0
 40
108.4084804040462
 41
2.148876404494382
 42
50.0
 43
0.0
 44
0.0
 50
0.0
 51
0.0
 71
    16
 72
  2000
 73
     1
 74
     3
 75
     0
 76
     0
 77
     0
 78
     0
281
     0
 65
     1
110
0.0
120
0.0
130
0.0
111
1.0
121
0.0
131
0.0
112
0.0
122
1.0
132
0.0
 79
     0
146
0.0
  0
ENDTAB
  0
TABLE
  2
LTYPE
  5
5
330
0
100
AcDbSymbolTable
 70
     6
  0
LTYPE
  5
14
330
5
100
AcDbSymbolTableRecord
100
AcDbLinetypeTableRecord
  2
ByBlock
 70
     0
  3

 72
    65
 73
     0
 40
0.0
  0
LTYPE
  5
15
330
5
100
AcDbSymbolTableRecord
100
AcDbLinetypeTableRecord
  2
ByLayer
 70
     0
  3

 72
    65
 73
     0
 40
0.0
  0
LTYPE
  5
16
330
5
100
AcDbSymbolTableRecord
100
AcDbLinetypeTableRecord
  2
Continuous
 70
     0
  3
Solid line
 72
    65
 73
     0
 40
0.0
  0
LTYPE
  5
6A
330
5
100
AcDbSymbolTableRecord
100
AcDbLinetypeTableRecord
  2
HIDDEN
 70
     0
  3
Hidden __ __ __ __ __ __ __ __ __ __ __ __ __ __
 72
    65
 73
     2
 40
1.905
 49
1.27
 74
     0
 49
-0.635
 74
     0
  0
LTYPE
  5
6B
330
5
100
AcDbSymbolTableRecord
100
AcDbLinetypeTableRecord
  2
PHANTOM
 70
     0
  3
Phantom ______  __  __  ______  __  __  ______
 72
    65
 73
     6
 40
12.7
 49
6.35
 74
     0
 49
-1.27
 74
     0
 49
1.27
 74
     0
 49
-1.27
 74
     0
 49
1.27
 74
     0
 49
-1.27
 74
     0
  0
LTYPE
  5
6C
330
5
100
AcDbSymbolTableRecord
100
AcDbLinetypeTableRecord
  2
CENTER
 70
     0
  3
Center ____ _ ____ _ ____ _ ____ _ ____ _ ____
 72
    65
 73
     4
 40
10.16
 49
6.35
 74
     0
 49
-1.27
 74
     0
 49
1.27
 74
     0
 49
-1.27
 74
     0
  0
LTYPE
  5
6D
330
5
100
AcDbSymbolTableRecord
100
AcDbLinetypeTableRecord
  2
CENTERX2
 70
     0
  3
Center (2x) ________  __  ________  __  _____
 72
    65
 73
     4
 40
20.32
 49
12.7
 74
     0
 49
-2.54
 74
     0
 49
2.54
 74
     0
 49
-2.54
 74
     0
  0
LTYPE
  5
6E
330
5
100
AcDbSymbolTableRecord
100
AcDbLinetypeTableRecord
  2
DOT2
 70
     0
  3
Dot (.5x) ........................................
 72
    65
 73
     2
 40
0.635
 49
0.0
 74
     0
 49
-0.635
 74
     0
  0
ENDTAB
  0
TABLE
  2
LAYER
  5
2
330
0
100
AcDbSymbolTable
 70
    18
  0
LAYER
  5
10
330
2
100
AcDbSymbolTableRecord
100
AcDbLayerTableRecord
  2
0
 70
     0
 62
     7
  6
Continuous
370
    -3
390
F
  0
LAYER
  5
6F
330
2
100
AcDbSymbolTableRecord
100
AcDbLayerTableRecord
  2
FORMAT
 70
     0
 62
     2
  6
Continuous
370
    -3
390
F
  0
LAYER
  5
70
330
2
100
AcDbSymbolTableRecord
100
AcDbLayerTableRecord
  2
외형선
 70
     0
 62
     4
  6
Continuous
370
    30
390
F
  0
LAYER
  5
71
330
2
100
AcDbSymbolTableRecord
100
AcDbLayerTableRecord
  2
숨은선
 70
     0
 62
     2
  6
HIDDEN
370
    15
390
F
  0
LAYER
  5
72
330
2
100
AcDbSymbolTableRecord
100
AcDbLayerTableRecord
  2
중심선
 70
     0
 62
     1
  6
CENTERX2
370
    -3
390
F
  0
LAYER
  5
73
330
2
100
AcDbSymbolTableRecord
100
AcDbLayerTableRecord
  2
파단선
 70
     0
 62
     4
  6
Continuous
370
    -3
390
F
  0
LAYER
  5
74
330
2
100
AcDbSymbolTableRecord
100
AcDbLayerTableRecord
  2
해칭선
 70
     0
 62
   100
  6
Continuous
370
    -3
390
F
  0
LAYER
  5
75
330
2
100
AcDbSymbolTableRecord
100
AcDbLayerTableRecord
  2
가는실선
 70
     0
 62
     4
  6
Continuous
370
    -3
390
F
  0
LAYER
  5
76
330
2
100
AcDbSymbolTableRecord
100
AcDbLayerTableRecord
  2
치수_보조선
 70
     0
 62
     4
  6
Continuous
370
    -3
390
F
  0
LAYER
  5
77
330
2
100
AcDbSymbolTableRecord
100
AcDbLayerTableRecord
  2
치수문자_일반주서
 70
     0
 62
     7
  6
Continuous
370
    15
390
F
  0
LAYER
  5
78
330
2
100
AcDbSymbolTableRecord
100
AcDbLayerTableRecord
  2
개별주서
 70
     0
 62
   100
  6
Continuous
370
    30
390
F
  0
LAYER
  5
79
330
2
100
AcDbSymbolTableRecord
100
AcDbLayerTableRecord
  2
중간선
 70
     0
 62
     2
  6
Continuous
370
    15
390
F
  0
LAYER
  5
7A
330
2
100
AcDbSymbolTableRecord
100
AcDbLayerTableRecord
  2
윤곽선
 70
     0
 62
     3
  6
Continuous
370
    40
390
F
  0
LAYER
  5
7B
330
2
100
AcDbSymbolTableRecord
100
AcDbLayerTableRecord
  2
중심마크
 70
     0
 62
   100
  6
Continuous
370
    30
390
F
  0
LAYER
  5
7C
330
2
100
AcDbSymbolTableRecord
100
AcDbLayerTableRecord
  2
가상선
 70
     0
 62
     4
  6
PHANTOM
370
    -3
390
F
  0
LAYER
  5
7D
330
2
100
AcDbSymbolTableRecord
100
AcDbLayerTableRecord
  2
특수지정선
 70
     0
 62
     5
  6
CENTERX2
370
    60
390
F
  0
LAYER
  5
7E
330
2
100
AcDbSymbolTableRecord
100
AcDbLayerTableRecord
  2
참조1
 70
     0
 62
    -4
  6
Continuous
370
    -3
390
F
  0
LAYER
  5
16B
330
2
100
AcDbSymbolTableRecord
100
AcDbLayerTableRecord
  2
Defpoints
 70
     0
 62
     7
  6
Continuous
290
     0
370
    -3
390
F
  0
ENDTAB
  0
TABLE
  2
STYLE
  5
3
330
0
100
AcDbSymbolTable
 70
     2
  0
STYLE
  5
11
330
3
100
AcDbSymbolTableRecord
100
AcDbTextStyleTableRecord
  2
Standard
 70
     0
 40
0.0
 41
1.0
 50
0.0
 71
     0
 42
3.5
  3
txt
  4

  0
STYLE
  5
94
330
3
100
AcDbSymbolTableRecord
100
AcDbTextStyleTableRecord
  2
SLDTEXTSTYLE0
 70
     0
 40
0.0
 41
0.75
 50
0.0
 71
     0
 42
3.5
  3
TXT
  4

  0
ENDTAB
  0
TABLE
  2
VIEW
  5
6
330
0
100
AcDbSymbolTable
 70
     0
  0
ENDTAB
  0
TABLE
  2
UCS
  5
7
330
0
100
AcDbSymbolTable
 70
     0
  0
ENDTAB
  0
TABLE
  2
APPID
  5
9
330
0
100
AcDbSymbolTable
 70
     4
  0
APPID
  5
12
330
9
100
AcDbSymbolTableRecord
100
AcDbRegAppTableRecord
  2
ACAD
 70
     0
  0
APPID
  5
16C
330
9
100
AcDbSymbolTableRecord
100
AcDbRegAppTableRecord
  2
PE_URL
 70
     0
  0
APPID
  5
1AA
330
9
100
AcDbSymbolTableRecord
100
AcDbRegAppTableRecord
  2
ACAD_DSTYLE_DIMFLIPARROW_SYMBOL
 70
     0
  0
APPID
  5
1AB
330
9
100
AcDbSymbolTableRecord
100
AcDbRegAppTableRecord
  2
ACAD_DSTYLE_DIMFLIPARROW_WHICH_SYMBOL
 70
     0
  0
ENDTAB
  0
TABLE
  2
DIMSTYLE
  5
A
330
0
100
AcDbSymbolTable
 70
     5
100
AcDbDimStyleTable
  0
DIMSTYLE
105
27
102
{ACAD_REACTORS
330
197
330
19D
102
}
330
A
100
AcDbSymbolTableRecord
100
AcDbDimStyleTableRecord
  2
ISO-25
 70
     0
 41
2.5
 42
0.625
 43
3.75
 44
1.25
 73
     0
 74
     0
 77
     1
 78
     8
140
2.5
141
2.5
143
0.03937007874016
147
0.625
171
     3
172
     1
178
     0
271
     2
272
     2
274
     3
278
    44
283
     0
284
     8
340
11
  0
DIMSTYLE
105
D5
330
A
100
AcDbSymbolTableRecord
100
AcDbDimStyleTableRecord
  2
SLDDIMSTYLE0
 70
     0
 41
3.302
 44
0.0
 45
0.000000001
 73
     0
 74
     0
 77
     1
 78
    12
 79
     3
140
3.5
143
0.0393700787401575
147
0.875
148
0.000000001
170
     1
173
     1
178
     0
271
     2
272
     2
276
     2
284
    12
340
94
  0
DIMSTYLE
105
E9
330
A
100
AcDbSymbolTableRecord
100
AcDbDimStyleTableRecord
  2
SLDDIMSTYLE1
 70
     0
 41
3.302
 44
0.0
 45
0.000000001
 73
     0
 74
     0
 77
     1
 78
    12
 79
     3
140
3.5
143
0.0393700787401575
147
0.875
148
0.000000001
170
     1
172
     1
173
     1
178
     0
271
     2
272
     2
276
     2
284
    12
289
     0
340
94
  0
DIMSTYLE
105
FF
102
{ACAD_REACTORS
330
FE
330
128
330
D4
330
E8
330
114
102
}
330
A
100
AcDbSymbolTableRecord
100
AcDbDimStyleTableRecord
  2
SLDDIMSTYLE2
 70
     0
 41
3.302
 44
0.0
 45
0.000000001
 73
     0
 74
     0
 77
     1
 78
     4
 79
     1
140
3.5
143
0.0393700787401575
147
0.875
148
0.000000001
170
     1
172
     1
173
     1
178
     0
271
     2
272
     2
276
     2
284
    12
289
     0
340
94
  0
DIMSTYLE
105
115
330
A
100
AcDbSymbolTableRecord
100
AcDbDimStyleTableRecord
  2
SLDDIMSTYLE3
 70
     0
 41
3.302
 44
0.0
 45
0.000000001
 73
     0
 74
     0
 77
     1
 78
     4
 79
     1
140
3.5
143
0.0393700787401575
147
0.875
148
0.000000001
170
     1
173
     1
178
     0
271
     2
272
     2
276
     2
284
    12
340
94
  0
ENDTAB
  0
TABLE
  2
BLOCK_RECORD
  5
1
330
0
100
AcDbSymbolTable
 70
     9
  0
BLOCK_RECORD
  5
1F
330
1
100
AcDbSymbolTableRecord
100
AcDbBlockTableRecord
  2
*Model_Space
340
22
  0
BLOCK_RECORD
  5
1B
330
1
100
AcDbSymbolTableRecord
100
AcDbBlockTableRecord
  2
*Paper_Space
340
1E
  0
BLOCK_RECORD
  5
23
330
1
100
AcDbSymbolTableRecord
100
AcDbBlockTableRecord
  2
*Paper_Space0
340
26
  0
BLOCK_RECORD
  5
7F
330
1
100
AcDbSymbolTableRecord
100
AcDbBlockTableRecord
  2
블럭10
340
0
102
{BLKREFS
331
CD
102
}
  0
BLOCK_RECORD
  5
D6
330
1
100
AcDbSymbolTableRecord
100
AcDbBlockTableRecord
  2
_D
340
0
  0
BLOCK_RECORD
  5
EA
330
1
100
AcDbSymbolTableRecord
100
AcDbBlockTableRecord
  2
_D_1
340
0
  0
BLOCK_RECORD
  5
100
330
1
100
AcDbSymbolTableRecord
100
AcDbBlockTableRecord
  2
_D_2
340
0
  0
BLOCK_RECORD
  5
116
330
1
100
AcDbSymbolTableRecord
100
AcDbBlockTableRecord
  2
_D_3
340
0
  0
BLOCK_RECORD
  5
129
330
1
100
AcDbSymbolTableRecord
100
AcDbBlockTableRecord
  2
_D_4
340
0
  0
BLOCK_RECORD
  5
142
330
1
100
AcDbSymbolTableRecord
100
AcDbBlockTableRecord
  2
SW_DOWELSYMBOL_0
340
0
102
{BLKREFS
331
148
102
}
  0
ENDTAB
  0
ENDSEC
  0
SECTION
  2
BLOCKS
  0
BLOCK
  5
20
330
1F
100
AcDbEntity
  8
0
100
AcDbBlockBegin
  2
*Model_Space
 70
     0
 10
0.0
 20
0.0
 30
0.0
  3
*Model_Space
  1

  0
ENDBLK
  5
21
330
1F
100
AcDbEntity
  8
0
100
AcDbBlockEnd
  0
BLOCK
  5
1C
330
1B
100
AcDbEntity
 67
     1
  8
0
100
AcDbBlockBegin
  2
*Paper_Space
 70
     0
 10
0.0
 20
0.0
 30
0.0
  3
*Paper_Space
  1

  0
ENDBLK
  5
1D
330
1B
100
AcDbEntity
 67
     1
  8
0
100
AcDbBlockEnd
  0
BLOCK
  5
24
330
23
100
AcDbEntity
  8
0
100
AcDbBlockBegin
  2
*Paper_Space0
 70
     0
 10
0.0
 20
0.0
 30
0.0
  3
*Paper_Space0
  1

  0
ENDBLK
  5
25
330
23
100
AcDbEntity
  8
0
100
AcDbBlockEnd
  0
BLOCK
  5
80
330
7F
100
AcDbEntity
  8
0
100
AcDbBlockBegin
  2
블럭10
 70
     2
 10
0.0
 20
0.0
 30
0.0
  3
블럭10
  1

  0
ELLIPSE
  5
82
330
7F
100
AcDbEntity
  8
중심선
100
AcDbEllipse
 10
20.54032771741204
 20
12.0471743016438
 30
0.0
 11
6.600054785286829
 21
-1.261213355974178E-13
 31
0.0
210
0.0
220
0.0
230
1.0
 40
0.636358354079598
 41
0.9219305317359503
 42
6.513795318482858
  0
ELLIPSE
  5
83
330
7F
100
AcDbEntity
  8
중심선
100
AcDbEllipse
 10
20.54032771746488
 20
12.04717430159265
 30
0.0
 11
3.960054785062283
 21
1.540847449632565E-10
 31
0.0
210
0.0
220
0.0
230
1.0
 40
0.3939339440162632
 41
1.131841032648279
 42
5.62031148352944
  0
LINE
  5
84
330
7F
100
AcDbEntity
  8
중심선
100
AcDbLine
 10
2.268634060543552
 20
16.24717430164393
 30
0.0
 11
5.714909304380834
 21
16.24717430164393
 31
0.0
  0
LINE
  5
85
330
7F
100
AcDbEntity
  8
중심선
100
AcDbLine
 10
5.245725140726316
 20
7.84717430164391
 30
0.0
 11
8.692000384563599
 21
7.84717430164391
 31
0.0
  0
LINE
  5
86
330
7F
100
AcDbEntity
  8
중심선
100
AcDbLine
 10
15.74043728645272
 20
16.24717430164393
 30
0.0
 11
8.692000384563599
 21
7.84717430164391
 31
0.0
  0
LINE
  5
87
330
7F
100
AcDbEntity
  8
중심선
100
AcDbLine
 10
0.1404042013395286
 20
13.71084872107135
 30
0.0
 11
3.58671253028996
 21
13.71088815037384
 31
0.0
  0
LINE
  5
88
330
7F
100
AcDbEntity
  8
중심선
100
AcDbLine
 10
2.750260043222114
 20
10.84717430164391
 30
0.0
 11
6.196535287059397
 21
10.84717430164391
 31
0.0
  0
LINE
  5
89
330
7F
100
AcDbEntity
  8
중심선
100
AcDbLine
 10
12.29416204261559
 20
16.24717430164393
 30
0.0
 11
5.245725140726316
 21
7.84717430164391
 31
0.0
  0
LINE
  5
8A
330
7F
100
AcDbEntity
  8
중심선
100
AcDbLine
 10
10.72767329541681
 20
16.24717430164393
 30
0.0
 11
6.196535287059397
 21
10.84717430164391
 31
0.0
  0
LINE
  5
8B
330
7F
100
AcDbEntity
  8
중심선
100
AcDbLine
 10
7.28139805157953
 20
16.24717430164393
 30
0.0
 11
2.750260043222114
 21
10.84717430164391
 31
0.0
  0
LINE
  5
8C
330
7F
100
AcDbEntity
  8
중심선
100
AcDbLine
 10
5.714909304380834
 20
16.24717430164393
 30
0.0
 11
3.58671253028996
 21
13.71088815037384
 31
0.0
  0
LINE
  5
8D
330
7F
100
AcDbEntity
  8
중심선
100
AcDbLine
 10
2.268634060543552
 20
16.24717430164393
 30
0.0
 11
0.1404042013395286
 21
13.71084872107135
 31
0.0
  0
LINE
  5
8E
330
7F
100
AcDbEntity
  8
중심선
100
AcDbLine
 10
7.28139805157953
 20
16.24717430164393
 30
0.0
 11
10.72767329541681
 21
16.24717430164393
 31
0.0
  0
LINE
  5
8F
330
7F
100
AcDbEntity
  8
중심선
100
AcDbLine
 10
12.29416204261559
 20
16.24717430164393
 30
0.0
 11
15.74043728645272
 21
16.24717430164393
 31
0.0
  0
LINE
  5
90
330
7F
100
AcDbEntity
  8
중심선
100
AcDbLine
 10
19.22036997980202
 20
11.08717430171403
 30
0.0
 11
23.66174974927406
 21
11.08717430171406
 31
0.0
  0
LINE
  5
91
330
7F
100
AcDbEntity
  8
중심선
100
AcDbLine
 10
19.22039502424796
 20
13.00717430171391
 30
0.0
 11
19.22036997980202
 21
11.08717430171403
 31
0.0
  0
LINE
  5
92
330
7F
100
AcDbEntity
  8
중심선
100
AcDbLine
 10
19.22039502424796
 20
13.00717430171391
 30
0.0
 11
26.96566020931264
 21
13.00717430171391
 31
0.0
  0
LINE
  5
93
330
7F
100
AcDbEntity
  8
중심선
100
AcDbLine
 10
22.22332737316547
 20
13.45928029700563
 30
0.0
 11
24.52862924686651
 21
15.39360700705356
 31
0.0
  0
ATTDEF
  5
95
330
7F
100
AcDbEntity
  8
FORMAT
 62
     2
100
AcDbText
 10
3.448148490846466
 20
2.075366912832191
 30
0.0
 40
4.233333333333333
  1
EM965020
 41
0.75
  7
SLDTEXTSTYLE0
 11
3.448148490846466
 21
-0.0412997538344756
 31
0.0
100
AcDbAttributeDefinition
  3

  2
AUTOATTR0
 70
     0
 74
     1
  0
ENDBLK
  5
81
330
7F
100
AcDbEntity
  8
0
100
AcDbBlockEnd
  0
BLOCK
  5
D7
330
D6
100
AcDbEntity
  8
0
100
AcDbBlockBegin
  2
_D
 70
     0
 10
0.0
 20
0.0
 30
0.0
  3
_D
  1

  0
LINE
  5
D9
330
D6
100
AcDbEntity
  8
치수문자_일반주서
 62
     0
370
    -2
100
AcDbLine
 10
25.69122898270509
 20
3.969824928723918
 30
0.0
 11
64.44525651900786
 21
3.969824928724062
 31
0.0
  0
LINE
  5
DA
330
D6
100
AcDbEntity
  8
치수문자_일반주서
 62
     0
370
    -2
100
AcDbLine
 10
25.76094999999998
 20
-3.967675071276083
 30
0.0
 11
64.44525651900788
 21
-3.967675071275938
 31
0.0
  0
LINE
  5
DB
330
D6
100
AcDbEntity
  8
치수문자_일반주서
 62
     0
370
    -2
100
AcDbLine
 10
64.44525651900786
 20
3.969824928724062
 30
0.0
 11
64.44525651900773
 21
38.57382492872406
 31
0.0
  0
LINE
  5
DC
330
D6
100
AcDbEntity
  8
치수문자_일반주서
 62
     0
370
    -2
100
AcDbLine
 10
64.44525651900786
 20
3.969824928724062
 30
0.0
 11
64.44525651900788
 21
-3.967675071275938
 31
0.0
  0
LINE
  5
DD
330
D6
100
AcDbEntity
  8
치수문자_일반주서
 62
     0
370
    -2
100
AcDbLine
 10
64.44525651900784
 20
7.271824928724062
 30
0.0
 11
64.44525651900783
 21
10.57382492872406
 31
0.0
  0
LINE
  5
DE
330
D6
100
AcDbEntity
  8
치수문자_일반주서
 62
     0
370
    -2
100
AcDbLine
 10
64.4452565190079
 20
-7.269675071275937
 30
0.0
 11
64.44525651900791
 21
-10.57167507127594
 31
0.0
  0
SOLID
  5
DF
330
D6
100
AcDbEntity
  8
치수문자_일반주서
 62
     0
100
AcDbTrace
 10
63.89492318567451
 20
7.27182492872406
 30
0.0
 11
64.99558985234117
 21
7.271824928724063
 31
0.0
 12
64.44525651900786
 22
3.969824928724062
 32
0.0
 13
64.44525651900786
 23
3.969824928724062
 33
0.0
  0
SOLID
  5
E0
330
D6
100
AcDbEntity
  8
치수문자_일반주서
 62
     0
100
AcDbTrace
 10
64.99558985234123
 20
-7.269675071275936
 30
0.0
 11
63.89492318567456
 21
-7.269675071275939
 31
0.0
 12
64.44525651900788
 22
-3.967675071275938
 32
0.0
 13
64.44525651900788
 23
-3.967675071275938
 33
0.0
  0
MTEXT
  5
E1
330
D6
100
AcDbEntity
  8
치수문자_일반주서
 62
     0
100
AcDbMText
 10
60.07025651900778
 20
24.57382492872405
 30
0.0
 40
3.5
 41
0.0
 71
     2
 72
     1
  1
\A1;%%c7.94 [5/16]
  7
SLDTEXTSTYLE0
 11
-3.580687802255623E-15
 21
1.0
 31
0.0
 73
     1
 44
1.0
  0
POINT
  5
E2
330
D6
100
AcDbEntity
  8
Defpoints
 62
     0
100
AcDbPoint
 10
25.62872898270509
 20
3.969824928723917
 30
0.0
  0
POINT
  5
E3
330
D6
100
AcDbEntity
  8
Defpoints
 62
     0
100
AcDbPoint
 10
25.69844999999998
 20
-3.967675071276084
 30
0.0
  0
POINT
  5
E4
330
D6
100
AcDbEntity
  8
Defpoints
 62
     0
100
AcDbPoint
 10
64.44525651900788
 20
-3.967675071275939
 30
0.0
  0
ENDBLK
  5
D8
330
D6
100
AcDbEntity
  8
0
100
AcDbBlockEnd
  0
BLOCK
  5
EB
330
EA
100
AcDbEntity
  8
0
100
AcDbBlockBegin
  2
_D_1
 70
     0
 10
0.0
 20
0.0
 30
0.0
  3
_D_1
  1

  0
LINE
  5
ED
330
EA
100
AcDbEntity
  8
치수문자_일반주서
 62
     0
370
    -2
100
AcDbLine
 10
25.69844999999998
 20
3.041433137472984
 30
0.0
 11
25.69844999999998
 21
24.36064653912613
 31
0.0
  0
LINE
  5
EE
330
EA
100
AcDbEntity
  8
치수문자_일반주서
 62
     0
370
    -2
100
AcDbLine
 10
16.17344999999997
 20
4.012704526809126
 30
0.0
 11
16.17344999999997
 21
24.36064653912613
 31
0.0
  0
LINE
  5
EF
330
EA
100
AcDbEntity
  8
치수문자_일반주서
 62
     0
370
    -2
100
AcDbLine
 10
25.69844999999998
 20
24.36064653912613
 30
0.0
 11
55.92744999999998
 21
24.36064653912613
 31
0.0
  0
LINE
  5
F0
330
EA
100
AcDbEntity
  8
치수문자_일반주서
 62
     0
370
    -2
100
AcDbLine
 10
22.39644999999998
 20
24.36064653912613
 30
0.0
 11
19.47544999999997
 21
24.36064653912613
 31
0.0
  0
LINE
  5
F1
330
EA
100
AcDbEntity
  8
치수문자_일반주서
 62
     0
370
    -2
100
AcDbLine
 10
22.39644999999998
 20
24.36064653912613
 30
0.0
 11
19.09444999999998
 21
24.36064653912613
 31
0.0
  0
SOLID
  5
F2
330
EA
100
AcDbEntity
  8
치수문자_일반주서
 62
     0
100
AcDbTrace
 10
22.39644999999998
 20
23.8103132057928
 30
0.0
 11
22.39644999999998
 21
24.91097987245947
 31
0.0
 12
25.69844999999998
 22
24.36064653912613
 32
0.0
 13
25.69844999999998
 23
24.36064653912613
 33
0.0
  0
SOLID
  5
F3
330
EA
100
AcDbEntity
  8
치수문자_일반주서
 62
     0
100
AcDbTrace
 10
19.47544999999997
 20
24.91097987245947
 30
0.0
 11
19.47544999999997
 21
23.8103132057928
 31
0.0
 12
16.17344999999997
 22
24.36064653912613
 32
0.0
 13
16.17344999999997
 23
24.36064653912613
 33
0.0
  0
MTEXT
  5
F4
330
EA
100
AcDbEntity
  8
치수문자_일반주서
 62
     0
100
AcDbMText
 10
44.11494999999998
 20
28.73564653912613
 30
0.0
 40
3.5
 41
0.0
 71
     2
 72
     1
  1
\A1;9.53 [3/8]
  7
SLDTEXTSTYLE0
 73
     1
 44
1.0
  0
POINT
  5
F5
330
EA
100
AcDbEntity
  8
Defpoints
 62
     0
100
AcDbPoint
 10
25.69844999999998
 20
2.978933137472984
 30
0.0
  0
POINT
  5
16E
330
EA
100
AcDbEntity
  8
Defpoints
 62
     0
100
AcDbPoint
 10
16.17344999999997
 20
3.950204526809126
 30
0.0
  0
POINT
  5
16F
330
EA
100
AcDbEntity
  8
Defpoints
 62
     0
100
AcDbPoint
 10
16.17344999999997
 20
24.36064653912613
 30
0.0
  0
ENDBLK
  5
EC
330
EA
100
AcDbEntity
  8
0
100
AcDbBlockEnd
  0
BLOCK
  5
101
330
100
100
AcDbEntity
  8
0
100
AcDbBlockBegin
  2
_D_2
 70
     0
 10
0.0
 20
0.0
 30
0.0
  3
_D_2
  1

  0
LINE
  5
103
330
100
100
AcDbEntity
  8
치수문자_일반주서
 62
     0
370
    -2
100
AcDbLine
 10
25.69844999999998
 20
3.041433137472984
 30
0.0
 11
25.69844999999998
 21
37.6131681454905
 31
0.0
  0
LINE
  5
104
330
100
100
AcDbEntity
  8
치수문자_일반주서
 62
     0
370
    -2
100
AcDbLine
 10
0.2984499999999852
 20
3.733874928723893
 30
0.0
 11
0.2984499999999883
 21
37.6131681454905
 31
0.0
  0
LINE
  5
105
330
100
100
AcDbEntity
  8
치수문자_일반주서
 62
     0
370
    -2
100
AcDbLine
 10
25.69844999999998
 20
37.6131681454905
 30
0.0
 11
51.98994999999998
 21
37.6131681454905
 31
0.0
  0
LINE
  5
106
330
100
100
AcDbEntity
  8
치수문자_일반주서
 62
     0
370
    -2
100
AcDbLine
 10
22.39644999999998
 20
37.6131681454905
 30
0.0
 11
3.600449999999988
 21
37.6131681454905
 31
0.0
  0
LINE
  5
107
330
100
100
AcDbEntity
  8
치수문자_일반주서
 62
     0
370
    -2
100
AcDbLine
 10
22.39644999999998
 20
37.6131681454905
 30
0.0
 11
19.09444999999998
 21
37.6131681454905
 31
0.0
  0
SOLID
  5
108
330
100
100
AcDbEntity
  8
치수문자_일반주서
 62
     0
100
AcDbTrace
 10
22.39644999999998
 20
37.06283481215717
 30
0.0
 11
22.39644999999998
 21
38.16350147882384
 31
0.0
 12
25.69844999999998
 22
37.6131681454905
 32
0.0
 13
25.69844999999998
 23
37.6131681454905
 33
0.0
  0
SOLID
  5
109
330
100
100
AcDbEntity
  8
치수문자_일반주서
 62
     0
100
AcDbTrace
 10
3.600449999999988
 20
38.16350147882384
 30
0.0
 11
3.600449999999988
 21
37.06283481215717
 31
0.0
 12
0.2984499999999883
 22
37.6131681454905
 32
0.0
 13
0.2984499999999883
 23
37.6131681454905
 33
0.0
  0
MTEXT
  5
10A
330
100
100
AcDbEntity
  8
치수문자_일반주서
 62
     0
100
AcDbMText
 10
42.14619999999998
 20
41.9881681454905
 30
0.0
 40
3.5
 41
0.0
 71
     2
 72
     1
  1
\A1;25.40 [1]
  7
SLDTEXTSTYLE0
 73
     1
 44
1.0
  0
POINT
  5
10B
330
100
100
AcDbEntity
  8
Defpoints
 62
     0
100
AcDbPoint
 10
25.69844999999998
 20
2.978933137472984
 30
0.0
  0
POINT
  5
172
330
100
100
AcDbEntity
  8
Defpoints
 62
     0
100
AcDbPoint
 10
0.2984499999999852
 20
3.671374928723893
 30
0.0
  0
POINT
  5
173
330
100
100
AcDbEntity
  8
Defpoints
 62
     0
100
AcDbPoint
 10
0.2984499999999852
 20
37.6131681454905
 30
0.0
  0
ENDBLK
  5
102
330
100
100
AcDbEntity
  8
0
100
AcDbBlockEnd
  0
BLOCK
  5
117
330
116
100
AcDbEntity
  8
0
100
AcDbBlockBegin
  2
_D_3
 70
     0
 10
0.0
 20
0.0
 30
0.0
  3
_D_3
  1

  0
LINE
  5
119
330
116
100
AcDbEntity
  8
치수문자_일반주서
 62
     0
370
    -2
100
AcDbLine
 10
25.69305232211678
 20
2.250040731656353
 30
0.0
 11
25.69305232211678
 21
51.93709146544764
 31
0.0
  0
LINE
  5
11A
330
116
100
AcDbEntity
  8
치수문자_일반주서
 62
     0
370
    -2
100
AcDbLine
 10
-37.80155000000002
 20
3.238574928723901
 30
0.0
 11
-37.80155000000002
 21
51.93709146544764
 31
0.0
  0
LINE
  5
11B
330
116
100
AcDbEntity
  8
치수문자_일반주서
 62
     0
370
    -2
100
AcDbLine
 10
22.39105232211678
 20
51.93709146544764
 30
0.0
 11
-34.49955000000002
 21
51.93709146544764
 31
0.0
  0
SOLID
  5
11C
330
116
100
AcDbEntity
  8
치수문자_일반주서
 62
     0
100
AcDbTrace
 10
22.39105232211678
 20
51.38675813211431
 30
0.0
 11
22.39105232211678
 21
52.48742479878098
 31
0.0
 12
25.69305232211678
 22
51.93709146544764
 32
0.0
 13
25.69305232211678
 23
51.93709146544764
 33
0.0
  0
SOLID
  5
11D
330
116
100
AcDbEntity
  8
치수문자_일반주서
 62
     0
100
AcDbTrace
 10
-34.49955000000002
 20
52.48742479878098
 30
0.0
 11
-34.49955000000002
 21
51.38675813211431
 31
0.0
 12
-37.80155000000002
 22
51.93709146544764
 32
0.0
 13
-37.80155000000002
 23
51.93709146544764
 33
0.0
  0
MTEXT
  5
11E
330
116
100
AcDbEntity
  8
치수문자_일반주서
 62
     0
100
AcDbMText
 10
-6.051550000000024
 20
56.31209146544764
 30
0.0
 40
3.5
 41
0.0
 71
     2
 72
     1
  1
\A1;63.49 [2 1/2]
  7
SLDTEXTSTYLE0
 73
     1
 44
1.0
  0
POINT
  5
11F
330
116
100
AcDbEntity
  8
Defpoints
 62
     0
100
AcDbPoint
 10
25.69305232211678
 20
2.187540731656353
 30
0.0
  0
POINT
  5
120
330
116
100
AcDbEntity
  8
Defpoints
 62
     0
100
AcDbPoint
 10
-37.80155000000002
 20
3.176074928723901
 30
0.0
  0
POINT
  5
121
330
116
100
AcDbEntity
  8
Defpoints
 62
     0
100
AcDbPoint
 10
-37.80155000000002
 20
51.93709146544764
 30
0.0
  0
ENDBLK
  5
118
330
116
100
AcDbEntity
  8
0
100
AcDbBlockEnd
  0
BLOCK
  5
12A
330
129
100
AcDbEntity
  8
0
100
AcDbBlockBegin
  2
_D_4
 70
     0
 10
0.0
 20
0.0
 30
0.0
  3
_D_4
  1

  0
LINE
  5
12C
330
129
100
AcDbEntity
  8
치수문자_일반주서
 62
     0
370
    -2
100
AcDbLine
 10
-37.07030000000001
 20
3.969824928723886
 30
0.0
 11
-50.64279999999999
 21
3.969824928723838
 31
0.0
  0
LINE
  5
12D
330
129
100
AcDbEntity
  8
치수문자_일반주서
 62
     0
370
    -2
100
AcDbLine
 10
-37.07030000000001
 20
-3.9676750712761
 30
0.0
 11
-50.64279999999997
 21
-3.967675071276147
 31
0.0
  0
LINE
  5
12E
330
129
100
AcDbEntity
  8
치수문자_일반주서
 62
     0
370
    -2
100
AcDbLine
 10
-50.64279999999999
 20
3.969824928723838
 30
0.0
 11
-50.64280000000011
 21
38.57382492872384
 31
0.0
  0
LINE
  5
12F
330
129
100
AcDbEntity
  8
치수문자_일반주서
 62
     0
370
    -2
100
AcDbLine
 10
-50.64279999999999
 20
3.969824928723838
 30
0.0
 11
-50.64279999999997
 21
-3.967675071276147
 31
0.0
  0
LINE
  5
130
330
129
100
AcDbEntity
  8
치수문자_일반주서
 62
     0
370
    -2
100
AcDbLine
 10
-50.64280000000001
 20
7.271824928723838
 30
0.0
 11
-50.64280000000002
 21
10.57382492872384
 31
0.0
  0
LINE
  5
131
330
129
100
AcDbEntity
  8
치수문자_일반주서
 62
     0
370
    -2
100
AcDbLine
 10
-50.64279999999995
 20
-7.269675071276147
 30
0.0
 11
-50.64279999999994
 21
-10.57167507127615
 31
0.0
  0
SOLID
  5
132
330
129
100
AcDbEntity
  8
치수문자_일반주서
 62
     0
100
AcDbTrace
 10
-51.19313333333334
 20
7.271824928723836
 30
0.0
 11
-50.09246666666667
 21
7.27182492872384
 31
0.0
 12
-50.64279999999999
 22
3.969824928723838
 32
0.0
 13
-50.64279999999999
 23
3.969824928723838
 33
0.0
  0
SOLID
  5
133
330
129
100
AcDbEntity
  8
치수문자_일반주서
 62
     0
100
AcDbTrace
 10
-50.09246666666662
 20
-7.269675071276145
 30
0.0
 11
-51.19313333333329
 21
-7.269675071276149
 31
0.0
 12
-50.64279999999997
 22
-3.967675071276147
 32
0.0
 13
-50.64279999999997
 23
-3.967675071276147
 33
0.0
  0
MTEXT
  5
134
330
129
100
AcDbEntity
  8
치수문자_일반주서
 62
     0
100
AcDbMText
 10
-55.01780000000007
 20
24.57382492872382
 30
0.0
 40
3.5
 41
0.0
 71
     2
 72
     1
  1
\A1;%%c7.94 [5/16]
  7
SLDTEXTSTYLE0
 11
-3.580687802255629E-15
 21
1.0
 31
0.0
 73
     1
 44
1.0
  0
POINT
  5
135
330
129
100
AcDbEntity
  8
Defpoints
 62
     0
100
AcDbPoint
 10
-37.00780000000001
 20
3.969824928723886
 30
0.0
  0
POINT
  5
136
330
129
100
AcDbEntity
  8
Defpoints
 62
     0
100
AcDbPoint
 10
-37.00780000000001
 20
-3.9676750712761
 30
0.0
  0
POINT
  5
16D
330
129
100
AcDbEntity
  8
Defpoints
 62
     0
100
AcDbPoint
 10
-50.64279999999997
 20
-3.967675071276151
 30
0.0
  0
ENDBLK
  5
12B
330
129
100
AcDbEntity
  8
0
100
AcDbBlockEnd
  0
BLOCK
  5
143
330
142
100
AcDbEntity
  8
0
100
AcDbBlockBegin
  2
SW_DOWELSYMBOL_0
 70
     0
 10
0.0
 20
0.0
 30
0.0
  3
SW_DOWELSYMBOL_0
  1

  0
CIRCLE
  5
145
330
142
100
AcDbEntity
  8
해칭선
 62
     0
100
AcDbCircle
 10
0.0
 20
0.0
 30
0.0
 40
3.000000000000002
  0
HATCH
  5
146
330
142
100
AcDbEntity
  8
0
  6
Continuous
 62
     0
370
     0
100
AcDbHatch
 10
0.0
 20
0.0
 30
0.0
210
0.0
220
0.0
230
1.0
  2
SOLID
 70
     1
 71
     0
 91
        1
 92
        0
 93
        3
 72
     2
 10
0.0
 20
0.0
 40
3.000000000000002
 50
0.0
 51
90.0
 73
     1
 72
     1
 10
0.0
 20
3.000000000000002
 11
0.0
 21
0.0
 72
     1
 10
0.0
 20
0.0
 11
3.000000000000003
 21
0.0
 97
        0
 75
     0
 76
     1
 98
        1
 10
0.0
 20
0.0
  0
HATCH
  5
147
330
142
100
AcDbEntity
  8
0
  6
Continuous
 62
     0
370
     0
100
AcDbHatch
 10
0.0
 20
0.0
 30
0.0
210
0.0
220
0.0
230
1.0
  2
SOLID
 70
     1
 71
     0
 91
        1
 92
        0
 93
        3
 72
     2
 10
0.0
 20
0.0
 40
3.000000000000002
 50
180.0
 51
270.0000000000008
 73
     1
 72
     1
 10
0.0
 20
-3.000000000000002
 11
0.0
 21
0.0
 72
     1
 10
0.0
 20
0.0
 11
-3.000000000000002
 21
0.0
 97
        0
 75
     0
 76
     1
 98
        1
 10
0.0
 20
0.0
  0
ENDBLK
  5
144
330
142
100
AcDbEntity
  8
0
100
AcDbBlockEnd
  0
ENDSEC
  0
SECTION
  2
ENTITIES
  0
LINE
  5
96
330
1F
100
AcDbEntity
  8
외형선
  6
Continuous
 62
     1
370
    15
100
AcDbLine
 10
17.91071905909125
 20
3.969824928723891
 30
0.0
 11
16.17344999999998
 21
3.969824928723891
 31
0.0
  0
ARC
  5
97
330
1F
100
AcDbEntity
  8
외형선
  6
Continuous
 62
     1
370
    15
100
AcDbCircle
 10
23.71724999999997
 20
-1.986475071276112
 30
0.0
 40
1.981200000000008
100
AcDbArc
 50
355.9818350549796
 51
0.0000000000008155
  0
LINE
  5
98
330
1F
100
AcDbEntity
  8
외형선
  6
Continuous
 62
     1
370
    15
100
AcDbLine
 10
16.17344999999998
 20
-3.967675071276111
 30
0.0
 11
17.91071905909124
 21
-3.967675071276111
 31
0.0
  0
LINE
  5
9A
330
1F
100
AcDbEntity
  8
외형선
  6
Continuous
370
    15
100
AcDbLine
 10
-37.00780000000002
 20
-3.967675071276107
 30
0.0
 11
-0.0000000000000138
 21
-3.967675071276107
 31
0.0
  0
LINE
  5
9B
330
1F
100
AcDbEntity
  8
외형선
  6
Continuous
370
    15
100
AcDbLine
 10
-0.0000000000000138
 20
3.969824928723893
 30
0.0
 11
-37.00780000000002
 21
3.969824928723893
 31
0.0
  0
LINE
  5
9C
330
1F
100
AcDbEntity
  8
외형선
  6
Continuous
370
    15
100
AcDbLine
 10
-37.00780000000002
 20
3.969824928723893
 30
0.0
 11
-37.80155000000002
 21
3.176074928723901
 31
0.0
  0
LINE
  5
9D
330
1F
100
AcDbEntity
  8
외형선
  6
Continuous
370
    15
100
AcDbLine
 10
-37.80155000000002
 20
-3.173925071276114
 30
0.0
 11
-37.00780000000002
 21
-3.967675071276107
 31
0.0
  0
LINE
  5
9E
330
1F
100
AcDbEntity
  8
외형선
  6
Continuous
370
    15
100
AcDbLine
 10
-0.0000000000000138
 20
-3.967675071276107
 30
0.0
 11
0.2984499999999852
 21
-3.669225071276108
 31
0.0
  0
LINE
  5
9F
330
1F
100
AcDbEntity
  8
외형선
  6
Continuous
370
    15
100
AcDbLine
 10
0.2984499999999852
 20
3.671374928723893
 30
0.0
 11
-0.0000000000000138
 21
3.969824928723893
 31
0.0
  0
LINE
  5
A0
330
1F
100
AcDbEntity
  8
외형선
  6
Continuous
370
    15
100
AcDbLine
 10
0.2984499999999852
 20
-3.669225071276108
 30
0.0
 11
16.17344999999998
 21
-3.669225071276108
 31
0.0
  0
LINE
  5
A1
330
1F
100
AcDbEntity
  8
외형선
  6
Continuous
370
    15
100
AcDbLine
 10
16.17344999999998
 20
3.671374928723893
 30
0.0
 11
0.2984499999999852
 21
3.671374928723893
 31
0.0
  0
SPLINE
  5
A2
330
1F
100
AcDbEntity
  8
외형선
  6
Continuous
 62
     1
370
    15
100
AcDbSpline
210
0.0
220
0.0
230
1.0
 70
     8
 71
     3
 72
    22
 73
    18
 74
     0
 42
0.000000001
 43
0.00000001
 40
0.0
 40
0.0
 40
0.0
 40
0.0
 40
0.1249999999999969
 40
0.1249999999999969
 40
0.2499999999999939
 40
0.2499999999999939
 40
0.3749999999999908
 40
0.3749999999999908
 40
0.4999999999999927
 40
0.4999999999999927
 40
0.6249999999999944
 40
0.6249999999999944
 40
0.7499999999999963
 40
0.7499999999999963
 40
0.8749999999999981
 40
0.8749999999999981
 40
1.0
 40
1.0
 40
1.0
 40
1.0
 10
23.71724999999996
 20
1.451440686823319
 30
0.0
 10
23.84045618241329
 20
1.385206598175604
 30
0.0
 10
23.96320970058842
 20
1.31755090398291
 30
0.0
 10
24.20925127027035
 20
1.181978885636427
 30
0.0
 10
24.33418894642821
 20
1.113411565765899
 30
0.0
 10
24.57530787729889
 20
0.9819877277091483
 30
0.0
 10
24.69176037068063
 20
0.9189831356434225
 30
0.0
 10
24.91524779360945
 20
0.7963775268802602
 30
0.0
 10
25.02169718357491
 20
0.7370318778194139
 30
0.0
 10
25.21290040472601
 20
0.6229502503837454
 30
0.0
 10
25.29968755594005
 20
0.5670083367418918
 30
0.0
 10
25.44919522853546
 20
0.4534863291355342
 30
0.0
 10
25.51100360239599
 20
0.3966824891642139
 30
0.0
 10
25.60886077100838
 20
0.2750281228577764
 30
0.0
 10
25.64470118040516
 20
0.2096511981243033
 30
0.0
 10
25.68926341350503
 20
0.0678582647607903
 30
0.0
 10
25.69845
 20
-0.0090797061376982
 30
0.0
 10
25.69844999999998
 20
-0.0958482076826374
 30
0.0
  0
LINE
  5
A3
330
1F
100
AcDbEntity
  8
외형선
  6
Continuous
 62
     1
370
    15
100
AcDbLine
 10
25.69844999999998
 20
-1.66968445486955
 30
0.0
 11
25.69844999999998
 21
-0.0958482076826367
 31
0.0
  0
SPLINE
  5
A4
330
1F
100
AcDbEntity
  8
외형선
  6
Continuous
 62
     1
370
    15
100
AcDbSpline
210
0.0
220
0.0
230
1.0
 70
     8
 71
     3
 72
    20
 73
    16
 74
     0
 42
0.000000001
 43
0.00000001
 40
0.0
 40
0.0
 40
0.0
 40
0.0
 40
0.1250000000000017
 40
0.1250000000000017
 40
0.2500000000000034
 40
0.2500000000000034
 40
0.3750000000000052
 40
0.3750000000000052
 40
0.5000000000000069
 40
0.5000000000000069
 40
0.6250000000000087
 40
0.6250000000000087
 40
0.7500000000000058
 40
0.7500000000000058
 40
1.0
 40
1.0
 40
1.0
 40
1.0
 10
25.69844999999998
 20
-1.669684454869551
 30
0.0
 10
25.69844999999998
 20
-1.812790496211256
 30
0.0
 10
25.6892180425178
 20
-1.954904865939981
 30
0.0
 10
25.63956356447756
 20
-2.235857232100289
 30
0.0
 10
25.59921718018791
 20
-2.371201280178002
 30
0.0
 10
25.48727863790645
 20
-2.614459554420145
 30
0.0
 10
25.41749218234724
 20
-2.719641286372656
 30
0.0
 10
25.25547730713549
 20
-2.895353492155802
 30
0.0
 10
25.16611208426419
 20
-2.963275334420661
 30
0.0
 10
24.97275781412781
 20
-3.066436294319778
 30
0.0
 10
24.87183252536799
 20
-3.100125295413517
 30
0.0
 10
24.65992475271651
 20
-3.139602784485368
 30
0.0
 10
24.54837996508392
 20
-3.144971963620348
 30
0.0
 10
24.20795281530388
 20
-3.124447594620329
 30
0.0
 10
23.96709455608947
 20
-3.062344013581193
 30
0.0
 10
23.71725000000003
 20
-2.966534860123916
 30
0.0
  0
SPLINE
  5
A5
330
1F
100
AcDbEntity
  8
외형선
  6
Continuous
 62
     1
370
    15
100
AcDbSpline
210
0.0
220
0.0
230
1.0
 70
     8
 71
     3
 72
    22
 73
    18
 74
     0
 42
0.000000001
 43
0.00000001
 40
0.0
 40
0.0
 40
0.0
 40
0.0
 40
0.125
 40
0.125
 40
0.25
 40
0.25
 40
0.375
 40
0.375
 40
0.5
 40
0.5
 40
0.625
 40
0.625
 40
0.75
 40
0.75
 40
0.875
 40
0.875
 40
1.0
 40
1.0
 40
1.0
 40
1.0
 10
23.71725
 20
-2.966534860123902
 30
0.0
 10
23.40316909685568
 20
-2.846092670314563
 30
0.0
 10
23.0866845192365
 20
-2.716002510579222
 30
0.0
 10
22.45780488976003
 20
-2.440163604699981
 30
0.0
 10
22.146598529844
 20
-2.294655375236178
 30
0.0
 10
21.51665414677154
 20
-1.989010956090228
 30
0.0
 10
21.20033797209132
 20
-1.829215662341143
 30
0.0
 10
20.57389892370772
 20
-1.500235165656788
 30
0.0
 10
20.26090714015379
 20
-1.330574485274253
 30
0.0
 10
19.63018418715384
 20
-0.9831028668731865
 30
0.0
 10
19.31531776812094
 20
-0.8058130759694463
 30
0.0
 10
18.69062378331263
 20
-0.4482598828084832
 30
0.0
 10
18.37461371316398
 20
-0.2668166698512754
 30
0.0
 10
17.74412034044737
 20
0.0963303137336362
 30
0.0
 10
17.43220781134565
 20
0.2775323991816923
 30
0.0
 10
16.80453452791893
 20
0.6378149440698253
 30
0.0
 10
16.48807843232042
 20
0.8170179412680578
 30
0.0
 10
16.17344999999998
 20
0.9927582703418141
 30
0.0
  0
SPLINE
  5
A6
330
1F
100
AcDbEntity
  8
외형선
  6
Continuous
370
    15
100
AcDbSpline
210
0.0
220
0.0
230
1.0
 70
    24
 71
     3
 72
    16
 73
    12
 74
     0
 42
0.000000001
 43
0.00000001
 40
0.0
 40
0.0
 40
0.0
 40
0.0
 40
0.0042597885783443
 40
0.1248949266356353
 40
0.2421302328700464
 40
0.36276537092734
 40
0.4800006771617663
 40
0.6006358152190411
 40
0.7178711214534518
 40
0.8385062595107446
 40
1.0
 40
1.0
 40
1.0
 40
1.0
 10
16.17344999999996
 20
0.9927582703418206
 30
0.0
 10
16.17344999999996
 20
0.9949565772259643
 30
0.0
 10
16.17345000000001
 20
1.059409864511983
 30
0.0
 10
16.17344999999998
 20
1.238226647805781
 30
0.0
 10
16.1734499999999
 20
1.528089914568475
 30
0.0
 10
16.17345000000002
 20
1.863993836854718
 30
0.0
 10
16.17344999999993
 20
2.233879836869691
 30
0.0
 10
16.17344999999998
 20
2.623091821024508
 30
0.0
 10
16.17344999999995
 20
3.026311324129955
 30
0.0
 10
16.17345000000002
 20
3.477631499105401
 30
0.0
 10
16.17344999999999
 20
3.778171851685211
 30
0.0
 10
16.17344999999997
 20
3.950204526809126
 30
0.0
  0
SPLINE
  5
A7
330
1F
100
AcDbEntity
  8
외형선
  6
Continuous
 62
     1
370
    15
100
AcDbSpline
210
0.0
220
0.0
230
1.0
 70
     8
 71
     3
 72
    22
 73
    18
 74
     0
 42
0.000000001
 43
0.00000001
 40
0.0
 40
0.0
 40
0.0
 40
0.0
 40
0.125
 40
0.125
 40
0.25
 40
0.25
 40
0.375
 40
0.375
 40
0.5
 40
0.5
 40
0.625
 40
0.625
 40
0.7499999999999999
 40
0.7499999999999999
 40
0.875
 40
0.875
 40
1.0
 40
1.0
 40
1.0
 40
1.0
 10
23.71724999999995
 20
1.451440686823433
 30
0.0
 10
23.40316909685563
 20
1.620286616255947
 30
0.0
 10
23.08668451923646
 20
1.784994537336556
 30
0.0
 10
22.45780488976001
 20
2.101491917580196
 30
0.0
 10
22.14659852984401
 20
2.253129596729673
 30
0.0
 10
21.51665414677154
 20
2.542561079077233
 30
0.0
 10
21.20033797209131
 20
2.679919988040208
 30
0.0
 10
20.57389892370771
 20
2.936155367459733
 30
0.0
 10
20.26090714015374
 20
3.05546611897406
 30
0.0
 10
19.63018418715381
 20
3.274763568467584
 30
0.0
 10
19.31531776812094
 20
3.374381506483748
 30
0.0
 10
18.69062378331265
 20
3.551461562568833
 30
0.0
 10
18.37461371316398
 20
3.629487921693674
 30
0.0
 10
17.74412034044738
 20
3.762116650245906
 30
0.0
 10
17.43220781134562
 20
3.816615692072868
 30
0.0
 10
16.80453452791891
 20
3.901672935393822
 30
0.0
 10
16.4880784323204
 20
3.932179507305452
 30
0.0
 10
16.17344999999996
 20
3.950204526809138
 30
0.0
  0
SPLINE
  5
A8
330
1F
100
AcDbEntity
  8
외형선
  6
Continuous
 62
     1
370
    15
100
AcDbSpline
210
0.0
220
0.0
230
1.0
 70
     8
 71
     3
 72
    22
 73
    18
 74
     0
 42
0.000000001
 43
0.00000001
 40
0.0
 40
0.0
 40
0.0
 40
0.0
 40
0.125
 40
0.125
 40
0.25
 40
0.25
 40
0.375
 40
0.375
 40
0.5
 40
0.5
 40
0.625
 40
0.625
 40
0.75
 40
0.75
 40
0.875
 40
0.875
 40
1.0
 40
1.0
 40
1.0
 40
1.0
 10
24.41268513454172
 20
-3.96767507127612
 30
0.0
 10
23.40316909685563
 20
-3.826796034471512
 30
0.0
 10
22.96515369360442
 20
-3.687510371388449
 30
0.0
 10
22.45780488976003
 20
-3.494653299427284
 30
0.0
 10
22.14659852984403
 20
-3.271873546958441
 30
0.0
 10
21.51665414677154
 20
-3.052576999659581
 30
0.0
 10
21.20033797209134
 20
-2.932797734957183
 30
0.0
 10
20.57389892370775
 20
-2.676446775514703
 30
0.0
 10
20.26090714015377
 20
-2.53952806297711
 30
0.0
 10
19.63018418715386
 20
-2.24990969906258
 30
0.0
 10
19.31531776812094
 20
-2.09762978634565
 30
0.0
 10
18.69062378331263
 20
-1.781763678337396
 30
0.0
 10
18.37461371316398
 20
-1.617127855484417
 30
0.0
 10
17.74412034044739
 20
-1.278974393506373
 30
0.0
 10
17.43220781134564
 20
-1.10595325981719
 30
0.0
 10
16.80453452791892
 20
-0.7533771356014602
 30
0.0
 10
16.48807843232042
 20
-0.5736726370315515
 30
0.0
 10
16.17344999999997
 20
-0.3930722265711508
 30
0.0
  0
LINE
  5
A9
330
1F
100
AcDbEntity
  8
외형선
  6
Continuous
370
    15
100
AcDbLine
 10
16.17344999999997
 20
0.9927582703418152
 30
0.0
 11
16.17344999999997
 21
-0.3930722265711518
 31
0.0
  0
SPLINE
  5
AB
330
1F
100
AcDbEntity
  8
외형선
  6
Continuous
 62
     1
370
    15
100
AcDbSpline
210
0.0
220
0.0
230
1.0
 70
     8
 71
     3
 72
    12
 73
     8
 74
     0
 42
0.000000001
 43
0.00000001
 40
0.0
 40
0.0
 40
0.0
 40
0.0
 40
0.2026896435966009
 40
0.4401762892676223
 40
0.6265470059360386
 40
0.8131434406217033
 40
0.9999999999999999
 40
0.9999999999999999
 40
0.9999999999999999
 40
0.9999999999999999
 10
22.1014558692607
 20
-3.243767164780143
 30
0.0
 10
21.70085399983403
 20
-3.370091183540919
 30
0.0
 10
20.83087642609648
 20
-3.644426057473393
 30
0.0
 10
19.59254082367302
 20
-3.869576385628207
 30
0.0
 10
18.38695481490294
 20
-3.974533923931948
 30
0.0
 10
17.28084963855132
 20
-3.97244626972366
 30
0.0
 10
16.54275458359174
 20
-3.885356225754308
 30
0.0
 10
16.17344999999998
 20
-3.841780872949851
 30
0.0
  0
SPLINE
  5
AC
330
1F
100
AcDbEntity
  8
외형선
  6
Continuous
370
    15
100
AcDbSpline
210
0.0
220
0.0
230
1.0
 70
    24
 71
     3
 72
    25
 73
    21
 74
     0
 42
0.000000001
 43
0.00000001
 40
0.0
 40
0.0
 40
0.0
 40
0.0
 40
0.0820761890213383
 40
0.1657671650164897
 40
0.2150655844450262
 40
0.3153373638028559
 40
0.3664306597148996
 40
0.4157290791434753
 40
0.4653697860597177
 40
0.516090048778873
 40
0.5671833446909592
 40
0.6164817641195147
 40
0.6661224710357363
 40
0.7168427337548696
 40
0.7679360296669333
 40
0.8172344490955513
 40
0.8668751560117116
 40
0.917595418730859
 40
0.9686887146429108
 40
1.0
 40
1.0
 40
1.0
 40
1.0
 10
16.17344999999997
 20
-3.841780872949852
 30
0.0
 10
16.17344999999996
 20
-3.746514451632398
 30
0.0
 10
16.17344999999997
 20
-3.55410731417436
 30
0.0
 10
16.17344999999986
 20
-3.282325683669196
 30
0.0
 10
16.17345000000008
 20
-2.979988214771504
 30
0.0
 10
16.17344999999998
 20
-2.712444653550712
 30
0.0
 10
16.17344999999998
 20
-2.444656403750075
 30
0.0
 10
16.17344999999999
 20
-2.245345153587883
 30
0.0
 10
16.17344999999994
 20
-2.048896141932434
 30
0.0
 10
16.17344999999996
 20
-1.853887142857822
 30
0.0
 10
16.17345000000003
 20
-1.664587809578261
 30
0.0
 10
16.17345000000001
 20
-1.483166766231782
 30
0.0
 10
16.17344999999994
 20
-1.309848018631484
 30
0.0
 10
16.17345000000002
 20
-1.143542528231712
 30
0.0
 10
16.17344999999994
 20
-0.9880101798055323
 30
0.0
 10
16.17345000000004
 20
-0.8449486351194764
 30
0.0
 10
16.1734499999999
 20
-0.7141766679881613
 30
0.0
 10
16.17344999999999
 20
-0.5958163014778706
 30
0.0
 10
16.17344999999999
 20
-0.5023716450519179
 30
0.0
 10
16.17344999999998
 20
-0.4550788380376136
 30
0.0
 10
16.17344999999999
 20
-0.4371089806224512
 30
0.0
  0
SPLINE
  5
AD
330
1F
100
AcDbEntity
  8
외형선
  6
Continuous
 62
     1
370
    15
100
AcDbSpline
210
0.0
220
0.0
230
1.0
 70
     8
 71
     3
 72
     8
 73
     4
 74
     0
 42
0.000000001
 43
0.00000001
 40
0.0
 40
0.0
 40
0.0
 40
0.0
 40
1.0
 40
1.0
 40
1.0
 40
1.0
 10
25.69844999999998
 20
1.077605506382707
 30
0.0
 10
25.69844999999998
 20
1.066555547239804
 30
0.0
 10
25.69533873304191
 20
1.06068911471055
 30
0.0
 10
25.68784877523403
 20
1.060687832783787
 30
0.0
  0
SPLINE
  5
AE
330
1F
100
AcDbEntity
  8
외형선
  6
Continuous
 62
     1
370
    15
100
AcDbSpline
210
0.0
220
0.0
230
1.0
 70
     8
 71
     3
 72
    16
 73
    12
 74
     0
 42
0.000000001
 43
0.00000001
 40
0.0
 40
0.0
 40
0.0
 40
0.0
 40
0.0657900862427031
 40
0.1898370871061387
 40
0.3137520423824535
 40
0.4454353586439731
 40
0.5441367861966178
 40
0.6456685566816909
 40
0.7465681296319624
 40
0.8495396304230418
 40
1.0
 40
1.0
 40
1.0
 40
1.0
 10
25.68026086331326
 20
1.064600042006685
 30
0.0
 10
25.67155861468668
 20
1.067892198902192
 30
0.0
 10
25.64644830362175
 20
1.077391707278482
 30
0.0
 10
25.5390975972147
 20
1.176358851875682
 30
0.0
 10
25.34259536533721
 20
1.37459403984984
 30
0.0
 10
25.11033758733439
 20
1.608733835812481
 30
0.0
 10
24.86842189283512
 20
1.839220638603542
 30
0.0
 10
24.63355460786486
 20
2.047077056160331
 30
0.0
 10
24.38277410243604
 20
2.245675980516763
 30
0.0
 10
24.08027814506659
 20
2.457511260128192
 30
0.0
 10
23.85248743085781
 20
2.569679579724331
 30
0.0
 10
23.71725000000003
 20
2.636272967512348
 30
0.0
  0
LINE
  5
AF
330
1F
100
AcDbEntity
  8
외형선
  6
Continuous
 62
     1
370
    15
100
AcDbLine
 10
25.69844999999998
 20
1.077605506382705
 30
0.0
 11
25.69844999999998
 21
-0.0958482076826367
 31
0.0
  0
SPLINE
  5
B0
330
1F
100
AcDbEntity
  8
외형선
  6
Continuous
 62
     1
370
    15
100
AcDbSpline
210
0.0
220
0.0
230
1.0
 70
     8
 71
     3
 72
    12
 73
     8
 74
     0
 42
0.000000001
 43
0.00000001
 40
0.0
 40
0.0
 40
0.0
 40
0.0
 40
0.2425399158313335
 40
0.4851723579847138
 40
0.7276336342209141
 40
0.9179082565635777
 40
0.9999999999999999
 40
0.9999999999999999
 40
0.9999999999999999
 40
0.9999999999999999
 10
23.71724999999997
 20
2.636272967512356
 30
0.0
 10
23.24776614847097
 20
2.828102128554071
 30
0.0
 10
22.30861934246452
 20
3.211833631361883
 30
0.0
 10
20.89998030723658
 20
3.625485753596706
 30
0.0
 10
19.59252215098851
 20
3.86849936279294
 30
0.0
 10
18.59671176712897
 20
3.969915738198454
 30
0.0
 10
18.06959350976224
 20
3.960170648684935
 30
0.0
 10
17.91071905909126
 20
3.957233460072016
 30
0.0
  0
LINE
  5
B2
330
1F
100
AcDbEntity
  8
외형선
  6
Continuous
 62
     1
370
    15
100
AcDbLine
 10
25.69844999999998
 20
1.077605506382705
 30
0.0
 11
25.69305232211678
 21
2.187540731656353
 31
0.0
  0
SPLINE
  5
B3
330
1F
100
AcDbEntity
  8
외형선
  6
Continuous
 62
     1
370
    15
100
AcDbSpline
210
0.0
220
0.0
230
1.0
 70
     8
 71
     3
 72
     9
 73
     5
 74
     0
 42
0.000000001
 43
0.00000001
 40
0.0
 40
0.0
 40
0.0
 40
0.0
 40
0.3141801807562229
 40
0.9999999999999999
 40
0.9999999999999999
 40
0.9999999999999999
 40
0.9999999999999999
 10
22.1014558692607
 20
3.24591702222793
 30
0.0
 10
22.27060579793709
 20
3.42674650328187
 30
0.0
 10
22.74542226333654
 20
3.716112563151698
 30
0.0
 10
23.3477549420516
 20
3.988116659429336
 30
0.0
 10
24.41268513454172
 20
3.969824928723913
 30
0.0
  0
LINE
  5
B4
330
1F
100
AcDbEntity
  8
외형선
  6
Continuous
 62
     1
370
    15
100
AcDbLine
 10
25.69844999999998
 20
-1.66968445486955
 30
0.0
 11
25.69844999999998
 21
-1.986475071276113
 31
0.0
  0
LINE
  5
B5
330
1F
100
AcDbEntity
  8
외형선
  6
Continuous
370
    15
100
AcDbLine
 10
16.17344999999997
 20
-3.841780872949852
 30
0.0
 11
16.17344999999998
 21
-3.967675071276111
 31
0.0
  0
LINE
  5
B6
330
1F
100
AcDbEntity
  8
외형선
  6
Continuous
 62
     1
370
    15
100
AcDbLine
 10
25.69844999999998
 20
1.988624928723892
 30
0.0
 11
25.69844999999998
 21
1.986260287356459
 31
0.0
  0
LINE
  5
B7
330
1F
100
AcDbEntity
  8
외형선
  6
Continuous
370
    15
100
AcDbLine
 10
-0.0000000000000138
 20
0.0010749287238931
 30
0.0
 11
-0.0000000000000138
 21
3.969824928723893
 31
0.0
  0
LINE
  5
B8
330
1F
100
AcDbEntity
  8
외형선
  6
Continuous
370
    15
100
AcDbLine
 10
-0.0000000000000138
 20
-3.967675071276107
 30
0.0
 11
-0.0000000000000138
 21
0.0010749287238931
 31
0.0
  0
LINE
  5
B9
330
1F
100
AcDbEntity
  8
외형선
  6
Continuous
370
    15
100
AcDbLine
 10
-37.00780000000002
 20
0.0010749287238931
 30
0.0
 11
-37.00780000000002
 21
3.969824928723893
 31
0.0
  0
LINE
  5
BA
330
1F
100
AcDbEntity
  8
외형선
  6
Continuous
370
    15
100
AcDbLine
 10
-37.00780000000002
 20
-3.967675071276107
 30
0.0
 11
-37.00780000000002
 21
0.0010749287238931
 31
0.0
  0
LINE
  5
BB
330
1F
100
AcDbEntity
  8
외형선
  6
Continuous
370
    15
100
AcDbLine
 10
-37.80155000000002
 20
0.0010749287238931
 30
0.0
 11
-37.80155000000002
 21
3.176074928723901
 31
0.0
  0
LINE
  5
BC
330
1F
100
AcDbEntity
  8
외형선
  6
Continuous
370
    15
100
AcDbLine
 10
-37.80155000000002
 20
-3.173925071276114
 30
0.0
 11
-37.80155000000002
 21
0.0010749287238931
 31
0.0
  0
LINE
  5
BD
330
1F
100
AcDbEntity
  8
외형선
  6
Continuous
370
    15
100
AcDbLine
 10
0.2984499999999852
 20
0.0010749287238931
 30
0.0
 11
0.2984499999999852
 21
3.671374928723893
 31
0.0
  0
LINE
  5
BE
330
1F
100
AcDbEntity
  8
외형선
  6
Continuous
370
    15
100
AcDbLine
 10
0.2984499999999852
 20
-3.669225071276108
 30
0.0
 11
0.2984499999999852
 21
0.0010749287238931
 31
0.0
  0
SPLINE
  5
BF
330
1F
100
AcDbEntity
  8
외형선
  6
Continuous
370
    15
100
AcDbSpline
210
0.0
220
0.0
230
1.0
 70
     8
 71
     3
 72
     8
 73
     4
 74
     0
 42
0.000000001
 43
0.00000001
 40
0.0
 40
0.0
 40
0.0
 40
0.0
 40
1.0
 40
1.0
 40
1.0
 40
1.0
 10
16.17345
 20
-0.2905155506484459
 30
0.0
 10
16.00611314451156
 20
-0.201526280488037
 30
0.0
 10
15.83971528392409
 20
-0.1124451756858108
 30
0.0
 10
15.67356290058639
 20
-0.0233865645431325
 30
0.0
  0
SPLINE
  5
C0
330
1F
100
AcDbEntity
  8
외형선
  6
Continuous
370
    15
100
AcDbSpline
210
0.0
220
0.0
230
1.0
 70
     8
 71
     3
 72
     8
 73
     4
 74
     0
 42
0.000000001
 43
0.00000001
 40
0.0
 40
0.0
 40
0.0
 40
0.0
 40
1.0
 40
1.0
 40
1.0
 40
1.0
 10
16.17344999999999
 20
-3.570383388185791
 30
0.0
 10
16.00611314451156
 20
-3.549805392890661
 30
0.0
 10
15.8397152839241
 20
-3.526098227721402
 30
0.0
 10
15.67356290058638
 20
-3.499314257125106
 30
0.0
  0
LINE
  5
C1
330
1F
100
AcDbEntity
  8
외형선
  6
Continuous
370
    15
100
AcDbLine
 10
16.17344999999998
 20
-3.669225071276108
 30
0.0
 11
16.17344999999986
 21
-3.570383388185777
 31
0.0
  0
LINE
  5
C2
330
1F
100
AcDbEntity
  8
외형선
  6
Continuous
370
    15
100
AcDbLine
 10
16.17344999999998
 20
3.659773752374687
 30
0.0
 11
16.17344999999998
 21
3.671374928723893
 31
0.0
  0
SPLINE
  5
C3
330
1F
100
AcDbEntity
  8
외형선
  6
Continuous
370
    15
100
AcDbSpline
210
0.0
220
0.0
230
1.0
 70
     8
 71
     3
 72
     8
 73
     4
 74
     0
 42
0.000000001
 43
0.00000001
 40
0.0
 40
0.0
 40
0.0
 40
0.0
 40
1.0
 40
1.0
 40
1.0
 40
1.0
 10
16.17345
 20
3.659773752395981
 30
0.0
 10
16.00611314451156
 20
3.666866007100626
 30
0.0
 10
15.83971528392409
 20
3.670699850215306
 30
0.0
 10
15.67356290058639
 20
3.671293413412133
 30
0.0
  0
LINE
  5
C4
330
1F
100
AcDbEntity
  8
외형선
  6
Continuous
370
    15
100
AcDbLine
 10
15.67356290058637
 20
1.104852637940266
 30
0.0
 11
15.67356290058637
 21
3.671293396708836
 31
0.0
  0
SPLINE
  5
C5
330
1F
100
AcDbEntity
  8
외형선
  6
Continuous
370
    15
100
AcDbSpline
210
0.0
220
0.0
230
1.0
 70
     8
 71
     3
 72
     8
 73
     4
 74
     0
 42
0.000000001
 43
0.00000001
 40
0.0
 40
0.0
 40
0.0
 40
0.0
 40
1.0
 40
1.0
 40
1.0
 40
1.0
 10
16.17344999999999
 20
0.847117232971537
 30
0.0
 10
16.00611314451156
 20
0.9339845823619193
 30
0.0
 10
15.8397152839241
 20
1.01993870911247
 30
0.0
 10
15.67356290058638
 20
1.104876377169862
 30
0.0
  0
LINE
  5
C6
330
1F
100
AcDbEntity
  8
외형선
  6
Continuous
370
    15
100
AcDbLine
 10
15.67356290058637
 20
-3.499321742888788
 30
0.0
 11
15.67356290058637
 21
-0.0233890705866177
 31
0.0
  0
SPLINE
  5
C7
330
1F
100
AcDbEntity
  8
외형선
  6
Continuous
370
    15
100
AcDbSpline
210
0.0
220
0.0
230
1.0
 70
    24
 71
     3
 72
    17
 73
    13
 74
     0
 42
0.000000001
 43
0.00000001
 40
0.0
 40
0.0
 40
0.0
 40
0.0
 40
0.0952789985386619
 40
0.1927357221099343
 40
0.2994954445461129
 40
0.4093512061653592
 40
0.5161109286015114
 40
0.6259666902207291
 40
0.7327264126568858
 40
0.8425821742761083
 40
0.9493418967122639
 40
1.0
 40
1.0
 40
1.0
 40
1.0
 10
16.17344999999986
 20
-3.570383388185777
 30
0.0
 10
16.1734499999999
 20
-3.46114031665131
 30
0.0
 10
16.17345000000001
 20
-3.240157281558229
 30
0.0
 10
16.17344999999997
 20
-2.875320650965363
 30
0.0
 10
16.17344999999996
 20
-2.486477474514365
 30
0.0
 10
16.17345000000001
 20
-2.088209920245965
 30
0.0
 10
16.17344999999994
 20
-1.700467106351045
 30
0.0
 10
16.17344999999994
 20
-1.341363284118277
 30
0.0
 10
16.17344999999998
 20
-1.01346268641513
 30
0.0
 10
16.17345000000003
 20
-0.7363267059318249
 30
0.0
 10
16.17344999999992
 20
-0.5399034899483932
 30
0.0
 10
16.17344999999996
 20
-0.4621353010410649
 30
0.0
 10
16.17344999999996
 20
-0.4371089806224512
 30
0.0
  0
SPLINE
  5
C8
330
1F
100
AcDbEntity
  8
외형선
  6
Continuous
370
    15
100
AcDbSpline
210
0.0
220
0.0
230
1.0
 70
    24
 71
     3
 72
    15
 73
    11
 74
     0
 42
0.000000001
 43
0.00000001
 40
0.0
 40
0.0
 40
0.0
 40
0.0
 40
0.1019475399591456
 40
0.2360180017163374
 40
0.3700884634735282
 40
0.5041589252307189
 40
0.6382293869879094
 40
0.7722998487450999
 40
0.88614992437255
 40
1.0
 40
1.0
 40
1.0
 40
1.0
 10
16.17344999999995
 20
1.036795024393115
 30
0.0
 10
16.17344999999996
 20
1.094431260905579
 30
0.0
 10
16.17344999999996
 20
1.227864489148
 30
0.0
 10
16.17344999999998
 20
1.49846905434713
 30
0.0
 10
16.17344999999998
 20
1.829642557050079
 30
0.0
 10
16.17344999999998
 20
2.195546687622477
 30
0.0
 10
16.17344999999998
 20
2.584739823300127
 30
0.0
 10
16.17344999999998
 20
2.965558237791784
 30
0.0
 10
16.17344999999999
 20
3.32772016164349
 30
0.0
 10
16.17344999999998
 20
3.549089222130954
 30
0.0
 10
16.17344999999998
 20
3.659773752374687
 30
0.0
  0
LINE
  5
C9
330
1F
100
AcDbEntity
  8
중심선
 62
     1
100
AcDbLine
 10
-40.80155000000001
 20
0.0010749287238931
 30
0.0
 11
28.69844999999999
 21
0.0010749287238978
 31
0.0
  0
LINE
  5
CA
330
1F
100
AcDbEntity
  8
참조1
100
AcDbLine
 10
-6.05155000000001
 20
0.0010749287238892
 30
0.0
 11
-6.051550000000004
 21
-39.99892507127611
 31
0.0
  0
LINE
  5
CB
330
1F
100
AcDbEntity
  8
참조1
100
AcDbLine
 10
-6.051550000000004
 20
-39.99892507127611
 30
0.0
 11
-8.510406814308697
 21
-39.9989250712761
 31
0.0
  0
CIRCLE
  5
CC
330
1F
100
AcDbEntity
  8
해칭선
100
AcDbCircle
 10
0.0
 20
0.0
 30
0.0
 40
3.000000000000001
  0
INSERT
  5
CD
330
1F
100
AcDbEntity
  8
0
  6
Continuous
 62
     7
100
AcDbBlockReference
 66
     1
  2
블럭10
 10
-19.99182293212522
 20
-52.04609937292004
 30
0.0
  0
ATTRIB
  5
CE
330
CD
100
AcDbEntity
  8
FORMAT
 62
     2
100
AcDbText
 10
-30.13345894426184
 20
-49.97073246008785
 30
0.0
 40
4.233333333333333
  1
EM965020 [ 4 FLUTE ]
 41
0.75
  7
SLDTEXTSTYLE0
 11
-30.13345894426184
 21
-52.08739912675451
 31
0.0
100
AcDbAttribute
  2
AUTOATTR0
 70
     0
 74
     1
  0
SEQEND
  5
CF
330
CD
100
AcDbEntity
  8
0
  6
Continuous
 62
     7
  0
HATCH
  5
D0
330
1F
100
AcDbEntity
  8
중심선
100
AcDbHatch
 10
0.0
 20
0.0
 30
0.0
210
0.0
220
0.0
230
1.0
  2
SOLID
 70
     1
 71
     0
 91
        1
 92
        0
 93
        4
 72
     1
 10
-14.27691362774438
 20
-35.7989250712761
 11
-17.72318887158166
 21
-35.7989250712761
 72
     1
 10
-17.72318887158166
 20
-35.7989250712761
 11
-19.85141873078569
 21
-38.3352506518487
 72
     1
 10
-19.85141873078569
 20
-38.3352506518487
 11
-16.40511040183525
 21
-38.33521122254621
 72
     1
 10
-16.40511040183525
 20
-38.33521122254621
 11
-14.27691362774438
 21
-35.7989250712761
 97
        0
 75
     0
 76
     1
 98
        1
 10
-3.130550000000003
 20
0.0010749287238931
  0
HATCH
  5
D1
330
1F
100
AcDbEntity
  8
중심선
100
AcDbHatch
 10
0.0
 20
0.0
 30
0.0
210
0.0
220
0.0
230
1.0
  2
SOLID
 70
     1
 71
     0
 91
        1
 92
        0
 93
        4
 72
     1
 10
-9.264149636708428
 20
-35.7989250712761
 11
-12.71042488054568
 21
-35.79892507127613
 72
     1
 10
-12.71042488054568
 20
-35.79892507127613
 11
-17.2415628889031
 21
-41.19892507127612
 72
     1
 10
-17.2415628889031
 20
-41.19892507127612
 11
-13.79528764506581
 21
-41.19892507127612
 72
     1
 10
-13.79528764506582
 20
-41.19892507127612
 11
-9.264149636708428
 21
-35.7989250712761
 97
        0
 75
     0
 76
     1
 98
        1
 10
-3.130550000000003
 20
0.0010749287238931
  0
HATCH
  5
D2
330
1F
100
AcDbEntity
  8
중심선
100
AcDbHatch
 10
0.0
 20
0.0
 30
0.0
210
0.0
220
0.0
230
1.0
  2
SOLID
 70
     1
 71
     0
 91
        1
 92
        0
 93
        4
 72
     1
 10
-4.251385645672532
 20
-35.7989250712761
 11
-7.69766088950962
 21
-35.7989250712761
 72
     1
 10
-7.697660889509621
 20
-35.7989250712761
 11
-14.7460977913989
 21
-44.19892507127612
 72
     1
 10
-14.7460977913989
 20
-44.19892507127612
 11
-11.29982254756161
 21
-44.19892507127612
 72
     1
 10
-11.29982254756161
 20
-44.19892507127612
 11
-4.251385645672533
 21
-35.7989250712761
 97
        0
 75
     0
 76
     1
 98
        1
 10
-3.130550000000003
 20
0.0010749287238931
  0
HATCH
  5
D3
330
1F
100
AcDbEntity
  8
중심선
100
AcDbHatch
 10
0.0
 20
0.0
 30
0.0
210
0.0
220
0.0
230
1.0
  2
SOLID
 70
     1
 71
     0
 91
        1
 92
        0
 93
        6
 72
     3
 10
0.548504785339667
 20
-39.99892507132738
 11
3.960054785062283
 21
1.540882976769353E-10
 40
0.3939339440162629
 50
17.09539180608438
 51
320.0019657685081
 73
     0
 72
     1
 10
2.231504441040262
 20
-38.58681907591441
 11
4.5368063147413
 21
-36.65249236586649
 72
     3
 10
0.5485047852868203
 20
-39.99892507127625
 11
6.600054785286829
 21
-1.278976924368180E-13
 40
0.636358354079598
 50
39.9987384933741
 51
368.4976242363725
 73
     1
 72
     1
 10
6.973837277187428
 20
-39.03892507120612
 11
-0.7714279078772579
 21
-39.03892507120612
 72
     1
 10
-0.7714279078772575
 20
-39.03892507120612
 11
-0.7714529523231914
 21
-40.95892507120602
 72
     1
 10
-0.7714529523231914
 20
-40.95892507120602
 11
3.669926817148845
 21
-40.95892507120599
 97
        0
 75
     0
 76
     1
 98
        1
 10
-3.130550000000003
 20
0.0010749287238931
  0
DIMENSION
  5
D4
330
1F
100
AcDbEntity
  8
치수문자_일반주서
100
AcDbDimension
  2
_D
 10
64.44525651900788
 20
-3.967675071275938
 30
0.0
 11
64.44525651900778
 21
24.57382492872407
 31
0.0
 70
   160
  1
%%c<>
 71
     2
 42
7.937500000000001
 52
-270.0
  3
SLDDIMSTYLE2
100
AcDbAlignedDimension
 13
25.62872898270509
 23
3.969824928723917
 33
0.0
 14
25.69844999999998
 24
-3.967675071276084
 34
0.0
 50
90.0000000000002
100
AcDbRotatedDimension
1001
PE_URL
1000

1001
ACAD
1000
DSTYLE
1002
{
1070
   171
1070
     6
1070
   273
1070
     7
1002
}
  0
DIMENSION
  5
E8
330
1F
100
AcDbEntity
  8
치수문자_일반주서
100
AcDbDimension
  2
_D_1
 10
16.17344999999997
 20
24.36064653912613
 30
0.0
 11
44.11494999999998
 21
24.36064653912613
 31
0.0
 70
   160
  1
<>
 71
     2
 42
9.525000000000006
  3
SLDDIMSTYLE2
100
AcDbAlignedDimension
 13
25.69844999999998
 23
2.978933137472984
 33
0.0
 14
16.17344999999997
 24
3.950204526809126
 34
0.0
 50
0.0000000000000427
100
AcDbRotatedDimension
1001
PE_URL
1000

1001
ACAD
1000
DSTYLE
1002
{
1070
   171
1070
     6
1070
   273
1070
     7
1002
}
1001
ACAD_DSTYLE_DIMFLIPARROW_SYMBOL
1070
   385
1070
     0
1001
ACAD_DSTYLE_DIMFLIPARROW_WHICH_SYMBOL
1070
   386
1070
     3
  0
DIMENSION
  5
FE
330
1F
100
AcDbEntity
  8
치수문자_일반주서
100
AcDbDimension
  2
_D_2
 10
0.2984499999999883
 20
37.6131681454905
 30
0.0
 11
42.14619999999998
 21
37.6131681454905
 31
0.0
 70
   160
  1
<>
 71
     2
 42
25.39999999999999
  3
SLDDIMSTYLE2
100
AcDbAlignedDimension
 13
25.69844999999998
 23
2.978933137472984
 33
0.0
 14
0.2984499999999852
 24
3.671374928723893
 34
0.0
100
AcDbRotatedDimension
1001
PE_URL
1000

1001
ACAD
1000
DSTYLE
1002
{
1070
   171
1070
     6
1070
   273
1070
     7
1002
}
1001
ACAD_DSTYLE_DIMFLIPARROW_SYMBOL
1070
   385
1070
     0
1001
ACAD_DSTYLE_DIMFLIPARROW_WHICH_SYMBOL
1070
   386
1070
     3
  0
DIMENSION
  5
114
330
1F
100
AcDbEntity
  8
치수문자_일반주서
100
AcDbDimension
  2
_D_3
 10
-37.80155000000002
 20
51.93709146544764
 30
0.0
 11
-6.051550000000024
 21
51.93709146544764
 31
0.0
 70
   160
  1
<>
 71
     2
 42
63.4946023221168
  3
SLDDIMSTYLE2
100
AcDbAlignedDimension
 13
25.69305232211678
 23
2.187540731656353
 33
0.0
 14
-37.80155000000002
 24
3.176074928723901
 34
0.0
 50
-0.0000000000000064
100
AcDbRotatedDimension
1001
PE_URL
1000

1001
ACAD
1000
DSTYLE
1002
{
1070
   171
1070
     6
1070
   273
1070
     7
1002
}
  0
DIMENSION
  5
128
330
1F
100
AcDbEntity
  8
치수문자_일반주서
100
AcDbDimension
  2
_D_4
 10
-50.64279999999997
 20
-3.967675071276147
 30
0.0
 11
-50.64280000000007
 21
24.57382492872384
 31
0.0
 70
   160
  1
%%c<>
 71
     2
 42
7.937499999999986
 52
-270.0
  3
SLDDIMSTYLE2
100
AcDbAlignedDimension
 13
-37.00780000000001
 23
3.969824928723886
 33
0.0
 14
-37.00780000000001
 24
-3.9676750712761
 34
0.0
 50
90.0000000000002
100
AcDbRotatedDimension
1001
PE_URL
1000

1001
ACAD
1000
DSTYLE
1002
{
1070
   171
1070
     6
1070
   273
1070
     7
1002
}
  0
LINE
  5
13B
330
1F
100
AcDbEntity
  8
참조1
100
AcDbLine
 10
89.46193381534557
 20
7.441074928723896
 30
0.0
 11
89.46193381534557
 21
-7.438925071276109
 31
0.0
  0
LINE
  5
13C
330
1F
100
AcDbEntity
  8
참조1
100
AcDbLine
 10
102.1619338153456
 20
5.441074928723896
 30
0.0
 11
89.46193381534557
 21
5.441074928723896
 31
0.0
  0
SOLID
  5
13D
330
1F
100
AcDbEntity
  8
참조1
100
AcDbTrace
 10
89.46193381534557
 20
5.441074928723896
 30
0.0
 11
95.81193381534557
 21
4.425074928723896
 31
0.0
 12
95.81193381534557
 22
6.457074928723896
 32
0.0
 13
95.81193381534557
 23
6.457074928723896
 33
0.0
  0
LINE
  5
13E
330
1F
100
AcDbEntity
  8
참조1
100
AcDbLine
 10
102.1619338153456
 20
-5.438925071276109
 30
0.0
 11
89.46193381534557
 21
-5.438925071276109
 31
0.0
  0
SOLID
  5
13F
330
1F
100
AcDbEntity
  8
참조1
100
AcDbTrace
 10
89.46193381534557
 20
-5.438925071276109
 30
0.0
 11
95.81193381534557
 21
-6.454925071276109
 31
0.0
 12
95.81193381534557
 22
-4.422925071276109
 32
0.0
 13
95.81193381534557
 23
-4.422925071276109
 33
0.0
  0
MTEXT
  5
140
330
1F
100
AcDbEntity
  8
참조1
100
AcDbMText
 10
98.85942390781585
 20
10.98929157337383
 30
0.0
 40
3.5
 41
0.0
 71
     1
 72
     1
  1
A
  7
SLDTEXTSTYLE0
 73
     1
 44
1.0
  0
MTEXT
  5
141
330
1F
100
AcDbEntity
  8
참조1
100
AcDbMText
 10
98.85942390781585
 20
0.1092915733738259
 30
0.0
 40
3.5
 41
0.0
 71
     1
 72
     1
  1
A
  7
SLDTEXTSTYLE0
 73
     1
 44
1.0
  0
INSERT
  5
148
330
1F
100
AcDbEntity
  8
해칭선
100
AcDbBlockReference
  2
SW_DOWELSYMBOL_0
 10
0.0
 20
0.0
 30
0.0
  0
MTEXT
  5
19C
102
{ACAD_REACTORS
330
19D
102
}
330
1F
100
AcDbEntity
  8
치수문자_일반주서
100
AcDbMText
 10
35.77631423161432
 20
-17.06088408096518
 30
0.0
 40
3.5
 41
0.0
 71
     7
 72
     1
  1
{R1.98[.078"]}
 73
     1
 44
1.0
1001
PE_URL
1000

1001
ACAD
1000
ACAD_MTEXT_DEFINED_HEIGHT_BEGIN
1070
    46
1040
3.5
1000
ACAD_MTEXT_DEFINED_HEIGHT_END
  0
LEADER
  5
19D
102
{ACAD_XDICTIONARY
360
19E
102
}
330
1F
100
AcDbEntity
  8
치수문자_일반주서
100
AcDbLeader
  3
ISO-25
 73
     0
 74
     0
 75
     1
 40
3.5
 41
30.91666666666667
 76
     3
 10
25.35738157265822
 20
-3.21935259806401
 30
0.0
 10
30.95031423161432
 20
-15.31088408096518
 30
0.0
 10
34.25231423161432
 20
-15.31088408096518
 30
0.0
340
19C
213
0.0
223
1.75
233
0.0
1001
ACAD
1000
DSTYLE
1002
{
1070
    77
1070
     0
1070
   179
1070
     2
1070
   143
1040
0.0393700787401575
1070
    41
1040
3.302
1070
    44
1040
1.0
1070
    42
1040
1.0
1070
   147
1040
1.524
1070
    73
1070
     1
1070
    74
1070
     1
1070
   140
1040
3.5
1070
   284
1070
     0
1070
    78
1070
     0
1002
}
1001
PE_URL
1000

  0
ARC
  5
1A7
330
1F
100
AcDbEntity
  8
0
 62
     1
100
AcDbCircle
 10
23.71313581568158
 20
2.116238084121719
 30
0.0
 40
1.9812
100
AcDbArc
 50
358.4947617535251
 51
69.32334070624471
  0
ARC
  5
1A8
330
1F
100
AcDbEntity
  8
0
 62
     1
100
AcDbCircle
 10
23.71313581568158
 20
-2.114088226673926
 30
0.0
 40
1.9812
100
AcDbArc
 50
290.6766592937553
 51
1.505238246474901
  0
ENDSEC
  0
SECTION
  2
OBJECTS
  0
DICTIONARY
  5
C
330
0
100
AcDbDictionary
281
     1
  3
ACAD_DETAILVIEWSTYLE
350
1A5
  3
ACAD_GROUP
350
D
  3
ACAD_LAYOUT
350
1A
  3
ACAD_MLINESTYLE
350
17
  3
ACAD_PLOTSETTINGS
350
19
  3
ACAD_PLOTSTYLENAME
350
E
  3
ACAD_SCALELIST
350
47
  3
ACAD_SECTIONVIEWSTYLE
350
1A6
  3
AcDbVariableDictionary
350
1A0
  3
APPDATA
350
16A
  3
DWGPROPS
350
1A9
  0
DICTIONARY
  5
19E
330
19D
100
AcDbDictionary
280
     1
281
     1
  0
DICTIONARY
  5
1A5
102
{ACAD_REACTORS
330
C
102
}
330
C
100
AcDbDictionary
281
     1
  0
DICTIONARY
  5
D
102
{ACAD_REACTORS
330
C
102
}
330
C
100
AcDbDictionary
281
     1
  0
DICTIONARY
  5
1A
102
{ACAD_REACTORS
330
C
102
}
330
C
100
AcDbDictionary
281
     1
  3
Layout1
350
1E
  3
Layout2
350
26
  3
Model
350
22
  0
DICTIONARY
  5
17
102
{ACAD_REACTORS
330
C
102
}
330
C
100
AcDbDictionary
281
     1
  3
Standard
350
18
  0
DICTIONARY
  5
19
102
{ACAD_REACTORS
330
C
102
}
330
C
100
AcDbDictionary
281
     1
  0
ACDBDICTIONARYWDFLT
  5
E
102
{ACAD_REACTORS
330
C
102
}
330
C
100
AcDbDictionary
281
     1
  3
Normal
350
F
100
AcDbDictionaryWithDefault
340
F
  0
DICTIONARY
  5
47
102
{ACAD_REACTORS
330
C
102
}
330
C
100
AcDbDictionary
281
     1
  3
A0
350
48
  3
A1
350
49
  3
A2
350
4A
  3
A3
350
4B
  3
A4
350
4C
  3
A5
350
4D
  3
A6
350
4E
  3
A7
350
4F
  3
A8
350
50
  3
A9
350
51
  3
B0
350
52
  3
B1
350
53
  3
B2
350
54
  3
B3
350
55
  3
B4
350
56
  3
B5
350
57
  3
B6
350
58
  3
B7
350
59
  3
B8
350
5A
  3
B9
350
5B
  3
C0
350
5C
  3
C1
350
5D
  3
C2
350
5E
  3
C3
350
5F
  3
C4
350
60
  3
C5
350
61
  3
C6
350
62
  3
C7
350
63
  3
C8
350
64
  3
C9
350
65
  3
D0
350
66
  3
D1
350
67
  3
D2
350
68
  0
DICTIONARY
  5
1A6
102
{ACAD_REACTORS
330
C
102
}
330
C
100
AcDbDictionary
281
     1
  0
DICTIONARY
  5
1A0
102
{ACAD_REACTORS
330
C
102
}
330
C
100
AcDbDictionary
281
     1
  0
DICTIONARY
  5
16A
102
{ACAD_REACTORS
330
C
102
}
330
C
100
AcDbDictionary
281
     1
  0
XRECORD
  5
1A9
102
{ACAD_REACTORS
330
C
102
}
330
C
100
AcDbXrecord
280
     1
  1
DWGPROPS COOKIE
  2

  3

  4

  6

  7

  8
12017103
  9

300
=
301
=
302
=
303
=
304
=
305
=
306
=
307
=
308
=
309
=
 40
0.0
 41
2458290.07350743
 42
2458302.216552558
  1

 90
        0
  0
LAYOUT
  5
1E
102
{ACAD_REACTORS
330
1A
102
}
330
1A
100
AcDbPlotSettings
  1

  2
none_device
  4

  6

 40
0.0
 41
0.0
 42
0.0
 43
0.0
 44
0.0
 45
0.0
 46
0.0
 47
0.0
 48
0.0
 49
0.0
140
0.0
141
0.0
142
1.0
143
1.0
 70
   688
 72
     1
 73
     0
 74
     5
  7

 75
    16
147
1.0
148
0.0
149
0.0
100
AcDbLayout
  1
Layout1
 70
     1
 71
     1
 10
0.0
 20
0.0
 11
420.0
 21
297.0
 12
0.0
 22
0.0
 32
0.0
 14
1.000000000000000E+20
 24
1.000000000000000E+20
 34
1.000000000000000E+20
 15
-1.000000000000000E+20
 25
-1.000000000000000E+20
 35
-1.000000000000000E+20
146
0.0
 13
0.0
 23
0.0
 33
0.0
 16
1.0
 26
0.0
 36
0.0
 17
0.0
 27
1.0
 37
0.0
 76
     0
330
1B
  0
LAYOUT
  5
26
102
{ACAD_REACTORS
330
1A
102
}
330
1A
100
AcDbPlotSettings
  1

  2
none_device
  4

  6

 40
0.0
 41
0.0
 42
0.0
 43
0.0
 44
0.0
 45
0.0
 46
0.0
 47
0.0
 48
0.0
 49
0.0
140
0.0
141
0.0
142
1.0
143
1.0
 70
   688
 72
     1
 73
     0
 74
     5
  7

 75
    16
147
1.0
148
0.0
149
0.0
100
AcDbLayout
  1
Layout2
 70
     1
 71
     2
 10
0.0
 20
0.0
 11
0.0
 21
0.0
 12
0.0
 22
0.0
 32
0.0
 14
0.0
 24
0.0
 34
0.0
 15
0.0
 25
0.0
 35
0.0
146
0.0
 13
0.0
 23
0.0
 33
0.0
 16
1.0
 26
0.0
 36
0.0
 17
0.0
 27
1.0
 37
0.0
 76
     0
330
23
  0
LAYOUT
  5
22
102
{ACAD_REACTORS
330
1A
102
}
330
1A
100
AcDbPlotSettings
  1

  2
none_device
  4
ANSI_A_(11.00_x_8.50_Inches)
  6

 40
6.35
 41
19.05
 42
6.35000508
 43
19.05000254
 44
279.4
 45
215.9
 46
93.62758624830941
 47
78.74428075748735
 48
0.0
 49
0.0
140
0.0
141
0.0
142
0.0665657623714608
143
1.0
 70
  1696
 72
     0
 73
     0
 74
     0
  7

 75
     0
147
0.0235690232323232
148
0.0
149
0.0
100
AcDbLayout
  1
Model
 70
     1
 71
     0
 10
0.0
 20
0.0
 11
420.0
 21
297.0
 12
0.0
 22
0.0
 32
0.0
 14
-55.01780000000012
 24
-49.97073246008785
 34
0.0
 15
102.1619338153456
 25
56.31209146544764
 35
0.0
146
0.0
 13
0.0
 23
0.0
 33
0.0
 16
1.0
 26
0.0
 36
0.0
 17
0.0
 27
1.0
 37
0.0
 76
     0
330
1F
331
29
  0
MLINESTYLE
  5
18
102
{ACAD_REACTORS
330
17
102
}
330
17
100
AcDbMlineStyle
  2
Standard
 70
     0
  3

 62
   256
 51
90.0
 52
90.0
 71
     2
 49
0.5
 62
   256
  6
BYLAYER
 49
-0.5
 62
   256
  6
BYLAYER
  0
ACDBPLACEHOLDER
  5
F
102
{ACAD_REACTORS
330
E
102
}
330
E
  0
SCALE
  5
48
102
{ACAD_REACTORS
330
47
102
}
330
47
100
AcDbScale
 70
     0
300
1:1
140
1.0
141
1.0
290
     1
  0
SCALE
  5
49
102
{ACAD_REACTORS
330
47
102
}
330
47
100
AcDbScale
 70
     0
300
1:2
140
1.0
141
2.0
290
     0
  0
SCALE
  5
4A
102
{ACAD_REACTORS
330
47
102
}
330
47
100
AcDbScale
 70
     0
300
1:4
140
1.0
141
4.0
290
     0
  0
SCALE
  5
4B
102
{ACAD_REACTORS
330
47
102
}
330
47
100
AcDbScale
 70
     0
300
1:5
140
1.0
141
5.0
290
     0
  0
SCALE
  5
4C
102
{ACAD_REACTORS
330
47
102
}
330
47
100
AcDbScale
 70
     0
300
1:8
140
1.0
141
8.0
290
     0
  0
SCALE
  5
4D
102
{ACAD_REACTORS
330
47
102
}
330
47
100
AcDbScale
 70
     0
300
1:10
140
1.0
141
10.0
290
     0
  0
SCALE
  5
4E
102
{ACAD_REACTORS
330
47
102
}
330
47
100
AcDbScale
 70
     0
300
1:16
140
1.0
141
16.0
290
     0
  0
SCALE
  5
4F
102
{ACAD_REACTORS
330
47
102
}
330
47
100
AcDbScale
 70
     0
300
1:20
140
1.0
141
20.0
290
     0
  0
SCALE
  5
50
102
{ACAD_REACTORS
330
47
102
}
330
47
100
AcDbScale
 70
     0
300
1:30
140
1.0
141
30.0
290
     0
  0
SCALE
  5
51
102
{ACAD_REACTORS
330
47
102
}
330
47
100
AcDbScale
 70
     0
300
1:40
140
1.0
141
40.0
290
     0
  0
SCALE
  5
52
102
{ACAD_REACTORS
330
47
102
}
330
47
100
AcDbScale
 70
     0
300
1:50
140
1.0
141
50.0
290
     0
  0
SCALE
  5
53
102
{ACAD_REACTORS
330
47
102
}
330
47
100
AcDbScale
 70
     0
300
1:100
140
1.0
141
100.0
290
     0
  0
SCALE
  5
54
102
{ACAD_REACTORS
330
47
102
}
330
47
100
AcDbScale
 70
     0
300
2:1
140
2.0
141
1.0
290
     0
  0
SCALE
  5
55
102
{ACAD_REACTORS
330
47
102
}
330
47
100
AcDbScale
 70
     0
300
4:1
140
4.0
141
1.0
290
     0
  0
SCALE
  5
56
102
{ACAD_REACTORS
330
47
102
}
330
47
100
AcDbScale
 70
     0
300
8:1
140
8.0
141
1.0
290
     0
  0
SCALE
  5
57
102
{ACAD_REACTORS
330
47
102
}
330
47
100
AcDbScale
 70
     0
300
10:1
140
10.0
141
1.0
290
     0
  0
SCALE
  5
58
102
{ACAD_REACTORS
330
47
102
}
330
47
100
AcDbScale
 70
     0
300
100:1
140
100.0
141
1.0
290
     0
  0
SCALE
  5
59
102
{ACAD_REACTORS
330
47
102
}
330
47
100
AcDbScale
 70
     0
300
1/128" = 1'-0"
140
0.0078125
141
12.0
290
     0
  0
SCALE
  5
5A
102
{ACAD_REACTORS
330
47
102
}
330
47
100
AcDbScale
 70
     0
300
1/64" = 1'-0"
140
0.015625
141
12.0
290
     0
  0
SCALE
  5
5B
102
{ACAD_REACTORS
330
47
102
}
330
47
100
AcDbScale
 70
     0
300
1/32" = 1'-0"
140
0.03125
141
12.0
290
     0
  0
SCALE
  5
5C
102
{ACAD_REACTORS
330
47
102
}
330
47
100
AcDbScale
 70
     0
300
1/16" = 1'-0"
140
0.0625
141
12.0
290
     0
  0
SCALE
  5
5D
102
{ACAD_REACTORS
330
47
102
}
330
47
100
AcDbScale
 70
     0
300
3/32" = 1'-0"
140
0.09375
141
12.0
290
     0
  0
SCALE
  5
5E
102
{ACAD_REACTORS
330
47
102
}
330
47
100
AcDbScale
 70
     0
300
1/8" = 1'-0"
140
0.125
141
12.0
290
     0
  0
SCALE
  5
5F
102
{ACAD_REACTORS
330
47
102
}
330
47
100
AcDbScale
 70
     0
300
3/16" = 1'-0"
140
0.1875
141
12.0
290
     0
  0
SCALE
  5
60
102
{ACAD_REACTORS
330
47
102
}
330
47
100
AcDbScale
 70
     0
300
1/4" = 1'-0"
140
0.25
141
12.0
290
     0
  0
SCALE
  5
61
102
{ACAD_REACTORS
330
47
102
}
330
47
100
AcDbScale
 70
     0
300
3/8" = 1'-0"
140
0.375
141
12.0
290
     0
  0
SCALE
  5
62
102
{ACAD_REACTORS
330
47
102
}
330
47
100
AcDbScale
 70
     0
300
1/2" = 1'-0"
140
0.5
141
12.0
290
     0
  0
SCALE
  5
63
102
{ACAD_REACTORS
330
47
102
}
330
47
100
AcDbScale
 70
     0
300
3/4" = 1'-0"
140
0.75
141
12.0
290
     0
  0
SCALE
  5
64
102
{ACAD_REACTORS
330
47
102
}
330
47
100
AcDbScale
 70
     0
300
1" = 1'-0"
140
1.0
141
12.0
290
     0
  0
SCALE
  5
65
102
{ACAD_REACTORS
330
47
102
}
330
47
100
AcDbScale
 70
     0
300
1-1/2" = 1'-0"
140
1.5
141
12.0
290
     0
  0
SCALE
  5
66
102
{ACAD_REACTORS
330
47
102
}
330
47
100
AcDbScale
 70
     0
300
3" = 1'-0"
140
3.0
141
12.0
290
     0
  0
SCALE
  5
67
102
{ACAD_REACTORS
330
47
102
}
330
47
100
AcDbScale
 70
     0
300
6" = 1'-0"
140
6.0
141
12.0
290
     0
  0
SCALE
  5
68
102
{ACAD_REACTORS
330
47
102
}
330
47
100
AcDbScale
 70
     0
300
1'-0" = 1'-0"
140
12.0
141
12.0
290
     0
  0
ENDSEC
  0
EOF
