  0
SECTION
  2
HEADER
  9
$ACADVER
  1
AC1015
  9
$ACADMAINTVER
 70
     6
  9
$DWGCODEPAGE
  3
ANSI_949
  9
$INSBASE
 10
0.0
 20
0.0
 30
0.0
  9
$EXTMIN
 10
-42.57698977648968
 20
-49.97073246008785
 30
0.0
  9
$EXTMAX
 10
68.1115600266989
 20
28.37500000000005
 30
0.0
  9
$LIMMIN
 10
0.0
 20
0.0
  9
$LIMMAX
 10
420.0
 20
297.0
  9
$ORTHOMODE
 70
     0
  9
$REGENMODE
 70
     1
  9
$FILLMODE
 70
     1
  9
$QTEXTMODE
 70
     0
  9
$MIRRTEXT
 70
     1
  9
$LTSCALE
 40
1.0
  9
$ATTMODE
 70
     1
  9
$TEXTSIZE
 40
3.5
  9
$TRACEWID
 40
1.0
  9
$TEXTSTYLE
  7
Standard
  9
$CLAYER
  8
0
  9
$CELTYPE
  6
ByLayer
  9
$CECOLOR
 62
   256
  9
$CELTSCALE
 40
1.0
  9
$DISPSILH
 70
     0
  9
$DIMSCALE
 40
1.0
  9
$DIMASZ
 40
3.302
  9
$DIMEXO
 40
1.0
  9
$DIMDLI
 40
3.75
  9
$DIMRND
 40
0.0
  9
$DIMDLE
 40
0.0
  9
$DIMEXE
 40
1.0
  9
$DIMTP
 40
0.0
  9
$DIMTM
 40
0.0
  9
$DIMTXT
 40
3.5
  9
$DIMCEN
 40
2.5
  9
$DIMTSZ
 40
0.0
  9
$DIMTOL
 70
     0
  9
$DIMLIM
 70
     0
  9
$DIMTIH
 70
     1
  9
$DIMTOH
 70
     1
  9
$DIMSE1
 70
     0
  9
$DIMSE2
 70
     0
  9
$DIMTAD
 70
     1
  9
$DIMZIN
 70
     0
  9
$DIMBLK
  1

  9
$DIMASO
 70
     1
  9
$DIMSHO
 70
     1
  9
$DIMPOST
  1

  9
$DIMAPOST
  1

  9
$DIMALT
 70
     0
  9
$DIMALTD
 70
     3
  9
$DIMALTF
 40
0.0393700787401575
  9
$DIMLFAC
 40
1.0
  9
$DIMTOFL
 70
     1
  9
$DIMTVP
 40
0.0
  9
$DIMTIX
 70
     0
  9
$DIMSOXD
 70
     0
  9
$DIMSAH
 70
     0
  9
$DIMBLK1
  1

  9
$DIMBLK2
  1

  9
$DIMSTYLE
  2
ISO-25
  9
$DIMCLRD
 70
     0
  9
$DIMCLRE
 70
     0
  9
$DIMCLRT
 70
     0
  9
$DIMTFAC
 40
1.0
  9
$DIMGAP
 40
1.524
  9
$DIMJUST
 70
     0
  9
$DIMSD1
 70
     0
  9
$DIMSD2
 70
     0
  9
$DIMTOLJ
 70
     0
  9
$DIMTZIN
 70
     0
  9
$DIMALTZ
 70
     0
  9
$DIMALTTZ
 70
     0
  9
$DIMUPT
 70
     0
  9
$DIMDEC
 70
     2
  9
$DIMTDEC
 70
     2
  9
$DIMALTU
 70
     2
  9
$DIMALTTD
 70
     3
  9
$DIMTXSTY
  7
Standard
  9
$DIMAUNIT
 70
     0
  9
$DIMADEC
 70
     2
  9
$DIMALTRND
 40
0.0
  9
$DIMAZIN
 70
     0
  9
$DIMDSEP
 70
    44
  9
$DIMATFIT
 70
     3
  9
$DIMFRAC
 70
     0
  9
$DIMLDRBLK
  1

  9
$DIMLUNIT
 70
     2
  9
$DIMLWD
 70
    -2
  9
$DIMLWE
 70
    -2
  9
$DIMTMOVE
 70
     0
  9
$LUNITS
 70
     2
  9
$LUPREC
 70
     2
  9
$SKETCHINC
 40
1.0
  9
$FILLETRAD
 40
10.0
  9
$AUNITS
 70
     0
  9
$AUPREC
 70
     2
  9
$MENU
  1
.
  9
$ELEVATION
 40
0.0
  9
$PELEVATION
 40
0.0
  9
$THICKNESS
 40
0.0
  9
$LIMCHECK
 70
     0
  9
$CHAMFERA
 40
0.0
  9
$CHAMFERB
 40
0.0
  9
$CHAMFERC
 40
0.0
  9
$CHAMFERD
 40
0.0
  9
$SKPOLY
 70
     0
  9
$TDCREATE
 40
2458285.472570394
  9
$TDUCREATE
 40
2458285.097570394
  9
$TDUPDATE
 40
2458292.649051968
  9
$TDUUPDATE
 40
2458292.274051968
  9
$TDINDWG
 40
0.0011914931
  9
$TDUSRTIMER
 40
0.0000476968
  9
$USRTIMER
 70
     1
  9
$ANGBASE
 50
0.0
  9
$ANGDIR
 70
     0
  9
$PDMODE
 70
     0
  9
$PDSIZE
 40
-1.0
  9
$PLINEWID
 40
0.0
  9
$SPLFRAME
 70
     0
  9
$SPLINETYPE
 70
     6
  9
$SPLINESEGS
 70
     8
  9
$HANDSEED
  5
25E
  9
$SURFTAB1
 70
     6
  9
$SURFTAB2
 70
     6
  9
$SURFTYPE
 70
     6
  9
$SURFU
 70
     6
  9
$SURFV
 70
     6
  9
$UCSBASE
  2

  9
$UCSNAME
  2

  9
$UCSORG
 10
0.0
 20
0.0
 30
0.0
  9
$UCSXDIR
 10
1.0
 20
0.0
 30
0.0
  9
$UCSYDIR
 10
0.0
 20
1.0
 30
0.0
  9
$UCSORTHOREF
  2

  9
$UCSORTHOVIEW
 70
     0
  9
$UCSORGTOP
 10
0.0
 20
0.0
 30
0.0
  9
$UCSORGBOTTOM
 10
0.0
 20
0.0
 30
0.0
  9
$UCSORGLEFT
 10
0.0
 20
0.0
 30
0.0
  9
$UCSORGRIGHT
 10
0.0
 20
0.0
 30
0.0
  9
$UCSORGFRONT
 10
0.0
 20
0.0
 30
0.0
  9
$UCSORGBACK
 10
0.0
 20
0.0
 30
0.0
  9
$PUCSBASE
  2

  9
$PUCSNAME
  2

  9
$PUCSORG
 10
0.0
 20
0.0
 30
0.0
  9
$PUCSXDIR
 10
1.0
 20
0.0
 30
0.0
  9
$PUCSYDIR
 10
0.0
 20
1.0
 30
0.0
  9
$PUCSORTHOREF
  2

  9
$PUCSORTHOVIEW
 70
     0
  9
$PUCSORGTOP
 10
0.0
 20
0.0
 30
0.0
  9
$PUCSORGBOTTOM
 10
0.0
 20
0.0
 30
0.0
  9
$PUCSORGLEFT
 10
0.0
 20
0.0
 30
0.0
  9
$PUCSORGRIGHT
 10
0.0
 20
0.0
 30
0.0
  9
$PUCSORGFRONT
 10
0.0
 20
0.0
 30
0.0
  9
$PUCSORGBACK
 10
0.0
 20
0.0
 30
0.0
  9
$USERI1
 70
     0
  9
$USERI2
 70
     0
  9
$USERI3
 70
     0
  9
$USERI4
 70
     0
  9
$USERI5
 70
     0
  9
$USERR1
 40
0.0
  9
$USERR2
 40
0.0
  9
$USERR3
 40
0.0
  9
$USERR4
 40
0.0
  9
$USERR5
 40
0.0
  9
$WORLDVIEW
 70
     1
  9
$SHADEDGE
 70
     3
  9
$SHADEDIF
 70
    70
  9
$TILEMODE
 70
     1
  9
$MAXACTVP
 70
    64
  9
$PINSBASE
 10
0.0
 20
0.0
 30
0.0
  9
$PLIMCHECK
 70
     0
  9
$PEXTMIN
 10
1.000000000000000E+20
 20
1.000000000000000E+20
 30
1.000000000000000E+20
  9
$PEXTMAX
 10
-1.000000000000000E+20
 20
-1.000000000000000E+20
 30
-1.000000000000000E+20
  9
$PLIMMIN
 10
0.0
 20
0.0
  9
$PLIMMAX
 10
0.0
 20
0.0
  9
$UNITMODE
 70
     0
  9
$VISRETAIN
 70
     1
  9
$PLINEGEN
 70
     0
  9
$PSLTSCALE
 70
     1
  9
$TREEDEPTH
 70
  3020
  9
$CMLSTYLE
  2
Standard
  9
$CMLJUST
 70
     0
  9
$CMLSCALE
 40
20.0
  9
$PROXYGRAPHICS
 70
     1
  9
$MEASUREMENT
 70
     1
  9
$CELWEIGHT
370
    -1
  9
$ENDCAPS
280
     0
  9
$JOINSTYLE
280
     0
  9
$LWDISPLAY
290
     1
  9
$INSUNITS
 70
     4
  9
$HYPERLINKBASE
  1

  9
$STYLESHEET
  1

  9
$XEDIT
290
     1
  9
$CEPSNTYPE
380
     0
  9
$PSTYLEMODE
290
     1
  9
$FINGERPRINTGUID
  2
{3B4D2FAF-F21C-4530-8F43-D334B121AEED}
  9
$VERSIONGUID
  2
{FAEB1C32-E019-11D5-929B-00C0DF256EC4}
  9
$EXTNAMES
290
     1
  9
$PSVPSCALE
 40
0.0
  9
$OLESTARTUP
290
     0
  0
ENDSEC
  0
SECTION
  2
CLASSES
  0
CLASS
  1
ACDBDICTIONARYWDFLT
  2
AcDbDictionaryWithDefault
  3
ObjectDBX Classes
 90
        0
280
     0
281
     0
  0
CLASS
  1
VISUALSTYLE
  2
AcDbVisualStyle
  3
ObjectDBX Classes
 90
     4095
280
     0
281
     0
  0
CLASS
  1
MATERIAL
  2
AcDbMaterial
  3
ObjectDBX Classes
 90
     1153
280
     0
281
     0
  0
CLASS
  1
SCALE
  2
AcDbScale
  3
ObjectDBX Classes
 90
     1153
280
     0
281
     0
  0
CLASS
  1
SUN
  2
AcDbSun
  3
SCENEOE
 90
     1153
280
     0
281
     0
  0
CLASS
  1
ACDBPLACEHOLDER
  2
AcDbPlaceHolder
  3
ObjectDBX Classes
 90
        0
280
     0
281
     0
  0
CLASS
  1
LAYOUT
  2
AcDbLayout
  3
ObjectDBX Classes
 90
        0
280
     0
281
     0
  0
CLASS
  1
TABLESTYLE
  2
AcDbTableStyle
  3
ObjectDBX Classes
 90
     4095
280
     0
281
     0
  0
CLASS
  1
MLEADERSTYLE
  2
AcDbMLeaderStyle
  3
ACDB_MLEADERSTYLE_CLASS
 90
     4095
280
     0
281
     0
  0
ENDSEC
  0
SECTION
  2
TABLES
  0
TABLE
  2
VPORT
  5
8
330
0
100
AcDbSymbolTable
 70
     1
  0
VPORT
  5
29
330
8
100
AcDbSymbolTableRecord
100
AcDbViewportTableRecord
  2
*Active
 70
     0
 10
0.0
 20
0.0
 11
1.0
 21
1.0
 12
12.76728512510461
 22
-10.7978662300439
 13
0.0
 23
0.0
 14
10.0
 24
10.0
 15
10.0
 25
10.0
 16
0.0
 26
0.0
 36
1.0
 17
0.0
 27
0.0
 37
0.0
 40
79.91264710928967
 41
2.174863387978142
 42
50.0
 43
0.0
 44
0.0
 50
0.0
 51
0.0
 71
    16
 72
  2000
 73
     1
 74
     3
 75
     0
 76
     0
 77
     0
 78
     0
281
     0
 65
     1
110
0.0
120
0.0
130
0.0
111
1.0
121
0.0
131
0.0
112
0.0
122
1.0
132
0.0
 79
     0
146
0.0
  0
ENDTAB
  0
TABLE
  2
LTYPE
  5
5
330
0
100
AcDbSymbolTable
 70
     6
  0
LTYPE
  5
14
330
5
100
AcDbSymbolTableRecord
100
AcDbLinetypeTableRecord
  2
ByBlock
 70
     0
  3

 72
    65
 73
     0
 40
0.0
  0
LTYPE
  5
15
330
5
100
AcDbSymbolTableRecord
100
AcDbLinetypeTableRecord
  2
ByLayer
 70
     0
  3

 72
    65
 73
     0
 40
0.0
  0
LTYPE
  5
16
330
5
100
AcDbSymbolTableRecord
100
AcDbLinetypeTableRecord
  2
Continuous
 70
     0
  3
Solid line
 72
    65
 73
     0
 40
0.0
  0
LTYPE
  5
6A
330
5
100
AcDbSymbolTableRecord
100
AcDbLinetypeTableRecord
  2
HIDDEN
 70
     0
  3
Hidden __ __ __ __ __ __ __ __ __ __ __ __ __ __
 72
    65
 73
     2
 40
1.905
 49
1.27
 74
     0
 49
-0.635
 74
     0
  0
LTYPE
  5
6B
330
5
100
AcDbSymbolTableRecord
100
AcDbLinetypeTableRecord
  2
PHANTOM
 70
     0
  3
Phantom ______  __  __  ______  __  __  ______
 72
    65
 73
     6
 40
12.7
 49
6.35
 74
     0
 49
-1.27
 74
     0
 49
1.27
 74
     0
 49
-1.27
 74
     0
 49
1.27
 74
     0
 49
-1.27
 74
     0
  0
LTYPE
  5
6C
330
5
100
AcDbSymbolTableRecord
100
AcDbLinetypeTableRecord
  2
CENTER
 70
     0
  3
Center ____ _ ____ _ ____ _ ____ _ ____ _ ____
 72
    65
 73
     4
 40
10.16
 49
6.35
 74
     0
 49
-1.27
 74
     0
 49
1.27
 74
     0
 49
-1.27
 74
     0
  0
LTYPE
  5
6D
330
5
100
AcDbSymbolTableRecord
100
AcDbLinetypeTableRecord
  2
CENTERX2
 70
     0
  3
Center (2x) ________  __  ________  __  _____
 72
    65
 73
     4
 40
20.32
 49
12.7
 74
     0
 49
-2.54
 74
     0
 49
2.54
 74
     0
 49
-2.54
 74
     0
  0
LTYPE
  5
6E
330
5
100
AcDbSymbolTableRecord
100
AcDbLinetypeTableRecord
  2
DOT2
 70
     0
  3
Dot (.5x) ........................................
 72
    65
 73
     2
 40
0.635
 49
0.0
 74
     0
 49
-0.635
 74
     0
  0
ENDTAB
  0
TABLE
  2
LAYER
  5
2
330
0
100
AcDbSymbolTable
 70
    18
  0
LAYER
  5
10
330
2
100
AcDbSymbolTableRecord
100
AcDbLayerTableRecord
  2
0
 70
     0
 62
     7
  6
Continuous
370
    -3
390
F
  0
LAYER
  5
6F
330
2
100
AcDbSymbolTableRecord
100
AcDbLayerTableRecord
  2
FORMAT
 70
     0
 62
     2
  6
Continuous
370
    -3
390
F
  0
LAYER
  5
70
330
2
100
AcDbSymbolTableRecord
100
AcDbLayerTableRecord
  2
외형선
 70
     0
 62
     4
  6
Continuous
370
    30
390
F
  0
LAYER
  5
71
330
2
100
AcDbSymbolTableRecord
100
AcDbLayerTableRecord
  2
숨은선
 70
     0
 62
     2
  6
HIDDEN
370
    15
390
F
  0
LAYER
  5
72
330
2
100
AcDbSymbolTableRecord
100
AcDbLayerTableRecord
  2
중심선
 70
     0
 62
     1
  6
CENTERX2
370
    -3
390
F
  0
LAYER
  5
73
330
2
100
AcDbSymbolTableRecord
100
AcDbLayerTableRecord
  2
파단선
 70
     0
 62
     4
  6
Continuous
370
    -3
390
F
  0
LAYER
  5
74
330
2
100
AcDbSymbolTableRecord
100
AcDbLayerTableRecord
  2
해칭선
 70
     0
 62
   100
  6
Continuous
370
    -3
390
F
  0
LAYER
  5
75
330
2
100
AcDbSymbolTableRecord
100
AcDbLayerTableRecord
  2
가는실선
 70
     0
 62
     4
  6
Continuous
370
    -3
390
F
  0
LAYER
  5
76
330
2
100
AcDbSymbolTableRecord
100
AcDbLayerTableRecord
  2
치수_보조선
 70
     0
 62
     4
  6
Continuous
370
    -3
390
F
  0
LAYER
  5
77
330
2
100
AcDbSymbolTableRecord
100
AcDbLayerTableRecord
  2
치수문자_일반주서
 70
     0
 62
     7
  6
Continuous
370
    15
390
F
  0
LAYER
  5
78
330
2
100
AcDbSymbolTableRecord
100
AcDbLayerTableRecord
  2
개별주서
 70
     0
 62
   100
  6
Continuous
370
    30
390
F
  0
LAYER
  5
79
330
2
100
AcDbSymbolTableRecord
100
AcDbLayerTableRecord
  2
중간선
 70
     0
 62
     2
  6
Continuous
370
    15
390
F
  0
LAYER
  5
7A
330
2
100
AcDbSymbolTableRecord
100
AcDbLayerTableRecord
  2
윤곽선
 70
     0
 62
     3
  6
Continuous
370
    40
390
F
  0
LAYER
  5
7B
330
2
100
AcDbSymbolTableRecord
100
AcDbLayerTableRecord
  2
중심마크
 70
     0
 62
   100
  6
Continuous
370
    30
390
F
  0
LAYER
  5
7C
330
2
100
AcDbSymbolTableRecord
100
AcDbLayerTableRecord
  2
가상선
 70
     0
 62
     4
  6
PHANTOM
370
    -3
390
F
  0
LAYER
  5
7D
330
2
100
AcDbSymbolTableRecord
100
AcDbLayerTableRecord
  2
특수지정선
 70
     0
 62
     5
  6
CENTERX2
370
    60
390
F
  0
LAYER
  5
7E
330
2
100
AcDbSymbolTableRecord
100
AcDbLayerTableRecord
  2
참조1
 70
     0
 62
    -4
  6
Continuous
370
    -3
390
F
  0
LAYER
  5
12F
330
2
100
AcDbSymbolTableRecord
100
AcDbLayerTableRecord
  2
Defpoints
 70
     0
 62
     7
  6
Continuous
290
     0
370
    -3
390
F
  0
ENDTAB
  0
TABLE
  2
STYLE
  5
3
330
0
100
AcDbSymbolTable
 70
     2
  0
STYLE
  5
11
330
3
100
AcDbSymbolTableRecord
100
AcDbTextStyleTableRecord
  2
Standard
 70
     0
 40
0.0
 41
1.0
 50
0.0
 71
     0
 42
3.5
  3
txt
  4

  0
STYLE
  5
94
330
3
100
AcDbSymbolTableRecord
100
AcDbTextStyleTableRecord
  2
SLDTEXTSTYLE0
 70
     0
 40
0.0
 41
0.75
 50
0.0
 71
     0
 42
3.5
  3
TXT
  4

  0
ENDTAB
  0
TABLE
  2
VIEW
  5
6
330
0
100
AcDbSymbolTable
 70
     0
  0
ENDTAB
  0
TABLE
  2
UCS
  5
7
330
0
100
AcDbSymbolTable
 70
     0
  0
ENDTAB
  0
TABLE
  2
APPID
  5
9
330
0
100
AcDbSymbolTable
 70
     2
  0
APPID
  5
12
330
9
100
AcDbSymbolTableRecord
100
AcDbRegAppTableRecord
  2
ACAD
 70
     0
  0
APPID
  5
13C
330
9
100
AcDbSymbolTableRecord
100
AcDbRegAppTableRecord
  2
PE_URL
 70
     0
  0
ENDTAB
  0
TABLE
  2
DIMSTYLE
  5
A
330
0
100
AcDbSymbolTable
 70
     4
100
AcDbDimStyleTable
  0
DIMSTYLE
105
27
330
A
100
AcDbSymbolTableRecord
100
AcDbDimStyleTableRecord
  2
ISO-25
 70
     0
 41
2.5
 42
0.625
 43
3.75
 44
1.25
 73
     0
 74
     0
 77
     1
 78
     8
140
2.5
141
2.5
143
0.03937007874016
147
0.625
171
     3
172
     1
178
     0
271
     2
272
     2
274
     3
278
    44
283
     0
284
     8
340
11
  0
DIMSTYLE
105
CC
102
{ACAD_REACTORS
330
1F6
330
1F9
102
}
330
A
100
AcDbSymbolTableRecord
100
AcDbDimStyleTableRecord
  2
SLDDIMSTYLE0
 70
     0
 41
3.302
 44
0.0
 45
0.000000001
 73
     0
 74
     0
 77
     1
 78
     4
 79
     1
140
3.5
147
0.875
172
     1
173
     1
178
     0
271
     2
272
     2
276
     2
284
    12
289
     0
340
94
  0
DIMSTYLE
105
D9
102
{ACAD_REACTORS
330
1F7
102
}
330
A
100
AcDbSymbolTableRecord
100
AcDbDimStyleTableRecord
  2
SLDDIMSTYLE1
 70
     0
 41
3.302
 44
0.0
 45
0.000000001
 73
     0
 74
     0
 77
     1
 78
    12
 79
     3
140
3.5
147
0.875
173
     1
178
     0
271
     2
272
     2
276
     2
284
    12
340
94
  0
DIMSTYLE
105
E4
102
{ACAD_REACTORS
330
1F8
102
}
330
A
100
AcDbSymbolTableRecord
100
AcDbDimStyleTableRecord
  2
SLDDIMSTYLE2
 70
     0
 41
3.302
 44
0.0
 45
0.000000001
 73
     0
 74
     0
 77
     1
 78
    12
 79
     3
140
3.5
147
0.875
172
     1
173
     1
178
     0
271
     2
272
     2
276
     2
284
    12
289
     0
340
94
  0
ENDTAB
  0
TABLE
  2
BLOCK_RECORD
  5
1
330
0
100
AcDbSymbolTable
 70
    15
  0
BLOCK_RECORD
  5
1F
330
1
100
AcDbSymbolTableRecord
100
AcDbBlockTableRecord
  2
*Model_Space
340
22
  0
BLOCK_RECORD
  5
1B
330
1
100
AcDbSymbolTableRecord
100
AcDbBlockTableRecord
  2
*Paper_Space
340
1E
  0
BLOCK_RECORD
  5
23
330
1
100
AcDbSymbolTableRecord
100
AcDbBlockTableRecord
  2
*Paper_Space0
340
26
  0
BLOCK_RECORD
  5
7F
330
1
100
AcDbSymbolTableRecord
100
AcDbBlockTableRecord
  2
블럭10
340
0
102
{BLKREFS
331
C4
102
}
  0
BLOCK_RECORD
  5
CD
330
1
100
AcDbSymbolTableRecord
100
AcDbBlockTableRecord
  2
_D
340
0
  0
BLOCK_RECORD
  5
DA
330
1
100
AcDbSymbolTableRecord
100
AcDbBlockTableRecord
  2
_D_1
340
0
  0
BLOCK_RECORD
  5
E5
330
1
100
AcDbSymbolTableRecord
100
AcDbBlockTableRecord
  2
_D_2
340
0
  0
BLOCK_RECORD
  5
F2
330
1
100
AcDbSymbolTableRecord
100
AcDbBlockTableRecord
  2
_D_3
340
0
  0
BLOCK_RECORD
  5
105
330
1
100
AcDbSymbolTableRecord
100
AcDbBlockTableRecord
  2
SW_DOWELSYMBOL_0
340
0
102
{BLKREFS
331
1FA
102
}
  0
BLOCK_RECORD
  5
184
330
1
100
AcDbSymbolTableRecord
100
AcDbBlockTableRecord
  2
*D7
340
0
  0
BLOCK_RECORD
  5
194
330
1
100
AcDbSymbolTableRecord
100
AcDbBlockTableRecord
  2
*D8
340
0
  0
BLOCK_RECORD
  5
1A1
330
1
100
AcDbSymbolTableRecord
100
AcDbBlockTableRecord
  2
*D9
340
0
  0
BLOCK_RECORD
  5
1B1
330
1
100
AcDbSymbolTableRecord
100
AcDbBlockTableRecord
  2
*D10
340
0
  0
BLOCK_RECORD
  5
1FF
330
1
100
AcDbSymbolTableRecord
100
AcDbBlockTableRecord
  2
*D11
340
0
  0
BLOCK_RECORD
  5
20E
330
1
100
AcDbSymbolTableRecord
100
AcDbBlockTableRecord
  2
*D12
340
0
  0
BLOCK_RECORD
  5
21A
330
1
100
AcDbSymbolTableRecord
100
AcDbBlockTableRecord
  2
*D13
340
0
  0
BLOCK_RECORD
  5
229
330
1
100
AcDbSymbolTableRecord
100
AcDbBlockTableRecord
  2
*D14
340
0
  0
ENDTAB
  0
ENDSEC
  0
SECTION
  2
BLOCKS
  0
BLOCK
  5
20
330
1F
100
AcDbEntity
  8
0
100
AcDbBlockBegin
  2
*Model_Space
 70
     0
 10
0.0
 20
0.0
 30
0.0
  3
*Model_Space
  1

  0
ENDBLK
  5
21
330
1F
100
AcDbEntity
  8
0
100
AcDbBlockEnd
  0
BLOCK
  5
1C
330
1B
100
AcDbEntity
 67
     1
  8
0
100
AcDbBlockBegin
  2
*Paper_Space
 70
     0
 10
0.0
 20
0.0
 30
0.0
  3
*Paper_Space
  1

  0
ENDBLK
  5
1D
330
1B
100
AcDbEntity
 67
     1
  8
0
100
AcDbBlockEnd
  0
BLOCK
  5
24
330
23
100
AcDbEntity
  8
0
100
AcDbBlockBegin
  2
*Paper_Space0
 70
     0
 10
0.0
 20
0.0
 30
0.0
  3
*Paper_Space0
  1

  0
ENDBLK
  5
25
330
23
100
AcDbEntity
  8
0
100
AcDbBlockEnd
  0
BLOCK
  5
80
330
7F
100
AcDbEntity
  8
0
100
AcDbBlockBegin
  2
블럭10
 70
     2
 10
0.0
 20
0.0
 30
0.0
  3
블럭10
  1

  0
ELLIPSE
  5
82
330
7F
100
AcDbEntity
  8
중심선
100
AcDbEllipse
 10
20.54032771741204
 20
12.0471743016438
 30
0.0
 11
6.600054785286829
 21
-1.261213355974178E-13
 31
0.0
210
0.0
220
0.0
230
1.0
 40
0.636358354079598
 41
0.9219305317359503
 42
6.513795318482858
  0
ELLIPSE
  5
83
330
7F
100
AcDbEntity
  8
중심선
100
AcDbEllipse
 10
20.54032771746488
 20
12.04717430159265
 30
0.0
 11
3.960054785062283
 21
1.540847449632565E-10
 31
0.0
210
0.0
220
0.0
230
1.0
 40
0.3939339440162632
 41
1.131841032648279
 42
5.62031148352944
  0
LINE
  5
84
330
7F
100
AcDbEntity
  8
중심선
100
AcDbLine
 10
2.268634060543552
 20
16.24717430164393
 30
0.0
 11
5.714909304380834
 21
16.24717430164393
 31
0.0
  0
LINE
  5
85
330
7F
100
AcDbEntity
  8
중심선
100
AcDbLine
 10
5.245725140726316
 20
7.84717430164391
 30
0.0
 11
8.692000384563599
 21
7.84717430164391
 31
0.0
  0
LINE
  5
86
330
7F
100
AcDbEntity
  8
중심선
100
AcDbLine
 10
15.74043728645272
 20
16.24717430164393
 30
0.0
 11
8.692000384563599
 21
7.84717430164391
 31
0.0
  0
LINE
  5
87
330
7F
100
AcDbEntity
  8
중심선
100
AcDbLine
 10
0.1404042013395286
 20
13.71084872107135
 30
0.0
 11
3.58671253028996
 21
13.71088815037384
 31
0.0
  0
LINE
  5
88
330
7F
100
AcDbEntity
  8
중심선
100
AcDbLine
 10
2.750260043222114
 20
10.84717430164391
 30
0.0
 11
6.196535287059397
 21
10.84717430164391
 31
0.0
  0
LINE
  5
89
330
7F
100
AcDbEntity
  8
중심선
100
AcDbLine
 10
12.29416204261559
 20
16.24717430164393
 30
0.0
 11
5.245725140726316
 21
7.84717430164391
 31
0.0
  0
LINE
  5
8A
330
7F
100
AcDbEntity
  8
중심선
100
AcDbLine
 10
10.72767329541681
 20
16.24717430164393
 30
0.0
 11
6.196535287059397
 21
10.84717430164391
 31
0.0
  0
LINE
  5
8B
330
7F
100
AcDbEntity
  8
중심선
100
AcDbLine
 10
7.28139805157953
 20
16.24717430164393
 30
0.0
 11
2.750260043222114
 21
10.84717430164391
 31
0.0
  0
LINE
  5
8C
330
7F
100
AcDbEntity
  8
중심선
100
AcDbLine
 10
5.714909304380834
 20
16.24717430164393
 30
0.0
 11
3.58671253028996
 21
13.71088815037384
 31
0.0
  0
LINE
  5
8D
330
7F
100
AcDbEntity
  8
중심선
100
AcDbLine
 10
2.268634060543552
 20
16.24717430164393
 30
0.0
 11
0.1404042013395286
 21
13.71084872107135
 31
0.0
  0
LINE
  5
8E
330
7F
100
AcDbEntity
  8
중심선
100
AcDbLine
 10
7.28139805157953
 20
16.24717430164393
 30
0.0
 11
10.72767329541681
 21
16.24717430164393
 31
0.0
  0
LINE
  5
8F
330
7F
100
AcDbEntity
  8
중심선
100
AcDbLine
 10
12.29416204261559
 20
16.24717430164393
 30
0.0
 11
15.74043728645272
 21
16.24717430164393
 31
0.0
  0
LINE
  5
90
330
7F
100
AcDbEntity
  8
중심선
100
AcDbLine
 10
19.22036997980202
 20
11.08717430171403
 30
0.0
 11
23.66174974927406
 21
11.08717430171406
 31
0.0
  0
LINE
  5
91
330
7F
100
AcDbEntity
  8
중심선
100
AcDbLine
 10
19.22039502424796
 20
13.00717430171391
 30
0.0
 11
19.22036997980202
 21
11.08717430171403
 31
0.0
  0
LINE
  5
92
330
7F
100
AcDbEntity
  8
중심선
100
AcDbLine
 10
19.22039502424796
 20
13.00717430171391
 30
0.0
 11
26.96566020931264
 21
13.00717430171391
 31
0.0
  0
LINE
  5
93
330
7F
100
AcDbEntity
  8
중심선
100
AcDbLine
 10
22.22332737316547
 20
13.45928029700563
 30
0.0
 11
24.52862924686651
 21
15.39360700705356
 31
0.0
  0
ATTDEF
  5
95
330
7F
100
AcDbEntity
  8
FORMAT
 62
     2
100
AcDbText
 10
3.448148490846466
 20
2.075366912832191
 30
0.0
 40
4.233333333333333
  1
EM865013
 41
0.75
  7
SLDTEXTSTYLE0
 11
3.448148490846466
 21
-0.0412997538344756
 31
0.0
100
AcDbAttributeDefinition
  3

  2
AUTOATTR0
 70
     0
 74
     1
  0
ENDBLK
  5
81
330
7F
100
AcDbEntity
  8
0
100
AcDbBlockEnd
  0
BLOCK
  5
CE
330
CD
100
AcDbEntity
  8
0
100
AcDbBlockBegin
  2
_D
 70
     0
 10
0.0
 20
0.0
 30
0.0
  3
_D
  1

  0
SOLID
  5
D0
330
CD
100
AcDbEntity
  8
치수문자_일반주서
100
AcDbTrace
 10
12.09807621135331
 20
15.88539579542508
 30
0.0
 11
15.40007621135331
 21
15.37739579542508
 31
0.0
 12
15.40007621135331
 22
16.39339579542508
 32
0.0
 13
15.40007621135331
 23
16.39339579542508
 33
0.0
  0
SOLID
  5
D1
330
CD
100
AcDbEntity
  8
치수문자_일반주서
100
AcDbTrace
 10
8.598076211353304
 20
15.88539579542508
 30
0.0
 11
5.296076211353304
 21
16.39339579542508
 31
0.0
 12
5.296076211353304
 22
15.37739579542508
 32
0.0
 13
5.296076211353304
 23
15.37739579542508
 33
0.0
  0
LINE
  5
D2
330
CD
100
AcDbEntity
  8
치수문자_일반주서
100
AcDbLine
 10
12.09807621135331
 20
1.689314372773114
 30
0.0
 11
12.09807621135331
 21
16.88539579542508
 31
0.0
  0
LINE
  5
D3
330
CD
100
AcDbEntity
  8
치수문자_일반주서
100
AcDbLine
 10
8.598076211353305
 20
1.651074928723905
 30
0.0
 11
8.598076211353304
 21
16.88539579542508
 31
0.0
  0
LINE
  5
D4
330
CD
100
AcDbEntity
  8
치수문자_일반주서
100
AcDbLine
 10
12.09807621135331
 20
15.88539579542508
 30
0.0
 11
22.28002292215247
 21
15.88539579542508
 31
0.0
  0
LINE
  5
D5
330
CD
100
AcDbEntity
  8
치수문자_일반주서
100
AcDbLine
 10
12.09807621135331
 20
15.88539579542508
 30
0.0
 11
8.598076211353304
 21
15.88539579542508
 31
0.0
  0
LINE
  5
D6
330
CD
100
AcDbEntity
  8
치수문자_일반주서
100
AcDbLine
 10
8.598076211353304
 20
15.88539579542508
 30
0.0
 11
2.248076211353304
 21
15.88539579542508
 31
0.0
  0
MTEXT
  5
D7
330
CD
100
AcDbEntity
  8
치수문자_일반주서
100
AcDbMText
 10
13.22863386123795
 20
20.39713271000398
 30
0.0
 40
3.5
 41
0.0
 71
     1
 72
     1
  1
3.50
  7
SLDTEXTSTYLE0
 73
     1
 44
1.0
  0
ENDBLK
  5
CF
330
CD
100
AcDbEntity
  8
0
100
AcDbBlockEnd
  0
BLOCK
  5
DB
330
DA
100
AcDbEntity
  8
0
100
AcDbBlockBegin
  2
_D_1
 70
     0
 10
0.0
 20
0.0
 30
0.0
  3
_D_1
  1

  0
SOLID
  5
DD
330
DA
100
AcDbEntity
  8
치수문자_일반주서
100
AcDbTrace
 10
12.09807621135331
 20
24.00107492872394
 30
0.0
 11
8.796076211353308
 21
24.50907492872394
 31
0.0
 12
8.796076211353308
 22
23.49307492872394
 32
0.0
 13
8.796076211353308
 23
23.49307492872394
 33
0.0
  0
SOLID
  5
DE
330
DA
100
AcDbEntity
  8
치수문자_일반주서
100
AcDbTrace
 10
-27.9019237886467
 20
24.00107492872394
 30
0.0
 11
-24.5999237886467
 21
23.49307492872394
 31
0.0
 12
-24.5999237886467
 22
24.50907492872394
 32
0.0
 13
-24.5999237886467
 23
24.50907492872394
 33
0.0
  0
LINE
  5
DF
330
DA
100
AcDbEntity
  8
치수문자_일반주서
100
AcDbLine
 10
12.09807621135331
 20
1.689314372773114
 30
0.0
 11
12.09807621135331
 21
25.00107492872394
 31
0.0
  0
LINE
  5
E0
330
DA
100
AcDbEntity
  8
치수문자_일반주서
100
AcDbLine
 10
-27.9019237886467
 20
2.121074928723875
 30
0.0
 11
-27.9019237886467
 21
25.00107492872394
 31
0.0
  0
LINE
  5
E1
330
DA
100
AcDbEntity
  8
치수문자_일반주서
100
AcDbLine
 10
12.09807621135331
 20
24.00107492872394
 30
0.0
 11
-27.9019237886467
 21
24.00107492872394
 31
0.0
  0
MTEXT
  5
E2
330
DA
100
AcDbEntity
  8
치수문자_일반주서
100
AcDbMText
 10
-10.48803498216951
 20
28.51281184330285
 30
0.0
 40
3.5
 41
0.0
 71
     1
 72
     1
  1
40
  7
SLDTEXTSTYLE0
 73
     1
 44
1.0
  0
ENDBLK
  5
DC
330
DA
100
AcDbEntity
  8
0
100
AcDbBlockEnd
  0
BLOCK
  5
E6
330
E5
100
AcDbEntity
  8
0
100
AcDbBlockBegin
  2
_D_2
 70
     0
 10
0.0
 20
0.0
 30
0.0
  3
_D_2
  1

  0
SOLID
  5
E8
330
E5
100
AcDbEntity
  8
치수문자_일반주서
100
AcDbTrace
 10
-41.02192378864672
 20
1.501074928723892
 30
0.0
 11
-40.51392378864671
 21
4.803074928723891
 31
0.0
 12
-41.52992378864672
 22
4.803074928723891
 32
0.0
 13
-41.52992378864672
 23
4.803074928723891
 33
0.0
  0
SOLID
  5
E9
330
E5
100
AcDbEntity
  8
치수문자_일반주서
100
AcDbTrace
 10
-41.02192378864672
 20
-1.498925071276113
 30
0.0
 11
-41.52992378864672
 21
-4.800925071276112
 31
0.0
 12
-40.51392378864671
 22
-4.800925071276112
 32
0.0
 13
-40.51392378864671
 23
-4.800925071276112
 33
0.0
  0
LINE
  5
EA
330
E5
100
AcDbEntity
  8
치수문자_일반주서
100
AcDbLine
 10
-28.52192378864671
 20
1.501074928723893
 30
0.0
 11
-42.02192378864672
 21
1.501074928723892
 31
0.0
  0
LINE
  5
EB
330
E5
100
AcDbEntity
  8
치수문자_일반주서
100
AcDbLine
 10
-28.52192378864671
 20
-1.49892507127611
 30
0.0
 11
-42.02192378864672
 21
-1.498925071276113
 31
0.0
  0
LINE
  5
EC
330
E5
100
AcDbEntity
  8
치수문자_일반주서
100
AcDbLine
 10
-41.02192378864672
 20
1.501074928723892
 30
0.0
 11
-41.02192378864672
 21
7.851074928723892
 31
0.0
  0
LINE
  5
ED
330
E5
100
AcDbEntity
  8
치수문자_일반주서
100
AcDbLine
 10
-41.02192378864672
 20
1.501074928723892
 30
0.0
 11
-41.02192378864672
 21
-1.498925071276113
 31
0.0
  0
LINE
  5
EE
330
E5
100
AcDbEntity
  8
치수문자_일반주서
100
AcDbLine
 10
-41.02192378864672
 20
-1.498925071276113
 30
0.0
 11
-41.02192378864672
 21
-7.848925071276113
 31
0.0
  0
MTEXT
  5
EF
330
E5
100
AcDbEntity
  8
치수문자_일반주서
100
AcDbMText
 10
-45.53366087784857
 20
-3.931199483639895
 30
0.0
 40
3.5
 41
0.0
 71
     1
 72
     1
  1
%%c
  7
SLDTEXTSTYLE0
 11
-7.044195017643634E-15
 21
1.0
 31
0.0
 73
     1
 44
1.0
  0
MTEXT
  5
F0
330
E5
100
AcDbEntity
  8
치수문자_일반주서
100
AcDbMText
 10
-45.58713305450846
 20
1.347237914734186
 30
0.0
 40
3.5
 41
0.0
 71
     1
 72
     1
  1
3
  7
SLDTEXTSTYLE0
 11
-7.044195017643634E-15
 21
1.0
 31
0.0
 73
     1
 44
1.0
  0
ENDBLK
  5
E7
330
E5
100
AcDbEntity
  8
0
100
AcDbBlockEnd
  0
BLOCK
  5
F3
330
F2
100
AcDbEntity
  8
0
100
AcDbBlockBegin
  2
_D_3
 70
     0
 10
0.0
 20
0.0
 30
0.0
  3
_D_3
  1

  0
SOLID
  5
F5
330
F2
100
AcDbEntity
  8
치수문자_일반주서
100
AcDbTrace
 10
36.94508739494491
 20
0.6510749287238901
 30
0.0
 11
37.45308739494492
 21
3.95307492872389
 31
0.0
 12
36.43708739494491
 22
3.95307492872389
 32
0.0
 13
36.43708739494491
 23
3.95307492872389
 33
0.0
  0
SOLID
  5
F6
330
F2
100
AcDbEntity
  8
치수문자_일반주서
100
AcDbTrace
 10
36.94508739494491
 20
-0.6489250712761103
 30
0.0
 11
36.43708739494491
 21
-3.95092507127611
 31
0.0
 12
37.45308739494492
 22
-3.95092507127611
 32
0.0
 13
37.45308739494492
 23
-3.95092507127611
 33
0.0
  0
LINE
  5
F7
330
F2
100
AcDbEntity
  8
치수문자_일반주서
100
AcDbLine
 10
12.4480762113533
 20
0.6510749287238915
 30
0.0
 11
37.94508739494491
 21
0.65107492872389
 31
0.0
  0
LINE
  5
F8
330
F2
100
AcDbEntity
  8
치수문자_일반주서
100
AcDbLine
 10
12.4480762113533
 20
-0.6489250712761089
 30
0.0
 11
37.94508739494491
 21
-0.6489250712761104
 31
0.0
  0
LINE
  5
F9
330
F2
100
AcDbEntity
  8
치수문자_일반주서
100
AcDbLine
 10
36.94508739494491
 20
0.6510749287238901
 30
0.0
 11
36.94508739494491
 21
15.16834454475963
 31
0.0
  0
LINE
  5
FA
330
F2
100
AcDbEntity
  8
치수문자_일반주서
100
AcDbLine
 10
36.94508739494491
 20
0.6510749287238901
 30
0.0
 11
36.94508739494491
 21
-0.6489250712761103
 31
0.0
  0
LINE
  5
FB
330
F2
100
AcDbEntity
  8
치수문자_일반주서
100
AcDbLine
 10
36.94508739494491
 20
-0.6489250712761103
 30
0.0
 11
36.94508739494491
 21
-6.998925071276109
 31
0.0
  0
MTEXT
  5
FC
330
F2
100
AcDbEntity
  8
치수문자_일반주서
100
AcDbMText
 10
32.43335030574308
 20
0.838517154148421
 30
0.0
 40
3.5
 41
0.0
 71
     1
 72
     1
  1
%%c
  7
SLDTEXTSTYLE0
 11
-7.044195017643634E-15
 21
1.0
 31
0.0
 73
     1
 44
1.0
  0
MTEXT
  5
FD
330
F2
100
AcDbEntity
  8
치수문자_일반주서
100
AcDbMText
 10
32.37987812908319
 20
6.1169545525225
 30
0.0
 40
3.5
 41
0.0
 71
     1
 72
     1
  1
1.30
  7
SLDTEXTSTYLE0
 11
-7.044195017643634E-15
 21
1.0
 31
0.0
 73
     1
 44
1.0
  0
ENDBLK
  5
F4
330
F2
100
AcDbEntity
  8
0
100
AcDbBlockEnd
  0
BLOCK
  5
106
330
105
100
AcDbEntity
  8
0
100
AcDbBlockBegin
  2
SW_DOWELSYMBOL_0
 70
     0
 10
0.0
 20
0.0
 30
0.0
  3
SW_DOWELSYMBOL_0
  1

  0
CIRCLE
  5
108
330
105
100
AcDbEntity
  8
해칭선
 62
     0
100
AcDbCircle
 10
0.0
 20
0.0
 30
0.0
 40
3.000000000000001
  0
HATCH
  5
109
330
105
100
AcDbEntity
  8
0
  6
Continuous
 62
     0
370
     0
100
AcDbHatch
 10
0.0
 20
0.0
 30
0.0
210
0.0
220
0.0
230
1.0
  2
SOLID
 70
     1
 71
     0
 91
        1
 92
        0
 93
        3
 72
     2
 10
0.0
 20
0.0
 40
3.000000000000001
 50
0.0
 51
90.0
 73
     1
 72
     1
 10
0.0
 20
3.000000000000001
 11
0.0
 21
0.0
 72
     1
 10
0.0
 20
0.0
 11
3.000000000000001
 21
0.0
 97
        0
 75
     0
 76
     1
 98
        1
 10
0.0
 20
0.0
  0
HATCH
  5
10A
330
105
100
AcDbEntity
  8
0
  6
Continuous
 62
     0
370
     0
100
AcDbHatch
 10
0.0
 20
0.0
 30
0.0
210
0.0
220
0.0
230
1.0
  2
SOLID
 70
     1
 71
     0
 91
        1
 92
        0
 93
        3
 72
     2
 10
0.0
 20
0.0
 40
3.000000000000001
 50
180.0
 51
270.0000000000007
 73
     1
 72
     1
 10
0.0
 20
-3.000000000000001
 11
0.0
 21
0.0
 72
     1
 10
0.0
 20
0.0
 11
-3.000000000000001
 21
0.0
 97
        0
 75
     0
 76
     1
 98
        1
 10
0.0
 20
0.0
  0
ENDBLK
  5
107
330
105
100
AcDbEntity
  8
0
100
AcDbBlockEnd
  0
BLOCK
  5
185
330
184
100
AcDbEntity
  8
0
100
AcDbBlockBegin
  2
*D7
 70
     1
 10
0.0
 20
0.0
 30
0.0
  3
*D7
  1

  0
LINE
  5
186
330
184
100
AcDbEntity
  8
치수문자_일반주서
 62
     0
370
    -2
100
AcDbLine
 10
50.24923296292322
 20
8.766500000000036
 30
0.0
 11
50.24923296292322
 21
19.96698468755266
 31
0.0
  0
LINE
  5
187
330
184
100
AcDbEntity
  8
치수문자_일반주서
 62
     0
370
    -2
100
AcDbLine
 10
47.24923296292322
 20
8.766500000000036
 30
0.0
 11
47.24923296292322
 21
19.96698468755266
 31
0.0
  0
LINE
  5
188
330
184
100
AcDbEntity
  8
치수문자_일반주서
 62
     0
370
    -2
100
AcDbLine
 10
50.24923296292322
 20
19.96698468755266
 30
0.0
 11
31.89523296292322
 21
19.96698468755266
 31
0.0
  0
LINE
  5
189
330
184
100
AcDbEntity
  8
치수문자_일반주서
 62
     0
370
    -2
100
AcDbLine
 10
50.24923296292322
 20
19.96698468755266
 30
0.0
 11
47.24923296292322
 21
19.96698468755266
 31
0.0
  0
LINE
  5
18A
330
184
100
AcDbEntity
  8
치수문자_일반주서
 62
     0
370
    -2
100
AcDbLine
 10
53.55123296292322
 20
19.96698468755266
 30
0.0
 11
56.85323296292322
 21
19.96698468755266
 31
0.0
  0
LINE
  5
18B
330
184
100
AcDbEntity
  8
치수문자_일반주서
 62
     0
370
    -2
100
AcDbLine
 10
43.94723296292322
 20
19.96698468755266
 30
0.0
 11
40.64523296292322
 21
19.96698468755266
 31
0.0
  0
SOLID
  5
18C
330
184
100
AcDbEntity
  8
치수문자_일반주서
 62
     0
100
AcDbTrace
 10
53.55123296292322
 20
20.51731802088599
 30
0.0
 11
53.55123296292322
 21
19.41665135421933
 31
0.0
 12
50.24923296292322
 22
19.96698468755266
 32
0.0
 13
50.24923296292322
 23
19.96698468755266
 33
0.0
  0
SOLID
  5
18D
330
184
100
AcDbEntity
  8
치수문자_일반주서
 62
     0
100
AcDbTrace
 10
43.94723296292322
 20
19.41665135421933
 30
0.0
 11
43.94723296292322
 21
20.51731802088599
 31
0.0
 12
47.24923296292322
 22
19.96698468755266
 32
0.0
 13
47.24923296292322
 23
19.96698468755266
 33
0.0
  0
MTEXT
  5
18E
330
184
100
AcDbEntity
  8
치수문자_일반주서
 62
     0
100
AcDbMText
 10
36.27023296292322
 20
24.34198468755266
 30
0.0
 40
3.5
 41
0.0
 71
     2
 72
     1
  1
\A1;3.00
  7
SLDTEXTSTYLE0
 73
     1
 44
1.0
  0
POINT
  5
18F
330
184
100
AcDbEntity
  8
Defpoints
 62
     0
100
AcDbPoint
 10
50.24923296292322
 20
8.704000000000036
 30
0.0
  0
POINT
  5
190
330
184
100
AcDbEntity
  8
Defpoints
 62
     0
100
AcDbPoint
 10
47.24923296292322
 20
8.704000000000036
 30
0.0
  0
POINT
  5
191
330
184
100
AcDbEntity
  8
Defpoints
 62
     0
100
AcDbPoint
 10
47.24923296292322
 20
19.96698468755266
 30
0.0
  0
ENDBLK
  5
192
330
184
100
AcDbEntity
  8
0
100
AcDbBlockEnd
  0
BLOCK
  5
195
330
194
100
AcDbEntity
  8
0
100
AcDbBlockBegin
  2
*D8
 70
     1
 10
0.0
 20
0.0
 30
0.0
  3
*D8
  1

  0
LINE
  5
196
330
194
100
AcDbEntity
  8
치수문자_일반주서
 62
     0
370
    -2
100
AcDbLine
 10
50.24923296292322
 20
8.766500000000036
 30
0.0
 11
50.24923296292322
 21
32.10400000000008
 31
0.0
  0
LINE
  5
197
330
194
100
AcDbEntity
  8
치수문자_일반주서
 62
     0
370
    -2
100
AcDbLine
 10
10.24923296292322
 20
9.28650000000001
 30
0.0
 11
10.24923296292322
 21
32.10400000000008
 31
0.0
  0
LINE
  5
198
330
194
100
AcDbEntity
  8
치수문자_일반주서
 62
     0
370
    -2
100
AcDbLine
 10
46.94723296292322
 20
32.10400000000008
 30
0.0
 11
13.55123296292322
 21
32.10400000000008
 31
0.0
  0
SOLID
  5
199
330
194
100
AcDbEntity
  8
치수문자_일반주서
 62
     0
100
AcDbTrace
 10
46.94723296292322
 20
31.55366666666674
 30
0.0
 11
46.94723296292322
 21
32.65433333333341
 31
0.0
 12
50.24923296292322
 22
32.10400000000008
 32
0.0
 13
50.24923296292322
 23
32.10400000000008
 33
0.0
  0
SOLID
  5
19A
330
194
100
AcDbEntity
  8
치수문자_일반주서
 62
     0
100
AcDbTrace
 10
13.55123296292322
 20
32.65433333333341
 30
0.0
 11
13.55123296292322
 21
31.55366666666674
 31
0.0
 12
10.24923296292322
 22
32.10400000000008
 32
0.0
 13
10.24923296292322
 23
32.10400000000008
 33
0.0
  0
MTEXT
  5
19B
330
194
100
AcDbEntity
  8
치수문자_일반주서
 62
     0
100
AcDbMText
 10
30.24923296292323
 20
36.47900000000008
 30
0.0
 40
3.5
 41
0.0
 71
     2
 72
     1
  1
\A1;40
  7
SLDTEXTSTYLE0
 73
     1
 44
1.0
  0
POINT
  5
19C
330
194
100
AcDbEntity
  8
Defpoints
 62
     0
100
AcDbPoint
 10
50.24923296292322
 20
8.704000000000036
 30
0.0
  0
POINT
  5
19D
330
194
100
AcDbEntity
  8
Defpoints
 62
     0
100
AcDbPoint
 10
10.24923296292322
 20
9.22400000000001
 30
0.0
  0
POINT
  5
19E
330
194
100
AcDbEntity
  8
Defpoints
 62
     0
100
AcDbPoint
 10
10.24923296292322
 20
32.10400000000008
 30
0.0
  0
ENDBLK
  5
19F
330
194
100
AcDbEntity
  8
0
100
AcDbBlockEnd
  0
BLOCK
  5
1A2
330
1A1
100
AcDbEntity
  8
0
100
AcDbBlockBegin
  2
*D9
 70
     1
 10
0.0
 20
0.0
 30
0.0
  3
*D9
  1

  0
LINE
  5
1A3
330
1A1
100
AcDbEntity
  8
치수문자_일반주서
 62
     0
370
    -2
100
AcDbLine
 10
10.56673296292321
 20
9.604000000000035
 30
0.0
 11
4.375000000000044
 21
9.604000000000012
 31
0.0
  0
LINE
  5
1A4
330
1A1
100
AcDbEntity
  8
치수문자_일반주서
 62
     0
370
    -2
100
AcDbLine
 10
10.56673296292321
 20
6.604000000000021
 30
0.0
 11
4.375000000000054
 21
6.603999999999997
 31
0.0
  0
LINE
  5
1A5
330
1A1
100
AcDbEntity
  8
치수문자_일반주서
 62
     0
370
    -2
100
AcDbLine
 10
4.375000000000044
 20
9.604000000000012
 30
0.0
 11
4.37499999999998
 21
27.58300000000001
 31
0.0
  0
LINE
  5
1A6
330
1A1
100
AcDbEntity
  8
치수문자_일반주서
 62
     0
370
    -2
100
AcDbLine
 10
4.375000000000044
 20
9.604000000000012
 30
0.0
 11
4.375000000000054
 21
6.603999999999997
 31
0.0
  0
LINE
  5
1A7
330
1A1
100
AcDbEntity
  8
치수문자_일반주서
 62
     0
370
    -2
100
AcDbLine
 10
4.375000000000032
 20
12.90600000000001
 30
0.0
 11
4.37500000000002
 21
16.20800000000001
 31
0.0
  0
LINE
  5
1A8
330
1A1
100
AcDbEntity
  8
치수문자_일반주서
 62
     0
370
    -2
100
AcDbLine
 10
4.375000000000066
 20
3.301999999999998
 30
0.0
 11
4.375000000000077
 21
-0.0000000000000018
 31
0.0
  0
SOLID
  5
1A9
330
1A1
100
AcDbEntity
  8
치수문자_일반주서
 62
     0
100
AcDbTrace
 10
3.824666666666699
 20
12.90600000000001
 30
0.0
 11
4.925333333333366
 21
12.90600000000001
 31
0.0
 12
4.375000000000044
 22
9.604000000000012
 32
0.0
 13
4.375000000000044
 23
9.604000000000012
 33
0.0
  0
SOLID
  5
1AA
330
1A1
100
AcDbEntity
  8
치수문자_일반주서
 62
     0
100
AcDbTrace
 10
4.925333333333399
 20
3.302
 30
0.0
 11
3.824666666666733
 21
3.301999999999996
 31
0.0
 12
4.375000000000054
 22
6.603999999999997
 32
0.0
 13
4.375000000000054
 23
6.603999999999997
 33
0.0
  0
MTEXT
  5
1AB
330
1A1
100
AcDbEntity
  8
치수문자_일반주서
 62
     0
100
AcDbMText
 10
0.0
 20
21.89549999999999
 30
0.0
 40
3.5
 41
0.0
 71
     2
 72
     1
  1
\A1;%%c3.00
  7
SLDTEXTSTYLE0
 11
-3.552713678800484E-15
 21
1.0
 31
0.0
 73
     1
 44
1.0
  0
POINT
  5
1AC
330
1A1
100
AcDbEntity
  8
Defpoints
 62
     0
100
AcDbPoint
 10
10.62923296292321
 20
9.604000000000035
 30
0.0
  0
POINT
  5
1AD
330
1A1
100
AcDbEntity
  8
Defpoints
 62
     0
100
AcDbPoint
 10
10.62923296292321
 20
6.604000000000021
 30
0.0
  0
POINT
  5
1AE
330
1A1
100
AcDbEntity
  8
Defpoints
 62
     0
100
AcDbPoint
 10
4.375000000000036
 20
6.603999999999997
 30
0.0
  0
ENDBLK
  5
1AF
330
1A1
100
AcDbEntity
  8
0
100
AcDbBlockEnd
  0
BLOCK
  5
1B2
330
1B1
100
AcDbEntity
  8
0
100
AcDbBlockBegin
  2
*D10
 70
     1
 10
0.0
 20
0.0
 30
0.0
  3
*D10
  1

  0
LINE
  5
1B3
330
1B1
100
AcDbEntity
  8
치수문자_일반주서
 62
     0
370
    -2
100
AcDbLine
 10
50.31173296292322
 20
8.704000000000036
 30
0.0
 11
62.55833249460462
 21
8.704000000000082
 31
0.0
  0
LINE
  5
1B4
330
1B1
100
AcDbEntity
  8
치수문자_일반주서
 62
     0
370
    -2
100
AcDbLine
 10
50.31173296292322
 20
7.504000000000033
 30
0.0
 11
62.55833249460463
 21
7.504000000000079
 31
0.0
  0
LINE
  5
1B5
330
1B1
100
AcDbEntity
  8
치수문자_일반주서
 62
     0
370
    -2
100
AcDbLine
 10
62.55833249460462
 20
8.704000000000082
 30
0.0
 11
62.55833249460452
 21
25.48925000000007
 31
0.0
  0
LINE
  5
1B6
330
1B1
100
AcDbEntity
  8
치수문자_일반주서
 62
     0
370
    -2
100
AcDbLine
 10
62.55833249460462
 20
8.704000000000082
 30
0.0
 11
62.55833249460463
 21
7.504000000000079
 31
0.0
  0
LINE
  5
1B7
330
1B1
100
AcDbEntity
  8
치수문자_일반주서
 62
     0
370
    -2
100
AcDbLine
 10
62.5583324946046
 20
12.00600000000008
 30
0.0
 11
62.55833249460458
 21
15.30800000000008
 31
0.0
  0
LINE
  5
1B8
330
1B1
100
AcDbEntity
  8
치수문자_일반주서
 62
     0
370
    -2
100
AcDbLine
 10
62.55833249460465
 20
4.20200000000008
 30
0.0
 11
62.55833249460467
 21
0.9000000000000803
 31
0.0
  0
SOLID
  5
1B9
330
1B1
100
AcDbEntity
  8
치수문자_일반주서
 62
     0
100
AcDbTrace
 10
62.00799916127126
 20
12.00600000000008
 30
0.0
 11
63.10866582793793
 21
12.00600000000009
 31
0.0
 12
62.55833249460462
 22
8.704000000000082
 32
0.0
 13
62.55833249460462
 23
8.704000000000082
 33
0.0
  0
SOLID
  5
1BA
330
1B1
100
AcDbEntity
  8
치수문자_일반주서
 62
     0
100
AcDbTrace
 10
63.10866582793798
 20
4.202000000000083
 30
0.0
 11
62.00799916127131
 21
4.202000000000076
 31
0.0
 12
62.55833249460463
 22
7.504000000000079
 32
0.0
 13
62.55833249460463
 23
7.504000000000079
 33
0.0
  0
MTEXT
  5
1BB
330
1B1
100
AcDbEntity
  8
치수문자_일반주서
 62
     0
100
AcDbMText
 10
58.18333249460455
 20
21.11425000000005
 30
0.0
 40
3.5
 41
0.0
 71
     2
 72
     1
  1
\A1;%%c1.2
  7
SLDTEXTSTYLE0
 11
-5.921189464667488E-15
 21
1.0
 31
0.0
 73
     1
 44
1.0
  0
POINT
  5
1BC
330
1B1
100
AcDbEntity
  8
Defpoints
 62
     0
100
AcDbPoint
 10
50.24923296292322
 20
8.704000000000036
 30
0.0
  0
POINT
  5
1BD
330
1B1
100
AcDbEntity
  8
Defpoints
 62
     0
100
AcDbPoint
 10
50.24923296292322
 20
7.504000000000033
 30
0.0
  0
POINT
  5
1BE
330
1B1
100
AcDbEntity
  8
Defpoints
 62
     0
100
AcDbPoint
 10
62.55833249460458
 20
7.504000000000079
 30
0.0
  0
ENDBLK
  5
1BF
330
1B1
100
AcDbEntity
  8
0
100
AcDbBlockEnd
  0
BLOCK
  5
200
330
1FF
100
AcDbEntity
  8
0
100
AcDbBlockBegin
  2
*D11
 70
     1
 10
0.0
 20
0.0
 30
0.0
  3
*D11
  1

  0
LINE
  5
202
330
1FF
100
AcDbEntity
  8
치수문자_일반주서
 62
     0
370
    -2
100
AcDbLine
 10
7.672243186433539
 20
0.7125000000000128
 30
0.0
 11
7.672243186433539
 21
11.86298468755263
 31
0.0
  0
LINE
  5
203
330
1FF
100
AcDbEntity
  8
치수문자_일반주서
 62
     0
370
    -2
100
AcDbLine
 10
4.172243186433533
 20
0.7125000000000057
 30
0.0
 11
4.172243186433533
 21
11.86298468755263
 31
0.0
  0
LINE
  5
204
330
1FF
100
AcDbEntity
  8
치수문자_일반주서
 62
     0
370
    -2
100
AcDbLine
 10
7.672243186433539
 20
11.86298468755263
 30
0.0
 11
-11.61925681356647
 21
11.86298468755263
 31
0.0
  0
LINE
  5
205
330
1FF
100
AcDbEntity
  8
치수문자_일반주서
 62
     0
370
    -2
100
AcDbLine
 10
7.672243186433539
 20
11.86298468755263
 30
0.0
 11
4.172243186433533
 21
11.86298468755263
 31
0.0
  0
LINE
  5
206
330
1FF
100
AcDbEntity
  8
치수문자_일반주서
 62
     0
370
    -2
100
AcDbLine
 10
10.97424318643354
 20
11.86298468755263
 30
0.0
 11
14.27624318643354
 21
11.86298468755263
 31
0.0
  0
LINE
  5
207
330
1FF
100
AcDbEntity
  8
치수문자_일반주서
 62
     0
370
    -2
100
AcDbLine
 10
0.8702431864335338
 20
11.86298468755263
 30
0.0
 11
-2.431756813566466
 21
11.86298468755263
 31
0.0
  0
SOLID
  5
208
330
1FF
100
AcDbEntity
  8
치수문자_일반주서
 62
     0
100
AcDbTrace
 10
10.97424318643354
 20
12.41331802088596
 30
0.0
 11
10.97424318643354
 21
11.31265135421929
 31
0.0
 12
7.672243186433539
 22
11.86298468755263
 32
0.0
 13
7.672243186433539
 23
11.86298468755263
 33
0.0
  0
SOLID
  5
209
330
1FF
100
AcDbEntity
  8
치수문자_일반주서
 62
     0
100
AcDbTrace
 10
0.8702431864335338
 20
11.31265135421929
 30
0.0
 11
0.8702431864335338
 21
12.41331802088596
 31
0.0
 12
4.172243186433533
 22
11.86298468755263
 32
0.0
 13
4.172243186433533
 23
11.86298468755263
 33
0.0
  0
MTEXT
  5
20A
330
1FF
100
AcDbEntity
  8
치수문자_일반주서
 62
     0
100
AcDbMText
 10
-7.025506813566466
 20
16.23798468755263
 30
0.0
 40
3.5
 41
0.0
 71
     2
 72
     1
  1
\A1;3.50
  7
SLDTEXTSTYLE0
 73
     1
 44
1.0
  0
POINT
  5
20B
330
1FF
100
AcDbEntity
  8
Defpoints
 62
     0
100
AcDbPoint
 10
7.672243186433539
 20
0.6500000000000128
 30
0.0
  0
POINT
  5
20C
330
1FF
100
AcDbEntity
  8
Defpoints
 62
     0
100
AcDbPoint
 10
4.172243186433533
 20
0.6500000000000057
 30
0.0
  0
POINT
  5
20D
330
1FF
100
AcDbEntity
  8
Defpoints
 62
     0
100
AcDbPoint
 10
4.172243186433533
 20
11.86298468755263
 30
0.0
  0
ENDBLK
  5
201
330
1FF
100
AcDbEntity
  8
0
100
AcDbBlockEnd
  0
BLOCK
  5
20F
330
20E
100
AcDbEntity
  8
0
100
AcDbBlockBegin
  2
*D12
 70
     1
 10
0.0
 20
0.0
 30
0.0
  3
*D12
  1

  0
LINE
  5
211
330
20E
100
AcDbEntity
  8
치수문자_일반주서
 62
     0
370
    -2
100
AcDbLine
 10
7.672243186433539
 20
0.7125000000000128
 30
0.0
 11
7.672243186433542
 21
24.00000000000005
 31
0.0
  0
LINE
  5
212
330
20E
100
AcDbEntity
  8
치수문자_일반주서
 62
     0
370
    -2
100
AcDbLine
 10
-32.32775681356645
 20
1.182499999999976
 30
0.0
 11
-32.32775681356645
 21
24.00000000000005
 31
0.0
  0
LINE
  5
213
330
20E
100
AcDbEntity
  8
치수문자_일반주서
 62
     0
370
    -2
100
AcDbLine
 10
4.370243186433543
 20
24.00000000000005
 30
0.0
 11
-29.02575681356645
 21
24.00000000000005
 31
0.0
  0
SOLID
  5
214
330
20E
100
AcDbEntity
  8
치수문자_일반주서
 62
     0
100
AcDbTrace
 10
4.370243186433543
 20
23.44966666666672
 30
0.0
 11
4.370243186433543
 21
24.55033333333338
 31
0.0
 12
7.672243186433542
 22
24.00000000000005
 32
0.0
 13
7.672243186433542
 23
24.00000000000005
 33
0.0
  0
SOLID
  5
215
330
20E
100
AcDbEntity
  8
치수문자_일반주서
 62
     0
100
AcDbTrace
 10
-29.02575681356645
 20
24.55033333333338
 30
0.0
 11
-29.02575681356645
 21
23.44966666666672
 31
0.0
 12
-32.32775681356645
 22
24.00000000000005
 32
0.0
 13
-32.32775681356645
 23
24.00000000000005
 33
0.0
  0
MTEXT
  5
216
330
20E
100
AcDbEntity
  8
치수문자_일반주서
 62
     0
100
AcDbMText
 10
-12.32775681356645
 20
28.37500000000005
 30
0.0
 40
3.5
 41
0.0
 71
     2
 72
     1
  1
\A1;40
  7
SLDTEXTSTYLE0
 73
     1
 44
1.0
  0
POINT
  5
217
330
20E
100
AcDbEntity
  8
Defpoints
 62
     0
100
AcDbPoint
 10
7.672243186433539
 20
0.6500000000000128
 30
0.0
  0
POINT
  5
218
330
20E
100
AcDbEntity
  8
Defpoints
 62
     0
100
AcDbPoint
 10
-32.32775681356645
 20
1.119999999999976
 30
0.0
  0
POINT
  5
219
330
20E
100
AcDbEntity
  8
Defpoints
 62
     0
100
AcDbPoint
 10
-32.32775681356645
 20
24.00000000000005
 30
0.0
  0
ENDBLK
  5
210
330
20E
100
AcDbEntity
  8
0
100
AcDbBlockEnd
  0
BLOCK
  5
21B
330
21A
100
AcDbEntity
  8
0
100
AcDbBlockBegin
  2
*D13
 70
     1
 10
0.0
 20
0.0
 30
0.0
  3
*D13
  1

  0
LINE
  5
21D
330
21A
100
AcDbEntity
  8
치수문자_일반주서
 62
     0
370
    -2
100
AcDbLine
 10
-32.01025681356646
 20
1.5
 30
0.0
 11
-38.20198977648965
 21
1.499999999999977
 31
0.0
  0
LINE
  5
21E
330
21A
100
AcDbEntity
  8
치수문자_일반주서
 62
     0
370
    -2
100
AcDbLine
 10
-32.01025681356646
 20
-1.500000000000014
 30
0.0
 11
-38.20198977648964
 21
-1.500000000000037
 31
0.0
  0
LINE
  5
21F
330
21A
100
AcDbEntity
  8
치수문자_일반주서
 62
     0
370
    -2
100
AcDbLine
 10
-38.20198977648965
 20
1.499999999999977
 30
0.0
 11
-38.20198977648968
 21
16.85399999999998
 31
0.0
  0
LINE
  5
220
330
21A
100
AcDbEntity
  8
치수문자_일반주서
 62
     0
370
    -2
100
AcDbLine
 10
-38.20198977648965
 20
1.499999999999977
 30
0.0
 11
-38.20198977648964
 21
-1.500000000000037
 31
0.0
  0
LINE
  5
221
330
21A
100
AcDbEntity
  8
치수문자_일반주서
 62
     0
370
    -2
100
AcDbLine
 10
-38.20198977648965
 20
4.801999999999977
 30
0.0
 11
-38.20198977648966
 21
8.103999999999976
 31
0.0
  0
LINE
  5
222
330
21A
100
AcDbEntity
  8
치수문자_일반주서
 62
     0
370
    -2
100
AcDbLine
 10
-38.20198977648963
 20
-4.802000000000037
 30
0.0
 11
-38.20198977648963
 21
-8.104000000000037
 31
0.0
  0
SOLID
  5
223
330
21A
100
AcDbEntity
  8
치수문자_일반주서
 62
     0
100
AcDbTrace
 10
-38.75232310982299
 20
4.801999999999976
 30
0.0
 11
-37.65165644315632
 21
4.801999999999977
 31
0.0
 12
-38.20198977648965
 22
1.499999999999977
 32
0.0
 13
-38.20198977648965
 23
1.499999999999977
 33
0.0
  0
SOLID
  5
224
330
21A
100
AcDbEntity
  8
치수문자_일반주서
 62
     0
100
AcDbTrace
 10
-37.6516564431563
 20
-4.802000000000036
 30
0.0
 11
-38.75232310982297
 21
-4.802000000000038
 31
0.0
 12
-38.20198977648964
 22
-1.500000000000037
 32
0.0
 13
-38.20198977648964
 23
-1.500000000000037
 33
0.0
  0
MTEXT
  5
225
330
21A
100
AcDbEntity
  8
치수문자_일반주서
 62
     0
100
AcDbMText
 10
-42.57698977648968
 20
13.79149999999997
 30
0.0
 40
3.5
 41
0.0
 71
     2
 72
     1
  1
\A1;%%c3
  7
SLDTEXTSTYLE0
 11
-2.368475785866990E-15
 21
1.0
 31
0.0
 73
     1
 44
1.0
  0
POINT
  5
226
330
21A
100
AcDbEntity
  8
Defpoints
 62
     0
100
AcDbPoint
 10
-31.94775681356646
 20
1.5
 30
0.0
  0
POINT
  5
227
330
21A
100
AcDbEntity
  8
Defpoints
 62
     0
100
AcDbPoint
 10
-31.94775681356646
 20
-1.500000000000014
 30
0.0
  0
POINT
  5
228
330
21A
100
AcDbEntity
  8
Defpoints
 62
     0
100
AcDbPoint
 10
-38.20198977648964
 20
-1.500000000000038
 30
0.0
  0
ENDBLK
  5
21C
330
21A
100
AcDbEntity
  8
0
100
AcDbBlockEnd
  0
BLOCK
  5
22A
330
229
100
AcDbEntity
  8
0
100
AcDbBlockBegin
  2
*D14
 70
     1
 10
0.0
 20
0.0
 30
0.0
  3
*D14
  1

  0
LINE
  5
22C
330
229
100
AcDbEntity
  8
치수문자_일반주서
 62
     0
370
    -2
100
AcDbLine
 10
7.734743186433539
 20
0.650000000000013
 30
0.0
 11
19.98134271811491
 21
0.650000000000059
 31
0.0
  0
LINE
  5
22D
330
229
100
AcDbEntity
  8
치수문자_일반주서
 62
     0
370
    -2
100
AcDbLine
 10
7.734743186433542
 20
-0.6500000000000552
 30
0.0
 11
19.98134271811491
 21
-0.6500000000000092
 31
0.0
  0
LINE
  5
22E
330
229
100
AcDbEntity
  8
치수문자_일반주서
 62
     0
370
    -2
100
AcDbLine
 10
19.98134271811491
 20
0.650000000000059
 30
0.0
 11
19.98134271811486
 21
18.47900000000004
 31
0.0
  0
LINE
  5
22F
330
229
100
AcDbEntity
  8
치수문자_일반주서
 62
     0
370
    -2
100
AcDbLine
 10
19.98134271811491
 20
0.650000000000059
 30
0.0
 11
19.98134271811491
 21
-0.6500000000000092
 31
0.0
  0
LINE
  5
230
330
229
100
AcDbEntity
  8
치수문자_일반주서
 62
     0
370
    -2
100
AcDbLine
 10
19.9813427181149
 20
3.952000000000059
 30
0.0
 11
19.98134271811489
 21
7.254000000000058
 31
0.0
  0
LINE
  5
231
330
229
100
AcDbEntity
  8
치수문자_일반주서
 62
     0
370
    -2
100
AcDbLine
 10
19.98134271811492
 20
-3.952000000000009
 30
0.0
 11
19.98134271811493
 21
-7.254000000000008
 31
0.0
  0
SOLID
  5
232
330
229
100
AcDbEntity
  8
치수문자_일반주서
 62
     0
100
AcDbTrace
 10
19.43100938478156
 20
3.952000000000057
 30
0.0
 11
20.53167605144823
 21
3.95200000000006
 31
0.0
 12
19.98134271811491
 22
0.650000000000059
 32
0.0
 13
19.98134271811491
 23
0.650000000000059
 33
0.0
  0
SOLID
  5
233
330
229
100
AcDbEntity
  8
치수문자_일반주서
 62
     0
100
AcDbTrace
 10
20.53167605144826
 20
-3.952000000000008
 30
0.0
 11
19.43100938478159
 21
-3.95200000000001
 31
0.0
 12
19.98134271811491
 22
-0.6500000000000092
 32
0.0
 13
19.98134271811491
 23
-0.6500000000000092
 33
0.0
  0
MTEXT
  5
234
330
229
100
AcDbEntity
  8
치수문자_일반주서
 62
     0
100
AcDbMText
 10
15.60634271811487
 20
13.01025000000003
 30
0.0
 40
3.5
 41
0.0
 71
     2
 72
     1
  1
\A1;%%c1.30
  7
SLDTEXTSTYLE0
 11
-2.732856676000242E-15
 21
1.0
 31
0.0
 73
     1
 44
1.0
  0
POINT
  5
235
330
229
100
AcDbEntity
  8
Defpoints
 62
     0
100
AcDbPoint
 10
7.672243186433539
 20
0.6500000000000128
 30
0.0
  0
POINT
  5
236
330
229
100
AcDbEntity
  8
Defpoints
 62
     0
100
AcDbPoint
 10
7.672243186433542
 20
-0.6500000000000554
 30
0.0
  0
POINT
  5
237
330
229
100
AcDbEntity
  8
Defpoints
 62
     0
100
AcDbPoint
 10
19.98134271811491
 20
-0.6500000000000095
 30
0.0
  0
ENDBLK
  5
22B
330
229
100
AcDbEntity
  8
0
100
AcDbBlockEnd
  0
ENDSEC
  0
SECTION
  2
ENTITIES
  0
LINE
  5
96
330
1F
100
AcDbEntity
  8
외형선
  6
Continuous
370
    15
100
AcDbLine
 10
0.0
 20
-1.5
 30
0.0
 11
3.172243186433533
 21
-0.6499999999999986
 31
0.0
  0
LINE
  5
97
330
1F
100
AcDbEntity
  8
외형선
  6
Continuous
370
    15
100
AcDbLine
 10
3.172243186433533
 20
0.6500000000000057
 30
0.0
 11
0.0
 21
1.5
 31
0.0
  0
LINE
  5
9C
330
1F
100
AcDbEntity
  8
외형선
  6
Continuous
370
    15
100
AcDbLine
 10
4.172243186433533
 20
0.6500000000000057
 30
0.0
 11
3.172243186433533
 21
0.6500000000000057
 31
0.0
  0
LINE
  5
9D
330
1F
100
AcDbEntity
  8
외형선
  6
Continuous
370
    15
100
AcDbLine
 10
3.172243186433533
 20
-0.6499999999999986
 30
0.0
 11
4.172243186433533
 21
-0.6499999999999986
 31
0.0
  0
LINE
  5
9E
330
1F
100
AcDbEntity
  8
외형선
  6
Continuous
 62
     1
370
    15
100
AcDbLine
 10
6.892222140930437
 20
-0.6499999999999986
 30
0.0
 11
7.022243186433533
 21
-0.6499999999999986
 31
0.0
  0
LINE
  5
9F
330
1F
100
AcDbEntity
  8
외형선
  6
Continuous
 62
     1
370
    15
100
AcDbLine
 10
4.768666628332522
 20
0.6500000000000057
 30
0.0
 11
4.172243186433533
 21
0.6500000000000057
 31
0.0
  0
ARC
  5
A0
330
1F
100
AcDbEntity
  8
외형선
  6
Continuous
 62
     1
370
    15
100
AcDbCircle
 10
7.022243186433533
 20
0.0
 30
0.0
 40
0.6500000000000039
100
AcDbArc
 50
270.0000000000007
 51
0.0
  0
ARC
  5
A1
330
1F
100
AcDbEntity
  8
외형선
  6
Continuous
 62
     1
370
    15
100
AcDbCircle
 10
7.022243186433533
 20
0.0
 30
0.0
 40
0.6500000000000039
100
AcDbArc
 50
0.0
 51
90.0
  0
LINE
  5
A2
330
1F
100
AcDbEntity
  8
외형선
  6
Continuous
 62
     1
370
    15
100
AcDbLine
 10
4.172243186433533
 20
-0.6499999999999986
 30
0.0
 11
4.768666628332522
 21
-0.6499999999999986
 31
0.0
  0
LINE
  5
A3
330
1F
100
AcDbEntity
  8
외형선
  6
Continuous
 62
     1
370
    15
100
AcDbLine
 10
7.022243186433533
 20
0.6500000000000057
 30
0.0
 11
6.89204777199577
 21
0.6500000000000057
 31
0.0
  0
LINE
  5
A4
330
1F
100
AcDbEntity
  8
외형선
  6
Continuous
370
    15
100
AcDbLine
 10
3.172243186433533
 20
0.6500000000000057
 30
0.0
 11
3.172243186433533
 21
-0.6499999999999986
 31
0.0
  0
LINE
  5
A5
330
1F
100
AcDbEntity
  8
외형선
  6
Continuous
370
    15
100
AcDbLine
 10
0.0
 20
1.5
 30
0.0
 11
0.0
 21
-1.5
 31
0.0
  0
LINE
  5
A8
330
1F
100
AcDbEntity
  8
외형선
  6
Continuous
370
    15
100
AcDbLine
 10
4.172243186433533
 20
0.6500000000000057
 30
0.0
 11
4.172243186433533
 21
0.4860717873415226
 31
0.0
  0
SPLINE
  5
A9
330
1F
100
AcDbEntity
  8
외형선
  6
Continuous
370
    15
100
AcDbSpline
210
0.0
220
0.0
230
1.0
 70
     8
 71
     3
 72
    14
 73
    10
 74
     0
 42
0.000000001
 43
0.00000001
 40
0.0
 40
0.0
 40
0.0
 40
0.0
 40
0.25
 40
0.25
 40
0.5
 40
0.5
 40
0.75
 40
0.75
 40
1.0
 40
1.0
 40
1.0
 40
1.0
 10
3.37223741621645
 20
0.6499263224280014
 30
0.0
 10
3.439807334223526
 20
0.6493438706155885
 30
0.0
 10
3.507410682637373
 20
0.6452812577479676
 30
0.0
 10
3.639522992662451
 20
0.630539931443252
 30
0.0
 10
3.704431969361183
 20
0.6199007518853605
 30
0.0
 10
3.838601139918545
 20
0.5919649644681471
 30
0.0
 10
3.906570060886432
 20
0.5747067831586392
 30
0.0
 10
4.041058840473912
 20
0.5344123980616189
 30
0.0
 10
4.106507529683647
 20
0.511521965352344
 30
0.0
 10
4.172243186433292
 20
0.4860717873416149
 30
0.0
  0
SPLINE
  5
AA
330
1F
100
AcDbEntity
  8
외형선
  6
Continuous
370
    15
100
AcDbSpline
210
0.0
220
0.0
230
1.0
 70
     8
 71
     3
 72
    14
 73
    10
 74
     0
 42
0.000000001
 43
0.00000001
 40
0.0
 40
0.0
 40
0.0
 40
0.0
 40
0.25
 40
0.25
 40
0.5
 40
0.5
 40
0.75
 40
0.75
 40
1.0
 40
1.0
 40
1.0
 40
1.0
 10
4.172243186433533
 20
-0.5611927357499624
 30
0.0
 10
4.106506449996896
 20
-0.5418508375737261
 30
0.0
 10
4.041056655303777
 20
-0.5196202376949657
 30
0.0
 10
3.90656561925122
 20
-0.4694927010141114
 30
0.0
 10
3.838595572815441
 20
-0.441700039490442
 30
0.0
 10
3.704424314357995
 20
-0.3819841735827865
 30
0.0
 10
3.639514464329661
 20
-0.3502911946663332
 30
0.0
 10
3.507399681828997
 20
-0.2832355801484283
 30
0.0
 10
3.439795120828773
 20
-0.2477762721683163
 30
0.0
 10
3.372224098447542
 20
-0.2111891668902715
 30
0.0
  0
LINE
  5
AB
330
1F
100
AcDbEntity
  8
외형선
  6
Continuous
370
    15
100
AcDbLine
 10
4.172243186433533
 20
-0.5611927357499553
 30
0.0
 11
4.172243186433533
 21
-0.6499999999999986
 31
0.0
  0
LINE
  5
AC
330
1F
100
AcDbEntity
  8
외형선
  6
Continuous
370
    15
100
AcDbLine
 10
3.372224098447542
 20
-0.2116861985827825
 30
0.0
 11
3.372224098447542
 21
0.6499326338639548
 31
0.0
  0
SPLINE
  5
AD
330
1F
100
AcDbEntity
  8
외형선
  6
Continuous
370
    15
100
AcDbSpline
210
0.0
220
0.0
230
1.0
 70
    24
 71
     3
 72
    12
 73
     8
 74
     0
 42
0.000000001
 43
0.00000001
 40
0.0
 40
0.0
 40
0.0
 40
0.0
 40
0.4999999999999999
 40
0.4999999999999999
 40
0.75
 40
0.75
 40
1.0
 40
1.0
 40
1.0
 40
1.0
 10
4.172243186433533
 20
-0.0147042232923766
 30
0.0
 10
4.172243186433533
 20
-0.0608644441538999
 30
0.0
 10
4.172243186433533
 20
-0.1359840239986312
 30
0.0
 10
4.172243186433533
 20
-0.2878004841813109
 30
0.0
 10
4.172243186433533
 20
-0.3440957571675582
 30
0.0
 10
4.172243186433533
 20
-0.4565073125686823
 30
0.0
 10
4.172243186433533
 20
-0.5122864623325754
 30
0.0
 10
4.172243186433533
 20
-0.5611927357496711
 30
0.0
  0
SPLINE
  5
AE
330
1F
100
AcDbEntity
  8
외형선
  6
Continuous
370
    15
100
AcDbSpline
210
0.0
220
0.0
230
1.0
 70
     8
 71
     3
 72
    14
 73
    10
 74
     0
 42
0.000000001
 43
0.00000001
 40
0.0
 40
0.0
 40
0.0
 40
0.0
 40
0.25
 40
0.25
 40
0.5
 40
0.5
 40
0.75
 40
0.75
 40
1.0
 40
1.0
 40
1.0
 40
1.0
 10
4.172243186433846
 20
-0.0147042232924974
 30
0.0
 10
4.106506449997173
 20
0.0113862708900641
 30
0.0
 10
4.041056655304041
 20
0.037517413462929
 30
0.0
 10
3.906565619251435
 20
0.089577274618911
 30
0.0
 10
3.838595572815628
 20
0.1153601421779342
 30
0.0
 10
3.704424314358127
 20
0.1652135774749581
 30
0.0
 10
3.639514464329766
 20
0.1891339394859912
 30
0.0
 10
3.507399681829046
 20
0.2350347100727532
 30
0.0
 10
3.4397951208288
 20
0.257044430523365
 30
0.0
 10
3.372224098447542
 20
0.2775661120475377
 30
0.0
  0
SPLINE
  5
AF
330
1F
100
AcDbEntity
  8
외형선
  6
Continuous
370
    15
100
AcDbSpline
210
0.0
220
0.0
230
1.0
 70
    24
 71
     3
 72
    10
 73
     6
 74
     0
 42
0.000000001
 43
0.00000001
 40
0.0
 40
0.0
 40
0.0
 40
0.0
 40
0.5
 40
0.5
 40
1.0
 40
1.0
 40
1.0
 40
1.0
 10
4.172243186433533
 20
0.4860717873407623
 30
0.0
 10
4.172243186433533
 20
0.4075298820400164
 30
0.0
 10
4.172243186433533
 20
0.3014428256623845
 30
0.0
 10
4.172243186433533
 20
0.1154299228382882
 30
0.0
 10
4.172243186433533
 20
0.0381846150783929
 30
0.0
 10
4.172243186433533
 20
-0.0147042232923766
 30
0.0
  0
SPLINE
  5
B0
330
1F
100
AcDbEntity
  8
외형선
  6
Continuous
 62
     1
370
    15
100
AcDbSpline
210
0.0
220
0.0
230
1.0
 70
     8
 71
     3
 72
    13
 73
     9
 74
     0
 42
0.000000001
 43
0.00000001
 40
0.0
 40
0.0
 40
0.0
 40
0.0
 40
0.1770703100730615
 40
0.3546988186805038
 40
0.531577930958207
 40
0.7080601540748028
 40
0.8931078720219595
 40
1.0
 40
1.0
 40
1.0
 40
1.0
 10
7.022243186433533
 20
-0.2713698075439552
 30
0.0
 10
6.889245211409822
 20
-0.1982493903121423
 30
0.0
 10
6.622829996976956
 20
-0.0517780501826337
 30
0.0
 10
6.223037819251619
 20
0.1821088218870841
 30
0.0
 10
5.824280346189925
 20
0.3926894569043284
 30
0.0
 10
5.420116876207185
 20
0.5537507077963539
 30
0.0
 10
5.068339475709553
 20
0.6442991239699936
 30
0.0
 10
4.848982827758253
 20
0.6404970357193918
 30
0.0
 10
4.768666628332522
 20
0.639104922551077
 30
0.0
  0
SPLINE
  5
B1
330
1F
100
AcDbEntity
  8
외형선
  6
Continuous
 62
     1
370
    15
100
AcDbSpline
210
0.0
220
0.0
230
1.0
 70
     8
 71
     3
 72
    11
 73
     7
 74
     0
 42
0.000000001
 43
0.00000001
 40
0.0
 40
0.0
 40
0.0
 40
0.0
 40
0.2530843266335176
 40
0.5064167730426203
 40
0.8086803961959071
 40
1.0
 40
1.0
 40
1.0
 40
1.0
 10
7.498233685583354
 20
0.0683745968233609
 30
0.0
 10
7.348327950553658
 20
0.1257269937163557
 30
0.0
 10
7.048369515339104
 20
0.2404880148635513
 30
0.0
 10
6.569360948871484
 20
0.3771801756164379
 30
0.0
 10
6.126718798927039
 20
0.453676087908498
 30
0.0
 10
5.834233618184768
 20
0.4331410351659528
 30
0.0
 10
5.720862365188331
 20
0.4251813681022654
 30
0.0
  0
SPLINE
  5
B2
330
1F
100
AcDbEntity
  8
외형선
  6
Continuous
 62
     1
370
    15
100
AcDbSpline
210
0.0
220
0.0
230
1.0
 70
     8
 71
     3
 72
    18
 73
    14
 74
     0
 42
0.000000001
 43
0.00000001
 40
0.0
 40
0.0
 40
0.0
 40
0.0
 40
0.2499999999999989
 40
0.2499999999999989
 40
0.4999999999999979
 40
0.4999999999999979
 40
0.6249999999999984
 40
0.6249999999999984
 40
0.749999999999999
 40
0.749999999999999
 40
0.8749999999999996
 40
0.8749999999999996
 40
1.0
 40
1.0
 40
1.0
 40
1.0
 10
7.022243186433533
 20
-0.2713698075439552
 30
0.0
 10
7.094536638082092
 20
-0.3091504361924891
 30
0.0
 10
7.164945336626046
 20
-0.3405550252854468
 30
0.0
 10
7.305998116460522
 20
-0.371088643666404
 30
0.0
 10
7.376704442441067
 20
-0.3701545670802346
 30
0.0
 10
7.472383781246586
 20
-0.3182968110392039
 30
0.0
 10
7.502031122001657
 20
-0.2921651571989088
 30
0.0
 10
7.547117865451646
 20
-0.2228216445811739
 30
0.0
 10
7.560724401300519
 20
-0.1816588712164133
 30
0.0
 10
7.567595891330186
 20
-0.1012544572355836
 30
0.0
 10
7.561428254399372
 20
-0.063323747920073
 30
0.0
 10
7.537548033776952
 20
0.0061291212659569
 30
0.0
 10
7.519867137180016
 20
0.0380014366094059
 30
0.0
 10
7.498233685578427
 20
0.068374596825258
 30
0.0
  0
SPLINE
  5
B3
330
1F
100
AcDbEntity
  8
외형선
  6
Continuous
 62
     1
370
    15
100
AcDbSpline
210
0.0
220
0.0
230
1.0
 70
     8
 71
     3
 72
    12
 73
     8
 74
     0
 42
0.000000001
 43
0.00000001
 40
0.0
 40
0.0
 40
0.0
 40
0.0
 40
0.2447500980399241
 40
0.4458645190960853
 40
0.6464566685079247
 40
0.8458985931274806
 40
0.9999999999999999
 40
0.9999999999999999
 40
0.9999999999999999
 40
0.9999999999999999
 10
5.961611485483949
 20
-0.434523997210853
 30
0.0
 10
5.815547229499215
 20
-0.4342166659162245
 30
0.0
 10
5.549460025558089
 20
-0.4336567963963489
 30
0.0
 10
5.163844249148481
 20
-0.355467207026841
 30
0.0
 10
4.805243052916699
 20
-0.2530105668648801
 30
0.0
 10
4.475089329573523
 20
-0.1327620647716685
 30
0.0
 10
4.264175621061433
 20
-0.0505420407450785
 30
0.0
 10
4.172243186433846
 20
-0.0147042232924974
 30
0.0
  0
SPLINE
  5
B4
330
1F
100
AcDbEntity
  8
외형선
  6
Continuous
370
    15
100
AcDbSpline
210
0.0
220
0.0
230
1.0
 70
    24
 71
     3
 72
    10
 73
     6
 74
     0
 42
0.000000001
 43
0.00000001
 40
0.0
 40
0.0
 40
0.0
 40
0.0
 40
0.4999999999999999
 40
0.4999999999999999
 40
1.0
 40
1.0
 40
1.0
 40
1.0
 10
4.172243186433533
 20
0.4860717873407623
 30
0.0
 10
4.172243186433533
 20
0.4075298820400164
 30
0.0
 10
4.172243186433533
 20
0.3014428256623845
 30
0.0
 10
4.172243186433533
 20
0.1154299228382882
 30
0.0
 10
4.172243186433533
 20
0.0381846150783929
 30
0.0
 10
4.172243186433533
 20
-0.0147042232923766
 30
0.0
  0
SPLINE
  5
B5
330
1F
100
AcDbEntity
  8
외형선
  6
Continuous
 62
     1
370
    15
100
AcDbSpline
210
0.0
220
0.0
230
1.0
 70
     8
 71
     3
 72
    15
 73
    11
 74
     0
 42
0.000000001
 43
0.00000001
 40
0.0
 40
0.0
 40
0.0
 40
0.0
 40
0.1675196087902325
 40
0.3049022041373368
 40
0.4422770402844248
 40
0.5796497339082883
 40
0.7170209490250354
 40
0.8544008634748006
 40
0.950433683227683
 40
1.0
 40
1.0
 40
1.0
 40
1.0
 10
4.172243186433526
 20
0.4860717873416931
 30
0.0
 10
4.324273790417214
 20
0.4202143558014129
 30
0.0
 10
4.600984478710435
 20
0.3003473373641938
 30
0.0
 10
5.00216857957151
 20
0.0713464634152814
 30
0.0
 10
5.375480584540606
 20
-0.1467865395708401
 30
0.0
 10
5.748855044877979
 20
-0.3495390258322502
 30
0.0
 10
6.122930264686154
 20
-0.5135700560678202
 30
0.0
 10
6.459443381979082
 20
-0.6088932366951099
 30
0.0
 10
6.715019404473631
 20
-0.648838162798107
 30
0.0
 10
6.847217828846833
 20
-0.6463920140242791
 30
0.0
 10
6.892222140930437
 20
-0.64555927155142
 30
0.0
  0
SPLINE
  5
B6
330
1F
100
AcDbEntity
  8
외형선
  6
Continuous
 62
     1
370
    15
100
AcDbSpline
210
0.0
220
0.0
230
1.0
 70
     8
 71
     3
 72
     8
 73
     4
 74
     0
 42
0.000000001
 43
0.00000001
 40
0.0
 40
0.0
 40
0.0
 40
0.0
 40
1.0
 40
1.0
 40
1.0
 40
1.0
 10
7.498233685578427
 20
0.068374596825258
 30
0.0
 10
7.528068999716259
 20
0.0863936670279912
 30
0.0
 10
7.544611383540595
 20
0.1248840104994144
 30
0.0
 10
7.545389376147508
 20
0.168347005007675
 30
0.0
  0
ARC
  5
B7
330
1F
100
AcDbEntity
  8
외형선
  6
Continuous
 62
     1
370
    15
100
AcDbCircle
 10
7.361255035182788
 20
-0.1129954503731341
 30
0.0
 40
0.3362425206922427
100
AcDbArc
 50
23.84147121831333
 51
56.79586547409222
  0
ARC
  5
B8
330
1F
100
AcDbEntity
  8
외형선
  6
Continuous
 62
     1
370
    15
100
AcDbCircle
 10
7.087707444220824
 20
0.0120839286877796
 30
0.0
 40
0.5811985976036049
100
AcDbArc
 50
1.067937843500419
 51
71.21520217214102
  0
SPLINE
  5
B9
330
1F
100
AcDbEntity
  8
외형선
  6
Continuous
 62
     1
370
    15
100
AcDbSpline
210
0.0
220
0.0
230
1.0
 70
     8
 71
     3
 72
     8
 73
     4
 74
     0
 42
0.000000001
 43
0.00000001
 40
0.0
 40
0.0
 40
0.0
 40
0.0
 40
1.0
 40
1.0
 40
1.0
 40
1.0
 10
7.274861826640215
 20
0.5623248277471049
 30
0.0
 10
7.194382042050952
 20
0.6113070885453951
 30
0.0
 10
7.109418402437166
 20
0.6399765481541522
 30
0.0
 10
7.022243186423553
 20
0.6457203417537087
 30
0.0
  0
SPLINE
  5
BA
330
1F
100
AcDbEntity
  8
외형선
  6
Continuous
 62
     1
370
    15
100
AcDbSpline
210
0.0
220
0.0
230
1.0
 70
     8
 71
     3
 72
    11
 73
     7
 74
     0
 42
0.000000001
 43
0.00000001
 40
0.0
 40
0.0
 40
0.0
 40
0.0
 40
0.1901906610750334
 40
0.4594957024102171
 40
0.7293685712916889
 40
1.0
 40
1.0
 40
1.0
 40
1.0
 10
5.720862365188331
 20
-0.4251813681022583
 30
0.0
 10
5.622753464085035
 20
-0.4670592463899155
 30
0.0
 10
5.385724904584055
 20
-0.5682351137561952
 30
0.0
 10
5.009329274140848
 20
-0.6478146641327029
 30
0.0
 10
4.591286570169272
 20
-0.6606344658609231
 30
0.0
 10
4.312054941672992
 20
-0.5943709778377269
 30
0.0
 10
4.172243186433533
 20
-0.5611927357499624
 30
0.0
  0
SPLINE
  5
BB
330
1F
100
AcDbEntity
  8
외형선
  6
Continuous
370
    15
100
AcDbSpline
210
0.0
220
0.0
230
1.0
 70
    24
 71
     3
 72
    12
 73
     8
 74
     0
 42
0.000000001
 43
0.00000001
 40
0.0
 40
0.0
 40
0.0
 40
0.0
 40
0.5
 40
0.5
 40
0.75
 40
0.75
 40
1.0
 40
1.0
 40
1.0
 40
1.0
 10
4.172243186433846
 20
-0.0147042232924974
 30
0.0
 10
4.172243186433846
 20
-0.0608644441540065
 30
0.0
 10
4.172243186433846
 20
-0.1359840239987236
 30
0.0
 10
4.172243186433846
 20
-0.2878004841813819
 30
0.0
 10
4.172243186433846
 20
-0.3440957571676293
 30
0.0
 10
4.172243186433846
 20
-0.4565073125687604
 30
0.0
 10
4.172243186433846
 20
-0.5122864623326535
 30
0.0
 10
4.172243186433846
 20
-0.5611927357497635
 30
0.0
  0
SPLINE
  5
BC
330
1F
100
AcDbEntity
  8
외형선
  6
Continuous
 62
     1
370
    15
100
AcDbSpline
210
0.0
220
0.0
230
1.0
 70
     8
 71
     3
 72
     8
 73
     4
 74
     0
 42
0.000000001
 43
0.00000001
 40
0.0
 40
0.0
 40
0.0
 40
0.0
 40
1.0
 40
1.0
 40
1.0
 40
1.0
 10
7.143494015128718
 20
0.2909654209345689
 30
0.0
 10
7.275622859234707
 20
0.2542589126244224
 30
0.0
 10
7.410355295645369
 20
0.212865158227622
 30
0.0
 10
7.545389376145961
 20
0.1683470050073694
 30
0.0
  0
SPLINE
  5
BD
330
1F
100
AcDbEntity
  8
외형선
  6
Continuous
 62
     1
370
    15
100
AcDbSpline
210
0.0
220
0.0
230
1.0
 70
     8
 71
     3
 72
    16
 73
    12
 74
     0
 42
0.000000001
 43
0.00000001
 40
0.0
 40
0.0
 40
0.0
 40
0.0
 40
0.0731170646237283
 40
0.1606777264170206
 40
0.2474952176427428
 40
0.4218482830542548
 40
0.5094176468796455
 40
0.6310340918425024
 40
0.75306557591924
 40
0.8763226746310259
 40
1.0
 40
1.0
 40
1.0
 40
1.0
 10
5.950710194564612
 20
0.4341009563385185
 30
0.0
 10
5.976884123307942
 20
0.4456121118975886
 30
0.0
 10
6.034402397373274
 20
0.4709083449066895
 30
0.0
 10
6.122706699304473
 20
0.50415813237381
 30
0.0
 10
6.246681574113753
 20
0.548067192335921
 30
0.0
 10
6.371576841343103
 20
0.5833414984471901
 30
0.0
 10
6.508821340565518
 20
0.6135064624643007
 30
0.0
 10
6.627110725738918
 20
0.6334186210673991
 30
0.0
 10
6.757580908195434
 20
0.646826655977506
 30
0.0
 10
6.889665784683107
 20
0.6518638987281093
 30
0.0
 10
6.978000610537855
 20
0.6477705160930398
 30
0.0
 10
7.022243186433533
 20
0.6457203417688149
 30
0.0
  0
SPLINE
  5
BE
330
1F
100
AcDbEntity
  8
외형선
  6
Continuous
 62
     1
370
    15
100
AcDbSpline
210
0.0
220
0.0
230
1.0
 70
     8
 71
     3
 72
    10
 73
     6
 74
     0
 42
0.000000001
 43
0.00000001
 40
0.0
 40
0.0
 40
0.0
 40
0.0
 40
0.5
 40
0.5
 40
1.0
 40
1.0
 40
1.0
 40
1.0
 10
7.274861826640215
 20
0.5623248277471049
 30
0.0
 10
7.284139019176392
 20
0.5077586846993967
 30
0.0
 10
7.282818760026871
 20
0.4485278474826799
 30
0.0
 10
7.237231911197295
 20
0.3476592947780333
 30
0.0
 10
7.192549969859463
 20
0.3104520280813787
 30
0.0
 10
7.143494015128482
 20
0.2909654209322881
 30
0.0
  0
LINE
  5
C0
330
1F
100
AcDbEntity
  8
참조1
100
AcDbLine
 10
-11.5519237886467
 20
0.0010749287238892
 30
0.0
 11
-11.5519237886467
 21
-39.99892507127611
 31
0.0
  0
LINE
  5
C1
330
1F
100
AcDbEntity
  8
참조1
100
AcDbLine
 10
12.0980762113533
 20
0.0010749287238892
 30
0.0
 11
12.0980762113533
 21
0.6893143727731179
 31
0.0
  0
LINE
  5
C2
330
1F
100
AcDbEntity
  8
참조1
100
AcDbLine
 10
-11.5519237886467
 20
-39.99892507127611
 30
0.0
 11
-42.56078060295538
 21
-39.9989250712761
 31
0.0
  0
INSERT
  5
C4
330
1F
100
AcDbEntity
  8
0
  6
Continuous
 62
     7
100
AcDbBlockReference
 66
     1
  2
블럭10
 10
-25.4921967207719
 20
-52.04609937292004
 30
0.0
  0
ATTRIB
  5
C5
330
C4
100
AcDbEntity
  8
FORMAT
 62
     2
100
AcDbText
 10
-35.63383273290853
 20
-49.97073246008785
 30
0.0
 40
4.233333333333333
  1
EM865013 [ 2 FLUTE ]
 41
0.75
  7
SLDTEXTSTYLE0
 11
-35.63383273290853
 21
-52.08739912675452
 31
0.0
100
AcDbAttribute
  2
AUTOATTR0
 70
     0
 74
     1
  0
SEQEND
  5
C6
330
C4
100
AcDbEntity
  8
0
  6
Continuous
 62
     7
  0
HATCH
  5
C7
330
1F
100
AcDbEntity
  8
중심선
100
AcDbHatch
 10
0.0
 20
0.0
 30
0.0
210
0.0
220
0.0
230
1.0
  2
SOLID
 70
     1
 71
     0
 91
        1
 92
        0
 93
        4
 72
     1
 10
-19.77728741639107
 20
-35.7989250712761
 11
-23.22356266022835
 21
-35.7989250712761
 72
     1
 10
-23.22356266022835
 20
-35.7989250712761
 11
-25.35179251943237
 21
-38.3352506518487
 72
     1
 10
-25.35179251943237
 20
-38.3352506518487
 11
-21.90548419048194
 21
-38.33521122254621
 72
     1
 10
-21.90548419048194
 20
-38.33521122254621
 11
-19.77728741639107
 21
-35.7989250712761
 97
        0
 75
     0
 76
     1
 98
        1
 10
0.0
 20
0.0
  0
HATCH
  5
C8
330
1F
100
AcDbEntity
  8
중심선
100
AcDbHatch
 10
0.0
 20
0.0
 30
0.0
210
0.0
220
0.0
230
1.0
  2
SOLID
 70
     1
 71
     0
 91
        1
 92
        0
 93
        4
 72
     1
 10
-14.76452342535506
 20
-35.79892507127608
 11
-18.2107986691924
 21
-35.7989250712761
 72
     1
 10
-18.2107986691924
 20
-35.7989250712761
 11
-22.74193667754978
 21
-41.19892507127612
 72
     1
 10
-22.74193667754978
 20
-41.19892507127612
 11
-19.2956614337125
 21
-41.19892507127612
 72
     1
 10
-19.2956614337125
 20
-41.19892507127612
 11
-14.76452342535506
 21
-35.79892507127608
 97
        0
 75
     0
 76
     1
 98
        1
 10
0.0
 20
0.0
  0
HATCH
  5
C9
330
1F
100
AcDbEntity
  8
중심선
100
AcDbHatch
 10
0.0
 20
0.0
 30
0.0
210
0.0
220
0.0
230
1.0
  2
SOLID
 70
     1
 71
     0
 91
        1
 92
        0
 93
        4
 72
     1
 10
-9.75175943431919
 20
-35.79892507127608
 11
-13.19803467815631
 21
-35.7989250712761
 72
     1
 10
-13.19803467815631
 20
-35.7989250712761
 11
-20.24647158004558
 21
-44.19892507127612
 72
     1
 10
-20.24647158004558
 20
-44.19892507127612
 11
-16.8001963362083
 21
-44.19892507127612
 72
     1
 10
-16.8001963362083
 20
-44.19892507127612
 11
-9.75175943431919
 21
-35.79892507127608
 97
        0
 75
     0
 76
     1
 98
        1
 10
0.0
 20
0.0
  0
HATCH
  5
CA
330
1F
100
AcDbEntity
  8
중심선
100
AcDbHatch
 10
0.0
 20
0.0
 30
0.0
210
0.0
220
0.0
230
1.0
  2
SOLID
 70
     1
 71
     0
 91
        1
 92
        0
 93
        6
 72
     3
 10
-4.951869003307019
 20
-39.99892507132738
 11
3.960054785062284
 21
1.540850780301639E-10
 40
0.3939339440162633
 50
17.09539180608433
 51
320.0019657685081
 73
     0
 72
     1
 10
-3.268869347606451
 20
-38.58681907591443
 11
-0.9635674739053859
 21
-36.65249236586649
 72
     3
 10
-4.951869003359866
 20
-39.99892507127625
 11
6.600054785286829
 21
-1.249000902703301E-13
 40
0.6363583540795982
 50
39.99873849337408
 51
368.4976242363724
 73
     1
 72
     1
 10
1.473463488540744
 20
-39.03892507120613
 11
-6.271801696523942
 21
-39.03892507120613
 72
     1
 10
-6.271801696523943
 20
-39.03892507120613
 11
-6.271826740969876
 21
-40.95892507120602
 72
     1
 10
-6.271826740969876
 20
-40.95892507120602
 11
-1.83044697149784
 21
-40.95892507120599
 97
        0
 75
     0
 76
     1
 98
        1
 10
0.0
 20
0.0
  0
LINE
  5
FE
330
1F
100
AcDbEntity
  8
참조1
100
AcDbLine
 10
55.41156002669889
 20
7.441074928723896
 30
0.0
 11
55.41156002669889
 21
-7.438925071276109
 31
0.0
  0
LINE
  5
FF
330
1F
100
AcDbEntity
  8
참조1
100
AcDbLine
 10
68.1115600266989
 20
5.441074928723896
 30
0.0
 11
55.41156002669889
 21
5.441074928723896
 31
0.0
  0
SOLID
  5
100
330
1F
100
AcDbEntity
  8
참조1
100
AcDbTrace
 10
55.41156002669889
 20
5.441074928723896
 30
0.0
 11
61.76156002669889
 21
4.425074928723896
 31
0.0
 12
61.76156002669889
 22
6.457074928723896
 32
0.0
 13
61.76156002669889
 23
6.457074928723896
 33
0.0
  0
LINE
  5
101
330
1F
100
AcDbEntity
  8
참조1
100
AcDbLine
 10
68.1115600266989
 20
-5.438925071276109
 30
0.0
 11
55.41156002669889
 21
-5.438925071276109
 31
0.0
  0
SOLID
  5
102
330
1F
100
AcDbEntity
  8
참조1
100
AcDbTrace
 10
55.41156002669889
 20
-5.438925071276109
 30
0.0
 11
61.76156002669889
 21
-6.454925071276109
 31
0.0
 12
61.76156002669889
 22
-4.422925071276109
 32
0.0
 13
61.76156002669889
 23
-4.422925071276109
 33
0.0
  0
MTEXT
  5
103
330
1F
100
AcDbEntity
  8
참조1
100
AcDbMText
 10
64.80905011916917
 20
10.98929157337383
 30
0.0
 40
3.5
 41
0.0
 71
     1
 72
     1
  1
A
  7
SLDTEXTSTYLE0
 73
     1
 44
1.0
  0
MTEXT
  5
104
330
1F
100
AcDbEntity
  8
참조1
100
AcDbMText
 10
64.80905011916917
 20
0.1092915733738259
 30
0.0
 40
3.5
 41
0.0
 71
     1
 72
     1
  1
A
  7
SLDTEXTSTYLE0
 73
     1
 44
1.0
  0
LINE
  5
1F1
330
1F
100
AcDbEntity
  8
외형선
  6
Continuous
370
    15
100
AcDbLine
 10
-31.94775681356646
 20
1.499999999999986
 30
0.0
 11
-32.32775681356645
 21
1.11999999999999
 31
0.0
  0
LINE
  5
1F2
330
1F
100
AcDbEntity
  8
외형선
  6
Continuous
370
    15
100
AcDbLine
 10
-32.32775681356645
 20
-1.120000000000019
 30
0.0
 11
-31.94775681356646
 21
-1.500000000000014
 31
0.0
  0
LINE
  5
1F3
330
1F
100
AcDbEntity
  8
외형선
  6
Continuous
370
    15
100
AcDbLine
 10
-31.94775681356646
 20
1.499999999999986
 30
0.0
 11
-31.94775681356646
 21
-1.500000000000014
 31
0.0
  0
LINE
  5
1F4
330
1F
100
AcDbEntity
  8
외형선
  6
Continuous
370
    15
100
AcDbLine
 10
-32.32775681356645
 20
1.11999999999999
 30
0.0
 11
-32.32775681356645
 21
-1.120000000000005
 31
0.0
  0
CIRCLE
  5
1F5
330
1F
100
AcDbEntity
  8
해칭선
100
AcDbCircle
 10
0.0
 20
0.0
 30
0.0
 40
3.000000000000001
  0
DIMENSION
  5
1F6
330
1F
100
AcDbEntity
  8
치수문자_일반주서
100
AcDbDimension
  2
*D11
 10
4.172243186433533
 20
11.86298468755263
 30
0.0
 11
-7.025506813566466
 21
11.86298468755263
 31
0.0
 70
   160
  1
<>
 71
     2
 42
3.500000000000005
  3
SLDDIMSTYLE0
100
AcDbAlignedDimension
 13
7.672243186433539
 23
0.6500000000000128
 33
0.0
 14
4.172243186433533
 24
0.6500000000000057
 34
0.0
100
AcDbRotatedDimension
  0
DIMENSION
  5
1F7
330
1F
100
AcDbEntity
  8
치수문자_일반주서
100
AcDbDimension
  2
*D12
 10
-32.32775681356645
 20
24.00000000000005
 30
0.0
 11
-12.32775681356645
 21
24.00000000000005
 31
0.0
 70
   160
  1
<>
 71
     2
 42
39.99999999999999
  3
SLDDIMSTYLE1
100
AcDbAlignedDimension
 13
7.672243186433539
 23
0.6500000000000128
 33
0.0
 14
-32.32775681356645
 24
1.119999999999976
 34
0.0
100
AcDbRotatedDimension
1001
PE_URL
1000

  0
DIMENSION
  5
1F8
330
1F
100
AcDbEntity
  8
치수문자_일반주서
100
AcDbDimension
  2
*D13
 10
-38.20198977648964
 20
-1.500000000000037
 30
0.0
 11
-38.20198977648968
 21
13.79149999999998
 31
0.0
 70
   160
  1
%%c<>
 71
     2
 42
3.000000000000014
 52
-270.0
  3
SLDDIMSTYLE2
100
AcDbAlignedDimension
 13
-31.94775681356646
 23
1.5
 33
0.0
 14
-31.94775681356646
 24
-1.500000000000014
 34
0.0
 50
90.0000000000002
100
AcDbRotatedDimension
1001
PE_URL
1000

  0
DIMENSION
  5
1F9
330
1F
100
AcDbEntity
  8
치수문자_일반주서
100
AcDbDimension
  2
*D14
 10
19.98134271811491
 20
-0.6500000000000092
 30
0.0
 11
19.98134271811487
 21
13.01025000000004
 31
0.0
 70
   160
  1
%%c<>
 71
     2
 42
1.300000000000068
 52
-270.0
  3
SLDDIMSTYLE0
100
AcDbAlignedDimension
 13
7.672243186433539
 23
0.6500000000000128
 33
0.0
 14
7.672243186433542
 24
-0.6500000000000554
 34
0.0
 50
90.0000000000002
100
AcDbRotatedDimension
1001
PE_URL
1000

  0
INSERT
  5
1FA
330
1F
100
AcDbEntity
  8
해칭선
100
AcDbBlockReference
  2
SW_DOWELSYMBOL_0
 10
0.0
 20
0.0
 30
0.0
  0
LINE
  5
1FC
330
1F
100
AcDbEntity
  8
중심선
 62
     1
100
AcDbLine
 10
-33.82775681356645
 20
-0.0000000000000142
 30
0.0
 11
9.172243186433546
 21
0.0
 31
0.0
  0
LINE
  5
1FD
330
1F
100
AcDbEntity
  8
외형선
  6
Continuous
370
    15
100
AcDbLine
 10
-31.94775681356646
 20
-1.500000000000014
 30
0.0
 11
-0.0000000000000018
 21
-1.500000000000014
 31
0.0
  0
LINE
  5
1FE
330
1F
100
AcDbEntity
  8
외형선
  6
Continuous
370
    15
100
AcDbLine
 10
0.0
 20
1.499999999999986
 30
0.0
 11
-31.94775681356646
 21
1.499999999999986
 31
0.0
  0
ENDSEC
  0
SECTION
  2
OBJECTS
  0
DICTIONARY
  5
C
330
0
100
AcDbDictionary
281
     1
  3
ACAD_GROUP
350
D
  3
ACAD_LAYOUT
350
1A
  3
ACAD_MLINESTYLE
350
17
  3
ACAD_PLOTSETTINGS
350
19
  3
ACAD_PLOTSTYLENAME
350
E
  3
ACAD_SCALELIST
350
47
  3
APPDATA
350
12D
  3
DWGPROPS
350
25D
  0
DICTIONARY
  5
D
102
{ACAD_REACTORS
330
C
102
}
330
C
100
AcDbDictionary
281
     1
  0
DICTIONARY
  5
1A
102
{ACAD_REACTORS
330
C
102
}
330
C
100
AcDbDictionary
281
     1
  3
Layout1
350
1E
  3
Layout2
350
26
  3
Model
350
22
  0
DICTIONARY
  5
17
102
{ACAD_REACTORS
330
C
102
}
330
C
100
AcDbDictionary
281
     1
  3
Standard
350
18
  0
DICTIONARY
  5
19
102
{ACAD_REACTORS
330
C
102
}
330
C
100
AcDbDictionary
281
     1
  0
ACDBDICTIONARYWDFLT
  5
E
102
{ACAD_REACTORS
330
C
102
}
330
C
100
AcDbDictionary
281
     1
  3
Normal
350
F
100
AcDbDictionaryWithDefault
340
F
  0
DICTIONARY
  5
47
102
{ACAD_REACTORS
330
C
102
}
330
C
100
AcDbDictionary
281
     1
  3
A0
350
48
  3
A1
350
49
  3
A2
350
4A
  3
A3
350
4B
  3
A4
350
4C
  3
A5
350
4D
  3
A6
350
4E
  3
A7
350
4F
  3
A8
350
50
  3
A9
350
51
  3
B0
350
52
  3
B1
350
53
  3
B2
350
54
  3
B3
350
55
  3
B4
350
56
  3
B5
350
57
  3
B6
350
58
  3
B7
350
59
  3
B8
350
5A
  3
B9
350
5B
  3
C0
350
5C
  3
C1
350
5D
  3
C2
350
5E
  3
C3
350
5F
  3
C4
350
60
  3
C5
350
61
  3
C6
350
62
  3
C7
350
63
  3
C8
350
64
  3
C9
350
65
  3
D0
350
66
  3
D1
350
67
  3
D2
350
68
  0
DICTIONARY
  5
12D
102
{ACAD_REACTORS
330
C
102
}
330
C
100
AcDbDictionary
281
     1
  0
XRECORD
  5
25D
102
{ACAD_REACTORS
330
C
102
}
330
C
100
AcDbXrecord
280
     1
  1
DWGPROPS COOKIE
  2

  3

  4

  6

  7

  8
12015018
  9

300
=
301
=
302
=
303
=
304
=
305
=
306
=
307
=
308
=
309
=
 40
0.0
 41
2458285.097570394
 42
2458292.274051968
  1

 90
        0
  0
LAYOUT
  5
1E
102
{ACAD_REACTORS
330
1A
102
}
330
1A
100
AcDbPlotSettings
  1

  2
none_device
  4

  6

 40
0.0
 41
0.0
 42
0.0
 43
0.0
 44
0.0
 45
0.0
 46
0.0
 47
0.0
 48
0.0
 49
0.0
140
0.0
141
0.0
142
1.0
143
1.0
 70
   688
 72
     1
 73
     0
 74
     5
  7

 75
    16
147
1.0
148
0.0
149
0.0
100
AcDbLayout
  1
Layout1
 70
     1
 71
     1
 10
0.0
 20
0.0
 11
420.0
 21
297.0
 12
0.0
 22
0.0
 32
0.0
 14
1.000000000000000E+20
 24
1.000000000000000E+20
 34
1.000000000000000E+20
 15
-1.000000000000000E+20
 25
-1.000000000000000E+20
 35
-1.000000000000000E+20
146
0.0
 13
0.0
 23
0.0
 33
0.0
 16
1.0
 26
0.0
 36
0.0
 17
0.0
 27
1.0
 37
0.0
 76
     0
330
1B
  0
LAYOUT
  5
26
102
{ACAD_REACTORS
330
1A
102
}
330
1A
100
AcDbPlotSettings
  1

  2
none_device
  4

  6

 40
0.0
 41
0.0
 42
0.0
 43
0.0
 44
0.0
 45
0.0
 46
0.0
 47
0.0
 48
0.0
 49
0.0
140
0.0
141
0.0
142
1.0
143
1.0
 70
   688
 72
     1
 73
     0
 74
     5
  7

 75
    16
147
1.0
148
0.0
149
0.0
100
AcDbLayout
  1
Layout2
 70
     1
 71
     2
 10
0.0
 20
0.0
 11
0.0
 21
0.0
 12
0.0
 22
0.0
 32
0.0
 14
0.0
 24
0.0
 34
0.0
 15
0.0
 25
0.0
 35
0.0
146
0.0
 13
0.0
 23
0.0
 33
0.0
 16
1.0
 26
0.0
 36
0.0
 17
0.0
 27
1.0
 37
0.0
 76
     0
330
23
  0
LAYOUT
  5
22
102
{ACAD_REACTORS
330
1A
102
}
330
1A
100
AcDbPlotSettings
  1

  2
none_device
  4
ANSI_A_(11.00_x_8.50_Inches)
  6

 40
6.35
 41
19.05
 42
6.35000508
 43
19.05000254
 44
279.4
 45
215.9
 46
105.9513023728905
 47
115.9063556660054
 48
0.0
 49
0.0
140
0.0
141
0.0
142
0.0957794650482218
143
1.0
 70
  1696
 72
     0
 73
     0
 74
     0
  7

 75
     0
147
0.0235690232323232
148
0.0
149
0.0
100
AcDbLayout
  1
Model
 70
     1
 71
     0
 10
0.0
 20
0.0
 11
420.0
 21
297.0
 12
0.0
 22
0.0
 32
0.0
 14
-42.57698977648968
 24
-49.97073246008785
 34
0.0
 15
68.1115600266989
 25
28.37500000000005
 35
0.0
146
0.0
 13
0.0
 23
0.0
 33
0.0
 16
1.0
 26
0.0
 36
0.0
 17
0.0
 27
1.0
 37
0.0
 76
     0
330
1F
331
29
  0
MLINESTYLE
  5
18
102
{ACAD_REACTORS
330
17
102
}
330
17
100
AcDbMlineStyle
  2
Standard
 70
     0
  3

 62
   256
 51
90.0
 52
90.0
 71
     2
 49
0.5
 62
   256
  6
BYLAYER
 49
-0.5
 62
   256
  6
BYLAYER
  0
ACDBPLACEHOLDER
  5
F
102
{ACAD_REACTORS
330
E
102
}
330
E
  0
SCALE
  5
48
102
{ACAD_REACTORS
330
47
102
}
330
47
100
AcDbScale
 70
     0
300
1:1
140
1.0
141
1.0
290
     1
  0
SCALE
  5
49
102
{ACAD_REACTORS
330
47
102
}
330
47
100
AcDbScale
 70
     0
300
1:2
140
1.0
141
2.0
290
     0
  0
SCALE
  5
4A
102
{ACAD_REACTORS
330
47
102
}
330
47
100
AcDbScale
 70
     0
300
1:4
140
1.0
141
4.0
290
     0
  0
SCALE
  5
4B
102
{ACAD_REACTORS
330
47
102
}
330
47
100
AcDbScale
 70
     0
300
1:5
140
1.0
141
5.0
290
     0
  0
SCALE
  5
4C
102
{ACAD_REACTORS
330
47
102
}
330
47
100
AcDbScale
 70
     0
300
1:8
140
1.0
141
8.0
290
     0
  0
SCALE
  5
4D
102
{ACAD_REACTORS
330
47
102
}
330
47
100
AcDbScale
 70
     0
300
1:10
140
1.0
141
10.0
290
     0
  0
SCALE
  5
4E
102
{ACAD_REACTORS
330
47
102
}
330
47
100
AcDbScale
 70
     0
300
1:16
140
1.0
141
16.0
290
     0
  0
SCALE
  5
4F
102
{ACAD_REACTORS
330
47
102
}
330
47
100
AcDbScale
 70
     0
300
1:20
140
1.0
141
20.0
290
     0
  0
SCALE
  5
50
102
{ACAD_REACTORS
330
47
102
}
330
47
100
AcDbScale
 70
     0
300
1:30
140
1.0
141
30.0
290
     0
  0
SCALE
  5
51
102
{ACAD_REACTORS
330
47
102
}
330
47
100
AcDbScale
 70
     0
300
1:40
140
1.0
141
40.0
290
     0
  0
SCALE
  5
52
102
{ACAD_REACTORS
330
47
102
}
330
47
100
AcDbScale
 70
     0
300
1:50
140
1.0
141
50.0
290
     0
  0
SCALE
  5
53
102
{ACAD_REACTORS
330
47
102
}
330
47
100
AcDbScale
 70
     0
300
1:100
140
1.0
141
100.0
290
     0
  0
SCALE
  5
54
102
{ACAD_REACTORS
330
47
102
}
330
47
100
AcDbScale
 70
     0
300
2:1
140
2.0
141
1.0
290
     0
  0
SCALE
  5
55
102
{ACAD_REACTORS
330
47
102
}
330
47
100
AcDbScale
 70
     0
300
4:1
140
4.0
141
1.0
290
     0
  0
SCALE
  5
56
102
{ACAD_REACTORS
330
47
102
}
330
47
100
AcDbScale
 70
     0
300
8:1
140
8.0
141
1.0
290
     0
  0
SCALE
  5
57
102
{ACAD_REACTORS
330
47
102
}
330
47
100
AcDbScale
 70
     0
300
10:1
140
10.0
141
1.0
290
     0
  0
SCALE
  5
58
102
{ACAD_REACTORS
330
47
102
}
330
47
100
AcDbScale
 70
     0
300
100:1
140
100.0
141
1.0
290
     0
  0
SCALE
  5
59
102
{ACAD_REACTORS
330
47
102
}
330
47
100
AcDbScale
 70
     0
300
1/128" = 1'-0"
140
0.0078125
141
12.0
290
     0
  0
SCALE
  5
5A
102
{ACAD_REACTORS
330
47
102
}
330
47
100
AcDbScale
 70
     0
300
1/64" = 1'-0"
140
0.015625
141
12.0
290
     0
  0
SCALE
  5
5B
102
{ACAD_REACTORS
330
47
102
}
330
47
100
AcDbScale
 70
     0
300
1/32" = 1'-0"
140
0.03125
141
12.0
290
     0
  0
SCALE
  5
5C
102
{ACAD_REACTORS
330
47
102
}
330
47
100
AcDbScale
 70
     0
300
1/16" = 1'-0"
140
0.0625
141
12.0
290
     0
  0
SCALE
  5
5D
102
{ACAD_REACTORS
330
47
102
}
330
47
100
AcDbScale
 70
     0
300
3/32" = 1'-0"
140
0.09375
141
12.0
290
     0
  0
SCALE
  5
5E
102
{ACAD_REACTORS
330
47
102
}
330
47
100
AcDbScale
 70
     0
300
1/8" = 1'-0"
140
0.125
141
12.0
290
     0
  0
SCALE
  5
5F
102
{ACAD_REACTORS
330
47
102
}
330
47
100
AcDbScale
 70
     0
300
3/16" = 1'-0"
140
0.1875
141
12.0
290
     0
  0
SCALE
  5
60
102
{ACAD_REACTORS
330
47
102
}
330
47
100
AcDbScale
 70
     0
300
1/4" = 1'-0"
140
0.25
141
12.0
290
     0
  0
SCALE
  5
61
102
{ACAD_REACTORS
330
47
102
}
330
47
100
AcDbScale
 70
     0
300
3/8" = 1'-0"
140
0.375
141
12.0
290
     0
  0
SCALE
  5
62
102
{ACAD_REACTORS
330
47
102
}
330
47
100
AcDbScale
 70
     0
300
1/2" = 1'-0"
140
0.5
141
12.0
290
     0
  0
SCALE
  5
63
102
{ACAD_REACTORS
330
47
102
}
330
47
100
AcDbScale
 70
     0
300
3/4" = 1'-0"
140
0.75
141
12.0
290
     0
  0
SCALE
  5
64
102
{ACAD_REACTORS
330
47
102
}
330
47
100
AcDbScale
 70
     0
300
1" = 1'-0"
140
1.0
141
12.0
290
     0
  0
SCALE
  5
65
102
{ACAD_REACTORS
330
47
102
}
330
47
100
AcDbScale
 70
     0
300
1-1/2" = 1'-0"
140
1.5
141
12.0
290
     0
  0
SCALE
  5
66
102
{ACAD_REACTORS
330
47
102
}
330
47
100
AcDbScale
 70
     0
300
3" = 1'-0"
140
3.0
141
12.0
290
     0
  0
SCALE
  5
67
102
{ACAD_REACTORS
330
47
102
}
330
47
100
AcDbScale
 70
     0
300
6" = 1'-0"
140
6.0
141
12.0
290
     0
  0
SCALE
  5
68
102
{ACAD_REACTORS
330
47
102
}
330
47
100
AcDbScale
 70
     0
300
1'-0" = 1'-0"
140
12.0
141
12.0
290
     0
  0
ENDSEC
  0
EOF
