  0
SECTION
  2
HEADER
  9
$ACADVER
  1
AC1015
  9
$ACADMAINTVER
 70
     6
  9
$DWGCODEPAGE
  3
ANSI_949
  9
$INSBASE
 10
0.0
 20
0.0
 30
0.0
  9
$EXTMIN
 10
1.000000000000000E+20
 20
1.000000000000000E+20
 30
1.000000000000000E+20
  9
$EXTMAX
 10
-1.000000000000000E+20
 20
-1.000000000000000E+20
 30
-1.000000000000000E+20
  9
$LIMMIN
 10
0.0
 20
0.0
  9
$LIMMAX
 10
420.0
 20
297.0
  9
$ORTHOMODE
 70
     0
  9
$REGENMODE
 70
     1
  9
$FILLMODE
 70
     1
  9
$QTEXTMODE
 70
     0
  9
$MIRRTEXT
 70
     1
  9
$LTSCALE
 40
1.0
  9
$ATTMODE
 70
     1
  9
$TEXTSIZE
 40
3.5
  9
$TRACEWID
 40
1.0
  9
$TEXTSTYLE
  7
Standard
  9
$CLAYER
  8
0
  9
$CELTYPE
  6
ByLayer
  9
$CECOLOR
 62
   256
  9
$CELTSCALE
 40
1.0
  9
$DISPSILH
 70
     0
  9
$DIMSCALE
 40
1.0
  9
$DIMASZ
 40
3.302
  9
$DIMEXO
 40
1.0
  9
$DIMDLI
 40
3.75
  9
$DIMRND
 40
0.0
  9
$DIMDLE
 40
0.0
  9
$DIMEXE
 40
1.0
  9
$DIMTP
 40
0.0
  9
$DIMTM
 40
0.0
  9
$DIMTXT
 40
3.5
  9
$DIMCEN
 40
2.5
  9
$DIMTSZ
 40
0.0
  9
$DIMTOL
 70
     0
  9
$DIMLIM
 70
     0
  9
$DIMTIH
 70
     1
  9
$DIMTOH
 70
     1
  9
$DIMSE1
 70
     0
  9
$DIMSE2
 70
     0
  9
$DIMTAD
 70
     1
  9
$DIMZIN
 70
     0
  9
$DIMBLK
  1

  9
$DIMASO
 70
     1
  9
$DIMSHO
 70
     1
  9
$DIMPOST
  1

  9
$DIMAPOST
  1

  9
$DIMALT
 70
     0
  9
$DIMALTD
 70
     3
  9
$DIMALTF
 40
0.0393700787401575
  9
$DIMLFAC
 40
1.0
  9
$DIMTOFL
 70
     1
  9
$DIMTVP
 40
0.0
  9
$DIMTIX
 70
     0
  9
$DIMSOXD
 70
     0
  9
$DIMSAH
 70
     0
  9
$DIMBLK1
  1

  9
$DIMBLK2
  1

  9
$DIMSTYLE
  2
ISO-25
  9
$DIMCLRD
 70
     0
  9
$DIMCLRE
 70
     0
  9
$DIMCLRT
 70
     0
  9
$DIMTFAC
 40
1.0
  9
$DIMGAP
 40
1.524
  9
$DIMJUST
 70
     0
  9
$DIMSD1
 70
     0
  9
$DIMSD2
 70
     0
  9
$DIMTOLJ
 70
     0
  9
$DIMTZIN
 70
     0
  9
$DIMALTZ
 70
     0
  9
$DIMALTTZ
 70
     0
  9
$DIMUPT
 70
     0
  9
$DIMDEC
 70
     2
  9
$DIMTDEC
 70
     2
  9
$DIMALTU
 70
     2
  9
$DIMALTTD
 70
     3
  9
$DIMTXSTY
  7
Standard
  9
$DIMAUNIT
 70
     0
  9
$DIMADEC
 70
     2
  9
$DIMALTRND
 40
0.0
  9
$DIMAZIN
 70
     0
  9
$DIMDSEP
 70
    44
  9
$DIMATFIT
 70
     3
  9
$DIMFRAC
 70
     0
  9
$DIMLDRBLK
  1

  9
$DIMLUNIT
 70
     2
  9
$DIMLWD
 70
    -2
  9
$DIMLWE
 70
    -2
  9
$DIMTMOVE
 70
     0
  9
$LUNITS
 70
     2
  9
$LUPREC
 70
     2
  9
$SKETCHINC
 40
1.0
  9
$FILLETRAD
 40
10.0
  9
$AUNITS
 70
     0
  9
$AUPREC
 70
     2
  9
$MENU
  1
.
  9
$ELEVATION
 40
0.0
  9
$PELEVATION
 40
0.0
  9
$THICKNESS
 40
0.0
  9
$LIMCHECK
 70
     0
  9
$CHAMFERA
 40
0.0
  9
$CHAMFERB
 40
0.0
  9
$CHAMFERC
 40
0.0
  9
$CHAMFERD
 40
0.0
  9
$SKPOLY
 70
     0
  9
$TDCREATE
 40
2458292.506717373
  9
$TDUCREATE
 40
2458292.131717373
  9
$TDUPDATE
 40
2458295.825128646
  9
$TDUUPDATE
 40
2458295.450128646
  9
$TDINDWG
 40
0.0024966088
  9
$TDUSRTIMER
 40
2458295.450010289
  9
$USRTIMER
 70
     1
  9
$ANGBASE
 50
0.0
  9
$ANGDIR
 70
     0
  9
$PDMODE
 70
     0
  9
$PDSIZE
 40
-1.0
  9
$PLINEWID
 40
0.0
  9
$SPLFRAME
 70
     0
  9
$SPLINETYPE
 70
     6
  9
$SPLINESEGS
 70
     8
  9
$HANDSEED
  5
1AE
  9
$SURFTAB1
 70
     6
  9
$SURFTAB2
 70
     6
  9
$SURFTYPE
 70
     6
  9
$SURFU
 70
     6
  9
$SURFV
 70
     6
  9
$UCSBASE
  2

  9
$UCSNAME
  2

  9
$UCSORG
 10
0.0
 20
0.0
 30
0.0
  9
$UCSXDIR
 10
1.0
 20
0.0
 30
0.0
  9
$UCSYDIR
 10
0.0
 20
1.0
 30
0.0
  9
$UCSORTHOREF
  2

  9
$UCSORTHOVIEW
 70
     0
  9
$UCSORGTOP
 10
0.0
 20
0.0
 30
0.0
  9
$UCSORGBOTTOM
 10
0.0
 20
0.0
 30
0.0
  9
$UCSORGLEFT
 10
0.0
 20
0.0
 30
0.0
  9
$UCSORGRIGHT
 10
0.0
 20
0.0
 30
0.0
  9
$UCSORGFRONT
 10
0.0
 20
0.0
 30
0.0
  9
$UCSORGBACK
 10
0.0
 20
0.0
 30
0.0
  9
$PUCSBASE
  2

  9
$PUCSNAME
  2

  9
$PUCSORG
 10
0.0
 20
0.0
 30
0.0
  9
$PUCSXDIR
 10
1.0
 20
0.0
 30
0.0
  9
$PUCSYDIR
 10
0.0
 20
1.0
 30
0.0
  9
$PUCSORTHOREF
  2

  9
$PUCSORTHOVIEW
 70
     0
  9
$PUCSORGTOP
 10
0.0
 20
0.0
 30
0.0
  9
$PUCSORGBOTTOM
 10
0.0
 20
0.0
 30
0.0
  9
$PUCSORGLEFT
 10
0.0
 20
0.0
 30
0.0
  9
$PUCSORGRIGHT
 10
0.0
 20
0.0
 30
0.0
  9
$PUCSORGFRONT
 10
0.0
 20
0.0
 30
0.0
  9
$PUCSORGBACK
 10
0.0
 20
0.0
 30
0.0
  9
$USERI1
 70
     0
  9
$USERI2
 70
     0
  9
$USERI3
 70
     0
  9
$USERI4
 70
     0
  9
$USERI5
 70
     0
  9
$USERR1
 40
0.0
  9
$USERR2
 40
0.0
  9
$USERR3
 40
0.0
  9
$USERR4
 40
0.0
  9
$USERR5
 40
0.0
  9
$WORLDVIEW
 70
     1
  9
$SHADEDGE
 70
     3
  9
$SHADEDIF
 70
    70
  9
$TILEMODE
 70
     1
  9
$MAXACTVP
 70
    64
  9
$PINSBASE
 10
0.0
 20
0.0
 30
0.0
  9
$PLIMCHECK
 70
     0
  9
$PEXTMIN
 10
1.000000000000000E+20
 20
1.000000000000000E+20
 30
1.000000000000000E+20
  9
$PEXTMAX
 10
-1.000000000000000E+20
 20
-1.000000000000000E+20
 30
-1.000000000000000E+20
  9
$PLIMMIN
 10
0.0
 20
0.0
  9
$PLIMMAX
 10
0.0
 20
0.0
  9
$UNITMODE
 70
     0
  9
$VISRETAIN
 70
     1
  9
$PLINEGEN
 70
     0
  9
$PSLTSCALE
 70
     1
  9
$TREEDEPTH
 70
  3020
  9
$CMLSTYLE
  2
Standard
  9
$CMLJUST
 70
     0
  9
$CMLSCALE
 40
20.0
  9
$PROXYGRAPHICS
 70
     1
  9
$MEASUREMENT
 70
     1
  9
$CELWEIGHT
370
    -1
  9
$ENDCAPS
280
     0
  9
$JOINSTYLE
280
     0
  9
$LWDISPLAY
290
     1
  9
$INSUNITS
 70
     4
  9
$HYPERLINKBASE
  1

  9
$STYLESHEET
  1

  9
$XEDIT
290
     1
  9
$CEPSNTYPE
380
     0
  9
$PSTYLEMODE
290
     1
  9
$FINGERPRINTGUID
  2
{1219DF18-9152-49BF-886F-6B8073DB0AEC}
  9
$VERSIONGUID
  2
{FAEB1C32-E019-11D5-929B-00C0DF256EC4}
  9
$EXTNAMES
290
     1
  9
$PSVPSCALE
 40
0.0
  9
$OLESTARTUP
290
     0
  0
ENDSEC
  0
SECTION
  2
CLASSES
  0
CLASS
  1
ACDBDICTIONARYWDFLT
  2
AcDbDictionaryWithDefault
  3
ObjectDBX Classes
 90
        0
280
     0
281
     0
  0
CLASS
  1
VISUALSTYLE
  2
AcDbVisualStyle
  3
ObjectDBX Classes
 90
     4095
280
     0
281
     0
  0
CLASS
  1
MATERIAL
  2
AcDbMaterial
  3
ObjectDBX Classes
 90
     1153
280
     0
281
     0
  0
CLASS
  1
SCALE
  2
AcDbScale
  3
ObjectDBX Classes
 90
     1153
280
     0
281
     0
  0
CLASS
  1
SUN
  2
AcDbSun
  3
SCENEOE
 90
     1153
280
     0
281
     0
  0
CLASS
  1
ACDBPLACEHOLDER
  2
AcDbPlaceHolder
  3
ObjectDBX Classes
 90
        0
280
     0
281
     0
  0
CLASS
  1
LAYOUT
  2
AcDbLayout
  3
ObjectDBX Classes
 90
        0
280
     0
281
     0
  0
CLASS
  1
TABLESTYLE
  2
AcDbTableStyle
  3
ObjectDBX Classes
 90
     4095
280
     0
281
     0
  0
CLASS
  1
MLEADERSTYLE
  2
AcDbMLeaderStyle
  3
ACDB_MLEADERSTYLE_CLASS
 90
     4095
280
     0
281
     0
  0
CLASS
  1
RASTERVARIABLES
  2
AcDbRasterVariables
  3
ISM
 90
        0
280
     0
281
     0
  0
ENDSEC
  0
SECTION
  2
TABLES
  0
TABLE
  2
VPORT
  5
8
330
0
100
AcDbSymbolTable
 70
     1
  0
VPORT
  5
29
330
8
100
AcDbSymbolTableRecord
100
AcDbViewportTableRecord
  2
*Active
 70
     0
 10
0.0
 20
0.0
 11
1.0
 21
1.0
 12
-99.0137633918448
 22
-80.78098571205143
 13
0.0
 23
0.0
 14
10.0
 24
10.0
 15
10.0
 25
10.0
 16
0.0
 26
0.0
 36
1.0
 17
0.0
 27
0.0
 37
0.0
 40
258.2105572401144
 41
1.546332046332046
 42
50.0
 43
0.0
 44
0.0
 50
0.0
 51
0.0
 71
    16
 72
  2000
 73
     1
 74
     3
 75
     0
 76
     0
 77
     0
 78
     0
281
     0
 65
     1
110
0.0
120
0.0
130
0.0
111
1.0
121
0.0
131
0.0
112
0.0
122
1.0
132
0.0
 79
     0
146
0.0
  0
ENDTAB
  0
TABLE
  2
LTYPE
  5
5
330
0
100
AcDbSymbolTable
 70
     6
  0
LTYPE
  5
14
330
5
100
AcDbSymbolTableRecord
100
AcDbLinetypeTableRecord
  2
ByBlock
 70
     0
  3

 72
    65
 73
     0
 40
0.0
  0
LTYPE
  5
15
330
5
100
AcDbSymbolTableRecord
100
AcDbLinetypeTableRecord
  2
ByLayer
 70
     0
  3

 72
    65
 73
     0
 40
0.0
  0
LTYPE
  5
16
330
5
100
AcDbSymbolTableRecord
100
AcDbLinetypeTableRecord
  2
Continuous
 70
     0
  3
Solid line
 72
    65
 73
     0
 40
0.0
  0
LTYPE
  5
6A
330
5
100
AcDbSymbolTableRecord
100
AcDbLinetypeTableRecord
  2
HIDDEN
 70
     0
  3
Hidden __ __ __ __ __ __ __ __ __ __ __ __ __ __
 72
    65
 73
     2
 40
1.905
 49
1.27
 74
     0
 49
-0.635
 74
     0
  0
LTYPE
  5
6B
330
5
100
AcDbSymbolTableRecord
100
AcDbLinetypeTableRecord
  2
PHANTOM
 70
     0
  3
Phantom ______  __  __  ______  __  __  ______
 72
    65
 73
     6
 40
12.7
 49
6.35
 74
     0
 49
-1.27
 74
     0
 49
1.27
 74
     0
 49
-1.27
 74
     0
 49
1.27
 74
     0
 49
-1.27
 74
     0
  0
LTYPE
  5
6C
330
5
100
AcDbSymbolTableRecord
100
AcDbLinetypeTableRecord
  2
CENTER
 70
     0
  3
Center ____ _ ____ _ ____ _ ____ _ ____ _ ____
 72
    65
 73
     4
 40
10.16
 49
6.35
 74
     0
 49
-1.27
 74
     0
 49
1.27
 74
     0
 49
-1.27
 74
     0
  0
LTYPE
  5
6D
330
5
100
AcDbSymbolTableRecord
100
AcDbLinetypeTableRecord
  2
CENTERX2
 70
     0
  3
Center (2x) ________  __  ________  __  _____
 72
    65
 73
     4
 40
20.32
 49
12.7
 74
     0
 49
-2.54
 74
     0
 49
2.54
 74
     0
 49
-2.54
 74
     0
  0
LTYPE
  5
6E
330
5
100
AcDbSymbolTableRecord
100
AcDbLinetypeTableRecord
  2
DOT2
 70
     0
  3
Dot (.5x) ........................................
 72
    65
 73
     2
 40
0.635
 49
0.0
 74
     0
 49
-0.635
 74
     0
  0
ENDTAB
  0
TABLE
  2
LAYER
  5
2
102
{ACAD_XDICTIONARY
360
190
102
}
330
0
100
AcDbSymbolTable
 70
    19
  0
LAYER
  5
10
330
2
100
AcDbSymbolTableRecord
100
AcDbLayerTableRecord
  2
0
 70
     0
 62
     7
  6
Continuous
370
    -3
390
F
  0
LAYER
  5
6F
330
2
100
AcDbSymbolTableRecord
100
AcDbLayerTableRecord
  2
FORMAT
 70
     0
 62
     2
  6
Continuous
370
    -3
390
F
  0
LAYER
  5
70
330
2
100
AcDbSymbolTableRecord
100
AcDbLayerTableRecord
  2
외형선
 70
     0
 62
     4
  6
Continuous
370
    30
390
F
  0
LAYER
  5
71
330
2
100
AcDbSymbolTableRecord
100
AcDbLayerTableRecord
  2
숨은선
 70
     0
 62
     2
  6
HIDDEN
370
    15
390
F
  0
LAYER
  5
72
330
2
100
AcDbSymbolTableRecord
100
AcDbLayerTableRecord
  2
중심선
 70
     0
 62
     1
  6
CENTERX2
370
    -3
390
F
  0
LAYER
  5
73
330
2
100
AcDbSymbolTableRecord
100
AcDbLayerTableRecord
  2
파단선
 70
     0
 62
     4
  6
Continuous
370
    -3
390
F
  0
LAYER
  5
74
330
2
100
AcDbSymbolTableRecord
100
AcDbLayerTableRecord
  2
해칭선
 70
     0
 62
   100
  6
Continuous
370
    -3
390
F
  0
LAYER
  5
75
330
2
100
AcDbSymbolTableRecord
100
AcDbLayerTableRecord
  2
가는실선
 70
     0
 62
     4
  6
Continuous
370
    -3
390
F
  0
LAYER
  5
76
330
2
100
AcDbSymbolTableRecord
100
AcDbLayerTableRecord
  2
치수_보조선
 70
     0
 62
     4
  6
Continuous
370
    -3
390
F
  0
LAYER
  5
77
330
2
100
AcDbSymbolTableRecord
100
AcDbLayerTableRecord
  2
치수문자_일반주서
 70
     0
 62
     7
  6
Continuous
370
    15
390
F
  0
LAYER
  5
78
330
2
100
AcDbSymbolTableRecord
100
AcDbLayerTableRecord
  2
개별주서
 70
     0
 62
   100
  6
Continuous
370
    30
390
F
  0
LAYER
  5
79
330
2
100
AcDbSymbolTableRecord
100
AcDbLayerTableRecord
  2
중간선
 70
     0
 62
     2
  6
Continuous
370
    15
390
F
  0
LAYER
  5
7A
330
2
100
AcDbSymbolTableRecord
100
AcDbLayerTableRecord
  2
윤곽선
 70
     0
 62
     3
  6
Continuous
370
    40
390
F
  0
LAYER
  5
7B
330
2
100
AcDbSymbolTableRecord
100
AcDbLayerTableRecord
  2
중심마크
 70
     0
 62
   100
  6
Continuous
370
    30
390
F
  0
LAYER
  5
7C
330
2
100
AcDbSymbolTableRecord
100
AcDbLayerTableRecord
  2
가상선
 70
     0
 62
     4
  6
PHANTOM
370
    -3
390
F
  0
LAYER
  5
7D
330
2
100
AcDbSymbolTableRecord
100
AcDbLayerTableRecord
  2
특수지정선
 70
     0
 62
     5
  6
CENTERX2
370
    60
390
F
  0
LAYER
  5
7E
330
2
100
AcDbSymbolTableRecord
100
AcDbLayerTableRecord
  2
참조1
 70
     0
 62
    -4
  6
Continuous
370
    -3
390
F
  0
LAYER
  5
11F
330
2
100
AcDbSymbolTableRecord
100
AcDbLayerTableRecord
  2
Defpoints
 70
     0
 62
     7
  6
Continuous
290
     0
370
    -3
390
F
  0
LAYER
  5
159
330
2
100
AcDbSymbolTableRecord
100
AcDbLayerTableRecord
  2
CUT
 70
     0
 62
     1
  6
Continuous
370
    -3
390
F
1001
AcAecLayerStandard
1000

1000

  0
ENDTAB
  0
TABLE
  2
STYLE
  5
3
330
0
100
AcDbSymbolTable
 70
     2
  0
STYLE
  5
11
330
3
100
AcDbSymbolTableRecord
100
AcDbTextStyleTableRecord
  2
Standard
 70
     0
 40
0.0
 41
1.0
 50
0.0
 71
     0
 42
3.5
  3
txt
  4

  0
STYLE
  5
94
330
3
100
AcDbSymbolTableRecord
100
AcDbTextStyleTableRecord
  2
SLDTEXTSTYLE0
 70
     0
 40
0.0
 41
0.75
 50
0.0
 71
     0
 42
3.5
  3
TXT
  4

  0
ENDTAB
  0
TABLE
  2
VIEW
  5
6
330
0
100
AcDbSymbolTable
 70
     0
  0
ENDTAB
  0
TABLE
  2
UCS
  5
7
330
0
100
AcDbSymbolTable
 70
     0
  0
ENDTAB
  0
TABLE
  2
APPID
  5
9
330
0
100
AcDbSymbolTable
 70
     4
  0
APPID
  5
12
330
9
100
AcDbSymbolTableRecord
100
AcDbRegAppTableRecord
  2
ACAD
 70
     0
  0
APPID
  5
134
330
9
100
AcDbSymbolTableRecord
100
AcDbRegAppTableRecord
  2
ACAD_DSTYLE_DIMFLIPARROW_SYMBOL
 70
     0
  0
APPID
  5
135
330
9
100
AcDbSymbolTableRecord
100
AcDbRegAppTableRecord
  2
ACAD_DSTYLE_DIMFLIPARROW_WHICH_SYMBOL
 70
     0
  0
APPID
  5
15B
330
9
100
AcDbSymbolTableRecord
100
AcDbRegAppTableRecord
  2
AcAecLayerStandard
 70
     0
  0
ENDTAB
  0
TABLE
  2
DIMSTYLE
  5
A
330
0
100
AcDbSymbolTable
 70
     3
100
AcDbDimStyleTable
  0
DIMSTYLE
105
27
330
A
100
AcDbSymbolTableRecord
100
AcDbDimStyleTableRecord
  2
ISO-25
 70
     0
 41
2.5
 42
0.625
 43
3.75
 44
1.25
 73
     0
 74
     0
 77
     1
 78
     8
140
2.5
141
2.5
143
0.03937007874016
147
0.625
171
     3
172
     1
178
     0
271
     2
272
     2
274
     3
278
    44
283
     0
284
     8
340
11
  0
DIMSTYLE
105
C0
102
{ACAD_REACTORS
330
BF
330
CB
330
D5
102
}
330
A
100
AcDbSymbolTableRecord
100
AcDbDimStyleTableRecord
  2
SLDDIMSTYLE0
 70
     0
 41
3.302
 44
0.0
 45
0.000000001
 73
     0
 74
     0
 77
     1
 78
    12
 79
     3
140
3.5
147
0.875
173
     1
178
     0
271
     2
272
     2
276
     2
284
    12
340
94
  0
DIMSTYLE
105
E0
102
{ACAD_REACTORS
330
DF
102
}
330
A
100
AcDbSymbolTableRecord
100
AcDbDimStyleTableRecord
  2
SLDDIMSTYLE1
 70
     0
 41
3.302
 44
0.0
 45
0.000000001
 73
     0
 74
     0
 77
     1
 78
    12
 79
     3
140
3.5
147
0.875
172
     1
173
     1
178
     0
271
     2
272
     2
276
     2
284
    12
289
     0
340
94
  0
ENDTAB
  0
TABLE
  2
BLOCK_RECORD
  5
1
330
0
100
AcDbSymbolTable
 70
     8
  0
BLOCK_RECORD
  5
1F
330
1
100
AcDbSymbolTableRecord
100
AcDbBlockTableRecord
  2
*Model_Space
340
22
  0
BLOCK_RECORD
  5
1B
330
1
100
AcDbSymbolTableRecord
100
AcDbBlockTableRecord
  2
*Paper_Space
340
1E
  0
BLOCK_RECORD
  5
23
330
1
100
AcDbSymbolTableRecord
100
AcDbBlockTableRecord
  2
*Paper_Space0
340
26
  0
BLOCK_RECORD
  5
7F
330
1
100
AcDbSymbolTableRecord
100
AcDbBlockTableRecord
  2
블럭10
340
0
102
{BLKREFS
331
B8
102
}
  0
BLOCK_RECORD
  5
C1
330
1
100
AcDbSymbolTableRecord
100
AcDbBlockTableRecord
  2
_D
340
0
  0
BLOCK_RECORD
  5
CC
330
1
100
AcDbSymbolTableRecord
100
AcDbBlockTableRecord
  2
_D_1
340
0
  0
BLOCK_RECORD
  5
D6
330
1
100
AcDbSymbolTableRecord
100
AcDbBlockTableRecord
  2
_D_2
340
0
  0
BLOCK_RECORD
  5
E1
330
1
100
AcDbSymbolTableRecord
100
AcDbBlockTableRecord
  2
_D_3
340
0
  0
BLOCK_RECORD
  5
F4
330
1
100
AcDbSymbolTableRecord
100
AcDbBlockTableRecord
  2
SW_DOWELSYMBOL_0
340
0
102
{BLKREFS
331
FA
102
}
  0
ENDTAB
  0
ENDSEC
  0
SECTION
  2
BLOCKS
  0
BLOCK
  5
20
330
1F
100
AcDbEntity
  8
0
100
AcDbBlockBegin
  2
*Model_Space
 70
     0
 10
0.0
 20
0.0
 30
0.0
  3
*Model_Space
  1
*Model_Space
  0
ENDBLK
  5
21
330
1F
100
AcDbEntity
  8
0
100
AcDbBlockEnd
  0
BLOCK
  5
1C
330
1B
100
AcDbEntity
 67
     1
  8
0
100
AcDbBlockBegin
  2
*Paper_Space
 70
     0
 10
0.0
 20
0.0
 30
0.0
  3
*Paper_Space
  1
*Paper_Space
  0
ENDBLK
  5
1D
330
1B
100
AcDbEntity
 67
     1
  8
0
100
AcDbBlockEnd
  0
BLOCK
  5
24
330
23
100
AcDbEntity
  8
0
100
AcDbBlockBegin
  2
*Paper_Space0
 70
     0
 10
0.0
 20
0.0
 30
0.0
  3
*Paper_Space0
  1
*Paper_Space0
  0
ENDBLK
  5
25
330
23
100
AcDbEntity
  8
0
100
AcDbBlockEnd
  0
BLOCK
  5
80
330
7F
100
AcDbEntity
  8
0
100
AcDbBlockBegin
  2
블럭10
 70
     2
 10
0.0
 20
0.0
 30
0.0
  3
블럭10
  1
블럭10
  0
ELLIPSE
  5
82
330
7F
100
AcDbEntity
  8
중심선
100
AcDbEllipse
 10
20.54032771741204
 20
12.0471743016438
 30
0.0
 11
6.600054785286829
 21
-1.261213355974178E-13
 31
0.0
210
0.0
220
0.0
230
1.0
 40
0.636358354079598
 41
0.9219305317359503
 42
6.513795318482858
  0
ELLIPSE
  5
83
330
7F
100
AcDbEntity
  8
중심선
100
AcDbEllipse
 10
20.54032771746488
 20
12.04717430159265
 30
0.0
 11
3.960054785062283
 21
1.540847449632565E-10
 31
0.0
210
0.0
220
0.0
230
1.0
 40
0.3939339440162632
 41
1.131841032648279
 42
5.62031148352944
  0
LINE
  5
84
330
7F
100
AcDbEntity
  8
중심선
100
AcDbLine
 10
2.268634060543552
 20
16.24717430164393
 30
0.0
 11
5.714909304380834
 21
16.24717430164393
 31
0.0
  0
LINE
  5
85
330
7F
100
AcDbEntity
  8
중심선
100
AcDbLine
 10
5.245725140726316
 20
7.84717430164391
 30
0.0
 11
8.692000384563599
 21
7.84717430164391
 31
0.0
  0
LINE
  5
86
330
7F
100
AcDbEntity
  8
중심선
100
AcDbLine
 10
15.74043728645272
 20
16.24717430164393
 30
0.0
 11
8.692000384563599
 21
7.84717430164391
 31
0.0
  0
LINE
  5
87
330
7F
100
AcDbEntity
  8
중심선
100
AcDbLine
 10
0.1404042013395286
 20
13.71084872107135
 30
0.0
 11
3.58671253028996
 21
13.71088815037384
 31
0.0
  0
LINE
  5
88
330
7F
100
AcDbEntity
  8
중심선
100
AcDbLine
 10
2.750260043222114
 20
10.84717430164391
 30
0.0
 11
6.196535287059397
 21
10.84717430164391
 31
0.0
  0
LINE
  5
89
330
7F
100
AcDbEntity
  8
중심선
100
AcDbLine
 10
12.29416204261559
 20
16.24717430164393
 30
0.0
 11
5.245725140726316
 21
7.84717430164391
 31
0.0
  0
LINE
  5
8A
330
7F
100
AcDbEntity
  8
중심선
100
AcDbLine
 10
10.72767329541681
 20
16.24717430164393
 30
0.0
 11
6.196535287059397
 21
10.84717430164391
 31
0.0
  0
LINE
  5
8B
330
7F
100
AcDbEntity
  8
중심선
100
AcDbLine
 10
7.28139805157953
 20
16.24717430164393
 30
0.0
 11
2.750260043222114
 21
10.84717430164391
 31
0.0
  0
LINE
  5
8C
330
7F
100
AcDbEntity
  8
중심선
100
AcDbLine
 10
5.714909304380834
 20
16.24717430164393
 30
0.0
 11
3.58671253028996
 21
13.71088815037384
 31
0.0
  0
LINE
  5
8D
330
7F
100
AcDbEntity
  8
중심선
100
AcDbLine
 10
2.268634060543552
 20
16.24717430164393
 30
0.0
 11
0.1404042013395286
 21
13.71084872107135
 31
0.0
  0
LINE
  5
8E
330
7F
100
AcDbEntity
  8
중심선
100
AcDbLine
 10
7.28139805157953
 20
16.24717430164393
 30
0.0
 11
10.72767329541681
 21
16.24717430164393
 31
0.0
  0
LINE
  5
8F
330
7F
100
AcDbEntity
  8
중심선
100
AcDbLine
 10
12.29416204261559
 20
16.24717430164393
 30
0.0
 11
15.74043728645272
 21
16.24717430164393
 31
0.0
  0
LINE
  5
90
330
7F
100
AcDbEntity
  8
중심선
100
AcDbLine
 10
19.22036997980202
 20
11.08717430171403
 30
0.0
 11
23.66174974927406
 21
11.08717430171406
 31
0.0
  0
LINE
  5
91
330
7F
100
AcDbEntity
  8
중심선
100
AcDbLine
 10
19.22039502424796
 20
13.00717430171391
 30
0.0
 11
19.22036997980202
 21
11.08717430171403
 31
0.0
  0
LINE
  5
92
330
7F
100
AcDbEntity
  8
중심선
100
AcDbLine
 10
19.22039502424796
 20
13.00717430171391
 30
0.0
 11
26.96566020931264
 21
13.00717430171391
 31
0.0
  0
LINE
  5
93
330
7F
100
AcDbEntity
  8
중심선
100
AcDbLine
 10
22.22332737316547
 20
13.45928029700563
 30
0.0
 11
24.52862924686651
 21
15.39360700705356
 31
0.0
  0
ATTDEF
  5
95
330
7F
100
AcDbEntity
  8
FORMAT
 62
     2
100
AcDbText
 10
3.448148490846466
 20
2.075366912832191
 30
0.0
 40
4.233333333333333
  1
EM825200
 41
0.75
  7
SLDTEXTSTYLE0
 11
3.448148490846466
 21
-0.0412997538344756
 31
0.0
100
AcDbAttributeDefinition
  3

  2
AUTOATTR0
 70
     0
 74
     1
  0
ENDBLK
  5
81
330
7F
100
AcDbEntity
  8
0
100
AcDbBlockEnd
  0
BLOCK
  5
C2
330
C1
100
AcDbEntity
  8
0
100
AcDbBlockBegin
  2
_D
 70
     0
 10
0.0
 20
0.0
 30
0.0
  3
_D
  1
_D
  0
LINE
  5
C4
330
C1
100
AcDbEntity
  8
치수문자_일반주서
 62
     0
370
    -2
100
AcDbLine
 10
50.00000000000001
 20
10.06250000000012
 30
0.0
 11
50.00000000000001
 21
16.39618069276
 31
0.0
  0
LINE
  5
C5
330
C1
100
AcDbEntity
  8
치수문자_일반주서
 62
     0
370
    -2
100
AcDbLine
 10
11.99999999999997
 20
10.06250000000001
 30
0.0
 11
11.99999999999997
 21
16.39618069276
 31
0.0
  0
LINE
  5
C6
330
C1
100
AcDbEntity
  8
치수문자_일반주서
 62
     0
370
    -2
100
AcDbLine
 10
46.69800000000001
 20
16.39618069276
 30
0.0
 11
15.30199999999997
 21
16.39618069276
 31
0.0
  0
SOLID
  5
C7
330
C1
100
AcDbEntity
  8
치수문자_일반주서
 62
     0
100
AcDbTrace
 10
46.69800000000001
 20
15.84584735942667
 30
0.0
 11
46.69800000000001
 21
16.94651402609334
 31
0.0
 12
50.00000000000001
 22
16.39618069276
 32
0.0
 13
50.00000000000001
 23
16.39618069276
 33
0.0
  0
SOLID
  5
C8
330
C1
100
AcDbEntity
  8
치수문자_일반주서
 62
     0
100
AcDbTrace
 10
15.30199999999997
 20
16.94651402609334
 30
0.0
 11
15.30199999999997
 21
15.84584735942667
 31
0.0
 12
11.99999999999997
 22
16.39618069276
 32
0.0
 13
11.99999999999997
 23
16.39618069276
 33
0.0
  0
MTEXT
  5
C9
330
C1
100
AcDbEntity
  8
치수문자_일반주서
 62
     0
100
AcDbMText
 10
30.99999999999999
 20
20.77118069276
 30
0.0
 40
3.5
 41
0.0
 71
     2
 72
     1
  1
\A1;38
  7
SLDTEXTSTYLE0
 73
     1
 44
1.0
  0
POINT
  5
CA
330
C1
100
AcDbEntity
  8
Defpoints
 62
     0
100
AcDbPoint
 10
50.00000000000001
 20
10.00000000000012
 30
0.0
  0
POINT
  5
129
330
C1
100
AcDbEntity
  8
Defpoints
 62
     0
100
AcDbPoint
 10
11.99999999999997
 20
10.00000000000001
 30
0.0
  0
POINT
  5
12A
330
C1
100
AcDbEntity
  8
Defpoints
 62
     0
100
AcDbPoint
 10
11.99999999999997
 20
16.39618069276
 30
0.0
  0
ENDBLK
  5
C3
330
C1
100
AcDbEntity
  8
0
100
AcDbBlockEnd
  0
BLOCK
  5
CD
330
CC
100
AcDbEntity
  8
0
100
AcDbBlockBegin
  2
_D_1
 70
     0
 10
0.0
 20
0.0
 30
0.0
  3
_D_1
  1
_D_1
  0
LINE
  5
CF
330
CC
100
AcDbEntity
  8
치수문자_일반주서
 62
     0
370
    -2
100
AcDbLine
 10
50.00000000000001
 20
10.06250000000012
 30
0.0
 11
50.0
 21
24.0
 31
0.0
  0
LINE
  5
D0
330
CC
100
AcDbEntity
  8
치수문자_일반주서
 62
     0
370
    -2
100
AcDbLine
 10
-110.0
 20
8.062500000000007
 30
0.0
 11
-110.0
 21
24.0
 31
0.0
  0
LINE
  5
D1
330
CC
100
AcDbEntity
  8
치수문자_일반주서
 62
     0
370
    -2
100
AcDbLine
 10
46.698
 20
24.0
 30
0.0
 11
-106.698
 21
24.0
 31
0.0
  0
SOLID
  5
D2
330
CC
100
AcDbEntity
  8
치수문자_일반주서
 62
     0
100
AcDbTrace
 10
46.698
 20
23.44966666666666
 30
0.0
 11
46.698
 21
24.55033333333333
 31
0.0
 12
50.0
 22
24.0
 32
0.0
 13
50.0
 23
24.0
 33
0.0
  0
SOLID
  5
D3
330
CC
100
AcDbEntity
  8
치수문자_일반주서
 62
     0
100
AcDbTrace
 10
-106.698
 20
24.55033333333333
 30
0.0
 11
-106.698
 21
23.44966666666666
 31
0.0
 12
-110.0
 22
24.0
 32
0.0
 13
-110.0
 23
24.0
 33
0.0
  0
MTEXT
  5
D4
330
CC
100
AcDbEntity
  8
치수문자_일반주서
 62
     0
100
AcDbMText
 10
-30.0
 20
28.375
 30
0.0
 40
3.5
 41
0.0
 71
     2
 72
     1
  1
\A1;160
  7
SLDTEXTSTYLE0
 73
     1
 44
1.0
  0
POINT
  5
12B
330
CC
100
AcDbEntity
  8
Defpoints
 62
     0
100
AcDbPoint
 10
50.00000000000001
 20
10.00000000000012
 30
0.0
  0
POINT
  5
12C
330
CC
100
AcDbEntity
  8
Defpoints
 62
     0
100
AcDbPoint
 10
-110.0
 20
8.000000000000007
 30
0.0
  0
POINT
  5
12D
330
CC
100
AcDbEntity
  8
Defpoints
 62
     0
100
AcDbPoint
 10
-110.0
 20
24.0
 30
0.0
  0
ENDBLK
  5
CE
330
CC
100
AcDbEntity
  8
0
100
AcDbBlockEnd
  0
BLOCK
  5
D7
330
D6
100
AcDbEntity
  8
0
100
AcDbBlockBegin
  2
_D_2
 70
     0
 10
0.0
 20
0.0
 30
0.0
  3
_D_2
  1
_D_2
  0
LINE
  5
D9
330
D6
100
AcDbEntity
  8
치수문자_일반주서
 62
     0
370
    -2
100
AcDbLine
 10
50.06250000000001
 20
10.00000000000012
 30
0.0
 11
65.25044142857703
 21
10.00000000000018
 31
0.0
  0
LINE
  5
DA
330
D6
100
AcDbEntity
  8
치수문자_일반주서
 62
     0
370
    -2
100
AcDbLine
 10
50.06250000000001
 20
-9.999999999999874
 30
0.0
 11
65.2504414285771
 21
-9.999999999999819
 31
0.0
  0
LINE
  5
DB
330
D6
100
AcDbEntity
  8
치수문자_일반주서
 62
     0
370
    -2
100
AcDbLine
 10
65.25044142857703
 20
10.00000000000018
 30
0.0
 11
65.25044142857698
 21
26.78696407515059
 31
0.0
  0
LINE
  5
DC
330
D6
100
AcDbEntity
  8
치수문자_일반주서
 62
     0
370
    -2
100
AcDbLine
 10
65.25044142857703
 20
10.00000000000018
 30
0.0
 11
65.2504414285771
 21
-9.999999999999819
 31
0.0
  0
LINE
  5
DD
330
D6
100
AcDbEntity
  8
치수문자_일반주서
 62
     0
370
    -2
100
AcDbLine
 10
65.25044142857702
 20
13.30200000000018
 30
0.0
 11
65.250441428577
 21
16.60400000000018
 31
0.0
  0
LINE
  5
DE
330
D6
100
AcDbEntity
  8
치수문자_일반주서
 62
     0
370
    -2
100
AcDbLine
 10
65.25044142857712
 20
-13.30199999999982
 30
0.0
 11
65.25044142857713
 21
-16.60399999999982
 31
0.0
  0
SOLID
  5
123
330
D6
100
AcDbEntity
  8
치수문자_일반주서
 62
     0
100
AcDbTrace
 10
64.70010809524369
 20
13.30200000000018
 30
0.0
 11
65.80077476191035
 21
13.30200000000018
 31
0.0
 12
65.25044142857703
 22
10.00000000000018
 32
0.0
 13
65.25044142857703
 23
10.00000000000018
 33
0.0
  0
SOLID
  5
124
330
D6
100
AcDbEntity
  8
치수문자_일반주서
 62
     0
100
AcDbTrace
 10
65.80077476191045
 20
-13.30199999999982
 30
0.0
 11
64.70010809524379
 21
-13.30199999999982
 31
0.0
 12
65.2504414285771
 22
-9.999999999999819
 32
0.0
 13
65.2504414285771
 23
-9.999999999999819
 33
0.0
  0
MTEXT
  5
125
330
D6
100
AcDbEntity
  8
치수문자_일반주서
 62
     0
100
AcDbMText
 10
60.87544142857699
 20
22.63071407515057
 30
0.0
 40
3.5
 41
0.0
 71
     2
 72
     1
  1
\A1;%%c20
  7
SLDTEXTSTYLE0
 11
-3.552713678800502E-15
 21
1.0
 31
0.0
 73
     1
 44
1.0
  0
POINT
  5
126
330
D6
100
AcDbEntity
  8
Defpoints
 62
     0
100
AcDbPoint
 10
50.00000000000001
 20
10.00000000000012
 30
0.0
  0
POINT
  5
127
330
D6
100
AcDbEntity
  8
Defpoints
 62
     0
100
AcDbPoint
 10
50.00000000000001
 20
-9.999999999999874
 30
0.0
  0
POINT
  5
128
330
D6
100
AcDbEntity
  8
Defpoints
 62
     0
100
AcDbPoint
 10
65.25044142857708
 20
-9.999999999999817
 30
0.0
  0
ENDBLK
  5
D8
330
D6
100
AcDbEntity
  8
0
100
AcDbBlockEnd
  0
BLOCK
  5
E2
330
E1
100
AcDbEntity
  8
0
100
AcDbBlockBegin
  2
_D_3
 70
     0
 10
0.0
 20
0.0
 30
0.0
  3
_D_3
  1
_D_3
  0
LINE
  5
E4
330
E1
100
AcDbEntity
  8
치수문자_일반주서
 62
     0
370
    -2
100
AcDbLine
 10
-108.0625
 20
10.00000000000001
 30
0.0
 11
-123.6531627367178
 21
9.999999999999954
 31
0.0
  0
LINE
  5
E5
330
E1
100
AcDbEntity
  8
치수문자_일반주서
 62
     0
370
    -2
100
AcDbLine
 10
-108.0625
 20
-10.00000000000001
 30
0.0
 11
-123.6531627367177
 21
-10.00000000000006
 31
0.0
  0
LINE
  5
E6
330
E1
100
AcDbEntity
  8
치수문자_일반주서
 62
     0
370
    -2
100
AcDbLine
 10
-123.6531627367178
 20
9.999999999999954
 30
0.0
 11
-123.6531627367178
 21
24.91649999999996
 31
0.0
  0
LINE
  5
E7
330
E1
100
AcDbEntity
  8
치수문자_일반주서
 62
     0
370
    -2
100
AcDbLine
 10
-123.6531627367178
 20
9.999999999999954
 30
0.0
 11
-123.6531627367177
 21
-10.00000000000006
 31
0.0
  0
LINE
  5
E8
330
E1
100
AcDbEntity
  8
치수문자_일반주서
 62
     0
370
    -2
100
AcDbLine
 10
-123.6531627367178
 20
13.30199999999995
 30
0.0
 11
-123.6531627367178
 21
16.60399999999995
 31
0.0
  0
LINE
  5
E9
330
E1
100
AcDbEntity
  8
치수문자_일반주서
 62
     0
370
    -2
100
AcDbLine
 10
-123.6531627367177
 20
-13.30200000000006
 30
0.0
 11
-123.6531627367177
 21
-16.60400000000006
 31
0.0
  0
SOLID
  5
EA
330
E1
100
AcDbEntity
  8
치수문자_일반주서
 62
     0
100
AcDbTrace
 10
-124.2034960700511
 20
13.30199999999995
 30
0.0
 11
-123.1028294033845
 21
13.30199999999996
 31
0.0
 12
-123.6531627367178
 22
9.999999999999954
 32
0.0
 13
-123.6531627367178
 23
9.999999999999954
 33
0.0
  0
SOLID
  5
EB
330
E1
100
AcDbEntity
  8
치수문자_일반주서
 62
     0
100
AcDbTrace
 10
-123.1028294033844
 20
-13.30200000000006
 30
0.0
 11
-124.203496070051
 21
-13.30200000000007
 31
0.0
 12
-123.6531627367177
 22
-10.00000000000006
 32
0.0
 13
-123.6531627367177
 23
-10.00000000000006
 33
0.0
  0
MTEXT
  5
EC
330
E1
100
AcDbEntity
  8
치수문자_일반주서
 62
     0
100
AcDbMText
 10
-128.0281627367178
 20
20.76024999999994
 30
0.0
 40
3.5
 41
0.0
 71
     2
 72
     1
  1
\A1;%%c20
  7
SLDTEXTSTYLE0
 11
-3.552713678800497E-15
 21
1.0
 31
0.0
 73
     1
 44
1.0
  0
POINT
  5
120
330
E1
100
AcDbEntity
  8
Defpoints
 62
     0
100
AcDbPoint
 10
-108.0
 20
10.00000000000001
 30
0.0
  0
POINT
  5
121
330
E1
100
AcDbEntity
  8
Defpoints
 62
     0
100
AcDbPoint
 10
-108.0
 20
-10.00000000000001
 30
0.0
  0
POINT
  5
122
330
E1
100
AcDbEntity
  8
Defpoints
 62
     0
100
AcDbPoint
 10
-123.6531627367177
 20
-10.00000000000007
 30
0.0
  0
ENDBLK
  5
E3
330
E1
100
AcDbEntity
  8
0
100
AcDbBlockEnd
  0
BLOCK
  5
F5
330
F4
100
AcDbEntity
  8
0
100
AcDbBlockBegin
  2
SW_DOWELSYMBOL_0
 70
     0
 10
0.0
 20
0.0
 30
0.0
  3
SW_DOWELSYMBOL_0
  1
SW_DOWELSYMBOL_0
  0
CIRCLE
  5
F7
330
F4
100
AcDbEntity
  8
해칭선
 62
     0
100
AcDbCircle
 10
0.0
 20
0.0
 30
0.0
 40
3.000000000000008
  0
HATCH
  5
F8
330
F4
100
AcDbEntity
  8
0
  6
Continuous
 62
     0
370
     0
100
AcDbHatch
 10
0.0
 20
0.0
 30
0.0
210
0.0
220
0.0
230
1.0
  2
SOLID
 70
     1
 71
     0
 91
        1
 92
        0
 93
        3
 72
     2
 10
0.0
 20
0.0
 40
3.000000000000008
 50
0.0
 51
90.0
 73
     1
 72
     1
 10
0.0
 20
3.000000000000008
 11
0.0
 21
0.0
 72
     1
 10
0.0
 20
0.0
 11
3.000000000000003
 21
0.0
 97
        0
 75
     0
 76
     1
 98
        1
 10
0.0
 20
0.0
  0
HATCH
  5
F9
330
F4
100
AcDbEntity
  8
0
  6
Continuous
 62
     0
370
     0
100
AcDbHatch
 10
0.0
 20
0.0
 30
0.0
210
0.0
220
0.0
230
1.0
  2
SOLID
 70
     1
 71
     0
 91
        1
 92
        0
 93
        3
 72
     2
 10
0.0
 20
0.0
 40
3.000000000000008
 50
180.0
 51
270.0000000000007
 73
     1
 72
     1
 10
0.0
 20
-3.000000000000008
 11
0.0
 21
0.0
 72
     1
 10
0.0
 20
0.0
 11
-3.000000000000003
 21
0.0
 97
        0
 75
     0
 76
     1
 98
        1
 10
0.0
 20
0.0
  0
ENDBLK
  5
F6
330
F4
100
AcDbEntity
  8
0
100
AcDbBlockEnd
  0
ENDSEC
  0
SECTION
  2
ENTITIES
  0
ARC
  5
96
330
1F
100
AcDbEntity
  8
외형선
  6
Continuous
 62
     1
370
    15
100
AcDbCircle
 10
40.00000000000003
 20
0.0000000000000114
 30
0.0
 40
9.99999999999999
100
AcDbArc
 50
327.7858167791117
 51
0.0
  0
ARC
  5
97
330
1F
100
AcDbEntity
  8
외형선
  6
Continuous
 62
     1
370
    15
100
AcDbCircle
 10
40.00000000000003
 20
0.0000000000000114
 30
0.0
 40
9.999999999999986
100
AcDbArc
 50
274.1649493110372
 51
308.4728307564968
  0
ARC
  5
98
330
1F
100
AcDbEntity
  8
외형선
  6
Continuous
 62
     1
370
    15
100
AcDbCircle
 10
40.00000000000003
 20
0.0000000000000114
 30
0.0
 40
9.999999999999984
100
AcDbArc
 50
51.46097226413511
 51
85.86682485821355
  0
ARC
  5
99
330
1F
100
AcDbEntity
  8
외형선
  6
Continuous
 62
     1
370
    15
100
AcDbCircle
 10
40.00000000000003
 20
0.0000000000000114
 30
0.0
 40
9.999999999999986
100
AcDbArc
 50
0.0
 51
32.22142546756297
  0
LINE
  5
9A
330
1F
100
AcDbEntity
  8
0
 62
     1
100
AcDbLine
 10
19.58359510164128
 20
9.999999999999996
 30
0.0
 11
13.48583666479365
 21
9.999999999999996
 31
0.0
  0
LINE
  5
9B
330
1F
100
AcDbEntity
  8
0
 62
     1
100
AcDbLine
 10
13.48583666479365
 20
-9.999999999999996
 30
0.0
 11
19.58359510164139
 21
-9.999999999999996
 31
0.0
  0
LINE
  5
9C
330
1F
100
AcDbEntity
  8
외형선
  6
Continuous
370
    15
100
AcDbLine
 10
-108.0
 20
10.0
 30
0.0
 11
-110.0
 21
8.000000000000007
 31
0.0
  0
LINE
  5
9D
330
1F
100
AcDbEntity
  8
외형선
  6
Continuous
370
    15
100
AcDbLine
 10
-110.0
 20
-8.000000000000007
 30
0.0
 11
-108.0
 21
-10.0
 31
0.0
  0
LINE
  5
9E
330
1F
100
AcDbEntity
  8
외형선
  6
Continuous
370
    15
100
AcDbLine
 10
-108.0
 20
-9.999999999999996
 30
0.0
 11
12.0
 21
-9.999999999999996
 31
0.0
  0
LINE
  5
9F
330
1F
100
AcDbEntity
  8
외형선
  6
Continuous
370
    15
100
AcDbLine
 10
12.0
 20
9.999999999999996
 30
0.0
 11
-77.7000119999999
 21
9.999999999999996
 31
0.0
  0
SPLINE
  5
A0
330
1F
100
AcDbEntity
  8
0
 62
     1
100
AcDbSpline
210
0.0
220
0.0
230
1.0
 70
     8
 71
     3
 72
    38
 73
    34
 74
     0
 42
0.000000001
 43
0.00000001
 40
0.0
 40
0.0
 40
0.0
 40
0.0
 40
0.0625
 40
0.0625
 40
0.125
 40
0.125
 40
0.1875
 40
0.1875
 40
0.25
 40
0.25
 40
0.3125
 40
0.3125
 40
0.375
 40
0.375
 40
0.4375
 40
0.4375
 40
0.5
 40
0.5
 40
0.5625
 40
0.5625
 40
0.625
 40
0.625
 40
0.6875
 40
0.6875
 40
0.75
 40
0.75
 40
0.8125
 40
0.8125
 40
0.875
 40
0.875
 40
0.9375
 40
0.9375
 40
0.9663749895451441
 40
0.9663749895451441
 40
0.9663749895451441
 40
0.9663749895451441
 10
12.00000000000001
 20
0.856813492557583
 30
0.0
 10
12.58081843569126
 20
0.5217568956427088
 30
0.0
 10
13.16571612543073
 20
0.184460055242911
 30
0.0
 10
14.33475774288311
 20
-0.4894731891267706
 30
0.0
 10
14.91681851281118
 20
-0.8257054711016257
 30
0.0
 10
16.08098008459766
 20
-1.494234840418981
 30
0.0
 10
16.66638454931871
 20
-1.82715874025635
 30
0.0
 10
17.83490292554212
 20
-2.48521780437591
 30
0.0
 10
18.41529450984672
 20
-2.809854476070837
 30
0.0
 10
19.58146480242364
 20
-3.449482116728327
 30
0.0
 10
20.16711310855027
 20
-3.764426552092236
 30
0.0
 10
21.33458578268751
 20
-4.379749554036263
 30
0.0
 10
21.91447839674105
 20
-4.679819844774476
 30
0.0
 10
23.08213844597081
 20
-5.264382244268618
 30
0.0
 10
23.66776729372418
 20
-5.548476658915503
 30
0.0
 10
24.83367336321851
 20
-6.095977672058276
 30
0.0
 10
25.41423796446867
 20
-6.359469073873589
 30
0.0
 10
26.58286658869446
 20
-6.865044325560478
 30
0.0
 10
27.16821270752553
 20
-7.106688422583258
 30
0.0
 10
28.33203360117706
 20
-7.564095906439284
 30
0.0
 10
28.91444014772343
 20
-7.780403017410509
 30
0.0
 10
30.08351472169754
 20
-8.186305429061614
 30
0.0
 10
30.66791980020517
 20
-8.375610827834999
 30
0.0
 10
31.82996211197784
 20
-8.724469141066828
 30
0.0
 10
32.41495122165819
 20
-8.884749942473954
 30
0.0
 10
33.58394845498538
 20
-9.174389918997688
 30
0.0
 10
34.16568895162519
 20
-9.303605140374609
 30
0.0
 10
35.33017993255807
 20
-9.530111095127923
 30
0.0
 10
35.9156370006886
 20
-9.627530072048641
 30
0.0
 10
37.0840337183518
 20
-9.789102865466239
 30
0.0
 10
37.66427784323719
 20
-9.853203423575525
 30
0.0
 10
38.516933091341
 20
-9.922457520739167
 30
0.0
 10
38.78689977647248
 20
-9.940752432963475
 30
0.0
 10
39.05694815811076
 20
-9.955433351869173
 30
0.0
  0
SPLINE
  5
A2
330
1F
100
AcDbEntity
  8
0
 62
     1
100
AcDbSpline
210
0.0
220
0.0
230
1.0
 70
     8
 71
     3
 72
    13
 73
     9
 74
     0
 42
0.000000001
 43
0.00000001
 40
0.0
 40
0.0
 40
0.0
 40
0.0
 40
0.1481060581900528
 40
0.3209429565188292
 40
0.4907005810647753
 40
0.6604623617125572
 40
0.8302287008985267
 40
1.0
 40
1.0
 40
1.0
 40
1.0
 10
30.1437669657261
 20
-8.181437353488267
 30
0.0
 10
29.24803565090933
 20
-8.465390329482842
 30
0.0
 10
27.30700325873747
 20
-9.080710922993447
 30
0.0
 10
24.3392780062954
 20
-9.672597237469589
 30
0.0
 10
21.24062045010538
 20
-10.00898171748864
 30
0.0
 10
18.16050355756853
 20
-10.01517395409177
 30
0.0
 10
15.08029262180224
 20
-9.727891677838
 30
0.0
 10
13.02677420643167
 20
-9.280508399420514
 30
0.0
 10
12.00000000000001
 20
-9.056813492557456
 30
0.0
  0
SPLINE
  5
A3
330
1F
100
AcDbEntity
  8
0
 62
     1
100
AcDbSpline
210
0.0
220
0.0
230
1.0
 70
     8
 71
     3
 72
    38
 73
    34
 74
     0
 42
0.000000001
 43
0.00000001
 40
0.0
 40
0.0
 40
0.0
 40
0.0
 40
0.0625
 40
0.0625
 40
0.125
 40
0.125
 40
0.1875
 40
0.1875
 40
0.25
 40
0.25
 40
0.3125
 40
0.3125
 40
0.375
 40
0.375
 40
0.4375
 40
0.4375
 40
0.5
 40
0.5
 40
0.5625
 40
0.5625
 40
0.625
 40
0.625
 40
0.6875
 40
0.6875
 40
0.75
 40
0.75
 40
0.8125
 40
0.8125
 40
0.875
 40
0.875
 40
0.9375
 40
0.9375
 40
1.0
 40
1.0
 40
1.0
 40
1.0
 10
12.00000000000001
 20
9.963225915283232
 30
0.0
 10
12.58081843569126
 20
9.992039977661031
 30
0.0
 10
13.16571612543073
 20
10.00397657971886
 30
0.0
 10
14.33475774288311
 20
9.993697459732783
 30
0.0
 10
14.91681851281118
 20
9.971532844015274
 30
0.0
 10
16.08098008459766
 20
9.893458395624881
 30
0.0
 10
16.66638454931871
 20
9.837430048964984
 30
0.0
 10
17.83490292554212
 20
9.692122135796023
 30
0.0
 10
18.41529450984672
 20
9.603025812354868
 30
0.0
 10
19.58146480242364
 20
9.392255323180935
 30
0.0
 10
20.16711310855027
 20
9.270521238389392
 30
0.0
 10
21.33458578268751
 20
8.996180586306885
 30
0.0
 10
21.91447839674105
 20
8.843798372602643
 30
0.0
 10
23.08213844597081
 20
8.508805028969899
 30
0.0
 10
23.66776729372418
 20
8.326330318772516
 30
0.0
 10
24.83367336321851
 20
7.934256489023246
 30
0.0
 10
25.41423796446867
 20
7.7246811759112
 30
0.0
 10
26.58286658869446
 20
7.279059869180998
 30
0.0
 10
27.16821270752553
 20
7.043309901854796
 30
0.0
 10
28.33203360117706
 20
6.549632648281366
 30
0.0
 10
28.91444014772343
 20
6.291176673777013
 30
0.0
 10
30.08351472169754
 20
5.753084257693684
 30
0.0
 10
30.66791980020517
 20
5.473779563596407
 30
0.0
 10
31.82996211197784
 20
4.898648554118287
 30
0.0
 10
32.41495122165819
 20
4.601607165399526
 30
0.0
 10
33.58394845498538
 20
3.993011352242923
 30
0.0
 10
34.16568895162519
 20
3.681875815454738
 30
0.0
 10
35.33017993255807
 20
3.04799288761558
 30
0.0
 10
35.9156370006886
 20
2.724737760295072
 30
0.0
 10
37.0840337183518
 20
2.070506276227966
 30
0.0
 10
37.66427784323719
 20
1.740053334243593
 30
0.0
 10
38.8307010247175
 20
1.073241667949288
 30
0.0
 10
39.4163630387376
 20
0.7369715493995581
 30
0.0
 10
39.99999999999997
 20
0.4004057740556226
 30
0.0
  0
SPLINE
  5
A4
330
1F
100
AcDbEntity
  8
외형선
  6
Continuous
 62
     1
370
    15
100
AcDbSpline
210
0.0
220
0.0
230
1.0
 70
     8
 71
     3
 72
    56
 73
    52
 74
     0
 42
0.000000001
 43
0.00000001
 40
0.0
 40
0.0
 40
0.0
 40
0.0
 40
0.0625000000000007
 40
0.0625000000000007
 40
0.093750000000001
 40
0.093750000000001
 40
0.1250000000000013
 40
0.1250000000000013
 40
0.1875000000000045
 40
0.1875000000000045
 40
0.2187500000000048
 40
0.2187500000000048
 40
0.2500000000000052
 40
0.2500000000000052
 40
0.3125000000000059
 40
0.3125000000000059
 40
0.3750000000000067
 40
0.3750000000000067
 40
0.4062500000000063
 40
0.4062500000000063
 40
0.4375000000000059
 40
0.4375000000000059
 40
0.4687500000000055
 40
0.4687500000000055
 40
0.5000000000000051
 40
0.5000000000000051
 40
0.5312500000000048
 40
0.5312500000000048
 40
0.5468750000000046
 40
0.5468750000000046
 40
0.5625000000000044
 40
0.5625000000000044
 40
0.5937500000000041
 40
0.5937500000000041
 40
0.6250000000000038
 40
0.6250000000000038
 40
0.6562500000000034
 40
0.6562500000000034
 40
0.6875000000000031
 40
0.6875000000000031
 40
0.7500000000000024
 40
0.7500000000000024
 40
0.7812500000000021
 40
0.7812500000000021
 40
0.8125000000000018
 40
0.8125000000000018
 40
0.8750000000000012
 40
0.8750000000000012
 40
0.9375000000000007
 40
0.9375000000000007
 40
1.0
 40
1.0
 40
1.0
 40
1.0
 10
40.00000000000003
 20
0.4004057740556185
 30
0.0
 10
40.50794682118679
 20
0.1074882121924628
 30
0.0
 10
41.01312807333754
 20
-0.174688333467033
 30
0.0
 10
41.77406329976796
 20
-0.5686113300661231
 30
0.0
 10
42.02815330776832
 20
-0.6951652941438314
 30
0.0
 10
42.53773039745123
 20
-0.9376458304892363
 30
0.0
 10
42.79463779044778
 20
-1.054162663361822
 30
0.0
 10
43.5556495473873
 20
-1.381330415513521
 30
0.0
 10
44.04928191732427
 20
-1.569999795842341
 30
0.0
 10
44.76961898713635
 20
-1.810377336599068
 30
0.0
 10
45.00631108422412
 20
-1.883473214388
 30
0.0
 10
45.47198400338803
 20
-2.017133856239405
 30
0.0
 10
45.70097065645007
 20
-2.077640180560731
 30
0.0
 10
46.36137317884389
 20
-2.240652969968113
 30
0.0
 10
46.77135012994975
 20
-2.325823694377812
 30
0.0
 10
47.52255961923046
 20
-2.479415802802161
 30
0.0
 10
47.86515520745805
 20
-2.547303259343809
 30
0.0
 10
48.29924128013943
 20
-2.665366289742519
 30
0.0
 10
48.43137519652545
 20
-2.707669726775559
 30
0.0
 10
48.66805695254131
 20
-2.805589742833359
 30
0.0
 10
48.773036082801
 20
-2.861455504187386
 30
0.0
 10
48.94938092072728
 20
-2.994957195421232
 30
0.0
 10
49.01994762072341
 20
-3.071812829796796
 30
0.0
 10
49.12230744441359
 20
-3.255547444635067
 30
0.0
 10
49.15417618354181
 20
-3.363788658149333
 30
0.0
 10
49.17133546016194
 20
-3.616144716435871
 30
0.0
 10
49.15722023525967
 20
-3.75954854711203
 30
0.0
 10
49.09786414513015
 20
-4.008156297739803
 30
0.0
 10
49.07158750379637
 20
-4.096541191723843
 30
0.0
 10
49.00739780591049
 20
-4.279958175270187
 30
0.0
 10
48.96935868154434
 20
-4.375599261943106
 30
0.0
 10
48.83730491005217
 20
-4.674757178415812
 30
0.0
 10
48.72305993788544
 20
-4.894380923230026
 30
0.0
 10
48.45731779738021
 20
-5.343671084963868
 30
0.0
 10
48.29518870082252
 20
-5.582575707517556
 30
0.0
 10
47.94038814882407
 20
-6.036947034848773
 30
0.0
 10
47.78886009472183
 20
-6.269879603902504
 30
0.0
 10
47.40634714263403
 20
-6.716982278050518
 30
0.0
 10
47.20641291416854
 20
-6.932054294972907
 30
0.0
 10
46.5936919189736
 20
-7.53862120175364
 30
0.0
 10
46.15682045136926
 20
-7.901328281986073
 30
0.0
 10
45.49469002422829
 20
-8.352995093055528
 30
0.0
 10
45.27154312338536
 20
-8.489535863168072
 30
0.0
 10
44.8183520566579
 20
-8.735872011823018
 30
0.0
 10
44.58699271357666
 20
-8.846121259189154
 30
0.0
 10
43.89271285690855
 20
-9.13189571076375
 30
0.0
 10
43.42782451881132
 20
-9.264647469181615
 30
0.0
 10
42.4770225650761
 20
-9.42849902649389
 30
0.0
 10
41.98770382728652
 20
-9.458635947794864
 30
0.0
 10
41.0041063739756
 20
-9.420482082812164
 30
0.0
 10
40.50786087931077
 20
-9.353171365100645
 30
0.0
 10
40.00000000000003
 20
-9.241174159918579
 30
0.0
  0
SPLINE
  5
A5
330
1F
100
AcDbEntity
  8
0
 62
     1
100
AcDbSpline
210
0.0
220
0.0
230
1.0
 70
     8
 71
     3
 72
    38
 73
    34
 74
     0
 42
0.000000001
 43
0.00000001
 40
0.0
 40
0.0
 40
0.0
 40
0.0
 40
0.0625
 40
0.0625
 40
0.125
 40
0.125
 40
0.1875
 40
0.1875
 40
0.25
 40
0.25
 40
0.3125
 40
0.3125
 40
0.375
 40
0.375
 40
0.4375
 40
0.4375
 40
0.5
 40
0.5
 40
0.5625
 40
0.5625
 40
0.625
 40
0.625
 40
0.6875
 40
0.6875
 40
0.75
 40
0.75
 40
0.8125
 40
0.8125
 40
0.875
 40
0.875
 40
0.9375
 40
0.9375
 40
1.0
 40
1.0
 40
1.0
 40
1.0
 10
12.0
 20
4.239590706781547
 30
0.0
 10
12.58081843569124
 20
3.935016150958803
 30
0.0
 10
13.16571612543071
 20
3.622519383634041
 30
0.0
 10
14.33475774288306
 20
2.986370063575573
 30
0.0
 10
14.91681851281116
 20
2.66311447199141
 30
0.0
 10
16.08098008459757
 20
2.008661811459076
 30
0.0
 10
16.66638454931874
 20
1.676835504933562
 30
0.0
 10
17.83490292554218
 20
1.00902897177129
 30
0.0
 10
18.41529450984675
 20
0.6735798504590246
 30
0.0
 10
19.5814648024237
 20
0.0005029591505678
 30
0.0
 10
20.16711310855024
 20
-0.3371017909567238
 30
0.0
 10
21.33458578268754
 20
-1.009283489153326
 30
0.0
 10
21.91447839674109
 20
-1.343493708938061
 30
0.0
 10
23.08213844597084
 20
-2.007714210557616
 30
0.0
 10
23.66776729372418
 20
-2.33730414888437
 30
0.0
 10
24.83367336321854
 20
-2.986417361766263
 30
0.0
 10
25.41423796446873
 20
-3.306012030716377
 30
0.0
 10
26.58286658869454
 20
-3.934233700297704
 30
0.0
 10
27.16821270752553
 20
-4.242345845541752
 30
0.0
 10
28.33203360117697
 20
-4.841923269567669
 30
0.0
 10
28.91444014772345
 20
-5.134081220954255
 30
0.0
 10
30.08351472169754
 20
-5.700626408884671
 30
0.0
 10
30.6679198002052
 20
-5.974627134884328
 30
0.0
 10
31.82996211197784
 20
-6.500397293752704
 30
0.0
 10
32.41495122165827
 20
-6.753268934044565
 30
0.0
 10
33.58394845498546
 20
-7.234990915477975
 30
0.0
 10
34.16568895162527
 20
-7.463561698212287
 30
0.0
 10
35.33017993255815
 20
-7.894740274771283
 30
0.0
 10
35.91563700068872
 20
-8.097643515221254
 30
0.0
 10
37.084033718352
 20
-8.474887062506705
 30
0.0
 10
37.66427784323727
 20
-8.648996903552653
 30
0.0
 10
38.83070102471758
 20
-8.967842674723991
 30
0.0
 10
39.41636303873771
 20
-9.112466257488622
 30
0.0
 10
40.00000000000006
 20
-9.241174159918618
 30
0.0
  0
SPLINE
  5
A6
330
1F
100
AcDbEntity
  8
외형선
  6
Continuous
 62
     1
370
    15
100
AcDbSpline
210
0.0
220
0.0
230
1.0
 70
     8
 71
     3
 72
    11
 73
     7
 74
     0
 42
0.000000001
 43
0.00000001
 40
0.0
 40
0.0
 40
0.0
 40
0.0
 40
0.0625547613686289
 40
0.3750426573394823
 40
0.6875241551495846
 40
0.8750999265835377
 40
0.8750999265835377
 40
0.8750999265835377
 40
0.8750999265835377
 10
30.14376696572593
 20
8.181437353488262
 30
0.0
 10
30.34928677689544
 20
8.255615538995439
 30
0.0
 10
31.58146630137151
 20
8.700345615500611
 30
0.0
 10
33.84027035188963
 20
9.258427553438255
 30
0.0
 10
36.50981446848283
 20
9.756278973027264
 30
0.0
 10
38.15270131591559
 20
9.885451301736568
 30
0.0
 10
38.76896190760935
 20
9.923937989280427
 30
0.0
  0
SPLINE
  5
A7
330
1F
100
AcDbEntity
  8
외형선
  6
Continuous
 62
     1
370
    15
100
AcDbSpline
210
0.0
220
0.0
230
1.0
 70
     8
 71
     3
 72
    56
 73
    52
 74
     0
 42
0.000000001
 43
0.00000001
 40
0.031963497794478
 40
0.031963497794478
 40
0.031963497794478
 40
0.031963497794478
 40
0.062499999999999
 40
0.062499999999999
 40
0.0937499999999985
 40
0.0937499999999985
 40
0.1249999999999979
 40
0.1249999999999979
 40
0.1874999999999994
 40
0.1874999999999994
 40
0.2187499999999989
 40
0.2187499999999989
 40
0.2499999999999985
 40
0.2499999999999985
 40
0.3124999999999976
 40
0.3124999999999976
 40
0.3749999999999967
 40
0.3749999999999967
 40
0.4062499999999969
 40
0.4062499999999969
 40
0.4374999999999972
 40
0.4374999999999972
 40
0.4687499999999975
 40
0.4687499999999975
 40
0.4999999999999978
 40
0.4999999999999978
 40
0.531249999999998
 40
0.531249999999998
 40
0.5468749999999981
 40
0.5468749999999981
 40
0.5624999999999982
 40
0.5624999999999982
 40
0.5937499999999983
 40
0.5937499999999983
 40
0.6249999999999986
 40
0.6249999999999986
 40
0.6562499999999987
 40
0.6562499999999987
 40
0.6874999999999989
 40
0.6874999999999989
 40
0.749999999999999
 40
0.749999999999999
 40
0.7812499999999991
 40
0.7812499999999991
 40
0.8124999999999992
 40
0.8124999999999992
 40
0.8749999999999994
 40
0.8749999999999994
 40
0.9374999999999997
 40
0.9374999999999997
 40
1.0
 40
1.0
 40
1.0
 40
1.0
 10
40.77779837147233
 20
9.969705597124474
 30
0.0
 10
41.02521391068835
 20
9.949861140297376
 30
0.0
 10
41.27256435527623
 20
9.917909062297761
 30
0.0
 10
41.77406329976802
 20
9.829189772233695
 30
0.0
 10
42.02815330776829
 20
9.771789904979636
 30
0.0
 10
42.53773039745123
 20
9.631473578818238
 30
0.0
 10
42.79463779044781
 20
9.547986704495516
 30
0.0
 10
43.55564954738728
 20
9.262317216481694
 30
0.0
 10
44.04928191732427
 20
9.026258635358806
 30
0.0
 10
44.76961898713641
 20
8.605637728024716
 30
0.0
 10
45.00631108422409
 20
8.454263722900928
 30
0.0
 10
45.47198400338797
 20
8.128576701389928
 30
0.0
 10
45.7009706564501
 20
7.954062458388853
 30
0.0
 10
46.36137317884392
 20
7.406177455192529
 30
0.0
 10
46.77135012994968
 20
7.005504559992256
 30
0.0
 10
47.52255961923035
 20
6.131992060636605
 30
0.0
 10
47.86515520745796
 20
5.655801339262053
 30
0.0
 10
48.29924128013951
 20
4.909459643988304
 30
0.0
 10
48.43137519652545
 20
4.654563653154677
 30
0.0
 10
48.66805695254128
 20
4.132551356917155
 30
0.0
 10
48.77303608280103
 20
3.86420423331594
 30
0.0
 10
48.94938092072728
 20
3.320388019895709
 30
0.0
 10
49.01994762072344
 20
3.047871990403695
 30
0.0
 10
49.12230744441362
 20
2.503982934668652
 30
0.0
 10
49.15417618354184
 20
2.229726550670571
 30
0.0
 10
49.17133546016188
 20
1.701704878571556
 30
0.0
 10
49.15722023525973
 20
1.448322902393161
 30
0.0
 10
49.09786414513012
 20
1.088661024299382
 30
0.0
 10
49.07158750379634
 20
0.9725880229332746
 30
0.0
 10
49.00739780591051
 20
0.7549965701199943
 30
0.0
 10
48.96935868154436
 20
0.6525501799256794
 30
0.0
 10
48.83730491005217
 20
0.3647333768050127
 30
0.0
 10
48.72305993788542
 20
0.1969213060108081
 30
0.0
 10
48.4573177973803
 20
-0.0668753483578312
 30
0.0
 10
48.30470416326709
 20
-0.1655865800694427
 30
0.0
 10
47.9686440216914
 20
-0.2974596598155509
 30
0.0
 10
47.7888600947218
 20
-0.3299119595108347
 30
0.0
 10
47.40634714263406
 20
-0.3387400223825667
 30
0.0
 10
47.20641291416857
 20
-0.3145486800082784
 30
0.0
 10
46.5936919189736
 20
-0.1767373596568675
 30
0.0
 10
46.15682045136928
 20
0.0048983551955654
 30
0.0
 10
45.49469002422835
 20
0.3467234979556199
 30
0.0
 10
45.27154312338533
 20
0.4727235455523135
 30
0.0
 10
44.8183520566579
 20
0.743557176951264
 30
0.0
 10
44.58699271357663
 20
0.8893028697137749
 30
0.0
 10
43.89271285690857
 20
1.340208813754186
 30
0.0
 10
43.42782451881128
 20
1.659129406697574
 30
0.0
 10
42.47702256507604
 20
2.303073895395833
 30
0.0
 10
41.9877038272864
 20
2.631034283899033
 30
0.0
 10
41.00410637397557
 20
3.253519573959132
 30
0.0
 10
40.5078608793108
 20
3.55022461480827
 30
0.0
 10
40.00000000000003
 20
3.821086252108526
 30
0.0
  0
SPLINE
  5
A8
330
1F
100
AcDbEntity
  8
0
 62
     1
100
AcDbSpline
210
0.0
220
0.0
230
1.0
 70
     8
 71
     3
 72
    14
 73
    10
 74
     0
 42
0.000000001
 43
0.00000001
 40
0.0
 40
0.0
 40
0.0
 40
0.0
 40
0.1535938205382218
 40
0.3071883801574803
 40
0.4607837346593988
 40
0.6143799397920733
 40
0.7679770512463476
 40
0.9188376662522773
 40
1.0
 40
1.0
 40
1.0
 40
1.0
 10
40.00000000000009
 20
3.821086252108508
 30
0.0
 10
38.95472394973959
 20
4.366681733125612
 30
0.0
 10
36.86416681943483
 20
5.457875320521132
 30
0.0
 10
33.72831966674674
 20
6.883065006043227
 30
0.0
 10
30.59245231782816
 20
8.091090368096607
 30
0.0
 10
27.45656754314857
 20
9.036472618225602
 30
0.0
 10
24.33927744047007
 20
9.667464171903774
 30
0.0
 10
21.71497348504936
 20
9.985431810744117
 30
0.0
 10
20.13594431267451
 20
9.967130908436609
 30
0.0
 10
19.58359510164128
 20
9.960729197101825
 30
0.0
  0
SPLINE
  5
A9
330
1F
100
AcDbEntity
  8
외형선
  6
Continuous
 62
     1
370
    15
100
AcDbSpline
210
0.0
220
0.0
230
1.0
 70
     8
 71
     3
 72
    12
 73
     8
 74
     0
 42
0.000000001
 43
0.00000001
 40
0.0
 40
0.0
 40
0.0
 40
0.0
 40
0.1475425057478819
 40
0.4732202893973302
 40
0.708913172637967
 40
0.9513444505191448
 40
1.0
 40
1.0
 40
1.0
 40
1.0
 10
48.44710164584225
 20
5.323786324964584
 30
0.0
 10
48.36814180894535
 20
5.455164688622351
 30
0.0
 10
48.11489006513283
 20
5.876540935118476
 30
0.0
 10
47.58456093064767
 20
6.530022440112172
 30
0.0
 10
46.95415640604863
 20
7.190631253929289
 30
0.0
 10
46.51986757598731
 20
7.604366936615252
 30
0.0
 10
46.26746541291013
 20
7.785540855740199
 30
0.0
 10
46.225276056401
 20
7.815824316749105
 30
0.0
  0
LINE
  5
AA
330
1F
100
AcDbEntity
  8
외형선
  6
Continuous
370
    15
100
AcDbLine
 10
12.0
 20
0.8568134925575824
 30
0.0
 11
12.0
 21
4.239590706781547
 31
0.0
  0
LINE
  5
AB
330
1F
100
AcDbEntity
  8
0
 62
     1
100
AcDbLine
 10
12.00000000000001
 20
-9.963225915283232
 30
0.0
 11
13.48583666479367
 21
-9.959165192078748
 31
0.0
  0
LINE
  5
AC
330
1F
100
AcDbEntity
  8
외형선
  6
Continuous
370
    15
100
AcDbLine
 10
12.0
 20
-9.963225915283232
 30
0.0
 11
12.0
 21
-9.056813492557453
 31
0.0
  0
LINE
  5
AD
330
1F
100
AcDbEntity
  8
외형선
  6
Continuous
370
    15
100
AcDbLine
 10
-108.0
 20
0.0
 30
0.0
 11
-108.0
 21
10.0
 31
0.0
  0
LINE
  5
AE
330
1F
100
AcDbEntity
  8
외형선
  6
Continuous
370
    15
100
AcDbLine
 10
-108.0
 20
-10.0
 30
0.0
 11
-108.0
 21
0.0
 31
0.0
  0
LINE
  5
AF
330
1F
100
AcDbEntity
  8
외형선
  6
Continuous
370
    15
100
AcDbLine
 10
-110.0
 20
0.0
 30
0.0
 11
-110.0
 21
8.000000000000007
 31
0.0
  0
LINE
  5
B0
330
1F
100
AcDbEntity
  8
외형선
  6
Continuous
370
    15
100
AcDbLine
 10
-110.0
 20
-8.000000000000007
 30
0.0
 11
-110.0
 21
0.0
 31
0.0
  0
LINE
  5
B1
330
1F
100
AcDbEntity
  8
외형선
  6
Continuous
370
    15
100
AcDbLine
 10
12.0
 20
0.0
 30
0.0
 11
12.0
 21
9.999999999999996
 31
0.0
  0
LINE
  5
B2
330
1F
100
AcDbEntity
  8
외형선
  6
Continuous
370
    15
100
AcDbLine
 10
12.0
 20
-9.999999999999996
 30
0.0
 11
12.0
 21
0.0
 31
0.0
  0
LINE
  5
B3
330
1F
100
AcDbEntity
  8
중심선
 62
     1
100
AcDbLine
 10
-113.0
 20
0.0
 30
0.0
 11
57.00000000000001
 21
0.0000000000000173
 31
0.0
  0
LINE
  5
B4
330
1F
100
AcDbEntity
  8
참조1
100
AcDbLine
 10
42.49999999999999
 20
0.0010749287238892
 30
0.0
 11
42.5
 21
-39.99892507127611
 31
0.0
  0
LINE
  5
B5
330
1F
100
AcDbEntity
  8
참조1
100
AcDbLine
 10
122.5
 20
0.0010749287239046
 30
0.0
 11
122.5
 21
0.9423174252685359
 31
0.0
  0
LINE
  5
B6
330
1F
100
AcDbEntity
  8
참조1
100
AcDbLine
 10
42.5
 20
-39.99892507127611
 30
0.0
 11
-27.65885681430863
 21
-39.9989250712761
 31
0.0
  0
CIRCLE
  5
B7
330
1F
100
AcDbEntity
  8
해칭선
100
AcDbCircle
 10
0.0
 20
0.0
 30
0.0
 40
3.000000000000004
  0
INSERT
  5
B8
330
1F
100
AcDbEntity
  8
0
  6
Continuous
 62
     7
100
AcDbBlockReference
 66
     1
  2
블럭10
 10
-43.94027293212519
 20
-52.04717430164393
 30
0.0
  0
ATTRIB
  5
B9
330
B8
100
AcDbEntity
  8
FORMAT
 62
     2
100
AcDbText
 10
-54.08190894426181
 20
-49.97180738881174
 30
0.0
 40
4.233333333333333
  1
EM825200 [ 4 FLUTE ]
 41
0.75
  7
SLDTEXTSTYLE0
 11
-54.08190894426181
 21
-52.08847405547841
 31
0.0
100
AcDbAttribute
  2
AUTOATTR0
 70
     0
 74
     1
  0
SEQEND
  5
BA
330
B8
100
AcDbEntity
  8
0
  6
Continuous
 62
     7
  0
HATCH
  5
BB
330
1F
100
AcDbEntity
  8
중심선
100
AcDbHatch
 10
0.0
 20
0.0
 30
0.0
210
0.0
220
0.0
230
1.0
  2
SOLID
 70
     1
 71
     0
 91
        1
 92
        0
 93
        4
 72
     1
 10
-38.22536362774434
 20
-35.8
 11
-41.67163887158163
 21
-35.8
 72
     1
 10
-41.67163887158163
 20
-35.8
 11
-43.79986873078559
 21
-38.33632558057257
 72
     1
 10
-43.79986873078559
 20
-38.33632558057257
 11
-40.35356040183521
 21
-38.33628615127008
 72
     1
 10
-40.35356040183522
 20
-38.33628615127008
 11
-38.22536362774434
 21
-35.8
 97
        0
 75
     0
 76
     1
 98
        1
 10
-72.49999999999999
 20
-0.0010749287238931
  0
HATCH
  5
BC
330
1F
100
AcDbEntity
  8
중심선
100
AcDbHatch
 10
0.0
 20
0.0
 30
0.0
210
0.0
220
0.0
230
1.0
  2
SOLID
 70
     1
 71
     0
 91
        1
 92
        0
 93
        4
 72
     1
 10
-33.2125996367084
 20
-35.80000000000003
 11
-36.65887488054567
 21
-35.79999999999998
 72
     1
 10
-36.65887488054567
 20
-35.79999999999998
 11
-41.19001288890309
 21
-41.20000000000002
 72
     1
 10
-41.19001288890309
 20
-41.20000000000002
 11
-37.74373764506581
 21
-41.20000000000002
 72
     1
 10
-37.74373764506581
 20
-41.20000000000002
 11
-33.2125996367084
 21
-35.80000000000003
 97
        0
 75
     0
 76
     1
 98
        1
 10
-72.49999999999999
 20
-0.0010749287238931
  0
HATCH
  5
BD
330
1F
100
AcDbEntity
  8
중심선
100
AcDbHatch
 10
0.0
 20
0.0
 30
0.0
210
0.0
220
0.0
230
1.0
  2
SOLID
 70
     1
 71
     0
 91
        1
 92
        0
 93
        4
 72
     1
 10
-28.19983564567244
 20
-35.79999999999998
 11
-31.64611088950967
 21
-35.80000000000003
 72
     1
 10
-31.64611088950967
 20
-35.80000000000003
 11
-38.69454779139889
 21
-44.20000000000002
 72
     1
 10
-38.69454779139889
 20
-44.20000000000002
 11
-35.24827254756161
 21
-44.20000000000002
 72
     1
 10
-35.24827254756161
 20
-44.20000000000002
 11
-28.19983564567244
 21
-35.79999999999998
 97
        0
 75
     0
 76
     1
 98
        1
 10
-72.49999999999999
 20
-0.0010749287238931
  0
HATCH
  5
BE
330
1F
100
AcDbEntity
  8
중심선
100
AcDbHatch
 10
0.0
 20
0.0
 30
0.0
210
0.0
220
0.0
230
1.0
  2
SOLID
 70
     1
 71
     0
 91
        1
 92
        0
 93
        6
 72
     3
 10
-23.3999452146603
 20
-40.00000000005127
 11
3.960054785062283
 21
1.540882976769353E-10
 40
0.3939339440162628
 50
17.09539180608455
 51
320.0019657685075
 73
     0
 72
     1
 10
-21.71694555895973
 20
-38.5878940046383
 11
-19.4116436852587
 21
-36.65356729459041
 72
     3
 10
-23.39994521471315
 20
-40.00000000000015
 11
6.600054785286829
 21
-1.278976924368180E-13
 40
0.636358354079598
 50
39.99873849337402
 51
368.4976242363724
 73
     1
 72
     1
 10
-16.97461272281257
 20
-39.03999999993002
 11
-24.71987790787725
 21
-39.03999999993002
 72
     1
 10
-24.71987790787725
 20
-39.03999999993002
 11
-24.71990295232316
 21
-40.95999999992991
 72
     1
 10
-24.71990295232316
 20
-40.95999999992991
 11
-20.27852318285115
 21
-40.95999999992988
 97
        0
 75
     0
 76
     1
 98
        1
 10
-72.49999999999999
 20
-0.0010749287238931
  0
DIMENSION
  5
BF
330
1F
100
AcDbEntity
  8
치수문자_일반주서
100
AcDbDimension
  2
_D
 10
11.99999999999997
 20
16.39618069276
 30
0.0
 11
30.99999999999999
 21
16.39618069276
 31
0.0
 70
   160
  1
<>
 71
     2
 42
38.00000000000004
  3
SLDDIMSTYLE0
100
AcDbAlignedDimension
 13
50.00000000000001
 23
10.00000000000012
 33
0.0
 14
11.99999999999997
 24
10.00000000000001
 34
0.0
 50
0.0000000000000054
100
AcDbRotatedDimension
  0
DIMENSION
  5
CB
330
1F
100
AcDbEntity
  8
치수문자_일반주서
100
AcDbDimension
  2
_D_1
 10
-110.0
 20
24.0
 30
0.0
 11
-30.0
 21
24.0
 31
0.0
 70
   160
  1
<>
 71
     2
 42
160.0
  3
SLDDIMSTYLE0
100
AcDbAlignedDimension
 13
50.00000000000001
 23
10.00000000000012
 33
0.0
 14
-110.0
 24
8.000000000000007
 34
0.0
 50
0.0000000000000038
100
AcDbRotatedDimension
  0
DIMENSION
  5
D5
330
1F
100
AcDbEntity
  8
치수문자_일반주서
100
AcDbDimension
  2
_D_2
 10
65.2504414285771
 20
-9.999999999999819
 30
0.0
 11
65.25044142857699
 21
22.63071407515059
 31
0.0
 70
   160
  1
%%c<>
 71
     2
 42
20.0
 52
-270.0
  3
SLDDIMSTYLE0
100
AcDbAlignedDimension
 13
50.00000000000001
 23
10.00000000000012
 33
0.0
 14
50.00000000000001
 24
-9.999999999999874
 34
0.0
 50
90.0000000000002
100
AcDbRotatedDimension
1001
ACAD_DSTYLE_DIMFLIPARROW_SYMBOL
1070
   385
1070
     0
1001
ACAD_DSTYLE_DIMFLIPARROW_WHICH_SYMBOL
1070
   386
1070
     3
  0
DIMENSION
  5
DF
330
1F
100
AcDbEntity
  8
치수문자_일반주서
100
AcDbDimension
  2
_D_3
 10
-123.6531627367177
 20
-10.00000000000006
 30
0.0
 11
-123.6531627367178
 21
20.76024999999996
 31
0.0
 70
   160
  1
%%c<>
 71
     2
 42
20.00000000000002
 52
-270.0
  3
SLDDIMSTYLE1
100
AcDbAlignedDimension
 13
-108.0
 23
10.00000000000001
 33
0.0
 14
-108.0
 24
-10.00000000000001
 34
0.0
 50
90.0000000000002
100
AcDbRotatedDimension
  0
LINE
  5
ED
330
1F
100
AcDbEntity
  8
참조1
100
AcDbLine
 10
70.31348381534563
 20
7.441074928723896
 30
0.0
 11
70.31348381534563
 21
-7.438925071276109
 31
0.0
  0
LINE
  5
EE
330
1F
100
AcDbEntity
  8
참조1
100
AcDbLine
 10
83.01348381534564
 20
5.441074928723896
 30
0.0
 11
70.31348381534563
 21
5.441074928723896
 31
0.0
  0
SOLID
  5
EF
330
1F
100
AcDbEntity
  8
참조1
100
AcDbTrace
 10
70.31348381534563
 20
5.441074928723896
 30
0.0
 11
76.66348381534563
 21
4.425074928723896
 31
0.0
 12
76.66348381534563
 22
6.457074928723896
 32
0.0
 13
76.66348381534563
 23
6.457074928723896
 33
0.0
  0
LINE
  5
F0
330
1F
100
AcDbEntity
  8
참조1
100
AcDbLine
 10
83.01348381534564
 20
-5.438925071276109
 30
0.0
 11
70.31348381534563
 21
-5.438925071276109
 31
0.0
  0
SOLID
  5
F1
330
1F
100
AcDbEntity
  8
참조1
100
AcDbTrace
 10
70.31348381534563
 20
-5.438925071276109
 30
0.0
 11
76.66348381534563
 21
-6.454925071276109
 31
0.0
 12
76.66348381534563
 22
-4.422925071276109
 32
0.0
 13
76.66348381534563
 23
-4.422925071276109
 33
0.0
  0
MTEXT
  5
F2
330
1F
100
AcDbEntity
  8
참조1
100
AcDbMText
 10
79.71097390781591
 20
10.98929157337383
 30
0.0
 40
3.5
 41
0.0
 71
     1
 72
     1
  1
A
  7
SLDTEXTSTYLE0
 73
     1
 44
1.0
  0
MTEXT
  5
F3
330
1F
100
AcDbEntity
  8
참조1
100
AcDbMText
 10
79.71097390781591
 20
0.1092915733738259
 30
0.0
 40
3.5
 41
0.0
 71
     1
 72
     1
  1
A
  7
SLDTEXTSTYLE0
 73
     1
 44
1.0
  0
INSERT
  5
FA
330
1F
100
AcDbEntity
  8
해칭선
100
AcDbBlockReference
  2
SW_DOWELSYMBOL_0
 10
0.0
 20
0.0
 30
0.0
  0
ARC
  5
12E
330
1F
100
AcDbEntity
  8
0
 62
     1
100
AcDbCircle
 10
40.00000000000003
 20
0.0000000000000114
 30
0.0
 40
10.0
100
AcDbArc
 50
264.5886697404221
 51
97.07126631019517
  0
LINE
  5
1A9
330
1F
100
AcDbEntity
  8
외형선
  6
Continuous
370
    15
100
AcDbLine
 10
-77.7000119999999
 20
10.00000000000003
 30
0.0
 11
-79.50000000000011
 21
8.200011999999987
 31
0.0
  0
LINE
  5
1AA
330
1F
100
AcDbEntity
  8
외형선
  6
Continuous
370
    15
100
AcDbLine
 10
-79.50000000000011
 20
8.200011999999987
 30
0.0
 11
-90.50000000000011
 21
8.200011999999987
 31
0.0
  0
LINE
  5
1AB
330
1F
100
AcDbEntity
  8
외형선
  6
Continuous
370
    15
100
AcDbLine
 10
-90.50000000000011
 20
8.200011999999987
 30
0.0
 11
-92.29998799999987
 21
10.00000000000003
 31
0.0
  0
LINE
  5
1AC
330
1F
100
AcDbEntity
  8
외형선
  6
Continuous
370
    15
100
AcDbLine
 10
-92.29998799999983
 20
9.999999999999996
 30
0.0
 11
-108.0
 21
9.999999999999996
 31
0.0
  0
ENDSEC
  0
SECTION
  2
OBJECTS
  0
DICTIONARY
  5
C
330
0
100
AcDbDictionary
281
     1
  3
ACAD_GROUP
350
D
  3
ACAD_IMAGE_VARS
350
11E
  3
ACAD_LAYOUT
350
1A
  3
ACAD_MLINESTYLE
350
17
  3
ACAD_PLOTSETTINGS
350
19
  3
ACAD_PLOTSTYLENAME
350
E
  3
ACAD_SCALELIST
350
47
  3
APPDATA
350
11C
  3
DWGPROPS
350
1AD
  0
DICTIONARY
  5
190
330
2
100
AcDbDictionary
280
     1
281
     1
  3
ACAD_LAYERSTATES
360
191
  0
DICTIONARY
  5
D
102
{ACAD_REACTORS
330
C
102
}
330
C
100
AcDbDictionary
281
     1
  0
RASTERVARIABLES
  5
11E
102
{ACAD_REACTORS
330
C
102
}
330
C
100
AcDbRasterVariables
 90
        0
 70
     1
 71
     1
 72
     1
  0
DICTIONARY
  5
1A
102
{ACAD_REACTORS
330
C
102
}
330
C
100
AcDbDictionary
281
     1
  3
Layout1
350
1E
  3
Layout2
350
26
  3
Model
350
22
  0
DICTIONARY
  5
17
102
{ACAD_REACTORS
330
C
102
}
330
C
100
AcDbDictionary
281
     1
  3
Standard
350
18
  0
DICTIONARY
  5
19
102
{ACAD_REACTORS
330
C
102
}
330
C
100
AcDbDictionary
281
     1
  0
ACDBDICTIONARYWDFLT
  5
E
102
{ACAD_REACTORS
330
C
102
}
330
C
100
AcDbDictionary
281
     1
  3
Normal
350
F
100
AcDbDictionaryWithDefault
340
F
  0
DICTIONARY
  5
47
102
{ACAD_REACTORS
330
C
102
}
330
C
100
AcDbDictionary
281
     1
  3
A0
350
48
  3
A1
350
49
  3
A2
350
4A
  3
A3
350
4B
  3
A4
350
4C
  3
A5
350
4D
  3
A6
350
4E
  3
A7
350
4F
  3
A8
350
50
  3
A9
350
51
  3
B0
350
52
  3
B1
350
53
  3
B2
350
54
  3
B3
350
55
  3
B4
350
56
  3
B5
350
57
  3
B6
350
58
  3
B7
350
59
  3
B8
350
5A
  3
B9
350
5B
  3
C0
350
5C
  3
C1
350
5D
  3
C2
350
5E
  3
C3
350
5F
  3
C4
350
60
  3
C5
350
61
  3
C6
350
62
  3
C7
350
63
  3
C8
350
64
  3
C9
350
65
  3
D0
350
66
  3
D1
350
67
  3
D2
350
68
  0
DICTIONARY
  5
11C
102
{ACAD_REACTORS
330
C
102
}
330
C
100
AcDbDictionary
281
     1
  0
XRECORD
  5
1AD
102
{ACAD_REACTORS
330
C
102
}
330
C
100
AcDbXrecord
280
     1
  1
DWGPROPS COOKIE
  2

  3

  4

  6

  7

  8
12016016
  9

300
=
301
=
302
=
303
=
304
=
305
=
306
=
307
=
308
=
309
=
 40
0.0
 41
2458292.131717373
 42
2458295.450128646
  1

 90
        0
  0
DICTIONARY
  5
191
102
{ACAD_REACTORS
330
190
102
}
330
190
100
AcDbDictionary
281
     1
  0
LAYOUT
  5
1E
102
{ACAD_REACTORS
330
1A
102
}
330
1A
100
AcDbPlotSettings
  1

  2
none_device
  4

  6

 40
0.0
 41
0.0
 42
0.0
 43
0.0
 44
0.0
 45
0.0
 46
0.0
 47
0.0
 48
0.0
 49
0.0
140
0.0
141
0.0
142
1.0
143
1.0
 70
   688
 72
     1
 73
     0
 74
     5
  7

 75
    16
147
1.0
148
0.0
149
0.0
100
AcDbLayout
  1
Layout1
 70
     1
 71
     1
 10
0.0
 20
0.0
 11
420.0
 21
297.0
 12
0.0
 22
0.0
 32
0.0
 14
1.000000000000000E+20
 24
1.000000000000000E+20
 34
1.000000000000000E+20
 15
-1.000000000000000E+20
 25
-1.000000000000000E+20
 35
-1.000000000000000E+20
146
0.0
 13
0.0
 23
0.0
 33
0.0
 16
1.0
 26
0.0
 36
0.0
 17
0.0
 27
1.0
 37
0.0
 76
     0
330
1B
  0
LAYOUT
  5
26
102
{ACAD_REACTORS
330
1A
102
}
330
1A
100
AcDbPlotSettings
  1

  2
none_device
  4

  6

 40
0.0
 41
0.0
 42
0.0
 43
0.0
 44
0.0
 45
0.0
 46
0.0
 47
0.0
 48
0.0
 49
0.0
140
0.0
141
0.0
142
1.0
143
1.0
 70
   688
 72
     1
 73
     0
 74
     5
  7

 75
    16
147
1.0
148
0.0
149
0.0
100
AcDbLayout
  1
Layout2
 70
     1
 71
     2
 10
0.0
 20
0.0
 11
0.0
 21
0.0
 12
0.0
 22
0.0
 32
0.0
 14
0.0
 24
0.0
 34
0.0
 15
0.0
 25
0.0
 35
0.0
146
0.0
 13
0.0
 23
0.0
 33
0.0
 16
1.0
 26
0.0
 36
0.0
 17
0.0
 27
1.0
 37
0.0
 76
     0
330
23
  0
LAYOUT
  5
22
102
{ACAD_REACTORS
330
1A
102
}
330
1A
100
AcDbPlotSettings
  1

  2
none_device
  4
ANSI_A_(11.00_x_8.50_Inches)
  6

 40
6.35
 41
19.05
 42
6.35000508
 43
19.05000254
 44
279.4
 45
215.9
 46
86.74430370036674
 47
39.33617066587377
 48
0.0
 49
0.0
140
0.0
141
0.0
142
0.0444874615569021
143
1.0
 70
  1696
 72
     0
 73
     0
 74
     0
  7

 75
     0
147
0.0235690232323232
148
0.0
149
0.0
100
AcDbLayout
  1
Model
 70
     1
 71
     0
 10
0.0
 20
0.0
 11
420.0
 21
297.0
 12
0.0
 22
0.0
 32
0.0
 14
1.000000000000000E+20
 24
1.000000000000000E+20
 34
1.000000000000000E+20
 15
-1.000000000000000E+20
 25
-1.000000000000000E+20
 35
-1.000000000000000E+20
146
0.0
 13
0.0
 23
0.0
 33
0.0
 16
1.0
 26
0.0
 36
0.0
 17
0.0
 27
1.0
 37
0.0
 76
     0
330
1F
331
29
  0
MLINESTYLE
  5
18
102
{ACAD_REACTORS
330
17
102
}
330
17
100
AcDbMlineStyle
  2
Standard
 70
     0
  3

 62
   256
 51
90.0
 52
90.0
 71
     2
 49
0.5
 62
   256
  6
BYLAYER
 49
-0.5
 62
   256
  6
BYLAYER
  0
ACDBPLACEHOLDER
  5
F
102
{ACAD_REACTORS
330
E
102
}
330
E
  0
SCALE
  5
48
102
{ACAD_REACTORS
330
47
102
}
330
47
100
AcDbScale
 70
     0
300
1:1
140
1.0
141
1.0
290
     1
  0
SCALE
  5
49
102
{ACAD_REACTORS
330
47
102
}
330
47
100
AcDbScale
 70
     0
300
1:2
140
1.0
141
2.0
290
     0
  0
SCALE
  5
4A
102
{ACAD_REACTORS
330
47
102
}
330
47
100
AcDbScale
 70
     0
300
1:4
140
1.0
141
4.0
290
     0
  0
SCALE
  5
4B
102
{ACAD_REACTORS
330
47
102
}
330
47
100
AcDbScale
 70
     0
300
1:5
140
1.0
141
5.0
290
     0
  0
SCALE
  5
4C
102
{ACAD_REACTORS
330
47
102
}
330
47
100
AcDbScale
 70
     0
300
1:8
140
1.0
141
8.0
290
     0
  0
SCALE
  5
4D
102
{ACAD_REACTORS
330
47
102
}
330
47
100
AcDbScale
 70
     0
300
1:10
140
1.0
141
10.0
290
     0
  0
SCALE
  5
4E
102
{ACAD_REACTORS
330
47
102
}
330
47
100
AcDbScale
 70
     0
300
1:16
140
1.0
141
16.0
290
     0
  0
SCALE
  5
4F
102
{ACAD_REACTORS
330
47
102
}
330
47
100
AcDbScale
 70
     0
300
1:20
140
1.0
141
20.0
290
     0
  0
SCALE
  5
50
102
{ACAD_REACTORS
330
47
102
}
330
47
100
AcDbScale
 70
     0
300
1:30
140
1.0
141
30.0
290
     0
  0
SCALE
  5
51
102
{ACAD_REACTORS
330
47
102
}
330
47
100
AcDbScale
 70
     0
300
1:40
140
1.0
141
40.0
290
     0
  0
SCALE
  5
52
102
{ACAD_REACTORS
330
47
102
}
330
47
100
AcDbScale
 70
     0
300
1:50
140
1.0
141
50.0
290
     0
  0
SCALE
  5
53
102
{ACAD_REACTORS
330
47
102
}
330
47
100
AcDbScale
 70
     0
300
1:100
140
1.0
141
100.0
290
     0
  0
SCALE
  5
54
102
{ACAD_REACTORS
330
47
102
}
330
47
100
AcDbScale
 70
     0
300
2:1
140
2.0
141
1.0
290
     0
  0
SCALE
  5
55
102
{ACAD_REACTORS
330
47
102
}
330
47
100
AcDbScale
 70
     0
300
4:1
140
4.0
141
1.0
290
     0
  0
SCALE
  5
56
102
{ACAD_REACTORS
330
47
102
}
330
47
100
AcDbScale
 70
     0
300
8:1
140
8.0
141
1.0
290
     0
  0
SCALE
  5
57
102
{ACAD_REACTORS
330
47
102
}
330
47
100
AcDbScale
 70
     0
300
10:1
140
10.0
141
1.0
290
     0
  0
SCALE
  5
58
102
{ACAD_REACTORS
330
47
102
}
330
47
100
AcDbScale
 70
     0
300
100:1
140
100.0
141
1.0
290
     0
  0
SCALE
  5
59
102
{ACAD_REACTORS
330
47
102
}
330
47
100
AcDbScale
 70
     0
300
1/128" = 1'-0"
140
0.0078125
141
12.0
290
     0
  0
SCALE
  5
5A
102
{ACAD_REACTORS
330
47
102
}
330
47
100
AcDbScale
 70
     0
300
1/64" = 1'-0"
140
0.015625
141
12.0
290
     0
  0
SCALE
  5
5B
102
{ACAD_REACTORS
330
47
102
}
330
47
100
AcDbScale
 70
     0
300
1/32" = 1'-0"
140
0.03125
141
12.0
290
     0
  0
SCALE
  5
5C
102
{ACAD_REACTORS
330
47
102
}
330
47
100
AcDbScale
 70
     0
300
1/16" = 1'-0"
140
0.0625
141
12.0
290
     0
  0
SCALE
  5
5D
102
{ACAD_REACTORS
330
47
102
}
330
47
100
AcDbScale
 70
     0
300
3/32" = 1'-0"
140
0.09375
141
12.0
290
     0
  0
SCALE
  5
5E
102
{ACAD_REACTORS
330
47
102
}
330
47
100
AcDbScale
 70
     0
300
1/8" = 1'-0"
140
0.125
141
12.0
290
     0
  0
SCALE
  5
5F
102
{ACAD_REACTORS
330
47
102
}
330
47
100
AcDbScale
 70
     0
300
3/16" = 1'-0"
140
0.1875
141
12.0
290
     0
  0
SCALE
  5
60
102
{ACAD_REACTORS
330
47
102
}
330
47
100
AcDbScale
 70
     0
300
1/4" = 1'-0"
140
0.25
141
12.0
290
     0
  0
SCALE
  5
61
102
{ACAD_REACTORS
330
47
102
}
330
47
100
AcDbScale
 70
     0
300
3/8" = 1'-0"
140
0.375
141
12.0
290
     0
  0
SCALE
  5
62
102
{ACAD_REACTORS
330
47
102
}
330
47
100
AcDbScale
 70
     0
300
1/2" = 1'-0"
140
0.5
141
12.0
290
     0
  0
SCALE
  5
63
102
{ACAD_REACTORS
330
47
102
}
330
47
100
AcDbScale
 70
     0
300
3/4" = 1'-0"
140
0.75
141
12.0
290
     0
  0
SCALE
  5
64
102
{ACAD_REACTORS
330
47
102
}
330
47
100
AcDbScale
 70
     0
300
1" = 1'-0"
140
1.0
141
12.0
290
     0
  0
SCALE
  5
65
102
{ACAD_REACTORS
330
47
102
}
330
47
100
AcDbScale
 70
     0
300
1-1/2" = 1'-0"
140
1.5
141
12.0
290
     0
  0
SCALE
  5
66
102
{ACAD_REACTORS
330
47
102
}
330
47
100
AcDbScale
 70
     0
300
3" = 1'-0"
140
3.0
141
12.0
290
     0
  0
SCALE
  5
67
102
{ACAD_REACTORS
330
47
102
}
330
47
100
AcDbScale
 70
     0
300
6" = 1'-0"
140
6.0
141
12.0
290
     0
  0
SCALE
  5
68
102
{ACAD_REACTORS
330
47
102
}
330
47
100
AcDbScale
 70
     0
300
1'-0" = 1'-0"
140
12.0
141
12.0
290
     0
  0
ENDSEC
  0
EOF
