  0
SECTION
  2
HEADER
  9
$ACADVER
  1
AC1015
  9
$ACADMAINTVER
 70
     6
  9
$DWGCODEPAGE
  3
ANSI_949
  9
$INSBASE
 10
0.0
 20
0.0
 30
0.0
  9
$EXTMIN
 10
1.000000000000000E+20
 20
1.000000000000000E+20
 30
1.000000000000000E+20
  9
$EXTMAX
 10
-1.000000000000000E+20
 20
-1.000000000000000E+20
 30
-1.000000000000000E+20
  9
$LIMMIN
 10
0.0
 20
0.0
  9
$LIMMAX
 10
420.0
 20
297.0
  9
$ORTHOMODE
 70
     0
  9
$REGENMODE
 70
     1
  9
$FILLMODE
 70
     1
  9
$QTEXTMODE
 70
     0
  9
$MIRRTEXT
 70
     1
  9
$LTSCALE
 40
1.0
  9
$ATTMODE
 70
     1
  9
$TEXTSIZE
 40
3.5
  9
$TRACEWID
 40
1.0
  9
$TEXTSTYLE
  7
Standard
  9
$CLAYER
  8
0
  9
$CELTYPE
  6
ByLayer
  9
$CECOLOR
 62
   256
  9
$CELTSCALE
 40
1.0
  9
$DISPSILH
 70
     0
  9
$DIMSCALE
 40
1.0
  9
$DIMASZ
 40
3.302
  9
$DIMEXO
 40
1.0
  9
$DIMDLI
 40
3.75
  9
$DIMRND
 40
0.0
  9
$DIMDLE
 40
0.0
  9
$DIMEXE
 40
1.0
  9
$DIMTP
 40
0.0
  9
$DIMTM
 40
0.0
  9
$DIMTXT
 40
3.5
  9
$DIMCEN
 40
2.5
  9
$DIMTSZ
 40
0.0
  9
$DIMTOL
 70
     0
  9
$DIMLIM
 70
     0
  9
$DIMTIH
 70
     1
  9
$DIMTOH
 70
     1
  9
$DIMSE1
 70
     0
  9
$DIMSE2
 70
     0
  9
$DIMTAD
 70
     1
  9
$DIMZIN
 70
     0
  9
$DIMBLK
  1

  9
$DIMASO
 70
     1
  9
$DIMSHO
 70
     1
  9
$DIMPOST
  1

  9
$DIMAPOST
  1

  9
$DIMALT
 70
     0
  9
$DIMALTD
 70
     3
  9
$DIMALTF
 40
0.0393700787401575
  9
$DIMLFAC
 40
1.0
  9
$DIMTOFL
 70
     1
  9
$DIMTVP
 40
0.0
  9
$DIMTIX
 70
     0
  9
$DIMSOXD
 70
     0
  9
$DIMSAH
 70
     0
  9
$DIMBLK1
  1

  9
$DIMBLK2
  1

  9
$DIMSTYLE
  2
ISO-25
  9
$DIMCLRD
 70
     0
  9
$DIMCLRE
 70
     0
  9
$DIMCLRT
 70
     0
  9
$DIMTFAC
 40
1.0
  9
$DIMGAP
 40
1.524
  9
$DIMJUST
 70
     0
  9
$DIMSD1
 70
     0
  9
$DIMSD2
 70
     0
  9
$DIMTOLJ
 70
     0
  9
$DIMTZIN
 70
     0
  9
$DIMALTZ
 70
     0
  9
$DIMALTTZ
 70
     0
  9
$DIMUPT
 70
     0
  9
$DIMDEC
 70
     2
  9
$DIMTDEC
 70
     2
  9
$DIMALTU
 70
     2
  9
$DIMALTTD
 70
     3
  9
$DIMTXSTY
  7
Standard
  9
$DIMAUNIT
 70
     0
  9
$DIMADEC
 70
     2
  9
$DIMALTRND
 40
0.0
  9
$DIMAZIN
 70
     0
  9
$DIMDSEP
 70
    44
  9
$DIMATFIT
 70
     3
  9
$DIMFRAC
 70
     0
  9
$DIMLDRBLK
  1

  9
$DIMLUNIT
 70
     2
  9
$DIMLWD
 70
    -2
  9
$DIMLWE
 70
    -2
  9
$DIMTMOVE
 70
     0
  9
$LUNITS
 70
     2
  9
$LUPREC
 70
     2
  9
$SKETCHINC
 40
1.0
  9
$FILLETRAD
 40
10.0
  9
$AUNITS
 70
     0
  9
$AUPREC
 70
     2
  9
$MENU
  1
.
  9
$ELEVATION
 40
0.0
  9
$PELEVATION
 40
0.0
  9
$THICKNESS
 40
0.0
  9
$LIMCHECK
 70
     0
  9
$CHAMFERA
 40
0.0
  9
$CHAMFERB
 40
0.0
  9
$CHAMFERC
 40
0.0
  9
$CHAMFERD
 40
0.0
  9
$SKPOLY
 70
     0
  9
$TDCREATE
 40
2458292.506149711
  9
$TDUCREATE
 40
2458292.131149711
  9
$TDUPDATE
 40
2458295.825681863
  9
$TDUUPDATE
 40
2458295.450681863
  9
$TDINDWG
 40
0.0018060417
  9
$TDUSRTIMER
 40
2458295.450551609
  9
$USRTIMER
 70
     1
  9
$ANGBASE
 50
0.0
  9
$ANGDIR
 70
     0
  9
$PDMODE
 70
     0
  9
$PDSIZE
 40
-1.0
  9
$PLINEWID
 40
0.0
  9
$SPLFRAME
 70
     0
  9
$SPLINETYPE
 70
     6
  9
$SPLINESEGS
 70
     8
  9
$HANDSEED
  5
1B3
  9
$SURFTAB1
 70
     6
  9
$SURFTAB2
 70
     6
  9
$SURFTYPE
 70
     6
  9
$SURFU
 70
     6
  9
$SURFV
 70
     6
  9
$UCSBASE
  2

  9
$UCSNAME
  2

  9
$UCSORG
 10
0.0
 20
0.0
 30
0.0
  9
$UCSXDIR
 10
1.0
 20
0.0
 30
0.0
  9
$UCSYDIR
 10
0.0
 20
1.0
 30
0.0
  9
$UCSORTHOREF
  2

  9
$UCSORTHOVIEW
 70
     0
  9
$UCSORGTOP
 10
0.0
 20
0.0
 30
0.0
  9
$UCSORGBOTTOM
 10
0.0
 20
0.0
 30
0.0
  9
$UCSORGLEFT
 10
0.0
 20
0.0
 30
0.0
  9
$UCSORGRIGHT
 10
0.0
 20
0.0
 30
0.0
  9
$UCSORGFRONT
 10
0.0
 20
0.0
 30
0.0
  9
$UCSORGBACK
 10
0.0
 20
0.0
 30
0.0
  9
$PUCSBASE
  2

  9
$PUCSNAME
  2

  9
$PUCSORG
 10
0.0
 20
0.0
 30
0.0
  9
$PUCSXDIR
 10
1.0
 20
0.0
 30
0.0
  9
$PUCSYDIR
 10
0.0
 20
1.0
 30
0.0
  9
$PUCSORTHOREF
  2

  9
$PUCSORTHOVIEW
 70
     0
  9
$PUCSORGTOP
 10
0.0
 20
0.0
 30
0.0
  9
$PUCSORGBOTTOM
 10
0.0
 20
0.0
 30
0.0
  9
$PUCSORGLEFT
 10
0.0
 20
0.0
 30
0.0
  9
$PUCSORGRIGHT
 10
0.0
 20
0.0
 30
0.0
  9
$PUCSORGFRONT
 10
0.0
 20
0.0
 30
0.0
  9
$PUCSORGBACK
 10
0.0
 20
0.0
 30
0.0
  9
$USERI1
 70
     0
  9
$USERI2
 70
     0
  9
$USERI3
 70
     0
  9
$USERI4
 70
     0
  9
$USERI5
 70
     0
  9
$USERR1
 40
0.0
  9
$USERR2
 40
0.0
  9
$USERR3
 40
0.0
  9
$USERR4
 40
0.0
  9
$USERR5
 40
0.0
  9
$WORLDVIEW
 70
     1
  9
$SHADEDGE
 70
     3
  9
$SHADEDIF
 70
    70
  9
$TILEMODE
 70
     1
  9
$MAXACTVP
 70
    64
  9
$PINSBASE
 10
0.0
 20
0.0
 30
0.0
  9
$PLIMCHECK
 70
     0
  9
$PEXTMIN
 10
1.000000000000000E+20
 20
1.000000000000000E+20
 30
1.000000000000000E+20
  9
$PEXTMAX
 10
-1.000000000000000E+20
 20
-1.000000000000000E+20
 30
-1.000000000000000E+20
  9
$PLIMMIN
 10
0.0
 20
0.0
  9
$PLIMMAX
 10
0.0
 20
0.0
  9
$UNITMODE
 70
     0
  9
$VISRETAIN
 70
     1
  9
$PLINEGEN
 70
     0
  9
$PSLTSCALE
 70
     1
  9
$TREEDEPTH
 70
  3020
  9
$CMLSTYLE
  2
Standard
  9
$CMLJUST
 70
     0
  9
$CMLSCALE
 40
20.0
  9
$PROXYGRAPHICS
 70
     1
  9
$MEASUREMENT
 70
     1
  9
$CELWEIGHT
370
    -1
  9
$ENDCAPS
280
     0
  9
$JOINSTYLE
280
     0
  9
$LWDISPLAY
290
     1
  9
$INSUNITS
 70
     4
  9
$HYPERLINKBASE
  1

  9
$STYLESHEET
  1

  9
$XEDIT
290
     1
  9
$CEPSNTYPE
380
     0
  9
$PSTYLEMODE
290
     1
  9
$FINGERPRINTGUID
  2
{1A811DA7-1D59-448E-9739-BA00F62D1D60}
  9
$VERSIONGUID
  2
{FAEB1C32-E019-11D5-929B-00C0DF256EC4}
  9
$EXTNAMES
290
     1
  9
$PSVPSCALE
 40
0.0
  9
$OLESTARTUP
290
     0
  0
ENDSEC
  0
SECTION
  2
CLASSES
  0
CLASS
  1
ACDBDICTIONARYWDFLT
  2
AcDbDictionaryWithDefault
  3
ObjectDBX Classes
 90
        0
280
     0
281
     0
  0
CLASS
  1
VISUALSTYLE
  2
AcDbVisualStyle
  3
ObjectDBX Classes
 90
     4095
280
     0
281
     0
  0
CLASS
  1
MATERIAL
  2
AcDbMaterial
  3
ObjectDBX Classes
 90
     1153
280
     0
281
     0
  0
CLASS
  1
SCALE
  2
AcDbScale
  3
ObjectDBX Classes
 90
     1153
280
     0
281
     0
  0
CLASS
  1
SUN
  2
AcDbSun
  3
SCENEOE
 90
     1153
280
     0
281
     0
  0
CLASS
  1
ACDBPLACEHOLDER
  2
AcDbPlaceHolder
  3
ObjectDBX Classes
 90
        0
280
     0
281
     0
  0
CLASS
  1
LAYOUT
  2
AcDbLayout
  3
ObjectDBX Classes
 90
        0
280
     0
281
     0
  0
CLASS
  1
TABLESTYLE
  2
AcDbTableStyle
  3
ObjectDBX Classes
 90
     4095
280
     0
281
     0
  0
CLASS
  1
MLEADERSTYLE
  2
AcDbMLeaderStyle
  3
ACDB_MLEADERSTYLE_CLASS
 90
     4095
280
     0
281
     0
  0
CLASS
  1
RASTERVARIABLES
  2
AcDbRasterVariables
  3
ISM
 90
        0
280
     0
281
     0
  0
ENDSEC
  0
SECTION
  2
TABLES
  0
TABLE
  2
VPORT
  5
8
330
0
100
AcDbSymbolTable
 70
     1
  0
VPORT
  5
29
330
8
100
AcDbSymbolTableRecord
100
AcDbViewportTableRecord
  2
*Active
 70
     0
 10
0.0
 20
0.0
 11
1.0
 21
1.0
 12
-93.36978864109334
 22
-43.13548796900365
 13
0.0
 23
0.0
 14
10.0
 24
10.0
 15
10.0
 25
10.0
 16
0.0
 26
0.0
 36
1.0
 17
0.0
 27
0.0
 37
0.0
 40
141.8519933268615
 41
1.546332046332046
 42
50.0
 43
0.0
 44
0.0
 50
0.0
 51
0.0
 71
    16
 72
  2000
 73
     1
 74
     3
 75
     0
 76
     0
 77
     0
 78
     0
281
     0
 65
     1
110
0.0
120
0.0
130
0.0
111
1.0
121
0.0
131
0.0
112
0.0
122
1.0
132
0.0
 79
     0
146
0.0
  0
ENDTAB
  0
TABLE
  2
LTYPE
  5
5
330
0
100
AcDbSymbolTable
 70
     6
  0
LTYPE
  5
14
330
5
100
AcDbSymbolTableRecord
100
AcDbLinetypeTableRecord
  2
ByBlock
 70
     0
  3

 72
    65
 73
     0
 40
0.0
  0
LTYPE
  5
15
330
5
100
AcDbSymbolTableRecord
100
AcDbLinetypeTableRecord
  2
ByLayer
 70
     0
  3

 72
    65
 73
     0
 40
0.0
  0
LTYPE
  5
16
330
5
100
AcDbSymbolTableRecord
100
AcDbLinetypeTableRecord
  2
Continuous
 70
     0
  3
Solid line
 72
    65
 73
     0
 40
0.0
  0
LTYPE
  5
6A
330
5
100
AcDbSymbolTableRecord
100
AcDbLinetypeTableRecord
  2
HIDDEN
 70
     0
  3
Hidden __ __ __ __ __ __ __ __ __ __ __ __ __ __
 72
    65
 73
     2
 40
1.905
 49
1.27
 74
     0
 49
-0.635
 74
     0
  0
LTYPE
  5
6B
330
5
100
AcDbSymbolTableRecord
100
AcDbLinetypeTableRecord
  2
PHANTOM
 70
     0
  3
Phantom ______  __  __  ______  __  __  ______
 72
    65
 73
     6
 40
12.7
 49
6.35
 74
     0
 49
-1.27
 74
     0
 49
1.27
 74
     0
 49
-1.27
 74
     0
 49
1.27
 74
     0
 49
-1.27
 74
     0
  0
LTYPE
  5
6C
330
5
100
AcDbSymbolTableRecord
100
AcDbLinetypeTableRecord
  2
CENTER
 70
     0
  3
Center ____ _ ____ _ ____ _ ____ _ ____ _ ____
 72
    65
 73
     4
 40
10.16
 49
6.35
 74
     0
 49
-1.27
 74
     0
 49
1.27
 74
     0
 49
-1.27
 74
     0
  0
LTYPE
  5
6D
330
5
100
AcDbSymbolTableRecord
100
AcDbLinetypeTableRecord
  2
CENTERX2
 70
     0
  3
Center (2x) ________  __  ________  __  _____
 72
    65
 73
     4
 40
20.32
 49
12.7
 74
     0
 49
-2.54
 74
     0
 49
2.54
 74
     0
 49
-2.54
 74
     0
  0
LTYPE
  5
6E
330
5
100
AcDbSymbolTableRecord
100
AcDbLinetypeTableRecord
  2
DOT2
 70
     0
  3
Dot (.5x) ........................................
 72
    65
 73
     2
 40
0.635
 49
0.0
 74
     0
 49
-0.635
 74
     0
  0
ENDTAB
  0
TABLE
  2
LAYER
  5
2
102
{ACAD_XDICTIONARY
360
193
102
}
330
0
100
AcDbSymbolTable
 70
    20
  0
LAYER
  5
10
330
2
100
AcDbSymbolTableRecord
100
AcDbLayerTableRecord
  2
0
 70
     0
 62
     7
  6
Continuous
370
    -3
390
F
  0
LAYER
  5
6F
330
2
100
AcDbSymbolTableRecord
100
AcDbLayerTableRecord
  2
FORMAT
 70
     0
 62
     2
  6
Continuous
370
    -3
390
F
  0
LAYER
  5
70
330
2
100
AcDbSymbolTableRecord
100
AcDbLayerTableRecord
  2
외형선
 70
     0
 62
     4
  6
Continuous
370
    30
390
F
  0
LAYER
  5
71
330
2
100
AcDbSymbolTableRecord
100
AcDbLayerTableRecord
  2
숨은선
 70
     0
 62
     2
  6
HIDDEN
370
    15
390
F
  0
LAYER
  5
72
330
2
100
AcDbSymbolTableRecord
100
AcDbLayerTableRecord
  2
중심선
 70
     0
 62
     1
  6
CENTERX2
370
    -3
390
F
  0
LAYER
  5
73
330
2
100
AcDbSymbolTableRecord
100
AcDbLayerTableRecord
  2
파단선
 70
     0
 62
     4
  6
Continuous
370
    -3
390
F
  0
LAYER
  5
74
330
2
100
AcDbSymbolTableRecord
100
AcDbLayerTableRecord
  2
해칭선
 70
     0
 62
   100
  6
Continuous
370
    -3
390
F
  0
LAYER
  5
75
330
2
100
AcDbSymbolTableRecord
100
AcDbLayerTableRecord
  2
가는실선
 70
     0
 62
     4
  6
Continuous
370
    -3
390
F
  0
LAYER
  5
76
330
2
100
AcDbSymbolTableRecord
100
AcDbLayerTableRecord
  2
치수_보조선
 70
     0
 62
     4
  6
Continuous
370
    -3
390
F
  0
LAYER
  5
77
330
2
100
AcDbSymbolTableRecord
100
AcDbLayerTableRecord
  2
치수문자_일반주서
 70
     0
 62
     7
  6
Continuous
370
    15
390
F
  0
LAYER
  5
78
330
2
100
AcDbSymbolTableRecord
100
AcDbLayerTableRecord
  2
개별주서
 70
     0
 62
   100
  6
Continuous
370
    30
390
F
  0
LAYER
  5
79
330
2
100
AcDbSymbolTableRecord
100
AcDbLayerTableRecord
  2
중간선
 70
     0
 62
     2
  6
Continuous
370
    15
390
F
  0
LAYER
  5
7A
330
2
100
AcDbSymbolTableRecord
100
AcDbLayerTableRecord
  2
윤곽선
 70
     0
 62
     3
  6
Continuous
370
    40
390
F
  0
LAYER
  5
7B
330
2
100
AcDbSymbolTableRecord
100
AcDbLayerTableRecord
  2
중심마크
 70
     0
 62
   100
  6
Continuous
370
    30
390
F
  0
LAYER
  5
7C
330
2
100
AcDbSymbolTableRecord
100
AcDbLayerTableRecord
  2
가상선
 70
     0
 62
     4
  6
PHANTOM
370
    -3
390
F
  0
LAYER
  5
7D
330
2
100
AcDbSymbolTableRecord
100
AcDbLayerTableRecord
  2
특수지정선
 70
     0
 62
     5
  6
CENTERX2
370
    60
390
F
  0
LAYER
  5
7E
330
2
100
AcDbSymbolTableRecord
100
AcDbLayerTableRecord
  2
참조1
 70
     0
 62
    -4
  6
Continuous
370
    -3
390
F
  0
LAYER
  5
120
330
2
100
AcDbSymbolTableRecord
100
AcDbLayerTableRecord
  2
Defpoints
 70
     0
 62
     7
  6
Continuous
290
     0
370
    -3
390
F
  0
LAYER
  5
158
330
2
100
AcDbSymbolTableRecord
100
AcDbLayerTableRecord
  2
CENTER
 70
     0
 62
     2
  6
CENTER
370
    -3
390
F
1001
AcAecLayerStandard
1000

1000

  0
LAYER
  5
15C
330
2
100
AcDbSymbolTableRecord
100
AcDbLayerTableRecord
  2
CUT
 70
     0
 62
     1
  6
Continuous
370
    -3
390
F
1001
AcAecLayerStandard
1000

1000

  0
ENDTAB
  0
TABLE
  2
STYLE
  5
3
330
0
100
AcDbSymbolTable
 70
     2
  0
STYLE
  5
11
330
3
100
AcDbSymbolTableRecord
100
AcDbTextStyleTableRecord
  2
Standard
 70
     0
 40
0.0
 41
1.0
 50
0.0
 71
     0
 42
3.5
  3
txt
  4

  0
STYLE
  5
94
330
3
100
AcDbSymbolTableRecord
100
AcDbTextStyleTableRecord
  2
SLDTEXTSTYLE0
 70
     0
 40
0.0
 41
0.75
 50
0.0
 71
     0
 42
3.5
  3
TXT
  4

  0
ENDTAB
  0
TABLE
  2
VIEW
  5
6
330
0
100
AcDbSymbolTable
 70
     0
  0
ENDTAB
  0
TABLE
  2
UCS
  5
7
330
0
100
AcDbSymbolTable
 70
     0
  0
ENDTAB
  0
TABLE
  2
APPID
  5
9
330
0
100
AcDbSymbolTable
 70
     4
  0
APPID
  5
12
330
9
100
AcDbSymbolTableRecord
100
AcDbRegAppTableRecord
  2
ACAD
 70
     0
  0
APPID
  5
133
330
9
100
AcDbSymbolTableRecord
100
AcDbRegAppTableRecord
  2
ACAD_DSTYLE_DIMFLIPARROW_SYMBOL
 70
     0
  0
APPID
  5
134
330
9
100
AcDbSymbolTableRecord
100
AcDbRegAppTableRecord
  2
ACAD_DSTYLE_DIMFLIPARROW_WHICH_SYMBOL
 70
     0
  0
APPID
  5
15B
330
9
100
AcDbSymbolTableRecord
100
AcDbRegAppTableRecord
  2
AcAecLayerStandard
 70
     0
  0
ENDTAB
  0
TABLE
  2
DIMSTYLE
  5
A
330
0
100
AcDbSymbolTable
 70
     3
100
AcDbDimStyleTable
  0
DIMSTYLE
105
27
330
A
100
AcDbSymbolTableRecord
100
AcDbDimStyleTableRecord
  2
ISO-25
 70
     0
 41
2.5
 42
0.625
 43
3.75
 44
1.25
 73
     0
 74
     0
 77
     1
 78
     8
140
2.5
141
2.5
143
0.03937007874016
147
0.625
171
     3
172
     1
178
     0
271
     2
272
     2
274
     3
278
    44
283
     0
284
     8
340
11
  0
DIMSTYLE
105
BF
102
{ACAD_REACTORS
330
BE
330
CA
330
D4
102
}
330
A
100
AcDbSymbolTableRecord
100
AcDbDimStyleTableRecord
  2
SLDDIMSTYLE0
 70
     0
 41
3.302
 44
0.0
 45
0.000000001
 73
     0
 74
     0
 77
     1
 78
    12
 79
     3
140
3.5
147
0.875
173
     1
178
     0
271
     2
272
     2
276
     2
284
    12
340
94
  0
DIMSTYLE
105
E1
102
{ACAD_REACTORS
330
E0
102
}
330
A
100
AcDbSymbolTableRecord
100
AcDbDimStyleTableRecord
  2
SLDDIMSTYLE1
 70
     0
 41
3.302
 44
0.0
 45
0.000000001
 73
     0
 74
     0
 77
     1
 78
    12
 79
     3
140
3.5
147
0.875
172
     1
173
     1
178
     0
271
     2
272
     2
276
     2
284
    12
289
     0
340
94
  0
ENDTAB
  0
TABLE
  2
BLOCK_RECORD
  5
1
330
0
100
AcDbSymbolTable
 70
     8
  0
BLOCK_RECORD
  5
1F
330
1
100
AcDbSymbolTableRecord
100
AcDbBlockTableRecord
  2
*Model_Space
340
22
  0
BLOCK_RECORD
  5
1B
330
1
100
AcDbSymbolTableRecord
100
AcDbBlockTableRecord
  2
*Paper_Space
340
1E
  0
BLOCK_RECORD
  5
23
330
1
100
AcDbSymbolTableRecord
100
AcDbBlockTableRecord
  2
*Paper_Space0
340
26
  0
BLOCK_RECORD
  5
7F
330
1
100
AcDbSymbolTableRecord
100
AcDbBlockTableRecord
  2
블럭10
340
0
102
{BLKREFS
331
B7
102
}
  0
BLOCK_RECORD
  5
C0
330
1
100
AcDbSymbolTableRecord
100
AcDbBlockTableRecord
  2
_D
340
0
  0
BLOCK_RECORD
  5
CB
330
1
100
AcDbSymbolTableRecord
100
AcDbBlockTableRecord
  2
_D_1
340
0
  0
BLOCK_RECORD
  5
D5
330
1
100
AcDbSymbolTableRecord
100
AcDbBlockTableRecord
  2
_D_2
340
0
  0
BLOCK_RECORD
  5
E2
330
1
100
AcDbSymbolTableRecord
100
AcDbBlockTableRecord
  2
_D_3
340
0
  0
BLOCK_RECORD
  5
F5
330
1
100
AcDbSymbolTableRecord
100
AcDbBlockTableRecord
  2
SW_DOWELSYMBOL_0
340
0
102
{BLKREFS
331
FB
102
}
  0
ENDTAB
  0
ENDSEC
  0
SECTION
  2
BLOCKS
  0
BLOCK
  5
20
330
1F
100
AcDbEntity
  8
0
100
AcDbBlockBegin
  2
*Model_Space
 70
     0
 10
0.0
 20
0.0
 30
0.0
  3
*Model_Space
  1
*Model_Space
  0
ENDBLK
  5
21
330
1F
100
AcDbEntity
  8
0
100
AcDbBlockEnd
  0
BLOCK
  5
1C
330
1B
100
AcDbEntity
 67
     1
  8
0
100
AcDbBlockBegin
  2
*Paper_Space
 70
     0
 10
0.0
 20
0.0
 30
0.0
  3
*Paper_Space
  1
*Paper_Space
  0
ENDBLK
  5
1D
330
1B
100
AcDbEntity
 67
     1
  8
0
100
AcDbBlockEnd
  0
BLOCK
  5
24
330
23
100
AcDbEntity
  8
0
100
AcDbBlockBegin
  2
*Paper_Space0
 70
     0
 10
0.0
 20
0.0
 30
0.0
  3
*Paper_Space0
  1
*Paper_Space0
  0
ENDBLK
  5
25
330
23
100
AcDbEntity
  8
0
100
AcDbBlockEnd
  0
BLOCK
  5
80
330
7F
100
AcDbEntity
  8
0
100
AcDbBlockBegin
  2
블럭10
 70
     2
 10
0.0
 20
0.0
 30
0.0
  3
블럭10
  1
블럭10
  0
ELLIPSE
  5
82
330
7F
100
AcDbEntity
  8
중심선
100
AcDbEllipse
 10
20.54032771741204
 20
12.0471743016438
 30
0.0
 11
6.600054785286829
 21
-1.261213355974178E-13
 31
0.0
210
0.0
220
0.0
230
1.0
 40
0.636358354079598
 41
0.9219305317359503
 42
6.513795318482858
  0
ELLIPSE
  5
83
330
7F
100
AcDbEntity
  8
중심선
100
AcDbEllipse
 10
20.54032771746488
 20
12.04717430159265
 30
0.0
 11
3.960054785062283
 21
1.540847449632565E-10
 31
0.0
210
0.0
220
0.0
230
1.0
 40
0.3939339440162632
 41
1.131841032648279
 42
5.62031148352944
  0
LINE
  5
84
330
7F
100
AcDbEntity
  8
중심선
100
AcDbLine
 10
2.268634060543552
 20
16.24717430164393
 30
0.0
 11
5.714909304380834
 21
16.24717430164393
 31
0.0
  0
LINE
  5
85
330
7F
100
AcDbEntity
  8
중심선
100
AcDbLine
 10
5.245725140726316
 20
7.84717430164391
 30
0.0
 11
8.692000384563599
 21
7.84717430164391
 31
0.0
  0
LINE
  5
86
330
7F
100
AcDbEntity
  8
중심선
100
AcDbLine
 10
15.74043728645272
 20
16.24717430164393
 30
0.0
 11
8.692000384563599
 21
7.84717430164391
 31
0.0
  0
LINE
  5
87
330
7F
100
AcDbEntity
  8
중심선
100
AcDbLine
 10
0.1404042013395286
 20
13.71084872107135
 30
0.0
 11
3.58671253028996
 21
13.71088815037384
 31
0.0
  0
LINE
  5
88
330
7F
100
AcDbEntity
  8
중심선
100
AcDbLine
 10
2.750260043222114
 20
10.84717430164391
 30
0.0
 11
6.196535287059397
 21
10.84717430164391
 31
0.0
  0
LINE
  5
89
330
7F
100
AcDbEntity
  8
중심선
100
AcDbLine
 10
12.29416204261559
 20
16.24717430164393
 30
0.0
 11
5.245725140726316
 21
7.84717430164391
 31
0.0
  0
LINE
  5
8A
330
7F
100
AcDbEntity
  8
중심선
100
AcDbLine
 10
10.72767329541681
 20
16.24717430164393
 30
0.0
 11
6.196535287059397
 21
10.84717430164391
 31
0.0
  0
LINE
  5
8B
330
7F
100
AcDbEntity
  8
중심선
100
AcDbLine
 10
7.28139805157953
 20
16.24717430164393
 30
0.0
 11
2.750260043222114
 21
10.84717430164391
 31
0.0
  0
LINE
  5
8C
330
7F
100
AcDbEntity
  8
중심선
100
AcDbLine
 10
5.714909304380834
 20
16.24717430164393
 30
0.0
 11
3.58671253028996
 21
13.71088815037384
 31
0.0
  0
LINE
  5
8D
330
7F
100
AcDbEntity
  8
중심선
100
AcDbLine
 10
2.268634060543552
 20
16.24717430164393
 30
0.0
 11
0.1404042013395286
 21
13.71084872107135
 31
0.0
  0
LINE
  5
8E
330
7F
100
AcDbEntity
  8
중심선
100
AcDbLine
 10
7.28139805157953
 20
16.24717430164393
 30
0.0
 11
10.72767329541681
 21
16.24717430164393
 31
0.0
  0
LINE
  5
8F
330
7F
100
AcDbEntity
  8
중심선
100
AcDbLine
 10
12.29416204261559
 20
16.24717430164393
 30
0.0
 11
15.74043728645272
 21
16.24717430164393
 31
0.0
  0
LINE
  5
90
330
7F
100
AcDbEntity
  8
중심선
100
AcDbLine
 10
19.22036997980202
 20
11.08717430171403
 30
0.0
 11
23.66174974927406
 21
11.08717430171406
 31
0.0
  0
LINE
  5
91
330
7F
100
AcDbEntity
  8
중심선
100
AcDbLine
 10
19.22039502424796
 20
13.00717430171391
 30
0.0
 11
19.22036997980202
 21
11.08717430171403
 31
0.0
  0
LINE
  5
92
330
7F
100
AcDbEntity
  8
중심선
100
AcDbLine
 10
19.22039502424796
 20
13.00717430171391
 30
0.0
 11
26.96566020931264
 21
13.00717430171391
 31
0.0
  0
LINE
  5
93
330
7F
100
AcDbEntity
  8
중심선
100
AcDbLine
 10
22.22332737316547
 20
13.45928029700563
 30
0.0
 11
24.52862924686651
 21
15.39360700705356
 31
0.0
  0
ATTDEF
  5
95
330
7F
100
AcDbEntity
  8
FORMAT
 62
     2
100
AcDbText
 10
3.448148490846466
 20
2.075366912832191
 30
0.0
 40
4.233333333333333
  1
EM825140
 41
0.75
  7
SLDTEXTSTYLE0
 11
3.448148490846466
 21
-0.0412997538344756
 31
0.0
100
AcDbAttributeDefinition
  3

  2
AUTOATTR0
 70
     0
 74
     1
  0
ENDBLK
  5
81
330
7F
100
AcDbEntity
  8
0
100
AcDbBlockEnd
  0
BLOCK
  5
C1
330
C0
100
AcDbEntity
  8
0
100
AcDbBlockBegin
  2
_D
 70
     0
 10
0.0
 20
0.0
 30
0.0
  3
_D
  1
_D
  0
LINE
  5
C3
330
C0
100
AcDbEntity
  8
치수문자_일반주서
 62
     0
370
    -2
100
AcDbLine
 10
38.00000000000001
 20
7.06250000000008
 30
0.0
 11
38.00000000000001
 21
16.39618069276
 31
0.0
  0
LINE
  5
C4
330
C0
100
AcDbEntity
  8
치수문자_일반주서
 62
     0
370
    -2
100
AcDbLine
 10
11.99999999999999
 20
7.062500000000006
 30
0.0
 11
11.99999999999999
 21
16.39618069276
 31
0.0
  0
LINE
  5
C5
330
C0
100
AcDbEntity
  8
치수문자_일반주서
 62
     0
370
    -2
100
AcDbLine
 10
34.69800000000001
 20
16.39618069276
 30
0.0
 11
15.30199999999999
 21
16.39618069276
 31
0.0
  0
SOLID
  5
C6
330
C0
100
AcDbEntity
  8
치수문자_일반주서
 62
     0
100
AcDbTrace
 10
34.69800000000001
 20
15.84584735942667
 30
0.0
 11
34.69800000000001
 21
16.94651402609334
 31
0.0
 12
38.00000000000001
 22
16.39618069276
 32
0.0
 13
38.00000000000001
 23
16.39618069276
 33
0.0
  0
SOLID
  5
C7
330
C0
100
AcDbEntity
  8
치수문자_일반주서
 62
     0
100
AcDbTrace
 10
15.30199999999999
 20
16.94651402609334
 30
0.0
 11
15.30199999999999
 21
15.84584735942667
 31
0.0
 12
11.99999999999999
 22
16.39618069276
 32
0.0
 13
11.99999999999999
 23
16.39618069276
 33
0.0
  0
MTEXT
  5
C8
330
C0
100
AcDbEntity
  8
치수문자_일반주서
 62
     0
100
AcDbMText
 10
25.0
 20
20.77118069276
 30
0.0
 40
3.5
 41
0.0
 71
     2
 72
     1
  1
\A1;26
  7
SLDTEXTSTYLE0
 73
     1
 44
1.0
  0
POINT
  5
C9
330
C0
100
AcDbEntity
  8
Defpoints
 62
     0
100
AcDbPoint
 10
38.00000000000001
 20
7.00000000000008
 30
0.0
  0
POINT
  5
128
330
C0
100
AcDbEntity
  8
Defpoints
 62
     0
100
AcDbPoint
 10
11.99999999999999
 20
7.000000000000006
 30
0.0
  0
POINT
  5
129
330
C0
100
AcDbEntity
  8
Defpoints
 62
     0
100
AcDbPoint
 10
11.99999999999999
 20
16.39618069276
 30
0.0
  0
ENDBLK
  5
C2
330
C0
100
AcDbEntity
  8
0
100
AcDbBlockEnd
  0
BLOCK
  5
CC
330
CB
100
AcDbEntity
  8
0
100
AcDbBlockBegin
  2
_D_1
 70
     0
 10
0.0
 20
0.0
 30
0.0
  3
_D_1
  1
_D_1
  0
LINE
  5
CE
330
CB
100
AcDbEntity
  8
치수문자_일반주서
 62
     0
370
    -2
100
AcDbLine
 10
38.00000000000001
 20
7.06250000000008
 30
0.0
 11
38.00000000000001
 21
24.0
 31
0.0
  0
LINE
  5
CF
330
CB
100
AcDbEntity
  8
치수문자_일반주서
 62
     0
370
    -2
100
AcDbLine
 10
-72.0
 20
5.662499999999993
 30
0.0
 11
-72.0
 21
24.0
 31
0.0
  0
LINE
  5
D0
330
CB
100
AcDbEntity
  8
치수문자_일반주서
 62
     0
370
    -2
100
AcDbLine
 10
34.69800000000001
 20
24.0
 30
0.0
 11
-68.69800000000001
 21
24.0
 31
0.0
  0
SOLID
  5
D1
330
CB
100
AcDbEntity
  8
치수문자_일반주서
 62
     0
100
AcDbTrace
 10
34.69800000000001
 20
23.44966666666666
 30
0.0
 11
34.69800000000001
 21
24.55033333333333
 31
0.0
 12
38.00000000000001
 22
24.0
 32
0.0
 13
38.00000000000001
 23
24.0
 33
0.0
  0
SOLID
  5
D2
330
CB
100
AcDbEntity
  8
치수문자_일반주서
 62
     0
100
AcDbTrace
 10
-68.69800000000001
 20
24.55033333333333
 30
0.0
 11
-68.69800000000001
 21
23.44966666666666
 31
0.0
 12
-72.0
 22
24.0
 32
0.0
 13
-72.0
 23
24.0
 33
0.0
  0
MTEXT
  5
D3
330
CB
100
AcDbEntity
  8
치수문자_일반주서
 62
     0
100
AcDbMText
 10
-17.00000000000001
 20
28.375
 30
0.0
 40
3.5
 41
0.0
 71
     2
 72
     1
  1
\A1;110
  7
SLDTEXTSTYLE0
 73
     1
 44
1.0
  0
POINT
  5
12A
330
CB
100
AcDbEntity
  8
Defpoints
 62
     0
100
AcDbPoint
 10
38.00000000000001
 20
7.00000000000008
 30
0.0
  0
POINT
  5
12B
330
CB
100
AcDbEntity
  8
Defpoints
 62
     0
100
AcDbPoint
 10
-72.0
 20
5.599999999999993
 30
0.0
  0
POINT
  5
12C
330
CB
100
AcDbEntity
  8
Defpoints
 62
     0
100
AcDbPoint
 10
-72.0
 20
24.0
 30
0.0
  0
ENDBLK
  5
CD
330
CB
100
AcDbEntity
  8
0
100
AcDbBlockEnd
  0
BLOCK
  5
D6
330
D5
100
AcDbEntity
  8
0
100
AcDbBlockBegin
  2
_D_2
 70
     0
 10
0.0
 20
0.0
 30
0.0
  3
_D_2
  1
_D_2
  0
LINE
  5
D8
330
D5
100
AcDbEntity
  8
치수문자_일반주서
 62
     0
370
    -2
100
AcDbLine
 10
38.06250000000001
 20
7.00000000000008
 30
0.0
 11
58.20150184176369
 21
7.000000000000155
 31
0.0
  0
LINE
  5
D9
330
D5
100
AcDbEntity
  8
치수문자_일반주서
 62
     0
370
    -2
100
AcDbLine
 10
38.06250000000001
 20
-6.999999999999937
 30
0.0
 11
58.20150184176374
 21
-6.999999999999861
 31
0.0
  0
LINE
  5
DA
330
D5
100
AcDbEntity
  8
치수문자_일반주서
 62
     0
370
    -2
100
AcDbLine
 10
58.20150184176369
 20
7.000000000000155
 30
0.0
 11
58.20150184176363
 21
24.5090106836956
 31
0.0
  0
LINE
  5
DB
330
D5
100
AcDbEntity
  8
치수문자_일반주서
 62
     0
370
    -2
100
AcDbLine
 10
58.20150184176369
 20
7.000000000000155
 30
0.0
 11
58.20150184176374
 21
-6.999999999999861
 31
0.0
  0
LINE
  5
DC
330
D5
100
AcDbEntity
  8
치수문자_일반주서
 62
     0
370
    -2
100
AcDbLine
 10
58.20150184176368
 20
10.30200000000015
 30
0.0
 11
58.20150184176367
 21
13.60400000000015
 31
0.0
  0
LINE
  5
DD
330
D5
100
AcDbEntity
  8
치수문자_일반주서
 62
     0
370
    -2
100
AcDbLine
 10
58.20150184176376
 20
-10.30199999999986
 30
0.0
 11
58.20150184176377
 21
-13.60399999999986
 31
0.0
  0
SOLID
  5
DE
330
D5
100
AcDbEntity
  8
치수문자_일반주서
 62
     0
100
AcDbTrace
 10
57.65116850843035
 20
10.30200000000015
 30
0.0
 11
58.75183517509701
 21
10.30200000000016
 31
0.0
 12
58.20150184176369
 22
7.000000000000155
 32
0.0
 13
58.20150184176369
 23
7.000000000000155
 33
0.0
  0
SOLID
  5
DF
330
D5
100
AcDbEntity
  8
치수문자_일반주서
 62
     0
100
AcDbTrace
 10
58.75183517509709
 20
-10.30199999999986
 30
0.0
 11
57.65116850843042
 21
-10.30199999999986
 31
0.0
 12
58.20150184176374
 22
-6.999999999999861
 32
0.0
 13
58.20150184176374
 23
-6.999999999999861
 33
0.0
  0
MTEXT
  5
124
330
D5
100
AcDbEntity
  8
치수문자_일반주서
 62
     0
100
AcDbMText
 10
53.82650184176364
 20
20.57151068369558
 30
0.0
 40
3.5
 41
0.0
 71
     2
 72
     1
  1
\A1;%%c14
  7
SLDTEXTSTYLE0
 11
-3.552713678800497E-15
 21
1.0
 31
0.0
 73
     1
 44
1.0
  0
POINT
  5
125
330
D5
100
AcDbEntity
  8
Defpoints
 62
     0
100
AcDbPoint
 10
38.00000000000001
 20
7.00000000000008
 30
0.0
  0
POINT
  5
126
330
D5
100
AcDbEntity
  8
Defpoints
 62
     0
100
AcDbPoint
 10
38.00000000000001
 20
-6.999999999999937
 30
0.0
  0
POINT
  5
127
330
D5
100
AcDbEntity
  8
Defpoints
 62
     0
100
AcDbPoint
 10
58.20150184176373
 20
-6.999999999999861
 30
0.0
  0
ENDBLK
  5
D7
330
D5
100
AcDbEntity
  8
0
100
AcDbBlockEnd
  0
BLOCK
  5
E3
330
E2
100
AcDbEntity
  8
0
100
AcDbBlockBegin
  2
_D_3
 70
     0
 10
0.0
 20
0.0
 30
0.0
  3
_D_3
  1
_D_3
  0
LINE
  5
E5
330
E2
100
AcDbEntity
  8
치수문자_일반주서
 62
     0
370
    -2
100
AcDbLine
 10
-70.66250000000002
 20
7.000000000000006
 30
0.0
 11
-84.65095392379594
 21
6.999999999999952
 31
0.0
  0
LINE
  5
E6
330
E2
100
AcDbEntity
  8
치수문자_일반주서
 62
     0
370
    -2
100
AcDbLine
 10
-70.66250000000002
 20
-7.000000000000006
 30
0.0
 11
-84.6509539237959
 21
-7.00000000000006
 31
0.0
  0
LINE
  5
E7
330
E2
100
AcDbEntity
  8
치수문자_일반주서
 62
     0
370
    -2
100
AcDbLine
 10
-84.65095392379594
 20
6.999999999999952
 30
0.0
 11
-84.65095392379598
 21
21.47899999999996
 31
0.0
  0
LINE
  5
E8
330
E2
100
AcDbEntity
  8
치수문자_일반주서
 62
     0
370
    -2
100
AcDbLine
 10
-84.65095392379594
 20
6.999999999999952
 30
0.0
 11
-84.6509539237959
 21
-7.00000000000006
 31
0.0
  0
LINE
  5
E9
330
E2
100
AcDbEntity
  8
치수문자_일반주서
 62
     0
370
    -2
100
AcDbLine
 10
-84.65095392379595
 20
10.30199999999995
 30
0.0
 11
-84.65095392379597
 21
13.60399999999995
 31
0.0
  0
LINE
  5
EA
330
E2
100
AcDbEntity
  8
치수문자_일반주서
 62
     0
370
    -2
100
AcDbLine
 10
-84.65095392379588
 20
-10.30200000000006
 30
0.0
 11
-84.65095392379587
 21
-13.60400000000006
 31
0.0
  0
SOLID
  5
EB
330
E2
100
AcDbEntity
  8
치수문자_일반주서
 62
     0
100
AcDbTrace
 10
-85.20128725712928
 20
10.30199999999995
 30
0.0
 11
-84.10062059046263
 21
10.30199999999995
 31
0.0
 12
-84.65095392379594
 22
6.999999999999952
 32
0.0
 13
-84.65095392379594
 23
6.999999999999952
 33
0.0
  0
SOLID
  5
EC
330
E2
100
AcDbEntity
  8
치수문자_일반주서
 62
     0
100
AcDbTrace
 10
-84.10062059046255
 20
-10.30200000000006
 30
0.0
 11
-85.20128725712921
 21
-10.30200000000006
 31
0.0
 12
-84.6509539237959
 22
-7.00000000000006
 32
0.0
 13
-84.6509539237959
 23
-7.00000000000006
 33
0.0
  0
MTEXT
  5
ED
330
E2
100
AcDbEntity
  8
치수문자_일반주서
 62
     0
100
AcDbMText
 10
-89.02595392379597
 20
17.54149999999995
 30
0.0
 40
3.5
 41
0.0
 71
     2
 72
     1
  1
\A1;%%c14
  7
SLDTEXTSTYLE0
 11
-3.045183153257570E-15
 21
1.0
 31
0.0
 73
     1
 44
1.0
  0
POINT
  5
121
330
E2
100
AcDbEntity
  8
Defpoints
 62
     0
100
AcDbPoint
 10
-70.60000000000002
 20
7.000000000000006
 30
0.0
  0
POINT
  5
122
330
E2
100
AcDbEntity
  8
Defpoints
 62
     0
100
AcDbPoint
 10
-70.60000000000002
 20
-7.000000000000006
 30
0.0
  0
POINT
  5
123
330
E2
100
AcDbEntity
  8
Defpoints
 62
     0
100
AcDbPoint
 10
-84.65095392379588
 20
-7.000000000000059
 30
0.0
  0
ENDBLK
  5
E4
330
E2
100
AcDbEntity
  8
0
100
AcDbBlockEnd
  0
BLOCK
  5
F6
330
F5
100
AcDbEntity
  8
0
100
AcDbBlockBegin
  2
SW_DOWELSYMBOL_0
 70
     0
 10
0.0
 20
0.0
 30
0.0
  3
SW_DOWELSYMBOL_0
  1
SW_DOWELSYMBOL_0
  0
CIRCLE
  5
F8
330
F5
100
AcDbEntity
  8
해칭선
 62
     0
100
AcDbCircle
 10
0.0
 20
0.0
 30
0.0
 40
3.000000000000008
  0
HATCH
  5
F9
330
F5
100
AcDbEntity
  8
0
  6
Continuous
 62
     0
370
     0
100
AcDbHatch
 10
0.0
 20
0.0
 30
0.0
210
0.0
220
0.0
230
1.0
  2
SOLID
 70
     1
 71
     0
 91
        1
 92
        0
 93
        3
 72
     2
 10
0.0
 20
0.0
 40
3.000000000000008
 50
0.0
 51
90.0
 73
     1
 72
     1
 10
0.0
 20
3.000000000000008
 11
0.0
 21
0.0
 72
     1
 10
0.0
 20
0.0
 11
3.00000000000001
 21
0.0
 97
        0
 75
     0
 76
     1
 98
        1
 10
0.0
 20
0.0
  0
HATCH
  5
FA
330
F5
100
AcDbEntity
  8
0
  6
Continuous
 62
     0
370
     0
100
AcDbHatch
 10
0.0
 20
0.0
 30
0.0
210
0.0
220
0.0
230
1.0
  2
SOLID
 70
     1
 71
     0
 91
        1
 92
        0
 93
        3
 72
     2
 10
0.0
 20
0.0
 40
3.000000000000008
 50
180.0
 51
270.0000000000007
 73
     1
 72
     1
 10
0.0
 20
-3.000000000000008
 11
0.0
 21
0.0
 72
     1
 10
0.0
 20
0.0
 11
-3.00000000000001
 21
0.0
 97
        0
 75
     0
 76
     1
 98
        1
 10
0.0
 20
0.0
  0
ENDBLK
  5
F7
330
F5
100
AcDbEntity
  8
0
100
AcDbBlockEnd
  0
ENDSEC
  0
SECTION
  2
ENTITIES
  0
ARC
  5
96
330
1F
100
AcDbEntity
  8
외형선
  6
Continuous
 62
     1
370
    15
100
AcDbCircle
 10
30.99999999999997
 20
0.0000000000000065
 30
0.0
 40
7.000000000000028
100
AcDbArc
 50
320.8155864151192
 51
0.0
  0
ARC
  5
97
330
1F
100
AcDbEntity
  8
외형선
  6
Continuous
 62
     1
370
    15
100
AcDbCircle
 10
30.99999999999997
 20
0.0000000000000065
 30
0.0
 40
7.000000000000015
100
AcDbArc
 50
279.4447368876909
 51
320.8155864151192
  0
ARC
  5
98
330
1F
100
AcDbEntity
  8
외형선
  6
Continuous
 62
     1
370
    15
100
AcDbCircle
 10
30.99999999999997
 20
0.0000000000000065
 30
0.0
 40
7.000000000000026
100
AcDbArc
 50
39.03370787308565
 51
80.56822085274914
  0
ARC
  5
99
330
1F
100
AcDbEntity
  8
외형선
  6
Continuous
 62
     1
370
    15
100
AcDbCircle
 10
30.99999999999997
 20
0.0000000000000065
 30
0.0
 40
7.000000000000028
100
AcDbArc
 50
0.0
 51
39.03370787308567
  0
LINE
  5
9A
330
1F
100
AcDbEntity
  8
0
 62
     1
100
AcDbLine
 10
17.30850247112024
 20
7.00000000000001
 30
0.0
 11
13.04049197725076
 21
7.00000000000001
 31
0.0
  0
LINE
  5
9B
330
1F
100
AcDbEntity
  8
0
 62
     1
100
AcDbLine
 10
13.04049197725076
 20
-7.00000000000001
 30
0.0
 11
17.30850247112031
 21
-7.00000000000001
 31
0.0
  0
LINE
  5
9C
330
1F
100
AcDbEntity
  8
외형선
  6
Continuous
370
    15
100
AcDbLine
 10
-70.60000000000001
 20
-6.999999999999999
 30
0.0
 11
12.0
 21
-6.999999999999999
 31
0.0
  0
LINE
  5
9D
330
1F
100
AcDbEntity
  8
외형선
  6
Continuous
370
    15
100
AcDbLine
 10
12.0
 20
6.999999999999999
 30
0.0
 11
-44.20001250000004
 21
6.999999999999999
 31
0.0
  0
LINE
  5
9E
330
1F
100
AcDbEntity
  8
외형선
  6
Continuous
370
    15
100
AcDbLine
 10
-70.60000000000001
 20
6.999999999999999
 30
0.0
 11
-72.0
 21
5.600000000000001
 31
0.0
  0
LINE
  5
9F
330
1F
100
AcDbEntity
  8
외형선
  6
Continuous
370
    15
100
AcDbLine
 10
-72.0
 20
-5.600000000000001
 30
0.0
 11
-70.60000000000001
 21
-6.999999999999999
 31
0.0
  0
SPLINE
  5
A0
330
1F
100
AcDbEntity
  8
0
 62
     1
100
AcDbSpline
210
0.0
220
0.0
230
1.0
 70
     8
 71
     3
 72
    34
 73
    30
 74
     0
 42
0.000000001
 43
0.00000001
 40
0.0
 40
0.0
 40
0.0
 40
0.0
 40
0.1250000000000017
 40
0.1250000000000017
 40
0.1875000000000017
 40
0.1875000000000017
 40
0.2500000000000017
 40
0.2500000000000017
 40
0.3125000000000017
 40
0.3125000000000017
 40
0.3750000000000017
 40
0.3750000000000017
 40
0.4375000000000018
 40
0.4375000000000018
 40
0.5000000000000018
 40
0.5000000000000018
 40
0.5625000000000019
 40
0.5625000000000019
 40
0.6250000000000018
 40
0.6250000000000018
 40
0.6875000000000018
 40
0.6875000000000018
 40
0.7500000000000017
 40
0.7500000000000017
 40
0.8125000000000017
 40
0.8125000000000017
 40
0.8750000000000017
 40
0.8750000000000017
 40
0.9232755654467039
 40
0.9232755654467039
 40
0.9232755654467039
 40
0.9232755654467039
 10
11.99999999999999
 20
0.5997694447903049
 30
0.0
 10
12.78733492297869
 20
0.1452102314977794
 30
0.0
 10
13.58684309479928
 20
-0.3155198263450892
 30
0.0
 10
14.7702015518177
 20
-0.9961812888803467
 30
0.0
 10
15.16507181652165
 20
-1.221922264777228
 30
0.0
 10
15.95867156587026
 20
-1.669502620584477
 30
0.0
 10
16.35606280910906
 20
-1.891081851837672
 30
0.0
 10
17.14632462735437
 20
-2.326659600208286
 30
0.0
 10
17.5399476293783
 20
-2.540810658029041
 30
0.0
 10
18.33310950731963
 20
-2.961367001245427
 30
0.0
 10
18.73067850055581
 20
-3.16740409101999
 30
0.0
 10
19.52208072506524
 20
-3.568057003975568
 30
0.0
 10
19.91504620991769
 20
-3.762553248291951
 30
0.0
 10
20.70755178390262
 20
-4.139978489843512
 30
0.0
 10
21.10518840367472
 20
-4.322572912154564
 30
0.0
 10
21.89751421645199
 20
-4.672904049207207
 30
0.0
 10
22.29041253124905
 20
-4.840412628022209
 30
0.0
 10
23.08204397142627
 20
-5.160268354524592
 30
0.0
 10
23.47963803167401
 20
-5.312421438901819
 30
0.0
 10
24.27266976783991
 20
-5.598961920214605
 30
0.0
 10
24.66609132116859
 20
-5.733143499087659
 30
0.0
 10
25.45663159947558
 20
-5.983217358316468
 30
0.0
 10
25.85407295353566
 20
-6.099102929005234
 30
0.0
 10
26.64759230010154
 20
-6.310834134496749
 30
0.0
 10
27.04212702176584
 20
-6.406569968977849
 30
0.0
 10
27.83136010947683
 20
-6.57734632021163
 30
0.0
 10
28.22853875200173
 20
-6.652535804167851
 30
0.0
 10
28.93199744195795
 20
-6.766661973869777
 30
0.0
 10
29.23754073542046
 20
-6.80992790478722
 30
0.0
 10
29.54285446161275
 20
-6.846658081134047
 30
0.0
  0
SPLINE
  5
A2
330
1F
100
AcDbEntity
  8
0
 62
     1
100
AcDbSpline
210
0.0
220
0.0
230
1.0
 70
     8
 71
     3
 72
    14
 73
    10
 74
     0
 42
0.000000001
 43
0.00000001
 40
0.0
 40
0.0
 40
0.0
 40
0.0
 40
0.0061242494204852
 40
0.1738631349229044
 40
0.3415011911637416
 40
0.5060809499067253
 40
0.6706500847647023
 40
0.8352695562669747
 40
1.0
 40
1.0
 40
1.0
 40
1.0
 10
24.69423012504656
 20
-5.737889659159251
 30
0.0
 10
24.66831401576125
 20
-5.74743865887619
 30
0.0
 10
23.93257389546601
 20
-6.018528046681255
 30
0.0
 10
22.48724860944932
 20
-6.391288702213643
 30
0.0
 10
20.37176782017314
 20
-6.814938659041057
 30
0.0
 10
18.26986740542416
 20
-7.01236442603166
 30
0.0
 10
16.18076230120605
 20
-7.002297252559272
 30
0.0
 10
14.09092121143831
 20
-6.796732627030127
 30
0.0
 10
12.69713027996142
 20
-6.49212471739652
 30
0.0
 10
12.0
 20
-6.339769444790228
 30
0.0
  0
SPLINE
  5
A3
330
1F
100
AcDbEntity
  8
외형선
  6
Continuous
 62
     1
370
    15
100
AcDbSpline
210
0.0
220
0.0
230
1.0
 70
     8
 71
     3
 72
    11
 73
     7
 74
     0
 42
0.000000001
 43
0.00000001
 40
0.0
 40
0.0
 40
0.0
 40
0.0
 40
0.0056571481580087
 40
0.3372952766740745
 40
0.668702869560864
 40
0.7611442917465486
 40
0.7611442917465486
 40
0.7611442917465486
 40
0.7611442917465486
 10
24.69423012504647
 20
5.737889659159251
 30
0.0
 10
24.70612207977295
 20
5.742275308580429
 30
0.0
 10
25.4151542719001
 20
6.00376021114873
 30
0.0
 10
26.82098024848956
 20
6.366921027543871
 30
0.0
 10
28.40886193741053
 20
6.701527006138152
 30
0.0
 10
29.29968530695044
 20
6.814097828112375
 30
0.0
 10
29.49397303454302
 20
6.836072174817692
 30
0.0
  0
SPLINE
  5
A4
330
1F
100
AcDbEntity
  8
외형선
  6
Continuous
 62
     1
370
    15
100
AcDbSpline
210
0.0
220
0.0
230
1.0
 70
     8
 71
     3
 72
    50
 73
    46
 74
     0
 42
0.000000001
 43
0.00000001
 40
0.0720400579327422
 40
0.0720400579327422
 40
0.0720400579327422
 40
0.0720400579327422
 40
0.0937499999999951
 40
0.0937499999999951
 40
0.124999999999994
 40
0.124999999999994
 40
0.1874999999999939
 40
0.1874999999999939
 40
0.2187499999999938
 40
0.2187499999999938
 40
0.2499999999999937
 40
0.2499999999999937
 40
0.312499999999995
 40
0.312499999999995
 40
0.3749999999999964
 40
0.3749999999999964
 40
0.4374999999999977
 40
0.4374999999999977
 40
0.4687499999999981
 40
0.4687499999999981
 40
0.4999999999999984
 40
0.4999999999999984
 40
0.5312499999999988
 40
0.5312499999999988
 40
0.5624999999999992
 40
0.5624999999999992
 40
0.5937499999999996
 40
0.5937499999999996
 40
0.6249999999999999
 40
0.6249999999999999
 40
0.6562500000000003
 40
0.6562500000000003
 40
0.6875000000000007
 40
0.6875000000000007
 40
0.7500000000000029
 40
0.7500000000000029
 40
0.7812500000000031
 40
0.7812500000000031
 40
0.8125000000000034
 40
0.8125000000000034
 40
0.8750000000000022
 40
0.8750000000000022
 40
0.9375000000000011
 40
0.9375000000000011
 40
1.0
 40
1.0
 40
1.0
 40
1.0
 10
32.22748397552161
 20
6.891370551135283
 30
0.0
 10
32.35087950337399
 20
6.868946613216826
 30
0.0
 10
32.47441181386661
 20
6.84219548319573
 30
0.0
 10
32.77647272863085
 20
6.76619826622693
 30
0.0
 10
32.95625739782139
 20
6.711864770344009
 30
0.0
 10
33.48918333539572
 20
6.523367950548979
 30
0.0
 10
33.83514993139029
 20
6.364757398782168
 30
0.0
 10
34.33948928477054
 20
6.078932838498289
 30
0.0
 10
34.50512978999829
 20
5.975619620655105
 30
0.0
 10
34.83088555367746
 20
5.75255371181097
 30
0.0
 10
34.9910711401713
 20
5.632608020066496
 30
0.0
 10
35.45322604127679
 20
5.255120718753149
 30
0.0
 10
35.74023127290931
 20
4.977927153749786
 30
0.0
 10
36.26616280235204
 20
4.372615764270036
 30
0.0
 10
36.50600572188266
 20
4.042017534045322
 30
0.0
 10
36.9110896996104
 20
3.351672001296269
 30
0.0
 10
37.07958973712911
 20
2.98819784975341
 30
0.0
 10
37.26467885394312
 20
2.424781247412022
 30
0.0
 10
37.31404619247276
 20
2.236919958840904
 30
0.0
 10
37.38564712452647
 20
1.863082620912797
 30
0.0
 10
37.40793877360603
 20
1.675144498489987
 30
0.0
 10
37.4199309186661
 20
1.314675051171807
 30
0.0
 10
37.41003583232082
 20
1.142504357238741
 30
0.0
 10
37.35462290435164
 20
0.8188230721297999
 30
0.0
 10
37.30928952711182
 20
0.6711691084888147
 30
0.0
 10
37.18598400620429
 20
0.4168148707368871
 30
0.0
 10
37.10599184381144
 20
0.3072034442736958
 30
0.0
 10
36.91990457233953
 20
0.1385110366239842
 30
0.0
 10
36.8130748253475
 20
0.0776521726700509
 30
0.0
 10
36.57780462437444
 20
0.0016662255210994
 30
0.0
 10
36.45195104001446
 20
-0.0131142472796196
 30
0.0
 10
36.18421002321021
 20
-0.0040100025014855
 30
0.0
 10
36.04421175767139
 20
0.0200892813109923
 30
0.0
 10
35.61523780309446
 20
0.1368804511496083
 30
0.0
 10
35.30937913210714
 20
0.2764091552107718
 30
0.0
 10
34.84613540610985
 20
0.5317516431330872
 30
0.0
 10
34.69006695749844
 20
0.6249261791496371
 30
0.0
 10
34.37295679629509
 20
0.8230777416301095
 30
0.0
 10
34.21103615426129
 20
0.9287791626339836
 30
0.0
 10
33.72489833615181
 20
1.253462578626096
 30
0.0
 10
33.39913815859359
 20
1.480335316953054
 30
0.0
 10
32.73365223318208
 20
1.936156440908828
 30
0.0
 10
32.39163357851209
 20
2.167230256312426
 30
0.0
 10
31.70346320786579
 20
2.601515799287878
 30
0.0
 10
31.35560991948395
 20
2.805838869954457
 30
0.0
 10
30.99999999999999
 20
2.991124855436879
 30
0.0
  0
SPLINE
  5
A5
330
1F
100
AcDbEntity
  8
0
 62
     1
100
AcDbSpline
210
0.0
220
0.0
230
1.0
 70
     8
 71
     3
 72
    14
 73
    10
 74
     0
 42
0.000000001
 43
0.00000001
 40
0.0
 40
0.0
 40
0.0
 40
0.0
 40
0.1553610810184294
 40
0.3107607997553153
 40
0.4662423071747381
 40
0.6217624104231726
 40
0.7771890292232962
 40
0.929780129346839
 40
1.0
 40
1.0
 40
1.0
 40
1.0
 10
30.99999999999997
 20
2.991124855436896
 30
0.0
 10
30.2910156817555
 20
3.352436408226018
 30
0.0
 10
28.87287072352435
 20
4.075149370633016
 30
0.0
 10
26.74509954031884
 20
5.009678392185575
 30
0.0
 10
24.61633657637917
 20
5.795967453316529
 30
0.0
 10
22.48726446922853
 20
6.405486397270742
 30
0.0
 10
20.37176241246498
 20
6.804476697574104
 30
0.0
 10
18.64571982071993
 20
6.997660567547368
 30
0.0
 10
17.62894392658571
 20
6.979813886514121
 30
0.0
 10
17.30850247112024
 20
6.974189425432269
 30
0.0
  0
SPLINE
  5
A6
330
1F
100
AcDbEntity
  8
0
 62
     1
100
AcDbSpline
210
0.0
220
0.0
230
1.0
 70
     8
 71
     3
 72
    34
 73
    30
 74
     0
 42
0.000000001
 43
0.00000001
 40
0.0
 40
0.0
 40
0.0
 40
0.0
 40
0.1249999999999998
 40
0.1249999999999998
 40
0.1874999999999997
 40
0.1874999999999997
 40
0.2499999999999996
 40
0.2499999999999996
 40
0.3124999999999995
 40
0.3124999999999995
 40
0.3749999999999994
 40
0.3749999999999994
 40
0.4374999999999993
 40
0.4374999999999993
 40
0.4999999999999992
 40
0.4999999999999992
 40
0.5624999999999991
 40
0.5624999999999991
 40
0.624999999999999
 40
0.624999999999999
 40
0.6874999999999989
 40
0.6874999999999989
 40
0.7499999999999989
 40
0.7499999999999989
 40
0.8124999999999988
 40
0.8124999999999988
 40
0.8749999999999987
 40
0.8749999999999987
 40
1.0
 40
1.0
 40
1.0
 40
1.0
 10
11.99999999999999
 20
6.974258140698272
 30
0.0
 10
12.78733492297868
 20
7.013349140985431
 30
0.0
 10
13.5868430947993
 20
7.007772522353909
 30
0.0
 10
14.77020155181766
 20
6.932512528741185
 30
0.0
 10
15.16507181652163
 20
6.896319267703435
 30
0.0
 10
15.95867156587021
 20
6.801843460644874
 30
0.0
 10
16.35606280910903
 20
6.743587782442889
 30
0.0
 10
17.14632462735435
 20
6.605968653772235
 30
0.0
 10
17.53994762937822
 20
6.526605198821453
 30
0.0
 10
18.33310950731962
 20
6.346857466902171
 30
0.0
 10
18.73067850055584
 20
6.246580521093871
 30
0.0
 10
19.52208072506526
 20
6.026706073694019
 30
0.0
 10
19.91504620991773
 20
5.907237800518669
 30
0.0
 10
20.70755178390263
 20
5.649145376226564
 30
0.0
 10
21.10518840367472
 20
5.51068243474801
 30
0.0
 10
21.89751421645195
 20
5.216917214642719
 30
0.0
 10
22.29041253124905
 20
5.06188033720604
 30
0.0
 10
23.08204397142627
 20
4.735383560705729
 30
0.0
 10
23.47963803167402
 20
4.564040639334512
 30
0.0
 10
24.27266976783993
 20
4.207601920095037
 30
0.0
 10
24.66609132116859
 20
4.022840366038159
 30
0.0
 10
25.45663159947555
 20
3.640506700295665
 30
0.0
 10
25.85407295353566
 20
3.442855412515575
 30
0.0
 10
26.6475923001015
 20
3.037380854775821
 30
0.0
 10
27.0421270217659
 20
2.829837937475964
 30
0.0
 10
27.83136010947683
 20
2.40637422355411
 30
0.0
 10
28.22853875200168
 20
2.189997515600695
 30
0.0
 10
29.41922104583531
 20
1.531529174256301
 30
0.0
 10
30.20616196306671
 20
1.081200182230677
 30
0.0
 10
30.99999999999997
 20
0.6255420333478199
 30
0.0
  0
SPLINE
  5
A7
330
1F
100
AcDbEntity
  8
외형선
  6
Continuous
 62
     1
370
    15
100
AcDbSpline
210
0.0
220
0.0
230
1.0
 70
     8
 71
     3
 72
    52
 73
    48
 74
     0
 42
0.000000001
 43
0.00000001
 40
0.0
 40
0.0
 40
0.0
 40
0.0
 40
0.0624999999999978
 40
0.0624999999999978
 40
0.0937499999999968
 40
0.0937499999999968
 40
0.1249999999999957
 40
0.1249999999999957
 40
0.1874999999999953
 40
0.1874999999999953
 40
0.2187499999999952
 40
0.2187499999999952
 40
0.2499999999999951
 40
0.2499999999999951
 40
0.3124999999999964
 40
0.3124999999999964
 40
0.3749999999999978
 40
0.3749999999999978
 40
0.4374999999999991
 40
0.4374999999999991
 40
0.4687499999999994
 40
0.4687499999999994
 40
0.4999999999999997
 40
0.4999999999999997
 40
0.5312499999999999
 40
0.5312499999999999
 40
0.5625000000000001
 40
0.5625000000000001
 40
0.5937500000000004
 40
0.5937500000000004
 40
0.6250000000000007
 40
0.6250000000000007
 40
0.6562500000000009
 40
0.6562500000000009
 40
0.6875000000000011
 40
0.6875000000000011
 40
0.7500000000000032
 40
0.7500000000000032
 40
0.7812500000000034
 40
0.7812500000000034
 40
0.8125000000000037
 40
0.8125000000000037
 40
0.8750000000000024
 40
0.8750000000000024
 40
0.9375000000000011
 40
0.9375000000000011
 40
1.0
 40
1.0
 40
1.0
 40
1.0
 10
30.99999999999997
 20
0.625542033347821
 30
0.0
 10
31.35574383571509
 20
0.4213472604635997
 30
0.0
 10
31.70989868447778
 20
0.2236006214099497
 30
0.0
 10
32.24236760919413
 20
-0.0569150085279801
 30
0.0
 10
32.41999939358091
 20
-0.1478463848421782
 30
0.0
 10
32.77647272863082
 20
-0.3226875958203331
 30
0.0
 10
32.95625739782139
 20
-0.4071335268829526
 30
0.0
 10
33.48918333539568
 20
-0.6457201770506131
 30
0.0
 10
33.83514993139026
 20
-0.7848094368911444
 30
0.0
 10
34.33948928477052
 20
-0.9671718020559272
 30
0.0
 10
34.50512978999826
 20
-1.023606481311456
 30
0.0
 10
34.83088555367738
 20
-1.128794308733813
 30
0.0
 10
34.99107114017131
 20
-1.177548717608834
 30
0.0
 10
35.45322604127686
 20
-1.310975133439454
 30
0.0
 10
35.74023127290931
 20
-1.384151858172965
 30
0.0
 10
36.26616280235211
 20
-1.520916944599846
 30
0.0
 10
36.50600572188256
 20
-1.584737259922209
 30
0.0
 10
36.91108969961032
 20
-1.729367022007285
 30
0.0
 10
37.07958973712913
 20
-1.81057454345564
 30
0.0
 10
37.26467885394312
 20
-1.979005872598162
 30
0.0
 10
37.31404619247272
 20
-2.042218368488875
 30
0.0
 10
37.38564712452647
 20
-2.189538772484561
 30
0.0
 10
37.40793877360602
 20
-2.27468980298472
 30
0.0
 10
37.4199309186661
 20
-2.469436904698866
 30
0.0
 10
37.41003583232082
 20
-2.578468309832521
 30
0.0
 10
37.35462290435171
 20
-2.826777480240327
 30
0.0
 10
37.30928952711183
 20
-2.963734103167336
 30
0.0
 10
37.18598400620427
 20
-3.25594677197075
 30
0.0
 10
37.10599184381144
 20
-3.41531782177331
 30
0.0
 10
36.91990457233955
 20
-3.738642898661868
 30
0.0
 10
36.81307482534753
 20
-3.904438534873691
 30
0.0
 10
36.57780462437448
 20
-4.234454138801774
 30
0.0
 10
36.45195104001448
 20
-4.395277795075198
 30
0.0
 10
36.18421002321021
 20
-4.7081163300416
 30
0.0
 10
36.04421175767141
 20
-4.857676826434626
 30
0.0
 10
35.61523780309454
 20
-5.277010868390805
 30
0.0
 10
35.30937913210715
 20
-5.524327414769894
 30
0.0
 10
34.84613540610982
 20
-5.82802012742061
 30
0.0
 10
34.69006695749847
 20
-5.918990523482703
 30
0.0
 10
34.37295679629513
 20
-6.08171695977757
 30
0.0
 10
34.21103615426131
 20
-6.153727551650988
 30
0.0
 10
33.72489833615175
 20
-6.338039713435516
 30
0.0
 10
33.39913815859362
 20
-6.420088163209816
 30
0.0
 10
32.73365223318214
 20
-6.512337272342017
 30
0.0
 10
32.39163357851214
 20
-6.521702286622563
 30
0.0
 10
31.70346320786581
 20
-6.473282534950189
 30
0.0
 10
31.35560991948394
 20
-6.416328214321588
 30
0.0
 10
30.99999999999999
 20
-6.328757547827848
 30
0.0
  0
SPLINE
  5
A8
330
1F
100
AcDbEntity
  8
0
 62
     1
100
AcDbSpline
210
0.0
220
0.0
230
1.0
 70
     8
 71
     3
 72
    34
 73
    30
 74
     0
 42
0.000000001
 43
0.00000001
 40
0.0
 40
0.0
 40
0.0
 40
0.0
 40
0.1249999999999998
 40
0.1249999999999998
 40
0.1874999999999997
 40
0.1874999999999997
 40
0.2499999999999996
 40
0.2499999999999996
 40
0.3124999999999995
 40
0.3124999999999995
 40
0.3749999999999994
 40
0.3749999999999994
 40
0.4374999999999993
 40
0.4374999999999993
 40
0.4999999999999992
 40
0.4999999999999992
 40
0.5624999999999991
 40
0.5624999999999991
 40
0.624999999999999
 40
0.624999999999999
 40
0.6874999999999989
 40
0.6874999999999989
 40
0.7499999999999989
 40
0.7499999999999989
 40
0.8124999999999988
 40
0.8124999999999988
 40
0.8749999999999987
 40
0.8749999999999987
 40
1.0
 40
1.0
 40
1.0
 40
1.0
 10
11.99999999999999
 20
2.967713494747092
 30
0.0
 10
12.78733492297869
 20
2.554508168367917
 30
0.0
 10
13.58684309479931
 20
2.120109022231518
 30
0.0
 10
14.77020155181764
 20
1.455238678859777
 30
0.0
 10
15.16507181652165
 20
1.230861566840195
 30
0.0
 10
15.95867156587021
 20
0.7781532925327447
 30
0.0
 10
16.35606280910903
 20
0.5500755896150428
 30
0.0
 10
17.14632462735435
 20
0.0937580596447195
 30
0.0
 10
17.53994762937826
 20
-0.1346249552771511
 30
0.0
 10
18.33310950731965
 20
-0.5913681925264104
 30
0.0
 10
18.73067850055583
 20
-0.8193457906128211
 30
0.0
 10
19.52208072506526
 20
-1.271241843589221
 30
0.0
 10
19.91504620991775
 20
-1.495003494690139
 30
0.0
 10
20.70755178390263
 20
-1.938273844370021
 30
0.0
 10
21.10518840367473
 20
-2.157412900355977
 30
0.0
 10
21.89751421645199
 20
-2.587550639677984
 30
0.0
 10
22.29041253124903
 20
-2.798243666924937
 30
0.0
 10
23.08204397142627
 20
-3.211060705109626
 30
0.0
 10
23.47963803167404
 20
-3.412962219533494
 30
0.0
 10
24.27266976783997
 20
-3.804831012677734
 30
0.0
 10
24.66609132116858
 20
-3.994489847620448
 30
0.0
 10
25.45663159947554
 20
-4.361056869015354
 30
0.0
 10
25.85407295353566
 20
-4.537986057180379
 30
0.0
 10
26.64759230010154
 20
-4.876540722617363
 30
0.0
 10
27.04212702176586
 20
-5.03796646734637
 30
0.0
 10
27.83136010947682
 20
-5.344280447925601
 30
0.0
 10
28.22853875200171
 20
-5.489465713967602
 30
0.0
 10
29.41922104583535
 20
-5.897830868079693
 30
0.0
 10
30.20616196306669
 20
-6.133271083099291
 30
0.0
 10
30.99999999999996
 20
-6.32875754782785
 30
0.0
  0
LINE
  5
A9
330
1F
100
AcDbEntity
  8
외형선
  6
Continuous
370
    15
100
AcDbLine
 10
12.0
 20
0.5997694447903055
 30
0.0
 11
11.99999999999999
 21
2.967713494747092
 31
0.0
  0
LINE
  5
AA
330
1F
100
AcDbEntity
  8
0
 62
     1
100
AcDbLine
 10
11.99999999999999
 20
-6.974258140698273
 30
0.0
 11
13.04049197725075
 21
-6.973065396863174
 31
0.0
  0
LINE
  5
AB
330
1F
100
AcDbEntity
  8
외형선
  6
Continuous
370
    15
100
AcDbLine
 10
12.0
 20
-6.974258140698273
 30
0.0
 11
11.99999999999999
 21
-6.339769444790228
 31
0.0
  0
LINE
  5
AC
330
1F
100
AcDbEntity
  8
외형선
  6
Continuous
370
    15
100
AcDbLine
 10
12.0
 20
0.0
 30
0.0
 11
12.0
 21
6.999999999999999
 31
0.0
  0
LINE
  5
AD
330
1F
100
AcDbEntity
  8
외형선
  6
Continuous
370
    15
100
AcDbLine
 10
12.0
 20
-6.999999999999996
 30
0.0
 11
12.0
 21
0.0
 31
0.0
  0
LINE
  5
AE
330
1F
100
AcDbEntity
  8
외형선
  6
Continuous
370
    15
100
AcDbLine
 10
-70.60000000000001
 20
0.0
 30
0.0
 11
-70.60000000000001
 21
6.999999999999998
 31
0.0
  0
LINE
  5
AF
330
1F
100
AcDbEntity
  8
외형선
  6
Continuous
370
    15
100
AcDbLine
 10
-70.60000000000001
 20
-6.999999999999995
 30
0.0
 11
-70.60000000000001
 21
0.0
 31
0.0
  0
LINE
  5
B0
330
1F
100
AcDbEntity
  8
외형선
  6
Continuous
370
    15
100
AcDbLine
 10
-72.0
 20
0.0
 30
0.0
 11
-72.0
 21
5.600000000000001
 31
0.0
  0
LINE
  5
B1
330
1F
100
AcDbEntity
  8
외형선
  6
Continuous
370
    15
100
AcDbLine
 10
-72.0
 20
-5.600000000000001
 30
0.0
 11
-72.0
 21
0.0
 31
0.0
  0
LINE
  5
B2
330
1F
100
AcDbEntity
  8
중심선
 62
     1
100
AcDbLine
 10
-75.0
 20
0.0
 30
0.0
 11
41.0
 21
0.0000000000000099
 31
0.0
  0
LINE
  5
B3
330
1F
100
AcDbEntity
  8
참조1
100
AcDbLine
 10
17.5
 20
0.0010749287238892
 30
0.0
 11
17.5
 21
-39.99892507127611
 31
0.0
  0
LINE
  5
B4
330
1F
100
AcDbEntity
  8
참조1
100
AcDbLine
 10
72.50000000000001
 20
0.0010749287238998
 30
0.0
 11
72.5
 21
0.9423174252685359
 31
0.0
  0
LINE
  5
B5
330
1F
100
AcDbEntity
  8
참조1
100
AcDbLine
 10
17.5
 20
-39.99892507127611
 30
0.0
 11
-27.65885681430863
 21
-39.9989250712761
 31
0.0
  0
CIRCLE
  5
B6
330
1F
100
AcDbEntity
  8
해칭선
100
AcDbCircle
 10
0.0
 20
0.0
 30
0.0
 40
3.000000000000005
  0
INSERT
  5
B7
330
1F
100
AcDbEntity
  8
0
  6
Continuous
 62
     7
100
AcDbBlockReference
 66
     1
  2
블럭10
 10
-30.94027293212521
 20
-52.04717430164393
 30
0.0
  0
ATTRIB
  5
B8
330
B7
100
AcDbEntity
  8
FORMAT
 62
     2
100
AcDbText
 10
-41.08190894426183
 20
-49.97180738881174
 30
0.0
 40
4.233333333333333
  1
EM825140 [ 4 FLUTE ]
 41
0.75
  7
SLDTEXTSTYLE0
 11
-41.08190894426183
 21
-52.08847405547841
 31
0.0
100
AcDbAttribute
  2
AUTOATTR0
 70
     0
 74
     1
  0
SEQEND
  5
B9
330
B7
100
AcDbEntity
  8
0
  6
Continuous
 62
     7
  0
HATCH
  5
BA
330
1F
100
AcDbEntity
  8
중심선
100
AcDbHatch
 10
0.0
 20
0.0
 30
0.0
210
0.0
220
0.0
230
1.0
  2
SOLID
 70
     1
 71
     0
 91
        1
 92
        0
 93
        4
 72
     1
 10
-25.22536362774435
 20
-35.8
 11
-28.67163887158164
 21
-35.8
 72
     1
 10
-28.67163887158164
 20
-35.8
 11
-30.79986873078566
 21
-38.33632558057257
 72
     1
 10
-30.79986873078566
 20
-38.33632558057257
 11
-27.35356040183523
 21
-38.33628615127008
 72
     1
 10
-27.35356040183523
 20
-38.33628615127008
 11
-25.22536362774435
 21
-35.8
 97
        0
 75
     0
 76
     1
 98
        1
 10
-34.5
 20
-0.0010749287238931
  0
HATCH
  5
BB
330
1F
100
AcDbEntity
  8
중심선
100
AcDbHatch
 10
0.0
 20
0.0
 30
0.0
210
0.0
220
0.0
230
1.0
  2
SOLID
 70
     1
 71
     0
 91
        1
 92
        0
 93
        4
 72
     1
 10
-20.21259963670835
 20
-35.79999999999998
 11
-23.65887488054563
 21
-35.79999999999998
 72
     1
 10
-23.65887488054563
 20
-35.79999999999998
 11
-28.19001288890308
 21
-41.20000000000002
 72
     1
 10
-28.19001288890307
 20
-41.20000000000002
 11
-24.74373764506579
 21
-41.20000000000002
 72
     1
 10
-24.74373764506579
 20
-41.20000000000002
 11
-20.21259963670835
 21
-35.79999999999998
 97
        0
 75
     0
 76
     1
 98
        1
 10
-34.5
 20
-0.0010749287238931
  0
HATCH
  5
BC
330
1F
100
AcDbEntity
  8
중심선
100
AcDbHatch
 10
0.0
 20
0.0
 30
0.0
210
0.0
220
0.0
230
1.0
  2
SOLID
 70
     1
 71
     0
 91
        1
 92
        0
 93
        4
 72
     1
 10
-15.19983564567248
 20
-35.79999999999998
 11
-18.64611088950957
 21
-35.79999999999998
 72
     1
 10
-18.64611088950957
 20
-35.79999999999998
 11
-25.69454779139887
 21
-44.20000000000002
 72
     1
 10
-25.69454779139887
 20
-44.20000000000002
 11
-22.24827254756159
 21
-44.20000000000002
 72
     1
 10
-22.24827254756159
 20
-44.20000000000002
 11
-15.19983564567248
 21
-35.79999999999998
 97
        0
 75
     0
 76
     1
 98
        1
 10
-34.5
 20
-0.0010749287238931
  0
HATCH
  5
BD
330
1F
100
AcDbEntity
  8
중심선
100
AcDbHatch
 10
0.0
 20
0.0
 30
0.0
210
0.0
220
0.0
230
1.0
  2
SOLID
 70
     1
 71
     0
 91
        1
 92
        0
 93
        6
 72
     3
 10
-10.39994521466031
 20
-40.00000000005127
 11
3.960054785062283
 21
1.540882976769353E-10
 40
0.3939339440162628
 50
17.09539180608436
 51
320.0019657685077
 73
     0
 72
     1
 10
-8.71694555895974
 20
-38.5878940046383
 11
-6.411643685258674
 21
-36.65356729459038
 72
     3
 10
-10.39994521471316
 20
-40.00000000000015
 11
6.600054785286829
 21
-1.278976924368180E-13
 40
0.636358354079598
 50
39.99873849337408
 51
368.4976242363724
 73
     1
 72
     1
 10
-3.974612722812545
 20
-39.03999999993002
 11
-11.71987790787723
 21
-39.03999999993002
 72
     1
 10
-11.71987790787723
 20
-39.03999999993002
 11
-11.71990295232317
 21
-40.95999999992991
 72
     1
 10
-11.71990295232317
 20
-40.95999999992991
 11
-7.278523182851128
 21
-40.95999999992988
 97
        0
 75
     0
 76
     1
 98
        1
 10
-34.5
 20
-0.0010749287238931
  0
DIMENSION
  5
BE
330
1F
100
AcDbEntity
  8
치수문자_일반주서
100
AcDbDimension
  2
_D
 10
11.99999999999999
 20
16.39618069276
 30
0.0
 11
25.0
 21
16.39618069276
 31
0.0
 70
   160
  1
<>
 71
     2
 42
26.00000000000003
  3
SLDDIMSTYLE0
100
AcDbAlignedDimension
 13
38.00000000000001
 23
7.00000000000008
 33
0.0
 14
11.99999999999999
 24
7.000000000000006
 34
0.0
100
AcDbRotatedDimension
  0
DIMENSION
  5
CA
330
1F
100
AcDbEntity
  8
치수문자_일반주서
100
AcDbDimension
  2
_D_1
 10
-72.0
 20
24.0
 30
0.0
 11
-17.00000000000001
 21
24.0
 31
0.0
 70
   160
  1
<>
 71
     2
 42
110.0
  3
SLDDIMSTYLE0
100
AcDbAlignedDimension
 13
38.00000000000001
 23
7.00000000000008
 33
0.0
 14
-72.0
 24
5.599999999999993
 34
0.0
 50
0.0000000000000037
100
AcDbRotatedDimension
  0
DIMENSION
  5
D4
330
1F
100
AcDbEntity
  8
치수문자_일반주서
100
AcDbDimension
  2
_D_2
 10
58.20150184176374
 20
-6.999999999999861
 30
0.0
 11
58.20150184176364
 21
20.5715106836956
 31
0.0
 70
   160
  1
%%c<>
 71
     2
 42
14.00000000000002
 52
-270.0
  3
SLDDIMSTYLE0
100
AcDbAlignedDimension
 13
38.00000000000001
 23
7.00000000000008
 33
0.0
 14
38.00000000000001
 24
-6.999999999999937
 34
0.0
 50
90.0000000000002
100
AcDbRotatedDimension
1001
ACAD_DSTYLE_DIMFLIPARROW_SYMBOL
1070
   385
1070
     0
1001
ACAD_DSTYLE_DIMFLIPARROW_WHICH_SYMBOL
1070
   386
1070
     3
  0
DIMENSION
  5
E0
330
1F
100
AcDbEntity
  8
치수문자_일반주서
100
AcDbDimension
  2
_D_3
 10
-84.6509539237959
 20
-7.00000000000006
 30
0.0
 11
-84.65095392379597
 21
17.54149999999996
 31
0.0
 70
   160
  1
%%c<>
 71
     2
 42
14.00000000000001
 52
-270.0
  3
SLDDIMSTYLE1
100
AcDbAlignedDimension
 13
-70.60000000000002
 23
7.000000000000006
 33
0.0
 14
-70.60000000000002
 24
-7.000000000000006
 34
0.0
 50
90.0000000000002
100
AcDbRotatedDimension
  0
LINE
  5
EE
330
1F
100
AcDbEntity
  8
참조1
100
AcDbLine
 10
70.31348381534563
 20
7.441074928723896
 30
0.0
 11
70.31348381534563
 21
-7.438925071276109
 31
0.0
  0
LINE
  5
EF
330
1F
100
AcDbEntity
  8
참조1
100
AcDbLine
 10
83.01348381534564
 20
5.441074928723896
 30
0.0
 11
70.31348381534563
 21
5.441074928723896
 31
0.0
  0
SOLID
  5
F0
330
1F
100
AcDbEntity
  8
참조1
100
AcDbTrace
 10
70.31348381534563
 20
5.441074928723896
 30
0.0
 11
76.66348381534563
 21
4.425074928723896
 31
0.0
 12
76.66348381534563
 22
6.457074928723896
 32
0.0
 13
76.66348381534563
 23
6.457074928723896
 33
0.0
  0
LINE
  5
F1
330
1F
100
AcDbEntity
  8
참조1
100
AcDbLine
 10
83.01348381534564
 20
-5.438925071276109
 30
0.0
 11
70.31348381534563
 21
-5.438925071276109
 31
0.0
  0
SOLID
  5
F2
330
1F
100
AcDbEntity
  8
참조1
100
AcDbTrace
 10
70.31348381534563
 20
-5.438925071276109
 30
0.0
 11
76.66348381534563
 21
-6.454925071276109
 31
0.0
 12
76.66348381534563
 22
-4.422925071276109
 32
0.0
 13
76.66348381534563
 23
-4.422925071276109
 33
0.0
  0
MTEXT
  5
F3
330
1F
100
AcDbEntity
  8
참조1
100
AcDbMText
 10
79.71097390781591
 20
10.98929157337383
 30
0.0
 40
3.5
 41
0.0
 71
     1
 72
     1
  1
A
  7
SLDTEXTSTYLE0
 73
     1
 44
1.0
  0
MTEXT
  5
F4
330
1F
100
AcDbEntity
  8
참조1
100
AcDbMText
 10
79.71097390781591
 20
0.1092915733738259
 30
0.0
 40
3.5
 41
0.0
 71
     1
 72
     1
  1
A
  7
SLDTEXTSTYLE0
 73
     1
 44
1.0
  0
INSERT
  5
FB
330
1F
100
AcDbEntity
  8
해칭선
100
AcDbBlockReference
  2
SW_DOWELSYMBOL_0
 10
0.0
 20
0.0
 30
0.0
  0
ARC
  5
12D
330
1F
100
AcDbEntity
  8
0
 62
     1
100
AcDbCircle
 10
30.99999999999997
 20
0.0000000000000065
 30
0.0
 40
7.0
100
AcDbArc
 50
257.9852409819632
 51
102.4241345594018
  0
LINE
  5
1AE
330
1F
100
AcDbEntity
  8
외형선
  6
Continuous
370
    15
100
AcDbLine
 10
-44.20001200000002
 20
7.000000500000027
 30
0.0
 11
-45.5
 21
5.700012500000042
 31
0.0
  0
LINE
  5
1AF
330
1F
100
AcDbEntity
  8
외형선
  6
Continuous
370
    15
100
AcDbLine
 10
-45.5
 20
5.700012500000042
 30
0.0
 11
-53.5
 21
5.700012500000042
 31
0.0
  0
LINE
  5
1B0
330
1F
100
AcDbEntity
  8
외형선
  6
Continuous
370
    15
100
AcDbLine
 10
-53.5
 20
5.700012500000042
 30
0.0
 11
-54.79998799999998
 21
7.000000500000027
 31
0.0
  0
LINE
  5
1B1
330
1F
100
AcDbEntity
  8
외형선
  6
Continuous
370
    15
100
AcDbLine
 10
-54.79998749999996
 20
6.999999999999999
 30
0.0
 11
-70.60000000000001
 21
6.999999999999999
 31
0.0
  0
ENDSEC
  0
SECTION
  2
OBJECTS
  0
DICTIONARY
  5
C
330
0
100
AcDbDictionary
281
     1
  3
ACAD_GROUP
350
D
  3
ACAD_IMAGE_VARS
350
11F
  3
ACAD_LAYOUT
350
1A
  3
ACAD_MLINESTYLE
350
17
  3
ACAD_PLOTSETTINGS
350
19
  3
ACAD_PLOTSTYLENAME
350
E
  3
ACAD_SCALELIST
350
47
  3
APPDATA
350
11D
  3
DWGPROPS
350
1B2
  0
DICTIONARY
  5
193
330
2
100
AcDbDictionary
280
     1
281
     1
  3
ACAD_LAYERSTATES
360
194
  0
DICTIONARY
  5
D
102
{ACAD_REACTORS
330
C
102
}
330
C
100
AcDbDictionary
281
     1
  0
RASTERVARIABLES
  5
11F
102
{ACAD_REACTORS
330
C
102
}
330
C
100
AcDbRasterVariables
 90
        0
 70
     1
 71
     1
 72
     1
  0
DICTIONARY
  5
1A
102
{ACAD_REACTORS
330
C
102
}
330
C
100
AcDbDictionary
281
     1
  3
Layout1
350
1E
  3
Layout2
350
26
  3
Model
350
22
  0
DICTIONARY
  5
17
102
{ACAD_REACTORS
330
C
102
}
330
C
100
AcDbDictionary
281
     1
  3
Standard
350
18
  0
DICTIONARY
  5
19
102
{ACAD_REACTORS
330
C
102
}
330
C
100
AcDbDictionary
281
     1
  0
ACDBDICTIONARYWDFLT
  5
E
102
{ACAD_REACTORS
330
C
102
}
330
C
100
AcDbDictionary
281
     1
  3
Normal
350
F
100
AcDbDictionaryWithDefault
340
F
  0
DICTIONARY
  5
47
102
{ACAD_REACTORS
330
C
102
}
330
C
100
AcDbDictionary
281
     1
  3
A0
350
48
  3
A1
350
49
  3
A2
350
4A
  3
A3
350
4B
  3
A4
350
4C
  3
A5
350
4D
  3
A6
350
4E
  3
A7
350
4F
  3
A8
350
50
  3
A9
350
51
  3
B0
350
52
  3
B1
350
53
  3
B2
350
54
  3
B3
350
55
  3
B4
350
56
  3
B5
350
57
  3
B6
350
58
  3
B7
350
59
  3
B8
350
5A
  3
B9
350
5B
  3
C0
350
5C
  3
C1
350
5D
  3
C2
350
5E
  3
C3
350
5F
  3
C4
350
60
  3
C5
350
61
  3
C6
350
62
  3
C7
350
63
  3
C8
350
64
  3
C9
350
65
  3
D0
350
66
  3
D1
350
67
  3
D2
350
68
  0
DICTIONARY
  5
11D
102
{ACAD_REACTORS
330
C
102
}
330
C
100
AcDbDictionary
281
     1
  0
XRECORD
  5
1B2
102
{ACAD_REACTORS
330
C
102
}
330
C
100
AcDbXrecord
280
     1
  1
DWGPROPS COOKIE
  2

  3

  4

  6

  7

  8
12016016
  9

300
=
301
=
302
=
303
=
304
=
305
=
306
=
307
=
308
=
309
=
 40
0.0
 41
2458292.131149711
 42
2458295.450681863
  1

 90
        0
  0
DICTIONARY
  5
194
102
{ACAD_REACTORS
330
193
102
}
330
193
100
AcDbDictionary
281
     1
  0
LAYOUT
  5
1E
102
{ACAD_REACTORS
330
1A
102
}
330
1A
100
AcDbPlotSettings
  1

  2
none_device
  4

  6

 40
0.0
 41
0.0
 42
0.0
 43
0.0
 44
0.0
 45
0.0
 46
0.0
 47
0.0
 48
0.0
 49
0.0
140
0.0
141
0.0
142
1.0
143
1.0
 70
   688
 72
     1
 73
     0
 74
     5
  7

 75
    16
147
1.0
148
0.0
149
0.0
100
AcDbLayout
  1
Layout1
 70
     1
 71
     1
 10
0.0
 20
0.0
 11
420.0
 21
297.0
 12
0.0
 22
0.0
 32
0.0
 14
1.000000000000000E+20
 24
1.000000000000000E+20
 34
1.000000000000000E+20
 15
-1.000000000000000E+20
 25
-1.000000000000000E+20
 35
-1.000000000000000E+20
146
0.0
 13
0.0
 23
0.0
 33
0.0
 16
1.0
 26
0.0
 36
0.0
 17
0.0
 27
1.0
 37
0.0
 76
     0
330
1B
  0
LAYOUT
  5
26
102
{ACAD_REACTORS
330
1A
102
}
330
1A
100
AcDbPlotSettings
  1

  2
none_device
  4

  6

 40
0.0
 41
0.0
 42
0.0
 43
0.0
 44
0.0
 45
0.0
 46
0.0
 47
0.0
 48
0.0
 49
0.0
140
0.0
141
0.0
142
1.0
143
1.0
 70
   688
 72
     1
 73
     0
 74
     5
  7

 75
    16
147
1.0
148
0.0
149
0.0
100
AcDbLayout
  1
Layout2
 70
     1
 71
     2
 10
0.0
 20
0.0
 11
0.0
 21
0.0
 12
0.0
 22
0.0
 32
0.0
 14
0.0
 24
0.0
 34
0.0
 15
0.0
 25
0.0
 35
0.0
146
0.0
 13
0.0
 23
0.0
 33
0.0
 16
1.0
 26
0.0
 36
0.0
 17
0.0
 27
1.0
 37
0.0
 76
     0
330
23
  0
LAYOUT
  5
22
102
{ACAD_REACTORS
330
1A
102
}
330
1A
100
AcDbPlotSettings
  1

  2
none_device
  4
ANSI_A_(11.00_x_8.50_Inches)
  6

 40
6.35
 41
19.05
 42
6.35000508
 43
19.05000254
 44
279.4
 45
215.9
 46
107.0790638522673
 47
54.68704559104924
 48
0.0
 49
0.0
140
0.0
141
0.0
142
0.0564044240157017
143
1.0
 70
  1696
 72
     0
 73
     0
 74
     0
  7

 75
     0
147
0.0235690232323232
148
0.0
149
0.0
100
AcDbLayout
  1
Model
 70
     1
 71
     0
 10
0.0
 20
0.0
 11
420.0
 21
297.0
 12
0.0
 22
0.0
 32
0.0
 14
1.000000000000000E+20
 24
1.000000000000000E+20
 34
1.000000000000000E+20
 15
-1.000000000000000E+20
 25
-1.000000000000000E+20
 35
-1.000000000000000E+20
146
0.0
 13
0.0
 23
0.0
 33
0.0
 16
1.0
 26
0.0
 36
0.0
 17
0.0
 27
1.0
 37
0.0
 76
     0
330
1F
331
29
  0
MLINESTYLE
  5
18
102
{ACAD_REACTORS
330
17
102
}
330
17
100
AcDbMlineStyle
  2
Standard
 70
     0
  3

 62
   256
 51
90.0
 52
90.0
 71
     2
 49
0.5
 62
   256
  6
BYLAYER
 49
-0.5
 62
   256
  6
BYLAYER
  0
ACDBPLACEHOLDER
  5
F
102
{ACAD_REACTORS
330
E
102
}
330
E
  0
SCALE
  5
48
102
{ACAD_REACTORS
330
47
102
}
330
47
100
AcDbScale
 70
     0
300
1:1
140
1.0
141
1.0
290
     1
  0
SCALE
  5
49
102
{ACAD_REACTORS
330
47
102
}
330
47
100
AcDbScale
 70
     0
300
1:2
140
1.0
141
2.0
290
     0
  0
SCALE
  5
4A
102
{ACAD_REACTORS
330
47
102
}
330
47
100
AcDbScale
 70
     0
300
1:4
140
1.0
141
4.0
290
     0
  0
SCALE
  5
4B
102
{ACAD_REACTORS
330
47
102
}
330
47
100
AcDbScale
 70
     0
300
1:5
140
1.0
141
5.0
290
     0
  0
SCALE
  5
4C
102
{ACAD_REACTORS
330
47
102
}
330
47
100
AcDbScale
 70
     0
300
1:8
140
1.0
141
8.0
290
     0
  0
SCALE
  5
4D
102
{ACAD_REACTORS
330
47
102
}
330
47
100
AcDbScale
 70
     0
300
1:10
140
1.0
141
10.0
290
     0
  0
SCALE
  5
4E
102
{ACAD_REACTORS
330
47
102
}
330
47
100
AcDbScale
 70
     0
300
1:16
140
1.0
141
16.0
290
     0
  0
SCALE
  5
4F
102
{ACAD_REACTORS
330
47
102
}
330
47
100
AcDbScale
 70
     0
300
1:20
140
1.0
141
20.0
290
     0
  0
SCALE
  5
50
102
{ACAD_REACTORS
330
47
102
}
330
47
100
AcDbScale
 70
     0
300
1:30
140
1.0
141
30.0
290
     0
  0
SCALE
  5
51
102
{ACAD_REACTORS
330
47
102
}
330
47
100
AcDbScale
 70
     0
300
1:40
140
1.0
141
40.0
290
     0
  0
SCALE
  5
52
102
{ACAD_REACTORS
330
47
102
}
330
47
100
AcDbScale
 70
     0
300
1:50
140
1.0
141
50.0
290
     0
  0
SCALE
  5
53
102
{ACAD_REACTORS
330
47
102
}
330
47
100
AcDbScale
 70
     0
300
1:100
140
1.0
141
100.0
290
     0
  0
SCALE
  5
54
102
{ACAD_REACTORS
330
47
102
}
330
47
100
AcDbScale
 70
     0
300
2:1
140
2.0
141
1.0
290
     0
  0
SCALE
  5
55
102
{ACAD_REACTORS
330
47
102
}
330
47
100
AcDbScale
 70
     0
300
4:1
140
4.0
141
1.0
290
     0
  0
SCALE
  5
56
102
{ACAD_REACTORS
330
47
102
}
330
47
100
AcDbScale
 70
     0
300
8:1
140
8.0
141
1.0
290
     0
  0
SCALE
  5
57
102
{ACAD_REACTORS
330
47
102
}
330
47
100
AcDbScale
 70
     0
300
10:1
140
10.0
141
1.0
290
     0
  0
SCALE
  5
58
102
{ACAD_REACTORS
330
47
102
}
330
47
100
AcDbScale
 70
     0
300
100:1
140
100.0
141
1.0
290
     0
  0
SCALE
  5
59
102
{ACAD_REACTORS
330
47
102
}
330
47
100
AcDbScale
 70
     0
300
1/128" = 1'-0"
140
0.0078125
141
12.0
290
     0
  0
SCALE
  5
5A
102
{ACAD_REACTORS
330
47
102
}
330
47
100
AcDbScale
 70
     0
300
1/64" = 1'-0"
140
0.015625
141
12.0
290
     0
  0
SCALE
  5
5B
102
{ACAD_REACTORS
330
47
102
}
330
47
100
AcDbScale
 70
     0
300
1/32" = 1'-0"
140
0.03125
141
12.0
290
     0
  0
SCALE
  5
5C
102
{ACAD_REACTORS
330
47
102
}
330
47
100
AcDbScale
 70
     0
300
1/16" = 1'-0"
140
0.0625
141
12.0
290
     0
  0
SCALE
  5
5D
102
{ACAD_REACTORS
330
47
102
}
330
47
100
AcDbScale
 70
     0
300
3/32" = 1'-0"
140
0.09375
141
12.0
290
     0
  0
SCALE
  5
5E
102
{ACAD_REACTORS
330
47
102
}
330
47
100
AcDbScale
 70
     0
300
1/8" = 1'-0"
140
0.125
141
12.0
290
     0
  0
SCALE
  5
5F
102
{ACAD_REACTORS
330
47
102
}
330
47
100
AcDbScale
 70
     0
300
3/16" = 1'-0"
140
0.1875
141
12.0
290
     0
  0
SCALE
  5
60
102
{ACAD_REACTORS
330
47
102
}
330
47
100
AcDbScale
 70
     0
300
1/4" = 1'-0"
140
0.25
141
12.0
290
     0
  0
SCALE
  5
61
102
{ACAD_REACTORS
330
47
102
}
330
47
100
AcDbScale
 70
     0
300
3/8" = 1'-0"
140
0.375
141
12.0
290
     0
  0
SCALE
  5
62
102
{ACAD_REACTORS
330
47
102
}
330
47
100
AcDbScale
 70
     0
300
1/2" = 1'-0"
140
0.5
141
12.0
290
     0
  0
SCALE
  5
63
102
{ACAD_REACTORS
330
47
102
}
330
47
100
AcDbScale
 70
     0
300
3/4" = 1'-0"
140
0.75
141
12.0
290
     0
  0
SCALE
  5
64
102
{ACAD_REACTORS
330
47
102
}
330
47
100
AcDbScale
 70
     0
300
1" = 1'-0"
140
1.0
141
12.0
290
     0
  0
SCALE
  5
65
102
{ACAD_REACTORS
330
47
102
}
330
47
100
AcDbScale
 70
     0
300
1-1/2" = 1'-0"
140
1.5
141
12.0
290
     0
  0
SCALE
  5
66
102
{ACAD_REACTORS
330
47
102
}
330
47
100
AcDbScale
 70
     0
300
3" = 1'-0"
140
3.0
141
12.0
290
     0
  0
SCALE
  5
67
102
{ACAD_REACTORS
330
47
102
}
330
47
100
AcDbScale
 70
     0
300
6" = 1'-0"
140
6.0
141
12.0
290
     0
  0
SCALE
  5
68
102
{ACAD_REACTORS
330
47
102
}
330
47
100
AcDbScale
 70
     0
300
1'-0" = 1'-0"
140
12.0
141
12.0
290
     0
  0
ENDSEC
  0
EOF
