  0
SECTION
  2
HEADER
  9
$ACADVER
  1
AC1015
  9
$ACADMAINTVER
 70
     6
  9
$DWGCODEPAGE
  3
ANSI_949
  9
$INSBASE
 10
0.0
 20
0.0
 30
0.0
  9
$EXTMIN
 10
1.000000000000000E+20
 20
1.000000000000000E+20
 30
1.000000000000000E+20
  9
$EXTMAX
 10
-1.000000000000000E+20
 20
-1.000000000000000E+20
 30
-1.000000000000000E+20
  9
$LIMMIN
 10
0.0
 20
0.0
  9
$LIMMAX
 10
420.0
 20
297.0
  9
$ORTHOMODE
 70
     1
  9
$REGENMODE
 70
     1
  9
$FILLMODE
 70
     1
  9
$QTEXTMODE
 70
     0
  9
$MIRRTEXT
 70
     1
  9
$LTSCALE
 40
1.0
  9
$ATTMODE
 70
     1
  9
$TEXTSIZE
 40
3.5
  9
$TRACEWID
 40
1.0
  9
$TEXTSTYLE
  7
Standard
  9
$CLAYER
  8
0
  9
$CELTYPE
  6
ByLayer
  9
$CECOLOR
 62
   256
  9
$CELTSCALE
 40
1.0
  9
$DISPSILH
 70
     0
  9
$DIMSCALE
 40
1.0
  9
$DIMASZ
 40
3.302
  9
$DIMEXO
 40
1.0
  9
$DIMDLI
 40
3.75
  9
$DIMRND
 40
0.0
  9
$DIMDLE
 40
0.0
  9
$DIMEXE
 40
1.0
  9
$DIMTP
 40
0.0
  9
$DIMTM
 40
0.0
  9
$DIMTXT
 40
3.5
  9
$DIMCEN
 40
2.5
  9
$DIMTSZ
 40
0.0
  9
$DIMTOL
 70
     0
  9
$DIMLIM
 70
     0
  9
$DIMTIH
 70
     1
  9
$DIMTOH
 70
     1
  9
$DIMSE1
 70
     0
  9
$DIMSE2
 70
     0
  9
$DIMTAD
 70
     1
  9
$DIMZIN
 70
     0
  9
$DIMBLK
  1

  9
$DIMASO
 70
     1
  9
$DIMSHO
 70
     1
  9
$DIMPOST
  1

  9
$DIMAPOST
  1

  9
$DIMALT
 70
     0
  9
$DIMALTD
 70
     3
  9
$DIMALTF
 40
0.0393700787401575
  9
$DIMLFAC
 40
1.0
  9
$DIMTOFL
 70
     1
  9
$DIMTVP
 40
0.0
  9
$DIMTIX
 70
     0
  9
$DIMSOXD
 70
     0
  9
$DIMSAH
 70
     0
  9
$DIMBLK1
  1

  9
$DIMBLK2
  1

  9
$DIMSTYLE
  2
ISO-25
  9
$DIMCLRD
 70
     0
  9
$DIMCLRE
 70
     0
  9
$DIMCLRT
 70
     0
  9
$DIMTFAC
 40
1.0
  9
$DIMGAP
 40
1.524
  9
$DIMJUST
 70
     0
  9
$DIMSD1
 70
     0
  9
$DIMSD2
 70
     0
  9
$DIMTOLJ
 70
     0
  9
$DIMTZIN
 70
     0
  9
$DIMALTZ
 70
     0
  9
$DIMALTTZ
 70
     0
  9
$DIMUPT
 70
     0
  9
$DIMDEC
 70
     2
  9
$DIMTDEC
 70
     2
  9
$DIMALTU
 70
     2
  9
$DIMALTTD
 70
     3
  9
$DIMTXSTY
  7
Standard
  9
$DIMAUNIT
 70
     0
  9
$DIMADEC
 70
     2
  9
$DIMALTRND
 40
0.0
  9
$DIMAZIN
 70
     0
  9
$DIMDSEP
 70
    44
  9
$DIMATFIT
 70
     3
  9
$DIMFRAC
 70
     0
  9
$DIMLDRBLK
  1

  9
$DIMLUNIT
 70
     2
  9
$DIMLWD
 70
    -2
  9
$DIMLWE
 70
    -2
  9
$DIMTMOVE
 70
     0
  9
$LUNITS
 70
     2
  9
$LUPREC
 70
     2
  9
$SKETCHINC
 40
1.0
  9
$FILLETRAD
 40
10.0
  9
$AUNITS
 70
     0
  9
$AUPREC
 70
     2
  9
$MENU
  1
.
  9
$ELEVATION
 40
0.0
  9
$PELEVATION
 40
0.0
  9
$THICKNESS
 40
0.0
  9
$LIMCHECK
 70
     0
  9
$CHAMFERA
 40
0.0
  9
$CHAMFERB
 40
0.0
  9
$CHAMFERC
 40
0.0
  9
$CHAMFERD
 40
0.0
  9
$SKPOLY
 70
     0
  9
$TDCREATE
 40
2458285.461605602
  9
$TDUCREATE
 40
2458285.086605602
  9
$TDUPDATE
 40
2458295.81789
  9
$TDUUPDATE
 40
2458295.44289
  9
$TDINDWG
 40
0.0014476968
  9
$TDUSRTIMER
 40
2458295.44277
  9
$USRTIMER
 70
     1
  9
$ANGBASE
 50
0.0
  9
$ANGDIR
 70
     0
  9
$PDMODE
 70
     0
  9
$PDSIZE
 40
-1.0
  9
$PLINEWID
 40
0.0
  9
$SPLFRAME
 70
     0
  9
$SPLINETYPE
 70
     6
  9
$SPLINESEGS
 70
     8
  9
$HANDSEED
  5
1DE
  9
$SURFTAB1
 70
     6
  9
$SURFTAB2
 70
     6
  9
$SURFTYPE
 70
     6
  9
$SURFU
 70
     6
  9
$SURFV
 70
     6
  9
$UCSBASE
  2

  9
$UCSNAME
  2

  9
$UCSORG
 10
0.0
 20
0.0
 30
0.0
  9
$UCSXDIR
 10
1.0
 20
0.0
 30
0.0
  9
$UCSYDIR
 10
0.0
 20
1.0
 30
0.0
  9
$UCSORTHOREF
  2

  9
$UCSORTHOVIEW
 70
     0
  9
$UCSORGTOP
 10
0.0
 20
0.0
 30
0.0
  9
$UCSORGBOTTOM
 10
0.0
 20
0.0
 30
0.0
  9
$UCSORGLEFT
 10
0.0
 20
0.0
 30
0.0
  9
$UCSORGRIGHT
 10
0.0
 20
0.0
 30
0.0
  9
$UCSORGFRONT
 10
0.0
 20
0.0
 30
0.0
  9
$UCSORGBACK
 10
0.0
 20
0.0
 30
0.0
  9
$PUCSBASE
  2

  9
$PUCSNAME
  2

  9
$PUCSORG
 10
0.0
 20
0.0
 30
0.0
  9
$PUCSXDIR
 10
1.0
 20
0.0
 30
0.0
  9
$PUCSYDIR
 10
0.0
 20
1.0
 30
0.0
  9
$PUCSORTHOREF
  2

  9
$PUCSORTHOVIEW
 70
     0
  9
$PUCSORGTOP
 10
0.0
 20
0.0
 30
0.0
  9
$PUCSORGBOTTOM
 10
0.0
 20
0.0
 30
0.0
  9
$PUCSORGLEFT
 10
0.0
 20
0.0
 30
0.0
  9
$PUCSORGRIGHT
 10
0.0
 20
0.0
 30
0.0
  9
$PUCSORGFRONT
 10
0.0
 20
0.0
 30
0.0
  9
$PUCSORGBACK
 10
0.0
 20
0.0
 30
0.0
  9
$USERI1
 70
     0
  9
$USERI2
 70
     0
  9
$USERI3
 70
     0
  9
$USERI4
 70
     0
  9
$USERI5
 70
     0
  9
$USERR1
 40
0.0
  9
$USERR2
 40
0.0
  9
$USERR3
 40
0.0
  9
$USERR4
 40
0.0
  9
$USERR5
 40
0.0
  9
$WORLDVIEW
 70
     1
  9
$SHADEDGE
 70
     3
  9
$SHADEDIF
 70
    70
  9
$TILEMODE
 70
     1
  9
$MAXACTVP
 70
    64
  9
$PINSBASE
 10
0.0
 20
0.0
 30
0.0
  9
$PLIMCHECK
 70
     0
  9
$PEXTMIN
 10
1.000000000000000E+20
 20
1.000000000000000E+20
 30
1.000000000000000E+20
  9
$PEXTMAX
 10
-1.000000000000000E+20
 20
-1.000000000000000E+20
 30
-1.000000000000000E+20
  9
$PLIMMIN
 10
0.0
 20
0.0
  9
$PLIMMAX
 10
0.0
 20
0.0
  9
$UNITMODE
 70
     0
  9
$VISRETAIN
 70
     1
  9
$PLINEGEN
 70
     0
  9
$PSLTSCALE
 70
     1
  9
$TREEDEPTH
 70
  3020
  9
$CMLSTYLE
  2
Standard
  9
$CMLJUST
 70
     0
  9
$CMLSCALE
 40
20.0
  9
$PROXYGRAPHICS
 70
     1
  9
$MEASUREMENT
 70
     1
  9
$CELWEIGHT
370
    -1
  9
$ENDCAPS
280
     0
  9
$JOINSTYLE
280
     0
  9
$LWDISPLAY
290
     1
  9
$INSUNITS
 70
     4
  9
$HYPERLINKBASE
  1

  9
$STYLESHEET
  1

  9
$XEDIT
290
     1
  9
$CEPSNTYPE
380
     0
  9
$PSTYLEMODE
290
     1
  9
$FINGERPRINTGUID
  2
{27587EA9-1628-4D54-A35C-1D9CB8B0556A}
  9
$VERSIONGUID
  2
{FAEB1C32-E019-11D5-929B-00C0DF256EC4}
  9
$EXTNAMES
290
     1
  9
$PSVPSCALE
 40
0.0
  9
$OLESTARTUP
290
     0
  0
ENDSEC
  0
SECTION
  2
CLASSES
  0
CLASS
  1
ACDBDICTIONARYWDFLT
  2
AcDbDictionaryWithDefault
  3
ObjectDBX Classes
 90
        0
280
     0
281
     0
  0
CLASS
  1
VISUALSTYLE
  2
AcDbVisualStyle
  3
ObjectDBX Classes
 90
     4095
280
     0
281
     0
  0
CLASS
  1
MATERIAL
  2
AcDbMaterial
  3
ObjectDBX Classes
 90
     1153
280
     0
281
     0
  0
CLASS
  1
SCALE
  2
AcDbScale
  3
ObjectDBX Classes
 90
     1153
280
     0
281
     0
  0
CLASS
  1
SUN
  2
AcDbSun
  3
SCENEOE
 90
     1153
280
     0
281
     0
  0
CLASS
  1
ACDBPLACEHOLDER
  2
AcDbPlaceHolder
  3
ObjectDBX Classes
 90
        0
280
     0
281
     0
  0
CLASS
  1
LAYOUT
  2
AcDbLayout
  3
ObjectDBX Classes
 90
        0
280
     0
281
     0
  0
CLASS
  1
TABLESTYLE
  2
AcDbTableStyle
  3
ObjectDBX Classes
 90
     4095
280
     0
281
     0
  0
CLASS
  1
MLEADERSTYLE
  2
AcDbMLeaderStyle
  3
ACDB_MLEADERSTYLE_CLASS
 90
     4095
280
     0
281
     0
  0
CLASS
  1
RASTERVARIABLES
  2
AcDbRasterVariables
  3
ISM
 90
        0
280
     0
281
     0
  0
ENDSEC
  0
SECTION
  2
TABLES
  0
TABLE
  2
VPORT
  5
8
330
0
100
AcDbSymbolTable
 70
     1
  0
VPORT
  5
29
330
8
100
AcDbSymbolTableRecord
100
AcDbViewportTableRecord
  2
*Active
 70
     0
 10
0.0
 20
0.0
 11
1.0
 21
1.0
 12
-87.58708193396475
 22
-23.41376096734347
 13
0.0
 23
0.0
 14
10.0
 24
10.0
 15
10.0
 25
10.0
 16
0.0
 26
0.0
 36
1.0
 17
0.0
 27
0.0
 37
0.0
 40
83.93406088161915
 41
1.546332046332046
 42
50.0
 43
0.0
 44
0.0
 50
0.0
 51
0.0
 71
    16
 72
  2000
 73
     1
 74
     3
 75
     0
 76
     0
 77
     0
 78
     0
281
     0
 65
     1
110
0.0
120
0.0
130
0.0
111
1.0
121
0.0
131
0.0
112
0.0
122
1.0
132
0.0
 79
     0
146
0.0
  0
ENDTAB
  0
TABLE
  2
LTYPE
  5
5
330
0
100
AcDbSymbolTable
 70
     6
  0
LTYPE
  5
14
330
5
100
AcDbSymbolTableRecord
100
AcDbLinetypeTableRecord
  2
ByBlock
 70
     0
  3

 72
    65
 73
     0
 40
0.0
  0
LTYPE
  5
15
330
5
100
AcDbSymbolTableRecord
100
AcDbLinetypeTableRecord
  2
ByLayer
 70
     0
  3

 72
    65
 73
     0
 40
0.0
  0
LTYPE
  5
16
330
5
100
AcDbSymbolTableRecord
100
AcDbLinetypeTableRecord
  2
Continuous
 70
     0
  3
Solid line
 72
    65
 73
     0
 40
0.0
  0
LTYPE
  5
6A
330
5
100
AcDbSymbolTableRecord
100
AcDbLinetypeTableRecord
  2
HIDDEN
 70
     0
  3
Hidden __ __ __ __ __ __ __ __ __ __ __ __ __ __
 72
    65
 73
     2
 40
1.905
 49
1.27
 74
     0
 49
-0.635
 74
     0
  0
LTYPE
  5
6B
330
5
100
AcDbSymbolTableRecord
100
AcDbLinetypeTableRecord
  2
PHANTOM
 70
     0
  3
Phantom ______  __  __  ______  __  __  ______
 72
    65
 73
     6
 40
12.7
 49
6.35
 74
     0
 49
-1.27
 74
     0
 49
1.27
 74
     0
 49
-1.27
 74
     0
 49
1.27
 74
     0
 49
-1.27
 74
     0
  0
LTYPE
  5
6C
330
5
100
AcDbSymbolTableRecord
100
AcDbLinetypeTableRecord
  2
CENTER
 70
     0
  3
Center ____ _ ____ _ ____ _ ____ _ ____ _ ____
 72
    65
 73
     4
 40
10.16
 49
6.35
 74
     0
 49
-1.27
 74
     0
 49
1.27
 74
     0
 49
-1.27
 74
     0
  0
LTYPE
  5
6D
330
5
100
AcDbSymbolTableRecord
100
AcDbLinetypeTableRecord
  2
CENTERX2
 70
     0
  3
Center (2x) ________  __  ________  __  _____
 72
    65
 73
     4
 40
20.32
 49
12.7
 74
     0
 49
-2.54
 74
     0
 49
2.54
 74
     0
 49
-2.54
 74
     0
  0
LTYPE
  5
6E
330
5
100
AcDbSymbolTableRecord
100
AcDbLinetypeTableRecord
  2
DOT2
 70
     0
  3
Dot (.5x) ........................................
 72
    65
 73
     2
 40
0.635
 49
0.0
 74
     0
 49
-0.635
 74
     0
  0
ENDTAB
  0
TABLE
  2
LAYER
  5
2
102
{ACAD_XDICTIONARY
360
1BC
102
}
330
0
100
AcDbSymbolTable
 70
    20
  0
LAYER
  5
10
330
2
100
AcDbSymbolTableRecord
100
AcDbLayerTableRecord
  2
0
 70
     0
 62
     7
  6
Continuous
370
    -3
390
F
  0
LAYER
  5
6F
330
2
100
AcDbSymbolTableRecord
100
AcDbLayerTableRecord
  2
FORMAT
 70
     0
 62
     2
  6
Continuous
370
    -3
390
F
  0
LAYER
  5
70
330
2
100
AcDbSymbolTableRecord
100
AcDbLayerTableRecord
  2
외형선
 70
     0
 62
     4
  6
Continuous
370
    30
390
F
  0
LAYER
  5
71
330
2
100
AcDbSymbolTableRecord
100
AcDbLayerTableRecord
  2
숨은선
 70
     0
 62
     2
  6
HIDDEN
370
    15
390
F
  0
LAYER
  5
72
330
2
100
AcDbSymbolTableRecord
100
AcDbLayerTableRecord
  2
중심선
 70
     0
 62
     1
  6
CENTERX2
370
    -3
390
F
  0
LAYER
  5
73
330
2
100
AcDbSymbolTableRecord
100
AcDbLayerTableRecord
  2
파단선
 70
     0
 62
     4
  6
Continuous
370
    -3
390
F
  0
LAYER
  5
74
330
2
100
AcDbSymbolTableRecord
100
AcDbLayerTableRecord
  2
해칭선
 70
     0
 62
   100
  6
Continuous
370
    -3
390
F
  0
LAYER
  5
75
330
2
100
AcDbSymbolTableRecord
100
AcDbLayerTableRecord
  2
가는실선
 70
     0
 62
     4
  6
Continuous
370
    -3
390
F
  0
LAYER
  5
76
330
2
100
AcDbSymbolTableRecord
100
AcDbLayerTableRecord
  2
치수_보조선
 70
     0
 62
     4
  6
Continuous
370
    -3
390
F
  0
LAYER
  5
77
330
2
100
AcDbSymbolTableRecord
100
AcDbLayerTableRecord
  2
치수문자_일반주서
 70
     0
 62
     7
  6
Continuous
370
    15
390
F
  0
LAYER
  5
78
330
2
100
AcDbSymbolTableRecord
100
AcDbLayerTableRecord
  2
개별주서
 70
     0
 62
   100
  6
Continuous
370
    30
390
F
  0
LAYER
  5
79
330
2
100
AcDbSymbolTableRecord
100
AcDbLayerTableRecord
  2
중간선
 70
     0
 62
     2
  6
Continuous
370
    15
390
F
  0
LAYER
  5
7A
330
2
100
AcDbSymbolTableRecord
100
AcDbLayerTableRecord
  2
윤곽선
 70
     0
 62
     3
  6
Continuous
370
    40
390
F
  0
LAYER
  5
7B
330
2
100
AcDbSymbolTableRecord
100
AcDbLayerTableRecord
  2
중심마크
 70
     0
 62
   100
  6
Continuous
370
    30
390
F
  0
LAYER
  5
7C
330
2
100
AcDbSymbolTableRecord
100
AcDbLayerTableRecord
  2
가상선
 70
     0
 62
     4
  6
PHANTOM
370
    -3
390
F
  0
LAYER
  5
7D
330
2
100
AcDbSymbolTableRecord
100
AcDbLayerTableRecord
  2
특수지정선
 70
     0
 62
     5
  6
CENTERX2
370
    60
390
F
  0
LAYER
  5
7E
330
2
100
AcDbSymbolTableRecord
100
AcDbLayerTableRecord
  2
참조1
 70
     0
 62
    -4
  6
Continuous
370
    -3
390
F
  0
LAYER
  5
127
330
2
100
AcDbSymbolTableRecord
100
AcDbLayerTableRecord
  2
Defpoints
 70
     0
 62
     7
  6
Continuous
290
     0
370
    -3
390
F
  0
LAYER
  5
17F
330
2
100
AcDbSymbolTableRecord
100
AcDbLayerTableRecord
  2
CENTER
 70
     0
 62
     2
  6
CENTER
370
    -3
390
F
1001
AcAecLayerStandard
1000

1000

  0
LAYER
  5
183
330
2
100
AcDbSymbolTableRecord
100
AcDbLayerTableRecord
  2
CUT
 70
     0
 62
     1
  6
Continuous
370
    -3
390
F
1001
AcAecLayerStandard
1000

1000

  0
ENDTAB
  0
TABLE
  2
STYLE
  5
3
330
0
100
AcDbSymbolTable
 70
     2
  0
STYLE
  5
11
330
3
100
AcDbSymbolTableRecord
100
AcDbTextStyleTableRecord
  2
Standard
 70
     0
 40
0.0
 41
1.0
 50
0.0
 71
     0
 42
3.5
  3
txt
  4

  0
STYLE
  5
94
330
3
100
AcDbSymbolTableRecord
100
AcDbTextStyleTableRecord
  2
SLDTEXTSTYLE0
 70
     0
 40
0.0
 41
0.75
 50
0.0
 71
     0
 42
3.5
  3
TXT
  4

  0
ENDTAB
  0
TABLE
  2
VIEW
  5
6
330
0
100
AcDbSymbolTable
 70
     0
  0
ENDTAB
  0
TABLE
  2
UCS
  5
7
330
0
100
AcDbSymbolTable
 70
     0
  0
ENDTAB
  0
TABLE
  2
APPID
  5
9
330
0
100
AcDbSymbolTable
 70
     4
  0
APPID
  5
12
330
9
100
AcDbSymbolTableRecord
100
AcDbRegAppTableRecord
  2
ACAD
 70
     0
  0
APPID
  5
137
330
9
100
AcDbSymbolTableRecord
100
AcDbRegAppTableRecord
  2
ACAD_DSTYLE_DIMFLIPARROW_SYMBOL
 70
     0
  0
APPID
  5
138
330
9
100
AcDbSymbolTableRecord
100
AcDbRegAppTableRecord
  2
ACAD_DSTYLE_DIMFLIPARROW_WHICH_SYMBOL
 70
     0
  0
APPID
  5
182
330
9
100
AcDbSymbolTableRecord
100
AcDbRegAppTableRecord
  2
AcAecLayerStandard
 70
     0
  0
ENDTAB
  0
TABLE
  2
DIMSTYLE
  5
A
330
0
100
AcDbSymbolTable
 70
     3
100
AcDbDimStyleTable
  0
DIMSTYLE
105
27
330
A
100
AcDbSymbolTableRecord
100
AcDbDimStyleTableRecord
  2
ISO-25
 70
     0
 41
2.5
 42
0.625
 43
3.75
 44
1.25
 73
     0
 74
     0
 77
     1
 78
     8
140
2.5
141
2.5
143
0.03937007874016
147
0.625
171
     3
172
     1
178
     0
271
     2
272
     2
274
     3
278
    44
283
     0
284
     8
340
11
  0
DIMSTYLE
105
C6
102
{ACAD_REACTORS
330
C5
330
D1
330
E9
102
}
330
A
100
AcDbSymbolTableRecord
100
AcDbDimStyleTableRecord
  2
SLDDIMSTYLE0
 70
     0
 41
3.302
 44
0.0
 45
0.000000001
 73
     0
 74
     0
 77
     1
 78
    12
 79
     3
140
3.5
147
0.875
173
     1
178
     0
271
     2
272
     2
276
     2
284
    12
340
94
  0
DIMSTYLE
105
DC
102
{ACAD_REACTORS
330
DB
102
}
330
A
100
AcDbSymbolTableRecord
100
AcDbDimStyleTableRecord
  2
SLDDIMSTYLE1
 70
     0
 41
3.302
 44
0.0
 45
0.000000001
 73
     0
 74
     0
 77
     1
 78
    12
 79
     3
140
3.5
147
0.875
172
     1
173
     1
178
     0
271
     2
272
     2
276
     2
284
    12
289
     0
340
94
  0
ENDTAB
  0
TABLE
  2
BLOCK_RECORD
  5
1
330
0
100
AcDbSymbolTable
 70
     8
  0
BLOCK_RECORD
  5
1F
330
1
100
AcDbSymbolTableRecord
100
AcDbBlockTableRecord
  2
*Model_Space
340
22
  0
BLOCK_RECORD
  5
1B
330
1
100
AcDbSymbolTableRecord
100
AcDbBlockTableRecord
  2
*Paper_Space
340
1E
  0
BLOCK_RECORD
  5
23
330
1
100
AcDbSymbolTableRecord
100
AcDbBlockTableRecord
  2
*Paper_Space0
340
26
  0
BLOCK_RECORD
  5
7F
330
1
100
AcDbSymbolTableRecord
100
AcDbBlockTableRecord
  2
블럭10
340
0
102
{BLKREFS
331
BE
102
}
  0
BLOCK_RECORD
  5
C7
330
1
100
AcDbSymbolTableRecord
100
AcDbBlockTableRecord
  2
_D
340
0
  0
BLOCK_RECORD
  5
D2
330
1
100
AcDbSymbolTableRecord
100
AcDbBlockTableRecord
  2
_D_1
340
0
  0
BLOCK_RECORD
  5
DD
330
1
100
AcDbSymbolTableRecord
100
AcDbBlockTableRecord
  2
_D_2
340
0
  0
BLOCK_RECORD
  5
EA
330
1
100
AcDbSymbolTableRecord
100
AcDbBlockTableRecord
  2
_D_3
340
0
  0
BLOCK_RECORD
  5
FC
330
1
100
AcDbSymbolTableRecord
100
AcDbBlockTableRecord
  2
SW_DOWELSYMBOL_0
340
0
102
{BLKREFS
331
102
102
}
  0
ENDTAB
  0
ENDSEC
  0
SECTION
  2
BLOCKS
  0
BLOCK
  5
20
330
1F
100
AcDbEntity
  8
0
100
AcDbBlockBegin
  2
*Model_Space
 70
     0
 10
0.0
 20
0.0
 30
0.0
  3
*Model_Space
  1
*Model_Space
  0
ENDBLK
  5
21
330
1F
100
AcDbEntity
  8
0
100
AcDbBlockEnd
  0
BLOCK
  5
1C
330
1B
100
AcDbEntity
 67
     1
  8
0
100
AcDbBlockBegin
  2
*Paper_Space
 70
     0
 10
0.0
 20
0.0
 30
0.0
  3
*Paper_Space
  1
*Paper_Space
  0
ENDBLK
  5
1D
330
1B
100
AcDbEntity
 67
     1
  8
0
100
AcDbBlockEnd
  0
BLOCK
  5
24
330
23
100
AcDbEntity
  8
0
100
AcDbBlockBegin
  2
*Paper_Space0
 70
     0
 10
0.0
 20
0.0
 30
0.0
  3
*Paper_Space0
  1
*Paper_Space0
  0
ENDBLK
  5
25
330
23
100
AcDbEntity
  8
0
100
AcDbBlockEnd
  0
BLOCK
  5
80
330
7F
100
AcDbEntity
  8
0
100
AcDbBlockBegin
  2
블럭10
 70
     2
 10
0.0
 20
0.0
 30
0.0
  3
블럭10
  1
블럭10
  0
ELLIPSE
  5
82
330
7F
100
AcDbEntity
  8
중심선
100
AcDbEllipse
 10
20.54032771741204
 20
12.0471743016438
 30
0.0
 11
6.600054785286829
 21
-1.261213355974178E-13
 31
0.0
210
0.0
220
0.0
230
1.0
 40
0.636358354079598
 41
0.9219305317359503
 42
6.513795318482858
  0
ELLIPSE
  5
83
330
7F
100
AcDbEntity
  8
중심선
100
AcDbEllipse
 10
20.54032771746488
 20
12.04717430159265
 30
0.0
 11
3.960054785062283
 21
1.540847449632565E-10
 31
0.0
210
0.0
220
0.0
230
1.0
 40
0.3939339440162632
 41
1.131841032648279
 42
5.62031148352944
  0
LINE
  5
84
330
7F
100
AcDbEntity
  8
중심선
100
AcDbLine
 10
2.268634060543552
 20
16.24717430164393
 30
0.0
 11
5.714909304380834
 21
16.24717430164393
 31
0.0
  0
LINE
  5
85
330
7F
100
AcDbEntity
  8
중심선
100
AcDbLine
 10
5.245725140726316
 20
7.84717430164391
 30
0.0
 11
8.692000384563599
 21
7.84717430164391
 31
0.0
  0
LINE
  5
86
330
7F
100
AcDbEntity
  8
중심선
100
AcDbLine
 10
15.74043728645272
 20
16.24717430164393
 30
0.0
 11
8.692000384563599
 21
7.84717430164391
 31
0.0
  0
LINE
  5
87
330
7F
100
AcDbEntity
  8
중심선
100
AcDbLine
 10
0.1404042013395286
 20
13.71084872107135
 30
0.0
 11
3.58671253028996
 21
13.71088815037384
 31
0.0
  0
LINE
  5
88
330
7F
100
AcDbEntity
  8
중심선
100
AcDbLine
 10
2.750260043222114
 20
10.84717430164391
 30
0.0
 11
6.196535287059397
 21
10.84717430164391
 31
0.0
  0
LINE
  5
89
330
7F
100
AcDbEntity
  8
중심선
100
AcDbLine
 10
12.29416204261559
 20
16.24717430164393
 30
0.0
 11
5.245725140726316
 21
7.84717430164391
 31
0.0
  0
LINE
  5
8A
330
7F
100
AcDbEntity
  8
중심선
100
AcDbLine
 10
10.72767329541681
 20
16.24717430164393
 30
0.0
 11
6.196535287059397
 21
10.84717430164391
 31
0.0
  0
LINE
  5
8B
330
7F
100
AcDbEntity
  8
중심선
100
AcDbLine
 10
7.28139805157953
 20
16.24717430164393
 30
0.0
 11
2.750260043222114
 21
10.84717430164391
 31
0.0
  0
LINE
  5
8C
330
7F
100
AcDbEntity
  8
중심선
100
AcDbLine
 10
5.714909304380834
 20
16.24717430164393
 30
0.0
 11
3.58671253028996
 21
13.71088815037384
 31
0.0
  0
LINE
  5
8D
330
7F
100
AcDbEntity
  8
중심선
100
AcDbLine
 10
2.268634060543552
 20
16.24717430164393
 30
0.0
 11
0.1404042013395286
 21
13.71084872107135
 31
0.0
  0
LINE
  5
8E
330
7F
100
AcDbEntity
  8
중심선
100
AcDbLine
 10
7.28139805157953
 20
16.24717430164393
 30
0.0
 11
10.72767329541681
 21
16.24717430164393
 31
0.0
  0
LINE
  5
8F
330
7F
100
AcDbEntity
  8
중심선
100
AcDbLine
 10
12.29416204261559
 20
16.24717430164393
 30
0.0
 11
15.74043728645272
 21
16.24717430164393
 31
0.0
  0
LINE
  5
90
330
7F
100
AcDbEntity
  8
중심선
100
AcDbLine
 10
19.22036997980202
 20
11.08717430171403
 30
0.0
 11
23.66174974927406
 21
11.08717430171406
 31
0.0
  0
LINE
  5
91
330
7F
100
AcDbEntity
  8
중심선
100
AcDbLine
 10
19.22039502424796
 20
13.00717430171391
 30
0.0
 11
19.22036997980202
 21
11.08717430171403
 31
0.0
  0
LINE
  5
92
330
7F
100
AcDbEntity
  8
중심선
100
AcDbLine
 10
19.22039502424796
 20
13.00717430171391
 30
0.0
 11
26.96566020931264
 21
13.00717430171391
 31
0.0
  0
LINE
  5
93
330
7F
100
AcDbEntity
  8
중심선
100
AcDbLine
 10
22.22332737316547
 20
13.45928029700563
 30
0.0
 11
24.52862924686651
 21
15.39360700705356
 31
0.0
  0
ATTDEF
  5
95
330
7F
100
AcDbEntity
  8
FORMAT
 62
     2
100
AcDbText
 10
3.448148490846466
 20
2.075366912832191
 30
0.0
 40
4.233333333333333
  1
EM813080
 41
0.75
  7
SLDTEXTSTYLE0
 11
3.448148490846466
 21
-0.0412997538344756
 31
0.0
100
AcDbAttributeDefinition
  3

  2
AUTOATTR0
 70
     0
 74
     1
  0
ENDBLK
  5
81
330
7F
100
AcDbEntity
  8
0
100
AcDbBlockEnd
  0
BLOCK
  5
C8
330
C7
100
AcDbEntity
  8
0
100
AcDbBlockBegin
  2
_D
 70
     0
 10
0.0
 20
0.0
 30
0.0
  3
_D
  1
_D
  0
LINE
  5
CA
330
C7
100
AcDbEntity
  8
치수문자_일반주서
 62
     0
370
    -2
100
AcDbLine
 10
25.51990102503685
 20
0.7507394440492144
 30
0.0
 11
25.51990102503685
 21
14.72080268971681
 31
0.0
  0
LINE
  5
CB
330
C7
100
AcDbEntity
  8
치수문자_일반주서
 62
     0
370
    -2
100
AcDbLine
 10
11.51990102503686
 20
3.454305507970379
 30
0.0
 11
11.51990102503686
 21
14.72080268971681
 31
0.0
  0
LINE
  5
CC
330
C7
100
AcDbEntity
  8
치수문자_일반주서
 62
     0
370
    -2
100
AcDbLine
 10
22.21790102503685
 20
14.72080268971681
 30
0.0
 11
14.82190102503686
 21
14.72080268971681
 31
0.0
  0
SOLID
  5
CD
330
C7
100
AcDbEntity
  8
치수문자_일반주서
 62
     0
100
AcDbTrace
 10
22.21790102503685
 20
14.17046935638347
 30
0.0
 11
22.21790102503685
 21
15.27113602305014
 31
0.0
 12
25.51990102503685
 22
14.72080268971681
 32
0.0
 13
25.51990102503685
 23
14.72080268971681
 33
0.0
  0
SOLID
  5
CE
330
C7
100
AcDbEntity
  8
치수문자_일반주서
 62
     0
100
AcDbTrace
 10
14.82190102503686
 20
15.27113602305014
 30
0.0
 11
14.82190102503686
 21
14.17046935638347
 31
0.0
 12
11.51990102503686
 22
14.72080268971681
 32
0.0
 13
11.51990102503686
 23
14.72080268971681
 33
0.0
  0
MTEXT
  5
CF
330
C7
100
AcDbEntity
  8
치수문자_일반주서
 62
     0
100
AcDbMText
 10
18.51990102503686
 20
19.09580268971681
 30
0.0
 40
3.5
 41
0.0
 71
     2
 72
     1
  1
\A1;14
  7
SLDTEXTSTYLE0
 73
     1
 44
1.0
  0
POINT
  5
D0
330
C7
100
AcDbEntity
  8
Defpoints
 62
     0
100
AcDbPoint
 10
25.51990102503685
 20
0.6882394440492144
 30
0.0
  0
POINT
  5
12B
330
C7
100
AcDbEntity
  8
Defpoints
 62
     0
100
AcDbPoint
 10
11.51990102503686
 20
3.391805507970379
 30
0.0
  0
POINT
  5
12C
330
C7
100
AcDbEntity
  8
Defpoints
 62
     0
100
AcDbPoint
 10
11.51990102503686
 20
14.72080268971681
 30
0.0
  0
ENDBLK
  5
C9
330
C7
100
AcDbEntity
  8
0
100
AcDbBlockEnd
  0
BLOCK
  5
D3
330
D2
100
AcDbEntity
  8
0
100
AcDbBlockBegin
  2
_D_1
 70
     0
 10
0.0
 20
0.0
 30
0.0
  3
_D_1
  1
_D_1
  0
LINE
  5
D5
330
D2
100
AcDbEntity
  8
치수문자_일반주서
 62
     0
370
    -2
100
AcDbLine
 10
25.51990102503685
 20
0.7507394440492144
 30
0.0
 11
25.51990102503685
 21
25.00000000000005
 31
0.0
  0
LINE
  5
D6
330
D2
100
AcDbEntity
  8
치수문자_일반주서
 62
     0
370
    -2
100
AcDbLine
 10
-74.48009897496313
 20
3.252499999999992
 30
0.0
 11
-74.48009897496313
 21
25.00000000000005
 31
0.0
  0
LINE
  5
D7
330
D2
100
AcDbEntity
  8
치수문자_일반주서
 62
     0
370
    -2
100
AcDbLine
 10
22.21790102503685
 20
25.00000000000005
 30
0.0
 11
-71.17809897496312
 21
25.00000000000005
 31
0.0
  0
SOLID
  5
D8
330
D2
100
AcDbEntity
  8
치수문자_일반주서
 62
     0
100
AcDbTrace
 10
22.21790102503685
 20
24.44966666666671
 30
0.0
 11
22.21790102503685
 21
25.55033333333338
 31
0.0
 12
25.51990102503685
 22
25.00000000000005
 32
0.0
 13
25.51990102503685
 23
25.00000000000005
 33
0.0
  0
SOLID
  5
D9
330
D2
100
AcDbEntity
  8
치수문자_일반주서
 62
     0
100
AcDbTrace
 10
-71.17809897496312
 20
25.55033333333338
 30
0.0
 11
-71.17809897496312
 21
24.44966666666671
 31
0.0
 12
-74.48009897496313
 22
25.00000000000005
 32
0.0
 13
-74.48009897496313
 23
25.00000000000005
 33
0.0
  0
MTEXT
  5
DA
330
D2
100
AcDbEntity
  8
치수문자_일반주서
 62
     0
100
AcDbMText
 10
-24.48009897496314
 20
29.37500000000005
 30
0.0
 40
3.5
 41
0.0
 71
     2
 72
     1
  1
\A1;100
  7
SLDTEXTSTYLE0
 73
     1
 44
1.0
  0
POINT
  5
12D
330
D2
100
AcDbEntity
  8
Defpoints
 62
     0
100
AcDbPoint
 10
25.51990102503685
 20
0.6882394440492144
 30
0.0
  0
POINT
  5
12E
330
D2
100
AcDbEntity
  8
Defpoints
 62
     0
100
AcDbPoint
 10
-74.48009897496313
 20
3.189999999999992
 30
0.0
  0
POINT
  5
12F
330
D2
100
AcDbEntity
  8
Defpoints
 62
     0
100
AcDbPoint
 10
-74.48009897496313
 20
25.00000000000005
 30
0.0
  0
ENDBLK
  5
D4
330
D2
100
AcDbEntity
  8
0
100
AcDbBlockEnd
  0
BLOCK
  5
DE
330
DD
100
AcDbEntity
  8
0
100
AcDbBlockBegin
  2
_D_2
 70
     0
 10
0.0
 20
0.0
 30
0.0
  3
_D_2
  1
_D_2
  0
LINE
  5
E0
330
DD
100
AcDbEntity
  8
치수문자_일반주서
 62
     0
370
    -2
100
AcDbLine
 10
-73.73259897496315
 20
3.999999999999967
 30
0.0
 11
-85.8536138805551
 21
3.999999999999923
 31
0.0
  0
LINE
  5
E1
330
DD
100
AcDbEntity
  8
치수문자_일반주서
 62
     0
370
    -2
100
AcDbLine
 10
-73.73259897496315
 20
-4.000000000000012
 30
0.0
 11
-85.85361388055507
 21
-4.000000000000056
 31
0.0
  0
LINE
  5
E2
330
DD
100
AcDbEntity
  8
치수문자_일반주서
 62
     0
370
    -2
100
AcDbLine
 10
-85.8536138805551
 20
3.999999999999923
 30
0.0
 11
-85.85361388055507
 21
-4.000000000000056
 31
0.0
  0
LINE
  5
E3
330
DD
100
AcDbEntity
  8
치수문자_일반주서
 62
     0
370
    -2
100
AcDbLine
 10
-85.85361388055512
 20
7.301999999999922
 30
0.0
 11
-85.85361388055513
 21
10.60399999999992
 31
0.0
  0
LINE
  5
E4
330
DD
100
AcDbEntity
  8
치수문자_일반주서
 62
     0
370
    -2
100
AcDbLine
 10
-85.85361388055506
 20
-7.302000000000056
 30
0.0
 11
-85.85361388055505
 21
-10.60400000000006
 31
0.0
  0
SOLID
  5
E5
330
DD
100
AcDbEntity
  8
치수문자_일반주서
 62
     0
100
AcDbTrace
 10
-86.40394721388844
 20
7.301999999999921
 30
0.0
 11
-85.30328054722179
 21
7.301999999999924
 31
0.0
 12
-85.8536138805551
 22
3.999999999999923
 32
0.0
 13
-85.8536138805551
 23
3.999999999999923
 33
0.0
  0
SOLID
  5
E6
330
DD
100
AcDbEntity
  8
치수문자_일반주서
 62
     0
100
AcDbTrace
 10
-85.30328054722173
 20
-7.302000000000054
 30
0.0
 11
-86.40394721388839
 21
-7.302000000000057
 31
0.0
 12
-85.85361388055507
 22
-4.000000000000056
 32
0.0
 13
-85.85361388055507
 23
-4.000000000000056
 33
0.0
  0
MTEXT
  5
E7
330
DD
100
AcDbEntity
  8
치수문자_일반주서
 62
     0
100
AcDbMText
 10
-90.22861388055509
 20
-0.0000000000000038
 30
0.0
 40
3.5
 41
0.0
 71
     2
 72
     1
  1
\A1;%%c8
  7
SLDTEXTSTYLE0
 11
-3.552713678800510E-15
 21
1.0
 31
0.0
 73
     1
 44
1.0
  0
POINT
  5
E8
330
DD
100
AcDbEntity
  8
Defpoints
 62
     0
100
AcDbPoint
 10
-73.67009897496315
 20
3.999999999999968
 30
0.0
  0
POINT
  5
130
330
DD
100
AcDbEntity
  8
Defpoints
 62
     0
100
AcDbPoint
 10
-73.67009897496315
 20
-4.000000000000012
 30
0.0
  0
POINT
  5
131
330
DD
100
AcDbEntity
  8
Defpoints
 62
     0
100
AcDbPoint
 10
-85.85361388055507
 20
-4.000000000000057
 30
0.0
  0
ENDBLK
  5
DF
330
DD
100
AcDbEntity
  8
0
100
AcDbBlockEnd
  0
BLOCK
  5
EB
330
EA
100
AcDbEntity
  8
0
100
AcDbBlockBegin
  2
_D_3
 70
     0
 10
0.0
 20
0.0
 30
0.0
  3
_D_3
  1
_D_3
  0
LINE
  5
ED
330
EA
100
AcDbEntity
  8
치수문자_일반주서
 62
     0
370
    -2
100
AcDbLine
 10
21.58240102503686
 20
3.999999999999992
 30
0.0
 11
38.02692698432058
 21
4.000000000000053
 31
0.0
  0
LINE
  5
EE
330
EA
100
AcDbEntity
  8
치수문자_일반주서
 62
     0
370
    -2
100
AcDbLine
 10
21.58240102503686
 20
-4.000000000000009
 30
0.0
 11
38.02692698432061
 21
-3.999999999999947
 31
0.0
  0
LINE
  5
EF
330
EA
100
AcDbEntity
  8
치수문자_일반주서
 62
     0
370
    -2
100
AcDbLine
 10
38.02692698432058
 20
4.000000000000053
 30
0.0
 11
38.02692698432061
 21
-3.999999999999947
 31
0.0
  0
LINE
  5
F0
330
EA
100
AcDbEntity
  8
치수문자_일반주서
 62
     0
370
    -2
100
AcDbLine
 10
38.02692698432057
 20
7.302000000000053
 30
0.0
 11
38.02692698432055
 21
10.60400000000005
 31
0.0
  0
LINE
  5
F1
330
EA
100
AcDbEntity
  8
치수문자_일반주서
 62
     0
370
    -2
100
AcDbLine
 10
38.02692698432062
 20
-7.301999999999946
 30
0.0
 11
38.02692698432064
 21
-10.60399999999995
 31
0.0
  0
SOLID
  5
F2
330
EA
100
AcDbEntity
  8
치수문자_일반주서
 62
     0
100
AcDbTrace
 10
37.47659365098723
 20
7.302000000000051
 30
0.0
 11
38.5772603176539
 21
7.302000000000055
 31
0.0
 12
38.02692698432058
 22
4.000000000000053
 32
0.0
 13
38.02692698432058
 23
4.000000000000053
 33
0.0
  0
SOLID
  5
F3
330
EA
100
AcDbEntity
  8
치수문자_일반주서
 62
     0
100
AcDbTrace
 10
38.57726031765396
 20
-7.301999999999945
 30
0.0
 11
37.47659365098729
 21
-7.301999999999948
 31
0.0
 12
38.02692698432061
 22
-3.999999999999947
 32
0.0
 13
38.02692698432061
 23
-3.999999999999947
 33
0.0
  0
MTEXT
  5
F4
330
EA
100
AcDbEntity
  8
치수문자_일반주서
 62
     0
100
AcDbMText
 10
33.6519269843206
 20
0.0000000000000281
 30
0.0
 40
3.5
 41
0.0
 71
     2
 72
     1
  1
\A1;%%c8
  7
SLDTEXTSTYLE0
 11
-3.552713678800501E-15
 21
1.0
 31
0.0
 73
     1
 44
1.0
  0
POINT
  5
128
330
EA
100
AcDbEntity
  8
Defpoints
 62
     0
100
AcDbPoint
 10
21.51990102503686
 20
3.999999999999992
 30
0.0
  0
POINT
  5
129
330
EA
100
AcDbEntity
  8
Defpoints
 62
     0
100
AcDbPoint
 10
21.51990102503686
 20
-4.000000000000009
 30
0.0
  0
POINT
  5
12A
330
EA
100
AcDbEntity
  8
Defpoints
 62
     0
100
AcDbPoint
 10
38.02692698432061
 20
-3.999999999999947
 30
0.0
  0
ENDBLK
  5
EC
330
EA
100
AcDbEntity
  8
0
100
AcDbBlockEnd
  0
BLOCK
  5
FD
330
FC
100
AcDbEntity
  8
0
100
AcDbBlockBegin
  2
SW_DOWELSYMBOL_0
 70
     0
 10
0.0
 20
0.0
 30
0.0
  3
SW_DOWELSYMBOL_0
  1
SW_DOWELSYMBOL_0
  0
CIRCLE
  5
FF
330
FC
100
AcDbEntity
  8
해칭선
 62
     0
100
AcDbCircle
 10
0.0
 20
0.0
 30
0.0
 40
3.000000000000001
  0
HATCH
  5
100
330
FC
100
AcDbEntity
  8
0
  6
Continuous
 62
     0
370
     0
100
AcDbHatch
 10
0.0
 20
0.0
 30
0.0
210
0.0
220
0.0
230
1.0
  2
SOLID
 70
     1
 71
     0
 91
        1
 92
        0
 93
        3
 72
     2
 10
0.0
 20
0.0
 40
3.000000000000001
 50
0.0
 51
90.0
 73
     1
 72
     1
 10
0.0
 20
3.000000000000001
 11
0.0
 21
0.0
 72
     1
 10
0.0
 20
0.0
 11
3.000000000000001
 21
0.0
 97
        0
 75
     0
 76
     1
 98
        1
 10
0.0
 20
0.0
  0
HATCH
  5
101
330
FC
100
AcDbEntity
  8
0
  6
Continuous
 62
     0
370
     0
100
AcDbHatch
 10
0.0
 20
0.0
 30
0.0
210
0.0
220
0.0
230
1.0
  2
SOLID
 70
     1
 71
     0
 91
        1
 92
        0
 93
        3
 72
     2
 10
0.0
 20
0.0
 40
3.000000000000001
 50
180.0
 51
270.0000000000007
 73
     1
 72
     1
 10
0.0
 20
-3.000000000000001
 11
0.0
 21
0.0
 72
     1
 10
0.0
 20
0.0
 11
-3.000000000000001
 21
0.0
 97
        0
 75
     0
 76
     1
 98
        1
 10
0.0
 20
0.0
  0
ENDBLK
  5
FE
330
FC
100
AcDbEntity
  8
0
100
AcDbBlockEnd
  0
ENDSEC
  0
SECTION
  2
ENTITIES
  0
LINE
  5
96
330
1F
100
AcDbEntity
  8
외형선
  6
Continuous
 62
     1
370
    15
100
AcDbLine
 10
20.72035009327492
 20
-4.000000000000009
 30
0.0
 11
21.51990102503686
 21
-4.000000000000009
 31
0.0
  0
ARC
  5
97
330
1F
100
AcDbEntity
  8
외형선
  6
Continuous
 62
     1
370
    15
100
AcDbCircle
 10
21.51990102503686
 20
-0.0000000000000085
 30
0.0
 40
4.000000000000004
100
AcDbArc
 50
270.0000000000007
 51
0.0
  0
ARC
  5
98
330
1F
100
AcDbEntity
  8
외형선
  6
Continuous
 62
     1
370
    15
100
AcDbCircle
 10
21.51990102503686
 20
-0.0000000000000085
 30
0.0
 40
4.000000000000004
100
AcDbArc
 50
0.0
 51
90.0
  0
LINE
  5
99
330
1F
100
AcDbEntity
  8
외형선
  6
Continuous
 62
     1
370
    15
100
AcDbLine
 10
21.51990102503686
 20
3.999999999999992
 30
0.0
 11
20.72035009327492
 21
3.999999999999992
 31
0.0
  0
LINE
  5
9A
330
1F
100
AcDbEntity
  8
외형선
  6
Continuous
370
    15
100
AcDbLine
 10
10.00022693631546
 20
3.999999999999992
 30
0.0
 11
-52.6301239749631
 21
3.999999999999984
 31
0.0
  0
LINE
  5
9B
330
1F
100
AcDbEntity
  8
외형선
  6
Continuous
370
    15
100
AcDbLine
 10
-73.67009897496314
 20
-4.000000000000019
 30
0.0
 11
10.00022693631546
 21
-4.000000000000009
 31
0.0
  0
LINE
  5
9C
330
1F
100
AcDbEntity
  8
외형선
  6
Continuous
370
    15
100
AcDbLine
 10
-73.67009897496314
 20
3.99999999999998
 30
0.0
 11
-74.48009897496314
 21
3.189999999999981
 31
0.0
  0
LINE
  5
9D
330
1F
100
AcDbEntity
  8
외형선
  6
Continuous
370
    15
100
AcDbLine
 10
-74.48009897496314
 20
-3.19000000000002
 30
0.0
 11
-73.67009897496314
 21
-4.00000000000002
 31
0.0
  0
SPLINE
  5
9E
330
1F
100
AcDbEntity
  8
외형선
  6
Continuous
 62
     1
370
    15
100
AcDbSpline
210
0.0
220
0.0
230
1.0
 70
     8
 71
     3
 72
    30
 73
    26
 74
     0
 42
0.000000001
 43
0.00000001
 40
0.0
 40
0.0
 40
0.0
 40
0.0
 40
0.0625000000000001
 40
0.0625000000000001
 40
0.1250000000000001
 40
0.1250000000000001
 40
0.2500000000000002
 40
0.2500000000000002
 40
0.3125000000000002
 40
0.3125000000000002
 40
0.3750000000000002
 40
0.3750000000000002
 40
0.5000000000000003
 40
0.5000000000000003
 40
0.5625000000000003
 40
0.5625000000000003
 40
0.6250000000000003
 40
0.6250000000000003
 40
0.7500000000000003
 40
0.7500000000000003
 40
0.8125000000000002
 40
0.8125000000000002
 40
0.8750000000000002
 40
0.8750000000000002
 40
1.0
 40
1.0
 40
1.0
 40
1.0
 10
21.51990102503687
 20
-1.672136634934207
 30
0.0
 10
21.31091470112649
 20
-1.562754266904227
 30
0.0
 10
21.10155026570554
 20
-1.451028980928272
 30
0.0
 10
20.6846191639397
 20
-1.224266131154109
 30
0.0
 10
20.47817298804339
 20
-1.109441331029724
 30
0.0
 10
19.85451363695919
 20
-0.7601398576128792
 30
0.0
 10
19.43377178060777
 20
-0.5209326809876138
 30
0.0
 10
18.81049552046628
 20
-0.161308734055936
 30
0.0
 10
18.60390517204858
 20
-0.0412782583603795
 30
0.0
 10
18.18680007150889
 20
0.199324041786278
 30
0.0
 10
17.97741253563365
 20
0.3196779404745113
 30
0.0
 10
17.35057736225432
 20
0.6786926554534218
 30
0.0
 10
16.93781683192186
 20
0.9146746913863484
 30
0.0
 10
16.31094565836526
 20
1.260756334780625
 30
0.0
 10
16.10156383296516
 20
1.374634772870249
 30
0.0
 10
15.68450534323017
 20
1.598044981245754
 30
0.0
 10
15.47795917074925
 20
1.707384009675212
 30
0.0
 10
14.85457558391136
 20
2.028692065979468
 30
0.0
 10
14.43383241294385
 20
2.233864886997348
 30
0.0
 10
13.81027660105077
 20
2.520614423896869
 30
0.0
 10
13.60379524378108
 20
2.612713619316458
 30
0.0
 10
13.18681497815817
 20
2.790171772563199
 30
0.0
 10
12.97744353796102
 20
2.875352183662343
 30
0.0
 10
12.35051670874651
 20
3.118661424868722
 30
0.0
 10
11.93774983691058
 20
3.264167843532355
 30
0.0
 10
11.51990102503767
 20
3.391805507969697
 30
0.0
  0
SPLINE
  5
9F
330
1F
100
AcDbEntity
  8
외형선
  6
Continuous
 62
     1
370
    15
100
AcDbSpline
210
0.0
220
0.0
230
1.0
 70
     8
 71
     3
 72
    14
 73
    10
 74
     0
 42
0.000000001
 43
0.00000001
 40
0.0
 40
0.0
 40
0.0
 40
0.0
 40
0.1275277877531902
 40
0.2550624109057748
 40
0.4312863352993561
 40
0.6075175446982677
 40
0.783707262937473
 40
0.9598070153244508
 40
1.0
 40
1.0
 40
1.0
 40
1.0
 10
24.44907332747449
 20
0.4191389007323377
 30
0.0
 10
23.98101279769454
 20
0.5993734583378376
 30
0.0
 10
23.04486665042068
 20
0.9598522339938874
 30
0.0
 10
21.46208801618594
 20
1.520104827361787
 30
0.0
 10
19.69968111029511
 20
2.054876120554176
 30
0.0
 10
17.75888895424094
 20
2.485787583698154
 30
0.0
 10
15.81858659476826
 20
2.713865763396518
 30
0.0
 10
14.37760895153071
 20
2.751899595516392
 30
0.0
 10
13.58377252852478
 20
2.686273171668566
 30
0.0
 10
13.43625645554842
 20
2.674078024092879
 30
0.0
  0
SPLINE
  5
A0
330
1F
100
AcDbEntity
  8
외형선
  6
Continuous
 62
     1
370
    15
100
AcDbSpline
210
0.0
220
0.0
230
1.0
 70
     8
 71
     3
 72
    26
 73
    22
 74
     0
 42
0.000000001
 43
0.00000001
 40
0.0
 40
0.0
 40
0.0
 40
0.0
 40
0.125000000000001
 40
0.125000000000001
 40
0.2500000000000021
 40
0.2500000000000021
 40
0.3750000000000031
 40
0.3750000000000031
 40
0.4375000000000033
 40
0.4375000000000033
 40
0.5000000000000034
 40
0.5000000000000034
 40
0.6250000000000029
 40
0.6250000000000029
 40
0.6875000000000024
 40
0.6875000000000024
 40
0.7500000000000019
 40
0.7500000000000019
 40
0.875000000000001
 40
0.875000000000001
 40
1.0
 40
1.0
 40
1.0
 40
1.0
 10
21.51990102503686
 20
-1.672136634934231
 30
0.0
 10
21.74215264402262
 20
-1.788461990241134
 30
0.0
 10
21.96078339679598
 20
-1.892780442820746
 30
0.0
 10
22.39637581326691
 20
-2.06960994895722
 30
0.0
 10
22.61623820848065
 20
-2.141840098114035
 30
0.0
 10
23.05065691114428
 20
-2.23445350484171
 30
0.0
 10
23.26358922039222
 20
-2.255450479227924
 30
0.0
 10
23.58357024129312
 20
-2.231713301744473
 30
0.0
 10
23.6883693441314
 20
-2.214502727980527
 30
0.0
 10
23.89403880026454
 20
-2.158131661778794
 30
0.0
 10
23.9962109315056
 20
-2.118342394756457
 30
0.0
 10
24.29049102711683
 20
-1.959518205379247
 30
0.0
 10
24.47290723901545
 20
-1.798745318029884
 30
0.0
 10
24.68089078774124
 20
-1.478586295185883
 30
0.0
 10
24.73661765258776
 20
-1.363236914242474
 30
0.0
 10
24.81904492036519
 20
-1.119458743489673
 30
0.0
 10
24.84428769051468
 20
-0.9950247642266886
 30
0.0
 10
24.87587922018083
 20
-0.6240084314539394
 30
0.0
 10
24.83787672573883
 20
-0.3908391835946174
 30
0.0
 10
24.69091289929807
 20
0.0361966288682615
 30
0.0
 10
24.58209142437547
 20
0.2322398726107745
 30
0.0
 10
24.44907332746697
 20
0.4191389007352557
 30
0.0
  0
SPLINE
  5
A1
330
1F
100
AcDbEntity
  8
외형선
  6
Continuous
 62
     1
370
    15
100
AcDbSpline
210
0.0
220
0.0
230
1.0
 70
     8
 71
     3
 72
    14
 73
    10
 74
     0
 42
0.000000001
 43
0.00000001
 40
0.0
 40
0.0
 40
0.0
 40
0.0
 40
0.1520863118547554
 40
0.3041819744133495
 40
0.456345577573503
 40
0.6086331842602535
 40
0.7681223178604647
 40
0.9275382629998488
 40
1.0
 40
1.0
 40
1.0
 40
1.0
 10
11.51990102503672
 20
-0.9617636432784727
 30
0.0
 10
11.98626108468316
 20
-1.219432763023711
 30
0.0
 10
12.91900987713372
 20
-1.734786844752701
 30
0.0
 10
14.31835554117861
 20
-2.427042497965104
 30
0.0
 10
15.71842268234333
 20
-3.022786471567254
 30
0.0
 10
17.14150241152301
 20
-3.504589375518761
 30
0.0
 10
18.58674948365719
 20
-3.834021746534316
 30
0.0
 10
19.78703232520823
 20
-3.998416937667658
 30
0.0
 10
20.49813166741871
 20
-3.982710399256561
 30
0.0
 10
20.72035009327492
 20
-3.977802108622351
 30
0.0
  0
LINE
  5
A2
330
1F
100
AcDbEntity
  8
외형선
  6
Continuous
 62
     1
370
    15
100
AcDbLine
 10
11.51990102503681
 20
-0.96176364327851
 30
0.0
 11
11.51990102503686
 21
3.39180550794967
 31
0.0
  0
SPLINE
  5
A3
330
1F
100
AcDbEntity
  8
외형선
  6
Continuous
 62
     1
370
    15
100
AcDbSpline
210
0.0
220
0.0
230
1.0
 70
     8
 71
     3
 72
    10
 73
     6
 74
     0
 42
0.000000001
 43
0.00000001
 40
0.0
 40
0.0
 40
0.0
 40
0.0
 40
0.3199938655031668
 40
0.6602617396381241
 40
1.0
 40
1.0
 40
1.0
 40
1.0
 10
14.98918362019467
 20
-2.694358791326756
 30
0.0
 10
14.61904340178351
 20
-2.705680198947646
 30
0.0
 10
13.85531180919844
 20
-2.729040310177173
 30
0.0
 10
12.69893060984608
 20
-2.631269920371853
 30
0.0
 10
11.91270677329868
 20
-2.512242395563023
 30
0.0
 10
11.51990102503686
 20
-2.452774984664364
 30
0.0
  0
SPLINE
  5
A4
330
1F
100
AcDbEntity
  8
외형선
  6
Continuous
 62
     1
370
    15
100
AcDbSpline
210
0.0
220
0.0
230
1.0
 70
    24
 71
     3
 72
    15
 73
    11
 74
     0
 42
0.000000001
 43
0.00000001
 40
0.0
 40
0.0
 40
0.0
 40
0.0
 40
0.002368095626593
 40
0.1546739145124014
 40
0.30697973339821
 40
0.4592855522839445
 40
0.6115913711696789
 40
0.7638971900554122
 40
0.9162030089411454
 40
1.0
 40
1.0
 40
1.0
 40
1.0
 10
11.51990102503686
 20
-0.9308424555110392
 30
0.0
 10
11.51990102503686
 20
-0.9307383448727503
 30
0.0
 10
11.51990102503686
 20
-0.9239382816549927
 30
0.0
 10
11.51990102503686
 20
-0.9984769398167503
 30
0.0
 10
11.51990102503686
 20
-1.124662765119008
 30
0.0
 10
11.51990102503686
 20
-1.328676673296496
 30
0.0
 10
11.51990102503686
 20
-1.585142072613543
 30
0.0
 10
11.51990102503686
 20
-1.893921434968816
 30
0.0
 10
11.51990102503686
 20
-2.189596219753552
 30
0.0
 10
11.51990102503686
 20
-2.383835933933684
 30
0.0
 10
11.51990102503686
 20
-2.452774984664367
 30
0.0
  0
SPLINE
  5
A5
330
1F
100
AcDbEntity
  8
외형선
  6
Continuous
 62
     1
370
    15
100
AcDbSpline
210
0.0
220
0.0
230
1.0
 70
     8
 71
     3
 72
    12
 73
     8
 74
     0
 42
0.000000001
 43
0.00000001
 40
0.0
 40
0.0
 40
0.0
 40
0.0
 40
0.2500000000000001
 40
0.2500000000000001
 40
0.5000000000000001
 40
0.5000000000000001
 40
1.0
 40
1.0
 40
1.0
 40
1.0
 10
24.44907332746696
 20
0.4191389007352604
 30
0.0
 10
24.49507373084545
 20
0.446880198773797
 30
0.0
 10
24.53605260467673
 20
0.4812609254167471
 30
0.0
 10
24.60793126758573
 20
0.5636922690512733
 30
0.0
 10
24.63906674161439
 20
0.612524947174408
 30
0.0
 10
24.71272667089556
 20
0.7730085400333334
 30
0.0
 10
24.73704237254428
 20
0.9019097584305374
 30
0.0
 10
24.73928729972744
 20
1.035962122127742
 30
0.0
  0
ARC
  5
A6
330
1F
100
AcDbEntity
  8
외형선
  6
Continuous
 62
     1
370
    15
100
AcDbCircle
 10
23.6061623598853
 20
-0.6953331102681817
 30
0.0
 40
2.069143617782303
100
AcDbArc
 50
23.84126280044413
 51
56.79543343399524
  0
ARC
  5
A7
330
1F
100
AcDbEntity
  8
외형선
  6
Continuous
 62
     1
370
    15
100
AcDbCircle
 10
21.92246448600159
 20
0.0742290935616246
 30
0.0
 40
3.576902704822922
100
AcDbArc
 50
1.069988996802077
 51
71.15670380559739
  0
SPLINE
  5
A8
330
1F
100
AcDbEntity
  8
외형선
  6
Continuous
 62
     1
370
    15
100
AcDbSpline
210
0.0
220
0.0
230
1.0
 70
     8
 71
     3
 72
    10
 73
     6
 74
     0
 42
0.000000001
 43
0.00000001
 40
0.0
 40
0.0
 40
0.0
 40
0.0
 40
0.5
 40
0.5
 40
1.0
 40
1.0
 40
1.0
 40
1.0
 10
23.07773591686006
 20
3.459429365452742
 30
0.0
 10
22.83006875099542
 20
3.610314216318152
 30
0.0
 10
22.57504001424463
 20
3.728876472332538
 30
0.0
 10
22.05562321067257
 20
3.901456660657742
 30
0.0
 10
21.78823303049651
 20
3.955586292474359
 30
0.0
 10
21.51990102503717
 20
3.973389487679865
 30
0.0
  0
SPLINE
  5
A9
330
1F
100
AcDbEntity
  8
외형선
  6
Continuous
 62
     1
370
    15
100
AcDbSpline
210
0.0
220
0.0
230
1.0
 70
     8
 71
     3
 72
     8
 73
     4
 74
     0
 42
0.000000001
 43
0.00000001
 40
0.0
 40
0.0
 40
0.0
 40
0.0
 40
1.0
 40
1.0
 40
1.0
 40
1.0
 10
22.26596818496377
 20
1.790603271856331
 30
0.0
 10
23.07911089729652
 20
1.564628128510683
 30
0.0
 10
23.90816879913097
 20
1.309975097417219
 30
0.0
 10
24.73928729972745
 20
1.035962122127775
 30
0.0
  0
SPLINE
  5
AA
330
1F
100
AcDbEntity
  8
외형선
  6
Continuous
 62
     1
370
    15
100
AcDbSpline
210
0.0
220
0.0
230
1.0
 70
     8
 71
     3
 72
    12
 73
     8
 74
     0
 42
0.000000001
 43
0.00000001
 40
0.0103991020546241
 40
0.0103991020546241
 40
0.0103991020546241
 40
0.0103991020546241
 40
0.1116222510309068
 40
0.3261756547666302
 40
0.5508750719895552
 40
0.7754713762033107
 40
1.0
 40
1.0
 40
1.0
 40
1.0
 10
15.05708969886396
 20
2.723889915821823
 30
0.0
 10
15.27741868089295
 20
2.81965944347025
 30
0.0
 10
15.96476399572173
 20
3.116258885499116
 30
0.0
 10
17.14150914948781
 20
3.499889781435519
 30
0.0
 10
18.58674925093936
 20
3.839203173107613
 30
0.0
 10
20.05355893957742
 20
4.01905514353727
 30
0.0
 10
21.0311694365517
 20
3.98860984365801
 30
0.0
 10
21.51990102503687
 20
3.973389487679887
 30
0.0
  0
SPLINE
  5
AB
330
1F
100
AcDbEntity
  8
외형선
  6
Continuous
 62
     1
370
    15
100
AcDbSpline
210
0.0
220
0.0
230
1.0
 70
     8
 71
     3
 72
    18
 73
    14
 74
     0
 42
0.000000001
 43
0.00000001
 40
0.0
 40
0.0
 40
0.0
 40
0.0
 40
0.2500000000000003
 40
0.2500000000000003
 40
0.3750000000000001
 40
0.3750000000000001
 40
0.5
 40
0.5
 40
0.6249999999999998
 40
0.6249999999999998
 40
0.7499999999999996
 40
0.7499999999999996
 40
1.0
 40
1.0
 40
1.0
 40
1.0
 10
23.07773591686009
 20
3.459429365452741
 30
0.0
 10
23.10616437064479
 20
3.291521616424018
 30
0.0
 10
23.11894103322357
 20
3.120596437066786
 30
0.0
 10
23.10030557541853
 20
2.860965961877224
 30
0.0
 10
23.08779941675204
 20
2.775861014089045
 30
0.0
 10
23.04800558449671
 20
2.609029369572124
 30
0.0
 10
23.02021455618494
 20
2.526352209282746
 30
0.0
 10
22.94963456215092
 20
2.371202073345578
 30
0.0
 10
22.9070344552825
 20
2.298509285815646
 30
0.0
 10
22.80697159552944
 20
2.163050183461217
 30
0.0
 10
22.74915330537068
 20
2.100289420918666
 30
0.0
 10
22.56262893319983
 20
1.934716917591312
 30
0.0
 10
22.41695835116972
 20
1.850667479736193
 30
0.0
 10
22.26596818496377
 20
1.790603271856333
 30
0.0
  0
SPLINE
  5
AC
330
1F
100
AcDbEntity
  8
외형선
  6
Continuous
 62
     1
370
    15
100
AcDbSpline
210
0.0
220
0.0
230
1.0
 70
     8
 71
     3
 72
    11
 73
     7
 74
     0
 42
0.000000001
 43
0.00000001
 40
0.0132585553497202
 40
0.0132585553497202
 40
0.0132585553497202
 40
0.0132585553497202
 40
0.0781044203575287
 40
0.3840910876351581
 40
0.6917617821667938
 40
1.0
 40
1.0
 40
1.0
 40
1.0
 10
13.4263248754722
 20
-2.686551294599442
 30
0.0
 10
13.38458704723343
 20
-2.704939403924697
 30
0.0
 10
13.14588823860941
 20
-2.809773046756118
 30
0.0
 10
12.70830451267711
 20
-2.981736644521602
 30
0.0
 10
12.11501223184227
 20
-3.202629397084212
 30
0.0
 10
11.71839324754634
 20
-3.328708079680951
 30
0.0
 10
11.51990102503767
 20
-3.391805507969758
 30
0.0
  0
SPLINE
  5
AD
330
1F
100
AcDbEntity
  8
외형선
  6
Continuous
 62
     1
370
    15
100
AcDbSpline
210
0.0
220
0.0
230
1.0
 70
    24
 71
     3
 72
    14
 73
    10
 74
     0
 42
0.000000001
 43
0.00000001
 40
0.0
 40
0.0
 40
0.0
 40
0.0
 40
0.0702526997467998
 40
0.2248146094752123
 40
0.3739468530984037
 40
0.5241145477886183
 40
0.6775479978695915
 40
0.8321099075980022
 40
1.0
 40
1.0
 40
1.0
 40
1.0
 10
11.51990102503686
 20
-2.452774984664365
 30
0.0
 10
11.51990102503686
 20
-2.466811803293412
 30
0.0
 10
11.51990102503686
 20
-2.511730815797374
 30
0.0
 10
11.51990102503686
 20
-2.604387784873965
 30
0.0
 10
11.51990102503686
 20
-2.728843380106395
 30
0.0
 10
11.51990102503686
 20
-2.868295536320395
 30
0.0
 10
11.51990102503687
 20
-3.023190518009488
 30
0.0
 10
11.51990102503686
 20
-3.196736540909194
 30
0.0
 10
11.51990102503686
 20
-3.325015103319178
 30
0.0
 10
11.51990102503686
 20
-3.391805507949686
 30
0.0
  0
SPLINE
  5
AE
330
1F
100
AcDbEntity
  8
외형선
  6
Continuous
 62
     1
370
    15
100
AcDbSpline
210
0.0
220
0.0
230
1.0
 70
    24
 71
     3
 72
    14
 73
    10
 74
     0
 42
0.000000001
 43
0.00000001
 40
0.0
 40
0.0
 40
0.0
 40
0.0
 40
0.0881740330402081
 40
0.2543823260489678
 40
0.4159064096896258
 40
0.5821147026982811
 40
0.7436387863389381
 40
0.9098470793475928
 40
1.0
 40
1.0
 40
1.0
 40
1.0
 10
11.51990102503686
 20
-0.9617636432785505
 30
0.0
 10
11.51990102503686
 20
-0.972470098314815
 30
0.0
 10
11.51990102503686
 20
-1.003358250324622
 30
0.0
 10
11.51990102503686
 20
-1.127533153044152
 30
0.0
 10
11.51990102503686
 20
-1.326001461425418
 30
0.0
 10
11.51990102503686
 20
-1.582933538227838
 30
0.0
 10
11.51990102503686
 20
-1.89194478741008
 30
0.0
 10
11.51990102503686
 20
-2.187847147388058
 30
0.0
 10
11.51990102503686
 20
-2.383848450571018
 30
0.0
 10
11.51990102503686
 20
-2.452774984664367
 30
0.0
  0
SPLINE
  5
AF
330
1F
100
AcDbEntity
  8
외형선
  6
Continuous
370
    15
100
AcDbSpline
210
0.0
220
0.0
230
1.0
 70
     8
 71
     3
 72
    10
 73
     6
 74
     0
 42
0.000000001
 43
0.00000001
 40
0.0
 40
0.0
 40
0.0
 40
0.0
 40
0.5
 40
0.5
 40
1.0
 40
1.0
 40
1.0
 40
1.0
 10
11.51990102503686
 20
-2.452774984664363
 30
0.0
 10
11.26585166698148
 20
-2.409409842553885
 30
0.0
 10
11.01110619856211
 20
-2.36106218574123
 30
0.0
 10
10.50481139492483
 20
-2.255306975455364
 30
0.0
 10
10.25389885312644
 20
-2.197973269280592
 30
0.0
 10
10.00022693631546
 20
-2.136141785370544
 30
0.0
  0
SPLINE
  5
B0
330
1F
100
AcDbEntity
  8
외형선
  6
Continuous
370
    15
100
AcDbSpline
210
0.0
220
0.0
230
1.0
 70
     8
 71
     3
 72
    10
 73
     6
 74
     0
 42
0.000000001
 43
0.00000001
 40
0.0
 40
0.0
 40
0.0
 40
0.0
 40
0.5
 40
0.5
 40
1.0
 40
1.0
 40
1.0
 40
1.0
 10
11.51990102503678
 20
-0.961763643278508
 30
0.0
 10
11.26581378803706
 20
-0.8196372172610635
 30
0.0
 10
11.01103023409563
 20
-0.6754432811034541
 30
0.0
 10
10.5046608928318
 20
-0.3855301571442402
 30
0.0
 10
10.2537104322857
 20
-0.2399388254652718
 30
0.0
 10
10.00000000000001
 20
-0.0936294228901017
 30
0.0
  0
LINE
  5
B1
330
1F
100
AcDbEntity
  8
외형선
  6
Continuous
370
    15
100
AcDbLine
 10
10.00022693631546
 20
3.771861883773517
 30
0.0
 11
10.00022693631546
 21
3.999999999999992
 31
0.0
  0
SPLINE
  5
B2
330
1F
100
AcDbEntity
  8
외형선
  6
Continuous
370
    15
100
AcDbSpline
210
0.0
220
0.0
230
1.0
 70
     8
 71
     3
 72
    10
 73
     6
 74
     0
 42
0.000000001
 43
0.00000001
 40
0.0
 40
0.0
 40
0.0
 40
0.0
 40
0.5
 40
0.5
 40
1.0
 40
1.0
 40
1.0
 40
1.0
 10
11.51990102503726
 20
3.391805507970314
 30
0.0
 10
11.26585166698182
 20
3.469408377220225
 30
0.0
 10
11.01110619856238
 20
3.540245673281435
 30
0.0
 10
10.50481139492497
 20
3.66716246908075
 30
0.0
 10
10.25389885312651
 20
3.723235024147515
 30
0.0
 10
10.00022693631546
 20
3.771938176795013
 30
0.0
  0
SPLINE
  5
B3
330
1F
100
AcDbEntity
  8
외형선
  6
Continuous
370
    15
100
AcDbSpline
210
0.0
220
0.0
230
1.0
 70
     8
 71
     3
 72
    10
 73
     6
 74
     0
 42
0.000000001
 43
0.00000001
 40
0.0
 40
0.0
 40
0.0
 40
0.0
 40
0.5
 40
0.5
 40
1.0
 40
1.0
 40
1.0
 40
1.0
 10
11.51990102503726
 20
-3.391805507970331
 30
0.0
 10
11.26585166698182
 20
-3.469408377220243
 30
0.0
 10
11.01110619856239
 20
-3.540245673281452
 30
0.0
 10
10.50481139492497
 20
-3.667162469080767
 30
0.0
 10
10.25389885312652
 20
-3.723235024147533
 30
0.0
 10
10.00022693631546
 20
-3.771938176795031
 30
0.0
  0
LINE
  5
B4
330
1F
100
AcDbEntity
  8
외형선
  6
Continuous
370
    15
100
AcDbLine
 10
-73.67009897496314
 20
3.999999999999981
 30
0.0
 11
-73.67009897496314
 21
-4.000000000000019
 31
0.0
  0
LINE
  5
B5
330
1F
100
AcDbEntity
  8
외형선
  6
Continuous
370
    15
100
AcDbLine
 10
10.00022693631546
 20
-4.000000000000009
 30
0.0
 11
10.00022693631546
 21
-0.0934239296100496
 31
0.0
  0
LINE
  5
B6
330
1F
100
AcDbEntity
  8
외형선
  6
Continuous
370
    15
100
AcDbLine
 10
-74.48009897496314
 20
3.189999999999982
 30
0.0
 11
-74.48009897496314
 21
-3.190000000000023
 31
0.0
  0
SPLINE
  5
B7
330
1F
100
AcDbEntity
  8
외형선
  6
Continuous
 62
     1
370
    15
100
AcDbSpline
210
0.0
220
0.0
230
1.0
 70
    24
 71
     3
 72
    14
 73
    10
 74
     0
 42
0.000000001
 43
0.00000001
 40
0.0
 40
0.0
 40
0.0
 40
0.0
 40
0.0702526997468022
 40
0.2248146094752135
 40
0.3739468530984049
 40
0.5241145477886197
 40
0.6775479978695933
 40
0.8321099075980035
 40
1.0
 40
1.0
 40
1.0
 40
1.0
 10
11.51990102503686
 20
-2.452774984664364
 30
0.0
 10
11.51990102503686
 20
-2.466811803293412
 30
0.0
 10
11.51990102503686
 20
-2.511730815797374
 30
0.0
 10
11.51990102503686
 20
-2.604387784873968
 30
0.0
 10
11.51990102503686
 20
-2.728843380106396
 30
0.0
 10
11.51990102503686
 20
-2.868295536320395
 30
0.0
 10
11.51990102503686
 20
-3.023190518009491
 30
0.0
 10
11.51990102503686
 20
-3.196736540909195
 30
0.0
 10
11.51990102503686
 20
-3.325015103319178
 30
0.0
 10
11.51990102503686
 20
-3.391805507949686
 30
0.0
  0
SPLINE
  5
B8
330
1F
100
AcDbEntity
  8
외형선
  6
Continuous
 62
     1
370
    15
100
AcDbSpline
210
0.0
220
0.0
230
1.0
 70
    24
 71
     3
 72
     8
 73
     4
 74
     0
 42
0.000000001
 43
0.00000001
 40
0.0
 40
0.0
 40
0.0
 40
0.0
 40
1.0
 40
1.0
 40
1.0
 40
1.0
 10
11.51990102503686
 20
0.961763643277499
 30
0.0
 10
11.51990102503686
 20
0.9219800568135009
 30
0.0
 10
11.51990102503686
 20
0.9111310105112306
 30
0.0
 10
11.51990102503686
 20
0.9305405210128681
 30
0.0
  0
LINE
  5
B9
330
1F
100
AcDbEntity
  8
중심선
 62
     1
100
AcDbLine
 10
-77.48009897496314
 20
-0.0000000000000107
 30
0.0
 11
28.66420365763082
 21
0.0000000000000006
 31
0.0
  0
LINE
  5
BA
330
1F
100
AcDbEntity
  8
참조1
100
AcDbLine
 10
-34.40192378864671
 20
0.0010749287238892
 30
0.0
 11
-34.4019237886467
 21
-39.99892507127611
 31
0.0
  0
LINE
  5
BB
330
1F
100
AcDbEntity
  8
참조1
100
AcDbLine
 10
22.59807621135331
 20
0.0010749287238892
 30
0.0
 11
22.59807621135331
 21
0.6893143727731179
 31
0.0
  0
LINE
  5
BC
330
1F
100
AcDbEntity
  8
참조1
100
AcDbLine
 10
-34.4019237886467
 20
-39.99892507127611
 30
0.0
 11
-42.56078060295538
 21
-39.9989250712761
 31
0.0
  0
CIRCLE
  5
BD
330
1F
100
AcDbEntity
  8
해칭선
100
AcDbCircle
 10
0.0
 20
0.0
 30
0.0
 40
3.000000000000001
  0
INSERT
  5
BE
330
1F
100
AcDbEntity
  8
0
  6
Continuous
 62
     7
100
AcDbBlockReference
 66
     1
  2
블럭10
 10
-45.42037190708835
 20
-52.04717430164394
 30
0.0
  0
ATTRIB
  5
BF
330
BE
100
AcDbEntity
  8
FORMAT
 62
     2
100
AcDbText
 10
-55.56200791922498
 20
-49.97180738881175
 30
0.0
 40
4.233333333333333
  1
EM823080 [ 2 FLUTE ]
 41
0.75
  7
SLDTEXTSTYLE0
 11
-55.56200791922498
 21
-52.08847405547842
 31
0.0
100
AcDbAttribute
  2
AUTOATTR0
 70
     0
 74
     1
  0
SEQEND
  5
C0
330
BE
100
AcDbEntity
  8
0
  6
Continuous
 62
     7
  0
HATCH
  5
C1
330
1F
100
AcDbEntity
  8
중심선
100
AcDbHatch
 10
0.0
 20
0.0
 30
0.0
210
0.0
220
0.0
230
1.0
  2
SOLID
 70
     1
 71
     0
 91
        1
 92
        0
 93
        4
 72
     1
 10
-39.70546260270752
 20
-35.8
 11
-43.1517378465448
 21
-35.8
 72
     1
 10
-43.1517378465448
 20
-35.8
 11
-45.27996770574882
 21
-38.33632558057261
 72
     1
 10
-45.27996770574882
 20
-38.33632558057261
 11
-41.83365937679839
 21
-38.33628615127012
 72
     1
 10
-41.83365937679839
 20
-38.33628615127012
 11
-39.70546260270752
 21
-35.8
 97
        0
 75
     0
 76
     1
 98
        1
 10
2.921824813683557
 20
-0.0010749287239
  0
HATCH
  5
C2
330
1F
100
AcDbEntity
  8
중심선
100
AcDbHatch
 10
0.0
 20
0.0
 30
0.0
210
0.0
220
0.0
230
1.0
  2
SOLID
 70
     1
 71
     0
 91
        1
 92
        0
 93
        4
 72
     1
 10
-34.69269861167151
 20
-35.79999999999998
 11
-38.13897385550882
 21
-35.8
 72
     1
 10
-38.13897385550882
 20
-35.8
 11
-42.67011186386624
 21
-41.20000000000002
 72
     1
 10
-42.67011186386624
 20
-41.20000000000002
 11
-39.22383662002895
 21
-41.20000000000002
 72
     1
 10
-39.22383662002895
 20
-41.20000000000002
 11
-34.69269861167151
 21
-35.79999999999998
 97
        0
 75
     0
 76
     1
 98
        1
 10
2.921824813683557
 20
-0.0010749287239
  0
HATCH
  5
C3
330
1F
100
AcDbEntity
  8
중심선
100
AcDbHatch
 10
0.0
 20
0.0
 30
0.0
210
0.0
220
0.0
230
1.0
  2
SOLID
 70
     1
 71
     0
 91
        1
 92
        0
 93
        4
 72
     1
 10
-29.6799346206357
 20
-35.8
 11
-33.12620986447276
 21
-35.8
 72
     1
 10
-33.12620986447276
 20
-35.8
 11
-40.17464676636204
 21
-44.20000000000002
 72
     1
 10
-40.17464676636204
 20
-44.20000000000002
 11
-36.72837152252475
 21
-44.20000000000002
 72
     1
 10
-36.72837152252475
 20
-44.20000000000002
 11
-29.6799346206357
 21
-35.8
 97
        0
 75
     0
 76
     1
 98
        1
 10
2.921824813683557
 20
-0.0010749287239
  0
HATCH
  5
C4
330
1F
100
AcDbEntity
  8
중심선
100
AcDbHatch
 10
0.0
 20
0.0
 30
0.0
210
0.0
220
0.0
230
1.0
  2
SOLID
 70
     1
 71
     0
 91
        1
 92
        0
 93
        6
 72
     3
 10
-24.88004418962347
 20
-40.00000000005128
 11
3.960054785062283
 21
1.540882976769353E-10
 40
0.3939339440162628
 50
17.09539180608436
 51
320.0019657685083
 73
     0
 72
     1
 10
-23.1970445339229
 20
-38.58789400463834
 11
-20.89174266022184
 21
-36.65356729459039
 72
     3
 10
-24.88004418967632
 20
-40.00000000000016
 11
6.600054785286829
 21
-1.278976924368180E-13
 40
0.636358354079598
 50
39.99873849337408
 51
368.4976242363724
 73
     1
 72
     1
 10
-18.45471169777571
 20
-39.03999999993003
 11
-26.1999768828404
 21
-39.03999999993003
 72
     1
 10
-26.1999768828404
 20
-39.03999999993003
 11
-26.20000192728633
 21
-40.95999999992992
 72
     1
 10
-26.20000192728633
 20
-40.95999999992992
 11
-21.75862215781429
 21
-40.95999999992989
 97
        0
 75
     0
 76
     1
 98
        1
 10
2.921824813683557
 20
-0.0010749287239
  0
DIMENSION
  5
C5
330
1F
100
AcDbEntity
  8
치수문자_일반주서
100
AcDbDimension
  2
_D
 10
11.51990102503686
 20
14.72080268971681
 30
0.0
 11
18.51990102503686
 21
14.72080268971681
 31
0.0
 70
   160
  1
<>
 71
     2
 42
13.99999999999999
  3
SLDDIMSTYLE0
100
AcDbAlignedDimension
 13
25.51990102503685
 23
0.6882394440492144
 33
0.0
 14
11.51990102503686
 24
3.391805507970379
 34
0.0
 50
0.0000000000000073
100
AcDbRotatedDimension
  0
DIMENSION
  5
D1
330
1F
100
AcDbEntity
  8
치수문자_일반주서
100
AcDbDimension
  2
_D_1
 10
-74.48009897496313
 20
25.00000000000005
 30
0.0
 11
-24.48009897496314
 21
25.00000000000005
 31
0.0
 70
   160
  1
<>
 71
     2
 42
99.99999999999997
  3
SLDDIMSTYLE0
100
AcDbAlignedDimension
 13
25.51990102503685
 23
0.6882394440492144
 33
0.0
 14
-74.48009897496313
 24
3.189999999999992
 34
0.0
 50
0.0000000000000041
100
AcDbRotatedDimension
  0
DIMENSION
  5
DB
330
1F
100
AcDbEntity
  8
치수문자_일반주서
100
AcDbDimension
  2
_D_2
 10
-85.85361388055507
 20
-4.000000000000056
 30
0.0
 11
-85.85361388055509
 21
0.0000000000000116
 31
0.0
 70
   160
  1
%%c<>
 71
     2
 42
7.999999999999979
 52
-270.0
  3
SLDDIMSTYLE1
100
AcDbAlignedDimension
 13
-73.67009897496315
 23
3.999999999999968
 33
0.0
 14
-73.67009897496315
 24
-4.000000000000012
 34
0.0
 50
90.0000000000002
100
AcDbRotatedDimension
1001
ACAD_DSTYLE_DIMFLIPARROW_SYMBOL
1070
   385
1070
     0
1001
ACAD_DSTYLE_DIMFLIPARROW_WHICH_SYMBOL
1070
   386
1070
     3
  0
DIMENSION
  5
E9
330
1F
100
AcDbEntity
  8
치수문자_일반주서
100
AcDbDimension
  2
_D_3
 10
38.02692698432061
 20
-3.999999999999947
 30
0.0
 11
38.0269269843206
 21
0.0000000000000435
 31
0.0
 70
   160
  1
%%c<>
 71
     2
 42
8.0
 52
-270.0
  3
SLDDIMSTYLE0
100
AcDbAlignedDimension
 13
21.51990102503686
 23
3.999999999999992
 33
0.0
 14
21.51990102503686
 24
-4.000000000000009
 34
0.0
 50
90.0000000000002
100
AcDbRotatedDimension
1001
ACAD
1000
DSTYLE
1002
{
1070
   172
1070
     1
1002
}
  0
LINE
  5
F5
330
1F
100
AcDbEntity
  8
참조1
100
AcDbLine
 10
55.41156002669889
 20
7.441074928723896
 30
0.0
 11
55.41156002669889
 21
-7.438925071276109
 31
0.0
  0
LINE
  5
F6
330
1F
100
AcDbEntity
  8
참조1
100
AcDbLine
 10
68.1115600266989
 20
5.441074928723896
 30
0.0
 11
55.41156002669889
 21
5.441074928723896
 31
0.0
  0
SOLID
  5
F7
330
1F
100
AcDbEntity
  8
참조1
100
AcDbTrace
 10
55.41156002669889
 20
5.441074928723896
 30
0.0
 11
61.76156002669889
 21
4.425074928723896
 31
0.0
 12
61.76156002669889
 22
6.457074928723896
 32
0.0
 13
61.76156002669889
 23
6.457074928723896
 33
0.0
  0
LINE
  5
F8
330
1F
100
AcDbEntity
  8
참조1
100
AcDbLine
 10
68.1115600266989
 20
-5.438925071276109
 30
0.0
 11
55.41156002669889
 21
-5.438925071276109
 31
0.0
  0
SOLID
  5
F9
330
1F
100
AcDbEntity
  8
참조1
100
AcDbTrace
 10
55.41156002669889
 20
-5.438925071276109
 30
0.0
 11
61.76156002669889
 21
-6.454925071276109
 31
0.0
 12
61.76156002669889
 22
-4.422925071276109
 32
0.0
 13
61.76156002669889
 23
-4.422925071276109
 33
0.0
  0
MTEXT
  5
FA
330
1F
100
AcDbEntity
  8
참조1
100
AcDbMText
 10
64.80905011916917
 20
10.98929157337383
 30
0.0
 40
3.5
 41
0.0
 71
     1
 72
     1
  1
A
  7
SLDTEXTSTYLE0
 73
     1
 44
1.0
  0
MTEXT
  5
FB
330
1F
100
AcDbEntity
  8
참조1
100
AcDbMText
 10
64.80905011916917
 20
0.1092915733738259
 30
0.0
 40
3.5
 41
0.0
 71
     1
 72
     1
  1
A
  7
SLDTEXTSTYLE0
 73
     1
 44
1.0
  0
INSERT
  5
102
330
1F
100
AcDbEntity
  8
해칭선
100
AcDbBlockReference
  2
SW_DOWELSYMBOL_0
 10
0.0
 20
0.0
 30
0.0
  0
LINE
  5
1D9
330
1F
100
AcDbEntity
  8
외형선
  6
Continuous
370
    15
100
AcDbLine
 10
-52.63012397496307
 20
4.000000000000007
 30
0.0
 11
-53.73009897496316
 21
2.899994
 31
0.0
  0
LINE
  5
1DA
330
1F
100
AcDbEntity
  8
외형선
  6
Continuous
370
    15
100
AcDbLine
 10
-53.73009897496316
 20
2.899994
 30
0.0
 11
-59.23009897496316
 21
2.899994
 31
0.0
  0
LINE
  5
1DB
330
1F
100
AcDbEntity
  8
외형선
  6
Continuous
370
    15
100
AcDbLine
 10
-59.23009897496316
 20
2.899994
 30
0.0
 11
-60.33007497496313
 21
4.000000000000007
 31
0.0
  0
LINE
  5
1DC
330
1F
100
AcDbEntity
  8
외형선
  6
Continuous
370
    15
100
AcDbLine
 10
-60.33007497496311
 20
3.999999999999983
 30
0.0
 11
-73.67009897496314
 21
3.999999999999981
 31
0.0
  0
ENDSEC
  0
SECTION
  2
OBJECTS
  0
DICTIONARY
  5
C
330
0
100
AcDbDictionary
281
     1
  3
ACAD_GROUP
350
D
  3
ACAD_IMAGE_VARS
350
126
  3
ACAD_LAYOUT
350
1A
  3
ACAD_MLINESTYLE
350
17
  3
ACAD_PLOTSETTINGS
350
19
  3
ACAD_PLOTSTYLENAME
350
E
  3
ACAD_SCALELIST
350
47
  3
APPDATA
350
124
  3
DWGPROPS
350
1DD
  0
DICTIONARY
  5
1BC
330
2
100
AcDbDictionary
280
     1
281
     1
  3
ACAD_LAYERSTATES
360
1BD
  0
DICTIONARY
  5
D
102
{ACAD_REACTORS
330
C
102
}
330
C
100
AcDbDictionary
281
     1
  0
RASTERVARIABLES
  5
126
102
{ACAD_REACTORS
330
C
102
}
330
C
100
AcDbRasterVariables
 90
        0
 70
     1
 71
     1
 72
     1
  0
DICTIONARY
  5
1A
102
{ACAD_REACTORS
330
C
102
}
330
C
100
AcDbDictionary
281
     1
  3
Layout1
350
1E
  3
Layout2
350
26
  3
Model
350
22
  0
DICTIONARY
  5
17
102
{ACAD_REACTORS
330
C
102
}
330
C
100
AcDbDictionary
281
     1
  3
Standard
350
18
  0
DICTIONARY
  5
19
102
{ACAD_REACTORS
330
C
102
}
330
C
100
AcDbDictionary
281
     1
  0
ACDBDICTIONARYWDFLT
  5
E
102
{ACAD_REACTORS
330
C
102
}
330
C
100
AcDbDictionary
281
     1
  3
Normal
350
F
100
AcDbDictionaryWithDefault
340
F
  0
DICTIONARY
  5
47
102
{ACAD_REACTORS
330
C
102
}
330
C
100
AcDbDictionary
281
     1
  3
A0
350
48
  3
A1
350
49
  3
A2
350
4A
  3
A3
350
4B
  3
A4
350
4C
  3
A5
350
4D
  3
A6
350
4E
  3
A7
350
4F
  3
A8
350
50
  3
A9
350
51
  3
B0
350
52
  3
B1
350
53
  3
B2
350
54
  3
B3
350
55
  3
B4
350
56
  3
B5
350
57
  3
B6
350
58
  3
B7
350
59
  3
B8
350
5A
  3
B9
350
5B
  3
C0
350
5C
  3
C1
350
5D
  3
C2
350
5E
  3
C3
350
5F
  3
C4
350
60
  3
C5
350
61
  3
C6
350
62
  3
C7
350
63
  3
C8
350
64
  3
C9
350
65
  3
D0
350
66
  3
D1
350
67
  3
D2
350
68
  0
DICTIONARY
  5
124
102
{ACAD_REACTORS
330
C
102
}
330
C
100
AcDbDictionary
281
     1
  0
XRECORD
  5
1DD
102
{ACAD_REACTORS
330
C
102
}
330
C
100
AcDbXrecord
280
     1
  1
DWGPROPS COOKIE
  2

  3

  4

  6

  7

  8
12016016
  9

300
=
301
=
302
=
303
=
304
=
305
=
306
=
307
=
308
=
309
=
 40
0.0
 41
2458285.086605602
 42
2458295.44289
  1

 90
        0
  0
DICTIONARY
  5
1BD
102
{ACAD_REACTORS
330
1BC
102
}
330
1BC
100
AcDbDictionary
281
     1
  0
LAYOUT
  5
1E
102
{ACAD_REACTORS
330
1A
102
}
330
1A
100
AcDbPlotSettings
  1

  2
none_device
  4

  6

 40
0.0
 41
0.0
 42
0.0
 43
0.0
 44
0.0
 45
0.0
 46
0.0
 47
0.0
 48
0.0
 49
0.0
140
0.0
141
0.0
142
1.0
143
1.0
 70
   688
 72
     1
 73
     0
 74
     5
  7

 75
    16
147
1.0
148
0.0
149
0.0
100
AcDbLayout
  1
Layout1
 70
     1
 71
     1
 10
0.0
 20
0.0
 11
420.0
 21
297.0
 12
0.0
 22
0.0
 32
0.0
 14
1.000000000000000E+20
 24
1.000000000000000E+20
 34
1.000000000000000E+20
 15
-1.000000000000000E+20
 25
-1.000000000000000E+20
 35
-1.000000000000000E+20
146
0.0
 13
0.0
 23
0.0
 33
0.0
 16
1.0
 26
0.0
 36
0.0
 17
0.0
 27
1.0
 37
0.0
 76
     0
330
1B
  0
LAYOUT
  5
26
102
{ACAD_REACTORS
330
1A
102
}
330
1A
100
AcDbPlotSettings
  1

  2
none_device
  4

  6

 40
0.0
 41
0.0
 42
0.0
 43
0.0
 44
0.0
 45
0.0
 46
0.0
 47
0.0
 48
0.0
 49
0.0
140
0.0
141
0.0
142
1.0
143
1.0
 70
   688
 72
     1
 73
     0
 74
     5
  7

 75
    16
147
1.0
148
0.0
149
0.0
100
AcDbLayout
  1
Layout2
 70
     1
 71
     2
 10
0.0
 20
0.0
 11
0.0
 21
0.0
 12
0.0
 22
0.0
 32
0.0
 14
0.0
 24
0.0
 34
0.0
 15
0.0
 25
0.0
 35
0.0
146
0.0
 13
0.0
 23
0.0
 33
0.0
 16
1.0
 26
0.0
 36
0.0
 17
0.0
 27
1.0
 37
0.0
 76
     0
330
23
  0
LAYOUT
  5
22
102
{ACAD_REACTORS
330
1A
102
}
330
1A
100
AcDbPlotSettings
  1

  2
none_device
  4
ANSI_A_(11.00_x_8.50_Inches)
  6

 40
6.35
 41
19.05
 42
6.35000508
 43
19.05000254
 44
279.4
 45
215.9
 46
155.9055166877269
 47
86.80643090205949
 48
0.0
 49
0.0
140
0.0
141
0.0
142
0.066904757873597
143
1.0
 70
  1696
 72
     0
 73
     0
 74
     0
  7

 75
     0
147
0.0235690232323232
148
0.0
149
0.0
100
AcDbLayout
  1
Model
 70
     1
 71
     0
 10
0.0
 20
0.0
 11
420.0
 21
297.0
 12
0.0
 22
0.0
 32
0.0
 14
1.000000000000000E+20
 24
1.000000000000000E+20
 34
1.000000000000000E+20
 15
-1.000000000000000E+20
 25
-1.000000000000000E+20
 35
-1.000000000000000E+20
146
0.0
 13
0.0
 23
0.0
 33
0.0
 16
1.0
 26
0.0
 36
0.0
 17
0.0
 27
1.0
 37
0.0
 76
     0
330
1F
331
29
  0
MLINESTYLE
  5
18
102
{ACAD_REACTORS
330
17
102
}
330
17
100
AcDbMlineStyle
  2
Standard
 70
     0
  3

 62
   256
 51
90.0
 52
90.0
 71
     2
 49
0.5
 62
   256
  6
BYLAYER
 49
-0.5
 62
   256
  6
BYLAYER
  0
ACDBPLACEHOLDER
  5
F
102
{ACAD_REACTORS
330
E
102
}
330
E
  0
SCALE
  5
48
102
{ACAD_REACTORS
330
47
102
}
330
47
100
AcDbScale
 70
     0
300
1:1
140
1.0
141
1.0
290
     1
  0
SCALE
  5
49
102
{ACAD_REACTORS
330
47
102
}
330
47
100
AcDbScale
 70
     0
300
1:2
140
1.0
141
2.0
290
     0
  0
SCALE
  5
4A
102
{ACAD_REACTORS
330
47
102
}
330
47
100
AcDbScale
 70
     0
300
1:4
140
1.0
141
4.0
290
     0
  0
SCALE
  5
4B
102
{ACAD_REACTORS
330
47
102
}
330
47
100
AcDbScale
 70
     0
300
1:5
140
1.0
141
5.0
290
     0
  0
SCALE
  5
4C
102
{ACAD_REACTORS
330
47
102
}
330
47
100
AcDbScale
 70
     0
300
1:8
140
1.0
141
8.0
290
     0
  0
SCALE
  5
4D
102
{ACAD_REACTORS
330
47
102
}
330
47
100
AcDbScale
 70
     0
300
1:10
140
1.0
141
10.0
290
     0
  0
SCALE
  5
4E
102
{ACAD_REACTORS
330
47
102
}
330
47
100
AcDbScale
 70
     0
300
1:16
140
1.0
141
16.0
290
     0
  0
SCALE
  5
4F
102
{ACAD_REACTORS
330
47
102
}
330
47
100
AcDbScale
 70
     0
300
1:20
140
1.0
141
20.0
290
     0
  0
SCALE
  5
50
102
{ACAD_REACTORS
330
47
102
}
330
47
100
AcDbScale
 70
     0
300
1:30
140
1.0
141
30.0
290
     0
  0
SCALE
  5
51
102
{ACAD_REACTORS
330
47
102
}
330
47
100
AcDbScale
 70
     0
300
1:40
140
1.0
141
40.0
290
     0
  0
SCALE
  5
52
102
{ACAD_REACTORS
330
47
102
}
330
47
100
AcDbScale
 70
     0
300
1:50
140
1.0
141
50.0
290
     0
  0
SCALE
  5
53
102
{ACAD_REACTORS
330
47
102
}
330
47
100
AcDbScale
 70
     0
300
1:100
140
1.0
141
100.0
290
     0
  0
SCALE
  5
54
102
{ACAD_REACTORS
330
47
102
}
330
47
100
AcDbScale
 70
     0
300
2:1
140
2.0
141
1.0
290
     0
  0
SCALE
  5
55
102
{ACAD_REACTORS
330
47
102
}
330
47
100
AcDbScale
 70
     0
300
4:1
140
4.0
141
1.0
290
     0
  0
SCALE
  5
56
102
{ACAD_REACTORS
330
47
102
}
330
47
100
AcDbScale
 70
     0
300
8:1
140
8.0
141
1.0
290
     0
  0
SCALE
  5
57
102
{ACAD_REACTORS
330
47
102
}
330
47
100
AcDbScale
 70
     0
300
10:1
140
10.0
141
1.0
290
     0
  0
SCALE
  5
58
102
{ACAD_REACTORS
330
47
102
}
330
47
100
AcDbScale
 70
     0
300
100:1
140
100.0
141
1.0
290
     0
  0
SCALE
  5
59
102
{ACAD_REACTORS
330
47
102
}
330
47
100
AcDbScale
 70
     0
300
1/128" = 1'-0"
140
0.0078125
141
12.0
290
     0
  0
SCALE
  5
5A
102
{ACAD_REACTORS
330
47
102
}
330
47
100
AcDbScale
 70
     0
300
1/64" = 1'-0"
140
0.015625
141
12.0
290
     0
  0
SCALE
  5
5B
102
{ACAD_REACTORS
330
47
102
}
330
47
100
AcDbScale
 70
     0
300
1/32" = 1'-0"
140
0.03125
141
12.0
290
     0
  0
SCALE
  5
5C
102
{ACAD_REACTORS
330
47
102
}
330
47
100
AcDbScale
 70
     0
300
1/16" = 1'-0"
140
0.0625
141
12.0
290
     0
  0
SCALE
  5
5D
102
{ACAD_REACTORS
330
47
102
}
330
47
100
AcDbScale
 70
     0
300
3/32" = 1'-0"
140
0.09375
141
12.0
290
     0
  0
SCALE
  5
5E
102
{ACAD_REACTORS
330
47
102
}
330
47
100
AcDbScale
 70
     0
300
1/8" = 1'-0"
140
0.125
141
12.0
290
     0
  0
SCALE
  5
5F
102
{ACAD_REACTORS
330
47
102
}
330
47
100
AcDbScale
 70
     0
300
3/16" = 1'-0"
140
0.1875
141
12.0
290
     0
  0
SCALE
  5
60
102
{ACAD_REACTORS
330
47
102
}
330
47
100
AcDbScale
 70
     0
300
1/4" = 1'-0"
140
0.25
141
12.0
290
     0
  0
SCALE
  5
61
102
{ACAD_REACTORS
330
47
102
}
330
47
100
AcDbScale
 70
     0
300
3/8" = 1'-0"
140
0.375
141
12.0
290
     0
  0
SCALE
  5
62
102
{ACAD_REACTORS
330
47
102
}
330
47
100
AcDbScale
 70
     0
300
1/2" = 1'-0"
140
0.5
141
12.0
290
     0
  0
SCALE
  5
63
102
{ACAD_REACTORS
330
47
102
}
330
47
100
AcDbScale
 70
     0
300
3/4" = 1'-0"
140
0.75
141
12.0
290
     0
  0
SCALE
  5
64
102
{ACAD_REACTORS
330
47
102
}
330
47
100
AcDbScale
 70
     0
300
1" = 1'-0"
140
1.0
141
12.0
290
     0
  0
SCALE
  5
65
102
{ACAD_REACTORS
330
47
102
}
330
47
100
AcDbScale
 70
     0
300
1-1/2" = 1'-0"
140
1.5
141
12.0
290
     0
  0
SCALE
  5
66
102
{ACAD_REACTORS
330
47
102
}
330
47
100
AcDbScale
 70
     0
300
3" = 1'-0"
140
3.0
141
12.0
290
     0
  0
SCALE
  5
67
102
{ACAD_REACTORS
330
47
102
}
330
47
100
AcDbScale
 70
     0
300
6" = 1'-0"
140
6.0
141
12.0
290
     0
  0
SCALE
  5
68
102
{ACAD_REACTORS
330
47
102
}
330
47
100
AcDbScale
 70
     0
300
1'-0" = 1'-0"
140
12.0
141
12.0
290
     0
  0
ENDSEC
  0
EOF
