  0
SECTION
  2
HEADER
  9
$ACADVER
  1
AC1015
  9
$ACADMAINTVER
 70
     6
  9
$DWGCODEPAGE
  3
ANSI_949
  9
$INSBASE
 10
0.0
 20
0.0
 30
0.0
  9
$EXTMIN
 10
1.000000000000000E+20
 20
1.000000000000000E+20
 30
1.000000000000000E+20
  9
$EXTMAX
 10
-1.000000000000000E+20
 20
-1.000000000000000E+20
 30
-1.000000000000000E+20
  9
$LIMMIN
 10
0.0
 20
0.0
  9
$LIMMAX
 10
420.0
 20
297.0
  9
$ORTHOMODE
 70
     1
  9
$REGENMODE
 70
     1
  9
$FILLMODE
 70
     1
  9
$QTEXTMODE
 70
     0
  9
$MIRRTEXT
 70
     1
  9
$LTSCALE
 40
1.0
  9
$ATTMODE
 70
     1
  9
$TEXTSIZE
 40
3.5
  9
$TRACEWID
 40
1.0
  9
$TEXTSTYLE
  7
Standard
  9
$CLAYER
  8
0
  9
$CELTYPE
  6
ByLayer
  9
$CECOLOR
 62
   256
  9
$CELTSCALE
 40
1.0
  9
$DISPSILH
 70
     0
  9
$DIMSCALE
 40
1.0
  9
$DIMASZ
 40
3.302
  9
$DIMEXO
 40
1.0
  9
$DIMDLI
 40
3.75
  9
$DIMRND
 40
0.0
  9
$DIMDLE
 40
0.0
  9
$DIMEXE
 40
1.0
  9
$DIMTP
 40
0.0
  9
$DIMTM
 40
0.0
  9
$DIMTXT
 40
3.5
  9
$DIMCEN
 40
2.5
  9
$DIMTSZ
 40
0.0
  9
$DIMTOL
 70
     0
  9
$DIMLIM
 70
     0
  9
$DIMTIH
 70
     1
  9
$DIMTOH
 70
     1
  9
$DIMSE1
 70
     0
  9
$DIMSE2
 70
     0
  9
$DIMTAD
 70
     1
  9
$DIMZIN
 70
     0
  9
$DIMBLK
  1

  9
$DIMASO
 70
     1
  9
$DIMSHO
 70
     1
  9
$DIMPOST
  1

  9
$DIMAPOST
  1

  9
$DIMALT
 70
     0
  9
$DIMALTD
 70
     3
  9
$DIMALTF
 40
0.0393700787401575
  9
$DIMLFAC
 40
1.0
  9
$DIMTOFL
 70
     1
  9
$DIMTVP
 40
0.0
  9
$DIMTIX
 70
     0
  9
$DIMSOXD
 70
     0
  9
$DIMSAH
 70
     0
  9
$DIMBLK1
  1

  9
$DIMBLK2
  1

  9
$DIMSTYLE
  2
ISO-25
  9
$DIMCLRD
 70
     0
  9
$DIMCLRE
 70
     0
  9
$DIMCLRT
 70
     0
  9
$DIMTFAC
 40
1.0
  9
$DIMGAP
 40
1.524
  9
$DIMJUST
 70
     0
  9
$DIMSD1
 70
     0
  9
$DIMSD2
 70
     0
  9
$DIMTOLJ
 70
     0
  9
$DIMTZIN
 70
     0
  9
$DIMALTZ
 70
     0
  9
$DIMALTTZ
 70
     0
  9
$DIMUPT
 70
     0
  9
$DIMDEC
 70
     2
  9
$DIMTDEC
 70
     2
  9
$DIMALTU
 70
     2
  9
$DIMALTTD
 70
     3
  9
$DIMTXSTY
  7
Standard
  9
$DIMAUNIT
 70
     0
  9
$DIMADEC
 70
     2
  9
$DIMALTRND
 40
0.0
  9
$DIMAZIN
 70
     0
  9
$DIMDSEP
 70
    44
  9
$DIMATFIT
 70
     3
  9
$DIMFRAC
 70
     0
  9
$DIMLDRBLK
  1

  9
$DIMLUNIT
 70
     2
  9
$DIMLWD
 70
    -2
  9
$DIMLWE
 70
    -2
  9
$DIMTMOVE
 70
     0
  9
$LUNITS
 70
     2
  9
$LUPREC
 70
     2
  9
$SKETCHINC
 40
1.0
  9
$FILLETRAD
 40
10.0
  9
$AUNITS
 70
     0
  9
$AUPREC
 70
     2
  9
$MENU
  1
.
  9
$ELEVATION
 40
0.0
  9
$PELEVATION
 40
0.0
  9
$THICKNESS
 40
0.0
  9
$LIMCHECK
 70
     0
  9
$CHAMFERA
 40
0.0
  9
$CHAMFERB
 40
0.0
  9
$CHAMFERC
 40
0.0
  9
$CHAMFERD
 40
0.0
  9
$SKPOLY
 70
     0
  9
$TDCREATE
 40
2458285.461227871
  9
$TDUCREATE
 40
2458285.086227871
  9
$TDUPDATE
 40
2458295.81818478
  9
$TDUUPDATE
 40
2458295.44318478
  9
$TDINDWG
 40
0.0013716319
  9
$TDUSRTIMER
 40
2458295.443057384
  9
$USRTIMER
 70
     1
  9
$ANGBASE
 50
0.0
  9
$ANGDIR
 70
     0
  9
$PDMODE
 70
     0
  9
$PDSIZE
 40
-1.0
  9
$PLINEWID
 40
0.0
  9
$SPLFRAME
 70
     0
  9
$SPLINETYPE
 70
     6
  9
$SPLINESEGS
 70
     8
  9
$HANDSEED
  5
1DB
  9
$SURFTAB1
 70
     6
  9
$SURFTAB2
 70
     6
  9
$SURFTYPE
 70
     6
  9
$SURFU
 70
     6
  9
$SURFV
 70
     6
  9
$UCSBASE
  2

  9
$UCSNAME
  2

  9
$UCSORG
 10
0.0
 20
0.0
 30
0.0
  9
$UCSXDIR
 10
1.0
 20
0.0
 30
0.0
  9
$UCSYDIR
 10
0.0
 20
1.0
 30
0.0
  9
$UCSORTHOREF
  2

  9
$UCSORTHOVIEW
 70
     0
  9
$UCSORGTOP
 10
0.0
 20
0.0
 30
0.0
  9
$UCSORGBOTTOM
 10
0.0
 20
0.0
 30
0.0
  9
$UCSORGLEFT
 10
0.0
 20
0.0
 30
0.0
  9
$UCSORGRIGHT
 10
0.0
 20
0.0
 30
0.0
  9
$UCSORGFRONT
 10
0.0
 20
0.0
 30
0.0
  9
$UCSORGBACK
 10
0.0
 20
0.0
 30
0.0
  9
$PUCSBASE
  2

  9
$PUCSNAME
  2

  9
$PUCSORG
 10
0.0
 20
0.0
 30
0.0
  9
$PUCSXDIR
 10
1.0
 20
0.0
 30
0.0
  9
$PUCSYDIR
 10
0.0
 20
1.0
 30
0.0
  9
$PUCSORTHOREF
  2

  9
$PUCSORTHOVIEW
 70
     0
  9
$PUCSORGTOP
 10
0.0
 20
0.0
 30
0.0
  9
$PUCSORGBOTTOM
 10
0.0
 20
0.0
 30
0.0
  9
$PUCSORGLEFT
 10
0.0
 20
0.0
 30
0.0
  9
$PUCSORGRIGHT
 10
0.0
 20
0.0
 30
0.0
  9
$PUCSORGFRONT
 10
0.0
 20
0.0
 30
0.0
  9
$PUCSORGBACK
 10
0.0
 20
0.0
 30
0.0
  9
$USERI1
 70
     0
  9
$USERI2
 70
     0
  9
$USERI3
 70
     0
  9
$USERI4
 70
     0
  9
$USERI5
 70
     0
  9
$USERR1
 40
0.0
  9
$USERR2
 40
0.0
  9
$USERR3
 40
0.0
  9
$USERR4
 40
0.0
  9
$USERR5
 40
0.0
  9
$WORLDVIEW
 70
     1
  9
$SHADEDGE
 70
     3
  9
$SHADEDIF
 70
    70
  9
$TILEMODE
 70
     1
  9
$MAXACTVP
 70
    64
  9
$PINSBASE
 10
0.0
 20
0.0
 30
0.0
  9
$PLIMCHECK
 70
     0
  9
$PEXTMIN
 10
1.000000000000000E+20
 20
1.000000000000000E+20
 30
1.000000000000000E+20
  9
$PEXTMAX
 10
-1.000000000000000E+20
 20
-1.000000000000000E+20
 30
-1.000000000000000E+20
  9
$PLIMMIN
 10
0.0
 20
0.0
  9
$PLIMMAX
 10
0.0
 20
0.0
  9
$UNITMODE
 70
     0
  9
$VISRETAIN
 70
     1
  9
$PLINEGEN
 70
     0
  9
$PSLTSCALE
 70
     1
  9
$TREEDEPTH
 70
  3020
  9
$CMLSTYLE
  2
Standard
  9
$CMLJUST
 70
     0
  9
$CMLSCALE
 40
20.0
  9
$PROXYGRAPHICS
 70
     1
  9
$MEASUREMENT
 70
     1
  9
$CELWEIGHT
370
    -1
  9
$ENDCAPS
280
     0
  9
$JOINSTYLE
280
     0
  9
$LWDISPLAY
290
     1
  9
$INSUNITS
 70
     4
  9
$HYPERLINKBASE
  1

  9
$STYLESHEET
  1

  9
$XEDIT
290
     1
  9
$CEPSNTYPE
380
     0
  9
$PSTYLEMODE
290
     1
  9
$FINGERPRINTGUID
  2
{589DE097-3535-4E7C-A866-48A2F75387B0}
  9
$VERSIONGUID
  2
{FAEB1C32-E019-11D5-929B-00C0DF256EC4}
  9
$EXTNAMES
290
     1
  9
$PSVPSCALE
 40
0.0
  9
$OLESTARTUP
290
     0
  0
ENDSEC
  0
SECTION
  2
CLASSES
  0
CLASS
  1
ACDBDICTIONARYWDFLT
  2
AcDbDictionaryWithDefault
  3
ObjectDBX Classes
 90
        0
280
     0
281
     0
  0
CLASS
  1
VISUALSTYLE
  2
AcDbVisualStyle
  3
ObjectDBX Classes
 90
     4095
280
     0
281
     0
  0
CLASS
  1
MATERIAL
  2
AcDbMaterial
  3
ObjectDBX Classes
 90
     1153
280
     0
281
     0
  0
CLASS
  1
SCALE
  2
AcDbScale
  3
ObjectDBX Classes
 90
     1153
280
     0
281
     0
  0
CLASS
  1
SUN
  2
AcDbSun
  3
SCENEOE
 90
     1153
280
     0
281
     0
  0
CLASS
  1
ACDBPLACEHOLDER
  2
AcDbPlaceHolder
  3
ObjectDBX Classes
 90
        0
280
     0
281
     0
  0
CLASS
  1
LAYOUT
  2
AcDbLayout
  3
ObjectDBX Classes
 90
        0
280
     0
281
     0
  0
CLASS
  1
TABLESTYLE
  2
AcDbTableStyle
  3
ObjectDBX Classes
 90
     4095
280
     0
281
     0
  0
CLASS
  1
MLEADERSTYLE
  2
AcDbMLeaderStyle
  3
ACDB_MLEADERSTYLE_CLASS
 90
     4095
280
     0
281
     0
  0
CLASS
  1
RASTERVARIABLES
  2
AcDbRasterVariables
  3
ISM
 90
        0
280
     0
281
     0
  0
ENDSEC
  0
SECTION
  2
TABLES
  0
TABLE
  2
VPORT
  5
8
330
0
100
AcDbSymbolTable
 70
     1
  0
VPORT
  5
29
330
8
100
AcDbSymbolTableRecord
100
AcDbViewportTableRecord
  2
*Active
 70
     0
 10
0.0
 20
0.0
 11
1.0
 21
1.0
 12
-65.66951907338341
 22
-32.69970015670064
 13
0.0
 23
0.0
 14
10.0
 24
10.0
 15
10.0
 25
10.0
 16
0.0
 26
0.0
 36
1.0
 17
0.0
 27
0.0
 37
0.0
 40
72.19063313240373
 41
1.546332046332046
 42
50.0
 43
0.0
 44
0.0
 50
0.0
 51
0.0
 71
    16
 72
  2000
 73
     1
 74
     3
 75
     0
 76
     0
 77
     0
 78
     0
281
     0
 65
     1
110
0.0
120
0.0
130
0.0
111
1.0
121
0.0
131
0.0
112
0.0
122
1.0
132
0.0
 79
     0
146
0.0
  0
ENDTAB
  0
TABLE
  2
LTYPE
  5
5
330
0
100
AcDbSymbolTable
 70
     6
  0
LTYPE
  5
14
330
5
100
AcDbSymbolTableRecord
100
AcDbLinetypeTableRecord
  2
ByBlock
 70
     0
  3

 72
    65
 73
     0
 40
0.0
  0
LTYPE
  5
15
330
5
100
AcDbSymbolTableRecord
100
AcDbLinetypeTableRecord
  2
ByLayer
 70
     0
  3

 72
    65
 73
     0
 40
0.0
  0
LTYPE
  5
16
330
5
100
AcDbSymbolTableRecord
100
AcDbLinetypeTableRecord
  2
Continuous
 70
     0
  3
Solid line
 72
    65
 73
     0
 40
0.0
  0
LTYPE
  5
6A
330
5
100
AcDbSymbolTableRecord
100
AcDbLinetypeTableRecord
  2
HIDDEN
 70
     0
  3
Hidden __ __ __ __ __ __ __ __ __ __ __ __ __ __
 72
    65
 73
     2
 40
1.905
 49
1.27
 74
     0
 49
-0.635
 74
     0
  0
LTYPE
  5
6B
330
5
100
AcDbSymbolTableRecord
100
AcDbLinetypeTableRecord
  2
PHANTOM
 70
     0
  3
Phantom ______  __  __  ______  __  __  ______
 72
    65
 73
     6
 40
12.7
 49
6.35
 74
     0
 49
-1.27
 74
     0
 49
1.27
 74
     0
 49
-1.27
 74
     0
 49
1.27
 74
     0
 49
-1.27
 74
     0
  0
LTYPE
  5
6C
330
5
100
AcDbSymbolTableRecord
100
AcDbLinetypeTableRecord
  2
CENTER
 70
     0
  3
Center ____ _ ____ _ ____ _ ____ _ ____ _ ____
 72
    65
 73
     4
 40
10.16
 49
6.35
 74
     0
 49
-1.27
 74
     0
 49
1.27
 74
     0
 49
-1.27
 74
     0
  0
LTYPE
  5
6D
330
5
100
AcDbSymbolTableRecord
100
AcDbLinetypeTableRecord
  2
CENTERX2
 70
     0
  3
Center (2x) ________  __  ________  __  _____
 72
    65
 73
     4
 40
20.32
 49
12.7
 74
     0
 49
-2.54
 74
     0
 49
2.54
 74
     0
 49
-2.54
 74
     0
  0
LTYPE
  5
6E
330
5
100
AcDbSymbolTableRecord
100
AcDbLinetypeTableRecord
  2
DOT2
 70
     0
  3
Dot (.5x) ........................................
 72
    65
 73
     2
 40
0.635
 49
0.0
 74
     0
 49
-0.635
 74
     0
  0
ENDTAB
  0
TABLE
  2
LAYER
  5
2
102
{ACAD_XDICTIONARY
360
1BA
102
}
330
0
100
AcDbSymbolTable
 70
    20
  0
LAYER
  5
10
330
2
100
AcDbSymbolTableRecord
100
AcDbLayerTableRecord
  2
0
 70
     0
 62
     7
  6
Continuous
370
    -3
390
F
  0
LAYER
  5
6F
330
2
100
AcDbSymbolTableRecord
100
AcDbLayerTableRecord
  2
FORMAT
 70
     0
 62
     2
  6
Continuous
370
    -3
390
F
  0
LAYER
  5
70
330
2
100
AcDbSymbolTableRecord
100
AcDbLayerTableRecord
  2
외형선
 70
     0
 62
     4
  6
Continuous
370
    30
390
F
  0
LAYER
  5
71
330
2
100
AcDbSymbolTableRecord
100
AcDbLayerTableRecord
  2
숨은선
 70
     0
 62
     2
  6
HIDDEN
370
    15
390
F
  0
LAYER
  5
72
330
2
100
AcDbSymbolTableRecord
100
AcDbLayerTableRecord
  2
중심선
 70
     0
 62
     1
  6
CENTERX2
370
    -3
390
F
  0
LAYER
  5
73
330
2
100
AcDbSymbolTableRecord
100
AcDbLayerTableRecord
  2
파단선
 70
     0
 62
     4
  6
Continuous
370
    -3
390
F
  0
LAYER
  5
74
330
2
100
AcDbSymbolTableRecord
100
AcDbLayerTableRecord
  2
해칭선
 70
     0
 62
   100
  6
Continuous
370
    -3
390
F
  0
LAYER
  5
75
330
2
100
AcDbSymbolTableRecord
100
AcDbLayerTableRecord
  2
가는실선
 70
     0
 62
     4
  6
Continuous
370
    -3
390
F
  0
LAYER
  5
76
330
2
100
AcDbSymbolTableRecord
100
AcDbLayerTableRecord
  2
치수_보조선
 70
     0
 62
     4
  6
Continuous
370
    -3
390
F
  0
LAYER
  5
77
330
2
100
AcDbSymbolTableRecord
100
AcDbLayerTableRecord
  2
치수문자_일반주서
 70
     0
 62
     7
  6
Continuous
370
    15
390
F
  0
LAYER
  5
78
330
2
100
AcDbSymbolTableRecord
100
AcDbLayerTableRecord
  2
개별주서
 70
     0
 62
   100
  6
Continuous
370
    30
390
F
  0
LAYER
  5
79
330
2
100
AcDbSymbolTableRecord
100
AcDbLayerTableRecord
  2
중간선
 70
     0
 62
     2
  6
Continuous
370
    15
390
F
  0
LAYER
  5
7A
330
2
100
AcDbSymbolTableRecord
100
AcDbLayerTableRecord
  2
윤곽선
 70
     0
 62
     3
  6
Continuous
370
    40
390
F
  0
LAYER
  5
7B
330
2
100
AcDbSymbolTableRecord
100
AcDbLayerTableRecord
  2
중심마크
 70
     0
 62
   100
  6
Continuous
370
    30
390
F
  0
LAYER
  5
7C
330
2
100
AcDbSymbolTableRecord
100
AcDbLayerTableRecord
  2
가상선
 70
     0
 62
     4
  6
PHANTOM
370
    -3
390
F
  0
LAYER
  5
7D
330
2
100
AcDbSymbolTableRecord
100
AcDbLayerTableRecord
  2
특수지정선
 70
     0
 62
     5
  6
CENTERX2
370
    60
390
F
  0
LAYER
  5
7E
330
2
100
AcDbSymbolTableRecord
100
AcDbLayerTableRecord
  2
참조1
 70
     0
 62
    -4
  6
Continuous
370
    -3
390
F
  0
LAYER
  5
127
330
2
100
AcDbSymbolTableRecord
100
AcDbLayerTableRecord
  2
Defpoints
 70
     0
 62
     7
  6
Continuous
290
     0
370
    -3
390
F
  0
LAYER
  5
17E
330
2
100
AcDbSymbolTableRecord
100
AcDbLayerTableRecord
  2
CENTER
 70
     0
 62
     2
  6
CENTER
370
    -3
390
F
1001
AcAecLayerStandard
1000

1000

  0
LAYER
  5
182
330
2
100
AcDbSymbolTableRecord
100
AcDbLayerTableRecord
  2
CUT
 70
     0
 62
     1
  6
Continuous
370
    -3
390
F
1001
AcAecLayerStandard
1000

1000

  0
ENDTAB
  0
TABLE
  2
STYLE
  5
3
330
0
100
AcDbSymbolTable
 70
     2
  0
STYLE
  5
11
330
3
100
AcDbSymbolTableRecord
100
AcDbTextStyleTableRecord
  2
Standard
 70
     0
 40
0.0
 41
1.0
 50
0.0
 71
     0
 42
3.5
  3
txt
  4

  0
STYLE
  5
94
330
3
100
AcDbSymbolTableRecord
100
AcDbTextStyleTableRecord
  2
SLDTEXTSTYLE0
 70
     0
 40
0.0
 41
0.75
 50
0.0
 71
     0
 42
3.5
  3
TXT
  4

  0
ENDTAB
  0
TABLE
  2
VIEW
  5
6
330
0
100
AcDbSymbolTable
 70
     0
  0
ENDTAB
  0
TABLE
  2
UCS
  5
7
330
0
100
AcDbSymbolTable
 70
     0
  0
ENDTAB
  0
TABLE
  2
APPID
  5
9
330
0
100
AcDbSymbolTable
 70
     4
  0
APPID
  5
12
330
9
100
AcDbSymbolTableRecord
100
AcDbRegAppTableRecord
  2
ACAD
 70
     0
  0
APPID
  5
136
330
9
100
AcDbSymbolTableRecord
100
AcDbRegAppTableRecord
  2
ACAD_DSTYLE_DIMFLIPARROW_SYMBOL
 70
     0
  0
APPID
  5
137
330
9
100
AcDbSymbolTableRecord
100
AcDbRegAppTableRecord
  2
ACAD_DSTYLE_DIMFLIPARROW_WHICH_SYMBOL
 70
     0
  0
APPID
  5
181
330
9
100
AcDbSymbolTableRecord
100
AcDbRegAppTableRecord
  2
AcAecLayerStandard
 70
     0
  0
ENDTAB
  0
TABLE
  2
DIMSTYLE
  5
A
330
0
100
AcDbSymbolTable
 70
     3
100
AcDbDimStyleTable
  0
DIMSTYLE
105
27
330
A
100
AcDbSymbolTableRecord
100
AcDbDimStyleTableRecord
  2
ISO-25
 70
     0
 41
2.5
 42
0.625
 43
3.75
 44
1.25
 73
     0
 74
     0
 77
     1
 78
     8
140
2.5
141
2.5
143
0.03937007874016
147
0.625
171
     3
172
     1
178
     0
271
     2
272
     2
274
     3
278
    44
283
     0
284
     8
340
11
  0
DIMSTYLE
105
C5
102
{ACAD_REACTORS
330
C4
330
D0
102
}
330
A
100
AcDbSymbolTableRecord
100
AcDbDimStyleTableRecord
  2
SLDDIMSTYLE0
 70
     0
 41
3.302
 44
0.0
 45
0.000000001
 73
     0
 74
     0
 77
     1
 78
    12
 79
     3
140
3.5
147
0.875
173
     1
178
     0
271
     2
272
     2
276
     2
284
    12
340
94
  0
DIMSTYLE
105
DB
102
{ACAD_REACTORS
330
DA
330
E8
102
}
330
A
100
AcDbSymbolTableRecord
100
AcDbDimStyleTableRecord
  2
SLDDIMSTYLE1
 70
     0
 41
3.302
 44
0.0
 45
0.000000001
 73
     0
 74
     0
 77
     1
 78
    12
 79
     3
140
3.5
147
0.875
172
     1
173
     1
178
     0
271
     2
272
     2
276
     2
284
    12
289
     0
340
94
  0
ENDTAB
  0
TABLE
  2
BLOCK_RECORD
  5
1
330
0
100
AcDbSymbolTable
 70
     8
  0
BLOCK_RECORD
  5
1F
330
1
100
AcDbSymbolTableRecord
100
AcDbBlockTableRecord
  2
*Model_Space
340
22
  0
BLOCK_RECORD
  5
1B
330
1
100
AcDbSymbolTableRecord
100
AcDbBlockTableRecord
  2
*Paper_Space
340
1E
  0
BLOCK_RECORD
  5
23
330
1
100
AcDbSymbolTableRecord
100
AcDbBlockTableRecord
  2
*Paper_Space0
340
26
  0
BLOCK_RECORD
  5
7F
330
1
100
AcDbSymbolTableRecord
100
AcDbBlockTableRecord
  2
블럭10
340
0
102
{BLKREFS
331
BD
102
}
  0
BLOCK_RECORD
  5
C6
330
1
100
AcDbSymbolTableRecord
100
AcDbBlockTableRecord
  2
_D
340
0
  0
BLOCK_RECORD
  5
D1
330
1
100
AcDbSymbolTableRecord
100
AcDbBlockTableRecord
  2
_D_1
340
0
  0
BLOCK_RECORD
  5
DC
330
1
100
AcDbSymbolTableRecord
100
AcDbBlockTableRecord
  2
_D_2
340
0
  0
BLOCK_RECORD
  5
E9
330
1
100
AcDbSymbolTableRecord
100
AcDbBlockTableRecord
  2
_D_3
340
0
  0
BLOCK_RECORD
  5
FC
330
1
100
AcDbSymbolTableRecord
100
AcDbBlockTableRecord
  2
SW_DOWELSYMBOL_0
340
0
102
{BLKREFS
331
102
102
}
  0
ENDTAB
  0
ENDSEC
  0
SECTION
  2
BLOCKS
  0
BLOCK
  5
20
330
1F
100
AcDbEntity
  8
0
100
AcDbBlockBegin
  2
*Model_Space
 70
     0
 10
0.0
 20
0.0
 30
0.0
  3
*Model_Space
  1
*Model_Space
  0
ENDBLK
  5
21
330
1F
100
AcDbEntity
  8
0
100
AcDbBlockEnd
  0
BLOCK
  5
1C
330
1B
100
AcDbEntity
 67
     1
  8
0
100
AcDbBlockBegin
  2
*Paper_Space
 70
     0
 10
0.0
 20
0.0
 30
0.0
  3
*Paper_Space
  1
*Paper_Space
  0
ENDBLK
  5
1D
330
1B
100
AcDbEntity
 67
     1
  8
0
100
AcDbBlockEnd
  0
BLOCK
  5
24
330
23
100
AcDbEntity
  8
0
100
AcDbBlockBegin
  2
*Paper_Space0
 70
     0
 10
0.0
 20
0.0
 30
0.0
  3
*Paper_Space0
  1
*Paper_Space0
  0
ENDBLK
  5
25
330
23
100
AcDbEntity
  8
0
100
AcDbBlockEnd
  0
BLOCK
  5
80
330
7F
100
AcDbEntity
  8
0
100
AcDbBlockBegin
  2
블럭10
 70
     2
 10
0.0
 20
0.0
 30
0.0
  3
블럭10
  1
블럭10
  0
ELLIPSE
  5
82
330
7F
100
AcDbEntity
  8
중심선
100
AcDbEllipse
 10
20.54032771741204
 20
12.0471743016438
 30
0.0
 11
6.600054785286829
 21
-1.261213355974178E-13
 31
0.0
210
0.0
220
0.0
230
1.0
 40
0.636358354079598
 41
0.9219305317359503
 42
6.513795318482858
  0
ELLIPSE
  5
83
330
7F
100
AcDbEntity
  8
중심선
100
AcDbEllipse
 10
20.54032771746488
 20
12.04717430159265
 30
0.0
 11
3.960054785062283
 21
1.540847449632565E-10
 31
0.0
210
0.0
220
0.0
230
1.0
 40
0.3939339440162632
 41
1.131841032648279
 42
5.62031148352944
  0
LINE
  5
84
330
7F
100
AcDbEntity
  8
중심선
100
AcDbLine
 10
2.268634060543552
 20
16.24717430164393
 30
0.0
 11
5.714909304380834
 21
16.24717430164393
 31
0.0
  0
LINE
  5
85
330
7F
100
AcDbEntity
  8
중심선
100
AcDbLine
 10
5.245725140726316
 20
7.84717430164391
 30
0.0
 11
8.692000384563599
 21
7.84717430164391
 31
0.0
  0
LINE
  5
86
330
7F
100
AcDbEntity
  8
중심선
100
AcDbLine
 10
15.74043728645272
 20
16.24717430164393
 30
0.0
 11
8.692000384563599
 21
7.84717430164391
 31
0.0
  0
LINE
  5
87
330
7F
100
AcDbEntity
  8
중심선
100
AcDbLine
 10
0.1404042013395286
 20
13.71084872107135
 30
0.0
 11
3.58671253028996
 21
13.71088815037384
 31
0.0
  0
LINE
  5
88
330
7F
100
AcDbEntity
  8
중심선
100
AcDbLine
 10
2.750260043222114
 20
10.84717430164391
 30
0.0
 11
6.196535287059397
 21
10.84717430164391
 31
0.0
  0
LINE
  5
89
330
7F
100
AcDbEntity
  8
중심선
100
AcDbLine
 10
12.29416204261559
 20
16.24717430164393
 30
0.0
 11
5.245725140726316
 21
7.84717430164391
 31
0.0
  0
LINE
  5
8A
330
7F
100
AcDbEntity
  8
중심선
100
AcDbLine
 10
10.72767329541681
 20
16.24717430164393
 30
0.0
 11
6.196535287059397
 21
10.84717430164391
 31
0.0
  0
LINE
  5
8B
330
7F
100
AcDbEntity
  8
중심선
100
AcDbLine
 10
7.28139805157953
 20
16.24717430164393
 30
0.0
 11
2.750260043222114
 21
10.84717430164391
 31
0.0
  0
LINE
  5
8C
330
7F
100
AcDbEntity
  8
중심선
100
AcDbLine
 10
5.714909304380834
 20
16.24717430164393
 30
0.0
 11
3.58671253028996
 21
13.71088815037384
 31
0.0
  0
LINE
  5
8D
330
7F
100
AcDbEntity
  8
중심선
100
AcDbLine
 10
2.268634060543552
 20
16.24717430164393
 30
0.0
 11
0.1404042013395286
 21
13.71084872107135
 31
0.0
  0
LINE
  5
8E
330
7F
100
AcDbEntity
  8
중심선
100
AcDbLine
 10
7.28139805157953
 20
16.24717430164393
 30
0.0
 11
10.72767329541681
 21
16.24717430164393
 31
0.0
  0
LINE
  5
8F
330
7F
100
AcDbEntity
  8
중심선
100
AcDbLine
 10
12.29416204261559
 20
16.24717430164393
 30
0.0
 11
15.74043728645272
 21
16.24717430164393
 31
0.0
  0
LINE
  5
90
330
7F
100
AcDbEntity
  8
중심선
100
AcDbLine
 10
19.22036997980202
 20
11.08717430171403
 30
0.0
 11
23.66174974927406
 21
11.08717430171406
 31
0.0
  0
LINE
  5
91
330
7F
100
AcDbEntity
  8
중심선
100
AcDbLine
 10
19.22039502424796
 20
13.00717430171391
 30
0.0
 11
19.22036997980202
 21
11.08717430171403
 31
0.0
  0
LINE
  5
92
330
7F
100
AcDbEntity
  8
중심선
100
AcDbLine
 10
19.22039502424796
 20
13.00717430171391
 30
0.0
 11
26.96566020931264
 21
13.00717430171391
 31
0.0
  0
LINE
  5
93
330
7F
100
AcDbEntity
  8
중심선
100
AcDbLine
 10
22.22332737316547
 20
13.45928029700563
 30
0.0
 11
24.52862924686651
 21
15.39360700705356
 31
0.0
  0
ATTDEF
  5
95
330
7F
100
AcDbEntity
  8
FORMAT
 62
     2
100
AcDbText
 10
3.448148490846466
 20
2.075366912832191
 30
0.0
 40
4.233333333333333
  1
EM813060
 41
0.75
  7
SLDTEXTSTYLE0
 11
3.448148490846466
 21
-0.0412997538344756
 31
0.0
100
AcDbAttributeDefinition
  3

  2
AUTOATTR0
 70
     0
 74
     1
  0
ENDBLK
  5
81
330
7F
100
AcDbEntity
  8
0
100
AcDbBlockEnd
  0
BLOCK
  5
C7
330
C6
100
AcDbEntity
  8
0
100
AcDbBlockBegin
  2
_D
 70
     0
 10
0.0
 20
0.0
 30
0.0
  3
_D
  1
_D
  0
LINE
  5
C9
330
C6
100
AcDbEntity
  8
치수문자_일반주서
 62
     0
370
    -2
100
AcDbLine
 10
22.88995822153858
 20
0.7507394440492153
 30
0.0
 11
22.88995822153858
 21
13.34411972202463
 31
0.0
  0
LINE
  5
CA
330
C6
100
AcDbEntity
  8
치수문자_일반주서
 62
     0
370
    -2
100
AcDbLine
 10
10.8899582215386
 20
2.953629283481835
 30
0.0
 11
10.8899582215386
 21
13.34411972202463
 31
0.0
  0
LINE
  5
CB
330
C6
100
AcDbEntity
  8
치수문자_일반주서
 62
     0
370
    -2
100
AcDbLine
 10
19.58795822153858
 20
13.34411972202463
 30
0.0
 11
14.1919582215386
 21
13.34411972202463
 31
0.0
  0
SOLID
  5
CC
330
C6
100
AcDbEntity
  8
치수문자_일반주서
 62
     0
100
AcDbTrace
 10
19.58795822153858
 20
12.7937863886913
 30
0.0
 11
19.58795822153858
 21
13.89445305535796
 31
0.0
 12
22.88995822153858
 22
13.34411972202463
 32
0.0
 13
22.88995822153858
 23
13.34411972202463
 33
0.0
  0
SOLID
  5
CD
330
C6
100
AcDbEntity
  8
치수문자_일반주서
 62
     0
100
AcDbTrace
 10
14.1919582215386
 20
13.89445305535796
 30
0.0
 11
14.1919582215386
 21
12.7937863886913
 31
0.0
 12
10.8899582215386
 22
13.34411972202463
 32
0.0
 13
10.8899582215386
 23
13.34411972202463
 33
0.0
  0
MTEXT
  5
CE
330
C6
100
AcDbEntity
  8
치수문자_일반주서
 62
     0
100
AcDbMText
 10
16.88995822153858
 20
17.71911972202463
 30
0.0
 40
3.5
 41
0.0
 71
     2
 72
     1
  1
\A1;12
  7
SLDTEXTSTYLE0
 73
     1
 44
1.0
  0
POINT
  5
CF
330
C6
100
AcDbEntity
  8
Defpoints
 62
     0
100
AcDbPoint
 10
22.88995822153858
 20
0.6882394440492153
 30
0.0
  0
POINT
  5
12B
330
C6
100
AcDbEntity
  8
Defpoints
 62
     0
100
AcDbPoint
 10
10.8899582215386
 20
2.891129283481835
 30
0.0
  0
POINT
  5
12C
330
C6
100
AcDbEntity
  8
Defpoints
 62
     0
100
AcDbPoint
 10
10.8899582215386
 20
13.34411972202463
 30
0.0
  0
ENDBLK
  5
C8
330
C6
100
AcDbEntity
  8
0
100
AcDbBlockEnd
  0
BLOCK
  5
D2
330
D1
100
AcDbEntity
  8
0
100
AcDbBlockBegin
  2
_D_1
 70
     0
 10
0.0
 20
0.0
 30
0.0
  3
_D_1
  1
_D_1
  0
LINE
  5
D4
330
D1
100
AcDbEntity
  8
치수문자_일반주서
 62
     0
370
    -2
100
AcDbLine
 10
22.88995822153858
 20
0.7507394440492153
 30
0.0
 11
22.88995822153858
 21
25.00000000000005
 31
0.0
  0
LINE
  5
D5
330
D1
100
AcDbEntity
  8
치수문자_일반주서
 62
     0
370
    -2
100
AcDbLine
 10
-67.1100417784614
 20
2.512499999999974
 30
0.0
 11
-67.1100417784614
 21
25.00000000000005
 31
0.0
  0
LINE
  5
D6
330
D1
100
AcDbEntity
  8
치수문자_일반주서
 62
     0
370
    -2
100
AcDbLine
 10
19.58795822153858
 20
25.00000000000005
 30
0.0
 11
-63.80804177846139
 21
25.00000000000005
 31
0.0
  0
SOLID
  5
D7
330
D1
100
AcDbEntity
  8
치수문자_일반주서
 62
     0
100
AcDbTrace
 10
19.58795822153858
 20
24.44966666666671
 30
0.0
 11
19.58795822153858
 21
25.55033333333338
 31
0.0
 12
22.88995822153858
 22
25.00000000000005
 32
0.0
 13
22.88995822153858
 23
25.00000000000005
 33
0.0
  0
SOLID
  5
D8
330
D1
100
AcDbEntity
  8
치수문자_일반주서
 62
     0
100
AcDbTrace
 10
-63.80804177846139
 20
25.55033333333338
 30
0.0
 11
-63.80804177846139
 21
24.44966666666671
 31
0.0
 12
-67.1100417784614
 22
25.00000000000005
 32
0.0
 13
-67.1100417784614
 23
25.00000000000005
 33
0.0
  0
MTEXT
  5
D9
330
D1
100
AcDbEntity
  8
치수문자_일반주서
 62
     0
100
AcDbMText
 10
-22.11004177846141
 20
29.37500000000005
 30
0.0
 40
3.5
 41
0.0
 71
     2
 72
     1
  1
\A1;90
  7
SLDTEXTSTYLE0
 73
     1
 44
1.0
  0
POINT
  5
12D
330
D1
100
AcDbEntity
  8
Defpoints
 62
     0
100
AcDbPoint
 10
22.88995822153858
 20
0.6882394440492153
 30
0.0
  0
POINT
  5
12E
330
D1
100
AcDbEntity
  8
Defpoints
 62
     0
100
AcDbPoint
 10
-67.1100417784614
 20
2.449999999999974
 30
0.0
  0
POINT
  5
12F
330
D1
100
AcDbEntity
  8
Defpoints
 62
     0
100
AcDbPoint
 10
-67.1100417784614
 20
25.00000000000005
 30
0.0
  0
ENDBLK
  5
D3
330
D1
100
AcDbEntity
  8
0
100
AcDbBlockEnd
  0
BLOCK
  5
DD
330
DC
100
AcDbEntity
  8
0
100
AcDbBlockBegin
  2
_D_2
 70
     0
 10
0.0
 20
0.0
 30
0.0
  3
_D_2
  1
_D_2
  0
LINE
  5
DF
330
DC
100
AcDbEntity
  8
치수문자_일반주서
 62
     0
370
    -2
100
AcDbLine
 10
-66.6225417784614
 20
2.999999999999995
 30
0.0
 11
-78.65975747123007
 21
2.99999999999995
 31
0.0
  0
LINE
  5
E0
330
DC
100
AcDbEntity
  8
치수문자_일반주서
 62
     0
370
    -2
100
AcDbLine
 10
-66.6225417784614
 20
-3.000000000000011
 30
0.0
 11
-78.65975747123005
 21
-3.000000000000056
 31
0.0
  0
LINE
  5
E1
330
DC
100
AcDbEntity
  8
치수문자_일반주서
 62
     0
370
    -2
100
AcDbLine
 10
-78.65975747123007
 20
2.99999999999995
 30
0.0
 11
-78.65975747123005
 21
-3.000000000000056
 31
0.0
  0
LINE
  5
E2
330
DC
100
AcDbEntity
  8
치수문자_일반주서
 62
     0
370
    -2
100
AcDbLine
 10
-78.65975747123008
 20
6.30199999999995
 30
0.0
 11
-78.6597574712301
 21
9.60399999999995
 31
0.0
  0
LINE
  5
E3
330
DC
100
AcDbEntity
  8
치수문자_일반주서
 62
     0
370
    -2
100
AcDbLine
 10
-78.65975747123004
 20
-6.302000000000055
 30
0.0
 11
-78.65975747123002
 21
-9.604000000000054
 31
0.0
  0
SOLID
  5
E4
330
DC
100
AcDbEntity
  8
치수문자_일반주서
 62
     0
100
AcDbTrace
 10
-79.21009080456341
 20
6.301999999999949
 30
0.0
 11
-78.10942413789675
 21
6.301999999999951
 31
0.0
 12
-78.65975747123007
 22
2.99999999999995
 32
0.0
 13
-78.65975747123007
 23
2.99999999999995
 33
0.0
  0
SOLID
  5
E5
330
DC
100
AcDbEntity
  8
치수문자_일반주서
 62
     0
100
AcDbTrace
 10
-78.10942413789671
 20
-6.302000000000054
 30
0.0
 11
-79.21009080456336
 21
-6.302000000000056
 31
0.0
 12
-78.65975747123005
 22
-3.000000000000056
 32
0.0
 13
-78.65975747123005
 23
-3.000000000000056
 33
0.0
  0
MTEXT
  5
E6
330
DC
100
AcDbEntity
  8
치수문자_일반주서
 62
     0
100
AcDbMText
 10
-83.03475747123007
 20
0.0000000000000292
 30
0.0
 40
3.5
 41
0.0
 71
     2
 72
     1
  1
\A1;%%c6
  7
SLDTEXTSTYLE0
 11
-2.368475785866999E-15
 21
1.0
 31
0.0
 73
     1
 44
1.0
  0
POINT
  5
E7
330
DC
100
AcDbEntity
  8
Defpoints
 62
     0
100
AcDbPoint
 10
-66.5600417784614
 20
2.999999999999995
 30
0.0
  0
POINT
  5
130
330
DC
100
AcDbEntity
  8
Defpoints
 62
     0
100
AcDbPoint
 10
-66.5600417784614
 20
-3.00000000000001
 30
0.0
  0
POINT
  5
131
330
DC
100
AcDbEntity
  8
Defpoints
 62
     0
100
AcDbPoint
 10
-78.65975747123005
 20
-3.000000000000056
 30
0.0
  0
ENDBLK
  5
DE
330
DC
100
AcDbEntity
  8
0
100
AcDbBlockEnd
  0
BLOCK
  5
EA
330
E9
100
AcDbEntity
  8
0
100
AcDbBlockBegin
  2
_D_3
 70
     0
 10
0.0
 20
0.0
 30
0.0
  3
_D_3
  1
_D_3
  0
LINE
  5
EC
330
E9
100
AcDbEntity
  8
치수문자_일반주서
 62
     0
370
    -2
100
AcDbLine
 10
19.9524582215386
 20
2.999999999999993
 30
0.0
 11
36.31423857178333
 21
3.000000000000055
 31
0.0
  0
LINE
  5
ED
330
E9
100
AcDbEntity
  8
치수문자_일반주서
 62
     0
370
    -2
100
AcDbLine
 10
19.9524582215386
 20
-3.000000000000008
 30
0.0
 11
36.31423857178335
 21
-2.999999999999947
 31
0.0
  0
LINE
  5
EE
330
E9
100
AcDbEntity
  8
치수문자_일반주서
 62
     0
370
    -2
100
AcDbLine
 10
36.31423857178333
 20
3.000000000000055
 30
0.0
 11
36.31423857178328
 21
15.72900000000005
 31
0.0
  0
LINE
  5
EF
330
E9
100
AcDbEntity
  8
치수문자_일반주서
 62
     0
370
    -2
100
AcDbLine
 10
36.31423857178333
 20
3.000000000000055
 30
0.0
 11
36.31423857178335
 21
-2.999999999999947
 31
0.0
  0
LINE
  5
F0
330
E9
100
AcDbEntity
  8
치수문자_일반주서
 62
     0
370
    -2
100
AcDbLine
 10
36.31423857178331
 20
6.302000000000055
 30
0.0
 11
36.3142385717833
 21
9.604000000000054
 31
0.0
  0
LINE
  5
F1
330
E9
100
AcDbEntity
  8
치수문자_일반주서
 62
     0
370
    -2
100
AcDbLine
 10
36.31423857178336
 20
-6.301999999999946
 30
0.0
 11
36.31423857178338
 21
-9.603999999999946
 31
0.0
  0
SOLID
  5
F2
330
E9
100
AcDbEntity
  8
치수문자_일반주서
 62
     0
100
AcDbTrace
 10
35.76390523844998
 20
6.302000000000053
 30
0.0
 11
36.86457190511665
 21
6.302000000000056
 31
0.0
 12
36.31423857178333
 22
3.000000000000055
 32
0.0
 13
36.31423857178333
 23
3.000000000000055
 33
0.0
  0
SOLID
  5
F3
330
E9
100
AcDbEntity
  8
치수문자_일반주서
 62
     0
100
AcDbTrace
 10
36.8645719051167
 20
-6.301999999999945
 30
0.0
 11
35.76390523845003
 21
-6.301999999999948
 31
0.0
 12
36.31423857178335
 22
-2.999999999999947
 32
0.0
 13
36.31423857178335
 23
-2.999999999999947
 33
0.0
  0
MTEXT
  5
F4
330
E9
100
AcDbEntity
  8
치수문자_일반주서
 62
     0
100
AcDbMText
 10
31.93923857178329
 20
12.66650000000004
 30
0.0
 40
3.5
 41
0.0
 71
     2
 72
     1
  1
\A1;%%c6
  7
SLDTEXTSTYLE0
 11
-3.552713678800501E-15
 21
1.0
 31
0.0
 73
     1
 44
1.0
  0
POINT
  5
128
330
E9
100
AcDbEntity
  8
Defpoints
 62
     0
100
AcDbPoint
 10
19.8899582215386
 20
2.999999999999992
 30
0.0
  0
POINT
  5
129
330
E9
100
AcDbEntity
  8
Defpoints
 62
     0
100
AcDbPoint
 10
19.8899582215386
 20
-3.000000000000008
 30
0.0
  0
POINT
  5
12A
330
E9
100
AcDbEntity
  8
Defpoints
 62
     0
100
AcDbPoint
 10
36.31423857178335
 20
-2.999999999999947
 30
0.0
  0
ENDBLK
  5
EB
330
E9
100
AcDbEntity
  8
0
100
AcDbBlockEnd
  0
BLOCK
  5
FD
330
FC
100
AcDbEntity
  8
0
100
AcDbBlockBegin
  2
SW_DOWELSYMBOL_0
 70
     0
 10
0.0
 20
0.0
 30
0.0
  3
SW_DOWELSYMBOL_0
  1
SW_DOWELSYMBOL_0
  0
CIRCLE
  5
FF
330
FC
100
AcDbEntity
  8
해칭선
 62
     0
100
AcDbCircle
 10
0.0
 20
0.0
 30
0.0
 40
3.000000000000001
  0
HATCH
  5
100
330
FC
100
AcDbEntity
  8
0
  6
Continuous
 62
     0
370
     0
100
AcDbHatch
 10
0.0
 20
0.0
 30
0.0
210
0.0
220
0.0
230
1.0
  2
SOLID
 70
     1
 71
     0
 91
        1
 92
        0
 93
        3
 72
     2
 10
0.0
 20
0.0
 40
3.000000000000001
 50
0.0
 51
90.0
 73
     1
 72
     1
 10
0.0
 20
3.000000000000001
 11
0.0
 21
0.0
 72
     1
 10
0.0
 20
0.0
 11
3.000000000000001
 21
0.0
 97
        0
 75
     0
 76
     1
 98
        1
 10
0.0
 20
0.0
  0
HATCH
  5
101
330
FC
100
AcDbEntity
  8
0
  6
Continuous
 62
     0
370
     0
100
AcDbHatch
 10
0.0
 20
0.0
 30
0.0
210
0.0
220
0.0
230
1.0
  2
SOLID
 70
     1
 71
     0
 91
        1
 92
        0
 93
        3
 72
     2
 10
0.0
 20
0.0
 40
3.000000000000001
 50
180.0
 51
270.0000000000007
 73
     1
 72
     1
 10
0.0
 20
-3.000000000000001
 11
0.0
 21
0.0
 72
     1
 10
0.0
 20
0.0
 11
-3.000000000000001
 21
0.0
 97
        0
 75
     0
 76
     1
 98
        1
 10
0.0
 20
0.0
  0
ENDBLK
  5
FE
330
FC
100
AcDbEntity
  8
0
100
AcDbBlockEnd
  0
ENDSEC
  0
SECTION
  2
ENTITIES
  0
LINE
  5
96
330
1F
100
AcDbEntity
  8
외형선
  6
Continuous
370
    15
100
AcDbLine
 10
10.0
 20
2.999999999999992
 30
0.0
 11
-46.11004177846142
 21
2.999999999999985
 31
0.0
  0
LINE
  5
97
330
1F
100
AcDbEntity
  8
외형선
  6
Continuous
370
    15
100
AcDbLine
 10
-66.56004177846141
 20
-3.000000000000017
 30
0.0
 11
10.0
 21
-3.000000000000008
 31
0.0
  0
LINE
  5
98
330
1F
100
AcDbEntity
  8
외형선
  6
Continuous
370
    15
100
AcDbLine
 10
-66.56004177846141
 20
2.999999999999983
 30
0.0
 11
-67.11004177846141
 21
2.449999999999982
 31
0.0
  0
LINE
  5
99
330
1F
100
AcDbEntity
  8
외형선
  6
Continuous
370
    15
100
AcDbLine
 10
-67.11004177846141
 20
-2.450000000000017
 30
0.0
 11
-66.56004177846141
 21
-3.000000000000018
 31
0.0
  0
LINE
  5
9A
330
1F
100
AcDbEntity
  8
외형선
  6
Continuous
 62
     1
370
    15
100
AcDbLine
 10
19.29083785722504
 20
-3.000000000000008
 30
0.0
 11
19.8899582215386
 21
-3.000000000000008
 31
0.0
  0
ARC
  5
9B
330
1F
100
AcDbEntity
  8
외형선
  6
Continuous
 62
     1
370
    15
100
AcDbCircle
 10
19.8899582215386
 20
-0.0000000000000076
 30
0.0
 40
3.000000000000001
100
AcDbArc
 50
270.0000000000007
 51
0.0
  0
ARC
  5
9C
330
1F
100
AcDbEntity
  8
외형선
  6
Continuous
 62
     1
370
    15
100
AcDbCircle
 10
19.8899582215386
 20
-0.0000000000000076
 30
0.0
 40
3.000000000000001
100
AcDbArc
 50
0.0
 51
90.0
  0
LINE
  5
9D
330
1F
100
AcDbEntity
  8
외형선
  6
Continuous
 62
     1
370
    15
100
AcDbLine
 10
19.8899582215386
 20
2.999999999999992
 30
0.0
 11
19.29083785722503
 21
2.999999999999992
 31
0.0
  0
LINE
  5
9E
330
1F
100
AcDbEntity
  8
외형선
  6
Continuous
370
    15
100
AcDbLine
 10
10.0
 20
2.98535334597396
 30
0.0
 11
10.0
 21
2.999999999999992
 31
0.0
  0
SPLINE
  5
9F
330
1F
100
AcDbEntity
  8
외형선
  6
Continuous
370
    15
100
AcDbSpline
210
0.0
220
0.0
230
1.0
 70
     8
 71
     3
 72
     8
 73
     4
 74
     0
 42
0.000000001
 43
0.00000001
 40
0.0
 40
0.0
 40
0.0
 40
0.0
 40
1.0
 40
1.0
 40
1.0
 40
1.0
 10
10.88995822153871
 20
2.891129283481872
 30
0.0
 10
10.59318939743219
 20
2.936899499561257
 30
0.0
 10
10.29833439027843
 20
2.968429330755264
 30
0.0
 10
10.0
 20
2.98537065467896
 30
0.0
  0
SPLINE
  5
A0
330
1F
100
AcDbEntity
  8
외형선
  6
Continuous
370
    15
100
AcDbSpline
210
0.0
220
0.0
230
1.0
 70
     8
 71
     3
 72
     8
 73
     4
 74
     0
 42
0.000000001
 43
0.00000001
 40
0.0
 40
0.0
 40
0.0
 40
0.0
 40
1.0
 40
1.0
 40
1.0
 40
1.0
 10
10.8899582215386
 20
0.1368685218651929
 30
0.0
 10
10.59317974634705
 20
0.308150264370641
 30
0.0
 10
10.29831500227794
 20
0.4783967384993521
 30
0.0
 10
9.999970894004797
 20
0.6461268063151455
 30
0.0
  0
LINE
  5
A1
330
1F
100
AcDbEntity
  8
외형선
  6
Continuous
370
    15
100
AcDbLine
 10
10.0
 20
-3.000000000000008
 30
0.0
 11
10.0
 21
0.6462753512667382
 31
0.0
  0
SPLINE
  5
A2
330
1F
100
AcDbEntity
  8
외형선
  6
Continuous
370
    15
100
AcDbSpline
210
0.0
220
0.0
230
1.0
 70
     8
 71
     3
 72
     8
 73
     4
 74
     0
 42
0.000000001
 43
0.00000001
 40
0.0
 40
0.0
 40
0.0
 40
0.0
 40
1.0
 40
1.0
 40
1.0
 40
1.0
 10
10.88995822153871
 20
-2.891129283481887
 30
0.0
 10
10.59318939743219
 20
-2.936899499561273
 30
0.0
 10
10.29833439027844
 20
-2.968429330755279
 30
0.0
 10
10.0
 20
-2.985370654678975
 30
0.0
  0
LINE
  5
A3
330
1F
100
AcDbEntity
  8
외형선
  6
Continuous
370
    15
100
AcDbLine
 10
-66.56004177846141
 20
2.999999999999983
 30
0.0
 11
-66.56004177846141
 21
-3.000000000000017
 31
0.0
  0
LINE
  5
A4
330
1F
100
AcDbEntity
  8
외형선
  6
Continuous
 62
     1
370
    15
100
AcDbLine
 10
10.8899582215386
 20
2.891129283482138
 30
0.0
 11
10.8899582215386
 21
0.1368685218651951
 31
0.0
  0
LINE
  5
A5
330
1F
100
AcDbEntity
  8
외형선
  6
Continuous
370
    15
100
AcDbLine
 10
-67.11004177846141
 20
2.449999999999983
 30
0.0
 11
-67.11004177846141
 21
-2.450000000000017
 31
0.0
  0
SPLINE
  5
A6
330
1F
100
AcDbEntity
  8
외형선
  6
Continuous
370
    15
100
AcDbSpline
210
0.0
220
0.0
230
1.0
 70
     8
 71
     3
 72
     8
 73
     4
 74
     0
 42
0.000000001
 43
0.00000001
 40
0.0
 40
0.0
 40
0.0
 40
0.0
 40
1.0
 40
1.0
 40
1.0
 40
1.0
 10
10.88995822153874
 20
-1.510783223390575
 30
0.0
 10
10.59318939743222
 20
-1.432186711595564
 30
0.0
 10
10.29833439027845
 20
-1.346367662570697
 30
0.0
 10
10.0
 20
-1.254031877336425
 30
0.0
  0
SPLINE
  5
A7
330
1F
100
AcDbEntity
  8
외형선
  6
Continuous
 62
     1
370
    15
100
AcDbSpline
210
0.0
220
0.0
230
1.0
 70
    24
 71
     3
 72
    14
 73
    10
 74
     0
 42
0.000000001
 43
0.00000001
 40
0.0
 40
0.0
 40
0.0
 40
0.0
 40
0.25
 40
0.25
 40
0.5000000000000001
 40
0.5000000000000001
 40
0.75
 40
0.75
 40
1.0
 40
1.0
 40
1.0
 40
1.0
 10
10.8899582215386
 20
0.1368685218658532
 30
0.0
 10
10.8899582215386
 20
0.1126804198820352
 30
0.0
 10
10.8899582215386
 20
0.0428560509429952
 30
0.0
 10
10.8899582215386
 20
-0.1736033796336348
 30
0.0
 10
10.8899582215386
 20
-0.3193790860512289
 30
0.0
 10
10.8899582215386
 20
-0.6452296600189169
 30
0.0
 10
10.8899582215386
 20
-0.8244201749466369
 30
0.0
 10
10.8899582215386
 20
-1.177120911218888
 30
0.0
 10
10.8899582215386
 20
-1.350490241138678
 30
0.0
 10
10.8899582215386
 20
-1.510783223390538
 30
0.0
  0
SPLINE
  5
A8
330
1F
100
AcDbEntity
  8
외형선
  6
Continuous
 62
     1
370
    15
100
AcDbSpline
210
0.0
220
0.0
230
1.0
 70
    24
 71
     3
 72
    19
 73
    15
 74
     0
 42
0.000000001
 43
0.00000001
 40
0.0
 40
0.0
 40
0.0
 40
0.0
 40
0.0535356393966452
 40
0.1394253379910295
 40
0.2259467310362797
 40
0.3094286800424443
 40
0.3934902587187284
 40
0.4793799573131083
 40
0.5659013503583615
 40
0.6493832993645257
 40
0.7334448780408092
 40
0.8193345766351888
 40
0.905855969680442
 40
1.0
 40
1.0
 40
1.0
 40
1.0
 10
10.8899582215386
 20
-1.572502025860647
 30
0.0
 10
10.8899582215386
 20
-1.582452719732717
 30
0.0
 10
10.8899582215386
 20
-1.608367771313205
 30
0.0
 10
10.8899582215386
 20
-1.665312392382548
 30
0.0
 10
10.8899582215386
 20
-1.740586095109929
 30
0.0
 10
10.8899582215386
 20
-1.827875954751384
 30
0.0
 10
10.8899582215386
 20
-1.926015913733041
 30
0.0
 10
10.8899582215386
 20
-2.036182439388558
 30
0.0
 10
10.8899582215386
 20
-2.156229597380742
 30
0.0
 10
10.8899582215386
 20
-2.284486666100424
 30
0.0
 10
10.8899582215386
 20
-2.420433840316229
 30
0.0
 10
10.8899582215386
 20
-2.56536958275353
 30
0.0
 10
10.8899582215386
 20
-2.722264668641116
 30
0.0
 10
10.8899582215386
 20
-2.833279761908776
 30
0.0
 10
10.8899582215386
 20
-2.891129283482226
 30
0.0
  0
SPLINE
  5
A9
330
1F
100
AcDbEntity
  8
외형선
  6
Continuous
 62
     1
370
    15
100
AcDbSpline
210
0.0
220
0.0
230
1.0
 70
     8
 71
     3
 72
    28
 73
    24
 74
     0
 42
0.000000001
 43
0.00000001
 40
0.0
 40
0.0
 40
0.0
 40
0.0
 40
0.1249999999999997
 40
0.1249999999999997
 40
0.2499999999999994
 40
0.2499999999999994
 40
0.3124999999999995
 40
0.3124999999999995
 40
0.3749999999999996
 40
0.3749999999999996
 40
0.4374999999999997
 40
0.4374999999999997
 40
0.4999999999999998
 40
0.4999999999999998
 40
0.6249999999999997
 40
0.6249999999999997
 40
0.6874999999999998
 40
0.6874999999999998
 40
0.7499999999999998
 40
0.7499999999999998
 40
0.8749999999999998
 40
0.8749999999999998
 40
1.0
 40
1.0
 40
1.0
 40
1.0
 10
19.8899582215386
 20
-1.253878814649937
 30
0.0
 10
19.51511228784141
 20
-1.057249354681375
 30
0.0
 10
19.13677000343547
 20
-0.8501449565755267
 30
0.0
 10
18.39215030528269
 20
-0.4281551459460767
 30
0.0
 10
18.01239547801023
 20
-0.2107480258567302
 30
0.0
 10
17.45137209767722
 20
0.1136737347545361
 30
0.0
 10
17.26584283325516
 20
0.2215197629814058
 30
0.0
 10
16.89032262842156
 20
0.4367831696246193
 30
0.0
 10
16.70165373124183
 20
0.5439427197516664
 30
0.0
 10
16.32581032358055
 20
0.7554346926212352
 30
0.0
 10
16.13985995260952
 20
0.8595424436518759
 30
0.0
 10
15.76643496812081
 20
1.064296864426112
 30
0.0
 10
15.5781273509947
 20
1.165086665572234
 30
0.0
 10
15.01335562645252
 20
1.459991269931759
 30
0.0
 10
14.64208624843901
 20
1.645804718201737
 30
0.0
 10
14.07805337804069
 20
1.904319220701358
 30
0.0
 10
13.88940189078219
 20
1.98702117206593
 30
0.0
 10
13.51412881967536
 20
2.144049385523796
 30
0.0
 10
13.32876970619803
 20
2.218226573054174
 30
0.0
 10
12.76721355870934
 20
2.428102909578838
 30
0.0
 10
12.38752985237386
 20
2.55060739996838
 30
0.0
 10
11.64388895908067
 20
2.752544748598904
 30
0.0
 10
11.26448877318606
 20
2.833365991368035
 30
0.0
 10
10.88995822153871
 20
2.891129283482168
 30
0.0
  0
SPLINE
  5
AA
330
1F
100
AcDbEntity
  8
외형선
  6
Continuous
 62
     1
370
    15
100
AcDbSpline
210
0.0
220
0.0
230
1.0
 70
     8
 71
     3
 72
    13
 73
     9
 74
     0
 42
0.000000001
 43
0.00000001
 40
0.0
 40
0.0
 40
0.0
 40
0.0
 40
0.1470676430273793
 40
0.2941392029669701
 40
0.4901449605929559
 40
0.6861224405945138
 40
0.8819742468059875
 40
1.0
 40
1.0
 40
1.0
 40
1.0
 10
22.08683744837068
 20
0.3143750499712488
 30
0.0
 10
21.68372014908599
 20
0.4693956660788289
 30
0.0
 10
20.87747481413
 20
0.7794410270209595
 30
0.0
 10
19.53413140854704
 20
1.244052358865993
 30
0.0
 10
18.05589137134562
 20
1.665975108458422
 30
0.0
 10
16.44417307910169
 20
1.958337308376555
 30
0.0
 10
15.0462859777306
 20
2.077120868535134
 30
0.0
 10
14.18579941020585
 20
2.01487808610283
 30
0.0
 10
13.86223510239805
 20
1.991473254959825
 30
0.0
  0
SPLINE
  5
AB
330
1F
100
AcDbEntity
  8
외형선
  6
Continuous
 62
     1
370
    15
100
AcDbSpline
210
0.0
220
0.0
230
1.0
 70
     8
 71
     3
 72
    22
 73
    18
 74
     0
 42
0.000000001
 43
0.00000001
 40
0.0
 40
0.0
 40
0.0
 40
0.0
 40
0.125
 40
0.125
 40
0.25
 40
0.25
 40
0.375
 40
0.375
 40
0.5
 40
0.5
 40
0.625
 40
0.625
 40
0.75
 40
0.75
 40
0.875
 40
0.875
 40
1.0
 40
1.0
 40
1.0
 40
1.0
 10
19.8899582215386
 20
-1.253878814649942
 30
0.0
 10
20.05655533485322
 20
-1.341269119515404
 30
0.0
 10
20.22021066522606
 20
-1.420042817198557
 30
0.0
 10
20.54720002404477
 20
-1.552210542954098
 30
0.0
 10
20.71219672017045
 20
-1.60625469929336
 30
0.0
 10
21.03804476848645
 20
-1.675630051295152
 30
0.0
 10
21.19772865661716
 20
-1.691432465246385
 30
0.0
 10
21.51762975396856
 20
-1.667968699084326
 30
0.0
 10
21.67356466466439
 20
-1.628609424698706
 30
0.0
 10
21.96782985768858
 20
-1.469693739647051
 30
0.0
 10
22.1046481456729
 20
-1.349108370040768
 30
0.0
 10
22.31266489185286
 20
-1.028926786815728
 30
0.0
 10
22.37532947925358
 20
-0.8390657833601913
 30
0.0
 10
22.40694879115549
 20
-0.4680211255598459
 30
0.0
 10
22.37845434462801
 20
-0.2931319246125862
 30
0.0
 10
22.26823705621914
 20
0.0271632420294808
 30
0.0
 10
22.18661495755817
 20
0.1742077956303436
 30
0.0
 10
22.08683744836118
 20
0.314375049974933
 30
0.0
  0
SPLINE
  5
AC
330
1F
100
AcDbEntity
  8
외형선
  6
Continuous
 62
     1
370
    15
100
AcDbSpline
210
0.0
220
0.0
230
1.0
 70
     8
 71
     3
 72
    11
 73
     7
 74
     0
 42
0.000000001
 43
0.00000001
 40
0.0
 40
0.0
 40
0.0
 40
0.0
 40
0.0450787614440287
 40
0.4348946817485202
 40
0.7175058530790083
 40
1.0
 40
1.0
 40
1.0
 40
1.0
 10
15.01909772477726
 20
-2.029828386951368
 30
0.0
 10
14.95704485958649
 20
-2.034425743341672
 30
0.0
 10
14.35839351704181
 20
-2.078778466890396
 30
0.0
 10
13.37079833748433
 20
-1.98717500405612
 30
0.0
 10
12.05649389851757
 20
-1.79919211745068
 30
0.0
 10
11.27874976101189
 20
-1.606906248285775
 30
0.0
 10
10.88995822153871
 20
-1.510783223390567
 30
0.0
  0
SPLINE
  5
AD
330
1F
100
AcDbEntity
  8
외형선
  6
Continuous
 62
     1
370
    15
100
AcDbSpline
210
0.0
220
0.0
230
1.0
 70
     8
 71
     3
 72
    14
 73
    10
 74
     0
 42
0.000000001
 43
0.00000001
 40
0.0
 40
0.0
 40
0.0
 40
0.0
 40
0.1499805254227909
 40
0.2999909691009851
 40
0.4500244069012628
 40
0.6000301030241402
 40
0.757129911748028
 40
0.9142253327657798
 40
0.9999999999999999
 40
0.9999999999999999
 40
0.9999999999999999
 40
0.9999999999999999
 10
10.88995822153816
 20
0.1368685218654457
 30
0.0
 10
11.30992897723974
 20
-0.1060915426010469
 30
0.0
 10
12.14995426480179
 20
-0.5920601374347951
 30
0.0
 10
13.41015677288539
 20
-1.288634110906969
 30
0.0
 10
14.67049746964552
 20
-1.908584408553356
 30
0.0
 10
15.9505919194949
 20
-2.427498022242588
 30
0.0
 10
17.25051009010879
 20
-2.795860134077268
 30
0.0
 10
18.37054104394892
 20
-2.99037509868271
 30
0.0
 10
19.05064490846281
 20
-2.979788451786378
 30
0.0
 10
19.29083785722504
 20
-2.976049555320392
 30
0.0
  0
SPLINE
  5
AE
330
1F
100
AcDbEntity
  8
외형선
  6
Continuous
 62
     1
370
    15
100
AcDbSpline
210
0.0
220
0.0
230
1.0
 70
    24
 71
     3
 72
    14
 73
    10
 74
     0
 42
0.000000001
 43
0.00000001
 40
0.0
 40
0.0
 40
0.0
 40
0.0
 40
0.2500000000000001
 40
0.2500000000000001
 40
0.5000000000000002
 40
0.5000000000000002
 40
0.7500000000000002
 40
0.7500000000000002
 40
1.0
 40
1.0
 40
1.0
 40
1.0
 10
10.8899582215386
 20
0.1368685218658519
 30
0.0
 10
10.8899582215386
 20
0.1126804198820338
 30
0.0
 10
10.8899582215386
 20
0.0428560509429939
 30
0.0
 10
10.8899582215386
 20
-0.1736033796336363
 30
0.0
 10
10.8899582215386
 20
-0.3193790860512303
 30
0.0
 10
10.8899582215386
 20
-0.6452296600189186
 30
0.0
 10
10.8899582215386
 20
-0.824420174946638
 30
0.0
 10
10.8899582215386
 20
-1.177120911218889
 30
0.0
 10
10.8899582215386
 20
-1.350490241138679
 30
0.0
 10
10.8899582215386
 20
-1.510783223390539
 30
0.0
  0
SPLINE
  5
AF
330
1F
100
AcDbEntity
  8
외형선
  6
Continuous
 62
     1
370
    15
100
AcDbSpline
210
0.0
220
0.0
230
1.0
 70
     8
 71
     3
 72
    10
 73
     6
 74
     0
 42
0.000000001
 43
0.00000001
 40
0.0
 40
0.0
 40
0.0
 40
0.0
 40
0.5
 40
0.5
 40
1.0
 40
1.0
 40
1.0
 40
1.0
 10
22.08683744836117
 20
0.3143750499749324
 30
0.0
 10
22.15582929551064
 20
0.3559998840002571
 30
0.0
 10
22.21090542034511
 20
0.4193037581655008
 30
0.0
 10
22.28456691587449
 20
0.5797743650340224
 30
0.0
 10
22.30280826729265
 20
0.6764405741869628
 30
0.0
 10
22.30449709835927
 20
0.7769722338658591
 30
0.0
  0
ARC
  5
B0
330
1F
100
AcDbEntity
  8
외형선
  6
Continuous
 62
     1
370
    15
100
AcDbCircle
 10
21.45465308084522
 20
-0.5215006090609156
 30
0.0
 40
1.551859071540592
100
AcDbArc
 50
23.84127197819332
 51
56.79545245918059
  0
ARC
  5
B1
330
1F
100
AcDbEntity
  8
외형선
  6
Continuous
 62
     1
370
    15
100
AcDbCircle
 10
20.19185743293533
 20
0.0556611854904171
 30
0.0
 40
2.682700607475191
100
AcDbArc
 50
1.070206761154663
 51
71.15049063980955
  0
SPLINE
  5
B2
330
1F
100
AcDbEntity
  8
외형선
  6
Continuous
 62
     1
370
    15
100
AcDbSpline
210
0.0
220
0.0
230
1.0
 70
     8
 71
     3
 72
    10
 73
     6
 74
     0
 42
0.000000001
 43
0.00000001
 40
0.0
 40
0.0
 40
0.0
 40
0.0
 40
0.5
 40
0.5
 40
1.0
 40
1.0
 40
1.0
 40
1.0
 10
21.05859393777179
 20
2.594489730416524
 30
0.0
 10
20.87281645237113
 20
2.70770080870501
 30
0.0
 10
20.68147227609045
 20
2.796631402079766
 30
0.0
 10
20.29153491769562
 20
2.926047492071582
 30
0.0
 10
20.09115571682384
 20
2.966701719165091
 30
0.0
 10
19.8899582215384
 20
2.980070457427802
 30
0.0
  0
SPLINE
  5
B3
330
1F
100
AcDbEntity
  8
외형선
  6
Continuous
 62
     1
370
    15
100
AcDbSpline
210
0.0
220
0.0
230
1.0
 70
     8
 71
     3
 72
     8
 73
     4
 74
     0
 42
0.000000001
 43
0.00000001
 40
0.0
 40
0.0
 40
0.0
 40
0.0
 40
1.0
 40
1.0
 40
1.0
 40
1.0
 10
20.44949178698139
 20
1.342961028682812
 30
0.0
 10
21.05936861911034
 20
1.17345475927771
 30
0.0
 10
21.68116667773988
 20
0.9824784447705233
 30
0.0
 10
22.30449709835927
 20
0.7769722338658838
 30
0.0
  0
SPLINE
  5
B4
330
1F
100
AcDbEntity
  8
외형선
  6
Continuous
 62
     1
370
    15
100
AcDbSpline
210
0.0
220
0.0
230
1.0
 70
     8
 71
     3
 72
    11
 73
     7
 74
     0
 42
0.000000001
 43
0.00000001
 40
0.0062563878784577
 40
0.0062563878784577
 40
0.0062563878784577
 40
0.0062563878784577
 40
0.1871618881576858
 40
0.4581152823002119
 40
0.7290611088722896
 40
1.0
 40
1.0
 40
1.0
 40
1.0
 10
15.0495715563587
 20
2.042607950630351
 30
0.0
 10
15.34329182449742
 20
2.16577026659073
 30
0.0
 10
16.07693532743606
 20
2.472016887734734
 30
0.0
 10
17.25050906925225
 20
2.796527559319898
 30
0.0
 10
18.57024847456596
 20
3.012668875058989
 30
0.0
 10
19.45005872603676
 20
2.990936503922496
 30
0.0
 10
19.8899582215386
 20
2.980070457427789
 30
0.0
  0
SPLINE
  5
B5
330
1F
100
AcDbEntity
  8
외형선
  6
Continuous
 62
     1
370
    15
100
AcDbSpline
210
0.0
220
0.0
230
1.0
 70
     8
 71
     3
 72
    14
 73
    10
 74
     0
 42
0.000000001
 43
0.00000001
 40
0.0
 40
0.0
 40
0.0
 40
0.0
 40
0.2500000000000002
 40
0.2500000000000002
 40
0.5000000000000003
 40
0.5000000000000003
 40
0.7500000000000001
 40
0.7500000000000001
 40
1.0
 40
1.0
 40
1.0
 40
1.0
 10
21.0585939377718
 20
2.594489730416525
 30
0.0
 10
21.07990089501582
 20
2.468545816512863
 30
0.0
 10
21.08946509805186
 20
2.340317462980349
 30
0.0
 10
21.0707915335031
 20
2.080698023542165
 30
0.0
 10
21.04182472740551
 20
1.952809299939109
 30
0.0
 10
20.93590209624142
 20
1.720122911317282
 30
0.0
 10
20.85859268596605
 20
1.61653049780991
 30
0.0
 10
20.67200585834194
 20
1.451025277593706
 30
0.0
 10
20.56273467252167
 20
1.388021061010636
 30
0.0
 10
20.44949178698139
 20
1.342961028682809
 30
0.0
  0
SPLINE
  5
B6
330
1F
100
AcDbEntity
  8
외형선
  6
Continuous
 62
     1
370
    15
100
AcDbSpline
210
0.0
220
0.0
230
1.0
 70
     8
 71
     3
 72
    12
 73
     8
 74
     0
 42
0.000000001
 43
0.00000001
 40
0.0217037586109868
 40
0.0217037586109868
 40
0.0217037586109868
 40
0.0217037586109868
 40
0.10230287615579
 40
0.3244275013141185
 40
0.5474579603327573
 40
0.7732534171343571
 40
1.0
 40
1.0
 40
1.0
 40
1.0
 10
13.80701712427545
 20
-2.019760147651674
 30
0.0
 10
13.7268789736817
 20
-2.054117678524795
 30
0.0
 10
13.42591366930512
 20
-2.182372739890663
 30
0.0
 10
12.90404618104992
 20
-2.380858562613229
 30
0.0
 10
12.23627312317341
 20
-2.59583574702879
 30
0.0
 10
11.56568422293938
 20
-2.773312396883839
 30
0.0
 10
11.11551560125708
 20
-2.851801999682829
 30
0.0
 10
10.8899582215386
 20
-2.891129283482226
 30
0.0
  0
SPLINE
  5
B7
330
1F
100
AcDbEntity
  8
외형선
  6
Continuous
 62
     1
370
    15
100
AcDbSpline
210
0.0
220
0.0
230
1.0
 70
    24
 71
     3
 72
    19
 73
    15
 74
     0
 42
0.000000001
 43
0.00000001
 40
0.0
 40
0.0
 40
0.0
 40
0.0
 40
0.0535356393966452
 40
0.1394253379910289
 40
0.2259467310362796
 40
0.309428680042444
 40
0.3934902587187277
 40
0.4793799573131074
 40
0.5659013503583608
 40
0.6493832993645247
 40
0.7334448780408089
 40
0.81933457663519
 40
0.9058559696804428
 40
0.9999999999999999
 40
0.9999999999999999
 40
0.9999999999999999
 40
0.9999999999999999
 10
10.8899582215386
 20
-1.572502025860647
 30
0.0
 10
10.8899582215386
 20
-1.582452719732717
 30
0.0
 10
10.8899582215386
 20
-1.608367771313206
 30
0.0
 10
10.8899582215386
 20
-1.665312392382547
 30
0.0
 10
10.88995822153859
 20
-1.740586095109928
 30
0.0
 10
10.8899582215386
 20
-1.827875954751384
 30
0.0
 10
10.8899582215386
 20
-1.92601591373304
 30
0.0
 10
10.8899582215386
 20
-2.036182439388558
 30
0.0
 10
10.8899582215386
 20
-2.156229597380741
 30
0.0
 10
10.8899582215386
 20
-2.284486666100423
 30
0.0
 10
10.8899582215386
 20
-2.420433840316229
 30
0.0
 10
10.8899582215386
 20
-2.565369582753531
 30
0.0
 10
10.8899582215386
 20
-2.722264668641116
 30
0.0
 10
10.8899582215386
 20
-2.833279761908777
 30
0.0
 10
10.8899582215386
 20
-2.891129283482226
 30
0.0
  0
LINE
  5
B8
330
1F
100
AcDbEntity
  8
중심선
 62
     1
100
AcDbLine
 10
-70.11004177846141
 20
-0.0000000000000098
 30
0.0
 11
26.42204900335111
 21
0.0000000000000005
 31
0.0
  0
LINE
  5
B9
330
1F
100
AcDbEntity
  8
참조1
100
AcDbLine
 10
-30.4019237886467
 20
0.0010749287238892
 30
0.0
 11
-30.40192378864669
 21
-39.99892507127611
 31
0.0
  0
LINE
  5
BA
330
1F
100
AcDbEntity
  8
참조1
100
AcDbLine
 10
20.59807621135331
 20
0.0010749287238892
 30
0.0
 11
20.59807621135331
 21
0.6893143727731179
 31
0.0
  0
LINE
  5
BB
330
1F
100
AcDbEntity
  8
참조1
100
AcDbLine
 10
-30.40192378864669
 20
-39.99892507127611
 30
0.0
 11
-42.56078060295538
 21
-39.9989250712761
 31
0.0
  0
CIRCLE
  5
BC
330
1F
100
AcDbEntity
  8
해칭선
100
AcDbCircle
 10
0.0
 20
0.0
 30
0.0
 40
3.000000000000001
  0
INSERT
  5
BD
330
1F
100
AcDbEntity
  8
0
  6
Continuous
 62
     7
100
AcDbBlockReference
 66
     1
  2
블럭10
 10
-42.05031471058662
 20
-52.04717430164394
 30
0.0
  0
ATTRIB
  5
BE
330
BD
100
AcDbEntity
  8
FORMAT
 62
     2
100
AcDbText
 10
-52.19195072272325
 20
-49.97180738881175
 30
0.0
 40
4.233333333333333
  1
EM823060 [ 2 FLUTE ]
 41
0.75
  7
SLDTEXTSTYLE0
 11
-52.19195072272325
 21
-52.08847405547842
 31
0.0
100
AcDbAttribute
  2
AUTOATTR0
 70
     0
 74
     1
  0
SEQEND
  5
BF
330
BD
100
AcDbEntity
  8
0
  6
Continuous
 62
     7
  0
HATCH
  5
C0
330
1F
100
AcDbEntity
  8
중심선
100
AcDbHatch
 10
0.0
 20
0.0
 30
0.0
210
0.0
220
0.0
230
1.0
  2
SOLID
 70
     1
 71
     0
 91
        1
 92
        0
 93
        4
 72
     1
 10
-36.33540540620578
 20
-35.8
 11
-39.78168065004306
 21
-35.8
 72
     1
 10
-39.78168065004306
 20
-35.8
 11
-41.90991050924711
 21
-38.33632558057261
 72
     1
 10
-41.90991050924711
 20
-38.33632558057261
 11
-38.46360218029665
 21
-38.33628615127012
 72
     1
 10
-38.46360218029665
 20
-38.33628615127012
 11
-36.33540540620578
 21
-35.8
 97
        0
 75
     0
 76
     1
 98
        1
 10
2.29188201018529
 20
-0.0010749287238991
  0
HATCH
  5
C1
330
1F
100
AcDbEntity
  8
중심선
100
AcDbHatch
 10
0.0
 20
0.0
 30
0.0
210
0.0
220
0.0
230
1.0
  2
SOLID
 70
     1
 71
     0
 91
        1
 92
        0
 93
        4
 72
     1
 10
-31.32264141516978
 20
-35.79999999999998
 11
-34.76891665900708
 21
-35.80000000000003
 72
     1
 10
-34.76891665900708
 20
-35.80000000000003
 11
-39.3000546673645
 21
-41.20000000000002
 72
     1
 10
-39.3000546673645
 20
-41.20000000000002
 11
-35.85377942352721
 21
-41.20000000000002
 72
     1
 10
-35.85377942352721
 20
-41.20000000000002
 11
-31.32264141516978
 21
-35.79999999999998
 97
        0
 75
     0
 76
     1
 98
        1
 10
2.29188201018529
 20
-0.0010749287238991
  0
HATCH
  5
C2
330
1F
100
AcDbEntity
  8
중심선
100
AcDbHatch
 10
0.0
 20
0.0
 30
0.0
210
0.0
220
0.0
230
1.0
  2
SOLID
 70
     1
 71
     0
 91
        1
 92
        0
 93
        4
 72
     1
 10
-26.30987742413393
 20
-35.8
 11
-29.75615266797105
 21
-35.80000000000003
 72
     1
 10
-29.75615266797105
 20
-35.80000000000003
 11
-36.8045895698603
 21
-44.20000000000002
 72
     1
 10
-36.8045895698603
 20
-44.20000000000002
 11
-33.35831432602301
 21
-44.20000000000002
 72
     1
 10
-33.35831432602301
 20
-44.20000000000002
 11
-26.30987742413393
 21
-35.8
 97
        0
 75
     0
 76
     1
 98
        1
 10
2.29188201018529
 20
-0.0010749287238991
  0
HATCH
  5
C3
330
1F
100
AcDbEntity
  8
중심선
100
AcDbHatch
 10
0.0
 20
0.0
 30
0.0
210
0.0
220
0.0
230
1.0
  2
SOLID
 70
     1
 71
     0
 91
        1
 92
        0
 93
        6
 72
     3
 10
-21.50998699312174
 20
-40.00000000005128
 11
3.960054785062283
 21
1.540882976769353E-10
 40
0.3939339440162628
 50
17.09539180608439
 51
320.0019657685082
 73
     0
 72
     1
 10
-19.82698733742114
 20
-38.58789400463831
 11
-17.52168546372007
 21
-36.65356729459036
 72
     3
 10
-21.50998699317458
 20
-40.00000000000016
 11
6.600054785286829
 21
-1.278976924368180E-13
 40
0.636358354079598
 50
39.99873849337411
 51
368.4976242363724
 73
     1
 72
     1
 10
-15.08465450127397
 20
-39.03999999993003
 11
-22.82991968633863
 21
-39.03999999993003
 72
     1
 10
-22.82991968633863
 20
-39.03999999993003
 11
-22.82994473078459
 21
-40.95999999992992
 72
     1
 10
-22.82994473078459
 20
-40.95999999992992
 11
-18.38856496131255
 21
-40.95999999992989
 97
        0
 75
     0
 76
     1
 98
        1
 10
2.29188201018529
 20
-0.0010749287238991
  0
DIMENSION
  5
C4
330
1F
100
AcDbEntity
  8
치수문자_일반주서
100
AcDbDimension
  2
_D
 10
10.8899582215386
 20
13.34411972202463
 30
0.0
 11
16.88995822153858
 21
13.34411972202463
 31
0.0
 70
   160
  1
<>
 71
     2
 42
11.99999999999998
  3
SLDDIMSTYLE0
100
AcDbAlignedDimension
 13
22.88995822153858
 23
0.6882394440492153
 33
0.0
 14
10.8899582215386
 24
2.891129283481835
 34
0.0
100
AcDbRotatedDimension
  0
DIMENSION
  5
D0
330
1F
100
AcDbEntity
  8
치수문자_일반주서
100
AcDbDimension
  2
_D_1
 10
-67.1100417784614
 20
25.00000000000005
 30
0.0
 11
-22.11004177846141
 21
25.00000000000005
 31
0.0
 70
   160
  1
<>
 71
     2
 42
89.99999999999997
  3
SLDDIMSTYLE0
100
AcDbAlignedDimension
 13
22.88995822153858
 23
0.6882394440492153
 33
0.0
 14
-67.1100417784614
 24
2.449999999999974
 34
0.0
 50
0.0000000000000045
100
AcDbRotatedDimension
  0
DIMENSION
  5
DA
330
1F
100
AcDbEntity
  8
치수문자_일반주서
100
AcDbDimension
  2
_D_2
 10
-78.65975747123005
 20
-3.000000000000056
 30
0.0
 11
-78.65975747123007
 21
0.0000000000000396
 31
0.0
 70
   160
  1
%%c<>
 71
     2
 42
6.000000000000005
 52
-270.0
  3
SLDDIMSTYLE1
100
AcDbAlignedDimension
 13
-66.5600417784614
 23
2.999999999999995
 33
0.0
 14
-66.5600417784614
 24
-3.00000000000001
 34
0.0
 50
90.0000000000002
100
AcDbRotatedDimension
1001
ACAD_DSTYLE_DIMFLIPARROW_SYMBOL
1070
   385
1070
     0
1001
ACAD_DSTYLE_DIMFLIPARROW_WHICH_SYMBOL
1070
   386
1070
     3
  0
DIMENSION
  5
E8
330
1F
100
AcDbEntity
  8
치수문자_일반주서
100
AcDbDimension
  2
_D_3
 10
36.31423857178335
 20
-2.999999999999947
 30
0.0
 11
36.31423857178329
 21
12.66650000000005
 31
0.0
 70
   160
  1
%%c<>
 71
     2
 42
6.0
 52
-270.0
  3
SLDDIMSTYLE1
100
AcDbAlignedDimension
 13
19.8899582215386
 23
2.999999999999992
 33
0.0
 14
19.8899582215386
 24
-3.000000000000008
 34
0.0
 50
90.0000000000002
100
AcDbRotatedDimension
  0
LINE
  5
F5
330
1F
100
AcDbEntity
  8
참조1
100
AcDbLine
 10
55.41156002669889
 20
7.441074928723896
 30
0.0
 11
55.41156002669889
 21
-7.438925071276109
 31
0.0
  0
LINE
  5
F6
330
1F
100
AcDbEntity
  8
참조1
100
AcDbLine
 10
68.1115600266989
 20
5.441074928723896
 30
0.0
 11
55.41156002669889
 21
5.441074928723896
 31
0.0
  0
SOLID
  5
F7
330
1F
100
AcDbEntity
  8
참조1
100
AcDbTrace
 10
55.41156002669889
 20
5.441074928723896
 30
0.0
 11
61.76156002669889
 21
4.425074928723896
 31
0.0
 12
61.76156002669889
 22
6.457074928723896
 32
0.0
 13
61.76156002669889
 23
6.457074928723896
 33
0.0
  0
LINE
  5
F8
330
1F
100
AcDbEntity
  8
참조1
100
AcDbLine
 10
68.1115600266989
 20
-5.438925071276109
 30
0.0
 11
55.41156002669889
 21
-5.438925071276109
 31
0.0
  0
SOLID
  5
F9
330
1F
100
AcDbEntity
  8
참조1
100
AcDbTrace
 10
55.41156002669889
 20
-5.438925071276109
 30
0.0
 11
61.76156002669889
 21
-6.454925071276109
 31
0.0
 12
61.76156002669889
 22
-4.422925071276109
 32
0.0
 13
61.76156002669889
 23
-4.422925071276109
 33
0.0
  0
MTEXT
  5
FA
330
1F
100
AcDbEntity
  8
참조1
100
AcDbMText
 10
64.80905011916917
 20
10.98929157337383
 30
0.0
 40
3.5
 41
0.0
 71
     1
 72
     1
  1
A
  7
SLDTEXTSTYLE0
 73
     1
 44
1.0
  0
MTEXT
  5
FB
330
1F
100
AcDbEntity
  8
참조1
100
AcDbMText
 10
64.80905011916917
 20
0.1092915733738259
 30
0.0
 40
3.5
 41
0.0
 71
     1
 72
     1
  1
A
  7
SLDTEXTSTYLE0
 73
     1
 44
1.0
  0
INSERT
  5
102
330
1F
100
AcDbEntity
  8
해칭선
100
AcDbBlockReference
  2
SW_DOWELSYMBOL_0
 10
0.0
 20
0.0
 30
0.0
  0
POINT
  5
1BF
330
1F
100
AcDbEntity
  8
0
100
AcDbPoint
 10
-143.6835810453252
 20
-35.10049519126948
 30
0.0
  0
POINT
  5
1C0
330
1F
100
AcDbEntity
  8
CUT
100
AcDbPoint
 10
-143.6835810453252
 20
-35.10049519126948
 30
0.0
  0
LINE
  5
1D6
330
1F
100
AcDbEntity
  8
외형선
  6
Continuous
370
    15
100
AcDbLine
 10
-52.11004177846141
 20
2.999999999999986
 30
0.0
 11
-51.21001777846138
 21
2.100005999999993
 31
0.0
  0
LINE
  5
1D7
330
1F
100
AcDbEntity
  8
외형선
  6
Continuous
370
    15
100
AcDbLine
 10
-47.01006577846144
 20
2.100005999999993
 30
0.0
 11
-51.21001777846138
 21
2.100005999999993
 31
0.0
  0
LINE
  5
1D8
330
1F
100
AcDbEntity
  8
외형선
  6
Continuous
370
    15
100
AcDbLine
 10
-47.01006577846144
 20
2.100005999999993
 30
0.0
 11
-46.11004177846141
 21
2.999999999999986
 31
0.0
  0
LINE
  5
1D9
330
1F
100
AcDbEntity
  8
외형선
  6
Continuous
370
    15
100
AcDbLine
 10
-52.11004177846142
 20
2.999999999999985
 30
0.0
 11
-66.56004177846141
 21
2.999999999999983
 31
0.0
  0
ENDSEC
  0
SECTION
  2
OBJECTS
  0
DICTIONARY
  5
C
330
0
100
AcDbDictionary
281
     1
  3
ACAD_GROUP
350
D
  3
ACAD_IMAGE_VARS
350
126
  3
ACAD_LAYOUT
350
1A
  3
ACAD_MLINESTYLE
350
17
  3
ACAD_PLOTSETTINGS
350
19
  3
ACAD_PLOTSTYLENAME
350
E
  3
ACAD_SCALELIST
350
47
  3
APPDATA
350
124
  3
DWGPROPS
350
1DA
  0
DICTIONARY
  5
1BA
330
2
100
AcDbDictionary
280
     1
281
     1
  3
ACAD_LAYERSTATES
360
1BB
  0
DICTIONARY
  5
D
102
{ACAD_REACTORS
330
C
102
}
330
C
100
AcDbDictionary
281
     1
  0
RASTERVARIABLES
  5
126
102
{ACAD_REACTORS
330
C
102
}
330
C
100
AcDbRasterVariables
 90
        0
 70
     1
 71
     1
 72
     1
  0
DICTIONARY
  5
1A
102
{ACAD_REACTORS
330
C
102
}
330
C
100
AcDbDictionary
281
     1
  3
Layout1
350
1E
  3
Layout2
350
26
  3
Model
350
22
  0
DICTIONARY
  5
17
102
{ACAD_REACTORS
330
C
102
}
330
C
100
AcDbDictionary
281
     1
  3
Standard
350
18
  0
DICTIONARY
  5
19
102
{ACAD_REACTORS
330
C
102
}
330
C
100
AcDbDictionary
281
     1
  0
ACDBDICTIONARYWDFLT
  5
E
102
{ACAD_REACTORS
330
C
102
}
330
C
100
AcDbDictionary
281
     1
  3
Normal
350
F
100
AcDbDictionaryWithDefault
340
F
  0
DICTIONARY
  5
47
102
{ACAD_REACTORS
330
C
102
}
330
C
100
AcDbDictionary
281
     1
  3
A0
350
48
  3
A1
350
49
  3
A2
350
4A
  3
A3
350
4B
  3
A4
350
4C
  3
A5
350
4D
  3
A6
350
4E
  3
A7
350
4F
  3
A8
350
50
  3
A9
350
51
  3
B0
350
52
  3
B1
350
53
  3
B2
350
54
  3
B3
350
55
  3
B4
350
56
  3
B5
350
57
  3
B6
350
58
  3
B7
350
59
  3
B8
350
5A
  3
B9
350
5B
  3
C0
350
5C
  3
C1
350
5D
  3
C2
350
5E
  3
C3
350
5F
  3
C4
350
60
  3
C5
350
61
  3
C6
350
62
  3
C7
350
63
  3
C8
350
64
  3
C9
350
65
  3
D0
350
66
  3
D1
350
67
  3
D2
350
68
  0
DICTIONARY
  5
124
102
{ACAD_REACTORS
330
C
102
}
330
C
100
AcDbDictionary
281
     1
  0
XRECORD
  5
1DA
102
{ACAD_REACTORS
330
C
102
}
330
C
100
AcDbXrecord
280
     1
  1
DWGPROPS COOKIE
  2

  3

  4

  6

  7

  8
12016016
  9

300
=
301
=
302
=
303
=
304
=
305
=
306
=
307
=
308
=
309
=
 40
0.0
 41
2458285.086227871
 42
2458295.44318478
  1

 90
        0
  0
DICTIONARY
  5
1BB
102
{ACAD_REACTORS
330
1BA
102
}
330
1BA
100
AcDbDictionary
281
     1
  0
LAYOUT
  5
1E
102
{ACAD_REACTORS
330
1A
102
}
330
1A
100
AcDbPlotSettings
  1

  2
none_device
  4

  6

 40
0.0
 41
0.0
 42
0.0
 43
0.0
 44
0.0
 45
0.0
 46
0.0
 47
0.0
 48
0.0
 49
0.0
140
0.0
141
0.0
142
1.0
143
1.0
 70
   688
 72
     1
 73
     0
 74
     5
  7

 75
    16
147
1.0
148
0.0
149
0.0
100
AcDbLayout
  1
Layout1
 70
     1
 71
     1
 10
0.0
 20
0.0
 11
420.0
 21
297.0
 12
0.0
 22
0.0
 32
0.0
 14
1.000000000000000E+20
 24
1.000000000000000E+20
 34
1.000000000000000E+20
 15
-1.000000000000000E+20
 25
-1.000000000000000E+20
 35
-1.000000000000000E+20
146
0.0
 13
0.0
 23
0.0
 33
0.0
 16
1.0
 26
0.0
 36
0.0
 17
0.0
 27
1.0
 37
0.0
 76
     0
330
1B
  0
LAYOUT
  5
26
102
{ACAD_REACTORS
330
1A
102
}
330
1A
100
AcDbPlotSettings
  1

  2
none_device
  4

  6

 40
0.0
 41
0.0
 42
0.0
 43
0.0
 44
0.0
 45
0.0
 46
0.0
 47
0.0
 48
0.0
 49
0.0
140
0.0
141
0.0
142
1.0
143
1.0
 70
   688
 72
     1
 73
     0
 74
     5
  7

 75
    16
147
1.0
148
0.0
149
0.0
100
AcDbLayout
  1
Layout2
 70
     1
 71
     2
 10
0.0
 20
0.0
 11
0.0
 21
0.0
 12
0.0
 22
0.0
 32
0.0
 14
0.0
 24
0.0
 34
0.0
 15
0.0
 25
0.0
 35
0.0
146
0.0
 13
0.0
 23
0.0
 33
0.0
 16
1.0
 26
0.0
 36
0.0
 17
0.0
 27
1.0
 37
0.0
 76
     0
330
23
  0
LAYOUT
  5
22
102
{ACAD_REACTORS
330
1A
102
}
330
1A
100
AcDbPlotSettings
  1

  2
none_device
  4
ANSI_A_(11.00_x_8.50_Inches)
  6

 40
6.35
 41
19.05
 42
6.35000508
 43
19.05000254
 44
279.4
 45
215.9
 46
150.1266799874258
 47
97.68498376242628
 48
0.0
 49
0.0
140
0.0
141
0.0
142
0.0702450609855531
143
1.0
 70
  1696
 72
     0
 73
     0
 74
     0
  7

 75
     0
147
0.0235690232323232
148
0.0
149
0.0
100
AcDbLayout
  1
Model
 70
     1
 71
     0
 10
0.0
 20
0.0
 11
420.0
 21
297.0
 12
0.0
 22
0.0
 32
0.0
 14
1.000000000000000E+20
 24
1.000000000000000E+20
 34
1.000000000000000E+20
 15
-1.000000000000000E+20
 25
-1.000000000000000E+20
 35
-1.000000000000000E+20
146
0.0
 13
0.0
 23
0.0
 33
0.0
 16
1.0
 26
0.0
 36
0.0
 17
0.0
 27
1.0
 37
0.0
 76
     0
330
1F
331
29
  0
MLINESTYLE
  5
18
102
{ACAD_REACTORS
330
17
102
}
330
17
100
AcDbMlineStyle
  2
Standard
 70
     0
  3

 62
   256
 51
90.0
 52
90.0
 71
     2
 49
0.5
 62
   256
  6
BYLAYER
 49
-0.5
 62
   256
  6
BYLAYER
  0
ACDBPLACEHOLDER
  5
F
102
{ACAD_REACTORS
330
E
102
}
330
E
  0
SCALE
  5
48
102
{ACAD_REACTORS
330
47
102
}
330
47
100
AcDbScale
 70
     0
300
1:1
140
1.0
141
1.0
290
     1
  0
SCALE
  5
49
102
{ACAD_REACTORS
330
47
102
}
330
47
100
AcDbScale
 70
     0
300
1:2
140
1.0
141
2.0
290
     0
  0
SCALE
  5
4A
102
{ACAD_REACTORS
330
47
102
}
330
47
100
AcDbScale
 70
     0
300
1:4
140
1.0
141
4.0
290
     0
  0
SCALE
  5
4B
102
{ACAD_REACTORS
330
47
102
}
330
47
100
AcDbScale
 70
     0
300
1:5
140
1.0
141
5.0
290
     0
  0
SCALE
  5
4C
102
{ACAD_REACTORS
330
47
102
}
330
47
100
AcDbScale
 70
     0
300
1:8
140
1.0
141
8.0
290
     0
  0
SCALE
  5
4D
102
{ACAD_REACTORS
330
47
102
}
330
47
100
AcDbScale
 70
     0
300
1:10
140
1.0
141
10.0
290
     0
  0
SCALE
  5
4E
102
{ACAD_REACTORS
330
47
102
}
330
47
100
AcDbScale
 70
     0
300
1:16
140
1.0
141
16.0
290
     0
  0
SCALE
  5
4F
102
{ACAD_REACTORS
330
47
102
}
330
47
100
AcDbScale
 70
     0
300
1:20
140
1.0
141
20.0
290
     0
  0
SCALE
  5
50
102
{ACAD_REACTORS
330
47
102
}
330
47
100
AcDbScale
 70
     0
300
1:30
140
1.0
141
30.0
290
     0
  0
SCALE
  5
51
102
{ACAD_REACTORS
330
47
102
}
330
47
100
AcDbScale
 70
     0
300
1:40
140
1.0
141
40.0
290
     0
  0
SCALE
  5
52
102
{ACAD_REACTORS
330
47
102
}
330
47
100
AcDbScale
 70
     0
300
1:50
140
1.0
141
50.0
290
     0
  0
SCALE
  5
53
102
{ACAD_REACTORS
330
47
102
}
330
47
100
AcDbScale
 70
     0
300
1:100
140
1.0
141
100.0
290
     0
  0
SCALE
  5
54
102
{ACAD_REACTORS
330
47
102
}
330
47
100
AcDbScale
 70
     0
300
2:1
140
2.0
141
1.0
290
     0
  0
SCALE
  5
55
102
{ACAD_REACTORS
330
47
102
}
330
47
100
AcDbScale
 70
     0
300
4:1
140
4.0
141
1.0
290
     0
  0
SCALE
  5
56
102
{ACAD_REACTORS
330
47
102
}
330
47
100
AcDbScale
 70
     0
300
8:1
140
8.0
141
1.0
290
     0
  0
SCALE
  5
57
102
{ACAD_REACTORS
330
47
102
}
330
47
100
AcDbScale
 70
     0
300
10:1
140
10.0
141
1.0
290
     0
  0
SCALE
  5
58
102
{ACAD_REACTORS
330
47
102
}
330
47
100
AcDbScale
 70
     0
300
100:1
140
100.0
141
1.0
290
     0
  0
SCALE
  5
59
102
{ACAD_REACTORS
330
47
102
}
330
47
100
AcDbScale
 70
     0
300
1/128" = 1'-0"
140
0.0078125
141
12.0
290
     0
  0
SCALE
  5
5A
102
{ACAD_REACTORS
330
47
102
}
330
47
100
AcDbScale
 70
     0
300
1/64" = 1'-0"
140
0.015625
141
12.0
290
     0
  0
SCALE
  5
5B
102
{ACAD_REACTORS
330
47
102
}
330
47
100
AcDbScale
 70
     0
300
1/32" = 1'-0"
140
0.03125
141
12.0
290
     0
  0
SCALE
  5
5C
102
{ACAD_REACTORS
330
47
102
}
330
47
100
AcDbScale
 70
     0
300
1/16" = 1'-0"
140
0.0625
141
12.0
290
     0
  0
SCALE
  5
5D
102
{ACAD_REACTORS
330
47
102
}
330
47
100
AcDbScale
 70
     0
300
3/32" = 1'-0"
140
0.09375
141
12.0
290
     0
  0
SCALE
  5
5E
102
{ACAD_REACTORS
330
47
102
}
330
47
100
AcDbScale
 70
     0
300
1/8" = 1'-0"
140
0.125
141
12.0
290
     0
  0
SCALE
  5
5F
102
{ACAD_REACTORS
330
47
102
}
330
47
100
AcDbScale
 70
     0
300
3/16" = 1'-0"
140
0.1875
141
12.0
290
     0
  0
SCALE
  5
60
102
{ACAD_REACTORS
330
47
102
}
330
47
100
AcDbScale
 70
     0
300
1/4" = 1'-0"
140
0.25
141
12.0
290
     0
  0
SCALE
  5
61
102
{ACAD_REACTORS
330
47
102
}
330
47
100
AcDbScale
 70
     0
300
3/8" = 1'-0"
140
0.375
141
12.0
290
     0
  0
SCALE
  5
62
102
{ACAD_REACTORS
330
47
102
}
330
47
100
AcDbScale
 70
     0
300
1/2" = 1'-0"
140
0.5
141
12.0
290
     0
  0
SCALE
  5
63
102
{ACAD_REACTORS
330
47
102
}
330
47
100
AcDbScale
 70
     0
300
3/4" = 1'-0"
140
0.75
141
12.0
290
     0
  0
SCALE
  5
64
102
{ACAD_REACTORS
330
47
102
}
330
47
100
AcDbScale
 70
     0
300
1" = 1'-0"
140
1.0
141
12.0
290
     0
  0
SCALE
  5
65
102
{ACAD_REACTORS
330
47
102
}
330
47
100
AcDbScale
 70
     0
300
1-1/2" = 1'-0"
140
1.5
141
12.0
290
     0
  0
SCALE
  5
66
102
{ACAD_REACTORS
330
47
102
}
330
47
100
AcDbScale
 70
     0
300
3" = 1'-0"
140
3.0
141
12.0
290
     0
  0
SCALE
  5
67
102
{ACAD_REACTORS
330
47
102
}
330
47
100
AcDbScale
 70
     0
300
6" = 1'-0"
140
6.0
141
12.0
290
     0
  0
SCALE
  5
68
102
{ACAD_REACTORS
330
47
102
}
330
47
100
AcDbScale
 70
     0
300
1'-0" = 1'-0"
140
12.0
141
12.0
290
     0
  0
ENDSEC
  0
EOF
