  0
SECTION
  2
HEADER
  9
$ACADVER
  1
AC1015
  9
$ACADMAINTVER
 70
     6
  9
$DWGCODEPAGE
  3
ANSI_949
  9
$INSBASE
 10
0.0
 20
0.0
 30
0.0
  9
$EXTMIN
 10
-92.17939372310366
 20
-49.97180738881174
 30
0.0
  9
$EXTMAX
 10
83.01348381534564
 20
28.375
 30
0.0
  9
$LIMMIN
 10
0.0
 20
0.0
  9
$LIMMAX
 10
420.0
 20
297.0
  9
$ORTHOMODE
 70
     0
  9
$REGENMODE
 70
     1
  9
$FILLMODE
 70
     1
  9
$QTEXTMODE
 70
     0
  9
$MIRRTEXT
 70
     1
  9
$LTSCALE
 40
1.0
  9
$ATTMODE
 70
     1
  9
$TEXTSIZE
 40
3.5
  9
$TRACEWID
 40
1.0
  9
$TEXTSTYLE
  7
Standard
  9
$CLAYER
  8
0
  9
$CELTYPE
  6
ByLayer
  9
$CECOLOR
 62
   256
  9
$CELTSCALE
 40
1.0
  9
$DISPSILH
 70
     0
  9
$DIMSCALE
 40
1.0
  9
$DIMASZ
 40
3.302
  9
$DIMEXO
 40
1.0
  9
$DIMDLI
 40
3.75
  9
$DIMRND
 40
0.0
  9
$DIMDLE
 40
0.0
  9
$DIMEXE
 40
1.0
  9
$DIMTP
 40
0.0
  9
$DIMTM
 40
0.0
  9
$DIMTXT
 40
3.5
  9
$DIMCEN
 40
2.5
  9
$DIMTSZ
 40
0.0
  9
$DIMTOL
 70
     0
  9
$DIMLIM
 70
     0
  9
$DIMTIH
 70
     1
  9
$DIMTOH
 70
     1
  9
$DIMSE1
 70
     0
  9
$DIMSE2
 70
     0
  9
$DIMTAD
 70
     1
  9
$DIMZIN
 70
     0
  9
$DIMBLK
  1

  9
$DIMASO
 70
     1
  9
$DIMSHO
 70
     1
  9
$DIMPOST
  1

  9
$DIMAPOST
  1

  9
$DIMALT
 70
     0
  9
$DIMALTD
 70
     3
  9
$DIMALTF
 40
0.0393700787401575
  9
$DIMLFAC
 40
1.0
  9
$DIMTOFL
 70
     1
  9
$DIMTVP
 40
0.0
  9
$DIMTIX
 70
     0
  9
$DIMSOXD
 70
     0
  9
$DIMSAH
 70
     0
  9
$DIMBLK1
  1

  9
$DIMBLK2
  1

  9
$DIMSTYLE
  2
ISO-25
  9
$DIMCLRD
 70
     0
  9
$DIMCLRE
 70
     0
  9
$DIMCLRT
 70
     0
  9
$DIMTFAC
 40
1.0
  9
$DIMGAP
 40
1.524
  9
$DIMJUST
 70
     0
  9
$DIMSD1
 70
     0
  9
$DIMSD2
 70
     0
  9
$DIMTOLJ
 70
     0
  9
$DIMTZIN
 70
     0
  9
$DIMALTZ
 70
     0
  9
$DIMALTTZ
 70
     0
  9
$DIMUPT
 70
     0
  9
$DIMDEC
 70
     2
  9
$DIMTDEC
 70
     2
  9
$DIMALTU
 70
     2
  9
$DIMALTTD
 70
     3
  9
$DIMTXSTY
  7
Standard
  9
$DIMAUNIT
 70
     0
  9
$DIMADEC
 70
     2
  9
$DIMALTRND
 40
0.0
  9
$DIMAZIN
 70
     0
  9
$DIMDSEP
 70
    44
  9
$DIMATFIT
 70
     3
  9
$DIMFRAC
 70
     0
  9
$DIMLDRBLK
  1

  9
$DIMLUNIT
 70
     2
  9
$DIMLWD
 70
    -2
  9
$DIMLWE
 70
    -2
  9
$DIMTMOVE
 70
     0
  9
$LUNITS
 70
     2
  9
$LUPREC
 70
     2
  9
$SKETCHINC
 40
1.0
  9
$FILLETRAD
 40
10.0
  9
$AUNITS
 70
     0
  9
$AUPREC
 70
     2
  9
$MENU
  1
.
  9
$ELEVATION
 40
0.0
  9
$PELEVATION
 40
0.0
  9
$THICKNESS
 40
0.0
  9
$LIMCHECK
 70
     0
  9
$CHAMFERA
 40
0.0
  9
$CHAMFERB
 40
0.0
  9
$CHAMFERC
 40
0.0
  9
$CHAMFERD
 40
0.0
  9
$SKPOLY
 70
     0
  9
$TDCREATE
 40
2458292.505393368
  9
$TDUCREATE
 40
2458292.130393368
  9
$TDUPDATE
 40
2458295.831028033
  9
$TDUUPDATE
 40
2458295.456028033
  9
$TDINDWG
 40
0.0031392477
  9
$TDUSRTIMER
 40
2458295.455925498
  9
$USRTIMER
 70
     1
  9
$ANGBASE
 50
0.0
  9
$ANGDIR
 70
     0
  9
$PDMODE
 70
     0
  9
$PDSIZE
 40
-1.0
  9
$PLINEWID
 40
0.0
  9
$SPLFRAME
 70
     0
  9
$SPLINETYPE
 70
     6
  9
$SPLINESEGS
 70
     8
  9
$HANDSEED
  5
1D8
  9
$SURFTAB1
 70
     6
  9
$SURFTAB2
 70
     6
  9
$SURFTYPE
 70
     6
  9
$SURFU
 70
     6
  9
$SURFV
 70
     6
  9
$UCSBASE
  2

  9
$UCSNAME
  2

  9
$UCSORG
 10
0.0
 20
0.0
 30
0.0
  9
$UCSXDIR
 10
1.0
 20
0.0
 30
0.0
  9
$UCSYDIR
 10
0.0
 20
1.0
 30
0.0
  9
$UCSORTHOREF
  2

  9
$UCSORTHOVIEW
 70
     0
  9
$UCSORGTOP
 10
0.0
 20
0.0
 30
0.0
  9
$UCSORGBOTTOM
 10
0.0
 20
0.0
 30
0.0
  9
$UCSORGLEFT
 10
0.0
 20
0.0
 30
0.0
  9
$UCSORGRIGHT
 10
0.0
 20
0.0
 30
0.0
  9
$UCSORGFRONT
 10
0.0
 20
0.0
 30
0.0
  9
$UCSORGBACK
 10
0.0
 20
0.0
 30
0.0
  9
$PUCSBASE
  2

  9
$PUCSNAME
  2

  9
$PUCSORG
 10
0.0
 20
0.0
 30
0.0
  9
$PUCSXDIR
 10
1.0
 20
0.0
 30
0.0
  9
$PUCSYDIR
 10
0.0
 20
1.0
 30
0.0
  9
$PUCSORTHOREF
  2

  9
$PUCSORTHOVIEW
 70
     0
  9
$PUCSORGTOP
 10
0.0
 20
0.0
 30
0.0
  9
$PUCSORGBOTTOM
 10
0.0
 20
0.0
 30
0.0
  9
$PUCSORGLEFT
 10
0.0
 20
0.0
 30
0.0
  9
$PUCSORGRIGHT
 10
0.0
 20
0.0
 30
0.0
  9
$PUCSORGFRONT
 10
0.0
 20
0.0
 30
0.0
  9
$PUCSORGBACK
 10
0.0
 20
0.0
 30
0.0
  9
$USERI1
 70
     0
  9
$USERI2
 70
     0
  9
$USERI3
 70
     0
  9
$USERI4
 70
     0
  9
$USERI5
 70
     0
  9
$USERR1
 40
0.0
  9
$USERR2
 40
0.0
  9
$USERR3
 40
0.0
  9
$USERR4
 40
0.0
  9
$USERR5
 40
0.0
  9
$WORLDVIEW
 70
     1
  9
$SHADEDGE
 70
     3
  9
$SHADEDIF
 70
    70
  9
$TILEMODE
 70
     1
  9
$MAXACTVP
 70
    64
  9
$PINSBASE
 10
0.0
 20
0.0
 30
0.0
  9
$PLIMCHECK
 70
     0
  9
$PEXTMIN
 10
1.000000000000000E+20
 20
1.000000000000000E+20
 30
1.000000000000000E+20
  9
$PEXTMAX
 10
-1.000000000000000E+20
 20
-1.000000000000000E+20
 30
-1.000000000000000E+20
  9
$PLIMMIN
 10
0.0
 20
0.0
  9
$PLIMMAX
 10
0.0
 20
0.0
  9
$UNITMODE
 70
     0
  9
$VISRETAIN
 70
     1
  9
$PLINEGEN
 70
     0
  9
$PSLTSCALE
 70
     1
  9
$TREEDEPTH
 70
  3020
  9
$CMLSTYLE
  2
Standard
  9
$CMLJUST
 70
     0
  9
$CMLSCALE
 40
20.0
  9
$PROXYGRAPHICS
 70
     1
  9
$MEASUREMENT
 70
     1
  9
$CELWEIGHT
370
    -1
  9
$ENDCAPS
280
     0
  9
$JOINSTYLE
280
     0
  9
$LWDISPLAY
290
     1
  9
$INSUNITS
 70
     4
  9
$HYPERLINKBASE
  1

  9
$STYLESHEET
  1

  9
$XEDIT
290
     1
  9
$CEPSNTYPE
380
     0
  9
$PSTYLEMODE
290
     1
  9
$FINGERPRINTGUID
  2
{A4F5AD5E-3E87-41B8-ACC7-D473124DFE68}
  9
$VERSIONGUID
  2
{FAEB1C32-E019-11D5-929B-00C0DF256EC4}
  9
$EXTNAMES
290
     1
  9
$PSVPSCALE
 40
0.0
  9
$OLESTARTUP
290
     0
  0
ENDSEC
  0
SECTION
  2
CLASSES
  0
CLASS
  1
ACDBDICTIONARYWDFLT
  2
AcDbDictionaryWithDefault
  3
ObjectDBX Classes
 90
        0
280
     0
281
     0
  0
CLASS
  1
VISUALSTYLE
  2
AcDbVisualStyle
  3
ObjectDBX Classes
 90
     4095
280
     0
281
     0
  0
CLASS
  1
MATERIAL
  2
AcDbMaterial
  3
ObjectDBX Classes
 90
     1153
280
     0
281
     0
  0
CLASS
  1
SCALE
  2
AcDbScale
  3
ObjectDBX Classes
 90
     1153
280
     0
281
     0
  0
CLASS
  1
SUN
  2
AcDbSun
  3
SCENEOE
 90
     1153
280
     0
281
     0
  0
CLASS
  1
ACDBPLACEHOLDER
  2
AcDbPlaceHolder
  3
ObjectDBX Classes
 90
        0
280
     0
281
     0
  0
CLASS
  1
LAYOUT
  2
AcDbLayout
  3
ObjectDBX Classes
 90
        0
280
     0
281
     0
  0
CLASS
  1
TABLESTYLE
  2
AcDbTableStyle
  3
ObjectDBX Classes
 90
     4095
280
     0
281
     0
  0
CLASS
  1
MLEADERSTYLE
  2
AcDbMLeaderStyle
  3
ACDB_MLEADERSTYLE_CLASS
 90
     4095
280
     0
281
     0
  0
CLASS
  1
RASTERVARIABLES
  2
AcDbRasterVariables
  3
ISM
 90
        0
280
     0
281
     0
  0
ENDSEC
  0
SECTION
  2
TABLES
  0
TABLE
  2
VPORT
  5
8
330
0
100
AcDbSymbolTable
 70
     1
  0
VPORT
  5
29
330
8
100
AcDbSymbolTableRecord
100
AcDbViewportTableRecord
  2
*Active
 70
     0
 10
0.0
 20
0.0
 11
1.0
 21
1.0
 12
-51.4482417943652
 22
-28.12326856059778
 13
0.0
 23
0.0
 14
10.0
 24
10.0
 15
10.0
 25
10.0
 16
0.0
 26
0.0
 36
1.0
 17
0.0
 27
0.0
 37
0.0
 40
92.44934709234958
 41
1.546332046332046
 42
50.0
 43
0.0
 44
0.0
 50
0.0
 51
0.0
 71
    16
 72
  2000
 73
     1
 74
     3
 75
     0
 76
     0
 77
     0
 78
     0
281
     0
 65
     1
110
0.0
120
0.0
130
0.0
111
1.0
121
0.0
131
0.0
112
0.0
122
1.0
132
0.0
 79
     0
146
0.0
  0
ENDTAB
  0
TABLE
  2
LTYPE
  5
5
330
0
100
AcDbSymbolTable
 70
     6
  0
LTYPE
  5
14
330
5
100
AcDbSymbolTableRecord
100
AcDbLinetypeTableRecord
  2
ByBlock
 70
     0
  3

 72
    65
 73
     0
 40
0.0
  0
LTYPE
  5
15
330
5
100
AcDbSymbolTableRecord
100
AcDbLinetypeTableRecord
  2
ByLayer
 70
     0
  3

 72
    65
 73
     0
 40
0.0
  0
LTYPE
  5
16
330
5
100
AcDbSymbolTableRecord
100
AcDbLinetypeTableRecord
  2
Continuous
 70
     0
  3
Solid line
 72
    65
 73
     0
 40
0.0
  0
LTYPE
  5
6A
330
5
100
AcDbSymbolTableRecord
100
AcDbLinetypeTableRecord
  2
HIDDEN
 70
     0
  3
Hidden __ __ __ __ __ __ __ __ __ __ __ __ __ __
 72
    65
 73
     2
 40
1.905
 49
1.27
 74
     0
 49
-0.635
 74
     0
  0
LTYPE
  5
6B
330
5
100
AcDbSymbolTableRecord
100
AcDbLinetypeTableRecord
  2
PHANTOM
 70
     0
  3
Phantom ______  __  __  ______  __  __  ______
 72
    65
 73
     6
 40
12.7
 49
6.35
 74
     0
 49
-1.27
 74
     0
 49
1.27
 74
     0
 49
-1.27
 74
     0
 49
1.27
 74
     0
 49
-1.27
 74
     0
  0
LTYPE
  5
6C
330
5
100
AcDbSymbolTableRecord
100
AcDbLinetypeTableRecord
  2
CENTER
 70
     0
  3
Center ____ _ ____ _ ____ _ ____ _ ____ _ ____
 72
    65
 73
     4
 40
10.16
 49
6.35
 74
     0
 49
-1.27
 74
     0
 49
1.27
 74
     0
 49
-1.27
 74
     0
  0
LTYPE
  5
6D
330
5
100
AcDbSymbolTableRecord
100
AcDbLinetypeTableRecord
  2
CENTERX2
 70
     0
  3
Center (2x) ________  __  ________  __  _____
 72
    65
 73
     4
 40
20.32
 49
12.7
 74
     0
 49
-2.54
 74
     0
 49
2.54
 74
     0
 49
-2.54
 74
     0
  0
LTYPE
  5
6E
330
5
100
AcDbSymbolTableRecord
100
AcDbLinetypeTableRecord
  2
DOT2
 70
     0
  3
Dot (.5x) ........................................
 72
    65
 73
     2
 40
0.635
 49
0.0
 74
     0
 49
-0.635
 74
     0
  0
ENDTAB
  0
TABLE
  2
LAYER
  5
2
102
{ACAD_XDICTIONARY
360
193
102
}
330
0
100
AcDbSymbolTable
 70
    20
  0
LAYER
  5
10
330
2
100
AcDbSymbolTableRecord
100
AcDbLayerTableRecord
  2
0
 70
     0
 62
     7
  6
Continuous
370
    -3
390
F
  0
LAYER
  5
6F
330
2
100
AcDbSymbolTableRecord
100
AcDbLayerTableRecord
  2
FORMAT
 70
     0
 62
     2
  6
Continuous
370
    -3
390
F
  0
LAYER
  5
70
330
2
100
AcDbSymbolTableRecord
100
AcDbLayerTableRecord
  2
외형선
 70
     0
 62
     4
  6
Continuous
370
    30
390
F
  0
LAYER
  5
71
330
2
100
AcDbSymbolTableRecord
100
AcDbLayerTableRecord
  2
숨은선
 70
     0
 62
     2
  6
HIDDEN
370
    15
390
F
  0
LAYER
  5
72
330
2
100
AcDbSymbolTableRecord
100
AcDbLayerTableRecord
  2
중심선
 70
     0
 62
     1
  6
CENTERX2
370
    -3
390
F
  0
LAYER
  5
73
330
2
100
AcDbSymbolTableRecord
100
AcDbLayerTableRecord
  2
파단선
 70
     0
 62
     4
  6
Continuous
370
    -3
390
F
  0
LAYER
  5
74
330
2
100
AcDbSymbolTableRecord
100
AcDbLayerTableRecord
  2
해칭선
 70
     0
 62
   100
  6
Continuous
370
    -3
390
F
  0
LAYER
  5
75
330
2
100
AcDbSymbolTableRecord
100
AcDbLayerTableRecord
  2
가는실선
 70
     0
 62
     4
  6
Continuous
370
    -3
390
F
  0
LAYER
  5
76
330
2
100
AcDbSymbolTableRecord
100
AcDbLayerTableRecord
  2
치수_보조선
 70
     0
 62
     4
  6
Continuous
370
    -3
390
F
  0
LAYER
  5
77
330
2
100
AcDbSymbolTableRecord
100
AcDbLayerTableRecord
  2
치수문자_일반주서
 70
     0
 62
     7
  6
Continuous
370
    15
390
F
  0
LAYER
  5
78
330
2
100
AcDbSymbolTableRecord
100
AcDbLayerTableRecord
  2
개별주서
 70
     0
 62
   100
  6
Continuous
370
    30
390
F
  0
LAYER
  5
79
330
2
100
AcDbSymbolTableRecord
100
AcDbLayerTableRecord
  2
중간선
 70
     0
 62
     2
  6
Continuous
370
    15
390
F
  0
LAYER
  5
7A
330
2
100
AcDbSymbolTableRecord
100
AcDbLayerTableRecord
  2
윤곽선
 70
     0
 62
     3
  6
Continuous
370
    40
390
F
  0
LAYER
  5
7B
330
2
100
AcDbSymbolTableRecord
100
AcDbLayerTableRecord
  2
중심마크
 70
     0
 62
   100
  6
Continuous
370
    30
390
F
  0
LAYER
  5
7C
330
2
100
AcDbSymbolTableRecord
100
AcDbLayerTableRecord
  2
가상선
 70
     0
 62
     4
  6
PHANTOM
370
    -3
390
F
  0
LAYER
  5
7D
330
2
100
AcDbSymbolTableRecord
100
AcDbLayerTableRecord
  2
특수지정선
 70
     0
 62
     5
  6
CENTERX2
370
    60
390
F
  0
LAYER
  5
7E
330
2
100
AcDbSymbolTableRecord
100
AcDbLayerTableRecord
  2
참조1
 70
     0
 62
    -4
  6
Continuous
370
    -3
390
F
  0
LAYER
  5
11E
330
2
100
AcDbSymbolTableRecord
100
AcDbLayerTableRecord
  2
Defpoints
 70
     0
 62
     7
  6
Continuous
290
     0
370
    -3
390
F
  0
LAYER
  5
156
330
2
100
AcDbSymbolTableRecord
100
AcDbLayerTableRecord
  2
CENTER
 70
     0
 62
     2
  6
CENTER
370
    -3
390
F
1001
AcAecLayerStandard
1000

1000

  0
LAYER
  5
15A
330
2
100
AcDbSymbolTableRecord
100
AcDbLayerTableRecord
  2
CUT
 70
     0
 62
     1
  6
Continuous
370
    -3
390
F
1001
AcAecLayerStandard
1000

1000

  0
ENDTAB
  0
TABLE
  2
STYLE
  5
3
330
0
100
AcDbSymbolTable
 70
     2
  0
STYLE
  5
11
330
3
100
AcDbSymbolTableRecord
100
AcDbTextStyleTableRecord
  2
Standard
 70
     0
 40
0.0
 41
1.0
 50
0.0
 71
     0
 42
3.5
  3
txt
  4

  0
STYLE
  5
94
330
3
100
AcDbSymbolTableRecord
100
AcDbTextStyleTableRecord
  2
SLDTEXTSTYLE0
 70
     0
 40
0.0
 41
0.75
 50
0.0
 71
     0
 42
3.5
  3
TXT
  4

  0
ENDTAB
  0
TABLE
  2
VIEW
  5
6
330
0
100
AcDbSymbolTable
 70
     0
  0
ENDTAB
  0
TABLE
  2
UCS
  5
7
330
0
100
AcDbSymbolTable
 70
     0
  0
ENDTAB
  0
TABLE
  2
APPID
  5
9
330
0
100
AcDbSymbolTable
 70
     2
  0
APPID
  5
12
330
9
100
AcDbSymbolTableRecord
100
AcDbRegAppTableRecord
  2
ACAD
 70
     0
  0
APPID
  5
159
330
9
100
AcDbSymbolTableRecord
100
AcDbRegAppTableRecord
  2
AcAecLayerStandard
 70
     0
  0
ENDTAB
  0
TABLE
  2
DIMSTYLE
  5
A
330
0
100
AcDbSymbolTable
 70
     3
100
AcDbDimStyleTable
  0
DIMSTYLE
105
27
330
A
100
AcDbSymbolTableRecord
100
AcDbDimStyleTableRecord
  2
ISO-25
 70
     0
 41
2.5
 42
0.625
 43
3.75
 44
1.25
 73
     0
 74
     0
 77
     1
 78
     8
140
2.5
141
2.5
143
0.03937007874016
147
0.625
171
     3
172
     1
178
     0
271
     2
272
     2
274
     3
278
    44
283
     0
284
     8
340
11
  0
DIMSTYLE
105
BD
102
{ACAD_REACTORS
330
BC
330
C8
330
D2
102
}
330
A
100
AcDbSymbolTableRecord
100
AcDbDimStyleTableRecord
  2
SLDDIMSTYLE0
 70
     0
 41
3.302
 44
0.0
 45
0.000000001
 73
     0
 74
     0
 77
     1
 78
    12
 79
     3
140
3.5
147
0.875
173
     1
178
     0
271
     2
272
     2
276
     2
284
    12
340
94
  0
DIMSTYLE
105
DF
102
{ACAD_REACTORS
330
DE
102
}
330
A
100
AcDbSymbolTableRecord
100
AcDbDimStyleTableRecord
  2
SLDDIMSTYLE1
 70
     0
 41
3.302
 44
0.0
 45
0.000000001
 73
     0
 74
     0
 77
     1
 78
    12
 79
     3
140
3.5
147
0.875
172
     1
173
     1
178
     0
271
     2
272
     2
276
     2
284
    12
289
     0
340
94
  0
ENDTAB
  0
TABLE
  2
BLOCK_RECORD
  5
1
330
0
100
AcDbSymbolTable
 70
     7
  0
BLOCK_RECORD
  5
1F
330
1
100
AcDbSymbolTableRecord
100
AcDbBlockTableRecord
  2
*Model_Space
340
22
  0
BLOCK_RECORD
  5
1B
330
1
100
AcDbSymbolTableRecord
100
AcDbBlockTableRecord
  2
*Paper_Space
340
1E
  0
BLOCK_RECORD
  5
23
330
1
100
AcDbSymbolTableRecord
100
AcDbBlockTableRecord
  2
*Paper_Space0
340
26
  0
BLOCK_RECORD
  5
7F
330
1
100
AcDbSymbolTableRecord
100
AcDbBlockTableRecord
  2
블럭10
340
0
102
{BLKREFS
331
B5
102
}
  0
BLOCK_RECORD
  5
BE
330
1
100
AcDbSymbolTableRecord
100
AcDbBlockTableRecord
  2
_D
340
0
  0
BLOCK_RECORD
  5
C9
330
1
100
AcDbSymbolTableRecord
100
AcDbBlockTableRecord
  2
_D_1
340
0
  0
BLOCK_RECORD
  5
D3
330
1
100
AcDbSymbolTableRecord
100
AcDbBlockTableRecord
  2
_D_2
340
0
  0
BLOCK_RECORD
  5
E0
330
1
100
AcDbSymbolTableRecord
100
AcDbBlockTableRecord
  2
_D_3
340
0
  0
BLOCK_RECORD
  5
F3
330
1
100
AcDbSymbolTableRecord
100
AcDbBlockTableRecord
  2
SW_DOWELSYMBOL_0
340
0
102
{BLKREFS
331
F9
102
}
  0
ENDTAB
  0
ENDSEC
  0
SECTION
  2
BLOCKS
  0
BLOCK
  5
20
330
1F
100
AcDbEntity
  8
0
100
AcDbBlockBegin
  2
*Model_Space
 70
     0
 10
0.0
 20
0.0
 30
0.0
  3
*Model_Space
  1
*Model_Space
  0
ENDBLK
  5
21
330
1F
100
AcDbEntity
  8
0
100
AcDbBlockEnd
  0
BLOCK
  5
1C
330
1B
100
AcDbEntity
 67
     1
  8
0
100
AcDbBlockBegin
  2
*Paper_Space
 70
     0
 10
0.0
 20
0.0
 30
0.0
  3
*Paper_Space
  1
*Paper_Space
  0
ENDBLK
  5
1D
330
1B
100
AcDbEntity
 67
     1
  8
0
100
AcDbBlockEnd
  0
BLOCK
  5
24
330
23
100
AcDbEntity
  8
0
100
AcDbBlockBegin
  2
*Paper_Space0
 70
     0
 10
0.0
 20
0.0
 30
0.0
  3
*Paper_Space0
  1
*Paper_Space0
  0
ENDBLK
  5
25
330
23
100
AcDbEntity
  8
0
100
AcDbBlockEnd
  0
BLOCK
  5
80
330
7F
100
AcDbEntity
  8
0
100
AcDbBlockBegin
  2
블럭10
 70
     2
 10
0.0
 20
0.0
 30
0.0
  3
블럭10
  1
블럭10
  0
ELLIPSE
  5
82
330
7F
100
AcDbEntity
  8
중심선
100
AcDbEllipse
 10
20.54032771741204
 20
12.0471743016438
 30
0.0
 11
6.600054785286829
 21
-1.261213355974178E-13
 31
0.0
210
0.0
220
0.0
230
1.0
 40
0.636358354079598
 41
0.9219305317359503
 42
6.513795318482858
  0
ELLIPSE
  5
83
330
7F
100
AcDbEntity
  8
중심선
100
AcDbEllipse
 10
20.54032771746488
 20
12.04717430159265
 30
0.0
 11
3.960054785062283
 21
1.540847449632565E-10
 31
0.0
210
0.0
220
0.0
230
1.0
 40
0.3939339440162632
 41
1.131841032648279
 42
5.62031148352944
  0
LINE
  5
84
330
7F
100
AcDbEntity
  8
중심선
100
AcDbLine
 10
2.268634060543552
 20
16.24717430164393
 30
0.0
 11
5.714909304380834
 21
16.24717430164393
 31
0.0
  0
LINE
  5
85
330
7F
100
AcDbEntity
  8
중심선
100
AcDbLine
 10
5.245725140726316
 20
7.84717430164391
 30
0.0
 11
8.692000384563599
 21
7.84717430164391
 31
0.0
  0
LINE
  5
86
330
7F
100
AcDbEntity
  8
중심선
100
AcDbLine
 10
15.74043728645272
 20
16.24717430164393
 30
0.0
 11
8.692000384563599
 21
7.84717430164391
 31
0.0
  0
LINE
  5
87
330
7F
100
AcDbEntity
  8
중심선
100
AcDbLine
 10
0.1404042013395286
 20
13.71084872107135
 30
0.0
 11
3.58671253028996
 21
13.71088815037384
 31
0.0
  0
LINE
  5
88
330
7F
100
AcDbEntity
  8
중심선
100
AcDbLine
 10
2.750260043222114
 20
10.84717430164391
 30
0.0
 11
6.196535287059397
 21
10.84717430164391
 31
0.0
  0
LINE
  5
89
330
7F
100
AcDbEntity
  8
중심선
100
AcDbLine
 10
12.29416204261559
 20
16.24717430164393
 30
0.0
 11
5.245725140726316
 21
7.84717430164391
 31
0.0
  0
LINE
  5
8A
330
7F
100
AcDbEntity
  8
중심선
100
AcDbLine
 10
10.72767329541681
 20
16.24717430164393
 30
0.0
 11
6.196535287059397
 21
10.84717430164391
 31
0.0
  0
LINE
  5
8B
330
7F
100
AcDbEntity
  8
중심선
100
AcDbLine
 10
7.28139805157953
 20
16.24717430164393
 30
0.0
 11
2.750260043222114
 21
10.84717430164391
 31
0.0
  0
LINE
  5
8C
330
7F
100
AcDbEntity
  8
중심선
100
AcDbLine
 10
5.714909304380834
 20
16.24717430164393
 30
0.0
 11
3.58671253028996
 21
13.71088815037384
 31
0.0
  0
LINE
  5
8D
330
7F
100
AcDbEntity
  8
중심선
100
AcDbLine
 10
2.268634060543552
 20
16.24717430164393
 30
0.0
 11
0.1404042013395286
 21
13.71084872107135
 31
0.0
  0
LINE
  5
8E
330
7F
100
AcDbEntity
  8
중심선
100
AcDbLine
 10
7.28139805157953
 20
16.24717430164393
 30
0.0
 11
10.72767329541681
 21
16.24717430164393
 31
0.0
  0
LINE
  5
8F
330
7F
100
AcDbEntity
  8
중심선
100
AcDbLine
 10
12.29416204261559
 20
16.24717430164393
 30
0.0
 11
15.74043728645272
 21
16.24717430164393
 31
0.0
  0
LINE
  5
90
330
7F
100
AcDbEntity
  8
중심선
100
AcDbLine
 10
19.22036997980202
 20
11.08717430171403
 30
0.0
 11
23.66174974927406
 21
11.08717430171406
 31
0.0
  0
LINE
  5
91
330
7F
100
AcDbEntity
  8
중심선
100
AcDbLine
 10
19.22039502424796
 20
13.00717430171391
 30
0.0
 11
19.22036997980202
 21
11.08717430171403
 31
0.0
  0
LINE
  5
92
330
7F
100
AcDbEntity
  8
중심선
100
AcDbLine
 10
19.22039502424796
 20
13.00717430171391
 30
0.0
 11
26.96566020931264
 21
13.00717430171391
 31
0.0
  0
LINE
  5
93
330
7F
100
AcDbEntity
  8
중심선
100
AcDbLine
 10
22.22332737316547
 20
13.45928029700563
 30
0.0
 11
24.52862924686651
 21
15.39360700705356
 31
0.0
  0
ATTDEF
  5
95
330
7F
100
AcDbEntity
  8
FORMAT
 62
     2
100
AcDbText
 10
3.448148490846466
 20
2.075366912832191
 30
0.0
 40
4.233333333333333
  1
EM825080
 41
0.75
  7
SLDTEXTSTYLE0
 11
3.448148490846466
 21
-0.0412997538344756
 31
0.0
100
AcDbAttributeDefinition
  3

  2
AUTOATTR0
 70
     0
 74
     1
  0
ENDBLK
  5
81
330
7F
100
AcDbEntity
  8
0
100
AcDbBlockEnd
  0
BLOCK
  5
BF
330
BE
100
AcDbEntity
  8
0
100
AcDbBlockBegin
  2
_D
 70
     0
 10
0.0
 20
0.0
 30
0.0
  3
_D
  1
_D
  0
LINE
  5
C1
330
BE
100
AcDbEntity
  8
치수문자_일반주서
 62
     0
370
    -2
100
AcDbLine
 10
23.99999999999996
 20
4.062500000000052
 30
0.0
 11
23.99999999999996
 21
13.47610609593337
 31
0.0
  0
LINE
  5
C2
330
BE
100
AcDbEntity
  8
치수문자_일반주서
 62
     0
370
    -2
100
AcDbLine
 10
10.0
 20
4.062500000000004
 30
0.0
 11
10.0
 21
13.47610609593337
 31
0.0
  0
LINE
  5
C3
330
BE
100
AcDbEntity
  8
치수문자_일반주서
 62
     0
370
    -2
100
AcDbLine
 10
20.69799999999996
 20
13.47610609593337
 30
0.0
 11
13.302
 21
13.47610609593337
 31
0.0
  0
SOLID
  5
C4
330
BE
100
AcDbEntity
  8
치수문자_일반주서
 62
     0
100
AcDbTrace
 10
20.69799999999996
 20
12.92577276260004
 30
0.0
 11
20.69799999999996
 21
14.0264394292667
 31
0.0
 12
23.99999999999996
 22
13.47610609593337
 32
0.0
 13
23.99999999999996
 23
13.47610609593337
 33
0.0
  0
SOLID
  5
C5
330
BE
100
AcDbEntity
  8
치수문자_일반주서
 62
     0
100
AcDbTrace
 10
13.302
 20
14.0264394292667
 30
0.0
 11
13.302
 21
12.92577276260004
 31
0.0
 12
10.0
 22
13.47610609593337
 32
0.0
 13
10.0
 23
13.47610609593337
 33
0.0
  0
MTEXT
  5
C6
330
BE
100
AcDbEntity
  8
치수문자_일반주서
 62
     0
100
AcDbMText
 10
16.80956998654938
 20
17.85110609593337
 30
0.0
 40
3.5
 41
0.0
 71
     2
 72
     1
  1
\A1;14
  7
SLDTEXTSTYLE0
 73
     1
 44
1.0
  0
POINT
  5
C7
330
BE
100
AcDbEntity
  8
Defpoints
 62
     0
100
AcDbPoint
 10
23.99999999999996
 20
4.000000000000052
 30
0.0
  0
POINT
  5
125
330
BE
100
AcDbEntity
  8
Defpoints
 62
     0
100
AcDbPoint
 10
10.0
 20
4.000000000000004
 30
0.0
  0
POINT
  5
126
330
BE
100
AcDbEntity
  8
Defpoints
 62
     0
100
AcDbPoint
 10
10.0
 20
13.47610609593337
 30
0.0
  0
ENDBLK
  5
C0
330
BE
100
AcDbEntity
  8
0
100
AcDbBlockEnd
  0
BLOCK
  5
CA
330
C9
100
AcDbEntity
  8
0
100
AcDbBlockBegin
  2
_D_1
 70
     0
 10
0.0
 20
0.0
 30
0.0
  3
_D_1
  1
_D_1
  0
LINE
  5
CC
330
C9
100
AcDbEntity
  8
치수문자_일반주서
 62
     0
370
    -2
100
AcDbLine
 10
23.99999999999996
 20
4.062500000000052
 30
0.0
 11
23.99999999999996
 21
24.0
 31
0.0
  0
LINE
  5
CD
330
C9
100
AcDbEntity
  8
치수문자_일반주서
 62
     0
370
    -2
100
AcDbLine
 10
-76.0
 20
3.262500000000008
 30
0.0
 11
-76.0
 21
24.0
 31
0.0
  0
LINE
  5
CE
330
C9
100
AcDbEntity
  8
치수문자_일반주서
 62
     0
370
    -2
100
AcDbLine
 10
20.69799999999996
 20
24.0
 30
0.0
 11
-72.69800000000001
 21
24.0
 31
0.0
  0
SOLID
  5
CF
330
C9
100
AcDbEntity
  8
치수문자_일반주서
 62
     0
100
AcDbTrace
 10
20.69799999999996
 20
23.44966666666666
 30
0.0
 11
20.69799999999996
 21
24.55033333333333
 31
0.0
 12
23.99999999999996
 22
24.0
 32
0.0
 13
23.99999999999996
 23
24.0
 33
0.0
  0
SOLID
  5
D0
330
C9
100
AcDbEntity
  8
치수문자_일반주서
 62
     0
100
AcDbTrace
 10
-72.69800000000001
 20
24.55033333333333
 30
0.0
 11
-72.69800000000001
 21
23.44966666666666
 31
0.0
 12
-76.0
 22
24.0
 32
0.0
 13
-76.0
 23
24.0
 33
0.0
  0
MTEXT
  5
D1
330
C9
100
AcDbEntity
  8
치수문자_일반주서
 62
     0
100
AcDbMText
 10
-26.00000000000003
 20
28.375
 30
0.0
 40
3.5
 41
0.0
 71
     2
 72
     1
  1
\A1;100
  7
SLDTEXTSTYLE0
 73
     1
 44
1.0
  0
POINT
  5
127
330
C9
100
AcDbEntity
  8
Defpoints
 62
     0
100
AcDbPoint
 10
23.99999999999996
 20
4.000000000000052
 30
0.0
  0
POINT
  5
128
330
C9
100
AcDbEntity
  8
Defpoints
 62
     0
100
AcDbPoint
 10
-76.0
 20
3.200000000000008
 30
0.0
  0
POINT
  5
129
330
C9
100
AcDbEntity
  8
Defpoints
 62
     0
100
AcDbPoint
 10
-76.0
 20
24.0
 30
0.0
  0
ENDBLK
  5
CB
330
C9
100
AcDbEntity
  8
0
100
AcDbBlockEnd
  0
BLOCK
  5
D4
330
D3
100
AcDbEntity
  8
0
100
AcDbBlockBegin
  2
_D_2
 70
     0
 10
0.0
 20
0.0
 30
0.0
  3
_D_2
  1
_D_2
  0
LINE
  5
D6
330
D3
100
AcDbEntity
  8
치수문자_일반주서
 62
     0
370
    -2
100
AcDbLine
 10
24.06249999999996
 20
4.000000000000052
 30
0.0
 11
37.98292649609886
 21
4.000000000000103
 31
0.0
  0
LINE
  5
D7
330
D3
100
AcDbEntity
  8
치수문자_일반주서
 62
     0
370
    -2
100
AcDbLine
 10
24.06249999999996
 20
-3.999999999999976
 30
0.0
 11
37.98292649609888
 21
-3.999999999999924
 31
0.0
  0
LINE
  5
D8
330
D3
100
AcDbEntity
  8
치수문자_일반주서
 62
     0
370
    -2
100
AcDbLine
 10
37.98292649609886
 20
4.000000000000103
 30
0.0
 11
37.9829264960988
 21
18.06876203849146
 31
0.0
  0
LINE
  5
D9
330
D3
100
AcDbEntity
  8
치수문자_일반주서
 62
     0
370
    -2
100
AcDbLine
 10
37.98292649609884
 20
7.302000000000103
 30
0.0
 11
37.98292649609883
 21
10.6040000000001
 31
0.0
  0
LINE
  5
DA
330
D3
100
AcDbEntity
  8
치수문자_일반주서
 62
     0
370
    -2
100
AcDbLine
 10
37.9829264960989
 20
-7.301999999999923
 30
0.0
 11
37.98292649609891
 21
-10.60399999999992
 31
0.0
  0
SOLID
  5
DB
330
D3
100
AcDbEntity
  8
치수문자_일반주서
 62
     0
100
AcDbTrace
 10
37.43259316276551
 20
7.302000000000101
 30
0.0
 11
38.53325982943218
 21
7.302000000000104
 31
0.0
 12
37.98292649609886
 22
4.000000000000103
 32
0.0
 13
37.98292649609886
 23
4.000000000000103
 33
0.0
  0
SOLID
  5
DC
330
D3
100
AcDbEntity
  8
치수문자_일반주서
 62
     0
100
AcDbTrace
 10
38.53325982943223
 20
-7.301999999999921
 30
0.0
 11
37.43259316276556
 21
-7.301999999999925
 31
0.0
 12
37.98292649609888
 22
-3.999999999999924
 32
0.0
 13
37.98292649609888
 23
-3.999999999999924
 33
0.0
  0
MTEXT
  5
DD
330
D3
100
AcDbEntity
  8
치수문자_일반주서
 62
     0
100
AcDbMText
 10
33.60792649609881
 20
15.00626203849145
 30
0.0
 40
3.5
 41
0.0
 71
     2
 72
     1
  1
\A1;%%c8
  7
SLDTEXTSTYLE0
 11
-3.552713678800488E-15
 21
1.0
 31
0.0
 73
     1
 44
1.0
  0
POINT
  5
11F
330
D3
100
AcDbEntity
  8
Defpoints
 62
     0
100
AcDbPoint
 10
23.99999999999996
 20
4.000000000000052
 30
0.0
  0
POINT
  5
120
330
D3
100
AcDbEntity
  8
Defpoints
 62
     0
100
AcDbPoint
 10
23.99999999999996
 20
-3.999999999999976
 30
0.0
  0
POINT
  5
121
330
D3
100
AcDbEntity
  8
Defpoints
 62
     0
100
AcDbPoint
 10
37.98292649609888
 20
-3.999999999999924
 30
0.0
  0
ENDBLK
  5
D5
330
D3
100
AcDbEntity
  8
0
100
AcDbBlockEnd
  0
BLOCK
  5
E1
330
E0
100
AcDbEntity
  8
0
100
AcDbBlockBegin
  2
_D_3
 70
     0
 10
0.0
 20
0.0
 30
0.0
  3
_D_3
  1
_D_3
  0
LINE
  5
E3
330
E0
100
AcDbEntity
  8
치수문자_일반주서
 62
     0
370
    -2
100
AcDbLine
 10
-75.26249999999999
 20
4.000000000000004
 30
0.0
 11
-87.80439372310363
 21
3.999999999999954
 31
0.0
  0
LINE
  5
E4
330
E0
100
AcDbEntity
  8
치수문자_일반주서
 62
     0
370
    -2
100
AcDbLine
 10
-75.26249999999999
 20
-4.000000000000004
 30
0.0
 11
-87.8043937231036
 21
-4.000000000000055
 31
0.0
  0
LINE
  5
E5
330
E0
100
AcDbEntity
  8
치수문자_일반주서
 62
     0
370
    -2
100
AcDbLine
 10
-87.80439372310363
 20
3.999999999999954
 30
0.0
 11
-87.80439372310367
 21
16.72899999999996
 31
0.0
  0
LINE
  5
E6
330
E0
100
AcDbEntity
  8
치수문자_일반주서
 62
     0
370
    -2
100
AcDbLine
 10
-87.80439372310363
 20
3.999999999999954
 30
0.0
 11
-87.8043937231036
 21
-4.000000000000055
 31
0.0
  0
LINE
  5
E7
330
E0
100
AcDbEntity
  8
치수문자_일반주서
 62
     0
370
    -2
100
AcDbLine
 10
-87.80439372310364
 20
7.301999999999953
 30
0.0
 11
-87.80439372310366
 21
10.60399999999995
 31
0.0
  0
LINE
  5
E8
330
E0
100
AcDbEntity
  8
치수문자_일반주서
 62
     0
370
    -2
100
AcDbLine
 10
-87.80439372310359
 20
-7.302000000000055
 30
0.0
 11
-87.80439372310357
 21
-10.60400000000005
 31
0.0
  0
SOLID
  5
E9
330
E0
100
AcDbEntity
  8
치수문자_일반주서
 62
     0
100
AcDbTrace
 10
-88.35472705643697
 20
7.301999999999952
 30
0.0
 11
-87.25406038977032
 21
7.301999999999955
 31
0.0
 12
-87.80439372310363
 22
3.999999999999954
 32
0.0
 13
-87.80439372310363
 23
3.999999999999954
 33
0.0
  0
SOLID
  5
EA
330
E0
100
AcDbEntity
  8
치수문자_일반주서
 62
     0
100
AcDbTrace
 10
-87.25406038977026
 20
-7.302000000000053
 30
0.0
 11
-88.35472705643691
 21
-7.302000000000056
 31
0.0
 12
-87.8043937231036
 22
-4.000000000000055
 32
0.0
 13
-87.8043937231036
 23
-4.000000000000055
 33
0.0
  0
MTEXT
  5
EB
330
E0
100
AcDbEntity
  8
치수문자_일반주서
 62
     0
100
AcDbMText
 10
-92.17939372310366
 20
13.66649999999994
 30
0.0
 40
3.5
 41
0.0
 71
     2
 72
     1
  1
\A1;%%c8
  7
SLDTEXTSTYLE0
 11
-3.552713678800499E-15
 21
1.0
 31
0.0
 73
     1
 44
1.0
  0
POINT
  5
122
330
E0
100
AcDbEntity
  8
Defpoints
 62
     0
100
AcDbPoint
 10
-75.19999999999999
 20
4.000000000000004
 30
0.0
  0
POINT
  5
123
330
E0
100
AcDbEntity
  8
Defpoints
 62
     0
100
AcDbPoint
 10
-75.19999999999999
 20
-4.000000000000004
 30
0.0
  0
POINT
  5
124
330
E0
100
AcDbEntity
  8
Defpoints
 62
     0
100
AcDbPoint
 10
-87.8043937231036
 20
-4.000000000000051
 30
0.0
  0
ENDBLK
  5
E2
330
E0
100
AcDbEntity
  8
0
100
AcDbBlockEnd
  0
BLOCK
  5
F4
330
F3
100
AcDbEntity
  8
0
100
AcDbBlockBegin
  2
SW_DOWELSYMBOL_0
 70
     0
 10
0.0
 20
0.0
 30
0.0
  3
SW_DOWELSYMBOL_0
  1
SW_DOWELSYMBOL_0
  0
CIRCLE
  5
F6
330
F3
100
AcDbEntity
  8
해칭선
 62
     0
100
AcDbCircle
 10
0.0
 20
0.0
 30
0.0
 40
3.000000000000008
  0
HATCH
  5
F7
330
F3
100
AcDbEntity
  8
0
  6
Continuous
 62
     0
370
     0
100
AcDbHatch
 10
0.0
 20
0.0
 30
0.0
210
0.0
220
0.0
230
1.0
  2
SOLID
 70
     1
 71
     0
 91
        1
 92
        0
 93
        3
 72
     2
 10
0.0
 20
0.0
 40
3.000000000000008
 50
0.0
 51
90.0
 73
     1
 72
     1
 10
0.0
 20
3.000000000000008
 11
0.0
 21
0.0
 72
     1
 10
0.0
 20
0.0
 11
3.00000000000001
 21
0.0
 97
        0
 75
     0
 76
     1
 98
        1
 10
0.0
 20
0.0
  0
HATCH
  5
F8
330
F3
100
AcDbEntity
  8
0
  6
Continuous
 62
     0
370
     0
100
AcDbHatch
 10
0.0
 20
0.0
 30
0.0
210
0.0
220
0.0
230
1.0
  2
SOLID
 70
     1
 71
     0
 91
        1
 92
        0
 93
        3
 72
     2
 10
0.0
 20
0.0
 40
3.000000000000008
 50
180.0
 51
270.0000000000007
 73
     1
 72
     1
 10
0.0
 20
-3.000000000000008
 11
0.0
 21
0.0
 72
     1
 10
0.0
 20
0.0
 11
-3.00000000000001
 21
0.0
 97
        0
 75
     0
 76
     1
 98
        1
 10
0.0
 20
0.0
  0
ENDBLK
  5
F5
330
F3
100
AcDbEntity
  8
0
100
AcDbBlockEnd
  0
ENDSEC
  0
SECTION
  2
ENTITIES
  0
ARC
  5
96
330
1F
100
AcDbEntity
  8
외형선
  6
Continuous
 62
     1
370
    15
100
AcDbCircle
 10
19.99999999999994
 20
0.0000000000000066
 30
0.0
 40
4.000000000000019
100
AcDbArc
 50
293.9963544632394
 51
0.0
  0
ARC
  5
97
330
1F
100
AcDbEntity
  8
외형선
  6
Continuous
 62
     1
370
    15
100
AcDbCircle
 10
19.99999999999994
 20
0.0000000000000066
 30
0.0
 40
4.000000000000019
100
AcDbArc
 50
0.0
 51
65.97345000949518
  0
LINE
  5
98
330
1F
100
AcDbEntity
  8
0
 62
     1
100
AcDbLine
 10
13.03370066227242
 20
4.000000000000013
 30
0.0
 11
10.59448905079837
 21
4.000000000000013
 31
0.0
  0
LINE
  5
99
330
1F
100
AcDbEntity
  8
0
 62
     1
100
AcDbLine
 10
10.59448905079837
 20
-4.000000000000014
 30
0.0
 11
13.03370066227247
 21
-4.000000000000014
 31
0.0
  0
LINE
  5
9A
330
1F
100
AcDbEntity
  8
외형선
  6
Continuous
370
    15
100
AcDbLine
 10
-75.19999999999999
 20
4.0
 30
0.0
 11
-76.0
 21
3.200000000000003
 31
0.0
  0
LINE
  5
9B
330
1F
100
AcDbEntity
  8
외형선
  6
Continuous
370
    15
100
AcDbLine
 10
-76.0
 20
-3.200000000000003
 30
0.0
 11
-75.19999999999999
 21
-4.0
 31
0.0
  0
LINE
  5
9C
330
1F
100
AcDbEntity
  8
외형선
  6
Continuous
370
    15
100
AcDbLine
 10
-75.19999999999999
 20
-4.0
 30
0.0
 11
10.0
 21
-4.0
 31
0.0
  0
LINE
  5
9D
330
1F
100
AcDbEntity
  8
외형선
  6
Continuous
370
    15
100
AcDbLine
 10
10.0
 20
4.0
 30
0.0
 11
-61.84997599999998
 21
4.000000000000028
 31
0.0
  0
SPLINE
  5
9E
330
1F
100
AcDbEntity
  8
0
 62
     1
100
AcDbSpline
210
0.0
220
0.0
230
1.0
 70
     8
 71
     3
 72
    28
 73
    24
 74
     0
 42
0.000000001
 43
0.00000001
 40
0.0
 40
0.0
 40
0.0
 40
0.0
 40
0.1250000000000047
 40
0.1250000000000047
 40
0.1875000000000054
 40
0.1875000000000054
 40
0.2500000000000062
 40
0.2500000000000062
 40
0.312500000000007
 40
0.312500000000007
 40
0.3750000000000078
 40
0.3750000000000078
 40
0.5000000000000062
 40
0.5000000000000062
 40
0.6250000000000048
 40
0.6250000000000048
 40
0.687500000000004
 40
0.687500000000004
 40
0.7500000000000032
 40
0.7500000000000032
 40
0.8125000000000024
 40
0.8125000000000024
 40
0.8152735067998687
 40
0.8152735067998687
 40
0.8152735067998687
 40
0.8152735067998687
 10
9.999999999999957
 20
0.3427253970230292
 30
0.0
 10
10.41361595087535
 20
0.1036375910110312
 30
0.0
 10
10.83403990975238
 20
-0.1386171492440509
 30
0.0
 10
11.45963547359455
 20
-0.4979516406445214
 30
0.0
 10
11.66619452026108
 20
-0.6168399129464592
 30
0.0
 10
12.08172879518131
 20
-0.8530880284957804
 30
0.0
 10
12.29079219139155
 20
-0.9704603668660413
 30
0.0
 10
12.70896964821013
 20
-1.202255788134585
 30
0.0
 10
12.91808024468075
 20
-1.316676949057545
 30
0.0
 10
13.33380141287802
 20
-1.541191715768725
 30
0.0
 10
13.54025499014014
 20
-1.651267207019885
 30
0.0
 10
14.16565952646553
 20
-1.975398142311277
 30
0.0
 10
14.58614507683419
 20
-2.182459788801226
 30
0.0
 10
15.41386828953527
 20
-2.568669973330375
 30
0.0
 10
15.83373936850452
 20
-2.749778204120614
 30
0.0
 10
16.45951567245573
 20
-2.997012467454042
 30
0.0
 10
16.66620433672006
 20
-3.07522610200012
 30
0.0
 10
17.08154494398662
 20
-3.223381592005039
 30
0.0
 10
17.29055768164181
 20
-3.293347755933882
 30
0.0
 10
17.70872821885789
 20
-3.424144753396546
 30
0.0
 10
17.91788255468121
 20
-3.484974486816885
 30
0.0
 10
18.13506123327003
 20
-3.543371443355823
 30
0.0
 10
18.14428616522489
 20
-3.545843068221855
 30
0.0
 10
18.1535083042012
 20
-3.54830500624541
 30
0.0
  0
SPLINE
  5
A0
330
1F
100
AcDbEntity
  8
0
 62
     1
100
AcDbSpline
210
0.0
220
0.0
230
1.0
 70
     8
 71
     3
 72
    13
 73
     9
 74
     0
 42
0.000000001
 43
0.00000001
 40
0.0
 40
0.0
 40
0.0
 40
0.0
 40
0.0089359634160959
 40
0.2015778543688221
 40
0.3942034328501574
 40
0.5960596232081191
 40
0.7979811996647549
 40
1.0
 40
1.0
 40
1.0
 40
1.0
 10
17.26365782854442
 20
-3.274151688148753
 30
0.0
 10
17.24202193776187
 20
-3.282248341035295
 30
0.0
 10
16.75395856527229
 20
-3.464892991694727
 30
0.0
 10
15.79964300007941
 20
-3.701267327580905
 30
0.0
 10
14.37828534010659
 20
-3.956052726902127
 30
0.0
 10
12.93424077093469
 20
-4.026922577453506
 30
0.0
 10
11.46741872115298
 20
-3.934850172551783
 30
0.0
 10
10.48921805432881
 20
-3.726783681949348
 30
0.0
 10
10.00000000000001
 20
-3.622725397022992
 30
0.0
  0
SPLINE
  5
A1
330
1F
100
AcDbEntity
  8
0
 62
     1
100
AcDbSpline
210
0.0
220
0.0
230
1.0
 70
     8
 71
     3
 72
    30
 73
    26
 74
     0
 42
0.000000001
 43
0.00000001
 40
0.0
 40
0.0
 40
0.0
 40
0.0
 40
0.1250000000000012
 40
0.1250000000000012
 40
0.1875000000000019
 40
0.1875000000000019
 40
0.2500000000000025
 40
0.2500000000000025
 40
0.3125000000000031
 40
0.3125000000000031
 40
0.3750000000000038
 40
0.3750000000000038
 40
0.5000000000000049
 40
0.5000000000000049
 40
0.6250000000000061
 40
0.6250000000000061
 40
0.6875000000000051
 40
0.6875000000000051
 40
0.750000000000004
 40
0.750000000000004
 40
0.812500000000003
 40
0.812500000000003
 40
0.8750000000000021
 40
0.8750000000000021
 40
1.0
 40
1.0
 40
1.0
 40
1.0
 10
9.999999999999957
 20
3.985290366113309
 30
0.0
 10
10.41361595087533
 20
4.005851343033726
 30
0.0
 10
10.83403990975238
 20
4.004833342254056
 30
0.0
 10
11.45963547359454
 20
3.970707791679343
 30
0.0
 10
11.66619452026111
 20
3.95397892609185
 30
0.0
 10
12.08172879518131
 20
3.909818620066593
 30
0.0
 10
12.2907921913915
 20
3.882358642955978
 30
0.0
 10
12.70896964821013
 20
3.816946813369247
 30
0.0
 10
12.91808024468075
 20
3.778995496396101
 30
0.0
 10
13.33380141287801
 20
3.693125132622416
 30
0.0
 10
13.54025499014013
 20
3.645242086493152
 30
0.0
 10
14.16565952646554
 20
3.486501858859961
 30
0.0
 10
14.58614507683414
 20
3.360725776900952
 30
0.0
 10
15.41386828953523
 20
3.075637014566531
 30
0.0
 10
15.83373936850452
 20
2.914898932630473
 30
0.0
 10
16.45951567245572
 20
2.651866372906399
 30
0.0
 10
16.66620433672008
 20
2.560746134826016
 30
0.0
 10
17.08154494398666
 20
2.371549589988012
 30
0.0
 10
17.29055768164183
 20
2.273403253868852
 30
0.0
 10
17.70872821885789
 20
2.071167425391567
 30
0.0
 10
17.91788255468123
 20
1.967079597476799
 30
0.0
 10
18.33378383154751
 20
1.754262699744505
 30
0.0
 10
18.54015609336699
 20
1.645610315800264
 30
0.0
 10
19.16535932526796
 20
1.312346275228701
 30
0.0
 10
19.58589942123024
 20
1.0811246579874
 30
0.0
 10
19.99999999999991
 20
0.8464981068282935
 30
0.0
  0
SPLINE
  5
A2
330
1F
100
AcDbEntity
  8
외형선
  6
Continuous
 62
     1
370
    15
100
AcDbSpline
210
0.0
220
0.0
230
1.0
 70
     8
 71
     3
 72
    26
 73
    22
 74
     0
 42
0.000000001
 43
0.00000001
 40
0.0
 40
0.0
 40
0.0
 40
0.0
 40
0.0624999999999992
 40
0.0624999999999992
 40
0.1249999999999983
 40
0.1249999999999983
 40
0.1874999999999975
 40
0.1874999999999975
 40
0.2499999999999967
 40
0.2499999999999967
 40
0.3124999999999958
 40
0.3124999999999958
 40
0.374999999999995
 40
0.374999999999995
 40
0.4374999999999942
 40
0.4374999999999942
 40
0.4687499999999938
 40
0.4687499999999938
 40
0.4999999999999933
 40
0.4999999999999933
 40
0.5280323351438819
 40
0.5280323351438819
 40
0.5280323351438819
 40
0.5280323351438819
 10
19.99999999999993
 20
0.8464981068282916
 30
0.0
 10
20.20295993658542
 20
0.7315023971241393
 30
0.0
 10
20.40514085024366
 20
0.6177799166478207
 30
0.0
 10
20.81113150484925
 20
0.398725961638278
 30
0.0
 10
21.01653377986109
 20
0.2924599692847012
 30
0.0
 10
21.42236636354141
 20
0.0944573299192733
 30
0.0
 10
21.61981402056877
 20
0.0038465820920803
 30
0.0
 10
22.00385835334911
 20
-0.1615996487154125
 30
0.0
 10
22.19233181393073
 20
-0.2366566659891097
 30
0.0
 10
22.54451879638588
 20
-0.3724894129016003
 30
0.0
 10
22.70855668638429
 20
-0.4334804518316307
 30
0.0
 10
23.00918061731499
 20
-0.5538222514005283
 30
0.0
 10
23.14619175373212
 20
-0.6134430706394893
 30
0.0
 10
23.37758672921834
 20
-0.7443160693103082
 30
0.0
 10
23.47392439766666
 20
-0.8161087370006572
 30
0.0
 10
23.57970211479235
 20
-0.9512474354995936
 30
0.0
 10
23.60793159833411
 20
-1.000302625326322
 30
0.0
 10
23.64889136487891
 20
-1.11015955250809
 30
0.0
 10
23.66165036818484
 20
-1.171698244226333
 30
0.0
 10
23.66818469960946
 20
-1.300473655417288
 30
0.0
 10
23.6639736594534
 20
-1.366242948218609
 30
0.0
 10
23.28546752979689
 20
-2.281600997249538
 30
0.0
  0
SPLINE
  5
A3
330
1F
100
AcDbEntity
  8
0
 62
     1
100
AcDbSpline
210
0.0
220
0.0
230
1.0
 70
     8
 71
     3
 72
    30
 73
    26
 74
     0
 42
0.000000001
 43
0.00000001
 40
0.0
 40
0.0
 40
0.0
 40
0.0
 40
0.1250000000000016
 40
0.1250000000000016
 40
0.1875000000000008
 40
0.1875000000000008
 40
0.25
 40
0.25
 40
0.3124999999999992
 40
0.3124999999999992
 40
0.3749999999999984
 40
0.3749999999999984
 40
0.4999999999999969
 40
0.4999999999999969
 40
0.6249999999999953
 40
0.6249999999999953
 40
0.6874999999999961
 40
0.6874999999999961
 40
0.7499999999999969
 40
0.7499999999999969
 40
0.8124999999999977
 40
0.8124999999999977
 40
0.8749999999999984
 40
0.8749999999999984
 40
1.0
 40
1.0
 40
1.0
 40
1.0
 10
10.0
 20
1.695836282712631
 30
0.0
 10
10.41361595087539
 20
1.478499680510944
 30
0.0
 10
10.83403990975241
 20
1.250749921079046
 30
0.0
 10
11.45963547359458
 20
0.901684705597044
 30
0.0
 10
11.66619452026112
 20
0.7843190041415256
 30
0.0
 10
12.08172879518128
 20
0.5473320533595724
 30
0.0
 10
12.29079219139153
 20
0.4276892357142001
 30
0.0
 10
12.70896964821011
 20
0.1875543976405881
 30
0.0
 10
12.91808024468071
 20
0.067064365966215
 30
0.0
 10
13.33380141287798
 20
-0.1732903977295219
 30
0.0
 10
13.54025499014018
 20
-0.2931257130350862
 30
0.0
 10
14.16565952646553
 20
-0.6521133298003479
 30
0.0
 10
14.58614507683422
 20
-0.8898447570093657
 30
0.0
 10
15.41386828953532
 20
-1.350669660710961
 30
0.0
 10
15.83373936850451
 20
-1.576094132555786
 30
0.0
 10
16.45951567245577
 20
-1.89886067158421
 30
0.0
 10
16.66620433672012
 20
-2.003696204919868
 30
0.0
 10
17.08154494398674
 20
-2.208001202123706
 30
0.0
 10
17.29055768164186
 20
-2.307517629897367
 30
0.0
 10
17.70872821885803
 20
-2.500024568730686
 30
0.0
 10
17.91788255468133
 20
-2.593013473239957
 30
0.0
 10
18.33378383154761
 20
-2.771366094075132
 30
0.0
 10
18.54015609336702
 20
-2.856695482403564
 30
0.0
 10
19.5446773126454
 20
-3.325909782994413
 30
0.0
 10
20.2870886908285
 20
-3.462018535661312
 30
0.0
 10
21.62671406577326
 20
-3.65428534028411
 30
0.0
  0
LINE
  5
A5
330
1F
100
AcDbEntity
  8
외형선
  6
Continuous
370
    15
100
AcDbLine
 10
10.0
 20
0.3427253970230286
 30
0.0
 11
10.0
 21
1.695836282712631
 31
0.0
  0
SPLINE
  5
A6
330
1F
100
AcDbEntity
  8
외형선
  6
Continuous
 62
     1
370
    15
100
AcDbSpline
210
0.0
220
0.0
230
1.0
 70
     8
 71
     3
 72
     8
 73
     4
 74
     0
 42
0.000000001
 43
0.00000001
 40
0.0
 40
0.0
 40
0.0
 40
0.0
 40
0.3207670093067186
 40
0.3207670093067186
 40
0.3207670093067186
 40
0.3207670093067186
 10
17.26365782854435
 20
3.274151688148751
 30
0.0
 10
17.55621218915541
 20
3.367017960269153
 30
0.0
 10
17.88400781698869
 20
3.427965971680842
 30
0.0
 10
18.14133033043593
 20
3.541941142854181
 30
0.0
  0
SPLINE
  5
A7
330
1F
100
AcDbEntity
  8
0
 62
     1
100
AcDbSpline
210
0.0
220
0.0
230
1.0
 70
     8
 71
     3
 72
    12
 73
     8
 74
     0
 42
0.000000001
 43
0.00000001
 40
0.0
 40
0.0
 40
0.0
 40
0.0
 40
0.2011212541629921
 40
0.4020779580783888
 40
0.6029402467672755
 40
0.8037855269004317
 40
1.0
 40
1.0
 40
1.0
 40
1.0
 10
19.99999999999994
 20
2.142550161787167
 30
0.0
 10
19.53287814688431
 20
2.361609912685019
 30
0.0
 10
18.59901662311761
 20
2.799550187593946
 30
0.0
 10
17.19895287894983
 20
3.320333093344021
 30
0.0
 10
15.79962981505415
 20
3.708387675995051
 30
0.0
 10
14.41138922575771
 20
3.955988451979066
 30
0.0
 10
13.48934566349006
 20
3.981668641695948
 30
0.0
 10
13.03370066227243
 20
3.99435898578993
 30
0.0
  0
LINE
  5
A8
330
1F
100
AcDbEntity
  8
0
 62
     1
100
AcDbLine
 10
9.999999999999957
 20
-3.985290366113309
 30
0.0
 11
10.59448905079837
 21
-3.980059911211423
 31
0.0
  0
LINE
  5
A9
330
1F
100
AcDbEntity
  8
외형선
  6
Continuous
370
    15
100
AcDbLine
 10
10.0
 20
-3.985290366113309
 30
0.0
 11
10.0
 21
-3.622725397022992
 31
0.0
  0
LINE
  5
AA
330
1F
100
AcDbEntity
  8
외형선
  6
Continuous
370
    15
100
AcDbLine
 10
-75.19999999999999
 20
0.0
 30
0.0
 11
-75.19999999999999
 21
4.0
 31
0.0
  0
LINE
  5
AB
330
1F
100
AcDbEntity
  8
외형선
  6
Continuous
370
    15
100
AcDbLine
 10
-75.19999999999999
 20
-4.0
 30
0.0
 11
-75.19999999999999
 21
0.0
 31
0.0
  0
LINE
  5
AC
330
1F
100
AcDbEntity
  8
외형선
  6
Continuous
370
    15
100
AcDbLine
 10
-76.0
 20
0.0
 30
0.0
 11
-76.0
 21
3.200000000000003
 31
0.0
  0
LINE
  5
AD
330
1F
100
AcDbEntity
  8
외형선
  6
Continuous
370
    15
100
AcDbLine
 10
-76.0
 20
-3.200000000000003
 30
0.0
 11
-76.0
 21
0.0
 31
0.0
  0
LINE
  5
AE
330
1F
100
AcDbEntity
  8
외형선
  6
Continuous
370
    15
100
AcDbLine
 10
10.0
 20
0.0
 30
0.0
 11
10.0
 21
4.0
 31
0.0
  0
LINE
  5
AF
330
1F
100
AcDbEntity
  8
외형선
  6
Continuous
370
    15
100
AcDbLine
 10
10.0
 20
-4.0
 30
0.0
 11
10.0
 21
0.0
 31
0.0
  0
LINE
  5
B0
330
1F
100
AcDbEntity
  8
중심선
 62
     1
100
AcDbLine
 10
-79.0
 20
0.0
 30
0.0
 11
26.99999999999996
 21
0.0000000000000091
 31
0.0
  0
LINE
  5
B1
330
1F
100
AcDbEntity
  8
참조1
100
AcDbLine
 10
12.49999999999997
 20
0.0010749287238892
 30
0.0
 11
12.49999999999998
 21
-39.99892507127611
 31
0.0
  0
LINE
  5
B2
330
1F
100
AcDbEntity
  8
참조1
100
AcDbLine
 10
62.49999999999994
 20
0.0010749287238997
 30
0.0
 11
62.49999999999994
 21
0.9423174252685359
 31
0.0
  0
LINE
  5
B3
330
1F
100
AcDbEntity
  8
참조1
100
AcDbLine
 10
12.49999999999998
 20
-39.99892507127611
 30
0.0
 11
-27.65885681430863
 21
-39.9989250712761
 31
0.0
  0
CIRCLE
  5
B4
330
1F
100
AcDbEntity
  8
해칭선
100
AcDbCircle
 10
0.0
 20
0.0
 30
0.0
 40
3.000000000000005
  0
INSERT
  5
B5
330
1F
100
AcDbEntity
  8
0
  6
Continuous
 62
     7
100
AcDbBlockReference
 66
     1
  2
블럭10
 10
-39.94027293212522
 20
-52.04717430164393
 30
0.0
  0
ATTRIB
  5
B6
330
B5
100
AcDbEntity
  8
FORMAT
 62
     2
100
AcDbText
 10
-50.08190894426185
 20
-49.97180738881174
 30
0.0
 40
4.233333333333333
  1
EM815080 [ 4 FLUTE ]
 41
0.75
  7
SLDTEXTSTYLE0
 11
-50.08190894426185
 21
-52.08847405547841
 31
0.0
100
AcDbAttribute
  2
AUTOATTR0
 70
     0
 74
     1
  0
SEQEND
  5
B7
330
B5
100
AcDbEntity
  8
0
  6
Continuous
 62
     7
  0
HATCH
  5
B8
330
1F
100
AcDbEntity
  8
중심선
100
AcDbHatch
 10
0.0
 20
0.0
 30
0.0
210
0.0
220
0.0
230
1.0
  2
SOLID
 70
     1
 71
     0
 91
        1
 92
        0
 93
        4
 72
     1
 10
-34.22536362774437
 20
-35.8
 11
-37.67163887158166
 21
-35.8
 72
     1
 10
-37.67163887158166
 20
-35.8
 11
-39.79986873078568
 21
-38.33632558057257
 72
     1
 10
-39.79986873078568
 20
-38.33632558057257
 11
-36.35356040183525
 21
-38.33628615127008
 72
     1
 10
-36.35356040183525
 20
-38.33628615127008
 11
-34.22536362774437
 21
-35.8
 97
        0
 75
     0
 76
     1
 98
        1
 10
-38.49999999999999
 20
-0.0010749287238931
  0
HATCH
  5
B9
330
1F
100
AcDbEntity
  8
중심선
100
AcDbHatch
 10
0.0
 20
0.0
 30
0.0
210
0.0
220
0.0
230
1.0
  2
SOLID
 70
     1
 71
     0
 91
        1
 92
        0
 93
        4
 72
     1
 10
-29.21259963670839
 20
-35.79999999999998
 11
-32.65887488054567
 21
-35.79999999999998
 72
     1
 10
-32.65887488054567
 20
-35.79999999999998
 11
-37.19001288890309
 21
-41.20000000000002
 72
     1
 10
-37.19001288890309
 20
-41.20000000000002
 11
-33.74373764506581
 21
-41.20000000000002
 72
     1
 10
-33.74373764506581
 20
-41.20000000000002
 11
-29.21259963670839
 21
-35.79999999999998
 97
        0
 75
     0
 76
     1
 98
        1
 10
-38.49999999999999
 20
-0.0010749287238931
  0
HATCH
  5
BA
330
1F
100
AcDbEntity
  8
중심선
100
AcDbHatch
 10
0.0
 20
0.0
 30
0.0
210
0.0
220
0.0
230
1.0
  2
SOLID
 70
     1
 71
     0
 91
        1
 92
        0
 93
        4
 72
     1
 10
-24.19983564567253
 20
-35.8
 11
-27.64611088950959
 21
-35.79999999999998
 72
     1
 10
-27.64611088950959
 20
-35.79999999999998
 11
-34.69454779139889
 21
-44.20000000000002
 72
     1
 10
-34.69454779139889
 20
-44.20000000000002
 11
-31.2482725475616
 21
-44.20000000000002
 72
     1
 10
-31.24827254756161
 20
-44.20000000000002
 11
-24.19983564567253
 21
-35.8
 97
        0
 75
     0
 76
     1
 98
        1
 10
-38.49999999999999
 20
-0.0010749287238931
  0
HATCH
  5
BB
330
1F
100
AcDbEntity
  8
중심선
100
AcDbHatch
 10
0.0
 20
0.0
 30
0.0
210
0.0
220
0.0
230
1.0
  2
SOLID
 70
     1
 71
     0
 91
        1
 92
        0
 93
        6
 72
     3
 10
-19.39994521466033
 20
-40.00000000005127
 11
3.960054785062283
 21
1.540882976769353E-10
 40
0.3939339440162628
 50
17.09539180608436
 51
320.0019657685081
 73
     0
 72
     1
 10
-17.71694555895973
 20
-38.5878940046383
 11
-15.41164368525866
 21
-36.65356729459038
 72
     3
 10
-19.39994521471317
 20
-40.00000000000015
 11
6.600054785286829
 21
-1.278976924368180E-13
 40
0.636358354079598
 50
39.99873849337385
 51
368.4976242363724
 73
     1
 72
     1
 10
-12.97461272281256
 20
-39.03999999993002
 11
-20.71987790787725
 21
-39.03999999993
 72
     1
 10
-20.71987790787725
 20
-39.03999999993
 11
-20.71990295232319
 21
-40.95999999992991
 72
     1
 10
-20.71990295232319
 20
-40.95999999992991
 11
-16.27852318285115
 21
-40.95999999992988
 97
        0
 75
     0
 76
     1
 98
        1
 10
-38.49999999999999
 20
-0.0010749287238931
  0
DIMENSION
  5
BC
330
1F
100
AcDbEntity
  8
치수문자_일반주서
100
AcDbDimension
  2
_D
 10
10.0
 20
13.47610609593337
 30
0.0
 11
16.80956998654938
 21
13.47610609593337
 31
0.0
 70
   160
  1
<>
 71
     2
 42
13.99999999999996
  3
SLDDIMSTYLE0
100
AcDbAlignedDimension
 13
23.99999999999996
 23
4.000000000000052
 33
0.0
 14
10.0
 24
4.000000000000004
 34
0.0
100
AcDbRotatedDimension
  0
DIMENSION
  5
C8
330
1F
100
AcDbEntity
  8
치수문자_일반주서
100
AcDbDimension
  2
_D_1
 10
-76.0
 20
24.0
 30
0.0
 11
-26.00000000000003
 21
24.0
 31
0.0
 70
   160
  1
<>
 71
     2
 42
99.99999999999996
  3
SLDDIMSTYLE0
100
AcDbAlignedDimension
 13
23.99999999999996
 23
4.000000000000052
 33
0.0
 14
-76.0
 24
3.200000000000008
 34
0.0
 50
0.0000000000000041
100
AcDbRotatedDimension
  0
DIMENSION
  5
D2
330
1F
100
AcDbEntity
  8
치수문자_일반주서
100
AcDbDimension
  2
_D_2
 10
37.98292649609888
 20
-3.999999999999924
 30
0.0
 11
37.98292649609881
 21
15.00626203849147
 31
0.0
 70
   160
  1
%%c<>
 71
     2
 42
8.000000000000028
 52
-270.0
  3
SLDDIMSTYLE0
100
AcDbAlignedDimension
 13
23.99999999999996
 23
4.000000000000052
 33
0.0
 14
23.99999999999996
 24
-3.999999999999976
 34
0.0
 50
90.0000000000002
100
AcDbRotatedDimension
  0
DIMENSION
  5
DE
330
1F
100
AcDbEntity
  8
치수문자_일반주서
100
AcDbDimension
  2
_D_3
 10
-87.8043937231036
 20
-4.000000000000055
 30
0.0
 11
-87.80439372310366
 21
13.66649999999996
 31
0.0
 70
   160
  1
%%c<>
 71
     2
 42
8.000000000000007
 52
-270.0
  3
SLDDIMSTYLE1
100
AcDbAlignedDimension
 13
-75.19999999999999
 23
4.000000000000004
 33
0.0
 14
-75.19999999999999
 24
-4.000000000000004
 34
0.0
 50
90.0000000000002
100
AcDbRotatedDimension
  0
LINE
  5
EC
330
1F
100
AcDbEntity
  8
참조1
100
AcDbLine
 10
70.31348381534563
 20
7.441074928723896
 30
0.0
 11
70.31348381534563
 21
-7.438925071276109
 31
0.0
  0
LINE
  5
ED
330
1F
100
AcDbEntity
  8
참조1
100
AcDbLine
 10
83.01348381534564
 20
5.441074928723896
 30
0.0
 11
70.31348381534563
 21
5.441074928723896
 31
0.0
  0
SOLID
  5
EE
330
1F
100
AcDbEntity
  8
참조1
100
AcDbTrace
 10
70.31348381534563
 20
5.441074928723896
 30
0.0
 11
76.66348381534563
 21
4.425074928723896
 31
0.0
 12
76.66348381534563
 22
6.457074928723896
 32
0.0
 13
76.66348381534563
 23
6.457074928723896
 33
0.0
  0
LINE
  5
EF
330
1F
100
AcDbEntity
  8
참조1
100
AcDbLine
 10
83.01348381534564
 20
-5.438925071276109
 30
0.0
 11
70.31348381534563
 21
-5.438925071276109
 31
0.0
  0
SOLID
  5
F0
330
1F
100
AcDbEntity
  8
참조1
100
AcDbTrace
 10
70.31348381534563
 20
-5.438925071276109
 30
0.0
 11
76.66348381534563
 21
-6.454925071276109
 31
0.0
 12
76.66348381534563
 22
-4.422925071276109
 32
0.0
 13
76.66348381534563
 23
-4.422925071276109
 33
0.0
  0
MTEXT
  5
F1
330
1F
100
AcDbEntity
  8
참조1
100
AcDbMText
 10
79.71097390781591
 20
10.98929157337383
 30
0.0
 40
3.5
 41
0.0
 71
     1
 72
     1
  1
A
  7
SLDTEXTSTYLE0
 73
     1
 44
1.0
  0
MTEXT
  5
F2
330
1F
100
AcDbEntity
  8
참조1
100
AcDbMText
 10
79.71097390781591
 20
0.1092915733738259
 30
0.0
 40
3.5
 41
0.0
 71
     1
 72
     1
  1
A
  7
SLDTEXTSTYLE0
 73
     1
 44
1.0
  0
INSERT
  5
F9
330
1F
100
AcDbEntity
  8
해칭선
100
AcDbBlockReference
  2
SW_DOWELSYMBOL_0
 10
0.0
 20
0.0
 30
0.0
  0
ARC
  5
12A
330
1F
100
AcDbEntity
  8
0
 62
     1
100
AcDbCircle
 10
19.99999999999994
 20
0.0000000000000066
 30
0.0
 40
4.0
100
AcDbArc
 50
242.508118502897
 51
117.6886999992995
  0
SPLINE
  5
12C
330
1F
100
AcDbEntity
  8
외형선
  6
Continuous
 62
     1
370
    15
100
AcDbSpline
210
0.0
220
0.0
230
1.0
 70
     8
 71
     3
 72
    30
 73
    26
 74
     0
 42
0.000000001
 43
0.00000001
 40
0.4601473816285738
 40
0.4601473816285738
 40
0.4601473816285738
 40
0.4601473816285738
 40
0.4687499999999943
 40
0.4687499999999943
 40
0.4999999999999939
 40
0.4999999999999939
 40
0.5312499999999936
 40
0.5312499999999936
 40
0.5624999999999931
 40
0.5624999999999931
 40
0.5937499999999928
 40
0.5937499999999928
 40
0.6249999999999923
 40
0.6249999999999923
 40
0.6874999999999936
 40
0.6874999999999936
 40
0.7499999999999948
 40
0.7499999999999948
 40
0.8124999999999961
 40
0.8124999999999961
 40
0.8749999999999974
 40
0.8749999999999974
 40
0.9374999999999988
 40
0.9374999999999988
 40
1.0
 40
1.0
 40
1.0
 40
1.0
 10
23.34357047237511
 20
2.19557202028562
 30
0.0
 10
23.61654864819319
 20
1.367518296705432
 30
0.0
 10
23.62277370176382
 20
1.339668728873914
 30
0.0
 10
23.64889136487889
 20
1.211090213697287
 30
0.0
 10
23.66165036818487
 20
1.11047145054097
 30
0.0
 10
23.66853936324637
 20
0.9198184472167801
 30
0.0
 10
23.66291074722642
 20
0.8298496071634449
 30
0.0
 10
23.63127753715219
 20
0.6636914025639021
 30
0.0
 10
23.60541939036433
 20
0.5896514644691921
 30
0.0
 10
23.53500854877252
 20
0.4659350644759232
 30
0.0
 10
23.48930505308416
 20
0.414959781141572
 30
0.0
 10
23.38300022147573
 20
0.3421186071274286
 30
0.0
 10
23.32192400294915
 20
0.31934619426919
 30
0.0
 10
23.12030588622491
 20
0.2897794404482267
 30
0.0
 10
22.96433322838691
 20
0.3222498758129925
 30
0.0
 10
22.63751011661221
 20
0.4499357565672482
 30
0.0
 10
22.46271044364582
 20
0.5463570016799092
 30
0.0
 10
22.10957439759976
 20
0.7673891607444543
 30
0.0
 10
21.92731453710239
 20
0.894245955578659
 30
0.0
 10
21.55734939400909
 20
1.157782995848185
 30
0.0
 10
21.37132927330632
 20
1.29248938668542
 30
0.0
 10
20.990911199057
 20
1.557469361836947
 30
0.0
 10
20.79510827851485
 20
1.688715052181071
 30
0.0
 10
20.4015420875499
 20
1.931120917379083
 30
0.0
 10
20.20292123057764
 20
2.043210852063879
 30
0.0
 10
20.00000000000008
 20
2.142550161787107
 30
0.0
  0
LINE
  5
1B3
330
1F
100
AcDbEntity
  8
외형선
  6
Continuous
370
    15
100
AcDbLine
 10
-61.84997599999997
 20
4.0
 30
0.0
 11
-75.19999999999999
 21
4.0
 31
0.0
  0
ENDSEC
  0
SECTION
  2
OBJECTS
  0
DICTIONARY
  5
C
330
0
100
AcDbDictionary
281
     1
  3
ACAD_GROUP
350
D
  3
ACAD_IMAGE_VARS
350
11D
  3
ACAD_LAYOUT
350
1A
  3
ACAD_MLINESTYLE
350
17
  3
ACAD_PLOTSETTINGS
350
19
  3
ACAD_PLOTSTYLENAME
350
E
  3
ACAD_SCALELIST
350
47
  3
APPDATA
350
11B
  3
DWGPROPS
350
1D7
  0
DICTIONARY
  5
193
330
2
100
AcDbDictionary
280
     1
281
     1
  3
ACAD_LAYERSTATES
360
194
  0
DICTIONARY
  5
D
102
{ACAD_REACTORS
330
C
102
}
330
C
100
AcDbDictionary
281
     1
  0
RASTERVARIABLES
  5
11D
102
{ACAD_REACTORS
330
C
102
}
330
C
100
AcDbRasterVariables
 90
        0
 70
     1
 71
     1
 72
     1
  0
DICTIONARY
  5
1A
102
{ACAD_REACTORS
330
C
102
}
330
C
100
AcDbDictionary
281
     1
  3
Layout1
350
1E
  3
Layout2
350
26
  3
Model
350
22
  0
DICTIONARY
  5
17
102
{ACAD_REACTORS
330
C
102
}
330
C
100
AcDbDictionary
281
     1
  3
Standard
350
18
  0
DICTIONARY
  5
19
102
{ACAD_REACTORS
330
C
102
}
330
C
100
AcDbDictionary
281
     1
  0
ACDBDICTIONARYWDFLT
  5
E
102
{ACAD_REACTORS
330
C
102
}
330
C
100
AcDbDictionary
281
     1
  3
Normal
350
F
100
AcDbDictionaryWithDefault
340
F
  0
DICTIONARY
  5
47
102
{ACAD_REACTORS
330
C
102
}
330
C
100
AcDbDictionary
281
     1
  3
A0
350
48
  3
A1
350
49
  3
A2
350
4A
  3
A3
350
4B
  3
A4
350
4C
  3
A5
350
4D
  3
A6
350
4E
  3
A7
350
4F
  3
A8
350
50
  3
A9
350
51
  3
B0
350
52
  3
B1
350
53
  3
B2
350
54
  3
B3
350
55
  3
B4
350
56
  3
B5
350
57
  3
B6
350
58
  3
B7
350
59
  3
B8
350
5A
  3
B9
350
5B
  3
C0
350
5C
  3
C1
350
5D
  3
C2
350
5E
  3
C3
350
5F
  3
C4
350
60
  3
C5
350
61
  3
C6
350
62
  3
C7
350
63
  3
C8
350
64
  3
C9
350
65
  3
D0
350
66
  3
D1
350
67
  3
D2
350
68
  0
DICTIONARY
  5
11B
102
{ACAD_REACTORS
330
C
102
}
330
C
100
AcDbDictionary
281
     1
  0
XRECORD
  5
1D7
102
{ACAD_REACTORS
330
C
102
}
330
C
100
AcDbXrecord
280
     1
  1
DWGPROPS COOKIE
  2

  3

  4

  6

  7

  8
12016016
  9

300
=
301
=
302
=
303
=
304
=
305
=
306
=
307
=
308
=
309
=
 40
0.0
 41
2458292.130393368
 42
2458295.456028033
  1

 90
        0
  0
DICTIONARY
  5
194
102
{ACAD_REACTORS
330
193
102
}
330
193
100
AcDbDictionary
281
     1
  0
LAYOUT
  5
1E
102
{ACAD_REACTORS
330
1A
102
}
330
1A
100
AcDbPlotSettings
  1

  2
none_device
  4

  6

 40
0.0
 41
0.0
 42
0.0
 43
0.0
 44
0.0
 45
0.0
 46
0.0
 47
0.0
 48
0.0
 49
0.0
140
0.0
141
0.0
142
1.0
143
1.0
 70
   688
 72
     1
 73
     0
 74
     5
  7

 75
    16
147
1.0
148
0.0
149
0.0
100
AcDbLayout
  1
Layout1
 70
     1
 71
     1
 10
0.0
 20
0.0
 11
420.0
 21
297.0
 12
0.0
 22
0.0
 32
0.0
 14
1.000000000000000E+20
 24
1.000000000000000E+20
 34
1.000000000000000E+20
 15
-1.000000000000000E+20
 25
-1.000000000000000E+20
 35
-1.000000000000000E+20
146
0.0
 13
0.0
 23
0.0
 33
0.0
 16
1.0
 26
0.0
 36
0.0
 17
0.0
 27
1.0
 37
0.0
 76
     0
330
1B
  0
LAYOUT
  5
26
102
{ACAD_REACTORS
330
1A
102
}
330
1A
100
AcDbPlotSettings
  1

  2
none_device
  4

  6

 40
0.0
 41
0.0
 42
0.0
 43
0.0
 44
0.0
 45
0.0
 46
0.0
 47
0.0
 48
0.0
 49
0.0
140
0.0
141
0.0
142
1.0
143
1.0
 70
   688
 72
     1
 73
     0
 74
     5
  7

 75
    16
147
1.0
148
0.0
149
0.0
100
AcDbLayout
  1
Layout2
 70
     1
 71
     2
 10
0.0
 20
0.0
 11
0.0
 21
0.0
 12
0.0
 22
0.0
 32
0.0
 14
0.0
 24
0.0
 34
0.0
 15
0.0
 25
0.0
 35
0.0
146
0.0
 13
0.0
 23
0.0
 33
0.0
 16
1.0
 26
0.0
 36
0.0
 17
0.0
 27
1.0
 37
0.0
 76
     0
330
23
  0
LAYOUT
  5
22
102
{ACAD_REACTORS
330
1A
102
}
330
1A
100
AcDbPlotSettings
  1

  2
none_device
  4
ANSI_A_(11.00_x_8.50_Inches)
  6

 40
6.35
 41
19.05
 42
6.35000508
 43
19.05000254
 44
279.4
 45
215.9
 46
97.99618662484775
 47
82.52587262966212
 48
0.0
 49
0.0
140
0.0
141
0.0
142
0.0771681110907119
143
1.0
 70
  1696
 72
     0
 73
     0
 74
     0
  7

 75
     0
147
0.0235690232323232
148
0.0
149
0.0
100
AcDbLayout
  1
Model
 70
     1
 71
     0
 10
0.0
 20
0.0
 11
420.0
 21
297.0
 12
0.0
 22
0.0
 32
0.0
 14
-92.17939372310366
 24
-49.97180738881174
 34
0.0
 15
83.01348381534564
 25
28.375
 35
0.0
146
0.0
 13
0.0
 23
0.0
 33
0.0
 16
1.0
 26
0.0
 36
0.0
 17
0.0
 27
1.0
 37
0.0
 76
     0
330
1F
331
29
  0
MLINESTYLE
  5
18
102
{ACAD_REACTORS
330
17
102
}
330
17
100
AcDbMlineStyle
  2
Standard
 70
     0
  3

 62
   256
 51
90.0
 52
90.0
 71
     2
 49
0.5
 62
   256
  6
BYLAYER
 49
-0.5
 62
   256
  6
BYLAYER
  0
ACDBPLACEHOLDER
  5
F
102
{ACAD_REACTORS
330
E
102
}
330
E
  0
SCALE
  5
48
102
{ACAD_REACTORS
330
47
102
}
330
47
100
AcDbScale
 70
     0
300
1:1
140
1.0
141
1.0
290
     1
  0
SCALE
  5
49
102
{ACAD_REACTORS
330
47
102
}
330
47
100
AcDbScale
 70
     0
300
1:2
140
1.0
141
2.0
290
     0
  0
SCALE
  5
4A
102
{ACAD_REACTORS
330
47
102
}
330
47
100
AcDbScale
 70
     0
300
1:4
140
1.0
141
4.0
290
     0
  0
SCALE
  5
4B
102
{ACAD_REACTORS
330
47
102
}
330
47
100
AcDbScale
 70
     0
300
1:5
140
1.0
141
5.0
290
     0
  0
SCALE
  5
4C
102
{ACAD_REACTORS
330
47
102
}
330
47
100
AcDbScale
 70
     0
300
1:8
140
1.0
141
8.0
290
     0
  0
SCALE
  5
4D
102
{ACAD_REACTORS
330
47
102
}
330
47
100
AcDbScale
 70
     0
300
1:10
140
1.0
141
10.0
290
     0
  0
SCALE
  5
4E
102
{ACAD_REACTORS
330
47
102
}
330
47
100
AcDbScale
 70
     0
300
1:16
140
1.0
141
16.0
290
     0
  0
SCALE
  5
4F
102
{ACAD_REACTORS
330
47
102
}
330
47
100
AcDbScale
 70
     0
300
1:20
140
1.0
141
20.0
290
     0
  0
SCALE
  5
50
102
{ACAD_REACTORS
330
47
102
}
330
47
100
AcDbScale
 70
     0
300
1:30
140
1.0
141
30.0
290
     0
  0
SCALE
  5
51
102
{ACAD_REACTORS
330
47
102
}
330
47
100
AcDbScale
 70
     0
300
1:40
140
1.0
141
40.0
290
     0
  0
SCALE
  5
52
102
{ACAD_REACTORS
330
47
102
}
330
47
100
AcDbScale
 70
     0
300
1:50
140
1.0
141
50.0
290
     0
  0
SCALE
  5
53
102
{ACAD_REACTORS
330
47
102
}
330
47
100
AcDbScale
 70
     0
300
1:100
140
1.0
141
100.0
290
     0
  0
SCALE
  5
54
102
{ACAD_REACTORS
330
47
102
}
330
47
100
AcDbScale
 70
     0
300
2:1
140
2.0
141
1.0
290
     0
  0
SCALE
  5
55
102
{ACAD_REACTORS
330
47
102
}
330
47
100
AcDbScale
 70
     0
300
4:1
140
4.0
141
1.0
290
     0
  0
SCALE
  5
56
102
{ACAD_REACTORS
330
47
102
}
330
47
100
AcDbScale
 70
     0
300
8:1
140
8.0
141
1.0
290
     0
  0
SCALE
  5
57
102
{ACAD_REACTORS
330
47
102
}
330
47
100
AcDbScale
 70
     0
300
10:1
140
10.0
141
1.0
290
     0
  0
SCALE
  5
58
102
{ACAD_REACTORS
330
47
102
}
330
47
100
AcDbScale
 70
     0
300
100:1
140
100.0
141
1.0
290
     0
  0
SCALE
  5
59
102
{ACAD_REACTORS
330
47
102
}
330
47
100
AcDbScale
 70
     0
300
1/128" = 1'-0"
140
0.0078125
141
12.0
290
     0
  0
SCALE
  5
5A
102
{ACAD_REACTORS
330
47
102
}
330
47
100
AcDbScale
 70
     0
300
1/64" = 1'-0"
140
0.015625
141
12.0
290
     0
  0
SCALE
  5
5B
102
{ACAD_REACTORS
330
47
102
}
330
47
100
AcDbScale
 70
     0
300
1/32" = 1'-0"
140
0.03125
141
12.0
290
     0
  0
SCALE
  5
5C
102
{ACAD_REACTORS
330
47
102
}
330
47
100
AcDbScale
 70
     0
300
1/16" = 1'-0"
140
0.0625
141
12.0
290
     0
  0
SCALE
  5
5D
102
{ACAD_REACTORS
330
47
102
}
330
47
100
AcDbScale
 70
     0
300
3/32" = 1'-0"
140
0.09375
141
12.0
290
     0
  0
SCALE
  5
5E
102
{ACAD_REACTORS
330
47
102
}
330
47
100
AcDbScale
 70
     0
300
1/8" = 1'-0"
140
0.125
141
12.0
290
     0
  0
SCALE
  5
5F
102
{ACAD_REACTORS
330
47
102
}
330
47
100
AcDbScale
 70
     0
300
3/16" = 1'-0"
140
0.1875
141
12.0
290
     0
  0
SCALE
  5
60
102
{ACAD_REACTORS
330
47
102
}
330
47
100
AcDbScale
 70
     0
300
1/4" = 1'-0"
140
0.25
141
12.0
290
     0
  0
SCALE
  5
61
102
{ACAD_REACTORS
330
47
102
}
330
47
100
AcDbScale
 70
     0
300
3/8" = 1'-0"
140
0.375
141
12.0
290
     0
  0
SCALE
  5
62
102
{ACAD_REACTORS
330
47
102
}
330
47
100
AcDbScale
 70
     0
300
1/2" = 1'-0"
140
0.5
141
12.0
290
     0
  0
SCALE
  5
63
102
{ACAD_REACTORS
330
47
102
}
330
47
100
AcDbScale
 70
     0
300
3/4" = 1'-0"
140
0.75
141
12.0
290
     0
  0
SCALE
  5
64
102
{ACAD_REACTORS
330
47
102
}
330
47
100
AcDbScale
 70
     0
300
1" = 1'-0"
140
1.0
141
12.0
290
     0
  0
SCALE
  5
65
102
{ACAD_REACTORS
330
47
102
}
330
47
100
AcDbScale
 70
     0
300
1-1/2" = 1'-0"
140
1.5
141
12.0
290
     0
  0
SCALE
  5
66
102
{ACAD_REACTORS
330
47
102
}
330
47
100
AcDbScale
 70
     0
300
3" = 1'-0"
140
3.0
141
12.0
290
     0
  0
SCALE
  5
67
102
{ACAD_REACTORS
330
47
102
}
330
47
100
AcDbScale
 70
     0
300
6" = 1'-0"
140
6.0
141
12.0
290
     0
  0
SCALE
  5
68
102
{ACAD_REACTORS
330
47
102
}
330
47
100
AcDbScale
 70
     0
300
1'-0" = 1'-0"
140
12.0
141
12.0
290
     0
  0
ENDSEC
  0
EOF
