  0
SECTION
  2
HEADER
  9
$ACADVER
  1
AC1015
  9
$ACADMAINTVER
 70
     6
  9
$DWGCODEPAGE
  3
ANSI_949
  9
$INSBASE
 10
0.0
 20
0.0
 30
0.0
  9
$EXTMIN
 10
-107.8246876193096
 20
-49.97180738881175
 30
0.0
  9
$EXTMAX
 10
68.1115600266989
 20
33.11393843103311
 30
0.0
  9
$LIMMIN
 10
0.0
 20
0.0
  9
$LIMMAX
 10
420.0
 20
297.0
  9
$ORTHOMODE
 70
     1
  9
$REGENMODE
 70
     1
  9
$FILLMODE
 70
     1
  9
$QTEXTMODE
 70
     0
  9
$MIRRTEXT
 70
     1
  9
$LTSCALE
 40
1.0
  9
$ATTMODE
 70
     1
  9
$TEXTSIZE
 40
3.5
  9
$TRACEWID
 40
1.0
  9
$TEXTSTYLE
  7
Standard
  9
$CLAYER
  8
0
  9
$CELTYPE
  6
ByLayer
  9
$CECOLOR
 62
   256
  9
$CELTSCALE
 40
1.0
  9
$DISPSILH
 70
     0
  9
$DIMSCALE
 40
1.0
  9
$DIMASZ
 40
3.302
  9
$DIMEXO
 40
1.0
  9
$DIMDLI
 40
3.75
  9
$DIMRND
 40
0.0
  9
$DIMDLE
 40
0.0
  9
$DIMEXE
 40
1.0
  9
$DIMTP
 40
0.0
  9
$DIMTM
 40
0.0
  9
$DIMTXT
 40
3.5
  9
$DIMCEN
 40
2.5
  9
$DIMTSZ
 40
0.0
  9
$DIMTOL
 70
     0
  9
$DIMLIM
 70
     0
  9
$DIMTIH
 70
     1
  9
$DIMTOH
 70
     1
  9
$DIMSE1
 70
     0
  9
$DIMSE2
 70
     0
  9
$DIMTAD
 70
     1
  9
$DIMZIN
 70
     0
  9
$DIMBLK
  1

  9
$DIMASO
 70
     1
  9
$DIMSHO
 70
     1
  9
$DIMPOST
  1

  9
$DIMAPOST
  1

  9
$DIMALT
 70
     0
  9
$DIMALTD
 70
     3
  9
$DIMALTF
 40
0.0393700787401575
  9
$DIMLFAC
 40
1.0
  9
$DIMTOFL
 70
     1
  9
$DIMTVP
 40
0.0
  9
$DIMTIX
 70
     0
  9
$DIMSOXD
 70
     0
  9
$DIMSAH
 70
     0
  9
$DIMBLK1
  1

  9
$DIMBLK2
  1

  9
$DIMSTYLE
  2
ISO-25
  9
$DIMCLRD
 70
     0
  9
$DIMCLRE
 70
     0
  9
$DIMCLRT
 70
     0
  9
$DIMTFAC
 40
1.0
  9
$DIMGAP
 40
1.524
  9
$DIMJUST
 70
     0
  9
$DIMSD1
 70
     0
  9
$DIMSD2
 70
     0
  9
$DIMTOLJ
 70
     0
  9
$DIMTZIN
 70
     0
  9
$DIMALTZ
 70
     0
  9
$DIMALTTZ
 70
     0
  9
$DIMUPT
 70
     0
  9
$DIMDEC
 70
     2
  9
$DIMTDEC
 70
     2
  9
$DIMALTU
 70
     2
  9
$DIMALTTD
 70
     3
  9
$DIMTXSTY
  7
Standard
  9
$DIMAUNIT
 70
     0
  9
$DIMADEC
 70
     2
  9
$DIMALTRND
 40
0.0
  9
$DIMAZIN
 70
     0
  9
$DIMDSEP
 70
    44
  9
$DIMATFIT
 70
     3
  9
$DIMFRAC
 70
     0
  9
$DIMLDRBLK
  1

  9
$DIMLUNIT
 70
     2
  9
$DIMLWD
 70
    -2
  9
$DIMLWE
 70
    -2
  9
$DIMTMOVE
 70
     0
  9
$LUNITS
 70
     2
  9
$LUPREC
 70
     2
  9
$SKETCHINC
 40
1.0
  9
$FILLETRAD
 40
10.0
  9
$AUNITS
 70
     0
  9
$AUPREC
 70
     2
  9
$MENU
  1
.
  9
$ELEVATION
 40
0.0
  9
$PELEVATION
 40
0.0
  9
$THICKNESS
 40
0.0
  9
$LIMCHECK
 70
     0
  9
$CHAMFERA
 40
0.0
  9
$CHAMFERB
 40
0.0
  9
$CHAMFERC
 40
0.0
  9
$CHAMFERD
 40
0.0
  9
$SKPOLY
 70
     0
  9
$TDCREATE
 40
2458285.462739676
  9
$TDUCREATE
 40
2458285.087739676
  9
$TDUPDATE
 40
2458295.714284942
  9
$TDUUPDATE
 40
2458295.339284942
  9
$TDINDWG
 40
0.0006402778
  9
$TDUSRTIMER
 40
2458295.338644803
  9
$USRTIMER
 70
     1
  9
$ANGBASE
 50
0.0
  9
$ANGDIR
 70
     0
  9
$PDMODE
 70
     0
  9
$PDSIZE
 40
-1.0
  9
$PLINEWID
 40
0.0
  9
$SPLFRAME
 70
     0
  9
$SPLINETYPE
 70
     6
  9
$SPLINESEGS
 70
     8
  9
$HANDSEED
  5
12E
  9
$SURFTAB1
 70
     6
  9
$SURFTAB2
 70
     6
  9
$SURFTYPE
 70
     6
  9
$SURFU
 70
     6
  9
$SURFV
 70
     6
  9
$UCSBASE
  2

  9
$UCSNAME
  2

  9
$UCSORG
 10
0.0
 20
0.0
 30
0.0
  9
$UCSXDIR
 10
1.0
 20
0.0
 30
0.0
  9
$UCSYDIR
 10
0.0
 20
1.0
 30
0.0
  9
$UCSORTHOREF
  2

  9
$UCSORTHOVIEW
 70
     0
  9
$UCSORGTOP
 10
0.0
 20
0.0
 30
0.0
  9
$UCSORGBOTTOM
 10
0.0
 20
0.0
 30
0.0
  9
$UCSORGLEFT
 10
0.0
 20
0.0
 30
0.0
  9
$UCSORGRIGHT
 10
0.0
 20
0.0
 30
0.0
  9
$UCSORGFRONT
 10
0.0
 20
0.0
 30
0.0
  9
$UCSORGBACK
 10
0.0
 20
0.0
 30
0.0
  9
$PUCSBASE
  2

  9
$PUCSNAME
  2

  9
$PUCSORG
 10
0.0
 20
0.0
 30
0.0
  9
$PUCSXDIR
 10
1.0
 20
0.0
 30
0.0
  9
$PUCSYDIR
 10
0.0
 20
1.0
 30
0.0
  9
$PUCSORTHOREF
  2

  9
$PUCSORTHOVIEW
 70
     0
  9
$PUCSORGTOP
 10
0.0
 20
0.0
 30
0.0
  9
$PUCSORGBOTTOM
 10
0.0
 20
0.0
 30
0.0
  9
$PUCSORGLEFT
 10
0.0
 20
0.0
 30
0.0
  9
$PUCSORGRIGHT
 10
0.0
 20
0.0
 30
0.0
  9
$PUCSORGFRONT
 10
0.0
 20
0.0
 30
0.0
  9
$PUCSORGBACK
 10
0.0
 20
0.0
 30
0.0
  9
$USERI1
 70
     0
  9
$USERI2
 70
     0
  9
$USERI3
 70
     0
  9
$USERI4
 70
     0
  9
$USERI5
 70
     0
  9
$USERR1
 40
0.0
  9
$USERR2
 40
0.0
  9
$USERR3
 40
0.0
  9
$USERR4
 40
0.0
  9
$USERR5
 40
0.0
  9
$WORLDVIEW
 70
     1
  9
$SHADEDGE
 70
     3
  9
$SHADEDIF
 70
    70
  9
$TILEMODE
 70
     1
  9
$MAXACTVP
 70
    64
  9
$PINSBASE
 10
0.0
 20
0.0
 30
0.0
  9
$PLIMCHECK
 70
     0
  9
$PEXTMIN
 10
1.000000000000000E+20
 20
1.000000000000000E+20
 30
1.000000000000000E+20
  9
$PEXTMAX
 10
-1.000000000000000E+20
 20
-1.000000000000000E+20
 30
-1.000000000000000E+20
  9
$PLIMMIN
 10
0.0
 20
0.0
  9
$PLIMMAX
 10
0.0
 20
0.0
  9
$UNITMODE
 70
     0
  9
$VISRETAIN
 70
     1
  9
$PLINEGEN
 70
     0
  9
$PSLTSCALE
 70
     1
  9
$TREEDEPTH
 70
  3020
  9
$CMLSTYLE
  2
Standard
  9
$CMLJUST
 70
     0
  9
$CMLSCALE
 40
20.0
  9
$PROXYGRAPHICS
 70
     1
  9
$MEASUREMENT
 70
     1
  9
$CELWEIGHT
370
    -1
  9
$ENDCAPS
280
     0
  9
$JOINSTYLE
280
     0
  9
$LWDISPLAY
290
     1
  9
$INSUNITS
 70
     4
  9
$HYPERLINKBASE
  1

  9
$STYLESHEET
  1

  9
$XEDIT
290
     1
  9
$CEPSNTYPE
380
     0
  9
$PSTYLEMODE
290
     1
  9
$FINGERPRINTGUID
  2
{EBA4B8D8-DE10-47E5-8A09-16840F0657EF}
  9
$VERSIONGUID
  2
{FAEB1C32-E019-11D5-929B-00C0DF256EC4}
  9
$EXTNAMES
290
     1
  9
$PSVPSCALE
 40
0.0
  9
$OLESTARTUP
290
     0
  0
ENDSEC
  0
SECTION
  2
CLASSES
  0
CLASS
  1
ACDBDICTIONARYWDFLT
  2
AcDbDictionaryWithDefault
  3
ObjectDBX Classes
 90
        0
280
     0
281
     0
  0
CLASS
  1
VISUALSTYLE
  2
AcDbVisualStyle
  3
ObjectDBX Classes
 90
     4095
280
     0
281
     0
  0
CLASS
  1
MATERIAL
  2
AcDbMaterial
  3
ObjectDBX Classes
 90
     1153
280
     0
281
     0
  0
CLASS
  1
SCALE
  2
AcDbScale
  3
ObjectDBX Classes
 90
     1153
280
     0
281
     0
  0
CLASS
  1
SUN
  2
AcDbSun
  3
SCENEOE
 90
     1153
280
     0
281
     0
  0
CLASS
  1
ACDBPLACEHOLDER
  2
AcDbPlaceHolder
  3
ObjectDBX Classes
 90
        0
280
     0
281
     0
  0
CLASS
  1
LAYOUT
  2
AcDbLayout
  3
ObjectDBX Classes
 90
        0
280
     0
281
     0
  0
CLASS
  1
TABLESTYLE
  2
AcDbTableStyle
  3
ObjectDBX Classes
 90
     4095
280
     0
281
     0
  0
CLASS
  1
MLEADERSTYLE
  2
AcDbMLeaderStyle
  3
ACDB_MLEADERSTYLE_CLASS
 90
     4095
280
     0
281
     0
  0
CLASS
  1
RASTERVARIABLES
  2
AcDbRasterVariables
  3
ISM
 90
        0
280
     0
281
     0
  0
ENDSEC
  0
SECTION
  2
TABLES
  0
TABLE
  2
VPORT
  5
8
330
0
100
AcDbSymbolTable
 70
     1
  0
VPORT
  5
29
330
8
100
AcDbSymbolTableRecord
100
AcDbViewportTableRecord
  2
*Active
 70
     0
 10
0.0
 20
0.0
 11
1.0
 21
1.0
 12
-19.85656379630534
 22
-8.27594643745801
 13
0.0
 23
0.0
 14
10.0
 24
10.0
 15
10.0
 25
10.0
 16
0.0
 26
0.0
 36
1.0
 17
0.0
 27
0.0
 37
0.0
 40
116.5768875706595
 41
1.539370078740157
 42
50.0
 43
0.0
 44
0.0
 50
0.0
 51
0.0
 71
    16
 72
  2000
 73
     1
 74
     3
 75
     0
 76
     0
 77
     0
 78
     0
281
     0
 65
     1
110
0.0
120
0.0
130
0.0
111
1.0
121
0.0
131
0.0
112
0.0
122
1.0
132
0.0
 79
     0
146
0.0
  0
ENDTAB
  0
TABLE
  2
LTYPE
  5
5
330
0
100
AcDbSymbolTable
 70
     6
  0
LTYPE
  5
14
330
5
100
AcDbSymbolTableRecord
100
AcDbLinetypeTableRecord
  2
ByBlock
 70
     0
  3

 72
    65
 73
     0
 40
0.0
  0
LTYPE
  5
15
330
5
100
AcDbSymbolTableRecord
100
AcDbLinetypeTableRecord
  2
ByLayer
 70
     0
  3

 72
    65
 73
     0
 40
0.0
  0
LTYPE
  5
16
330
5
100
AcDbSymbolTableRecord
100
AcDbLinetypeTableRecord
  2
Continuous
 70
     0
  3
Solid line
 72
    65
 73
     0
 40
0.0
  0
LTYPE
  5
6A
330
5
100
AcDbSymbolTableRecord
100
AcDbLinetypeTableRecord
  2
HIDDEN
 70
     0
  3
Hidden __ __ __ __ __ __ __ __ __ __ __ __ __ __
 72
    65
 73
     2
 40
1.905
 49
1.27
 74
     0
 49
-0.635
 74
     0
  0
LTYPE
  5
6B
330
5
100
AcDbSymbolTableRecord
100
AcDbLinetypeTableRecord
  2
PHANTOM
 70
     0
  3
Phantom ______  __  __  ______  __  __  ______
 72
    65
 73
     6
 40
12.7
 49
6.35
 74
     0
 49
-1.27
 74
     0
 49
1.27
 74
     0
 49
-1.27
 74
     0
 49
1.27
 74
     0
 49
-1.27
 74
     0
  0
LTYPE
  5
6C
330
5
100
AcDbSymbolTableRecord
100
AcDbLinetypeTableRecord
  2
CENTER
 70
     0
  3
Center ____ _ ____ _ ____ _ ____ _ ____ _ ____
 72
    65
 73
     4
 40
10.16
 49
6.35
 74
     0
 49
-1.27
 74
     0
 49
1.27
 74
     0
 49
-1.27
 74
     0
  0
LTYPE
  5
6D
330
5
100
AcDbSymbolTableRecord
100
AcDbLinetypeTableRecord
  2
CENTERX2
 70
     0
  3
Center (2x) ________  __  ________  __  _____
 72
    65
 73
     4
 40
20.32
 49
12.7
 74
     0
 49
-2.54
 74
     0
 49
2.54
 74
     0
 49
-2.54
 74
     0
  0
LTYPE
  5
6E
330
5
100
AcDbSymbolTableRecord
100
AcDbLinetypeTableRecord
  2
DOT2
 70
     0
  3
Dot (.5x) ........................................
 72
    65
 73
     2
 40
0.635
 49
0.0
 74
     0
 49
-0.635
 74
     0
  0
ENDTAB
  0
TABLE
  2
LAYER
  5
2
330
0
100
AcDbSymbolTable
 70
    18
  0
LAYER
  5
10
330
2
100
AcDbSymbolTableRecord
100
AcDbLayerTableRecord
  2
0
 70
     0
 62
     7
  6
Continuous
370
    -3
390
F
  0
LAYER
  5
6F
330
2
100
AcDbSymbolTableRecord
100
AcDbLayerTableRecord
  2
FORMAT
 70
     0
 62
     2
  6
Continuous
370
    -3
390
F
  0
LAYER
  5
70
330
2
100
AcDbSymbolTableRecord
100
AcDbLayerTableRecord
  2
외형선
 70
     0
 62
     4
  6
Continuous
370
    30
390
F
  0
LAYER
  5
71
330
2
100
AcDbSymbolTableRecord
100
AcDbLayerTableRecord
  2
숨은선
 70
     0
 62
     2
  6
HIDDEN
370
    15
390
F
  0
LAYER
  5
72
330
2
100
AcDbSymbolTableRecord
100
AcDbLayerTableRecord
  2
중심선
 70
     0
 62
     1
  6
CENTERX2
370
    -3
390
F
  0
LAYER
  5
73
330
2
100
AcDbSymbolTableRecord
100
AcDbLayerTableRecord
  2
파단선
 70
     0
 62
     4
  6
Continuous
370
    -3
390
F
  0
LAYER
  5
74
330
2
100
AcDbSymbolTableRecord
100
AcDbLayerTableRecord
  2
해칭선
 70
     0
 62
   100
  6
Continuous
370
    -3
390
F
  0
LAYER
  5
75
330
2
100
AcDbSymbolTableRecord
100
AcDbLayerTableRecord
  2
가는실선
 70
     0
 62
     4
  6
Continuous
370
    -3
390
F
  0
LAYER
  5
76
330
2
100
AcDbSymbolTableRecord
100
AcDbLayerTableRecord
  2
치수_보조선
 70
     0
 62
     4
  6
Continuous
370
    -3
390
F
  0
LAYER
  5
77
330
2
100
AcDbSymbolTableRecord
100
AcDbLayerTableRecord
  2
치수문자_일반주서
 70
     0
 62
     7
  6
Continuous
370
    15
390
F
  0
LAYER
  5
78
330
2
100
AcDbSymbolTableRecord
100
AcDbLayerTableRecord
  2
개별주서
 70
     0
 62
   100
  6
Continuous
370
    30
390
F
  0
LAYER
  5
79
330
2
100
AcDbSymbolTableRecord
100
AcDbLayerTableRecord
  2
중간선
 70
     0
 62
     2
  6
Continuous
370
    15
390
F
  0
LAYER
  5
7A
330
2
100
AcDbSymbolTableRecord
100
AcDbLayerTableRecord
  2
윤곽선
 70
     0
 62
     3
  6
Continuous
370
    40
390
F
  0
LAYER
  5
7B
330
2
100
AcDbSymbolTableRecord
100
AcDbLayerTableRecord
  2
중심마크
 70
     0
 62
   100
  6
Continuous
370
    30
390
F
  0
LAYER
  5
7C
330
2
100
AcDbSymbolTableRecord
100
AcDbLayerTableRecord
  2
가상선
 70
     0
 62
     4
  6
PHANTOM
370
    -3
390
F
  0
LAYER
  5
7D
330
2
100
AcDbSymbolTableRecord
100
AcDbLayerTableRecord
  2
특수지정선
 70
     0
 62
     5
  6
CENTERX2
370
    60
390
F
  0
LAYER
  5
7E
330
2
100
AcDbSymbolTableRecord
100
AcDbLayerTableRecord
  2
참조1
 70
     0
 62
    -4
  6
Continuous
370
    -3
390
F
  0
LAYER
  5
126
330
2
100
AcDbSymbolTableRecord
100
AcDbLayerTableRecord
  2
Defpoints
 70
     0
 62
     7
  6
Continuous
290
     0
370
    -3
390
F
  0
ENDTAB
  0
TABLE
  2
STYLE
  5
3
330
0
100
AcDbSymbolTable
 70
     2
  0
STYLE
  5
11
330
3
100
AcDbSymbolTableRecord
100
AcDbTextStyleTableRecord
  2
Standard
 70
     0
 40
0.0
 41
1.0
 50
0.0
 71
     0
 42
3.5
  3
txt
  4

  0
STYLE
  5
94
330
3
100
AcDbSymbolTableRecord
100
AcDbTextStyleTableRecord
  2
SLDTEXTSTYLE0
 70
     0
 40
0.0
 41
0.75
 50
0.0
 71
     0
 42
3.5
  3
TXT
  4

  0
ENDTAB
  0
TABLE
  2
VIEW
  5
6
330
0
100
AcDbSymbolTable
 70
     0
  0
ENDTAB
  0
TABLE
  2
UCS
  5
7
330
0
100
AcDbSymbolTable
 70
     0
  0
ENDTAB
  0
TABLE
  2
APPID
  5
9
330
0
100
AcDbSymbolTable
 70
     1
  0
APPID
  5
12
330
9
100
AcDbSymbolTableRecord
100
AcDbRegAppTableRecord
  2
ACAD
 70
     0
  0
ENDTAB
  0
TABLE
  2
DIMSTYLE
  5
A
330
0
100
AcDbSymbolTable
 70
     3
100
AcDbDimStyleTable
  0
DIMSTYLE
105
27
330
A
100
AcDbSymbolTableRecord
100
AcDbDimStyleTableRecord
  2
ISO-25
 70
     0
 41
2.5
 42
0.625
 43
3.75
 44
1.25
 73
     0
 74
     0
 77
     1
 78
     8
140
2.5
141
2.5
143
0.03937007874016
147
0.625
171
     3
172
     1
178
     0
271
     2
272
     2
274
     3
278
    44
283
     0
284
     8
340
11
  0
DIMSTYLE
105
C5
102
{ACAD_REACTORS
330
C4
330
D0
330
E8
102
}
330
A
100
AcDbSymbolTableRecord
100
AcDbDimStyleTableRecord
  2
SLDDIMSTYLE0
 70
     0
 41
3.302
 44
0.0
 45
0.000000001
 73
     0
 74
     0
 77
     1
 78
    12
 79
     3
140
3.5
147
0.875
173
     1
178
     0
271
     2
272
     2
276
     2
284
    12
340
94
  0
DIMSTYLE
105
DB
102
{ACAD_REACTORS
330
DA
102
}
330
A
100
AcDbSymbolTableRecord
100
AcDbDimStyleTableRecord
  2
SLDDIMSTYLE1
 70
     0
 41
3.302
 44
0.0
 45
0.000000001
 73
     0
 74
     0
 77
     1
 78
    12
 79
     3
140
3.5
147
0.875
172
     1
173
     1
178
     0
271
     2
272
     2
276
     2
284
    12
289
     0
340
94
  0
ENDTAB
  0
TABLE
  2
BLOCK_RECORD
  5
1
330
0
100
AcDbSymbolTable
 70
     7
  0
BLOCK_RECORD
  5
1F
330
1
100
AcDbSymbolTableRecord
100
AcDbBlockTableRecord
  2
*Model_Space
340
22
  0
BLOCK_RECORD
  5
1B
330
1
100
AcDbSymbolTableRecord
100
AcDbBlockTableRecord
  2
*Paper_Space
340
1E
  0
BLOCK_RECORD
  5
23
330
1
100
AcDbSymbolTableRecord
100
AcDbBlockTableRecord
  2
*Paper_Space0
340
26
  0
BLOCK_RECORD
  5
7F
330
1
100
AcDbSymbolTableRecord
100
AcDbBlockTableRecord
  2
블럭10
340
0
102
{BLKREFS
331
BD
102
}
  0
BLOCK_RECORD
  5
C6
330
1
100
AcDbSymbolTableRecord
100
AcDbBlockTableRecord
  2
_D
340
0
  0
BLOCK_RECORD
  5
D1
330
1
100
AcDbSymbolTableRecord
100
AcDbBlockTableRecord
  2
_D_1
340
0
  0
BLOCK_RECORD
  5
DC
330
1
100
AcDbSymbolTableRecord
100
AcDbBlockTableRecord
  2
_D_2
340
0
  0
BLOCK_RECORD
  5
E9
330
1
100
AcDbSymbolTableRecord
100
AcDbBlockTableRecord
  2
_D_3
340
0
  0
BLOCK_RECORD
  5
FB
330
1
100
AcDbSymbolTableRecord
100
AcDbBlockTableRecord
  2
SW_DOWELSYMBOL_0
340
0
102
{BLKREFS
331
101
102
}
  0
ENDTAB
  0
ENDSEC
  0
SECTION
  2
BLOCKS
  0
BLOCK
  5
20
330
1F
100
AcDbEntity
  8
0
100
AcDbBlockBegin
  2
*Model_Space
 70
     0
 10
0.0
 20
0.0
 30
0.0
  3
*Model_Space
  1
*Model_Space
  0
ENDBLK
  5
21
330
1F
100
AcDbEntity
  8
0
100
AcDbBlockEnd
  0
BLOCK
  5
1C
330
1B
100
AcDbEntity
 67
     1
  8
0
100
AcDbBlockBegin
  2
*Paper_Space
 70
     0
 10
0.0
 20
0.0
 30
0.0
  3
*Paper_Space
  1
*Paper_Space
  0
ENDBLK
  5
1D
330
1B
100
AcDbEntity
 67
     1
  8
0
100
AcDbBlockEnd
  0
BLOCK
  5
24
330
23
100
AcDbEntity
  8
0
100
AcDbBlockBegin
  2
*Paper_Space0
 70
     0
 10
0.0
 20
0.0
 30
0.0
  3
*Paper_Space0
  1
*Paper_Space0
  0
ENDBLK
  5
25
330
23
100
AcDbEntity
  8
0
100
AcDbBlockEnd
  0
BLOCK
  5
80
330
7F
100
AcDbEntity
  8
0
100
AcDbBlockBegin
  2
블럭10
 70
     2
 10
0.0
 20
0.0
 30
0.0
  3
블럭10
  1
블럭10
  0
ELLIPSE
  5
82
330
7F
100
AcDbEntity
  8
중심선
100
AcDbEllipse
 10
20.54032771741204
 20
12.0471743016438
 30
0.0
 11
6.600054785286829
 21
-1.261213355974178E-13
 31
0.0
210
0.0
220
0.0
230
1.0
 40
0.636358354079598
 41
0.9219305317359503
 42
6.513795318482858
  0
ELLIPSE
  5
83
330
7F
100
AcDbEntity
  8
중심선
100
AcDbEllipse
 10
20.54032771746488
 20
12.04717430159265
 30
0.0
 11
3.960054785062283
 21
1.540847449632565E-10
 31
0.0
210
0.0
220
0.0
230
1.0
 40
0.3939339440162632
 41
1.131841032648279
 42
5.62031148352944
  0
LINE
  5
84
330
7F
100
AcDbEntity
  8
중심선
100
AcDbLine
 10
2.268634060543552
 20
16.24717430164393
 30
0.0
 11
5.714909304380834
 21
16.24717430164393
 31
0.0
  0
LINE
  5
85
330
7F
100
AcDbEntity
  8
중심선
100
AcDbLine
 10
5.245725140726316
 20
7.84717430164391
 30
0.0
 11
8.692000384563599
 21
7.84717430164391
 31
0.0
  0
LINE
  5
86
330
7F
100
AcDbEntity
  8
중심선
100
AcDbLine
 10
15.74043728645272
 20
16.24717430164393
 30
0.0
 11
8.692000384563599
 21
7.84717430164391
 31
0.0
  0
LINE
  5
87
330
7F
100
AcDbEntity
  8
중심선
100
AcDbLine
 10
0.1404042013395286
 20
13.71084872107135
 30
0.0
 11
3.58671253028996
 21
13.71088815037384
 31
0.0
  0
LINE
  5
88
330
7F
100
AcDbEntity
  8
중심선
100
AcDbLine
 10
2.750260043222114
 20
10.84717430164391
 30
0.0
 11
6.196535287059397
 21
10.84717430164391
 31
0.0
  0
LINE
  5
89
330
7F
100
AcDbEntity
  8
중심선
100
AcDbLine
 10
12.29416204261559
 20
16.24717430164393
 30
0.0
 11
5.245725140726316
 21
7.84717430164391
 31
0.0
  0
LINE
  5
8A
330
7F
100
AcDbEntity
  8
중심선
100
AcDbLine
 10
10.72767329541681
 20
16.24717430164393
 30
0.0
 11
6.196535287059397
 21
10.84717430164391
 31
0.0
  0
LINE
  5
8B
330
7F
100
AcDbEntity
  8
중심선
100
AcDbLine
 10
7.28139805157953
 20
16.24717430164393
 30
0.0
 11
2.750260043222114
 21
10.84717430164391
 31
0.0
  0
LINE
  5
8C
330
7F
100
AcDbEntity
  8
중심선
100
AcDbLine
 10
5.714909304380834
 20
16.24717430164393
 30
0.0
 11
3.58671253028996
 21
13.71088815037384
 31
0.0
  0
LINE
  5
8D
330
7F
100
AcDbEntity
  8
중심선
100
AcDbLine
 10
2.268634060543552
 20
16.24717430164393
 30
0.0
 11
0.1404042013395286
 21
13.71084872107135
 31
0.0
  0
LINE
  5
8E
330
7F
100
AcDbEntity
  8
중심선
100
AcDbLine
 10
7.28139805157953
 20
16.24717430164393
 30
0.0
 11
10.72767329541681
 21
16.24717430164393
 31
0.0
  0
LINE
  5
8F
330
7F
100
AcDbEntity
  8
중심선
100
AcDbLine
 10
12.29416204261559
 20
16.24717430164393
 30
0.0
 11
15.74043728645272
 21
16.24717430164393
 31
0.0
  0
LINE
  5
90
330
7F
100
AcDbEntity
  8
중심선
100
AcDbLine
 10
19.22036997980202
 20
11.08717430171403
 30
0.0
 11
23.66174974927406
 21
11.08717430171406
 31
0.0
  0
LINE
  5
91
330
7F
100
AcDbEntity
  8
중심선
100
AcDbLine
 10
19.22039502424796
 20
13.00717430171391
 30
0.0
 11
19.22036997980202
 21
11.08717430171403
 31
0.0
  0
LINE
  5
92
330
7F
100
AcDbEntity
  8
중심선
100
AcDbLine
 10
19.22039502424796
 20
13.00717430171391
 30
0.0
 11
26.96566020931264
 21
13.00717430171391
 31
0.0
  0
LINE
  5
93
330
7F
100
AcDbEntity
  8
중심선
100
AcDbLine
 10
22.22332737316547
 20
13.45928029700563
 30
0.0
 11
24.52862924686651
 21
15.39360700705356
 31
0.0
  0
ATTDEF
  5
95
330
7F
100
AcDbEntity
  8
FORMAT
 62
     2
100
AcDbText
 10
3.448148490846466
 20
2.075366912832191
 30
0.0
 40
4.233333333333333
  1
EM813180
 41
0.75
  7
SLDTEXTSTYLE0
 11
3.448148490846466
 21
-0.0412997538344756
 31
0.0
100
AcDbAttributeDefinition
  3

  2
AUTOATTR0
 70
     0
 74
     1
  0
ENDBLK
  5
81
330
7F
100
AcDbEntity
  8
0
100
AcDbBlockEnd
  0
BLOCK
  5
C7
330
C6
100
AcDbEntity
  8
0
100
AcDbBlockBegin
  2
_D
 70
     0
 10
0.0
 20
0.0
 30
0.0
  3
_D
  1
_D
  0
LINE
  5
C9
330
C6
100
AcDbEntity
  8
치수문자_일반주서
 62
     0
370
    -2
100
AcDbLine
 10
49.05031238069045
 20
0.7507394440492139
 30
0.0
 11
49.05031238069045
 21
18.22545405461414
 31
0.0
  0
LINE
  5
CA
330
C6
100
AcDbEntity
  8
치수문자_일반주서
 62
     0
370
    -2
100
AcDbLine
 10
15.05031238069044
 20
8.357512273282186
 30
0.0
 11
15.05031238069044
 21
18.22545405461414
 31
0.0
  0
LINE
  5
CB
330
C6
100
AcDbEntity
  8
치수문자_일반주서
 62
     0
370
    -2
100
AcDbLine
 10
45.74831238069045
 20
18.22545405461414
 30
0.0
 11
18.35231238069044
 21
18.22545405461414
 31
0.0
  0
SOLID
  5
CC
330
C6
100
AcDbEntity
  8
치수문자_일반주서
 62
     0
100
AcDbTrace
 10
45.74831238069045
 20
17.67512072128081
 30
0.0
 11
45.74831238069045
 21
18.77578738794747
 31
0.0
 12
49.05031238069045
 22
18.22545405461414
 32
0.0
 13
49.05031238069045
 23
18.22545405461414
 33
0.0
  0
SOLID
  5
CD
330
C6
100
AcDbEntity
  8
치수문자_일반주서
 62
     0
100
AcDbTrace
 10
18.35231238069044
 20
18.77578738794747
 30
0.0
 11
18.35231238069044
 21
17.67512072128081
 31
0.0
 12
15.05031238069044
 22
18.22545405461414
 32
0.0
 13
15.05031238069044
 23
18.22545405461414
 33
0.0
  0
MTEXT
  5
CE
330
C6
100
AcDbEntity
  8
치수문자_일반주서
 62
     0
100
AcDbMText
 10
32.05031238069045
 20
22.60045405461414
 30
0.0
 40
3.5
 41
0.0
 71
     2
 72
     1
  1
\A1;34
  7
SLDTEXTSTYLE0
 73
     1
 44
1.0
  0
POINT
  5
CF
330
C6
100
AcDbEntity
  8
Defpoints
 62
     0
100
AcDbPoint
 10
49.05031238069045
 20
0.6882394440492139
 30
0.0
  0
POINT
  5
128
330
C6
100
AcDbEntity
  8
Defpoints
 62
     0
100
AcDbPoint
 10
15.05031238069044
 20
8.295012273282186
 30
0.0
  0
POINT
  5
129
330
C6
100
AcDbEntity
  8
Defpoints
 62
     0
100
AcDbPoint
 10
15.05031238069044
 20
18.22545405461414
 30
0.0
  0
ENDBLK
  5
C8
330
C6
100
AcDbEntity
  8
0
100
AcDbBlockEnd
  0
BLOCK
  5
D2
330
D1
100
AcDbEntity
  8
0
100
AcDbBlockBegin
  2
_D_1
 70
     0
 10
0.0
 20
0.0
 30
0.0
  3
_D_1
  1
_D_1
  0
LINE
  5
D4
330
D1
100
AcDbEntity
  8
치수문자_일반주서
 62
     0
370
    -2
100
AcDbLine
 10
49.05031238069045
 20
0.7507394440492139
 30
0.0
 11
49.05031238069044
 21
28.73893843103311
 31
0.0
  0
LINE
  5
D5
330
D1
100
AcDbEntity
  8
치수문자_일반주서
 62
     0
370
    -2
100
AcDbLine
 10
-90.94968761930956
 20
8.062499999999972
 30
0.0
 11
-90.94968761930956
 21
28.73893843103311
 31
0.0
  0
LINE
  5
D6
330
D1
100
AcDbEntity
  8
치수문자_일반주서
 62
     0
370
    -2
100
AcDbLine
 10
45.74831238069044
 20
28.73893843103311
 30
0.0
 11
-87.64768761930955
 21
28.73893843103311
 31
0.0
  0
SOLID
  5
D7
330
D1
100
AcDbEntity
  8
치수문자_일반주서
 62
     0
100
AcDbTrace
 10
45.74831238069044
 20
28.18860509769977
 30
0.0
 11
45.74831238069044
 21
29.28927176436644
 31
0.0
 12
49.05031238069044
 22
28.73893843103311
 32
0.0
 13
49.05031238069044
 23
28.73893843103311
 33
0.0
  0
SOLID
  5
D8
330
D1
100
AcDbEntity
  8
치수문자_일반주서
 62
     0
100
AcDbTrace
 10
-87.64768761930955
 20
29.28927176436644
 30
0.0
 11
-87.64768761930955
 21
28.18860509769977
 31
0.0
 12
-90.94968761930956
 22
28.73893843103311
 32
0.0
 13
-90.94968761930956
 23
28.73893843103311
 33
0.0
  0
MTEXT
  5
D9
330
D1
100
AcDbEntity
  8
치수문자_일반주서
 62
     0
100
AcDbMText
 10
-20.94968761930956
 20
33.11393843103311
 30
0.0
 40
3.5
 41
0.0
 71
     2
 72
     1
  1
\A1;140
  7
SLDTEXTSTYLE0
 73
     1
 44
1.0
  0
POINT
  5
12A
330
D1
100
AcDbEntity
  8
Defpoints
 62
     0
100
AcDbPoint
 10
49.05031238069045
 20
0.6882394440492139
 30
0.0
  0
POINT
  5
12B
330
D1
100
AcDbEntity
  8
Defpoints
 62
     0
100
AcDbPoint
 10
-90.94968761930956
 20
7.999999999999972
 30
0.0
  0
POINT
  5
12C
330
D1
100
AcDbEntity
  8
Defpoints
 62
     0
100
AcDbPoint
 10
-90.94968761930956
 20
28.73893843103311
 30
0.0
  0
ENDBLK
  5
D3
330
D1
100
AcDbEntity
  8
0
100
AcDbBlockEnd
  0
BLOCK
  5
DD
330
DC
100
AcDbEntity
  8
0
100
AcDbBlockBegin
  2
_D_2
 70
     0
 10
0.0
 20
0.0
 30
0.0
  3
_D_2
  1
_D_2
  0
LINE
  5
DF
330
DC
100
AcDbEntity
  8
치수문자_일반주서
 62
     0
370
    -2
100
AcDbLine
 10
-90.01218761930956
 20
8.999999999999972
 30
0.0
 11
-103.4496876193096
 21
8.999999999999922
 31
0.0
  0
LINE
  5
E0
330
DC
100
AcDbEntity
  8
치수문자_일반주서
 62
     0
370
    -2
100
AcDbLine
 10
-90.01218761930956
 20
-9.000000000000018
 30
0.0
 11
-103.4496876193095
 21
-9.000000000000068
 31
0.0
  0
LINE
  5
E1
330
DC
100
AcDbEntity
  8
치수문자_일반주서
 62
     0
370
    -2
100
AcDbLine
 10
-103.4496876193096
 20
5.697999999999922
 30
0.0
 11
-103.4496876193095
 21
-5.698000000000068
 31
0.0
  0
SOLID
  5
E2
330
DC
100
AcDbEntity
  8
치수문자_일반주서
 62
     0
100
AcDbTrace
 10
-102.8993542859762
 20
5.697999999999924
 30
0.0
 11
-104.0000209526429
 21
5.69799999999992
 31
0.0
 12
-103.4496876193096
 22
8.999999999999922
 32
0.0
 13
-103.4496876193096
 23
8.999999999999922
 33
0.0
  0
SOLID
  5
E3
330
DC
100
AcDbEntity
  8
치수문자_일반주서
 62
     0
100
AcDbTrace
 10
-104.0000209526429
 20
-5.69800000000007
 30
0.0
 11
-102.8993542859762
 21
-5.698000000000066
 31
0.0
 12
-103.4496876193095
 22
-9.000000000000068
 32
0.0
 13
-103.4496876193095
 23
-9.000000000000068
 33
0.0
  0
MTEXT
  5
E4
330
DC
100
AcDbEntity
  8
치수문자_일반주서
 62
     0
100
AcDbMText
 10
-107.8246876193095
 20
0.0000000000000041
 30
0.0
 40
3.5
 41
0.0
 71
     2
 72
     1
  1
\A1;%%c18
  7
SLDTEXTSTYLE0
 11
-3.157967714489336E-15
 21
1.0
 31
0.0
 73
     1
 44
1.0
  0
POINT
  5
E5
330
DC
100
AcDbEntity
  8
Defpoints
 62
     0
100
AcDbPoint
 10
-89.94968761930956
 20
8.999999999999972
 30
0.0
  0
POINT
  5
E6
330
DC
100
AcDbEntity
  8
Defpoints
 62
     0
100
AcDbPoint
 10
-89.94968761930956
 20
-9.000000000000018
 30
0.0
  0
POINT
  5
E7
330
DC
100
AcDbEntity
  8
Defpoints
 62
     0
100
AcDbPoint
 10
-103.4496876193095
 20
-9.000000000000068
 30
0.0
  0
ENDBLK
  5
DE
330
DC
100
AcDbEntity
  8
0
100
AcDbBlockEnd
  0
BLOCK
  5
EA
330
E9
100
AcDbEntity
  8
0
100
AcDbBlockBegin
  2
_D_3
 70
     0
 10
0.0
 20
0.0
 30
0.0
  3
_D_3
  1
_D_3
  0
LINE
  5
EC
330
E9
100
AcDbEntity
  8
치수문자_일반주서
 62
     0
370
    -2
100
AcDbLine
 10
40.11281238069046
 20
8.999999999999991
 30
0.0
 11
63.94860013158565
 21
9.000000000000082
 31
0.0
  0
LINE
  5
ED
330
E9
100
AcDbEntity
  8
치수문자_일반주서
 62
     0
370
    -2
100
AcDbLine
 10
40.11281238069046
 20
-9.00000000000001
 30
0.0
 11
63.94860013158571
 21
-8.99999999999992
 31
0.0
  0
LINE
  5
EE
330
E9
100
AcDbEntity
  8
치수문자_일반주서
 62
     0
370
    -2
100
AcDbLine
 10
63.94860013158566
 20
5.698000000000082
 30
0.0
 11
63.9486001315857
 21
-5.69799999999992
 31
0.0
  0
SOLID
  5
EF
330
E9
100
AcDbEntity
  8
치수문자_일반주서
 62
     0
100
AcDbTrace
 10
64.49893346491899
 20
5.698000000000084
 30
0.0
 11
63.39826679825233
 21
5.69800000000008
 31
0.0
 12
63.94860013158565
 22
9.000000000000082
 32
0.0
 13
63.94860013158565
 23
9.000000000000082
 33
0.0
  0
SOLID
  5
F0
330
E9
100
AcDbEntity
  8
치수문자_일반주서
 62
     0
100
AcDbTrace
 10
63.39826679825237
 20
-5.697999999999922
 30
0.0
 11
64.49893346491903
 21
-5.697999999999919
 31
0.0
 12
63.94860013158571
 22
-8.99999999999992
 32
0.0
 13
63.94860013158571
 23
-8.99999999999992
 33
0.0
  0
MTEXT
  5
F1
330
E9
100
AcDbEntity
  8
치수문자_일반주서
 62
     0
100
AcDbMText
 10
59.57360013158569
 20
0.0000000000000592
 30
0.0
 40
3.5
 41
0.0
 71
     2
 72
     1
  1
\A1;%%c18
  7
SLDTEXTSTYLE0
 11
-3.552713678800500E-15
 21
1.0
 31
0.0
 73
     1
 44
1.0
  0
POINT
  5
F2
330
E9
100
AcDbEntity
  8
Defpoints
 62
     0
100
AcDbPoint
 10
40.05031238069046
 20
8.999999999999991
 30
0.0
  0
POINT
  5
F3
330
E9
100
AcDbEntity
  8
Defpoints
 62
     0
100
AcDbPoint
 10
40.05031238069046
 20
-9.00000000000001
 30
0.0
  0
POINT
  5
127
330
E9
100
AcDbEntity
  8
Defpoints
 62
     0
100
AcDbPoint
 10
63.94860013158572
 20
-8.999999999999922
 30
0.0
  0
ENDBLK
  5
EB
330
E9
100
AcDbEntity
  8
0
100
AcDbBlockEnd
  0
BLOCK
  5
FC
330
FB
100
AcDbEntity
  8
0
100
AcDbBlockBegin
  2
SW_DOWELSYMBOL_0
 70
     0
 10
0.0
 20
0.0
 30
0.0
  3
SW_DOWELSYMBOL_0
  1
SW_DOWELSYMBOL_0
  0
CIRCLE
  5
FE
330
FB
100
AcDbEntity
  8
해칭선
 62
     0
100
AcDbCircle
 10
0.0
 20
0.0
 30
0.0
 40
3.000000000000001
  0
HATCH
  5
FF
330
FB
100
AcDbEntity
  8
0
  6
Continuous
 62
     0
370
     0
100
AcDbHatch
 10
0.0
 20
0.0
 30
0.0
210
0.0
220
0.0
230
1.0
  2
SOLID
 70
     1
 71
     0
 91
        1
 92
        0
 93
        3
 72
     2
 10
0.0
 20
0.0
 40
3.000000000000001
 50
0.0
 51
90.0
 73
     1
 72
     1
 10
0.0
 20
3.000000000000001
 11
0.0
 21
0.0
 72
     1
 10
0.0
 20
0.0
 11
3.000000000000001
 21
0.0
 97
        0
 75
     0
 76
     1
 98
        1
 10
0.0
 20
0.0
  0
HATCH
  5
100
330
FB
100
AcDbEntity
  8
0
  6
Continuous
 62
     0
370
     0
100
AcDbHatch
 10
0.0
 20
0.0
 30
0.0
210
0.0
220
0.0
230
1.0
  2
SOLID
 70
     1
 71
     0
 91
        1
 92
        0
 93
        3
 72
     2
 10
0.0
 20
0.0
 40
3.000000000000001
 50
180.0
 51
270.0000000000008
 73
     1
 72
     1
 10
0.0
 20
-3.000000000000001
 11
0.0
 21
0.0
 72
     1
 10
0.0
 20
0.0
 11
-3.000000000000001
 21
0.0
 97
        0
 75
     0
 76
     1
 98
        1
 10
0.0
 20
0.0
  0
ENDBLK
  5
FD
330
FB
100
AcDbEntity
  8
0
100
AcDbBlockEnd
  0
ENDSEC
  0
SECTION
  2
ENTITIES
  0
LINE
  5
96
330
1F
100
AcDbEntity
  8
외형선
  6
Continuous
370
    15
100
AcDbLine
 10
12.0
 20
8.99999999999999
 30
0.0
 11
-89.94968761930956
 21
8.999999999999977
 31
0.0
  0
LINE
  5
97
330
1F
100
AcDbEntity
  8
외형선
  6
Continuous
370
    15
100
AcDbLine
 10
-89.94968761930956
 20
-9.00000000000002
 30
0.0
 11
12.0
 21
-9.000000000000007
 31
0.0
  0
LINE
  5
98
330
1F
100
AcDbEntity
  8
외형선
  6
Continuous
370
    15
100
AcDbLine
 10
-89.94968761930956
 20
8.999999999999973
 30
0.0
 11
-90.94968761930956
 21
7.999999999999975
 31
0.0
  0
LINE
  5
99
330
1F
100
AcDbEntity
  8
외형선
  6
Continuous
370
    15
100
AcDbLine
 10
-90.94968761930956
 20
-8.000000000000021
 30
0.0
 11
-89.94968761930956
 21
-9.00000000000002
 31
0.0
  0
LINE
  5
9A
330
1F
100
AcDbEntity
  8
외형선
  6
Continuous
 62
     1
370
    15
100
AcDbLine
 10
38.25009604312973
 20
-9.00000000000001
 30
0.0
 11
40.05031238069046
 21
-9.00000000000001
 31
0.0
  0
ARC
  5
9B
330
1F
100
AcDbEntity
  8
외형선
  6
Continuous
 62
     1
370
    15
100
AcDbCircle
 10
40.05031238069046
 20
-0.0000000000000091
 30
0.0
 40
9.0
100
AcDbArc
 50
270.0000000000008
 51
0.0
  0
ARC
  5
9C
330
1F
100
AcDbEntity
  8
외형선
  6
Continuous
 62
     1
370
    15
100
AcDbCircle
 10
40.05031238069046
 20
-0.0000000000000091
 30
0.0
 40
9.0
100
AcDbArc
 50
0.0
 51
90.0
  0
LINE
  5
9D
330
1F
100
AcDbEntity
  8
외형선
  6
Continuous
 62
     1
370
    15
100
AcDbLine
 10
40.05031238069046
 20
8.999999999999991
 30
0.0
 11
38.25017557010484
 21
8.999999999999991
 31
0.0
  0
SPLINE
  5
9E
330
1F
100
AcDbEntity
  8
외형선
  6
Continuous
370
    15
100
AcDbSpline
210
0.0
220
0.0
230
1.0
 70
     8
 71
     3
 72
    10
 73
     6
 74
     0
 42
0.000000001
 43
0.00000001
 40
0.0
 40
0.0
 40
0.0
 40
0.0
 40
0.5
 40
0.5
 40
1.0
 40
1.0
 40
1.0
 40
1.0
 10
15.05031238069632
 20
-5.022653358366219
 30
0.0
 10
14.54201195101306
 20
-4.908109430954148
 30
0.0
 10
14.03631798199846
 20
-4.78576296350525
 30
0.0
 10
13.01807588833598
 20
-4.525642786496607
 30
0.0
 10
12.50779157085018
 20
-4.388031274881501
 30
0.0
 10
12.0
 20
-4.243873127190253
 30
0.0
  0
SPLINE
  5
9F
330
1F
100
AcDbEntity
  8
외형선
  6
Continuous
370
    15
100
AcDbSpline
210
0.0
220
0.0
230
1.0
 70
     8
 71
     3
 72
    10
 73
     6
 74
     0
 42
0.000000001
 43
0.00000001
 40
0.0
 40
0.0
 40
0.0
 40
0.0
 40
0.4999999999999999
 40
0.4999999999999999
 40
1.0
 40
1.0
 40
1.0
 40
1.0
 10
12.00021741617692
 20
1.015715146864604
 30
0.0
 10
12.5079734612535
 20
0.7242005547831706
 30
0.0
 10
13.01822137801765
 20
0.4305871948801478
 30
0.0
 10
14.03639047752858
 20
-0.156633841722874
 30
0.0
 10
14.54204822332449
 20
-0.4498034826515011
 30
0.0
 10
15.05031238069044
 20
-0.7422903333565323
 30
0.0
  0
SPLINE
  5
A0
330
1F
100
AcDbEntity
  8
외형선
  6
Continuous
 62
     1
370
    15
100
AcDbSpline
210
0.0
220
0.0
230
1.0
 70
    24
 71
     3
 72
    15
 73
    11
 74
     0
 42
0.000000001
 43
0.00000001
 40
0.0
 40
0.0
 40
0.0
 40
0.0
 40
0.0384240055543832
 40
0.1914713896298972
 40
0.3445187737054111
 40
0.4975661577809249
 40
0.6506135418564387
 40
0.8036609259319506
 40
0.9567083100074625
 40
1.0
 40
1.0
 40
1.0
 40
1.0
 10
15.05031238069044
 20
-0.9254912918759971
 30
0.0
 10
15.05031238069044
 20
-0.9407520720040958
 30
0.0
 10
15.05031238069044
 20
-1.016798354420638
 30
0.0
 10
15.05031238069044
 20
-1.298738871428607
 30
0.0
 10
15.05031238069044
 20
-1.768866028974048
 30
0.0
 10
15.05031238069044
 20
-2.378600089947424
 30
0.0
 10
15.05031238069044
 20
-3.091538770652267
 30
0.0
 10
15.05031238069044
 20
-3.895463847457442
 30
0.0
 10
15.05031238069044
 20
-4.555457928788725
 30
0.0
 10
15.05031238069044
 20
-4.938249839549477
 30
0.0
 10
15.05031238069044
 20
-5.022653358364901
 30
0.0
  0
LINE
  5
A1
330
1F
100
AcDbEntity
  8
외형선
  6
Continuous
370
    15
100
AcDbLine
 10
12.0
 20
8.815538277121206
 30
0.0
 11
12.0
 21
8.99999999999999
 31
0.0
  0
SPLINE
  5
A2
330
1F
100
AcDbEntity
  8
외형선
  6
Continuous
370
    15
100
AcDbSpline
210
0.0
220
0.0
230
1.0
 70
     8
 71
     3
 72
    10
 73
     6
 74
     0
 42
0.000000001
 43
0.00000001
 40
0.0
 40
0.0
 40
0.0
 40
0.0
 40
0.5
 40
0.5
 40
1.0
 40
1.0
 40
1.0
 40
1.0
 10
15.05031238069482
 20
8.295012273281193
 30
0.0
 10
14.54201195101182
 20
8.408887227512047
 30
0.0
 10
14.03631798199747
 20
8.50935909289094
 30
0.0
 10
13.01807588833548
 20
8.683286677768844
 30
0.0
 10
12.50779157084993
 20
8.756554855799662
 30
0.0
 10
12.0
 20
8.815638574369776
 30
0.0
  0
LINE
  5
A3
330
1F
100
AcDbEntity
  8
외형선
  6
Continuous
370
    15
100
AcDbLine
 10
12.0
 20
-9.000000000000007
 30
0.0
 11
12.0
 21
1.016184763582248
 31
0.0
  0
SPLINE
  5
A4
330
1F
100
AcDbEntity
  8
외형선
  6
Continuous
370
    15
100
AcDbSpline
210
0.0
220
0.0
230
1.0
 70
     8
 71
     3
 72
    10
 73
     6
 74
     0
 42
0.000000001
 43
0.00000001
 40
0.0
 40
0.0
 40
0.0
 40
0.0
 40
0.5
 40
0.5
 40
1.0
 40
1.0
 40
1.0
 40
1.0
 10
15.05031238069482
 20
-8.29501227328121
 30
0.0
 10
14.54201195101182
 20
-8.408887227512066
 30
0.0
 10
14.03631798199747
 20
-8.509359092890957
 30
0.0
 10
13.01807588833548
 20
-8.683286677768862
 30
0.0
 10
12.50779157084994
 20
-8.75655485579968
 30
0.0
 10
12.0
 20
-8.815638574369794
 30
0.0
  0
LINE
  5
A5
330
1F
100
AcDbEntity
  8
외형선
  6
Continuous
370
    15
100
AcDbLine
 10
-89.94968761930956
 20
8.999999999999975
 30
0.0
 11
-89.94968761930956
 21
-9.00000000000002
 31
0.0
  0
LINE
  5
A6
330
1F
100
AcDbEntity
  8
외형선
  6
Continuous
 62
     1
370
    15
100
AcDbLine
 10
15.05031238069044
 20
8.295012273282172
 30
0.0
 11
15.05031238069044
 21
-0.7422903333565326
 31
0.0
  0
LINE
  5
A7
330
1F
100
AcDbEntity
  8
외형선
  6
Continuous
370
    15
100
AcDbLine
 10
-90.94968761930956
 20
7.999999999999979
 30
0.0
 11
-90.94968761930956
 21
-8.000000000000034
 31
0.0
  0
SPLINE
  5
A8
330
1F
100
AcDbEntity
  8
외형선
  6
Continuous
 62
     1
370
    15
100
AcDbSpline
210
0.0
220
0.0
230
1.0
 70
    24
 71
     3
 72
    13
 73
     9
 74
     0
 42
0.000000001
 43
0.00000001
 40
0.0
 40
0.0
 40
0.0
 40
0.0
 40
0.1324296491444303
 40
0.3230501798734178
 40
0.5136707106024053
 40
0.7042912413313932
 40
0.8949117720603811
 40
1.0
 40
1.0
 40
1.0
 40
1.0
 10
15.05031238069044
 20
-5.022653358364896
 30
0.0
 10
15.05031238069044
 20
-5.085058392928693
 30
0.0
 10
15.05031238069044
 20
-5.237289843899728
 30
0.0
 10
15.05031238069044
 20
-5.661522270627219
 30
0.0
 10
15.05031238069044
 20
-6.250103357603515
 30
0.0
 10
15.05031238069044
 20
-6.97242016966844
 30
0.0
 10
15.05031238069044
 20
-7.669507884530451
 30
0.0
 10
15.05031238069044
 20
-8.131006180475339
 30
0.0
 10
15.05031238069044
 20
-8.29501227328219
 30
0.0
  0
SPLINE
  5
A9
330
1F
100
AcDbEntity
  8
외형선
  6
Continuous
 62
     1
370
    15
100
AcDbSpline
210
0.0
220
0.0
230
1.0
 70
     8
 71
     3
 72
    36
 73
    32
 74
     0
 42
0.000000001
 43
0.00000001
 40
0.0
 40
0.0
 40
0.0
 40
0.0
 40
0.0625000000000001
 40
0.0625000000000001
 40
0.1250000000000001
 40
0.1250000000000001
 40
0.1875000000000002
 40
0.1875000000000002
 40
0.2500000000000002
 40
0.2500000000000002
 40
0.3125000000000003
 40
0.3125000000000003
 40
0.3750000000000003
 40
0.3750000000000003
 40
0.4375000000000004
 40
0.4375000000000004
 40
0.5000000000000004
 40
0.5000000000000004
 40
0.6250000000000003
 40
0.6250000000000003
 40
0.6875000000000002
 40
0.6875000000000002
 40
0.7500000000000002
 40
0.7500000000000002
 40
0.8125000000000001
 40
0.8125000000000001
 40
0.8750000000000001
 40
0.8750000000000001
 40
0.9375
 40
0.9375
 40
1.0
 40
1.0
 40
1.0
 40
1.0
 10
40.05031238069045
 20
-3.762462060470238
 30
0.0
 10
39.5302947038747
 20
-3.489454614897333
 30
0.0
 10
39.00755728414028
 20
-3.209663578521619
 30
0.0
 10
37.96450085349733
 20
-2.640689339586673
 30
0.0
 10
37.44653336933558
 20
-2.351957249381853
 30
0.0
 10
36.40499217880727
 20
-1.766562391927502
 30
0.0
 10
35.88211346746532
 20
-1.470015144934479
 30
0.0
 10
34.84000474978327
 20
-0.8736786781226071
 30
0.0
 10
34.32223792079365
 20
-0.5741784827843722
 30
0.0
 10
33.27957219276045
 20
0.0271073493156379
 30
0.0
 10
32.75674542100862
 20
0.3284952188011835
 30
0.0
 10
31.71596641006477
 20
0.928228967672496
 30
0.0
 10
31.19753251241623
 20
1.226671339467359
 30
0.0
 10
30.15412492262287
 20
1.81969771566701
 30
0.0
 10
29.63154325753206
 20
2.113815770814865
 30
0.0
 10
28.59247432089782
 20
2.692867377671057
 30
0.0
 10
28.07250644614994
 20
2.978456352008476
 30
0.0
 10
26.50685764590544
 20
3.819862813965589
 30
0.0
 10
25.46911947667954
 20
4.357839925795282
 30
0.0
 10
23.9035092968686
 20
5.11730613934305
 30
0.0
 10
23.38379734423543
 20
5.361956917769863
 30
0.0
 10
22.34447713250132
 20
5.832527845473045
 30
0.0
 10
21.82185140212356
 20
6.058879063043348
 30
0.0
 10
20.77852102162393
 20
6.490233514639612
 30
0.0
 10
20.26022690681793
 20
6.694945146895803
 30
0.0
 10
19.21924750486634
 20
7.081890157841245
 30
0.0
 10
18.69640255305599
 20
7.264096492232346
 30
0.0
 10
17.65386540201567
 20
7.603200483928027
 30
0.0
 10
17.13612204575624
 20
7.759943600894603
 30
0.0
 10
16.09386406607049
 20
8.04763169623765
 30
0.0
 10
15.57099308234342
 20
8.17836375676096
 30
0.0
 10
15.05031238069482
 20
8.295012273281198
 30
0.0
  0
SPLINE
  5
AA
330
1F
100
AcDbEntity
  8
외형선
  6
Continuous
 62
     1
370
    15
100
AcDbSpline
210
0.0
220
0.0
230
1.0
 70
     8
 71
     3
 72
    15
 73
    11
 74
     0
 42
0.000000001
 43
0.00000001
 40
0.0
 40
0.0
 40
0.0
 40
0.0
 40
0.1382017143176063
 40
0.2764229723641718
 40
0.4009870647457487
 40
0.5255571163409201
 40
0.6501311224832751
 40
0.7747070750838447
 40
0.8992829643682453
 40
1.0
 40
1.0
 40
1.0
 40
1.0
 10
46.64095006116001
 20
0.9432271263432822
 30
0.0
 10
45.49908410009011
 20
1.382551573603778
 30
0.0
 10
43.21519070152462
 20
2.261262594980176
 30
0.0
 10
39.90199771235235
 20
3.418767647260248
 30
0.0
 10
36.70159615479134
 20
4.392060941159669
 30
0.0
 10
33.61389222131984
 20
5.158146266006325
 30
0.0
 10
30.52609242635617
 20
5.72459560703285
 30
0.0
 10
27.43823676448872
 20
6.06016468084662
 30
0.0
 10
24.54749591683908
 20
6.176908459811396
 30
0.0
 10
22.68605034786804
 20
6.067173478156315
 30
0.0
 10
21.85389248154179
 20
6.018116535682344
 30
0.0
  0
SPLINE
  5
AB
330
1F
100
AcDbEntity
  8
외형선
  6
Continuous
 62
     1
370
    15
100
AcDbSpline
210
0.0
220
0.0
230
1.0
 70
     8
 71
     3
 72
    34
 73
    30
 74
     0
 42
0.000000001
 43
0.00000001
 40
0.0
 40
0.0
 40
0.0
 40
0.0
 40
0.1249999999999994
 40
0.1249999999999994
 40
0.1874999999999991
 40
0.1874999999999991
 40
0.2499999999999988
 40
0.2499999999999988
 40
0.3749999999999982
 40
0.3749999999999982
 40
0.4374999999999976
 40
0.4374999999999976
 40
0.4999999999999975
 40
0.4999999999999975
 40
0.5624999999999974
 40
0.5624999999999974
 40
0.6249999999999973
 40
0.6249999999999973
 40
0.6874999999999973
 40
0.6874999999999973
 40
0.7187499999999974
 40
0.7187499999999974
 40
0.7499999999999977
 40
0.7499999999999977
 40
0.8124999999999982
 40
0.8124999999999982
 40
0.8749999999999988
 40
0.8749999999999988
 40
1.0
 40
1.0
 40
1.0
 40
1.0
 10
40.05031238069045
 20
-3.762462060470233
 30
0.0
 10
40.54997991803678
 20
-4.024785754622188
 30
0.0
 10
41.04153942790648
 20
-4.260068548346276
 30
0.0
 10
41.77764737614289
 20
-4.556720695503262
 30
0.0
 10
42.02274393585071
 20
-4.646273272027662
 30
0.0
 10
42.51436546342354
 20
-4.802995476190802
 30
0.0
 10
42.76197868187395
 20
-4.87031069567705
 30
0.0
 10
43.49446774949649
 20
-5.027593001668799
 30
0.0
 10
43.97313791390003
 20
-5.075848982187511
 30
0.0
 10
44.69346801591144
 20
-5.022077538198016
 30
0.0
 10
44.9291554091585
 20
-4.983083222162512
 30
0.0
 10
45.39203321499822
 20
-4.855414694201642
 30
0.0
 10
45.62195527940406
 20
-4.765533861021691
 30
0.0
 10
46.06335306393709
 20
-4.527358756996945
 30
0.0
 10
46.27357985566626
 20
-4.380733912016924
 30
0.0
 10
46.67167303405953
 20
-4.016522819166707
 30
0.0
 10
46.85061741115649
 20
-3.807018658488456
 30
0.0
 10
47.16266858447889
 20
-3.326761022268869
 30
0.0
 10
47.28802062923627
 20
-3.067287113755566
 30
0.0
 10
47.4271220525041
 20
-2.655817127181828
 30
0.0
 10
47.46476404260812
 20
-2.516125485399724
 30
0.0
 10
47.52206125577469
 20
-2.238554711034896
 30
0.0
 10
47.54207069975992
 20
-2.099632285325221
 30
0.0
 10
47.57757645033298
 20
-1.682173425965631
 30
0.0
 10
47.567913952847
 20
-1.413277288657197
 30
0.0
 10
47.49610213114587
 20
-0.892727335572172
 30
0.0
 10
47.43301465104914
 20
-0.6392108654516704
 30
0.0
 10
47.18501747648727
 20
0.0813446709489958
 30
0.0
 10
46.94014666029382
 20
0.5225536234608443
 30
0.0
 10
46.64095006115821
 20
0.9432271263439863
 30
0.0
  0
SPLINE
  5
AC
330
1F
100
AcDbEntity
  8
외형선
  6
Continuous
 62
     1
370
    15
100
AcDbSpline
210
0.0
220
0.0
230
1.0
 70
     8
 71
     3
 72
    16
 73
    12
 74
     0
 42
0.000000001
 43
0.00000001
 40
0.0
 40
0.0
 40
0.0
 40
0.0
 40
0.1369933531412084
 40
0.275424097879426
 40
0.4124171763997985
 40
0.524212622959576
 40
0.6367859828919163
 40
0.7451752417887709
 40
0.8542731469380569
 40
0.9655514668705658
 40
0.9999999999999999
 40
0.9999999999999999
 40
0.9999999999999999
 40
0.9999999999999999
 10
15.05031238069044
 20
-0.7422903333565327
 30
0.0
 10
16.1098017246644
 20
-1.34890214916634
 30
0.0
 10
18.23989701823756
 20
-2.568490605842778
 30
0.0
 10
21.42954190527595
 20
-4.279263309461376
 30
0.0
 10
24.42458270033674
 20
-5.719286904152163
 30
0.0
 10
27.21857325738981
 20
-6.871021788622796
 30
0.0
 10
29.79171117447583
 20
-7.741488224467743
 30
0.0
 10
32.34383894161794
 20
-8.401318636784017
 30
0.0
 10
34.88612645578375
 20
-8.819758828135079
 30
0.0
 10
36.85679049389058
 20
-9.013042158664254
 30
0.0
 10
37.98370376065998
 20
-8.980970759064974
 30
0.0
 10
38.25009604312973
 20
-8.97338936518739
 30
0.0
  0
SPLINE
  5
AD
330
1F
100
AcDbEntity
  8
외형선
  6
Continuous
 62
     1
370
    15
100
AcDbSpline
210
0.0
220
0.0
230
1.0
 70
     8
 71
     3
 72
    11
 73
     7
 74
     0
 42
0.000000001
 43
0.00000001
 40
0.0
 40
0.0
 40
0.0
 40
0.0
 40
0.1014274589385406
 40
0.3997717457152996
 40
0.6998947775087916
 40
1.0
 40
1.0
 40
1.0
 40
1.0
 10
25.40012572303179
 20
-6.093210268950087
 30
0.0
 10
25.05020604747523
 20
-6.107979281671335
 30
0.0
 10
23.6710134597743
 20
-6.16619067787364
 30
0.0
 10
21.2564193149794
 20
-6.018295634294908
 30
0.0
 10
18.15638856696414
 20
-5.667336056148529
 30
0.0
 10
16.08565062924067
 20
-5.237543340182981
 30
0.0
 10
15.05031238069044
 20
-5.022653358364895
 30
0.0
  0
SPLINE
  5
AE
330
1F
100
AcDbEntity
  8
외형선
  6
Continuous
 62
     1
370
    15
100
AcDbSpline
210
0.0
220
0.0
230
1.0
 70
    24
 71
     3
 72
    14
 73
    10
 74
     0
 42
0.000000001
 43
0.00000001
 40
0.0
 40
0.0
 40
0.0
 40
0.0
 40
0.25
 40
0.25
 40
0.5
 40
0.5
 40
0.75
 40
0.75
 40
1.0
 40
1.0
 40
1.0
 40
1.0
 10
15.05031238069044
 20
-0.7422903333564612
 30
0.0
 10
15.05031238069044
 20
-0.7262861637822736
 30
0.0
 10
15.05031238069044
 20
-0.846289180282817
 30
0.0
 10
15.05031238069044
 20
-1.333863329301169
 30
0.0
 10
15.05031238069044
 20
-1.699170125404555
 30
0.0
 10
15.05031238069044
 20
-2.56057825024615
 30
0.0
 10
15.05031238069044
 20
-3.053920018732252
 30
0.0
 10
15.05031238069044
 20
-4.049573053729648
 30
0.0
 10
15.05031238069044
 20
-4.551218198772202
 30
0.0
 10
15.05031238069044
 20
-5.022653358364901
 30
0.0
  0
SPLINE
  5
AF
330
1F
100
AcDbEntity
  8
외형선
  6
Continuous
 62
     1
370
    15
100
AcDbSpline
210
0.0
220
0.0
230
1.0
 70
     8
 71
     3
 72
    14
 73
    10
 74
     0
 42
0.000000001
 43
0.00000001
 40
0.0
 40
0.0
 40
0.0
 40
0.0
 40
0.2500000000000001
 40
0.2500000000000001
 40
0.5000000000000001
 40
0.5000000000000001
 40
0.7500000000000002
 40
0.7500000000000002
 40
1.0
 40
1.0
 40
1.0
 40
1.0
 10
46.64095006115816
 20
0.9432271263439983
 30
0.0
 10
46.74447806349656
 20
1.005562606436839
 30
0.0
 10
46.836696476715
 20
1.082868413636407
 30
0.0
 10
46.99844405733501
 20
1.268279796986264
 30
0.0
 10
47.06850313942386
 20
1.378147097409798
 30
0.0
 10
47.17898540778
 20
1.61887019845358
 30
0.0
 10
47.22031837289575
 20
1.750037476783779
 30
0.0
 10
47.27686973844715
 20
2.031810912942403
 30
0.0
 10
47.2914215250921
 20
2.180098063438577
 30
0.0
 10
47.29393524012448
 20
2.330911876830238
 30
0.0
  0
ARC
  5
B0
330
1F
100
AcDbEntity
  8
외형선
  6
Continuous
 62
     1
370
    15
100
AcDbCircle
 10
44.74440553609468
 20
-1.564495995129655
 30
0.0
 40
4.655567011724568
100
AcDbArc
 50
23.84124899694273
 51
56.79540481974026
  0
ARC
  5
B1
330
1F
100
AcDbEntity
  8
외형선
  6
Continuous
 62
     1
370
    15
100
AcDbCircle
 10
40.93587390140758
 20
0.1522578583419169
 30
0.0
 40
8.06852221883645
100
AcDbArc
 50
1.172087258389441
 51
71.05911769814351
  0
SPLINE
  5
B2
330
1F
100
AcDbEntity
  8
외형선
  6
Continuous
 62
     1
370
    15
100
AcDbSpline
210
0.0
220
0.0
230
1.0
 70
     8
 71
     3
 72
    10
 73
     6
 74
     0
 42
0.000000001
 43
0.00000001
 40
0.0
 40
0.0
 40
0.0
 40
0.0
 40
0.5
 40
0.5
 40
1.0
 40
1.0
 40
1.0
 40
1.0
 10
43.5548548662553
 20
7.783901816338284
 30
0.0
 10
42.99813291914686
 20
8.1234127615204
 30
0.0
 10
42.42497218134557
 20
8.390245329393565
 30
0.0
 10
41.25531136874206
 20
8.778239212013656
 30
0.0
 10
40.65351153064518
 20
8.899956539833083
 30
0.0
 10
40.05031238069046
 20
8.94010674383734
 30
0.0
  0
SPLINE
  5
B3
330
1F
100
AcDbEntity
  8
외형선
  6
Continuous
 62
     1
370
    15
100
AcDbSpline
210
0.0
220
0.0
230
1.0
 70
     8
 71
     3
 72
     8
 73
     4
 74
     0
 42
0.000000001
 43
0.00000001
 40
0.0
 40
0.0
 40
0.0
 40
0.0
 40
1.0
 40
1.0
 40
1.0
 40
1.0
 10
41.72898918875399
 20
4.028844248707498
 30
0.0
 10
43.55858658677746
 20
3.52032365927906
 30
0.0
 10
45.42391275445386
 20
2.947449444259644
 30
0.0
 10
47.2939352401245
 20
2.330911876830313
 30
0.0
  0
SPLINE
  5
B4
330
1F
100
AcDbEntity
  8
외형선
  6
Continuous
 62
     1
370
    15
100
AcDbSpline
210
0.0
220
0.0
230
1.0
 70
     8
 71
     3
 72
    18
 73
    14
 74
     0
 42
0.000000001
 43
0.00000001
 40
0.0
 40
0.0
 40
0.0
 40
0.0
 40
0.0370085873628969
 40
0.1254295823028381
 40
0.2143113415011171
 40
0.303348983959457
 40
0.3889312899979717
 40
0.5607587643978634
 40
0.6470418321886392
 40
0.7349023437862798
 40
0.8229135178113905
 40
0.9113797950555861
 40
1.0
 40
1.0
 40
1.0
 40
1.0
 10
25.37167500586036
 20
6.094162155585982
 30
0.0
 10
25.55275879190247
 20
6.17224275245823
 30
0.0
 10
26.16648834127322
 20
6.436873675968185
 30
0.0
 10
27.2146712992324
 20
6.844128778833446
 30
0.0
 10
28.51848642114199
 20
7.310788714467772
 30
0.0
 10
29.80689739661615
 20
7.720862485931636
 30
0.0
 10
31.50276327455861
 20
8.18995907109707
 30
0.0
 10
33.1848055031312
 20
8.55084426758307
 30
0.0
 10
34.87687550448684
 20
8.800006575416218
 30
0.0
 10
36.1598543757791
 20
8.929556776875787
 30
0.0
 10
37.45319267999192
 20
8.997848058596773
 30
0.0
 10
38.749947856345
 20
9.008560589953793
 30
0.0
 10
39.61660643262657
 20
8.962937911308249
 30
0.0
 10
40.05031238069046
 20
8.940106743837346
 30
0.0
  0
SPLINE
  5
B5
330
1F
100
AcDbEntity
  8
외형선
  6
Continuous
 62
     1
370
    15
100
AcDbSpline
210
0.0
220
0.0
230
1.0
 70
     8
 71
     3
 72
    18
 73
    14
 74
     0
 42
0.000000001
 43
0.00000001
 40
0.0
 40
0.0
 40
0.0
 40
0.0
 40
0.2500000000000001
 40
0.2500000000000001
 40
0.3750000000000002
 40
0.3750000000000002
 40
0.5000000000000002
 40
0.5000000000000002
 40
0.6250000000000002
 40
0.6250000000000002
 40
0.7500000000000003
 40
0.7500000000000003
 40
1.0
 40
1.0
 40
1.0
 40
1.0
 10
43.55485486625533
 20
7.783901816338288
 30
0.0
 10
43.61870926525881
 20
7.406073983598662
 30
0.0
 10
43.6474496382466
 20
7.021620013070605
 30
0.0
 10
43.6056584076533
 20
6.437333264024674
 30
0.0
 10
43.57758684075036
 20
6.245812189661288
 30
0.0
 10
43.48824480741591
 20
5.870379280829091
 30
0.0
 10
43.42584935140134
 20
5.684324171450396
 30
0.0
 10
43.26729565070976
 20
5.335036378575732
 30
0.0
 10
43.17157735563472
 20
5.171384339556001
 30
0.0
 10
42.9465848420556
 20
4.866513930328588
 30
0.0
 10
42.81648116160986
 20
4.725257832972863
 30
0.0
 10
42.3966899137717
 20
4.352776310693811
 30
0.0
 10
42.06877054748313
 20
4.163920151874009
 30
0.0
 10
41.72898918875399
 20
4.028844248707497
 30
0.0
  0
SPLINE
  5
B6
330
1F
100
AcDbEntity
  8
외형선
  6
Continuous
 62
     1
370
    15
100
AcDbSpline
210
0.0
220
0.0
230
1.0
 70
     8
 71
     3
 72
    10
 73
     6
 74
     0
 42
0.000000001
 43
0.00000001
 40
0.0
 40
0.0
 40
0.0
 40
0.0
 40
0.1916334474645172
 40
0.5958232191927724
 40
1.0
 40
1.0
 40
1.0
 40
1.0
 10
21.85389248154179
 20
-6.018116535682359
 30
0.0
 10
21.41929053693816
 20
-6.208651826623331
 30
0.0
 10
20.06803409852795
 20
-6.801060677585013
 30
0.0
 10
17.80017362288803
 20
-7.59864118772235
 30
0.0
 10
15.96692297429089
 20
-8.062891065016846
 30
0.0
 10
15.05031238069482
 20
-8.295012273281216
 30
0.0
  0
SPLINE
  5
B7
330
1F
100
AcDbEntity
  8
외형선
  6
Continuous
 62
     1
370
    15
100
AcDbSpline
210
0.0
220
0.0
230
1.0
 70
    24
 71
     3
 72
    13
 73
     9
 74
     0
 42
0.000000001
 43
0.00000001
 40
0.0
 40
0.0
 40
0.0
 40
0.0
 40
0.1324296491444305
 40
0.323050179873418
 40
0.5136707106024055
 40
0.7042912413313933
 40
0.8949117720603811
 40
1.0
 40
1.0
 40
1.0
 40
1.0
 10
15.05031238069044
 20
-5.022653358364896
 30
0.0
 10
15.05031238069044
 20
-5.085058392928693
 30
0.0
 10
15.05031238069044
 20
-5.237289843899728
 30
0.0
 10
15.05031238069044
 20
-5.661522270627216
 30
0.0
 10
15.05031238069044
 20
-6.250103357603517
 30
0.0
 10
15.05031238069044
 20
-6.972420169668442
 30
0.0
 10
15.05031238069044
 20
-7.669507884530455
 30
0.0
 10
15.05031238069044
 20
-8.131006180475339
 30
0.0
 10
15.05031238069044
 20
-8.29501227328219
 30
0.0
  0
LINE
  5
B8
330
1F
100
AcDbEntity
  8
중심선
 62
     1
100
AcDbLine
 10
-93.94968761930957
 20
-0.0000000000000108
 30
0.0
 11
54.72405830502115
 21
0.0000000000000041
 31
0.0
  0
LINE
  5
B9
330
1F
100
AcDbEntity
  8
참조1
100
AcDbLine
 10
-39.4019237886467
 20
0.0010749287238892
 30
0.0
 11
-39.40192378864669
 21
-39.99892507127611
 31
0.0
  0
LINE
  5
BA
330
1F
100
AcDbEntity
  8
참조1
100
AcDbLine
 10
42.59807621135331
 20
0.0010749287238892
 30
0.0
 11
42.59807621135331
 21
0.6893143727731179
 31
0.0
  0
LINE
  5
BB
330
1F
100
AcDbEntity
  8
참조1
100
AcDbLine
 10
-39.40192378864669
 20
-39.99892507127611
 30
0.0
 11
-42.56078060295538
 21
-39.9989250712761
 31
0.0
  0
CIRCLE
  5
BC
330
1F
100
AcDbEntity
  8
해칭선
100
AcDbCircle
 10
0.0
 20
0.0
 30
0.0
 40
3.000000000000001
  0
INSERT
  5
BD
330
1F
100
AcDbEntity
  8
0
  6
Continuous
 62
     7
100
AcDbBlockReference
 66
     1
  2
블럭10
 10
-46.88996055143476
 20
-52.04717430164394
 30
0.0
  0
ATTRIB
  5
BE
330
BD
100
AcDbEntity
  8
FORMAT
 62
     2
100
AcDbText
 10
-57.03159656357139
 20
-49.97180738881175
 30
0.0
 40
4.233333333333333
  1
EM813180 [ 2 FLUTE ]
 41
0.75
  7
SLDTEXTSTYLE0
 11
-57.03159656357139
 21
-52.08847405547842
 31
0.0
100
AcDbAttribute
  2
AUTOATTR0
 70
     0
 74
     1
  0
SEQEND
  5
BF
330
BD
100
AcDbEntity
  8
0
  6
Continuous
 62
     7
  0
HATCH
  5
C0
330
1F
100
AcDbEntity
  8
중심선
100
AcDbHatch
 10
0.0
 20
0.0
 30
0.0
210
0.0
220
0.0
230
1.0
  2
SOLID
 70
     1
 71
     0
 91
        1
 92
        0
 93
        4
 72
     1
 10
-41.17505124705391
 20
-35.8
 11
-44.62132649089119
 21
-35.8
 72
     1
 10
-44.62132649089119
 20
-35.8
 11
-46.74955635009522
 21
-38.33632558057261
 72
     1
 10
-46.74955635009522
 20
-38.33632558057261
 11
-43.30324802114478
 21
-38.33628615127012
 72
     1
 10
-43.30324802114478
 20
-38.33628615127012
 11
-41.17505124705391
 21
-35.8
 97
        0
 75
     0
 76
     1
 98
        1
 10
6.452236169337138
 20
-0.0010749287239005
  0
HATCH
  5
C1
330
1F
100
AcDbEntity
  8
중심선
100
AcDbHatch
 10
0.0
 20
0.0
 30
0.0
210
0.0
220
0.0
230
1.0
  2
SOLID
 70
     1
 71
     0
 91
        1
 92
        0
 93
        4
 72
     1
 10
-36.16228725601793
 20
-35.8
 11
-39.60856249985521
 21
-35.8
 72
     1
 10
-39.60856249985521
 20
-35.8
 11
-44.13970050821263
 21
-41.20000000000002
 72
     1
 10
-44.13970050821263
 20
-41.20000000000002
 11
-40.69342526437535
 21
-41.20000000000002
 72
     1
 10
-40.69342526437535
 20
-41.20000000000002
 11
-36.16228725601793
 21
-35.8
 97
        0
 75
     0
 76
     1
 98
        1
 10
6.452236169337138
 20
-0.0010749287239005
  0
HATCH
  5
C2
330
1F
100
AcDbEntity
  8
중심선
100
AcDbHatch
 10
0.0
 20
0.0
 30
0.0
210
0.0
220
0.0
230
1.0
  2
SOLID
 70
     1
 71
     0
 91
        1
 92
        0
 93
        4
 72
     1
 10
-31.14952326498207
 20
-35.79999999999998
 11
-34.59579850881913
 21
-35.8
 72
     1
 10
-34.59579850881912
 20
-35.8
 11
-41.64423541070843
 21
-44.20000000000002
 72
     1
 10
-41.64423541070843
 20
-44.20000000000002
 11
-38.19796016687115
 21
-44.20000000000002
 72
     1
 10
-38.19796016687115
 20
-44.20000000000002
 11
-31.14952326498207
 21
-35.79999999999998
 97
        0
 75
     0
 76
     1
 98
        1
 10
6.452236169337138
 20
-0.0010749287239005
  0
HATCH
  5
C3
330
1F
100
AcDbEntity
  8
중심선
100
AcDbHatch
 10
0.0
 20
0.0
 30
0.0
210
0.0
220
0.0
230
1.0
  2
SOLID
 70
     1
 71
     0
 91
        1
 92
        0
 93
        6
 72
     3
 10
-26.34963283396987
 20
-40.00000000005128
 11
3.960054785062283
 21
1.540882976769353E-10
 40
0.3939339440162628
 50
17.09539180608437
 51
320.0019657685075
 73
     0
 72
     1
 10
-24.66663317826927
 20
-38.58789400463828
 11
-22.36133130456821
 21
-36.65356729459039
 72
     3
 10
-26.34963283402272
 20
-40.00000000000016
 11
6.600054785286829
 21
-1.278976924368180E-13
 40
0.636358354079598
 50
39.99873849337384
 51
368.4976242363725
 73
     1
 72
     1
 10
-19.92430034212211
 20
-39.03999999993003
 11
-27.66956552718679
 21
-39.03999999993003
 72
     1
 10
-27.66956552718679
 20
-39.03999999993003
 11
-27.66959057163273
 21
-40.95999999992992
 72
     1
 10
-27.66959057163273
 20
-40.95999999992992
 11
-23.22821080216069
 21
-40.95999999992989
 97
        0
 75
     0
 76
     1
 98
        1
 10
6.452236169337138
 20
-0.0010749287239005
  0
DIMENSION
  5
C4
330
1F
100
AcDbEntity
  8
치수문자_일반주서
100
AcDbDimension
  2
_D
 10
15.05031238069044
 20
18.22545405461414
 30
0.0
 11
32.05031238069045
 21
18.22545405461414
 31
0.0
 70
   160
  1
<>
 71
     2
 42
34.00000000000001
  3
SLDDIMSTYLE0
100
AcDbAlignedDimension
 13
49.05031238069045
 23
0.6882394440492139
 33
0.0
 14
15.05031238069044
 24
8.295012273282186
 34
0.0
 50
0.000000000000006
100
AcDbRotatedDimension
  0
DIMENSION
  5
D0
330
1F
100
AcDbEntity
  8
치수문자_일반주서
100
AcDbDimension
  2
_D_1
 10
-90.94968761930956
 20
28.73893843103311
 30
0.0
 11
-20.94968761930956
 21
28.73893843103311
 31
0.0
 70
   160
  1
<>
 71
     2
 42
140.0
  3
SLDDIMSTYLE0
100
AcDbAlignedDimension
 13
49.05031238069045
 23
0.6882394440492139
 33
0.0
 14
-90.94968761930956
 24
7.999999999999972
 34
0.0
 50
0.0000000000000044
100
AcDbRotatedDimension
  0
DIMENSION
  5
DA
330
1F
100
AcDbEntity
  8
치수문자_일반주서
100
AcDbDimension
  2
_D_2
 10
-103.4496876193095
 20
-9.000000000000068
 30
0.0
 11
-103.4496876193095
 21
0.0000000000000178
 31
0.0
 70
   160
  1
%%c<>
 71
     2
 42
17.99999999999999
 52
-270.0
  3
SLDDIMSTYLE1
100
AcDbAlignedDimension
 13
-89.94968761930956
 23
8.999999999999972
 33
0.0
 14
-89.94968761930956
 24
-9.000000000000018
 34
0.0
 50
90.0000000000002
100
AcDbRotatedDimension
  0
DIMENSION
  5
E8
330
1F
100
AcDbEntity
  8
치수문자_일반주서
100
AcDbDimension
  2
_D_3
 10
63.94860013158571
 20
-8.99999999999992
 30
0.0
 11
63.94860013158569
 21
0.0000000000000746
 31
0.0
 70
   160
  1
%%c<>
 71
     2
 42
18.0
 52
-270.0
  3
SLDDIMSTYLE0
100
AcDbAlignedDimension
 13
40.05031238069046
 23
8.999999999999991
 33
0.0
 14
40.05031238069046
 24
-9.00000000000001
 34
0.0
 50
90.0000000000002
100
AcDbRotatedDimension
  0
LINE
  5
F4
330
1F
100
AcDbEntity
  8
참조1
100
AcDbLine
 10
55.41156002669889
 20
7.441074928723896
 30
0.0
 11
55.41156002669889
 21
-7.438925071276109
 31
0.0
  0
LINE
  5
F5
330
1F
100
AcDbEntity
  8
참조1
100
AcDbLine
 10
68.1115600266989
 20
5.441074928723896
 30
0.0
 11
55.41156002669889
 21
5.441074928723896
 31
0.0
  0
SOLID
  5
F6
330
1F
100
AcDbEntity
  8
참조1
100
AcDbTrace
 10
55.41156002669889
 20
5.441074928723896
 30
0.0
 11
61.76156002669889
 21
4.425074928723896
 31
0.0
 12
61.76156002669889
 22
6.457074928723896
 32
0.0
 13
61.76156002669889
 23
6.457074928723896
 33
0.0
  0
LINE
  5
F7
330
1F
100
AcDbEntity
  8
참조1
100
AcDbLine
 10
68.1115600266989
 20
-5.438925071276109
 30
0.0
 11
55.41156002669889
 21
-5.438925071276109
 31
0.0
  0
SOLID
  5
F8
330
1F
100
AcDbEntity
  8
참조1
100
AcDbTrace
 10
55.41156002669889
 20
-5.438925071276109
 30
0.0
 11
61.76156002669889
 21
-6.454925071276109
 31
0.0
 12
61.76156002669889
 22
-4.422925071276109
 32
0.0
 13
61.76156002669889
 23
-4.422925071276109
 33
0.0
  0
MTEXT
  5
F9
330
1F
100
AcDbEntity
  8
참조1
100
AcDbMText
 10
64.80905011916917
 20
10.98929157337383
 30
0.0
 40
3.5
 41
0.0
 71
     1
 72
     1
  1
A
  7
SLDTEXTSTYLE0
 73
     1
 44
1.0
  0
MTEXT
  5
FA
330
1F
100
AcDbEntity
  8
참조1
100
AcDbMText
 10
64.80905011916917
 20
0.1092915733738259
 30
0.0
 40
3.5
 41
0.0
 71
     1
 72
     1
  1
A
  7
SLDTEXTSTYLE0
 73
     1
 44
1.0
  0
INSERT
  5
101
330
1F
100
AcDbEntity
  8
해칭선
100
AcDbBlockReference
  2
SW_DOWELSYMBOL_0
 10
0.0
 20
0.0
 30
0.0
  0
ENDSEC
  0
SECTION
  2
OBJECTS
  0
DICTIONARY
  5
C
330
0
100
AcDbDictionary
281
     1
  3
ACAD_GROUP
350
D
  3
ACAD_IMAGE_VARS
350
125
  3
ACAD_LAYOUT
350
1A
  3
ACAD_MLINESTYLE
350
17
  3
ACAD_PLOTSETTINGS
350
19
  3
ACAD_PLOTSTYLENAME
350
E
  3
ACAD_SCALELIST
350
47
  3
APPDATA
350
123
  3
DWGPROPS
350
12D
  0
DICTIONARY
  5
D
102
{ACAD_REACTORS
330
C
102
}
330
C
100
AcDbDictionary
281
     1
  0
RASTERVARIABLES
  5
125
102
{ACAD_REACTORS
330
C
102
}
330
C
100
AcDbRasterVariables
 90
        0
 70
     1
 71
     1
 72
     1
  0
DICTIONARY
  5
1A
102
{ACAD_REACTORS
330
C
102
}
330
C
100
AcDbDictionary
281
     1
  3
Layout1
350
1E
  3
Layout2
350
26
  3
Model
350
22
  0
DICTIONARY
  5
17
102
{ACAD_REACTORS
330
C
102
}
330
C
100
AcDbDictionary
281
     1
  3
Standard
350
18
  0
DICTIONARY
  5
19
102
{ACAD_REACTORS
330
C
102
}
330
C
100
AcDbDictionary
281
     1
  0
ACDBDICTIONARYWDFLT
  5
E
102
{ACAD_REACTORS
330
C
102
}
330
C
100
AcDbDictionary
281
     1
  3
Normal
350
F
100
AcDbDictionaryWithDefault
340
F
  0
DICTIONARY
  5
47
102
{ACAD_REACTORS
330
C
102
}
330
C
100
AcDbDictionary
281
     1
  3
A0
350
48
  3
A1
350
49
  3
A2
350
4A
  3
A3
350
4B
  3
A4
350
4C
  3
A5
350
4D
  3
A6
350
4E
  3
A7
350
4F
  3
A8
350
50
  3
A9
350
51
  3
B0
350
52
  3
B1
350
53
  3
B2
350
54
  3
B3
350
55
  3
B4
350
56
  3
B5
350
57
  3
B6
350
58
  3
B7
350
59
  3
B8
350
5A
  3
B9
350
5B
  3
C0
350
5C
  3
C1
350
5D
  3
C2
350
5E
  3
C3
350
5F
  3
C4
350
60
  3
C5
350
61
  3
C6
350
62
  3
C7
350
63
  3
C8
350
64
  3
C9
350
65
  3
D0
350
66
  3
D1
350
67
  3
D2
350
68
  0
DICTIONARY
  5
123
102
{ACAD_REACTORS
330
C
102
}
330
C
100
AcDbDictionary
281
     1
  0
XRECORD
  5
12D
102
{ACAD_REACTORS
330
C
102
}
330
C
100
AcDbXrecord
280
     1
  1
DWGPROPS COOKIE
  2

  3

  4

  6

  7

  8
12015017
  9

300
=
301
=
302
=
303
=
304
=
305
=
306
=
307
=
308
=
309
=
 40
0.0
 41
2458285.087739676
 42
2458295.339284942
  1

 90
        0
  0
LAYOUT
  5
1E
102
{ACAD_REACTORS
330
1A
102
}
330
1A
100
AcDbPlotSettings
  1

  2
none_device
  4

  6

 40
0.0
 41
0.0
 42
0.0
 43
0.0
 44
0.0
 45
0.0
 46
0.0
 47
0.0
 48
0.0
 49
0.0
140
0.0
141
0.0
142
1.0
143
1.0
 70
   688
 72
     1
 73
     0
 74
     5
  7

 75
    16
147
1.0
148
0.0
149
0.0
100
AcDbLayout
  1
Layout1
 70
     1
 71
     1
 10
0.0
 20
0.0
 11
420.0
 21
297.0
 12
0.0
 22
0.0
 32
0.0
 14
1.000000000000000E+20
 24
1.000000000000000E+20
 34
1.000000000000000E+20
 15
-1.000000000000000E+20
 25
-1.000000000000000E+20
 35
-1.000000000000000E+20
146
0.0
 13
0.0
 23
0.0
 33
0.0
 16
1.0
 26
0.0
 36
0.0
 17
0.0
 27
1.0
 37
0.0
 76
     0
330
1B
  0
LAYOUT
  5
26
102
{ACAD_REACTORS
330
1A
102
}
330
1A
100
AcDbPlotSettings
  1

  2
none_device
  4

  6

 40
0.0
 41
0.0
 42
0.0
 43
0.0
 44
0.0
 45
0.0
 46
0.0
 47
0.0
 48
0.0
 49
0.0
140
0.0
141
0.0
142
1.0
143
1.0
 70
   688
 72
     1
 73
     0
 74
     5
  7

 75
    16
147
1.0
148
0.0
149
0.0
100
AcDbLayout
  1
Layout2
 70
     1
 71
     2
 10
0.0
 20
0.0
 11
0.0
 21
0.0
 12
0.0
 22
0.0
 32
0.0
 14
0.0
 24
0.0
 34
0.0
 15
0.0
 25
0.0
 35
0.0
146
0.0
 13
0.0
 23
0.0
 33
0.0
 16
1.0
 26
0.0
 36
0.0
 17
0.0
 27
1.0
 37
0.0
 76
     0
330
23
  0
LAYOUT
  5
22
102
{ACAD_REACTORS
330
1A
102
}
330
1A
100
AcDbPlotSettings
  1

  2
none_device
  4
ANSI_A_(11.00_x_8.50_Inches)
  6

 40
6.35
 41
19.05
 42
6.35000508
 43
19.05000254
 44
279.4
 45
215.9
 46
163.0606576989461
 47
47.03860416707015
 48
0.0
 49
0.0
140
0.0
141
0.0
142
0.0504668999486919
143
1.0
 70
  1696
 72
     0
 73
     0
 74
     0
  7

 75
     0
147
0.0235690232323232
148
0.0
149
0.0
100
AcDbLayout
  1
Model
 70
     1
 71
     0
 10
0.0
 20
0.0
 11
420.0
 21
297.0
 12
0.0
 22
0.0
 32
0.0
 14
-107.8246876193096
 24
-49.97180738881175
 34
0.0
 15
68.1115600266989
 25
33.11393843103311
 35
0.0
146
0.0
 13
0.0
 23
0.0
 33
0.0
 16
1.0
 26
0.0
 36
0.0
 17
0.0
 27
1.0
 37
0.0
 76
     0
330
1F
331
29
  0
MLINESTYLE
  5
18
102
{ACAD_REACTORS
330
17
102
}
330
17
100
AcDbMlineStyle
  2
Standard
 70
     0
  3

 62
   256
 51
90.0
 52
90.0
 71
     2
 49
0.5
 62
   256
  6
BYLAYER
 49
-0.5
 62
   256
  6
BYLAYER
  0
ACDBPLACEHOLDER
  5
F
102
{ACAD_REACTORS
330
E
102
}
330
E
  0
SCALE
  5
48
102
{ACAD_REACTORS
330
47
102
}
330
47
100
AcDbScale
 70
     0
300
1:1
140
1.0
141
1.0
290
     1
  0
SCALE
  5
49
102
{ACAD_REACTORS
330
47
102
}
330
47
100
AcDbScale
 70
     0
300
1:2
140
1.0
141
2.0
290
     0
  0
SCALE
  5
4A
102
{ACAD_REACTORS
330
47
102
}
330
47
100
AcDbScale
 70
     0
300
1:4
140
1.0
141
4.0
290
     0
  0
SCALE
  5
4B
102
{ACAD_REACTORS
330
47
102
}
330
47
100
AcDbScale
 70
     0
300
1:5
140
1.0
141
5.0
290
     0
  0
SCALE
  5
4C
102
{ACAD_REACTORS
330
47
102
}
330
47
100
AcDbScale
 70
     0
300
1:8
140
1.0
141
8.0
290
     0
  0
SCALE
  5
4D
102
{ACAD_REACTORS
330
47
102
}
330
47
100
AcDbScale
 70
     0
300
1:10
140
1.0
141
10.0
290
     0
  0
SCALE
  5
4E
102
{ACAD_REACTORS
330
47
102
}
330
47
100
AcDbScale
 70
     0
300
1:16
140
1.0
141
16.0
290
     0
  0
SCALE
  5
4F
102
{ACAD_REACTORS
330
47
102
}
330
47
100
AcDbScale
 70
     0
300
1:20
140
1.0
141
20.0
290
     0
  0
SCALE
  5
50
102
{ACAD_REACTORS
330
47
102
}
330
47
100
AcDbScale
 70
     0
300
1:30
140
1.0
141
30.0
290
     0
  0
SCALE
  5
51
102
{ACAD_REACTORS
330
47
102
}
330
47
100
AcDbScale
 70
     0
300
1:40
140
1.0
141
40.0
290
     0
  0
SCALE
  5
52
102
{ACAD_REACTORS
330
47
102
}
330
47
100
AcDbScale
 70
     0
300
1:50
140
1.0
141
50.0
290
     0
  0
SCALE
  5
53
102
{ACAD_REACTORS
330
47
102
}
330
47
100
AcDbScale
 70
     0
300
1:100
140
1.0
141
100.0
290
     0
  0
SCALE
  5
54
102
{ACAD_REACTORS
330
47
102
}
330
47
100
AcDbScale
 70
     0
300
2:1
140
2.0
141
1.0
290
     0
  0
SCALE
  5
55
102
{ACAD_REACTORS
330
47
102
}
330
47
100
AcDbScale
 70
     0
300
4:1
140
4.0
141
1.0
290
     0
  0
SCALE
  5
56
102
{ACAD_REACTORS
330
47
102
}
330
47
100
AcDbScale
 70
     0
300
8:1
140
8.0
141
1.0
290
     0
  0
SCALE
  5
57
102
{ACAD_REACTORS
330
47
102
}
330
47
100
AcDbScale
 70
     0
300
10:1
140
10.0
141
1.0
290
     0
  0
SCALE
  5
58
102
{ACAD_REACTORS
330
47
102
}
330
47
100
AcDbScale
 70
     0
300
100:1
140
100.0
141
1.0
290
     0
  0
SCALE
  5
59
102
{ACAD_REACTORS
330
47
102
}
330
47
100
AcDbScale
 70
     0
300
1/128" = 1'-0"
140
0.0078125
141
12.0
290
     0
  0
SCALE
  5
5A
102
{ACAD_REACTORS
330
47
102
}
330
47
100
AcDbScale
 70
     0
300
1/64" = 1'-0"
140
0.015625
141
12.0
290
     0
  0
SCALE
  5
5B
102
{ACAD_REACTORS
330
47
102
}
330
47
100
AcDbScale
 70
     0
300
1/32" = 1'-0"
140
0.03125
141
12.0
290
     0
  0
SCALE
  5
5C
102
{ACAD_REACTORS
330
47
102
}
330
47
100
AcDbScale
 70
     0
300
1/16" = 1'-0"
140
0.0625
141
12.0
290
     0
  0
SCALE
  5
5D
102
{ACAD_REACTORS
330
47
102
}
330
47
100
AcDbScale
 70
     0
300
3/32" = 1'-0"
140
0.09375
141
12.0
290
     0
  0
SCALE
  5
5E
102
{ACAD_REACTORS
330
47
102
}
330
47
100
AcDbScale
 70
     0
300
1/8" = 1'-0"
140
0.125
141
12.0
290
     0
  0
SCALE
  5
5F
102
{ACAD_REACTORS
330
47
102
}
330
47
100
AcDbScale
 70
     0
300
3/16" = 1'-0"
140
0.1875
141
12.0
290
     0
  0
SCALE
  5
60
102
{ACAD_REACTORS
330
47
102
}
330
47
100
AcDbScale
 70
     0
300
1/4" = 1'-0"
140
0.25
141
12.0
290
     0
  0
SCALE
  5
61
102
{ACAD_REACTORS
330
47
102
}
330
47
100
AcDbScale
 70
     0
300
3/8" = 1'-0"
140
0.375
141
12.0
290
     0
  0
SCALE
  5
62
102
{ACAD_REACTORS
330
47
102
}
330
47
100
AcDbScale
 70
     0
300
1/2" = 1'-0"
140
0.5
141
12.0
290
     0
  0
SCALE
  5
63
102
{ACAD_REACTORS
330
47
102
}
330
47
100
AcDbScale
 70
     0
300
3/4" = 1'-0"
140
0.75
141
12.0
290
     0
  0
SCALE
  5
64
102
{ACAD_REACTORS
330
47
102
}
330
47
100
AcDbScale
 70
     0
300
1" = 1'-0"
140
1.0
141
12.0
290
     0
  0
SCALE
  5
65
102
{ACAD_REACTORS
330
47
102
}
330
47
100
AcDbScale
 70
     0
300
1-1/2" = 1'-0"
140
1.5
141
12.0
290
     0
  0
SCALE
  5
66
102
{ACAD_REACTORS
330
47
102
}
330
47
100
AcDbScale
 70
     0
300
3" = 1'-0"
140
3.0
141
12.0
290
     0
  0
SCALE
  5
67
102
{ACAD_REACTORS
330
47
102
}
330
47
100
AcDbScale
 70
     0
300
6" = 1'-0"
140
6.0
141
12.0
290
     0
  0
SCALE
  5
68
102
{ACAD_REACTORS
330
47
102
}
330
47
100
AcDbScale
 70
     0
300
1'-0" = 1'-0"
140
12.0
141
12.0
290
     0
  0
ENDSEC
  0
EOF
