  0
SECTION
  2
HEADER
  9
$ACADVER
  1
AC1015
  9
$ACADMAINTVER
 70
     6
  9
$DWGCODEPAGE
  3
ANSI_949
  9
$INSBASE
 10
0.0
 20
0.0
 30
0.0
  9
$EXTMIN
 10
-66.05000000000008
 20
-49.97180738881174
 30
0.0
  9
$EXTMAX
 10
93.22598381534557
 20
57.7096871005775
 30
0.0
  9
$LIMMIN
 10
0.0
 20
0.0
  9
$LIMMAX
 10
420.0
 20
297.0
  9
$ORTHOMODE
 70
     1
  9
$REGENMODE
 70
     1
  9
$FILLMODE
 70
     1
  9
$QTEXTMODE
 70
     0
  9
$MIRRTEXT
 70
     1
  9
$LTSCALE
 40
1.0
  9
$ATTMODE
 70
     1
  9
$TEXTSIZE
 40
3.5
  9
$TRACEWID
 40
1.0
  9
$TEXTSTYLE
  7
Standard
  9
$CLAYER
  8
0
  9
$CELTYPE
  6
ByLayer
  9
$CECOLOR
 62
   256
  9
$CELTSCALE
 40
1.0
  9
$DISPSILH
 70
     0
  9
$DIMSCALE
 40
1.0
  9
$DIMASZ
 40
3.302
  9
$DIMEXO
 40
1.0
  9
$DIMDLI
 40
3.75
  9
$DIMRND
 40
0.0
  9
$DIMDLE
 40
0.0
  9
$DIMEXE
 40
1.0
  9
$DIMTP
 40
0.0
  9
$DIMTM
 40
0.0
  9
$DIMTXT
 40
3.5
  9
$DIMCEN
 40
2.5
  9
$DIMTSZ
 40
0.0
  9
$DIMTOL
 70
     0
  9
$DIMLIM
 70
     0
  9
$DIMTIH
 70
     1
  9
$DIMTOH
 70
     1
  9
$DIMSE1
 70
     0
  9
$DIMSE2
 70
     0
  9
$DIMTAD
 70
     1
  9
$DIMZIN
 70
     0
  9
$DIMBLK
  1

  9
$DIMASO
 70
     1
  9
$DIMSHO
 70
     1
  9
$DIMPOST
  1

  9
$DIMAPOST
  1

  9
$DIMALT
 70
     0
  9
$DIMALTD
 70
     3
  9
$DIMALTF
 40
0.0393700787401575
  9
$DIMLFAC
 40
1.0
  9
$DIMTOFL
 70
     1
  9
$DIMTVP
 40
0.0
  9
$DIMTIX
 70
     0
  9
$DIMSOXD
 70
     0
  9
$DIMSAH
 70
     0
  9
$DIMBLK1
  1

  9
$DIMBLK2
  1

  9
$DIMSTYLE
  2
ISO-25
  9
$DIMCLRD
 70
     0
  9
$DIMCLRE
 70
     0
  9
$DIMCLRT
 70
     0
  9
$DIMTFAC
 40
1.0
  9
$DIMGAP
 40
1.524
  9
$DIMJUST
 70
     0
  9
$DIMSD1
 70
     0
  9
$DIMSD2
 70
     0
  9
$DIMTOLJ
 70
     0
  9
$DIMTZIN
 70
     0
  9
$DIMALTZ
 70
     0
  9
$DIMALTTZ
 70
     0
  9
$DIMUPT
 70
     0
  9
$DIMDEC
 70
     2
  9
$DIMTDEC
 70
     2
  9
$DIMALTU
 70
     2
  9
$DIMALTTD
 70
     3
  9
$DIMTXSTY
  7
Standard
  9
$DIMAUNIT
 70
     0
  9
$DIMADEC
 70
     2
  9
$DIMALTRND
 40
0.0
  9
$DIMAZIN
 70
     0
  9
$DIMDSEP
 70
    44
  9
$DIMATFIT
 70
     3
  9
$DIMFRAC
 70
     0
  9
$DIMLDRBLK
  1

  9
$DIMLUNIT
 70
     2
  9
$DIMLWD
 70
    -2
  9
$DIMLWE
 70
    -2
  9
$DIMTMOVE
 70
     0
  9
$LUNITS
 70
     2
  9
$LUPREC
 70
     2
  9
$SKETCHINC
 40
1.0
  9
$FILLETRAD
 40
10.0
  9
$AUNITS
 70
     0
  9
$AUPREC
 70
     2
  9
$MENU
  1
.
  9
$ELEVATION
 40
0.0
  9
$PELEVATION
 40
0.0
  9
$THICKNESS
 40
0.0
  9
$LIMCHECK
 70
     0
  9
$CHAMFERA
 40
0.0
  9
$CHAMFERB
 40
0.0
  9
$CHAMFERC
 40
0.0
  9
$CHAMFERD
 40
0.0
  9
$SKPOLY
 70
     0
  9
$TDCREATE
 40
2458295.510846667
  9
$TDUCREATE
 40
2458295.135846667
  9
$TDUPDATE
 40
2458302.055151748
  9
$TDUUPDATE
 40
2458301.680151748
  9
$TDINDWG
 40
0.000028912
  9
$TDUSRTIMER
 40
0.0029889815
  9
$USRTIMER
 70
     1
  9
$ANGBASE
 50
0.0
  9
$ANGDIR
 70
     0
  9
$PDMODE
 70
     0
  9
$PDSIZE
 40
-1.0
  9
$PLINEWID
 40
0.0
  9
$SPLFRAME
 70
     0
  9
$SPLINETYPE
 70
     6
  9
$SPLINESEGS
 70
     8
  9
$HANDSEED
  5
1B5
  9
$SURFTAB1
 70
     6
  9
$SURFTAB2
 70
     6
  9
$SURFTYPE
 70
     6
  9
$SURFU
 70
     6
  9
$SURFV
 70
     6
  9
$UCSBASE
  2

  9
$UCSNAME
  2

  9
$UCSORG
 10
0.0
 20
0.0
 30
0.0
  9
$UCSXDIR
 10
1.0
 20
0.0
 30
0.0
  9
$UCSYDIR
 10
0.0
 20
1.0
 30
0.0
  9
$UCSORTHOREF
  2

  9
$UCSORTHOVIEW
 70
     0
  9
$UCSORGTOP
 10
0.0
 20
0.0
 30
0.0
  9
$UCSORGBOTTOM
 10
0.0
 20
0.0
 30
0.0
  9
$UCSORGLEFT
 10
0.0
 20
0.0
 30
0.0
  9
$UCSORGRIGHT
 10
0.0
 20
0.0
 30
0.0
  9
$UCSORGFRONT
 10
0.0
 20
0.0
 30
0.0
  9
$UCSORGBACK
 10
0.0
 20
0.0
 30
0.0
  9
$PUCSBASE
  2

  9
$PUCSNAME
  2

  9
$PUCSORG
 10
0.0
 20
0.0
 30
0.0
  9
$PUCSXDIR
 10
1.0
 20
0.0
 30
0.0
  9
$PUCSYDIR
 10
0.0
 20
1.0
 30
0.0
  9
$PUCSORTHOREF
  2

  9
$PUCSORTHOVIEW
 70
     0
  9
$PUCSORGTOP
 10
0.0
 20
0.0
 30
0.0
  9
$PUCSORGBOTTOM
 10
0.0
 20
0.0
 30
0.0
  9
$PUCSORGLEFT
 10
0.0
 20
0.0
 30
0.0
  9
$PUCSORGRIGHT
 10
0.0
 20
0.0
 30
0.0
  9
$PUCSORGFRONT
 10
0.0
 20
0.0
 30
0.0
  9
$PUCSORGBACK
 10
0.0
 20
0.0
 30
0.0
  9
$USERI1
 70
     0
  9
$USERI2
 70
     0
  9
$USERI3
 70
     0
  9
$USERI4
 70
     0
  9
$USERI5
 70
     0
  9
$USERR1
 40
0.0
  9
$USERR2
 40
0.0
  9
$USERR3
 40
0.0
  9
$USERR4
 40
0.0
  9
$USERR5
 40
0.0
  9
$WORLDVIEW
 70
     1
  9
$SHADEDGE
 70
     3
  9
$SHADEDIF
 70
    70
  9
$TILEMODE
 70
     1
  9
$MAXACTVP
 70
    64
  9
$PINSBASE
 10
0.0
 20
0.0
 30
0.0
  9
$PLIMCHECK
 70
     0
  9
$PEXTMIN
 10
1.000000000000000E+20
 20
1.000000000000000E+20
 30
1.000000000000000E+20
  9
$PEXTMAX
 10
-1.000000000000000E+20
 20
-1.000000000000000E+20
 30
-1.000000000000000E+20
  9
$PLIMMIN
 10
0.0
 20
0.0
  9
$PLIMMAX
 10
0.0
 20
0.0
  9
$UNITMODE
 70
     0
  9
$VISRETAIN
 70
     1
  9
$PLINEGEN
 70
     0
  9
$PSLTSCALE
 70
     1
  9
$TREEDEPTH
 70
  3020
  9
$CMLSTYLE
  2
Standard
  9
$CMLJUST
 70
     0
  9
$CMLSCALE
 40
20.0
  9
$PROXYGRAPHICS
 70
     1
  9
$MEASUREMENT
 70
     1
  9
$CELWEIGHT
370
    -1
  9
$ENDCAPS
280
     0
  9
$JOINSTYLE
280
     0
  9
$LWDISPLAY
290
     1
  9
$INSUNITS
 70
     4
  9
$HYPERLINKBASE
  1

  9
$STYLESHEET
  1

  9
$XEDIT
290
     1
  9
$CEPSNTYPE
380
     0
  9
$PSTYLEMODE
290
     1
  9
$FINGERPRINTGUID
  2
{A89CB20E-76A6-4AF4-B610-9236A4ED9C41}
  9
$VERSIONGUID
  2
{FAEB1C32-E019-11D5-929B-00C0DF256EC4}
  9
$EXTNAMES
290
     1
  9
$PSVPSCALE
 40
0.0
  9
$OLESTARTUP
290
     0
  0
ENDSEC
  0
SECTION
  2
CLASSES
  0
CLASS
  1
ACDBDICTIONARYWDFLT
  2
AcDbDictionaryWithDefault
  3
ObjectDBX Classes
 90
        0
280
     0
281
     0
  0
CLASS
  1
VISUALSTYLE
  2
AcDbVisualStyle
  3
ObjectDBX Classes
 90
     4095
280
     0
281
     0
  0
CLASS
  1
MATERIAL
  2
AcDbMaterial
  3
ObjectDBX Classes
 90
     1153
280
     0
281
     0
  0
CLASS
  1
SCALE
  2
AcDbScale
  3
ObjectDBX Classes
 90
     1153
280
     0
281
     0
  0
CLASS
  1
SUN
  2
AcDbSun
  3
SCENEOE
 90
     1153
280
     0
281
     0
  0
CLASS
  1
ACDBPLACEHOLDER
  2
AcDbPlaceHolder
  3
ObjectDBX Classes
 90
        0
280
     0
281
     0
  0
CLASS
  1
LAYOUT
  2
AcDbLayout
  3
ObjectDBX Classes
 90
        0
280
     0
281
     0
  0
CLASS
  1
TABLESTYLE
  2
AcDbTableStyle
  3
ObjectDBX Classes
 90
     4095
280
     0
281
     0
  0
CLASS
  1
MLEADERSTYLE
  2
AcDbMLeaderStyle
  3
ACDB_MLEADERSTYLE_CLASS
 90
     4095
280
     0
281
     0
  0
CLASS
  1
DICTIONARYVAR
  2
AcDbDictionaryVar
  3
ObjectDBX Classes
 90
        0
280
     0
281
     0
  0
ENDSEC
  0
SECTION
  2
TABLES
  0
TABLE
  2
VPORT
  5
8
330
0
100
AcDbSymbolTable
 70
     1
  0
VPORT
  5
29
330
8
100
AcDbSymbolTableRecord
100
AcDbViewportTableRecord
  2
*Active
 70
     0
 10
0.0
 20
0.0
 11
1.0
 21
1.0
 12
13.58799190767274
 22
3.868939855882886
 13
0.0
 23
0.0
 14
10.0
 24
10.0
 15
10.0
 25
10.0
 16
0.0
 26
0.0
 36
1.0
 17
0.0
 27
0.0
 37
0.0
 40
109.835124379177
 41
2.40031152647975
 42
50.0
 43
0.0
 44
0.0
 50
0.0
 51
0.0
 71
    16
 72
  2000
 73
     1
 74
     3
 75
     0
 76
     0
 77
     0
 78
     0
281
     0
 65
     1
110
0.0
120
0.0
130
0.0
111
1.0
121
0.0
131
0.0
112
0.0
122
1.0
132
0.0
 79
     0
146
0.0
  0
ENDTAB
  0
TABLE
  2
LTYPE
  5
5
330
0
100
AcDbSymbolTable
 70
     6
  0
LTYPE
  5
14
330
5
100
AcDbSymbolTableRecord
100
AcDbLinetypeTableRecord
  2
ByBlock
 70
     0
  3

 72
    65
 73
     0
 40
0.0
  0
LTYPE
  5
15
330
5
100
AcDbSymbolTableRecord
100
AcDbLinetypeTableRecord
  2
ByLayer
 70
     0
  3

 72
    65
 73
     0
 40
0.0
  0
LTYPE
  5
16
330
5
100
AcDbSymbolTableRecord
100
AcDbLinetypeTableRecord
  2
Continuous
 70
     0
  3
Solid line
 72
    65
 73
     0
 40
0.0
  0
LTYPE
  5
6A
330
5
100
AcDbSymbolTableRecord
100
AcDbLinetypeTableRecord
  2
HIDDEN
 70
     0
  3
Hidden __ __ __ __ __ __ __ __ __ __ __ __ __ __
 72
    65
 73
     2
 40
1.905
 49
1.27
 74
     0
 49
-0.635
 74
     0
  0
LTYPE
  5
6B
330
5
100
AcDbSymbolTableRecord
100
AcDbLinetypeTableRecord
  2
PHANTOM
 70
     0
  3
Phantom ______  __  __  ______  __  __  ______
 72
    65
 73
     6
 40
12.7
 49
6.35
 74
     0
 49
-1.27
 74
     0
 49
1.27
 74
     0
 49
-1.27
 74
     0
 49
1.27
 74
     0
 49
-1.27
 74
     0
  0
LTYPE
  5
6C
330
5
100
AcDbSymbolTableRecord
100
AcDbLinetypeTableRecord
  2
CENTER
 70
     0
  3
Center ____ _ ____ _ ____ _ ____ _ ____ _ ____
 72
    65
 73
     4
 40
10.16
 49
6.35
 74
     0
 49
-1.27
 74
     0
 49
1.27
 74
     0
 49
-1.27
 74
     0
  0
LTYPE
  5
6D
330
5
100
AcDbSymbolTableRecord
100
AcDbLinetypeTableRecord
  2
CENTERX2
 70
     0
  3
Center (2x) ________  __  ________  __  _____
 72
    65
 73
     4
 40
20.32
 49
12.7
 74
     0
 49
-2.54
 74
     0
 49
2.54
 74
     0
 49
-2.54
 74
     0
  0
LTYPE
  5
6E
330
5
100
AcDbSymbolTableRecord
100
AcDbLinetypeTableRecord
  2
DOT2
 70
     0
  3
Dot (.5x) ........................................
 72
    65
 73
     2
 40
0.635
 49
0.0
 74
     0
 49
-0.635
 74
     0
  0
ENDTAB
  0
TABLE
  2
LAYER
  5
2
330
0
100
AcDbSymbolTable
 70
    18
  0
LAYER
  5
10
330
2
100
AcDbSymbolTableRecord
100
AcDbLayerTableRecord
  2
0
 70
     0
 62
     7
  6
Continuous
370
    -3
390
F
  0
LAYER
  5
6F
330
2
100
AcDbSymbolTableRecord
100
AcDbLayerTableRecord
  2
FORMAT
 70
     0
 62
     2
  6
Continuous
370
    -3
390
F
  0
LAYER
  5
70
330
2
100
AcDbSymbolTableRecord
100
AcDbLayerTableRecord
  2
외형선
 70
     0
 62
     4
  6
Continuous
370
    30
390
F
  0
LAYER
  5
71
330
2
100
AcDbSymbolTableRecord
100
AcDbLayerTableRecord
  2
숨은선
 70
     0
 62
     2
  6
HIDDEN
370
    15
390
F
  0
LAYER
  5
72
330
2
100
AcDbSymbolTableRecord
100
AcDbLayerTableRecord
  2
중심선
 70
     0
 62
     1
  6
CENTERX2
370
    -3
390
F
  0
LAYER
  5
73
330
2
100
AcDbSymbolTableRecord
100
AcDbLayerTableRecord
  2
파단선
 70
     0
 62
     4
  6
Continuous
370
    -3
390
F
  0
LAYER
  5
74
330
2
100
AcDbSymbolTableRecord
100
AcDbLayerTableRecord
  2
해칭선
 70
     0
 62
   100
  6
Continuous
370
    -3
390
F
  0
LAYER
  5
75
330
2
100
AcDbSymbolTableRecord
100
AcDbLayerTableRecord
  2
가는실선
 70
     0
 62
     4
  6
Continuous
370
    -3
390
F
  0
LAYER
  5
76
330
2
100
AcDbSymbolTableRecord
100
AcDbLayerTableRecord
  2
치수_보조선
 70
     0
 62
     4
  6
Continuous
370
    -3
390
F
  0
LAYER
  5
77
330
2
100
AcDbSymbolTableRecord
100
AcDbLayerTableRecord
  2
치수문자_일반주서
 70
     0
 62
     7
  6
Continuous
370
    15
390
F
  0
LAYER
  5
78
330
2
100
AcDbSymbolTableRecord
100
AcDbLayerTableRecord
  2
개별주서
 70
     0
 62
   100
  6
Continuous
370
    30
390
F
  0
LAYER
  5
79
330
2
100
AcDbSymbolTableRecord
100
AcDbLayerTableRecord
  2
중간선
 70
     0
 62
     2
  6
Continuous
370
    15
390
F
  0
LAYER
  5
7A
330
2
100
AcDbSymbolTableRecord
100
AcDbLayerTableRecord
  2
윤곽선
 70
     0
 62
     3
  6
Continuous
370
    40
390
F
  0
LAYER
  5
7B
330
2
100
AcDbSymbolTableRecord
100
AcDbLayerTableRecord
  2
중심마크
 70
     0
 62
   100
  6
Continuous
370
    30
390
F
  0
LAYER
  5
7C
330
2
100
AcDbSymbolTableRecord
100
AcDbLayerTableRecord
  2
가상선
 70
     0
 62
     4
  6
PHANTOM
370
    -3
390
F
  0
LAYER
  5
7D
330
2
100
AcDbSymbolTableRecord
100
AcDbLayerTableRecord
  2
특수지정선
 70
     0
 62
     5
  6
CENTERX2
370
    60
390
F
  0
LAYER
  5
7E
330
2
100
AcDbSymbolTableRecord
100
AcDbLayerTableRecord
  2
참조1
 70
     0
 62
    -4
  6
Continuous
370
    -3
390
F
  0
LAYER
  5
1A2
330
2
100
AcDbSymbolTableRecord
100
AcDbLayerTableRecord
  2
Defpoints
 70
     0
 62
     7
  6
Continuous
290
     0
370
    -3
390
F
  0
ENDTAB
  0
TABLE
  2
STYLE
  5
3
330
0
100
AcDbSymbolTable
 70
     2
  0
STYLE
  5
11
330
3
100
AcDbSymbolTableRecord
100
AcDbTextStyleTableRecord
  2
Standard
 70
     0
 40
0.0
 41
1.0
 50
0.0
 71
     0
 42
3.5
  3
txt
  4

  0
STYLE
  5
94
330
3
100
AcDbSymbolTableRecord
100
AcDbTextStyleTableRecord
  2
SLDTEXTSTYLE0
 70
     0
 40
0.0
 41
0.75
 50
0.0
 71
     0
 42
3.5
  3
TXT
  4

  0
ENDTAB
  0
TABLE
  2
VIEW
  5
6
330
0
100
AcDbSymbolTable
 70
     0
  0
ENDTAB
  0
TABLE
  2
UCS
  5
7
330
0
100
AcDbSymbolTable
 70
     0
  0
ENDTAB
  0
TABLE
  2
APPID
  5
9
330
0
100
AcDbSymbolTable
 70
     5
  0
APPID
  5
12
330
9
100
AcDbSymbolTableRecord
100
AcDbRegAppTableRecord
  2
ACAD
 70
     0
  0
APPID
  5
17A
330
9
100
AcDbSymbolTableRecord
100
AcDbRegAppTableRecord
  2
PE_URL
 70
     0
  0
APPID
  5
1A3
330
9
100
AcDbSymbolTableRecord
100
AcDbRegAppTableRecord
  2
ACAD_DSTYLE_DIMRADIAL_EXTENSION
 70
     0
  0
APPID
  5
1B3
330
9
100
AcDbSymbolTableRecord
100
AcDbRegAppTableRecord
  2
ACAD_DSTYLE_DIMFLIPARROW_SYMBOL
 70
     0
  0
APPID
  5
1B4
330
9
100
AcDbSymbolTableRecord
100
AcDbRegAppTableRecord
  2
ACAD_DSTYLE_DIMFLIPARROW_WHICH_SYMBOL
 70
     0
  0
ENDTAB
  0
TABLE
  2
DIMSTYLE
  5
A
330
0
100
AcDbSymbolTable
 70
     4
100
AcDbDimStyleTable
  0
DIMSTYLE
105
27
102
{ACAD_REACTORS
330
19A
330
1A0
102
}
330
A
100
AcDbSymbolTableRecord
100
AcDbDimStyleTableRecord
  2
ISO-25
 70
     0
 41
2.5
 42
0.625
 43
3.75
 44
1.25
 73
     0
 74
     0
 77
     1
 78
     8
140
2.5
141
2.5
143
0.03937007874016
147
0.625
171
     3
172
     1
178
     0
271
     2
272
     2
274
     3
278
    44
283
     0
284
     8
340
11
  0
DIMSTYLE
105
F5
102
{ACAD_REACTORS
330
F4
330
109
330
11D
330
131
102
}
330
A
100
AcDbSymbolTableRecord
100
AcDbDimStyleTableRecord
  2
SLDDIMSTYLE0
 70
     0
 41
3.302
 44
0.0
 45
0.000000001
 73
     0
 74
     0
 77
     1
 78
    12
 79
     3
140
3.5
143
0.0393700787401575
147
0.875
148
0.000000001
170
     1
172
     1
173
     1
178
     0
271
     2
272
     2
276
     2
284
    12
289
     0
340
94
  0
DIMSTYLE
105
11E
330
A
100
AcDbSymbolTableRecord
100
AcDbDimStyleTableRecord
  2
SLDDIMSTYLE1
 70
     0
 41
3.302
 44
0.0
 45
0.000000001
 73
     0
 74
     0
 77
     1
 78
     4
 79
     1
140
3.5
143
0.0393700787401575
147
0.875
148
0.000000001
170
     1
173
     1
178
     0
271
     2
272
     2
276
     2
284
    12
340
94
  0
DIMSTYLE
105
132
330
A
100
AcDbSymbolTableRecord
100
AcDbDimStyleTableRecord
  2
SLDDIMSTYLE2
 70
     0
 41
3.302
 44
0.0
 45
0.000000001
 73
     0
 74
     0
 77
     1
 78
    12
 79
     3
140
3.5
143
0.0393700787401575
147
0.875
148
0.000000001
170
     1
173
     1
178
     0
271
     2
272
     2
276
     2
284
    12
340
94
  0
ENDTAB
  0
TABLE
  2
BLOCK_RECORD
  5
1
330
0
100
AcDbSymbolTable
 70
     8
  0
BLOCK_RECORD
  5
1F
330
1
100
AcDbSymbolTableRecord
100
AcDbBlockTableRecord
  2
*Model_Space
340
22
  0
BLOCK_RECORD
  5
1B
330
1
100
AcDbSymbolTableRecord
100
AcDbBlockTableRecord
  2
*Paper_Space
340
1E
  0
BLOCK_RECORD
  5
23
330
1
100
AcDbSymbolTableRecord
100
AcDbBlockTableRecord
  2
*Paper_Space0
340
26
  0
BLOCK_RECORD
  5
7F
330
1
100
AcDbSymbolTableRecord
100
AcDbBlockTableRecord
  2
블럭10
340
0
102
{BLKREFS
331
ED
102
}
  0
BLOCK_RECORD
  5
F6
330
1
100
AcDbSymbolTableRecord
100
AcDbBlockTableRecord
  2
_D
340
0
  0
BLOCK_RECORD
  5
10A
330
1
100
AcDbSymbolTableRecord
100
AcDbBlockTableRecord
  2
_D_1
340
0
  0
BLOCK_RECORD
  5
11F
330
1
100
AcDbSymbolTableRecord
100
AcDbBlockTableRecord
  2
_D_2
340
0
  0
BLOCK_RECORD
  5
133
330
1
100
AcDbSymbolTableRecord
100
AcDbBlockTableRecord
  2
_D_3
340
0
  0
BLOCK_RECORD
  5
14C
330
1
100
AcDbSymbolTableRecord
100
AcDbBlockTableRecord
  2
SW_DOWELSYMBOL_0
340
0
102
{BLKREFS
331
152
102
}
  0
ENDTAB
  0
ENDSEC
  0
SECTION
  2
BLOCKS
  0
BLOCK
  5
20
330
1F
100
AcDbEntity
  8
0
100
AcDbBlockBegin
  2
*Model_Space
 70
     0
 10
0.0
 20
0.0
 30
0.0
  3
*Model_Space
  1

  0
ENDBLK
  5
21
330
1F
100
AcDbEntity
  8
0
100
AcDbBlockEnd
  0
BLOCK
  5
1C
330
1B
100
AcDbEntity
 67
     1
  8
0
100
AcDbBlockBegin
  2
*Paper_Space
 70
     0
 10
0.0
 20
0.0
 30
0.0
  3
*Paper_Space
  1

  0
ENDBLK
  5
1D
330
1B
100
AcDbEntity
 67
     1
  8
0
100
AcDbBlockEnd
  0
BLOCK
  5
24
330
23
100
AcDbEntity
  8
0
100
AcDbBlockBegin
  2
*Paper_Space0
 70
     0
 10
0.0
 20
0.0
 30
0.0
  3
*Paper_Space0
  1

  0
ENDBLK
  5
25
330
23
100
AcDbEntity
  8
0
100
AcDbBlockEnd
  0
BLOCK
  5
80
330
7F
100
AcDbEntity
  8
0
100
AcDbBlockBegin
  2
블럭10
 70
     2
 10
0.0
 20
0.0
 30
0.0
  3
블럭10
  1

  0
ELLIPSE
  5
82
330
7F
100
AcDbEntity
  8
중심선
100
AcDbEllipse
 10
20.54032771741204
 20
12.0471743016438
 30
0.0
 11
6.600054785286829
 21
-1.261213355974178E-13
 31
0.0
210
0.0
220
0.0
230
1.0
 40
0.636358354079598
 41
0.9219305317359503
 42
6.513795318482858
  0
ELLIPSE
  5
83
330
7F
100
AcDbEntity
  8
중심선
100
AcDbEllipse
 10
20.54032771746488
 20
12.04717430159265
 30
0.0
 11
3.960054785062283
 21
1.540847449632565E-10
 31
0.0
210
0.0
220
0.0
230
1.0
 40
0.3939339440162632
 41
1.131841032648279
 42
5.62031148352944
  0
LINE
  5
84
330
7F
100
AcDbEntity
  8
중심선
100
AcDbLine
 10
2.268634060543552
 20
16.24717430164393
 30
0.0
 11
5.714909304380834
 21
16.24717430164393
 31
0.0
  0
LINE
  5
85
330
7F
100
AcDbEntity
  8
중심선
100
AcDbLine
 10
5.245725140726316
 20
7.84717430164391
 30
0.0
 11
8.692000384563599
 21
7.84717430164391
 31
0.0
  0
LINE
  5
86
330
7F
100
AcDbEntity
  8
중심선
100
AcDbLine
 10
15.74043728645272
 20
16.24717430164393
 30
0.0
 11
8.692000384563599
 21
7.84717430164391
 31
0.0
  0
LINE
  5
87
330
7F
100
AcDbEntity
  8
중심선
100
AcDbLine
 10
0.1404042013395286
 20
13.71084872107135
 30
0.0
 11
3.58671253028996
 21
13.71088815037384
 31
0.0
  0
LINE
  5
88
330
7F
100
AcDbEntity
  8
중심선
100
AcDbLine
 10
2.750260043222114
 20
10.84717430164391
 30
0.0
 11
6.196535287059397
 21
10.84717430164391
 31
0.0
  0
LINE
  5
89
330
7F
100
AcDbEntity
  8
중심선
100
AcDbLine
 10
12.29416204261559
 20
16.24717430164393
 30
0.0
 11
5.245725140726316
 21
7.84717430164391
 31
0.0
  0
LINE
  5
8A
330
7F
100
AcDbEntity
  8
중심선
100
AcDbLine
 10
10.72767329541681
 20
16.24717430164393
 30
0.0
 11
6.196535287059397
 21
10.84717430164391
 31
0.0
  0
LINE
  5
8B
330
7F
100
AcDbEntity
  8
중심선
100
AcDbLine
 10
7.28139805157953
 20
16.24717430164393
 30
0.0
 11
2.750260043222114
 21
10.84717430164391
 31
0.0
  0
LINE
  5
8C
330
7F
100
AcDbEntity
  8
중심선
100
AcDbLine
 10
5.714909304380834
 20
16.24717430164393
 30
0.0
 11
3.58671253028996
 21
13.71088815037384
 31
0.0
  0
LINE
  5
8D
330
7F
100
AcDbEntity
  8
중심선
100
AcDbLine
 10
2.268634060543552
 20
16.24717430164393
 30
0.0
 11
0.1404042013395286
 21
13.71084872107135
 31
0.0
  0
LINE
  5
8E
330
7F
100
AcDbEntity
  8
중심선
100
AcDbLine
 10
7.28139805157953
 20
16.24717430164393
 30
0.0
 11
10.72767329541681
 21
16.24717430164393
 31
0.0
  0
LINE
  5
8F
330
7F
100
AcDbEntity
  8
중심선
100
AcDbLine
 10
12.29416204261559
 20
16.24717430164393
 30
0.0
 11
15.74043728645272
 21
16.24717430164393
 31
0.0
  0
LINE
  5
90
330
7F
100
AcDbEntity
  8
중심선
100
AcDbLine
 10
19.22036997980202
 20
11.08717430171403
 30
0.0
 11
23.66174974927406
 21
11.08717430171406
 31
0.0
  0
LINE
  5
91
330
7F
100
AcDbEntity
  8
중심선
100
AcDbLine
 10
19.22039502424796
 20
13.00717430171391
 30
0.0
 11
19.22036997980202
 21
11.08717430171403
 31
0.0
  0
LINE
  5
92
330
7F
100
AcDbEntity
  8
중심선
100
AcDbLine
 10
19.22039502424796
 20
13.00717430171391
 30
0.0
 11
26.96566020931264
 21
13.00717430171391
 31
0.0
  0
LINE
  5
93
330
7F
100
AcDbEntity
  8
중심선
100
AcDbLine
 10
22.22332737316547
 20
13.45928029700563
 30
0.0
 11
24.52862924686651
 21
15.39360700705356
 31
0.0
  0
ATTDEF
  5
95
330
7F
100
AcDbEntity
  8
FORMAT
 62
     2
100
AcDbText
 10
3.448148490846466
 20
2.075366912832191
 30
0.0
 40
4.233333333333333
  1
EM668905
 41
0.75
  7
SLDTEXTSTYLE0
 11
3.448148490846466
 21
-0.0412997538344756
 31
0.0
100
AcDbAttributeDefinition
  3

  2
AUTOATTR0
 70
     0
 74
     1
  0
ENDBLK
  5
81
330
7F
100
AcDbEntity
  8
0
100
AcDbBlockEnd
  0
BLOCK
  5
F7
330
F6
100
AcDbEntity
  8
0
100
AcDbBlockBegin
  2
_D
 70
     0
 10
0.0
 20
0.0
 30
0.0
  3
_D
  1

  0
LINE
  5
F9
330
F6
100
AcDbEntity
  8
치수문자_일반주서
 62
     0
370
    -2
100
AcDbLine
 10
50.16249999999998
 20
9.524999999999991
 30
0.0
 11
69.10000000000002
 21
9.525000000000063
 31
0.0
  0
LINE
  5
FA
330
F6
100
AcDbEntity
  8
치수문자_일반주서
 62
     0
370
    -2
100
AcDbLine
 10
50.16249999999998
 20
-9.524999999999956
 30
0.0
 11
69.1000000000001
 21
-9.524999999999885
 31
0.0
  0
LINE
  5
FB
330
F6
100
AcDbEntity
  8
치수문자_일반주서
 62
     0
370
    -2
100
AcDbLine
 10
69.10000000000002
 20
9.525000000000063
 30
0.0
 11
69.0999999999999
 21
43.69150000000006
 31
0.0
  0
LINE
  5
FC
330
F6
100
AcDbEntity
  8
치수문자_일반주서
 62
     0
370
    -2
100
AcDbLine
 10
69.10000000000002
 20
9.525000000000063
 30
0.0
 11
69.1000000000001
 21
-9.524999999999885
 31
0.0
  0
LINE
  5
FD
330
F6
100
AcDbEntity
  8
치수문자_일반주서
 62
     0
370
    -2
100
AcDbLine
 10
69.10000000000001
 20
12.82700000000006
 30
0.0
 11
69.1
 21
16.12900000000006
 31
0.0
  0
LINE
  5
FE
330
F6
100
AcDbEntity
  8
치수문자_일반주서
 62
     0
370
    -2
100
AcDbLine
 10
69.10000000000011
 20
-12.82699999999988
 30
0.0
 11
69.10000000000012
 21
-16.12899999999988
 31
0.0
  0
SOLID
  5
FF
330
F6
100
AcDbEntity
  8
치수문자_일반주서
 62
     0
100
AcDbTrace
 10
68.54966666666668
 20
12.82700000000006
 30
0.0
 11
69.65033333333334
 21
12.82700000000006
 31
0.0
 12
69.10000000000002
 22
9.525000000000063
 32
0.0
 13
69.10000000000002
 23
9.525000000000063
 33
0.0
  0
SOLID
  5
100
330
F6
100
AcDbEntity
  8
치수문자_일반주서
 62
     0
100
AcDbTrace
 10
69.65033333333344
 20
-12.82699999999988
 30
0.0
 11
68.54966666666678
 21
-12.82699999999989
 31
0.0
 12
69.1000000000001
 22
-9.524999999999885
 32
0.0
 13
69.1000000000001
 23
-9.524999999999885
 33
0.0
  0
MTEXT
  5
101
330
F6
100
AcDbEntity
  8
치수문자_일반주서
 62
     0
100
AcDbMText
 10
64.72499999999995
 20
29.91025000000004
 30
0.0
 40
3.5
 41
0.0
 71
     2
 72
     1
  1
\A1;%%c19.05 [3/4]
  7
SLDTEXTSTYLE0
 11
-3.729883127349617E-15
 21
1.0
 31
0.0
 73
     1
 44
1.0
  0
POINT
  5
1A4
330
F6
100
AcDbEntity
  8
Defpoints
 62
     0
100
AcDbPoint
 10
50.09999999999998
 20
9.524999999999991
 30
0.0
  0
POINT
  5
1A5
330
F6
100
AcDbEntity
  8
Defpoints
 62
     0
100
AcDbPoint
 10
50.09999999999998
 20
-9.524999999999956
 30
0.0
  0
POINT
  5
1A6
330
F6
100
AcDbEntity
  8
Defpoints
 62
     0
100
AcDbPoint
 10
69.1000000000001
 20
-9.524999999999885
 30
0.0
  0
ENDBLK
  5
F8
330
F6
100
AcDbEntity
  8
0
100
AcDbBlockEnd
  0
BLOCK
  5
10B
330
10A
100
AcDbEntity
  8
0
100
AcDbBlockBegin
  2
_D_1
 70
     0
 10
0.0
 20
0.0
 30
0.0
  3
_D_1
  1

  0
LINE
  5
10D
330
10A
100
AcDbEntity
  8
치수문자_일반주서
 62
     0
370
    -2
100
AcDbLine
 10
-52.83250000000005
 20
9.524999999999999
 30
0.0
 11
-61.67500000000008
 21
9.524999999999968
 31
0.0
  0
LINE
  5
10E
330
10A
100
AcDbEntity
  8
치수문자_일반주서
 62
     0
370
    -2
100
AcDbLine
 10
-52.83250000000005
 20
-9.525000000000013
 30
0.0
 11
-61.67500000000001
 21
-9.525000000000043
 31
0.0
  0
LINE
  5
10F
330
10A
100
AcDbEntity
  8
치수문자_일반주서
 62
     0
370
    -2
100
AcDbLine
 10
-61.67500000000008
 20
9.524999999999968
 30
0.0
 11
-61.67500000000001
 21
-9.525000000000043
 31
0.0
  0
LINE
  5
110
330
10A
100
AcDbEntity
  8
치수문자_일반주서
 62
     0
370
    -2
100
AcDbLine
 10
-61.67500000000009
 20
12.82699999999997
 30
0.0
 11
-61.6750000000001
 21
16.12899999999997
 31
0.0
  0
LINE
  5
111
330
10A
100
AcDbEntity
  8
치수문자_일반주서
 62
     0
370
    -2
100
AcDbLine
 10
-61.675
 20
-12.82700000000004
 30
0.0
 11
-61.67499999999998
 21
-16.12900000000004
 31
0.0
  0
SOLID
  5
112
330
10A
100
AcDbEntity
  8
치수문자_일반주서
 62
     0
100
AcDbTrace
 10
-62.22533333333342
 20
12.82699999999997
 30
0.0
 11
-61.12466666666676
 21
12.82699999999997
 31
0.0
 12
-61.67500000000008
 22
9.524999999999968
 32
0.0
 13
-61.67500000000008
 23
9.524999999999968
 33
0.0
  0
SOLID
  5
113
330
10A
100
AcDbEntity
  8
치수문자_일반주서
 62
     0
100
AcDbTrace
 10
-61.12466666666666
 20
-12.82700000000004
 30
0.0
 11
-62.22533333333333
 21
-12.82700000000004
 31
0.0
 12
-61.67500000000001
 22
-9.525000000000043
 32
0.0
 13
-61.67500000000001
 23
-9.525000000000043
 33
0.0
  0
MTEXT
  5
114
330
10A
100
AcDbEntity
  8
치수문자_일반주서
 62
     0
100
AcDbMText
 10
-66.05000000000004
 20
-0.0000000000000161
 30
0.0
 40
3.5
 41
0.0
 71
     2
 72
     1
  1
\A1;%%c19.05 [3/4]
  7
SLDTEXTSTYLE0
 11
-3.356894814614644E-15
 21
1.0
 31
0.0
 73
     1
 44
1.0
  0
POINT
  5
115
330
10A
100
AcDbEntity
  8
Defpoints
 62
     0
100
AcDbPoint
 10
-52.77000000000005
 20
9.524999999999999
 30
0.0
  0
POINT
  5
1A7
330
10A
100
AcDbEntity
  8
Defpoints
 62
     0
100
AcDbPoint
 10
-52.77000000000005
 20
-9.525000000000013
 30
0.0
  0
POINT
  5
1A8
330
10A
100
AcDbEntity
  8
Defpoints
 62
     0
100
AcDbPoint
 10
-61.67500000000001
 20
-9.525000000000047
 30
0.0
  0
ENDBLK
  5
10C
330
10A
100
AcDbEntity
  8
0
100
AcDbBlockEnd
  0
BLOCK
  5
120
330
11F
100
AcDbEntity
  8
0
100
AcDbBlockBegin
  2
_D_2
 70
     0
 10
0.0
 20
0.0
 30
0.0
  3
_D_2
  1

  0
LINE
  5
122
330
11F
100
AcDbEntity
  8
치수문자_일반주서
 62
     0
370
    -2
100
AcDbLine
 10
50.09999999999986
 20
9.649999999999991
 30
0.0
 11
50.09999999999985
 21
31.46109355028875
 31
0.0
  0
LINE
  5
123
330
11F
100
AcDbEntity
  8
치수문자_일반주서
 62
     0
370
    -2
100
AcDbLine
 10
11.99999999999999
 20
9.552192039228355
 30
0.0
 11
11.99999999999998
 21
31.46109355028875
 31
0.0
  0
LINE
  5
124
330
11F
100
AcDbEntity
  8
치수문자_일반주서
 62
     0
370
    -2
100
AcDbLine
 10
46.79799999999985
 20
31.46109355028875
 30
0.0
 11
15.30199999999998
 21
31.46109355028875
 31
0.0
  0
SOLID
  5
125
330
11F
100
AcDbEntity
  8
치수문자_일반주서
 62
     0
100
AcDbTrace
 10
46.79799999999985
 20
30.91076021695541
 30
0.0
 11
46.79799999999985
 21
32.01142688362208
 31
0.0
 12
50.09999999999985
 22
31.46109355028875
 32
0.0
 13
50.09999999999985
 23
31.46109355028875
 33
0.0
  0
SOLID
  5
126
330
11F
100
AcDbEntity
  8
치수문자_일반주서
 62
     0
100
AcDbTrace
 10
15.30199999999998
 20
32.01142688362208
 30
0.0
 11
15.30199999999998
 21
30.91076021695541
 31
0.0
 12
11.99999999999998
 22
31.46109355028875
 32
0.0
 13
11.99999999999998
 23
31.46109355028875
 33
0.0
  0
MTEXT
  5
127
330
11F
100
AcDbEntity
  8
치수문자_일반주서
 62
     0
100
AcDbMText
 10
33.41743761909088
 20
35.83609355028875
 30
0.0
 40
3.5
 41
0.0
 71
     2
 72
     1
  1
\A1;38.1 [1 1/2]
  7
SLDTEXTSTYLE0
 73
     1
 44
1.0
  0
POINT
  5
128
330
11F
100
AcDbEntity
  8
Defpoints
 62
     0
100
AcDbPoint
 10
50.09999999999986
 20
9.587499999999991
 30
0.0
  0
POINT
  5
129
330
11F
100
AcDbEntity
  8
Defpoints
 62
     0
100
AcDbPoint
 10
11.99999999999999
 20
9.489692039228355
 30
0.0
  0
POINT
  5
12A
330
11F
100
AcDbEntity
  8
Defpoints
 62
     0
100
AcDbPoint
 10
11.99999999999999
 20
31.46109355028875
 30
0.0
  0
ENDBLK
  5
121
330
11F
100
AcDbEntity
  8
0
100
AcDbBlockEnd
  0
BLOCK
  5
134
330
133
100
AcDbEntity
  8
0
100
AcDbBlockBegin
  2
_D_3
 70
     0
 10
0.0
 20
0.0
 30
0.0
  3
_D_3
  1

  0
LINE
  5
136
330
133
100
AcDbEntity
  8
치수문자_일반주서
 62
     0
370
    -2
100
AcDbLine
 10
-54.67500000000004
 20
7.682499999999997
 30
0.0
 11
-54.67500000000003
 21
53.3346871005775
 31
0.0
  0
LINE
  5
137
330
133
100
AcDbEntity
  8
치수문자_일반주서
 62
     0
370
    -2
100
AcDbLine
 10
50.09999999999986
 20
9.587499999999991
 30
0.0
 11
50.09999999999987
 21
53.3346871005775
 31
0.0
  0
LINE
  5
138
330
133
100
AcDbEntity
  8
치수문자_일반주서
 62
     0
370
    -2
100
AcDbLine
 10
-51.37300000000003
 20
53.3346871005775
 30
0.0
 11
46.79799999999987
 21
53.3346871005775
 31
0.0
  0
SOLID
  5
139
330
133
100
AcDbEntity
  8
치수문자_일반주서
 62
     0
100
AcDbTrace
 10
-51.37300000000003
 20
53.88502043391084
 30
0.0
 11
-51.37300000000003
 21
52.78435376724417
 31
0.0
 12
-54.67500000000003
 22
53.3346871005775
 32
0.0
 13
-54.67500000000003
 23
53.3346871005775
 33
0.0
  0
SOLID
  5
13A
330
133
100
AcDbEntity
  8
치수문자_일반주서
 62
     0
100
AcDbTrace
 10
46.79799999999987
 20
52.78435376724417
 30
0.0
 11
46.79799999999987
 21
53.88502043391084
 31
0.0
 12
50.09999999999987
 22
53.3346871005775
 32
0.0
 13
50.09999999999987
 23
53.3346871005775
 33
0.0
  0
MTEXT
  5
13B
330
133
100
AcDbEntity
  8
치수문자_일반주서
 62
     0
100
AcDbMText
 10
-1.158940071133118
 20
57.7096871005775
 30
0.0
 40
3.5
 41
0.0
 71
     2
 72
     1
  1
\A1;104.78 [4 1/8]
  7
SLDTEXTSTYLE0
 73
     1
 44
1.0
  0
POINT
  5
13C
330
133
100
AcDbEntity
  8
Defpoints
 62
     0
100
AcDbPoint
 10
-54.67500000000004
 20
7.619999999999997
 30
0.0
  0
POINT
  5
13D
330
133
100
AcDbEntity
  8
Defpoints
 62
     0
100
AcDbPoint
 10
50.09999999999986
 20
9.524999999999991
 30
0.0
  0
POINT
  5
13E
330
133
100
AcDbEntity
  8
Defpoints
 62
     0
100
AcDbPoint
 10
50.09999999999986
 20
53.3346871005775
 30
0.0
  0
ENDBLK
  5
135
330
133
100
AcDbEntity
  8
0
100
AcDbBlockEnd
  0
BLOCK
  5
14D
330
14C
100
AcDbEntity
  8
0
100
AcDbBlockBegin
  2
SW_DOWELSYMBOL_0
 70
     0
 10
0.0
 20
0.0
 30
0.0
  3
SW_DOWELSYMBOL_0
  1

  0
CIRCLE
  5
14F
330
14C
100
AcDbEntity
  8
해칭선
 62
     0
100
AcDbCircle
 10
0.0
 20
0.0
 30
0.0
 40
3.000000000000001
  0
HATCH
  5
150
330
14C
100
AcDbEntity
  8
0
  6
Continuous
 62
     0
370
     0
100
AcDbHatch
 10
0.0
 20
0.0
 30
0.0
210
0.0
220
0.0
230
1.0
  2
SOLID
 70
     1
 71
     0
 91
        1
 92
        0
 93
        3
 72
     2
 10
-0.0000000000000069
 20
0.0
 40
3.000000000000001
 50
0.0
 51
90.0
 73
     1
 72
     1
 10
-0.0000000000000069
 20
3.000000000000001
 11
-0.0000000000000069
 21
0.0
 72
     1
 10
-0.0000000000000069
 20
0.0
 11
2.999999999999994
 21
0.0
 97
        0
 75
     0
 76
     1
 98
        1
 10
0.0
 20
0.0
  0
HATCH
  5
151
330
14C
100
AcDbEntity
  8
0
  6
Continuous
 62
     0
370
     0
100
AcDbHatch
 10
0.0
 20
0.0
 30
0.0
210
0.0
220
0.0
230
1.0
  2
SOLID
 70
     1
 71
     0
 91
        1
 92
        0
 93
        3
 72
     2
 10
-0.0000000000000069
 20
0.0
 40
3.000000000000001
 50
180.0
 51
270.0000000000008
 73
     1
 72
     1
 10
-0.0000000000000069
 20
-3.000000000000001
 11
-0.0000000000000069
 21
0.0
 72
     1
 10
-0.0000000000000069
 20
0.0
 11
-3.000000000000008
 21
0.0
 97
        0
 75
     0
 76
     1
 98
        1
 10
0.0
 20
0.0
  0
ENDBLK
  5
14E
330
14C
100
AcDbEntity
  8
0
100
AcDbBlockEnd
  0
ENDSEC
  0
SECTION
  2
ENTITIES
  0
LINE
  5
96
330
1F
100
AcDbEntity
  8
외형선
  6
Continuous
 62
     1
370
    15
100
AcDbLine
 10
38.88793669637169
 20
-1.377797205609971
 30
0.0
 11
38.97716258086033
 21
-1.428756599301623
 31
0.0
  0
LINE
  5
97
330
1F
100
AcDbEntity
  8
외형선
  6
Continuous
 62
     1
370
    15
100
AcDbLine
 10
44.04821384989461
 20
1.371449674652409
 30
0.0
 11
43.94610556183118
 21
1.428675681394497
 31
0.0
  0
LINE
  5
98
330
1F
100
AcDbEntity
  8
외형선
  6
Continuous
 62
     1
370
    15
100
AcDbLine
 10
49.80101621252901
 20
-1.756050101420664
 30
0.0
 11
49.75151476673911
 21
-1.730660333908879
 31
0.0
  0
LINE
  5
99
330
1F
100
AcDbEntity
  8
외형선
  6
Continuous
 62
     1
370
    15
100
AcDbLine
 10
25.94275891733223
 20
-1.384666367251878
 30
0.0
 11
26.01956668330211
 21
-1.428630477403573
 31
0.0
  0
LINE
  5
9A
330
1F
100
AcDbEntity
  8
외형선
  6
Continuous
 62
     1
370
    15
100
AcDbLine
 10
31.09505981791266
 20
1.368765932626229
 30
0.0
 11
30.98927238600906
 21
1.428756500083716
 31
0.0
  0
SPLINE
  5
9B
330
1F
100
AcDbEntity
  8
외형선
  6
Continuous
370
    15
100
AcDbSpline
210
0.0
220
0.0
230
1.0
 70
     8
 71
     3
 72
     9
 73
     5
 74
     0
 42
0.000000001
 43
0.00000001
 40
0.0
 40
0.0
 40
0.0
 40
0.0
 40
0.6592579025802163
 40
1.0
 40
1.0
 40
1.0
 40
1.0
 10
11.99999999999995
 20
-0.79194220060966
 30
0.0
 10
12.17604655108254
 20
-0.901647685992327
 30
0.0
 10
12.44308400394214
 20
-1.068055225368495
 30
0.0
 10
12.71988856560368
 20
-1.228351778846828
 30
0.0
 10
12.81420753251961
 20
-1.282971562688198
 30
0.0
  0
LINE
  5
9C
330
1F
100
AcDbEntity
  8
외형선
  6
Continuous
 62
     1
370
    15
100
AcDbLine
 10
18.09631864706381
 20
1.391140494077635
 30
0.0
 11
18.03113119703014
 21
1.42872333764197
 31
0.0
  0
LINE
  5
9D
330
1F
100
AcDbEntity
  8
외형선
  6
Continuous
 62
     1
370
    15
100
AcDbLine
 10
46.42920820561024
 20
-9.525000000000006
 30
0.0
 11
47.81399999999997
 21
-9.525000000000006
 31
0.0
  0
LINE
  5
9E
330
1F
100
AcDbEntity
  8
외형선
  6
Continuous
 62
     1
370
    15
100
AcDbLine
 10
23.53721745200787
 20
9.524999999999991
 30
0.0
 11
20.51433956895423
 21
9.524999999999991
 31
0.0
  0
LINE
  5
9F
330
1F
100
AcDbEntity
  8
외형선
  6
Continuous
 62
     1
370
    15
100
AcDbLine
 10
33.47140175997572
 20
-9.525000000000006
 30
0.0
 11
36.49484628576593
 21
-9.525000000000006
 31
0.0
  0
LINE
  5
A0
330
1F
100
AcDbEntity
  8
외형선
  6
Continuous
 62
     1
370
    15
100
AcDbLine
 10
36.49484628576593
 20
9.524999999999991
 30
0.0
 11
33.47140175997585
 21
9.524999999999991
 31
0.0
  0
LINE
  5
A1
330
1F
100
AcDbEntity
  8
외형선
  6
Continuous
 62
     1
370
    15
100
AcDbLine
 10
20.51433956895408
 20
-9.525000000000006
 30
0.0
 11
23.53721745200774
 21
-9.525000000000006
 31
0.0
  0
ARC
  5
A2
330
1F
100
AcDbEntity
  8
외형선
  6
Continuous
 62
     1
370
    15
100
AcDbCircle
 10
47.81399999999997
 20
7.238999999999987
 30
0.0
 40
2.286000000000001
100
AcDbArc
 50
0.0000000000001781
 51
90.0
  0
ARC
  5
A5
330
1F
100
AcDbEntity
  8
외형선
  6
Continuous
 62
     1
370
    15
100
AcDbCircle
 10
47.81399999999997
 20
-7.239000000000007
 30
0.0
 40
2.286
100
AcDbArc
 50
270.0000000000009
 51
288.1972335011926
  0
LINE
  5
A7
330
1F
100
AcDbEntity
  8
외형선
  6
Continuous
 62
     1
370
    15
100
AcDbLine
 10
47.81399999999997
 20
9.524999999999991
 30
0.0
 11
46.42920820561026
 21
9.524999999999991
 31
0.0
  0
LINE
  5
A8
330
1F
100
AcDbEntity
  8
외형선
  6
Continuous
370
    15
100
AcDbLine
 10
-52.77000000000004
 20
-9.525000000000002
 30
0.0
 11
11.49986971623978
 21
-9.525000000000002
 31
0.0
  0
LINE
  5
A9
330
1F
100
AcDbEntity
  8
외형선
  6
Continuous
370
    15
100
AcDbLine
 10
11.49986971623978
 20
9.524999999999991
 30
0.0
 11
-52.77000000000004
 21
9.524999999999991
 31
0.0
  0
LINE
  5
AA
330
1F
100
AcDbEntity
  8
외형선
  6
Continuous
370
    15
100
AcDbLine
 10
-52.77000000000004
 20
9.524999999999991
 30
0.0
 11
-54.67500000000004
 21
7.619999999999997
 31
0.0
  0
LINE
  5
AB
330
1F
100
AcDbEntity
  8
외형선
  6
Continuous
370
    15
100
AcDbLine
 10
-54.67500000000004
 20
-7.62000000000001
 30
0.0
 11
-52.77000000000004
 21
-9.525000000000006
 31
0.0
  0
LINE
  5
AC
330
1F
100
AcDbEntity
  8
외형선
  6
Continuous
 62
     1
370
    15
100
AcDbLine
 10
50.09999999999997
 20
-4.829850244747203
 30
0.0
 11
50.09999999999997
 21
-2.254844755252825
 31
0.0
  0
SPLINE
  5
AD
330
1F
100
AcDbEntity
  8
외형선
  6
Continuous
 62
     1
370
    15
100
AcDbSpline
210
0.0
220
0.0
230
1.0
 70
     8
 71
     3
 72
    22
 73
    18
 74
     0
 42
0.000000001
 43
0.00000001
 40
0.0
 40
0.0
 40
0.0
 40
0.0
 40
0.2500000000000007
 40
0.2500000000000007
 40
0.3750000000000008
 40
0.3750000000000008
 40
0.5000000000000009
 40
0.5000000000000009
 40
0.625000000000001
 40
0.625000000000001
 40
0.6875000000000009
 40
0.6875000000000009
 40
0.7500000000000009
 40
0.7500000000000009
 40
0.8750000000000004
 40
0.8750000000000004
 40
1.0
 40
1.0
 40
1.0
 40
1.0
 10
47.81399999999997
 20
-6.035209323407747
 30
0.0
 10
48.10340912692369
 20
-6.164431724968071
 30
0.0
 10
48.37927570256648
 20
-6.258767375995596
 30
0.0
 10
48.78349133551341
 20
-6.332817831411105
 30
0.0
 10
48.91514108577808
 20
-6.345271328420712
 30
0.0
 10
49.16613412112334
 20
-6.338769924511841
 30
0.0
 10
49.28823456946005
 20
-6.319639054137583
 30
0.0
 10
49.51479670499991
 20
-6.240238695172218
 30
0.0
 10
49.62033560953363
 20
-6.179548633196915
 30
0.0
 10
49.75869492874058
 20
-6.051165417370266
 30
0.0
 10
49.80103347006178
 20
-6.002673310707174
 30
0.0
 10
49.87809963401278
 20
-5.893184242807414
 30
0.0
 10
49.91296399135256
 20
-5.831585945544957
 30
0.0
 10
50.00201086101143
 20
-5.634897513602412
 30
0.0
 10
50.04271053515104
 20
-5.48303247043096
 30
0.0
 10
50.09128428803076
 20
-5.164935620276053
 30
0.0
 10
50.09999999999999
 20
-4.997584459222374
 30
0.0
 10
50.09999999999994
 20
-4.829850244747197
 30
0.0
  0
SPLINE
  5
AE
330
1F
100
AcDbEntity
  8
외형선
  6
Continuous
 62
     1
370
    15
100
AcDbSpline
210
0.0
220
0.0
230
1.0
 70
     8
 71
     3
 72
    52
 73
    48
 74
     0
 42
0.000000001
 43
0.00000001
 40
0.0
 40
0.0
 40
0.0
 40
0.0
 40
0.0312500000000007
 40
0.0312500000000007
 40
0.0625000000000015
 40
0.0625000000000015
 40
0.0937500000000022
 40
0.0937500000000022
 40
0.1250000000000029
 40
0.1250000000000029
 40
0.1875000000000044
 40
0.1875000000000044
 40
0.2500000000000059
 40
0.2500000000000059
 40
0.3125000000000074
 40
0.3125000000000074
 40
0.3437500000000081
 40
0.3437500000000081
 40
0.3750000000000088
 40
0.3750000000000088
 40
0.4375000000000094
 40
0.4375000000000094
 40
0.4687500000000098
 40
0.4687500000000098
 40
0.50000000000001
 40
0.50000000000001
 40
0.5625000000000105
 40
0.5625000000000105
 40
0.5937500000000109
 40
0.5937500000000109
 40
0.6250000000000112
 40
0.6250000000000112
 40
0.6875000000000108
 40
0.6875000000000108
 40
0.7187500000000102
 40
0.7187500000000102
 40
0.7500000000000095
 40
0.7500000000000095
 40
0.8125000000000074
 40
0.8125000000000074
 40
0.8750000000000052
 40
0.8750000000000052
 40
0.9375000000000031
 40
0.9375000000000031
 40
0.9687500000000016
 40
0.9687500000000016
 40
1.0
 40
1.0
 40
1.0
 40
1.0
 10
47.81400000000106
 20
-6.035209323408237
 30
0.0
 10
47.440723122285
 20
-5.868539615724404
 30
0.0
 10
47.06948720217472
 20
-5.69754999656488
 30
0.0
 10
46.32455613866821
 20
-5.346736327966989
 30
0.0
 10
45.95074461473273
 20
-5.166882249133796
 30
0.0
 10
45.20300402854524
 20
-4.799489644573043
 30
0.0
 10
44.82907694712943
 20
-4.611952088505526
 30
0.0
 10
44.08368630304215
 20
-4.230510901665435
 30
0.0
 10
43.71267765326788
 20
-4.036694919887259
 30
0.0
 10
42.59334704362168
 20
-3.445317048378128
 30
0.0
 10
41.84316343514926
 20
-3.038538641262205
 30
0.0
 10
40.35548753200196
 20
-2.211174469066696
 30
0.0
 10
39.60744566271657
 20
-1.78865397163708
 30
0.0
 10
38.11328422974359
 20
-0.9355742316074859
 30
0.0
 10
37.37108697848835
 20
-0.5057867360470077
 30
0.0
 10
36.24965034721738
 20
0.1408041297186337
 30
0.0
 10
35.87555864657279
 20
0.356445294930949
 30
0.0
 10
35.12939713610775
 20
0.7864618592365265
 30
0.0
 10
34.75841184647216
 20
1.000630126898552
 30
0.0
 10
33.64021807419703
 20
1.641347115712466
 30
0.0
 10
32.88990373605486
 20
2.065671094254116
 30
0.0
 10
31.77262667368348
 20
2.689182892026442
 30
0.0
 10
31.40133916505736
 20
2.894910637275121
 30
0.0
 10
30.65473437458128
 20
3.302351077865069
 30
0.0
 10
30.28057377566785
 20
3.503846675882094
 30
0.0
 10
29.15939104618263
 20
4.09956435460481
 30
0.0
 10
28.41735644866231
 20
4.484394957181985
 30
0.0
 10
27.29632340800513
 20
5.04062815917874
 30
0.0
 10
26.92214372587493
 20
5.222389466478651
 30
0.0
 10
26.17536324792064
 20
5.577363879802414
 30
0.0
 10
25.80385520926403
 20
5.750413140077923
 30
0.0
 10
24.6870254099757
 20
6.256322591057708
 30
0.0
 10
23.93673506623469
 20
6.576237911789767
 30
0.0
 10
22.81816438200097
 20
7.023431899903505
 30
0.0
 10
22.44723027464201
 20
7.1669798814987
 30
0.0
 10
21.70129161091939
 20
7.443395514052088
 30
0.0
 10
21.32724277053987
 20
7.576127593024087
 30
0.0
 10
20.20572755582313
 20
7.956482502360988
 30
0.0
 10
19.46338406951677
 20
8.185815626761357
 30
0.0
 10
17.96951689280123
 20
8.593869425720953
 30
0.0
 10
17.22071559263848
 20
8.77220832712289
 30
0.0
 10
15.73372943713387
 20
9.07334634942466
 30
0.0
 10
14.9836177953012
 20
9.196921636413943
 30
0.0
 10
13.86398088093401
 20
9.339082125881237
 30
0.0
 10
13.49285403095193
 20
9.37926377628936
 30
0.0
 10
12.74773324133125
 20
9.445309919620883
 30
0.0
 10
12.37387276792209
 20
9.471149845820396
 30
0.0
 10
11.99999999999998
 20
9.489692039228363
 30
0.0
  0
SPLINE
  5
AF
330
1F
100
AcDbEntity
  8
외형선
  6
Continuous
 62
     1
370
    15
100
AcDbSpline
210
0.0
220
0.0
230
1.0
 70
     8
 71
     3
 72
    20
 73
    16
 74
     0
 42
0.000000001
 43
0.00000001
 40
0.0
 40
0.0
 40
0.0
 40
0.0
 40
0.0776838350722306
 40
0.1553585093954319
 40
0.2330467147415809
 40
0.3107710742847252
 40
0.3885151916755731
 40
0.4662163637325081
 40
0.5438941409375022
 40
0.6215711993252708
 40
0.7029664342405865
 40
0.784385724228047
 40
0.8658242642440932
 40
0.9472361356254824
 40
1.0
 40
1.0
 40
1.0
 40
1.0
 10
47.81400000000099
 20
-0.7986609635183866
 30
0.0
 10
46.97855899467048
 20
-0.316157858935375
 30
0.0
 10
45.30777550212941
 20
0.648791451780117
 30
0.0
 10
42.8016157563686
 20
2.086442761666141
 30
0.0
 10
40.29492811497117
 20
3.474773601850683
 30
0.0
 10
37.78722586971415
 20
4.783327407222848
 30
0.0
 10
35.27914802214163
 20
5.981276943637471
 30
0.0
 10
32.77201976851205
 20
7.041783886821954
 30
0.0
 10
30.26571524018059
 20
7.939757964970346
 30
0.0
 10
27.71973272652272
 20
8.666266877020782
 30
0.0
 10
25.13323463180726
 20
9.192753782856244
 30
0.0
 10
22.50617875556195
 20
9.497345524074344
 30
0.0
 10
19.87871529153017
 20
9.552414284836154
 30
0.0
 10
17.55972243600329
 20
9.418366135698932
 30
0.0
 10
16.11669953446417
 20
9.168653263231398
 30
0.0
 10
15.54923877684516
 20
9.070455060246193
 30
0.0
  0
SPLINE
  5
B0
330
1F
100
AcDbEntity
  8
외형선
  6
Continuous
 62
     1
370
    15
100
AcDbSpline
210
0.0
220
0.0
230
1.0
 70
     8
 71
     3
 72
    18
 73
    14
 74
     0
 42
0.000000001
 43
0.00000001
 40
0.0
 40
0.0
 40
0.0
 40
0.0
 40
0.2499999999999968
 40
0.2499999999999968
 40
0.4999999999999936
 40
0.4999999999999936
 40
0.6249999999999951
 40
0.6249999999999951
 40
0.7499999999999968
 40
0.7499999999999968
 40
0.8749999999999983
 40
0.8749999999999983
 40
1.0
 40
1.0
 40
1.0
 40
1.0
 10
50.09999999999997
 20
-2.25484475525279
 30
0.0
 10
50.09999999999999
 20
-2.088701234371542
 30
0.0
 10
50.06125087998713
 20
-1.973316507116262
 30
0.0
 10
49.85190783946191
 20
-1.772191542047986
 30
0.0
 10
49.6872872383868
 20
-1.691157871830328
 30
0.0
 10
49.35875451453687
 20
-1.548232740908027
 30
0.0
 10
49.23899076823533
 20
-1.498469112762338
 30
0.0
 10
48.98209469202446
 20
-1.388505461109806
 30
0.0
 10
48.84335720884582
 20
-1.32757956299296
 30
0.0
 10
48.55791556298613
 20
-1.194496905750525
 30
0.0
 10
48.41214113998507
 20
-1.12284885844235
 30
0.0
 10
48.11557426542926
 20
-0.9683071065449438
 30
0.0
 10
47.96416909563373
 20
-0.8850247453412012
 30
0.0
 10
47.81399999999996
 20
-0.7986609635177888
 30
0.0
  0
LINE
  5
B1
330
1F
100
AcDbEntity
  8
외형선
  6
Continuous
 62
     1
370
    15
100
AcDbLine
 10
50.09999999999997
 20
-7.228070998977584
 30
0.0
 11
50.09999999999997
 21
-6.458508744784619
 31
0.0
  0
SPLINE
  5
B3
330
1F
100
AcDbEntity
  8
외형선
  6
Continuous
 62
     1
370
    15
100
AcDbSpline
210
0.0
220
0.0
230
1.0
 70
     8
 71
     3
 72
    52
 73
    48
 74
     0
 42
0.000000001
 43
0.00000001
 40
0.0
 40
0.0
 40
0.0
 40
0.0
 40
0.0312500000000004
 40
0.0312500000000004
 40
0.0625000000000007
 40
0.0625000000000007
 40
0.0937500000000011
 40
0.0937500000000011
 40
0.1250000000000014
 40
0.1250000000000014
 40
0.1875000000000022
 40
0.1875000000000022
 40
0.2500000000000029
 40
0.2500000000000029
 40
0.3125000000000036
 40
0.3125000000000036
 40
0.3437500000000035
 40
0.3437500000000035
 40
0.3750000000000034
 40
0.3750000000000034
 40
0.4375000000000033
 40
0.4375000000000033
 40
0.4687500000000027
 40
0.4687500000000027
 40
0.5000000000000022
 40
0.5000000000000022
 40
0.562500000000002
 40
0.562500000000002
 40
0.593750000000002
 40
0.593750000000002
 40
0.6250000000000019
 40
0.6250000000000019
 40
0.6875000000000008
 40
0.6875000000000008
 40
0.7187500000000003
 40
0.7187500000000003
 40
0.7499999999999998
 40
0.7499999999999998
 40
0.8124999999999996
 40
0.8124999999999996
 40
0.8749999999999994
 40
0.8749999999999994
 40
0.9374999999999992
 40
0.9374999999999992
 40
0.9687499999999997
 40
0.9687499999999997
 40
1.0
 40
1.0
 40
1.0
 40
1.0
 10
47.81400000000106
 20
-9.478193511484449
 30
0.0
 10
47.44072312228496
 20
-9.45686229648075
 30
0.0
 10
47.06948720217472
 20
-9.42830832997603
 30
0.0
 10
46.32455613866824
 20
-9.356750647469195
 30
0.0
 10
45.95074461473272
 20
-9.31372359481091
 30
0.0
 10
45.20300402854524
 20
-9.213415973862439
 30
0.0
 10
44.82907694712939
 20
-9.156135664579821
 30
0.0
 10
44.08368630304211
 20
-9.027761494277122
 30
0.0
 10
43.71267765326787
 20
-8.956714768120396
 30
0.0
 10
42.59334704362168
 20
-8.722740569597825
 30
0.0
 10
41.84316343514923
 20
-8.539115269174243
 30
0.0
 10
40.35548753200189
 20
-8.121795740595385
 30
0.0
 10
39.60744566271654
 20
-7.887158518644195
 30
0.0
 10
38.11328422974358
 20
-7.371098573967973
 30
0.0
 10
37.37108697848838
 20
-7.090238692405801
 30
0.0
 10
36.24965034721741
 20
-6.636616941512087
 30
0.0
 10
35.87555864657281
 20
-6.480152650184042
 30
0.0
 10
35.12939713610772
 20
-6.157809525587594
 30
0.0
 10
34.75841184647216
 20
-5.992101782597593
 30
0.0
 10
33.64021807419699
 20
-5.480818038100531
 30
0.0
 10
32.88990373605488
 20
-5.121294697353623
 30
0.0
 10
31.77262667368348
 20
-4.561442114868028
 30
0.0
 10
31.40133916505734
 20
-4.371381820689815
 30
0.0
 10
30.65473437458125
 20
-3.984161869281947
 30
0.0
 10
30.28057377566783
 20
-3.787194065884265
 30
0.0
 10
29.15939104618266
 20
-3.188246460727257
 30
0.0
 10
28.41735644866232
 20
-2.778911349136008
 30
0.0
 10
27.29632340800513
 20
-2.152560968756862
 30
0.0
 10
26.92214372587495
 20
-1.941868904923557
 30
0.0
 10
26.17536324792063
 20
-1.518124434531174
 30
0.0
 10
25.80385520926404
 20
-1.305282351351944
 30
0.0
 10
24.68702540997567
 20
-0.6638111683134279
 30
0.0
 10
23.9367350662347
 20
-0.2317121972716361
 30
0.0
 10
22.81816438200099
 20
0.4142065734859063
 30
0.0
 10
22.44723027464202
 20
0.6289907977016513
 30
0.0
 10
21.70129161091936
 20
1.058048068314707
 30
0.0
 10
21.32724277053983
 20
1.272135845554449
 30
0.0
 10
20.20572755582315
 20
1.91085430487607
 30
0.0
 10
19.46338406951679
 20
2.331096790399797
 30
0.0
 10
17.96951689280115
 20
3.156445740558252
 30
0.0
 10
17.22071559263843
 20
3.561001739463324
 30
0.0
 10
15.73372943713389
 20
4.343971585079142
 30
0.0
 10
14.98361779530121
 20
4.724458448554108
 30
0.0
 10
13.863980880934
 20
5.270766091542575
 30
0.0
 10
13.4928540309519
 20
5.448631735007975
 30
0.0
 10
12.74773324133124
 20
5.79620518207384
 30
0.0
 10
12.37387276792207
 20
5.965880126352169
 30
0.0
 10
11.99999999999996
 20
6.130842299228108
 30
0.0
  0
SPLINE
  5
B4
330
1F
100
AcDbEntity
  8
외형선
  6
Continuous
370
    15
100
AcDbSpline
210
0.0
220
0.0
230
1.0
 70
    24
 71
     3
 72
    14
 73
    10
 74
     0
 42
0.000000001
 43
0.00000001
 40
0.0
 40
0.0
 40
0.0
 40
0.0
 40
0.2109289387380625
 40
0.3609340460685081
 40
0.5152893116736065
 40
0.6652944190039991
 40
0.8196496846090408
 40
0.9696547919394353
 40
1.0
 40
1.0
 40
1.0
 40
1.0
 10
12.0
 20
9.181808508264897
 30
0.0
 10
11.99999999999999
 20
8.972134825069983
 30
0.0
 10
11.99999999999998
 20
8.613348727333026
 30
0.0
 10
11.99999999999999
 20
8.067991558044024
 30
0.0
 10
11.99999999999996
 20
7.588338281625538
 30
0.0
 10
11.99999999999998
 20
7.114572063983279
 30
0.0
 10
11.99999999999999
 20
6.675544147118455
 30
0.0
 10
11.99999999999995
 20
6.36719533198665
 30
0.0
 10
11.99999999999995
 20
6.228382396024435
 30
0.0
 10
11.99999999999995
 20
6.205026143976081
 30
0.0
  0
SPLINE
  5
B5
330
1F
100
AcDbEntity
  8
외형선
  6
Continuous
 62
     1
370
    15
100
AcDbSpline
210
0.0
220
0.0
230
1.0
 70
     8
 71
     3
 72
    52
 73
    48
 74
     0
 42
0.000000001
 43
0.00000001
 40
0.0
 40
0.0
 40
0.0
 40
0.0
 40
0.0312499999999998
 40
0.0312499999999998
 40
0.0624999999999996
 40
0.0624999999999996
 40
0.0937499999999993
 40
0.0937499999999993
 40
0.1249999999999991
 40
0.1249999999999991
 40
0.1874999999999996
 40
0.1874999999999996
 40
0.25
 40
0.25
 40
0.3125000000000004
 40
0.3125000000000004
 40
0.3437500000000007
 40
0.3437500000000007
 40
0.3750000000000009
 40
0.3750000000000009
 40
0.4375000000000013
 40
0.4375000000000013
 40
0.4687500000000016
 40
0.4687500000000016
 40
0.5000000000000018
 40
0.5000000000000018
 40
0.5625000000000031
 40
0.5625000000000031
 40
0.5937500000000033
 40
0.5937500000000033
 40
0.6250000000000036
 40
0.6250000000000036
 40
0.6875000000000031
 40
0.6875000000000031
 40
0.7187500000000024
 40
0.7187500000000024
 40
0.7500000000000018
 40
0.7500000000000018
 40
0.8125000000000013
 40
0.8125000000000013
 40
0.8750000000000009
 40
0.8750000000000009
 40
0.9375000000000004
 40
0.9375000000000004
 40
0.9687500000000002
 40
0.9687500000000002
 40
1.0
 40
1.0
 40
1.0
 40
1.0
 10
47.814000000001
 20
-7.276212551883143
 30
0.0
 10
47.44072312228491
 20
-7.13718726993554
 30
0.0
 10
47.06948720217469
 20
-6.992840881707137
 30
0.0
 10
46.32455613866821
 20
-6.693348884330415
 30
0.0
 10
45.95074461473272
 20
-6.538173206390397
 30
0.0
 10
45.20300402854523
 20
-6.217994505511816
 30
0.0
 10
44.82907694712939
 20
-6.052992326144707
 30
0.0
 10
44.08368630304216
 20
-5.714330175931685
 30
0.0
 10
43.71267765326785
 20
-5.540752566147278
 30
0.0
 10
42.59334704362173
 20
-5.006698670846344
 30
0.0
 10
41.84316343514929
 20
-4.633507959399535
 30
0.0
 10
40.35548753200204
 20
-3.86317001349918
 30
0.0
 10
39.60744566271664
 20
-3.464229865714866
 30
0.0
 10
38.11328422974363
 20
-2.647860312570992
 30
0.0
 10
37.37108697848842
 20
-2.23119416265004
 30
0.0
 10
36.24965034721746
 20
-1.596338457764722
 30
0.0
 10
35.87555864657284
 20
-1.383277196617406
 30
0.0
 10
35.12939713610782
 20
-0.9557442214132743
 30
0.0
 10
34.75841184647219
 20
-0.7414825174950673
 30
0.0
 10
33.64021807419711
 20
-0.0964829608164304
 30
0.0
 10
32.88990373605496
 20
0.3360643803193364
 30
0.0
 10
31.77262667368356
 20
0.979787623441604
 30
0.0
 10
31.40133916505748
 20
1.193558565970123
 30
0.0
 10
30.65473437458142
 20
1.619712008595816
 30
0.0
 10
30.28057377566796
 20
1.831871166820103
 30
0.0
 10
29.15939104618269
 20
2.463394680639901
 30
0.0
 10
28.41735644866248
 20
2.877129042558925
 30
0.0
 10
27.29632340800531
 20
3.484075652854964
 30
0.0
 10
26.9221437258751
 20
3.68395861728693
 30
0.0
 10
26.17536324792078
 20
4.077483797277822
 30
0.0
 10
25.80385520926421
 20
4.27094057833881
 30
0.0
 10
24.68702540997584
 20
4.841463104951969
 30
0.0
 10
23.93673506623488
 20
5.209051335717636
 30
0.0
 10
22.81816438200113
 20
5.733677835154005
 30
0.0
 10
22.4472302746422
 20
5.903999061123171
 30
0.0
 10
21.70129161091955
 20
6.235953041951628
 30
0.0
 10
21.32724277054005
 20
6.397429466863513
 30
0.0
 10
20.20572755582334
 20
6.866651774420424
 30
0.0
 10
19.46338406951699
 20
7.158614276089198
 30
0.0
 10
17.96951689280139
 20
7.698091768899822
 30
0.0
 10
17.22071559263868
 20
7.945159129451222
 30
0.0
 10
15.73372943713414
 20
8.388064239129484
 30
0.0
 10
14.98361779530149
 20
8.585057704070532
 30
0.0
 10
13.86398088093429
 20
8.839645499844686
 30
0.0
 10
13.49285403095219
 20
8.91764433833395
 30
0.0
 10
12.74773324133153
 20
9.060070538099815
 30
0.0
 10
12.37387276792235
 20
9.124469754746293
 30
0.0
 10
12.00000000000025
 20
9.181808508261145
 30
0.0
  0
SPLINE
  5
B6
330
1F
100
AcDbEntity
  8
외형선
  6
Continuous
 62
     1
370
    15
100
AcDbSpline
210
0.0
220
0.0
230
1.0
 70
     8
 71
     3
 72
    18
 73
    14
 74
     0
 42
0.000000001
 43
0.00000001
 40
0.0
 40
0.0
 40
0.0
 40
0.0
 40
0.25
 40
0.25
 40
0.5
 40
0.5
 40
0.625
 40
0.625
 40
0.75
 40
0.75
 40
0.875
 40
0.875
 40
1.0
 40
1.0
 40
1.0
 40
1.0
 10
50.09999999999997
 20
-6.45850874478458
 30
0.0
 10
50.09999999999996
 20
-6.556061671633452
 30
0.0
 10
50.06125087998713
 20
-6.699514657523349
 30
0.0
 10
49.85190783946189
 20
-7.000610066715393
 30
0.0
 10
49.68728723838676
 20
-7.149700328957295
 30
0.0
 10
49.35875451453681
 20
-7.314906625669514
 30
0.0
 10
49.23899076823537
 20
-7.358784743298578
 30
0.0
 10
48.98209469202453
 20
-7.420180296519658
 30
0.0
 10
48.84335720884578
 20
-7.437699787602235
 30
0.0
 10
48.55791556298606
 20
-7.442126521787249
 30
0.0
 10
48.41214113998501
 20
-7.429425544029666
 30
0.0
 10
48.11557426542922
 20
-7.374622899471344
 30
0.0
 10
47.96416909563374
 20
-7.332142351199667
 30
0.0
 10
47.81399999999996
 20
-7.276212551882757
 30
0.0
  0
SPLINE
  5
B7
330
1F
100
AcDbEntity
  8
외형선
  6
Continuous
 62
     1
370
    15
100
AcDbSpline
210
0.0
220
0.0
230
1.0
 70
     8
 71
     3
 72
    19
 73
    15
 74
     0
 42
0.000000001
 43
0.00000001
 40
0.0
 40
0.0
 40
0.0
 40
0.0
 40
0.0850833090718902
 40
0.1701910109737208
 40
0.255345862181845
 40
0.3404834331746279
 40
0.4255801753144421
 40
0.5106608617592538
 40
0.5957503470596148
 40
0.6808734411492671
 40
0.770077052988726
 40
0.8592578766560547
 40
0.9484128487300302
 40
0.9999999999999999
 40
0.9999999999999999
 40
0.9999999999999999
 40
0.9999999999999999
 10
11.99999999999998
 20
-0.8193717108894181
 30
0.0
 10
12.83534331385967
 20
-1.298188570595382
 30
0.0
 10
14.50626942906039
 20
-2.255959563678947
 30
0.0
 10
17.01334781507887
 20
-3.635695031051132
 30
0.0
 10
19.52139561095304
 20
-4.932582264731152
 30
0.0
 10
22.02914754034758
 20
-6.115660579682602
 30
0.0
 10
24.53587785975002
 20
-7.157940881650946
 30
0.0
 10
27.04205546615914
 20
-8.035071103364128
 30
0.0
 10
29.54853959255783
 20
-8.727249666568856
 30
0.0
 10
32.09570679566822
 20
-9.225336741503508
 30
0.0
 10
34.68340246720653
 20
-9.509526030406228
 30
0.0
 10
37.31043200728833
 20
-9.547057758083263
 30
0.0
 10
39.56798151854319
 20
-9.405497392664614
 30
0.0
 10
40.94984129352341
 20
-9.159406744027734
 30
0.0
 10
41.45634359398667
 20
-9.06920549357245
 30
0.0
  0
SPLINE
  5
B8
330
1F
100
AcDbEntity
  8
외형선
  6
Continuous
370
    15
100
AcDbSpline
210
0.0
220
0.0
230
1.0
 70
    24
 71
     3
 72
    22
 73
    18
 74
     0
 42
0.000000001
 43
0.00000001
 40
0.0
 40
0.0
 40
0.0
 40
0.0
 40
0.0934016482144698
 40
0.159825555474777
 40
0.2281757605455091
 40
0.2945996678057927
 40
0.3629498728764998
 40
0.4293737801367838
 40
0.4977239852074916
 40
0.5641478924677876
 40
0.632498097538482
 40
0.6989220047987653
 40
0.767272209869473
 40
0.8336961171297561
 40
0.9020463222004643
 40
0.9684702294607488
 40
1.0
 40
1.0
 40
1.0
 40
1.0
 10
12.0
 20
4.700869328688129
 30
0.0
 10
11.99999999999999
 20
4.60731793378198
 30
0.0
 10
11.99999999999998
 20
4.447236137131211
 30
0.0
 10
11.99999999999993
 20
4.097321717199447
 30
0.0
 10
11.99999999999998
 20
3.736426238414303
 30
0.0
 10
11.99999999999998
 20
3.321964846568442
 30
0.0
 10
11.99999999999998
 20
2.87523757520669
 30
0.0
 10
11.99999999999999
 20
2.400281969955842
 30
0.0
 10
11.99999999999995
 20
1.919243425137375
 30
0.0
 10
11.99999999999991
 20
1.43703146560341
 30
0.0
 10
11.99999999999999
 20
0.9760137605146999
 30
0.0
 10
12.00000000000003
 20
0.5408309478153007
 30
0.0
 10
11.99999999999998
 20
0.152036493628046
 30
0.0
 10
12.00000000000002
 20
-0.1878673768273566
 30
0.0
 10
11.99999999999996
 20
-0.4575367971836575
 30
0.0
 10
11.99999999999998
 20
-0.6357069378789355
 30
0.0
 10
11.99999999999998
 20
-0.6917669549989953
 30
0.0
 10
11.99999999999998
 20
-0.7098118055439573
 30
0.0
  0
SPLINE
  5
B9
330
1F
100
AcDbEntity
  8
외형선
  6
Continuous
 62
     1
370
    15
100
AcDbSpline
210
0.0
220
0.0
230
1.0
 70
     8
 71
     3
 72
    21
 73
    17
 74
     0
 42
0.000000001
 43
0.00000001
 40
0.0
 40
0.0
 40
0.0
 40
0.0
 40
0.0325763232807919
 40
0.105367796507567
 40
0.1781719500977062
 40
0.2510099849662098
 40
0.3238665355588506
 40
0.3966828406770044
 40
0.4694772217156087
 40
0.542270929127124
 40
0.6185490611534273
 40
0.694849735973186
 40
0.7711684506232063
 40
0.8474621732250133
 40
0.9237360079108585
 40
1.0
 40
1.0
 40
1.0
 40
1.0
 10
46.42920820561026
 20
-9.49782730146288
 30
0.0
 10
46.05536890774577
 20
-9.503951368972032
 30
0.0
 10
44.8461893841885
 20
-9.523759604958059
 30
0.0
 10
42.80161785587485
 20
-9.323500285795166
 30
0.0
 10
40.29492755202906
 20
-8.910099937204006
 30
0.0
 10
37.78722602082427
 20
-8.27872276924067
 30
0.0
 10
35.27914798094417
 20
-7.460109247678276
 30
0.0
 10
32.77201978225832
 20
-6.468356968119967
 30
0.0
 10
30.26571522637333
 20
-5.32789239830992
 30
0.0
 10
27.71973276889014
 20
-4.044546832451973
 30
0.0
 10
25.13323446820911
 20
-2.642140826841827
 30
0.0
 10
22.50617936465781
 20
-1.151354624400403
 30
0.0
 10
19.87871301855382
 20
0.3688869511089644
 30
0.0
 10
17.25184170158047
 20
1.87782051243685
 30
0.0
 10
14.62571382549659
 20
3.347635269602387
 30
0.0
 10
12.87520029084636
 20
4.249810713466194
 30
0.0
 10
12.00000000000025
 20
4.700869328686541
 30
0.0
  0
LINE
  5
BA
330
1F
100
AcDbEntity
  8
외형선
  6
Continuous
 62
     1
370
    15
100
AcDbLine
 10
50.09999999999997
 20
0.3976312786250837
 30
0.0
 11
50.09999999999997
 21
3.269676710860233
 31
0.0
  0
SPLINE
  5
BB
330
1F
100
AcDbEntity
  8
외형선
  6
Continuous
 62
     1
370
    15
100
AcDbSpline
210
0.0
220
0.0
230
1.0
 70
     8
 71
     3
 72
    22
 73
    18
 74
     0
 42
0.000000001
 43
0.00000001
 40
0.0
 40
0.0
 40
0.0
 40
0.0
 40
0.2500000000000012
 40
0.2500000000000012
 40
0.3750000000000015
 40
0.3750000000000015
 40
0.5000000000000019
 40
0.5000000000000019
 40
0.6250000000000022
 40
0.6250000000000022
 40
0.6875000000000019
 40
0.6875000000000019
 40
0.7500000000000014
 40
0.7500000000000014
 40
0.8750000000000008
 40
0.8750000000000008
 40
1.0
 40
1.0
 40
1.0
 40
1.0
 10
47.81399999999997
 20
0.9431186345606076
 30
0.0
 10
48.10340912692369
 20
0.7769090849338511
 30
0.0
 10
48.37927570256645
 20
0.6037547779224613
 30
0.0
 10
48.78349133551342
 20
0.3520356336674879
 30
0.0
 10
48.91514108577811
 20
0.2705828130542323
 30
0.0
 10
49.16613412112341
 20
0.1233026291354744
 30
0.0
 10
49.28823456946012
 20
0.0558632861185792
 30
0.0
 10
49.51479670499994
 20
-0.0504779436611602
 30
0.0
 10
49.6203356095337
 20
-0.0898427144886598
 30
0.0
 10
49.75869492874061
 20
-0.1149198929205658
 30
0.0
 10
49.80103347006175
 20
-0.1175715459872727
 30
0.0
 10
49.87809963401273
 20
-0.1099541365025396
 30
0.0
 10
49.91296399135254
 20
-0.0994270910760153
 30
0.0
 10
50.00201086101141
 20
-0.0481803830907884
 30
0.0
 10
50.04271053515107
 20
0.013681597464495
 30
0.0
 10
50.09128428803081
 20
0.1786810537235239
 30
0.0
 10
50.09999999999999
 20
0.2818215556146753
 30
0.0
 10
50.09999999999994
 20
0.3976312786250876
 30
0.0
  0
SPLINE
  5
BC
330
1F
100
AcDbEntity
  8
외형선
  6
Continuous
 62
     1
370
    15
100
AcDbSpline
210
0.0
220
0.0
230
1.0
 70
     8
 71
     3
 72
    17
 73
    13
 74
     0
 42
0.000000001
 43
0.00000001
 40
0.0
 40
0.0
 40
0.0
 40
0.0
 40
0.0411438880169539
 40
0.1443759152089132
 40
0.2476186184277503
 40
0.3509021006246965
 40
0.4591366491200862
 40
0.5673435477538754
 40
0.6755190795463815
 40
0.7836774749909405
 40
0.8918330176673408
 40
1.0
 40
1.0
 40
1.0
 40
1.0
 10
23.53721745200787
 20
9.498656378928374
 30
0.0
 10
23.87015439436863
 20
9.505245648102974
 30
0.0
 10
25.03844640751986
 20
9.528367715887352
 30
0.0
 10
27.04204858406615
 20
9.338081403382574
 30
0.0
 10
29.54854141081139
 20
8.935898350094636
 30
0.0
 10
32.09570637278752
 20
8.304210268626719
 30
0.0
 10
34.68340222525717
 20
7.464103096310918
 30
0.0
 10
37.31043340006801
 20
6.421045047173516
 30
0.0
 10
39.93670550975995
 20
5.216040639459756
 30
0.0
 10
42.56247840927065
 20
3.878673332992171
 30
0.0
 10
45.18816002101431
 20
2.444951420505098
 30
0.0
 10
46.93868914960634
 20
1.443747211905194
 30
0.0
 10
47.81400000000106
 20
0.9431186345599805
 30
0.0
  0
SPLINE
  5
BD
330
1F
100
AcDbEntity
  8
외형선
  6
Continuous
 62
     1
370
    15
100
AcDbSpline
210
0.0
220
0.0
230
1.0
 70
     8
 71
     3
 72
    15
 73
    11
 74
     0
 42
0.000000001
 43
0.00000001
 40
0.0
 40
0.0
 40
0.0
 40
0.0
 40
0.1297258477681316
 40
0.2594363978114144
 40
0.3891695435906246
 40
0.5189630640134311
 40
0.6487895784759997
 40
0.7785443776345506
 40
0.9082601092445104
 40
1.0
 40
1.0
 40
1.0
 40
1.0
 10
47.81400000000102
 20
6.146735385537473
 30
0.0
 10
46.97855899610786
 20
6.501584158280299
 30
0.0
 10
45.30777550644124
 20
7.211239858759869
 30
0.0
 10
42.80161573912244
 20
8.071725824917834
 30
0.0
 10
40.29492817966977
 20
8.756526764579412
 30
0.0
 10
37.78722562802295
 20
9.23618949559441
 30
0.0
 10
35.27914892419785
 20
9.505696181655157
 30
0.0
 10
32.77201640451698
 20
9.548387246539399
 30
0.0
 10
30.51027831016418
 20
9.413883050093489
 30
0.0
 10
29.08412656409793
 20
9.172516040131637
 30
0.0
 10
28.49333097269511
 20
9.072527686305428
 30
0.0
  0
SPLINE
  5
BE
330
1F
100
AcDbEntity
  8
외형선
  6
Continuous
 62
     1
370
    15
100
AcDbSpline
210
0.0
220
0.0
230
1.0
 70
     8
 71
     3
 72
    18
 73
    14
 74
     0
 42
0.000000001
 43
0.00000001
 40
0.0
 40
0.0
 40
0.0
 40
0.0
 40
0.2499999999999999
 40
0.2499999999999999
 40
0.4999999999999998
 40
0.4999999999999998
 40
0.6249999999999998
 40
0.6249999999999998
 40
0.7499999999999999
 40
0.7499999999999999
 40
0.8749999999999999
 40
0.8749999999999999
 40
1.0
 40
1.0
 40
1.0
 40
1.0
 10
50.09999999999997
 20
3.269676710860244
 30
0.0
 10
50.09999999999997
 20
3.602192058239796
 30
0.0
 10
50.06125087998715
 20
3.90882369030482
 30
0.0
 10
49.85190783946188
 20
4.494352752828237
 30
0.0
 10
49.68728723838684
 20
4.758041930500839
 30
0.0
 10
49.3587545145369
 20
5.125374885767326
 30
0.0
 10
49.2389907682354
 20
5.23962940123288
 30
0.0
 10
48.98209469202457
 20
5.456537041989036
 30
0.0
 10
48.84335720884576
 20
5.560218764488243
 30
0.0
 10
48.5579155629861
 20
5.752852797462166
 30
0.0
 10
48.41214113998505
 20
5.841477459925359
 30
0.0
 10
48.11557426542923
 20
6.005229856853251
 30
0.0
 10
47.96416909563373
 20
6.080528353302342
 30
0.0
 10
47.81399999999996
 20
6.146735385537935
 30
0.0
  0
LINE
  5
BF
330
1F
100
AcDbEntity
  8
외형선
  6
Continuous
370
    15
100
AcDbLine
 10
11.99999999999998
 20
9.181808508261184
 30
0.0
 11
11.99999999999998
 21
9.489692039228366
 31
0.0
  0
LINE
  5
C0
330
1F
100
AcDbEntity
  8
외형선
  6
Continuous
 62
     1
370
    15
100
AcDbLine
 10
50.09999999999997
 20
-2.254844755252825
 30
0.0
 11
50.09999999999997
 21
0.3976312786250837
 31
0.0
  0
LINE
  5
C1
330
1F
100
AcDbEntity
  8
외형선
  6
Continuous
370
    15
100
AcDbLine
 10
11.99999999999995
 20
4.700869328686696
 30
0.0
 11
11.99999999999996
 21
6.130842299228097
 31
0.0
  0
SPLINE
  5
C2
330
1F
100
AcDbEntity
  8
외형선
  6
Continuous
 62
     1
370
    15
100
AcDbSpline
210
0.0
220
0.0
230
1.0
 70
     8
 71
     3
 72
    16
 73
    12
 74
     0
 42
0.000000001
 43
0.00000001
 40
0.0
 40
0.0
 40
0.0
 40
0.0
 40
0.0325841276098962
 40
0.1493095323979573
 40
0.2660338570285448
 40
0.3883454380903512
 40
0.5106931664021738
 40
0.6330698214863595
 40
0.755406401953486
 40
0.8777110922526081
 40
1.0
 40
1.0
 40
1.0
 40
1.0
 10
33.47140175997572
 20
-9.50289053149163
 30
0.0
 10
33.23819469097737
 20
-9.509368920550042
 30
0.0
 10
32.1695750599435
 20
-9.53905470046669
 30
0.0
 10
30.26572683130398
 20
-9.371221066678778
 30
0.0
 10
27.71972949328057
 20
-8.990767395822548
 30
0.0
 10
25.13323536347122
 20
-8.368057833837558
 30
0.0
 10
22.50617912468312
 20
-7.528755801034943
 30
0.0
 10
19.87871308281631
 20
-6.498260713586952
 30
0.0
 10
17.25184168445107
 20
-5.302302000761918
 30
0.0
 10
14.62571382977781
 20
-3.976863935994912
 30
0.0
 10
12.87520029227335
 20
-3.014784184862464
 30
0.0
 10
12.00000000000025
 20
-2.533775348688855
 30
0.0
  0
LINE
  5
C3
330
1F
100
AcDbEntity
  8
외형선
  6
Continuous
370
    15
100
AcDbLine
 10
11.99999999999996
 20
-2.533775348688699
 30
0.0
 11
11.99999999999998
 21
-0.8193717108894149
 31
0.0
  0
SPLINE
  5
C4
330
1F
100
AcDbEntity
  8
외형선
  6
Continuous
 62
     1
370
    15
100
AcDbSpline
210
0.0
220
0.0
230
1.0
 70
     8
 71
     3
 72
    14
 73
    10
 74
     0
 42
0.000000001
 43
0.00000001
 40
0.0
 40
0.0
 40
0.0
 40
0.0
 40
0.151952024609749
 40
0.3039476128741776
 40
0.4560274060505732
 40
0.6080763381364043
 40
0.7600523531373358
 40
0.9119996939436609
 40
0.9999999999999999
 40
0.9999999999999999
 40
0.9999999999999999
 40
0.9999999999999999
 10
11.99999999999998
 20
-7.289608885392672
 30
0.0
 10
12.83534331979553
 20
-7.583892490725293
 30
0.0
 10
14.50626944686973
 20
-8.17254407058136
 30
0.0
 10
17.01334774380139
 20
-8.822351042399678
 30
0.0
 10
19.52139587838349
 20
-9.28003308945318
 30
0.0
 10
22.02914654238759
 20
-9.523264106701529
 30
0.0
 10
24.53588158201392
 20
-9.53826228534058
 30
0.0
 10
26.69041696469241
 20
-9.392687107775426
 30
0.0
 10
28.00954388670981
 20
-9.158438047463079
 30
0.0
 10
28.49333097269498
 20
-9.072527686305442
 30
0.0
  0
SPLINE
  5
C5
330
1F
100
AcDbEntity
  8
외형선
  6
Continuous
370
    15
100
AcDbSpline
210
0.0
220
0.0
230
1.0
 70
    24
 71
     3
 72
    21
 73
    17
 74
     0
 42
0.000000001
 43
0.00000001
 40
0.0
 40
0.0
 40
0.0
 40
0.0
 40
0.0491504366043766
 40
0.118838275248653
 40
0.1905470659346027
 40
0.2602349045788792
 40
0.3319436952648298
 40
0.4016315339091193
 40
0.4733403245950555
 40
0.5430281632393316
 40
0.6147369539252819
 40
0.6844247925695575
 40
0.7561335832555085
 40
0.8258214218997857
 40
0.8975302125857361
 40
0.9999999999999999
 40
0.9999999999999999
 40
0.9999999999999999
 40
0.9999999999999999
 10
11.99999999999998
 20
-2.29631621149691
 30
0.0
 10
11.99999999999998
 20
-2.300357023419312
 30
0.0
 10
11.99999999999999
 20
-2.310127091655485
 30
0.0
 10
11.99999999999996
 20
-2.419257327279227
 30
0.0
 10
11.99999999999995
 20
-2.605843748332236
 30
0.0
 10
12.0
 20
-2.869583802292875
 30
0.0
 10
11.99999999999992
 20
-3.194377685699998
 30
0.0
 10
11.99999999999995
 20
-3.577920971864695
 30
0.0
 10
11.99999999999995
 20
-4.002177655535932
 30
0.0
 10
12.00000000000006
 20
-4.462841219874188
 30
0.0
 10
11.99999999999995
 20
-4.938594078627056
 30
0.0
 10
12.00000000000006
 20
-5.424416217684565
 30
0.0
 10
11.99999999999993
 20
-5.898265376709366
 30
0.0
 10
12.00000000000002
 20
-6.353559290572454
 30
0.0
 10
11.99999999999998
 20
-6.8410798086079
 30
0.0
 10
11.99999999999996
 20
-7.123474959165494
 30
0.0
 10
11.99999999999999
 20
-7.289608885392673
 30
0.0
  0
SPLINE
  5
C6
330
1F
100
AcDbEntity
  8
외형선
  6
Continuous
 62
     1
370
    15
100
AcDbSpline
210
0.0
220
0.0
230
1.0
 70
     8
 71
     3
 72
    22
 73
    18
 74
     0
 42
0.000000001
 43
0.00000001
 40
0.0
 40
0.0
 40
0.0
 40
0.0
 40
0.2499999999999999
 40
0.2499999999999999
 40
0.3749999999999998
 40
0.3749999999999998
 40
0.4999999999999998
 40
0.4999999999999998
 40
0.6249999999999998
 40
0.6249999999999998
 40
0.6874999999999994
 40
0.6874999999999994
 40
0.7499999999999992
 40
0.7499999999999992
 40
0.8749999999999996
 40
0.8749999999999996
 40
1.0
 40
1.0
 40
1.0
 40
1.0
 10
47.81399999999997
 20
7.368980487330063
 30
0.0
 10
48.10340912692367
 20
7.263147089612304
 30
0.0
 10
48.37927570256648
 20
7.112605571281009
 30
0.0
 10
48.78349133551338
 20
6.83067139898218
 30
0.0
 10
48.9151410857781
 20
6.727933212386994
 30
0.0
 10
49.16613412112336
 20
6.513146174911408
 30
0.0
 10
49.28823456946007
 20
6.398641671005143
 30
0.0
 10
49.51479670499997
 20
6.168852102645833
 30
0.0
 10
49.62033560953364
 20
6.05249184788658
 30
0.0
 10
49.75869492874062
 20
5.888644146215482
 30
0.0
 10
49.80103347006172
 20
5.83640203582271
 30
0.0
 10
49.87809963401264
 20
5.737685611726407
 30
0.0
 10
49.91296399135254
 20
5.690974804877862
 30
0.0
 10
50.00201086101138
 20
5.566760162395002
 30
0.0
 10
50.04271053515103
 20
5.502381171120099
 30
0.0
 10
50.09128428803081
 20
5.417628789790903
 30
0.0
 10
50.0999999999999
 20
5.396140325341653
 30
0.0
 10
50.09999999999994
 20
5.392185791802479
 30
0.0
  0
LINE
  5
C7
330
1F
100
AcDbEntity
  8
외형선
  6
Continuous
 62
     1
370
    15
100
AcDbLine
 10
50.09999999999997
 20
3.269676710860233
 30
0.0
 11
50.09999999999997
 21
5.39218579180248
 31
0.0
  0
LINE
  5
C8
330
1F
100
AcDbEntity
  8
외형선
  6
Continuous
 62
     1
370
    15
100
AcDbLine
 10
50.09999999999997
 20
-6.458508744784619
 30
0.0
 11
50.09999999999997
 21
-4.829850244747203
 31
0.0
  0
SPLINE
  5
C9
330
1F
100
AcDbEntity
  8
외형선
  6
Continuous
 62
     1
370
    15
100
AcDbSpline
210
0.0
220
0.0
230
1.0
 70
     8
 71
     3
 72
    12
 73
     8
 74
     0
 42
0.000000001
 43
0.00000001
 40
0.0
 40
0.0
 40
0.0
 40
0.0
 40
0.072068753347743
 40
0.3040760551050007
 40
0.5360466040237624
 40
0.7680110345252436
 40
0.9999999999999999
 40
0.9999999999999999
 40
0.9999999999999999
 40
0.9999999999999999
 10
36.49484628576593
 20
9.499171954045227
 30
0.0
 10
36.76678713848278
 20
9.506491092931029
 30
0.0
 10
37.9141734588349
 20
9.537372366378637
 30
0.0
 10
39.93669687419272
 20
9.347593835066792
 30
0.0
 10
42.56248071185865
 20
8.92608940266172
 30
0.0
 10
45.18815944530265
 20
8.27493125318491
 30
0.0
 10
46.93868895769568
 20
7.670974722173524
 30
0.0
 10
47.81400000000106
 20
7.368980487329663
 30
0.0
  0
SPLINE
  5
CA
330
1F
100
AcDbEntity
  8
외형선
  6
Continuous
 62
     1
370
    15
100
AcDbSpline
210
0.0
220
0.0
230
1.0
 70
     8
 71
     3
 72
    10
 73
     6
 74
     0
 42
0.000000001
 43
0.00000001
 40
0.0
 40
0.0
 40
0.0
 40
0.0
 40
0.3942155538886524
 40
0.7883846205029708
 40
1.0
 40
1.0
 40
1.0
 40
1.0
 10
47.814000000001
 20
9.491457510064073
 30
0.0
 10
46.97855725863965
 20
9.50884581533765
 30
0.0
 10
45.30777029424154
 20
9.543620375395154
 30
0.0
 10
43.18863758568348
 20
9.381577956191528
 30
0.0
 10
41.90481451234109
 20
9.150075118388369
 30
0.0
 10
41.45634359398665
 20
9.069205493572436
 30
0.0
  0
LINE
  5
CC
330
1F
100
AcDbEntity
  8
외형선
  6
Continuous
 62
     1
370
    15
100
AcDbLine
 10
50.09999999999997
 20
5.39218579180248
 30
0.0
 11
50.09999999999997
 21
6.878865904326776
 31
0.0
  0
SPLINE
  5
CD
330
1F
100
AcDbEntity
  8
외형선
  6
Continuous
 62
     1
370
    15
100
AcDbSpline
210
0.0
220
0.0
230
1.0
 70
     8
 71
     3
 72
    11
 73
     7
 74
     0
 42
0.000000001
 43
0.00000001
 40
0.0
 40
0.0
 40
0.0
 40
0.0
 40
0.0746742089454486
 40
0.3831830199519647
 40
0.6916114102227048
 40
0.9999999999999999
 40
0.9999999999999999
 40
0.9999999999999999
 40
0.9999999999999999
 10
20.51433956895409
 20
-9.502873412731685
 30
0.0
 10
20.30238315057419
 20
-9.509586697476607
 30
0.0
 10
19.21475059791674
 20
-9.544035227413307
 30
0.0
 10
17.25184576528927
 20
-9.364126912530697
 30
0.0
 10
14.62571280983269
 20
-8.97483963819268
 30
0.0
 10
12.8751999523063
 20
-8.514382502844
 30
0.0
 10
12.00000000000027
 20
-8.284168790809009
 30
0.0
  0
LINE
  5
CE
330
1F
100
AcDbEntity
  8
외형선
  6
Continuous
370
    15
100
AcDbLine
 10
11.99999999999996
 20
-8.28416879080892
 30
0.0
 11
11.99999999999998
 21
-7.289608885392672
 31
0.0
  0
SPLINE
  5
CF
330
1F
100
AcDbEntity
  8
외형선
  6
Continuous
 62
     1
370
    15
100
AcDbSpline
210
0.0
220
0.0
230
1.0
 70
     8
 71
     3
 72
     9
 73
     5
 74
     0
 42
0.000000001
 43
0.00000001
 40
0.0
 40
0.0
 40
0.0
 40
0.0
 40
0.7060922332419779
 40
1.0
 40
1.0
 40
1.0
 40
1.0
 10
11.99999999999998
 20
-9.48969203922837
 30
0.0
 10
12.83533231695567
 20
-9.437000545930413
 30
0.0
 10
14.0183680134684
 20
-9.362376451772018
 30
0.0
 10
15.20150548486048
 20
-9.136764241206777
 30
0.0
 10
15.54923877684503
 20
-9.070455060246207
 30
0.0
  0
SPLINE
  5
D0
330
1F
100
AcDbEntity
  8
외형선
  6
Continuous
370
    15
100
AcDbSpline
210
0.0
220
0.0
230
1.0
 70
    24
 71
     3
 72
     9
 73
     5
 74
     0
 42
0.000000001
 43
0.00000001
 40
0.0
 40
0.0
 40
0.0
 40
0.0
 40
0.3923362903464629
 40
1.0
 40
1.0
 40
1.0
 40
1.0
 10
11.99999999999995
 20
-8.358362635556901
 30
0.0
 10
11.99999999999995
 20
-8.50227604500698
 30
0.0
 10
11.99999999999998
 20
-8.869087408092938
 30
0.0
 10
11.99999999999998
 20
-9.255116294239269
 30
0.0
 10
11.99999999999998
 20
-9.48969203922837
 30
0.0
  0
LINE
  5
D1
330
1F
100
AcDbEntity
  8
외형선
  6
Continuous
 62
     1
370
    15
100
AcDbLine
 10
50.09999999999997
 20
6.878865904326776
 30
0.0
 11
50.09999999999997
 21
7.238999999999995
 31
0.0
  0
LINE
  5
D2
330
1F
100
AcDbEntity
  8
외형선
  6
Continuous
 62
     1
370
    15
100
AcDbLine
 10
50.09999999999997
 20
-7.239000000000007
 30
0.0
 11
50.09999999999997
 21
-7.228070998977584
 31
0.0
  0
LINE
  5
D3
330
1F
100
AcDbEntity
  8
외형선
  6
Continuous
370
    15
100
AcDbLine
 10
11.49986971623978
 20
9.510144783458738
 30
0.0
 11
11.49986971623978
 21
9.524999999999991
 31
0.0
  0
SPLINE
  5
D4
330
1F
100
AcDbEntity
  8
외형선
  6
Continuous
370
    15
100
AcDbSpline
210
0.0
220
0.0
230
1.0
 70
     8
 71
     3
 72
     8
 73
     4
 74
     0
 42
0.000000001
 43
0.00000001
 40
0.0
 40
0.0
 40
0.0
 40
0.0
 40
1.0
 40
1.0
 40
1.0
 40
1.0
 10
11.99999999999996
 20
9.489692039228355
 30
0.0
 10
11.83325394010033
 20
9.497961798242525
 30
0.0
 10
11.66650565261976
 20
9.504781264227628
 30
0.0
 10
11.49986971623978
 20
9.51014670886839
 30
0.0
  0
SPLINE
  5
D5
330
1F
100
AcDbEntity
  8
외형선
  6
Continuous
370
    15
100
AcDbSpline
210
0.0
220
0.0
230
1.0
 70
     8
 71
     3
 72
     8
 73
     4
 74
     0
 42
0.000000001
 43
0.00000001
 40
0.0
 40
0.0
 40
0.0
 40
0.0
 40
1.0
 40
1.0
 40
1.0
 40
1.0
 10
11.99999999999998
 20
9.181808508261184
 30
0.0
 10
11.83325394010034
 20
9.207381409120732
 30
0.0
 10
11.66650565261978
 20
9.23155114729278
 30
0.0
 10
11.49986971623979
 20
9.254302041508975
 30
0.0
  0
LINE
  5
D6
330
1F
100
AcDbEntity
  8
외형선
  6
Continuous
370
    15
100
AcDbLine
 10
11.49986971623978
 20
6.348675102269686
 30
0.0
 11
11.49986971623976
 21
9.254302468639484
 31
0.0
  0
SPLINE
  5
D7
330
1F
100
AcDbEntity
  8
외형선
  6
Continuous
370
    15
100
AcDbSpline
210
0.0
220
0.0
230
1.0
 70
     8
 71
     3
 72
     8
 73
     4
 74
     0
 42
0.000000001
 43
0.00000001
 40
0.0
 40
0.0
 40
0.0
 40
0.0
 40
1.0
 40
1.0
 40
1.0
 40
1.0
 10
11.99999999999996
 20
6.130842299228087
 30
0.0
 10
11.83325394010033
 20
6.204414901245673
 30
0.0
 10
11.66650565261976
 20
6.277050836509793
 30
0.0
 10
11.49986971623978
 20
6.34870081333793
 30
0.0
  0
SPLINE
  5
D8
330
1F
100
AcDbEntity
  8
외형선
  6
Continuous
370
    15
100
AcDbSpline
210
0.0
220
0.0
230
1.0
 70
     8
 71
     3
 72
     8
 73
     4
 74
     0
 42
0.000000001
 43
0.00000001
 40
0.0
 40
0.0
 40
0.0
 40
0.0
 40
1.0
 40
1.0
 40
1.0
 40
1.0
 10
11.99999999999998
 20
4.700869328686676
 30
0.0
 10
11.83325394010034
 20
4.784479830028389
 30
0.0
 10
11.66650565261978
 20
4.867372254357295
 30
0.0
 10
11.49986971623979
 20
4.949490118163957
 30
0.0
  0
SPLINE
  5
D9
330
1F
100
AcDbEntity
  8
외형선
  6
Continuous
370
    15
100
AcDbSpline
210
0.0
220
0.0
230
1.0
 70
     8
 71
     3
 72
     8
 73
     4
 74
     0
 42
0.000000001
 43
0.00000001
 40
0.0
 40
0.0
 40
0.0
 40
0.0
 40
1.0
 40
1.0
 40
1.0
 40
1.0
 10
11.99999999999996
 20
-0.8193717108894316
 30
0.0
 10
11.83325394010033
 20
-0.7235940983112507
 30
0.0
 10
11.66650565261976
 20
-0.6276908395301838
 30
0.0
 10
11.49986971623978
 20
-0.531727915196874
 30
0.0
  0
SPLINE
  5
DA
330
1F
100
AcDbEntity
  8
외형선
  6
Continuous
370
    15
100
AcDbSpline
210
0.0
220
0.0
230
1.0
 70
     8
 71
     3
 72
     8
 73
     4
 74
     0
 42
0.000000001
 43
0.00000001
 40
0.0
 40
0.0
 40
0.0
 40
0.0
 40
1.0
 40
1.0
 40
1.0
 40
1.0
 10
11.99999999999998
 20
-2.533775348688712
 30
0.0
 10
11.83325394010034
 20
-2.441105144593998
 30
0.0
 10
11.66650565261978
 20
-2.34804729206212
 30
0.0
 10
11.49986971623979
 20
-2.254665989569829
 30
0.0
  0
SPLINE
  5
DB
330
1F
100
AcDbEntity
  8
외형선
  6
Continuous
370
    15
100
AcDbSpline
210
0.0
220
0.0
230
1.0
 70
     8
 71
     3
 72
     8
 73
     4
 74
     0
 42
0.000000001
 43
0.00000001
 40
0.0
 40
0.0
 40
0.0
 40
0.0
 40
1.0
 40
1.0
 40
1.0
 40
1.0
 10
11.99999999999996
 20
-7.289608885392676
 30
0.0
 10
11.83325394010033
 20
-7.227731488730483
 30
0.0
 10
11.66650565261976
 20
-7.164739734750643
 30
0.0
 10
11.49986971623978
 20
-7.100677642501631
 30
0.0
  0
SPLINE
  5
DC
330
1F
100
AcDbEntity
  8
외형선
  6
Continuous
370
    15
100
AcDbSpline
210
0.0
220
0.0
230
1.0
 70
     8
 71
     3
 72
     8
 73
     4
 74
     0
 42
0.000000001
 43
0.00000001
 40
0.0
 40
0.0
 40
0.0
 40
0.0
 40
1.0
 40
1.0
 40
1.0
 40
1.0
 10
11.99999999999998
 20
-8.284168790808927
 30
0.0
 10
11.83325394010034
 20
-8.236723832692011
 30
0.0
 10
11.66650565261978
 20
-8.188012579885019
 30
0.0
 10
11.49986971623979
 20
-8.138069339235017
 30
0.0
  0
LINE
  5
DD
330
1F
100
AcDbEntity
  8
외형선
  6
Continuous
370
    15
100
AcDbLine
 10
11.49986971623978
 20
-9.525000000000002
 30
0.0
 11
11.49986971623976
 21
-8.138068401588637
 31
0.0
  0
SPLINE
  5
DE
330
1F
100
AcDbEntity
  8
외형선
  6
Continuous
370
    15
100
AcDbSpline
210
0.0
220
0.0
230
1.0
 70
     8
 71
     3
 72
     8
 73
     4
 74
     0
 42
0.000000001
 43
0.00000001
 40
0.0
 40
0.0
 40
0.0
 40
0.0
 40
1.0
 40
1.0
 40
1.0
 40
1.0
 10
11.99999999999996
 20
-9.489692039228363
 30
0.0
 10
11.83325394010033
 20
-9.497961798242528
 30
0.0
 10
11.66650565261976
 20
-9.504781264227638
 30
0.0
 10
11.49986971623978
 20
-9.510146708868398
 30
0.0
  0
LINE
  5
DF
330
1F
100
AcDbEntity
  8
외형선
  6
Continuous
370
    15
100
AcDbLine
 10
-52.77000000000004
 20
-0.0000000000000062
 30
0.0
 11
-52.77000000000004
 21
9.524999999999991
 31
0.0
  0
LINE
  5
E0
330
1F
100
AcDbEntity
  8
외형선
  6
Continuous
370
    15
100
AcDbLine
 10
-52.77000000000004
 20
-9.525000000000002
 30
0.0
 11
-52.77000000000004
 21
-0.0000000000000062
 31
0.0
  0
LINE
  5
E1
330
1F
100
AcDbEntity
  8
외형선
  6
Continuous
370
    15
100
AcDbLine
 10
11.49986971623978
 20
-0.5317623507286395
 30
0.0
 11
11.49986971623976
 21
4.949491659864099
 31
0.0
  0
LINE
  5
E2
330
1F
100
AcDbEntity
  8
외형선
  6
Continuous
370
    15
100
AcDbLine
 10
11.49986971623978
 20
-7.100700630629434
 30
0.0
 11
11.49986971623976
 21
-2.254664236407089
 31
0.0
  0
LINE
  5
E3
330
1F
100
AcDbEntity
  8
외형선
  6
Continuous
370
    15
100
AcDbLine
 10
-54.67500000000004
 20
-0.0000000000000062
 30
0.0
 11
-54.67500000000004
 21
7.619999999999997
 31
0.0
  0
LINE
  5
E4
330
1F
100
AcDbEntity
  8
외형선
  6
Continuous
370
    15
100
AcDbLine
 10
-54.67500000000004
 20
-7.62000000000001
 30
0.0
 11
-54.67500000000004
 21
-0.0000000000000062
 31
0.0
  0
SPLINE
  5
E5
330
1F
100
AcDbEntity
  8
외형선
  6
Continuous
370
    15
100
AcDbSpline
210
0.0
220
0.0
230
1.0
 70
    24
 71
     3
 72
    22
 73
    18
 74
     0
 42
0.000000001
 43
0.00000001
 40
0.0
 40
0.0
 40
0.0
 40
0.0
 40
0.0592601522572576
 40
0.127824855115739
 40
0.1944572150229155
 40
0.2630219178813968
 40
0.3296542777885575
 40
0.3982189806470562
 40
0.4648513405542333
 40
0.5334160434127152
 40
0.6000484033198908
 40
0.6686131061783719
 40
0.7352454660855167
 40
0.8038101689439644
 40
0.8704425288511721
 40
0.9390072317096873
 40
0.9999999999999999
 40
0.9999999999999999
 40
0.9999999999999999
 40
0.9999999999999999
 10
11.99999999999998
 20
-0.7098118055439571
 30
0.0
 10
11.99999999999998
 20
-0.6664872920281555
 30
0.0
 10
12.0
 20
-0.5730357997154779
 30
0.0
 10
12.0
 20
-0.3393911433912418
 30
0.0
 10
12.0
 20
-0.0343027332387894
 30
0.0
 10
11.99999999999996
 20
0.3283304332540965
 30
0.0
 10
11.99999999999998
 20
0.7423317171082696
 30
0.0
 10
11.99999999999999
 20
1.189183929154308
 30
0.0
 10
11.99999999999998
 20
1.664105759520463
 30
0.0
 10
11.99999999999998
 20
2.145156092553898
 30
0.0
 10
11.99999999999995
 20
2.627355228880343
 30
0.0
 10
12.00000000000006
 20
3.08841305719833
 30
0.0
 10
12.00000000000002
 20
3.523450088435773
 30
0.0
 10
11.99999999999996
 20
3.912794577997327
 30
0.0
 10
12.00000000000011
 20
4.250669973751963
 30
0.0
 10
11.99999999999999
 20
4.520251826483721
 30
0.0
 10
12.0
 20
4.643055906392044
 30
0.0
 10
11.99999999999998
 20
4.700869328686688
 30
0.0
  0
SPLINE
  5
E6
330
1F
100
AcDbEntity
  8
외형선
  6
Continuous
370
    15
100
AcDbSpline
210
0.0
220
0.0
230
1.0
 70
    24
 71
     3
 72
    22
 73
    18
 74
     0
 42
0.000000001
 43
0.00000001
 40
0.0
 40
0.0
 40
0.0
 40
0.0
 40
0.068416551637847
 40
0.1368331032756938
 40
0.2074770020626402
 40
0.2781209008495867
 40
0.3487647996365335
 40
0.4194086984234802
 40
0.4900525972104279
 40
0.5606964959973754
 40
0.6313403947843228
 40
0.7019842935712702
 40
0.7726281923582163
 40
0.8432720911451624
 40
0.9139159899320748
 40
0.9845598887189873
 40
0.9999999999999999
 40
0.9999999999999999
 40
0.9999999999999999
 40
0.9999999999999999
 10
11.99999999999999
 20
-7.289608885392679
 30
0.0
 10
11.99999999999999
 20
-7.18128590698574
 30
0.0
 10
11.99999999999999
 20
-6.964639950171859
 30
0.0
 10
11.99999999999998
 20
-6.572322157917933
 30
0.0
 10
11.99999999999999
 20
-6.139601651064974
 30
0.0
 10
12.0
 20
-5.673407642861966
 30
0.0
 10
11.99999999999998
 20
-5.19216519365911
 30
0.0
 10
11.99999999999999
 20
-4.709474620180468
 30
0.0
 10
11.99999999999998
 20
-4.239372976088665
 30
0.0
 10
11.99999999999998
 20
-3.794382351836685
 30
0.0
 10
11.99999999999999
 20
-3.388504423497478
 30
0.0
 10
11.99999999999995
 20
-3.031276186454838
 30
0.0
 10
12.00000000000002
 20
-2.735726632287553
 30
0.0
 10
12.00000000000003
 20
-2.505262432077613
 30
0.0
 10
12.00000000000004
 20
-2.358109718478425
 30
0.0
 10
11.99999999999996
 20
-2.2875343347112
 30
0.0
 10
12.0
 20
-2.293165732538716
 30
0.0
 10
12.0
 20
-2.294175785498098
 30
0.0
  0
SPLINE
  5
E7
330
1F
100
AcDbEntity
  8
외형선
  6
Continuous
370
    15
100
AcDbSpline
210
0.0
220
0.0
230
1.0
 70
    24
 71
     3
 72
    14
 73
    10
 74
     0
 42
0.000000001
 43
0.00000001
 40
0.0
 40
0.0
 40
0.0
 40
0.0
 40
0.1024703742713055
 40
0.2545341390528965
 40
0.4065979038344154
 40
0.5586616686159339
 40
0.7107254333975995
 40
0.8627891981792652
 40
0.9999999999999999
 40
0.9999999999999999
 40
0.9999999999999999
 40
0.9999999999999999
 10
11.99999999999998
 20
6.205026143976081
 30
0.0
 10
11.99999999999999
 20
6.288695739026908
 30
0.0
 10
12.00000000000003
 20
6.496529159101867
 30
0.0
 10
12.00000000000004
 20
6.881466864617183
 30
0.0
 10
12.0
 20
7.338879883879351
 30
0.0
 10
12.0
 20
7.817273149164382
 30
0.0
 10
12.00000000000002
 20
8.300337089623156
 30
0.0
 10
11.99999999999999
 20
8.762328708106104
 30
0.0
 10
11.99999999999999
 20
9.046851569551457
 30
0.0
 10
11.99999999999998
 20
9.181808508261192
 30
0.0
  0
SPLINE
  5
E8
330
1F
100
AcDbEntity
  8
외형선
  6
Continuous
370
    15
100
AcDbSpline
210
0.0
220
0.0
230
1.0
 70
    24
 71
     3
 72
    10
 73
     6
 74
     0
 42
0.000000001
 43
0.00000001
 40
0.0
 40
0.0
 40
0.0
 40
0.0
 40
0.3993352471159223
 40
0.8095179186119043
 40
0.9999999999999999
 40
0.9999999999999999
 40
0.9999999999999999
 40
0.9999999999999999
 10
11.99999999999999
 20
-9.489692039228363
 30
0.0
 10
11.99999999999998
 20
-9.336321957154563
 30
0.0
 10
11.99999999999995
 20
-9.025415693521705
 30
0.0
 10
12.0
 20
-8.642143846479193
 30
0.0
 10
11.99999999999998
 20
-8.426680205351019
 30
0.0
 10
11.99999999999999
 20
-8.358352635556901
 30
0.0
  0
LINE
  5
E9
330
1F
100
AcDbEntity
  8
중심선
 62
     1
100
AcDbLine
 10
-57.67500000000003
 20
-0.0000000000000001
 30
0.0
 11
53.09999999999998
 21
0.0000000000000003
 31
0.0
  0
LINE
  5
EA
330
1F
100
AcDbEntity
  8
참조1
100
AcDbLine
 10
-2.287500000000026
 20
0.0000000000000003
 30
0.0
 11
-2.287500000000022
 21
-40.0
 31
0.0
  0
LINE
  5
EB
330
1F
100
AcDbEntity
  8
참조1
100
AcDbLine
 10
-2.287500000000022
 20
-40.0
 30
0.0
 11
-17.4463568143087
 21
-39.99999999999999
 31
0.0
  0
INSERT
  5
ED
330
1F
100
AcDbEntity
  8
0
  6
Continuous
 62
     7
100
AcDbBlockReference
 66
     1
  2
블럭10
 10
-16.22777293212523
 20
-52.04717430164393
 30
0.0
  0
ATTRIB
  5
EE
330
ED
100
AcDbEntity
  8
FORMAT
 62
     2
100
AcDbText
 10
-26.36940894426186
 20
-49.97180738881174
 30
0.0
 40
4.233333333333333
  1
EM668905 [ 8 FLUTE ]
 41
0.75
  7
SLDTEXTSTYLE0
 11
-26.36940894426186
 21
-52.08847405547841
 31
0.0
100
AcDbAttribute
  2
AUTOATTR0
 70
     0
 74
     1
  0
SEQEND
  5
EF
330
ED
100
AcDbEntity
  8
0
  6
Continuous
 62
     7
  0
HATCH
  5
F0
330
1F
100
AcDbEntity
  8
중심선
100
AcDbHatch
 10
0.0
 20
0.0
 30
0.0
210
0.0
220
0.0
230
1.0
  2
SOLID
 70
     1
 71
     0
 91
        1
 92
        0
 93
        4
 72
     1
 10
-10.5128636277444
 20
-35.79999999999999
 11
-13.95913887158168
 21
-35.79999999999999
 72
     1
 10
-13.95913887158168
 20
-35.79999999999999
 11
-16.0873687307857
 21
-38.33632558057259
 72
     1
 10
-16.0873687307857
 20
-38.33632558057259
 11
-12.64106040183527
 21
-38.3362861512701
 72
     1
 10
-12.64106040183527
 20
-38.3362861512701
 11
-10.5128636277444
 21
-35.79999999999999
 97
        0
 75
     0
 76
     1
 98
        1
 10
2.000000000000028
 20
-0.0010749287238889
  0
HATCH
  5
F1
330
1F
100
AcDbEntity
  8
중심선
100
AcDbHatch
 10
0.0
 20
0.0
 30
0.0
210
0.0
220
0.0
230
1.0
  2
SOLID
 70
     1
 71
     0
 91
        1
 92
        0
 93
        4
 72
     1
 10
-5.500099636708418
 20
-35.79999999999999
 11
-8.9463748805457
 21
-35.79999999999999
 72
     1
 10
-8.9463748805457
 20
-35.79999999999999
 11
-13.47751288890312
 21
-41.20000000000001
 72
     1
 10
-13.47751288890312
 20
-41.20000000000001
 11
-10.03123764506583
 21
-41.20000000000001
 72
     1
 10
-10.03123764506583
 20
-41.20000000000001
 11
-5.500099636708418
 21
-35.79999999999999
 97
        0
 75
     0
 76
     1
 98
        1
 10
2.000000000000028
 20
-0.0010749287238889
  0
HATCH
  5
F2
330
1F
100
AcDbEntity
  8
중심선
100
AcDbHatch
 10
0.0
 20
0.0
 30
0.0
210
0.0
220
0.0
230
1.0
  2
SOLID
 70
     1
 71
     0
 91
        1
 92
        0
 93
        4
 72
     1
 10
-0.4873356456725499
 20
-35.79999999999999
 11
-3.933610889509666
 21
-35.79999999999999
 72
     1
 10
-3.933610889509666
 20
-35.79999999999999
 11
-10.98204779139891
 21
-44.20000000000001
 72
     1
 10
-10.98204779139891
 20
-44.20000000000001
 11
-7.535772547561631
 21
-44.20000000000001
 72
     1
 10
-7.535772547561631
 20
-44.20000000000001
 11
-0.4873356456725499
 21
-35.79999999999999
 97
        0
 75
     0
 76
     1
 98
        1
 10
2.000000000000028
 20
-0.0010749287238889
  0
HATCH
  5
F3
330
1F
100
AcDbEntity
  8
중심선
100
AcDbHatch
 10
0.0
 20
0.0
 30
0.0
210
0.0
220
0.0
230
1.0
  2
SOLID
 70
     1
 71
     0
 91
        1
 92
        0
 93
        6
 72
     3
 10
4.31255478533965
 20
-40.00000000005127
 11
3.960054785062283
 21
1.540882976769353E-10
 40
0.3939339440162628
 50
17.09539180608437
 51
320.0019657685075
 73
     0
 72
     1
 10
5.995554441040245
 20
-38.58789400463827
 11
8.300856314741283
 21
-36.65356729459037
 72
     3
 10
4.312554785286803
 20
-40.00000000000014
 11
6.600054785286829
 21
-1.278976924368180E-13
 40
0.636358354079598
 50
39.99873849337411
 51
368.4976242363725
 73
     1
 72
     1
 10
10.73788727718741
 20
-39.03999999993002
 11
2.992622092122725
 21
-39.03999999992999
 72
     1
 10
2.992622092122725
 20
-39.03999999992999
 11
2.992597047676791
 21
-40.95999999992991
 72
     1
 10
2.992597047676791
 20
-40.95999999992991
 11
7.433976817148828
 21
-40.95999999992988
 97
        0
 75
     0
 76
     1
 98
        1
 10
2.000000000000028
 20
-0.0010749287238889
  0
DIMENSION
  5
F4
330
1F
100
AcDbEntity
  8
치수문자_일반주서
100
AcDbDimension
  2
_D
 10
69.1000000000001
 20
-9.524999999999885
 30
0.0
 11
69.09999999999995
 21
29.91025000000006
 31
0.0
 70
   160
  1
%%c<>
 71
     2
 42
19.04999999999995
 52
-270.0
  3
SLDDIMSTYLE0
100
AcDbAlignedDimension
 13
50.09999999999998
 23
9.524999999999991
 33
0.0
 14
50.09999999999998
 24
-9.524999999999956
 34
0.0
 50
90.0000000000002
100
AcDbRotatedDimension
1001
PE_URL
1000

1001
ACAD
1000
DSTYLE
1002
{
1070
   171
1070
     6
1070
   273
1070
     7
1002
}
  0
DIMENSION
  5
109
330
1F
100
AcDbEntity
  8
치수문자_일반주서
100
AcDbDimension
  2
_D_1
 10
-61.67500000000001
 20
-9.525000000000043
 30
0.0
 11
-61.67500000000005
 21
-0.0000000000000015
 31
0.0
 70
   160
  1
%%c<>
 71
     2
 42
19.05000000000001
 52
-270.0
  3
SLDDIMSTYLE0
100
AcDbAlignedDimension
 13
-52.77000000000005
 23
9.524999999999999
 33
0.0
 14
-52.77000000000005
 24
-9.525000000000013
 34
0.0
 50
90.0000000000002
100
AcDbRotatedDimension
1001
ACAD
1000
DSTYLE
1002
{
1070
   171
1070
     6
1070
   273
1070
     7
1002
}
1001
ACAD_DSTYLE_DIMFLIPARROW_SYMBOL
1070
   385
1070
     0
1001
ACAD_DSTYLE_DIMFLIPARROW_WHICH_SYMBOL
1070
   386
1070
     3
  0
DIMENSION
  5
11D
330
1F
100
AcDbEntity
  8
치수문자_일반주서
100
AcDbDimension
  2
_D_2
 10
11.99999999999998
 20
31.46109355028875
 30
0.0
 11
33.41743761909088
 21
31.46109355028875
 31
0.0
 70
   160
  1
<>
 71
     2
 42
38.09999999999987
  3
SLDDIMSTYLE0
100
AcDbAlignedDimension
 13
50.09999999999986
 23
9.587499999999991
 33
0.0
 14
11.99999999999999
 24
9.489692039228355
 34
0.0
100
AcDbRotatedDimension
1001
PE_URL
1000

1001
ACAD
1000
DSTYLE
1002
{
1070
   171
1070
     6
1070
   273
1070
     7
1002
}
  0
DIMENSION
  5
131
330
1F
100
AcDbEntity
  8
치수문자_일반주서
100
AcDbDimension
  2
_D_3
 10
50.09999999999987
 20
53.3346871005775
 30
0.0
 11
-1.158940071133118
 21
53.3346871005775
 31
0.0
 70
   160
  1
<>
 71
     2
 42
104.7749999999999
  3
SLDDIMSTYLE0
100
AcDbAlignedDimension
 13
-54.67500000000004
 23
7.619999999999997
 33
0.0
 14
50.09999999999986
 24
9.524999999999991
 34
0.0
100
AcDbRotatedDimension
1001
PE_URL
1000

1001
ACAD
1000
DSTYLE
1002
{
1070
   171
1070
     6
1070
   273
1070
     7
1002
}
  0
LINE
  5
145
330
1F
100
AcDbEntity
  8
참조1
100
AcDbLine
 10
80.52598381534557
 20
7.440000000000007
 30
0.0
 11
80.52598381534557
 21
-7.439999999999998
 31
0.0
  0
LINE
  5
146
330
1F
100
AcDbEntity
  8
참조1
100
AcDbLine
 10
93.22598381534557
 20
5.440000000000007
 30
0.0
 11
80.52598381534557
 21
5.440000000000007
 31
0.0
  0
SOLID
  5
147
330
1F
100
AcDbEntity
  8
참조1
100
AcDbTrace
 10
80.52598381534557
 20
5.440000000000007
 30
0.0
 11
86.87598381534556
 21
4.424000000000007
 31
0.0
 12
86.87598381534556
 22
6.456000000000007
 32
0.0
 13
86.87598381534556
 23
6.456000000000007
 33
0.0
  0
LINE
  5
148
330
1F
100
AcDbEntity
  8
참조1
100
AcDbLine
 10
93.22598381534557
 20
-5.439999999999998
 30
0.0
 11
80.52598381534557
 21
-5.439999999999998
 31
0.0
  0
SOLID
  5
149
330
1F
100
AcDbEntity
  8
참조1
100
AcDbTrace
 10
80.52598381534557
 20
-5.439999999999998
 30
0.0
 11
86.87598381534556
 21
-6.455999999999998
 31
0.0
 12
86.87598381534556
 22
-4.423999999999998
 32
0.0
 13
86.87598381534556
 23
-4.423999999999998
 33
0.0
  0
MTEXT
  5
14A
330
1F
100
AcDbEntity
  8
참조1
100
AcDbMText
 10
89.92347390781583
 20
10.98821664464994
 30
0.0
 40
3.5
 41
0.0
 71
     1
 72
     1
  1
A
  7
SLDTEXTSTYLE0
 73
     1
 44
1.0
  0
MTEXT
  5
14B
330
1F
100
AcDbEntity
  8
참조1
100
AcDbMText
 10
89.92347390781583
 20
0.108216644649937
 30
0.0
 40
3.5
 41
0.0
 71
     1
 72
     1
  1
A
  7
SLDTEXTSTYLE0
 73
     1
 44
1.0
  0
INSERT
  5
152
330
1F
100
AcDbEntity
  8
해칭선
100
AcDbBlockReference
  2
SW_DOWELSYMBOL_0
 10
0.0
 20
0.0
 30
0.0
  0
MTEXT
  5
19F
102
{ACAD_REACTORS
330
1A0
102
}
330
1F
100
AcDbEntity
  8
치수문자_일반주서
100
AcDbMText
 10
59.91940705032786
 20
-22.76876037533393
 30
0.0
 40
3.5
 41
0.0
 71
     7
 72
     1
  1
{R2.29[.090"]}
 73
     1
 44
1.0
1001
PE_URL
1000

1001
ACAD
1000
ACAD_MTEXT_DEFINED_HEIGHT_BEGIN
1070
    46
1040
3.5
1000
ACAD_MTEXT_DEFINED_HEIGHT_END
  0
LEADER
  5
1A0
102
{ACAD_XDICTIONARY
360
1A1
102
}
330
1F
100
AcDbEntity
  8
치수문자_일반주서
100
AcDbLeader
  3
ISO-25
 73
     0
 74
     0
 75
     1
 40
3.5
 41
31.5
 76
     3
 10
49.43044610179242
 20
-8.855446101792438
 30
0.0
 10
55.09340705032785
 20
-21.01876037533393
 30
0.0
 10
58.39540705032785
 20
-21.01876037533393
 30
0.0
340
19F
213
0.0
223
1.75
233
0.0
1001
ACAD
1000
DSTYLE
1002
{
1070
    77
1070
     0
1070
   179
1070
     2
1070
   143
1040
0.0393700787401575
1070
    41
1040
3.302
1070
    44
1040
1.0
1070
    42
1040
1.0
1070
   147
1040
1.524
1070
    73
1070
     1
1070
    74
1070
     1
1070
   140
1040
3.5
1070
   284
1070
     0
1070
    78
1070
     0
1002
}
1001
PE_URL
1000

  0
ARC
  5
1A9
330
1F
100
AcDbEntity
  8
외형선
  6
Continuous
 62
     1
370
    15
100
AcDbCircle
 10
47.81399999999997
 20
-7.238999999999987
 30
0.0
 40
2.286000000000001
100
AcDbArc
 50
270.0
 51
359.9999999999998
  0
ENDSEC
  0
SECTION
  2
OBJECTS
  0
DICTIONARY
  5
C
330
0
100
AcDbDictionary
281
     1
  3
ACAD_DETAILVIEWSTYLE
350
1B0
  3
ACAD_GROUP
350
D
  3
ACAD_LAYOUT
350
1A
  3
ACAD_MLINESTYLE
350
17
  3
ACAD_PLOTSETTINGS
350
19
  3
ACAD_PLOTSTYLENAME
350
E
  3
ACAD_SCALELIST
350
47
  3
ACAD_SECTIONVIEWSTYLE
350
1B1
  3
AcDbVariableDictionary
350
1AB
  3
APPDATA
350
174
  3
DWGPROPS
350
1B2
  0
DICTIONARY
  5
1A1
330
1A0
100
AcDbDictionary
280
     1
281
     1
  0
DICTIONARY
  5
1B0
102
{ACAD_REACTORS
330
C
102
}
330
C
100
AcDbDictionary
281
     1
  0
DICTIONARY
  5
D
102
{ACAD_REACTORS
330
C
102
}
330
C
100
AcDbDictionary
281
     1
  0
DICTIONARY
  5
1A
102
{ACAD_REACTORS
330
C
102
}
330
C
100
AcDbDictionary
281
     1
  3
Layout1
350
1E
  3
Layout2
350
26
  3
Model
350
22
  0
DICTIONARY
  5
17
102
{ACAD_REACTORS
330
C
102
}
330
C
100
AcDbDictionary
281
     1
  3
Standard
350
18
  0
DICTIONARY
  5
19
102
{ACAD_REACTORS
330
C
102
}
330
C
100
AcDbDictionary
281
     1
  0
ACDBDICTIONARYWDFLT
  5
E
102
{ACAD_REACTORS
330
C
102
}
330
C
100
AcDbDictionary
281
     1
  3
Normal
350
F
100
AcDbDictionaryWithDefault
340
F
  0
DICTIONARY
  5
47
102
{ACAD_REACTORS
330
C
102
}
330
C
100
AcDbDictionary
281
     1
  3
A0
350
48
  3
A1
350
49
  3
A2
350
4A
  3
A3
350
4B
  3
A4
350
4C
  3
A5
350
4D
  3
A6
350
4E
  3
A7
350
4F
  3
A8
350
50
  3
A9
350
51
  3
B0
350
52
  3
B1
350
53
  3
B2
350
54
  3
B3
350
55
  3
B4
350
56
  3
B5
350
57
  3
B6
350
58
  3
B7
350
59
  3
B8
350
5A
  3
B9
350
5B
  3
C0
350
5C
  3
C1
350
5D
  3
C2
350
5E
  3
C3
350
5F
  3
C4
350
60
  3
C5
350
61
  3
C6
350
62
  3
C7
350
63
  3
C8
350
64
  3
C9
350
65
  3
D0
350
66
  3
D1
350
67
  3
D2
350
68
  0
DICTIONARY
  5
1B1
102
{ACAD_REACTORS
330
C
102
}
330
C
100
AcDbDictionary
281
     1
  0
DICTIONARY
  5
1AB
102
{ACAD_REACTORS
330
C
102
}
330
C
100
AcDbDictionary
281
     1
  0
DICTIONARY
  5
174
102
{ACAD_REACTORS
330
C
102
}
330
C
100
AcDbDictionary
281
     1
  0
XRECORD
  5
1B2
102
{ACAD_REACTORS
330
C
102
}
330
C
100
AcDbXrecord
280
     1
  1
DWGPROPS COOKIE
  2

  3

  4

  6

  7

  8
H
  9

300
=
301
=
302
=
303
=
304
=
305
=
306
=
307
=
308
=
309
=
 40
0.0
 41
2458295.135846667
 42
2458301.680151748
  1

 90
        0
  0
LAYOUT
  5
1E
102
{ACAD_REACTORS
330
1A
102
}
330
1A
100
AcDbPlotSettings
  1

  2
none_device
  4

  6

 40
0.0
 41
0.0
 42
0.0
 43
0.0
 44
0.0
 45
0.0
 46
0.0
 47
0.0
 48
0.0
 49
0.0
140
0.0
141
0.0
142
1.0
143
1.0
 70
   688
 72
     1
 73
     0
 74
     5
  7

 75
    16
147
1.0
148
0.0
149
0.0
100
AcDbLayout
  1
Layout1
 70
     1
 71
     1
 10
0.0
 20
0.0
 11
420.0
 21
297.0
 12
0.0
 22
0.0
 32
0.0
 14
1.000000000000000E+20
 24
1.000000000000000E+20
 34
1.000000000000000E+20
 15
-1.000000000000000E+20
 25
-1.000000000000000E+20
 35
-1.000000000000000E+20
146
0.0
 13
0.0
 23
0.0
 33
0.0
 16
1.0
 26
0.0
 36
0.0
 17
0.0
 27
1.0
 37
0.0
 76
     0
330
1B
  0
LAYOUT
  5
26
102
{ACAD_REACTORS
330
1A
102
}
330
1A
100
AcDbPlotSettings
  1

  2
none_device
  4

  6

 40
0.0
 41
0.0
 42
0.0
 43
0.0
 44
0.0
 45
0.0
 46
0.0
 47
0.0
 48
0.0
 49
0.0
140
0.0
141
0.0
142
1.0
143
1.0
 70
   688
 72
     1
 73
     0
 74
     5
  7

 75
    16
147
1.0
148
0.0
149
0.0
100
AcDbLayout
  1
Layout2
 70
     1
 71
     2
 10
0.0
 20
0.0
 11
0.0
 21
0.0
 12
0.0
 22
0.0
 32
0.0
 14
0.0
 24
0.0
 34
0.0
 15
0.0
 25
0.0
 35
0.0
146
0.0
 13
0.0
 23
0.0
 33
0.0
 16
1.0
 26
0.0
 36
0.0
 17
0.0
 27
1.0
 37
0.0
 76
     0
330
23
  0
LAYOUT
  5
22
102
{ACAD_REACTORS
330
1A
102
}
330
1A
100
AcDbPlotSettings
  1

  2
none_device
  4
ANSI_A_(11.00_x_8.50_Inches)
  6

 40
6.35
 41
19.05
 42
6.35000508
 43
19.05000254
 44
279.4
 45
215.9
 46
119.3621784951464
 47
77.70351354275472
 48
0.0
 49
0.0
140
0.0
141
0.0
142
0.0657236160498473
143
1.0
 70
  1696
 72
     0
 73
     0
 74
     0
  7

 75
     0
147
0.0235690232323232
148
0.0
149
0.0
100
AcDbLayout
  1
Model
 70
     1
 71
     0
 10
0.0
 20
0.0
 11
420.0
 21
297.0
 12
0.0
 22
0.0
 32
0.0
 14
-66.05000000000008
 24
-49.97180738881174
 34
0.0
 15
93.22598381534557
 25
57.7096871005775
 35
0.0
146
0.0
 13
0.0
 23
0.0
 33
0.0
 16
1.0
 26
0.0
 36
0.0
 17
0.0
 27
1.0
 37
0.0
 76
     0
330
1F
331
29
  0
MLINESTYLE
  5
18
102
{ACAD_REACTORS
330
17
102
}
330
17
100
AcDbMlineStyle
  2
Standard
 70
     0
  3

 62
   256
 51
90.0
 52
90.0
 71
     2
 49
0.5
 62
   256
  6
BYLAYER
 49
-0.5
 62
   256
  6
BYLAYER
  0
ACDBPLACEHOLDER
  5
F
102
{ACAD_REACTORS
330
E
102
}
330
E
  0
SCALE
  5
48
102
{ACAD_REACTORS
330
47
102
}
330
47
100
AcDbScale
 70
     0
300
1:1
140
1.0
141
1.0
290
     1
  0
SCALE
  5
49
102
{ACAD_REACTORS
330
47
102
}
330
47
100
AcDbScale
 70
     0
300
1:2
140
1.0
141
2.0
290
     0
  0
SCALE
  5
4A
102
{ACAD_REACTORS
330
47
102
}
330
47
100
AcDbScale
 70
     0
300
1:4
140
1.0
141
4.0
290
     0
  0
SCALE
  5
4B
102
{ACAD_REACTORS
330
47
102
}
330
47
100
AcDbScale
 70
     0
300
1:5
140
1.0
141
5.0
290
     0
  0
SCALE
  5
4C
102
{ACAD_REACTORS
330
47
102
}
330
47
100
AcDbScale
 70
     0
300
1:8
140
1.0
141
8.0
290
     0
  0
SCALE
  5
4D
102
{ACAD_REACTORS
330
47
102
}
330
47
100
AcDbScale
 70
     0
300
1:10
140
1.0
141
10.0
290
     0
  0
SCALE
  5
4E
102
{ACAD_REACTORS
330
47
102
}
330
47
100
AcDbScale
 70
     0
300
1:16
140
1.0
141
16.0
290
     0
  0
SCALE
  5
4F
102
{ACAD_REACTORS
330
47
102
}
330
47
100
AcDbScale
 70
     0
300
1:20
140
1.0
141
20.0
290
     0
  0
SCALE
  5
50
102
{ACAD_REACTORS
330
47
102
}
330
47
100
AcDbScale
 70
     0
300
1:30
140
1.0
141
30.0
290
     0
  0
SCALE
  5
51
102
{ACAD_REACTORS
330
47
102
}
330
47
100
AcDbScale
 70
     0
300
1:40
140
1.0
141
40.0
290
     0
  0
SCALE
  5
52
102
{ACAD_REACTORS
330
47
102
}
330
47
100
AcDbScale
 70
     0
300
1:50
140
1.0
141
50.0
290
     0
  0
SCALE
  5
53
102
{ACAD_REACTORS
330
47
102
}
330
47
100
AcDbScale
 70
     0
300
1:100
140
1.0
141
100.0
290
     0
  0
SCALE
  5
54
102
{ACAD_REACTORS
330
47
102
}
330
47
100
AcDbScale
 70
     0
300
2:1
140
2.0
141
1.0
290
     0
  0
SCALE
  5
55
102
{ACAD_REACTORS
330
47
102
}
330
47
100
AcDbScale
 70
     0
300
4:1
140
4.0
141
1.0
290
     0
  0
SCALE
  5
56
102
{ACAD_REACTORS
330
47
102
}
330
47
100
AcDbScale
 70
     0
300
8:1
140
8.0
141
1.0
290
     0
  0
SCALE
  5
57
102
{ACAD_REACTORS
330
47
102
}
330
47
100
AcDbScale
 70
     0
300
10:1
140
10.0
141
1.0
290
     0
  0
SCALE
  5
58
102
{ACAD_REACTORS
330
47
102
}
330
47
100
AcDbScale
 70
     0
300
100:1
140
100.0
141
1.0
290
     0
  0
SCALE
  5
59
102
{ACAD_REACTORS
330
47
102
}
330
47
100
AcDbScale
 70
     0
300
1/128" = 1'-0"
140
0.0078125
141
12.0
290
     0
  0
SCALE
  5
5A
102
{ACAD_REACTORS
330
47
102
}
330
47
100
AcDbScale
 70
     0
300
1/64" = 1'-0"
140
0.015625
141
12.0
290
     0
  0
SCALE
  5
5B
102
{ACAD_REACTORS
330
47
102
}
330
47
100
AcDbScale
 70
     0
300
1/32" = 1'-0"
140
0.03125
141
12.0
290
     0
  0
SCALE
  5
5C
102
{ACAD_REACTORS
330
47
102
}
330
47
100
AcDbScale
 70
     0
300
1/16" = 1'-0"
140
0.0625
141
12.0
290
     0
  0
SCALE
  5
5D
102
{ACAD_REACTORS
330
47
102
}
330
47
100
AcDbScale
 70
     0
300
3/32" = 1'-0"
140
0.09375
141
12.0
290
     0
  0
SCALE
  5
5E
102
{ACAD_REACTORS
330
47
102
}
330
47
100
AcDbScale
 70
     0
300
1/8" = 1'-0"
140
0.125
141
12.0
290
     0
  0
SCALE
  5
5F
102
{ACAD_REACTORS
330
47
102
}
330
47
100
AcDbScale
 70
     0
300
3/16" = 1'-0"
140
0.1875
141
12.0
290
     0
  0
SCALE
  5
60
102
{ACAD_REACTORS
330
47
102
}
330
47
100
AcDbScale
 70
     0
300
1/4" = 1'-0"
140
0.25
141
12.0
290
     0
  0
SCALE
  5
61
102
{ACAD_REACTORS
330
47
102
}
330
47
100
AcDbScale
 70
     0
300
3/8" = 1'-0"
140
0.375
141
12.0
290
     0
  0
SCALE
  5
62
102
{ACAD_REACTORS
330
47
102
}
330
47
100
AcDbScale
 70
     0
300
1/2" = 1'-0"
140
0.5
141
12.0
290
     0
  0
SCALE
  5
63
102
{ACAD_REACTORS
330
47
102
}
330
47
100
AcDbScale
 70
     0
300
3/4" = 1'-0"
140
0.75
141
12.0
290
     0
  0
SCALE
  5
64
102
{ACAD_REACTORS
330
47
102
}
330
47
100
AcDbScale
 70
     0
300
1" = 1'-0"
140
1.0
141
12.0
290
     0
  0
SCALE
  5
65
102
{ACAD_REACTORS
330
47
102
}
330
47
100
AcDbScale
 70
     0
300
1-1/2" = 1'-0"
140
1.5
141
12.0
290
     0
  0
SCALE
  5
66
102
{ACAD_REACTORS
330
47
102
}
330
47
100
AcDbScale
 70
     0
300
3" = 1'-0"
140
3.0
141
12.0
290
     0
  0
SCALE
  5
67
102
{ACAD_REACTORS
330
47
102
}
330
47
100
AcDbScale
 70
     0
300
6" = 1'-0"
140
6.0
141
12.0
290
     0
  0
SCALE
  5
68
102
{ACAD_REACTORS
330
47
102
}
330
47
100
AcDbScale
 70
     0
300
1'-0" = 1'-0"
140
12.0
141
12.0
290
     0
  0
ENDSEC
  0
EOF
