  0
SECTION
  2
HEADER
  9
$ACADVER
  1
AC1015
  9
$ACADMAINTVER
 70
     6
  9
$DWGCODEPAGE
  3
ANSI_949
  9
$INSBASE
 10
0.0
 20
0.0
 30
0.0
  9
$EXTMIN
 10
-64.74750000000009
 20
-49.97180738881175
 30
0.0
  9
$EXTMAX
 10
84.12592501639708
 20
42.54150000000014
 30
0.0
  9
$LIMMIN
 10
0.0
 20
0.0
  9
$LIMMAX
 10
420.0
 20
297.0
  9
$ORTHOMODE
 70
     1
  9
$REGENMODE
 70
     1
  9
$FILLMODE
 70
     1
  9
$QTEXTMODE
 70
     0
  9
$MIRRTEXT
 70
     1
  9
$LTSCALE
 40
1.0
  9
$ATTMODE
 70
     1
  9
$TEXTSIZE
 40
3.5
  9
$TRACEWID
 40
1.0
  9
$TEXTSTYLE
  7
Standard
  9
$CLAYER
  8
0
  9
$CELTYPE
  6
ByLayer
  9
$CECOLOR
 62
   256
  9
$CELTSCALE
 40
1.0
  9
$DISPSILH
 70
     0
  9
$DIMSCALE
 40
1.0
  9
$DIMASZ
 40
3.302
  9
$DIMEXO
 40
1.0
  9
$DIMDLI
 40
3.75
  9
$DIMRND
 40
0.0
  9
$DIMDLE
 40
0.0
  9
$DIMEXE
 40
1.0
  9
$DIMTP
 40
0.0
  9
$DIMTM
 40
0.0
  9
$DIMTXT
 40
3.5
  9
$DIMCEN
 40
2.5
  9
$DIMTSZ
 40
0.0
  9
$DIMTOL
 70
     0
  9
$DIMLIM
 70
     0
  9
$DIMTIH
 70
     1
  9
$DIMTOH
 70
     1
  9
$DIMSE1
 70
     0
  9
$DIMSE2
 70
     0
  9
$DIMTAD
 70
     1
  9
$DIMZIN
 70
     0
  9
$DIMBLK
  1

  9
$DIMASO
 70
     1
  9
$DIMSHO
 70
     1
  9
$DIMPOST
  1

  9
$DIMAPOST
  1

  9
$DIMALT
 70
     0
  9
$DIMALTD
 70
     3
  9
$DIMALTF
 40
0.0393700787401575
  9
$DIMLFAC
 40
1.0
  9
$DIMTOFL
 70
     1
  9
$DIMTVP
 40
0.0
  9
$DIMTIX
 70
     0
  9
$DIMSOXD
 70
     0
  9
$DIMSAH
 70
     0
  9
$DIMBLK1
  1

  9
$DIMBLK2
  1

  9
$DIMSTYLE
  2
ISO-25
  9
$DIMCLRD
 70
     0
  9
$DIMCLRE
 70
     0
  9
$DIMCLRT
 70
     0
  9
$DIMTFAC
 40
1.0
  9
$DIMGAP
 40
1.524
  9
$DIMJUST
 70
     0
  9
$DIMSD1
 70
     0
  9
$DIMSD2
 70
     0
  9
$DIMTOLJ
 70
     0
  9
$DIMTZIN
 70
     0
  9
$DIMALTZ
 70
     0
  9
$DIMALTTZ
 70
     0
  9
$DIMUPT
 70
     0
  9
$DIMDEC
 70
     2
  9
$DIMTDEC
 70
     2
  9
$DIMALTU
 70
     2
  9
$DIMALTTD
 70
     3
  9
$DIMTXSTY
  7
Standard
  9
$DIMAUNIT
 70
     0
  9
$DIMADEC
 70
     2
  9
$DIMALTRND
 40
0.0
  9
$DIMAZIN
 70
     0
  9
$DIMDSEP
 70
    44
  9
$DIMATFIT
 70
     3
  9
$DIMFRAC
 70
     0
  9
$DIMLDRBLK
  1

  9
$DIMLUNIT
 70
     2
  9
$DIMLWD
 70
    -2
  9
$DIMLWE
 70
    -2
  9
$DIMTMOVE
 70
     0
  9
$LUNITS
 70
     2
  9
$LUPREC
 70
     2
  9
$SKETCHINC
 40
1.0
  9
$FILLETRAD
 40
10.0
  9
$AUNITS
 70
     0
  9
$AUPREC
 70
     2
  9
$MENU
  1
.
  9
$ELEVATION
 40
0.0
  9
$PELEVATION
 40
0.0
  9
$THICKNESS
 40
0.0
  9
$LIMCHECK
 70
     0
  9
$CHAMFERA
 40
0.0
  9
$CHAMFERB
 40
0.0
  9
$CHAMFERC
 40
0.0
  9
$CHAMFERD
 40
0.0
  9
$SKPOLY
 70
     0
  9
$TDCREATE
 40
2458295.490375532
  9
$TDUCREATE
 40
2458295.115375532
  9
$TDUPDATE
 40
2458302.046199051
  9
$TDUUPDATE
 40
2458301.671199051
  9
$TDINDWG
 40
0.0396872917
  9
$TDUSRTIMER
 40
0.0598018171
  9
$USRTIMER
 70
     1
  9
$ANGBASE
 50
0.0
  9
$ANGDIR
 70
     0
  9
$PDMODE
 70
     0
  9
$PDSIZE
 40
-1.0
  9
$PLINEWID
 40
0.0
  9
$SPLFRAME
 70
     0
  9
$SPLINETYPE
 70
     6
  9
$SPLINESEGS
 70
     8
  9
$HANDSEED
  5
19D
  9
$SURFTAB1
 70
     6
  9
$SURFTAB2
 70
     6
  9
$SURFTYPE
 70
     6
  9
$SURFU
 70
     6
  9
$SURFV
 70
     6
  9
$UCSBASE
  2

  9
$UCSNAME
  2

  9
$UCSORG
 10
0.0
 20
0.0
 30
0.0
  9
$UCSXDIR
 10
1.0
 20
0.0
 30
0.0
  9
$UCSYDIR
 10
0.0
 20
1.0
 30
0.0
  9
$UCSORTHOREF
  2

  9
$UCSORTHOVIEW
 70
     0
  9
$UCSORGTOP
 10
0.0
 20
0.0
 30
0.0
  9
$UCSORGBOTTOM
 10
0.0
 20
0.0
 30
0.0
  9
$UCSORGLEFT
 10
0.0
 20
0.0
 30
0.0
  9
$UCSORGRIGHT
 10
0.0
 20
0.0
 30
0.0
  9
$UCSORGFRONT
 10
0.0
 20
0.0
 30
0.0
  9
$UCSORGBACK
 10
0.0
 20
0.0
 30
0.0
  9
$PUCSBASE
  2

  9
$PUCSNAME
  2

  9
$PUCSORG
 10
0.0
 20
0.0
 30
0.0
  9
$PUCSXDIR
 10
1.0
 20
0.0
 30
0.0
  9
$PUCSYDIR
 10
0.0
 20
1.0
 30
0.0
  9
$PUCSORTHOREF
  2

  9
$PUCSORTHOVIEW
 70
     0
  9
$PUCSORGTOP
 10
0.0
 20
0.0
 30
0.0
  9
$PUCSORGBOTTOM
 10
0.0
 20
0.0
 30
0.0
  9
$PUCSORGLEFT
 10
0.0
 20
0.0
 30
0.0
  9
$PUCSORGRIGHT
 10
0.0
 20
0.0
 30
0.0
  9
$PUCSORGFRONT
 10
0.0
 20
0.0
 30
0.0
  9
$PUCSORGBACK
 10
0.0
 20
0.0
 30
0.0
  9
$USERI1
 70
     0
  9
$USERI2
 70
     0
  9
$USERI3
 70
     0
  9
$USERI4
 70
     0
  9
$USERI5
 70
     0
  9
$USERR1
 40
0.0
  9
$USERR2
 40
0.0
  9
$USERR3
 40
0.0
  9
$USERR4
 40
0.0
  9
$USERR5
 40
0.0
  9
$WORLDVIEW
 70
     1
  9
$SHADEDGE
 70
     3
  9
$SHADEDIF
 70
    70
  9
$TILEMODE
 70
     1
  9
$MAXACTVP
 70
    64
  9
$PINSBASE
 10
0.0
 20
0.0
 30
0.0
  9
$PLIMCHECK
 70
     0
  9
$PEXTMIN
 10
1.000000000000000E+20
 20
1.000000000000000E+20
 30
1.000000000000000E+20
  9
$PEXTMAX
 10
-1.000000000000000E+20
 20
-1.000000000000000E+20
 30
-1.000000000000000E+20
  9
$PLIMMIN
 10
0.0
 20
0.0
  9
$PLIMMAX
 10
0.0
 20
0.0
  9
$UNITMODE
 70
     0
  9
$VISRETAIN
 70
     1
  9
$PLINEGEN
 70
     0
  9
$PSLTSCALE
 70
     1
  9
$TREEDEPTH
 70
  3020
  9
$CMLSTYLE
  2
Standard
  9
$CMLJUST
 70
     0
  9
$CMLSCALE
 40
20.0
  9
$PROXYGRAPHICS
 70
     1
  9
$MEASUREMENT
 70
     1
  9
$CELWEIGHT
370
    -1
  9
$ENDCAPS
280
     0
  9
$JOINSTYLE
280
     0
  9
$LWDISPLAY
290
     1
  9
$INSUNITS
 70
     4
  9
$HYPERLINKBASE
  1

  9
$STYLESHEET
  1

  9
$XEDIT
290
     1
  9
$CEPSNTYPE
380
     0
  9
$PSTYLEMODE
290
     1
  9
$FINGERPRINTGUID
  2
{98B968FC-7725-4EDA-8440-0C6316DCC615}
  9
$VERSIONGUID
  2
{FAEB1C32-E019-11D5-929B-00C0DF256EC4}
  9
$EXTNAMES
290
     1
  9
$PSVPSCALE
 40
0.0
  9
$OLESTARTUP
290
     0
  0
ENDSEC
  0
SECTION
  2
CLASSES
  0
CLASS
  1
ACDBDICTIONARYWDFLT
  2
AcDbDictionaryWithDefault
  3
ObjectDBX Classes
 90
        0
280
     0
281
     0
  0
CLASS
  1
VISUALSTYLE
  2
AcDbVisualStyle
  3
ObjectDBX Classes
 90
     4095
280
     0
281
     0
  0
CLASS
  1
MATERIAL
  2
AcDbMaterial
  3
ObjectDBX Classes
 90
     1153
280
     0
281
     0
  0
CLASS
  1
SCALE
  2
AcDbScale
  3
ObjectDBX Classes
 90
     1153
280
     0
281
     0
  0
CLASS
  1
SUN
  2
AcDbSun
  3
SCENEOE
 90
     1153
280
     0
281
     0
  0
CLASS
  1
ACDBPLACEHOLDER
  2
AcDbPlaceHolder
  3
ObjectDBX Classes
 90
        0
280
     0
281
     0
  0
CLASS
  1
LAYOUT
  2
AcDbLayout
  3
ObjectDBX Classes
 90
        0
280
     0
281
     0
  0
CLASS
  1
TABLESTYLE
  2
AcDbTableStyle
  3
ObjectDBX Classes
 90
     4095
280
     0
281
     0
  0
CLASS
  1
MLEADERSTYLE
  2
AcDbMLeaderStyle
  3
ACDB_MLEADERSTYLE_CLASS
 90
     4095
280
     0
281
     0
  0
CLASS
  1
DICTIONARYVAR
  2
AcDbDictionaryVar
  3
ObjectDBX Classes
 90
        0
280
     0
281
     0
  0
ENDSEC
  0
SECTION
  2
TABLES
  0
TABLE
  2
VPORT
  5
8
330
0
100
AcDbSymbolTable
 70
     1
  0
VPORT
  5
29
330
8
100
AcDbSymbolTableRecord
100
AcDbViewportTableRecord
  2
*Active
 70
     0
 10
0.0
 20
0.0
 11
1.0
 21
1.0
 12
9.689212508198494
 22
-3.715153694405807
 13
0.0
 23
0.0
 14
10.0
 24
10.0
 15
10.0
 25
10.0
 16
0.0
 26
0.0
 36
1.0
 17
0.0
 27
0.0
 37
0.0
 40
94.36357353658812
 41
2.400311526479751
 42
50.0
 43
0.0
 44
0.0
 50
0.0
 51
0.0
 71
    16
 72
  2000
 73
     1
 74
     3
 75
     0
 76
     0
 77
     0
 78
     0
281
     0
 65
     1
110
0.0
120
0.0
130
0.0
111
1.0
121
0.0
131
0.0
112
0.0
122
1.0
132
0.0
 79
     0
146
0.0
  0
ENDTAB
  0
TABLE
  2
LTYPE
  5
5
330
0
100
AcDbSymbolTable
 70
     6
  0
LTYPE
  5
14
330
5
100
AcDbSymbolTableRecord
100
AcDbLinetypeTableRecord
  2
ByBlock
 70
     0
  3

 72
    65
 73
     0
 40
0.0
  0
LTYPE
  5
15
330
5
100
AcDbSymbolTableRecord
100
AcDbLinetypeTableRecord
  2
ByLayer
 70
     0
  3

 72
    65
 73
     0
 40
0.0
  0
LTYPE
  5
16
330
5
100
AcDbSymbolTableRecord
100
AcDbLinetypeTableRecord
  2
Continuous
 70
     0
  3
Solid line
 72
    65
 73
     0
 40
0.0
  0
LTYPE
  5
6A
330
5
100
AcDbSymbolTableRecord
100
AcDbLinetypeTableRecord
  2
HIDDEN
 70
     0
  3
Hidden __ __ __ __ __ __ __ __ __ __ __ __ __ __
 72
    65
 73
     2
 40
1.905
 49
1.27
 74
     0
 49
-0.635
 74
     0
  0
LTYPE
  5
6B
330
5
100
AcDbSymbolTableRecord
100
AcDbLinetypeTableRecord
  2
PHANTOM
 70
     0
  3
Phantom ______  __  __  ______  __  __  ______
 72
    65
 73
     6
 40
12.7
 49
6.35
 74
     0
 49
-1.27
 74
     0
 49
1.27
 74
     0
 49
-1.27
 74
     0
 49
1.27
 74
     0
 49
-1.27
 74
     0
  0
LTYPE
  5
6C
330
5
100
AcDbSymbolTableRecord
100
AcDbLinetypeTableRecord
  2
CENTER
 70
     0
  3
Center ____ _ ____ _ ____ _ ____ _ ____ _ ____
 72
    65
 73
     4
 40
10.16
 49
6.35
 74
     0
 49
-1.27
 74
     0
 49
1.27
 74
     0
 49
-1.27
 74
     0
  0
LTYPE
  5
6D
330
5
100
AcDbSymbolTableRecord
100
AcDbLinetypeTableRecord
  2
CENTERX2
 70
     0
  3
Center (2x) ________  __  ________  __  _____
 72
    65
 73
     4
 40
20.32
 49
12.7
 74
     0
 49
-2.54
 74
     0
 49
2.54
 74
     0
 49
-2.54
 74
     0
  0
LTYPE
  5
6E
330
5
100
AcDbSymbolTableRecord
100
AcDbLinetypeTableRecord
  2
DOT2
 70
     0
  3
Dot (.5x) ........................................
 72
    65
 73
     2
 40
0.635
 49
0.0
 74
     0
 49
-0.635
 74
     0
  0
ENDTAB
  0
TABLE
  2
LAYER
  5
2
330
0
100
AcDbSymbolTable
 70
    18
  0
LAYER
  5
10
330
2
100
AcDbSymbolTableRecord
100
AcDbLayerTableRecord
  2
0
 70
     0
 62
     7
  6
Continuous
370
    -3
390
F
  0
LAYER
  5
6F
330
2
100
AcDbSymbolTableRecord
100
AcDbLayerTableRecord
  2
FORMAT
 70
     0
 62
     2
  6
Continuous
370
    -3
390
F
  0
LAYER
  5
70
330
2
100
AcDbSymbolTableRecord
100
AcDbLayerTableRecord
  2
외형선
 70
     0
 62
     4
  6
Continuous
370
    30
390
F
  0
LAYER
  5
71
330
2
100
AcDbSymbolTableRecord
100
AcDbLayerTableRecord
  2
숨은선
 70
     0
 62
     2
  6
HIDDEN
370
    15
390
F
  0
LAYER
  5
72
330
2
100
AcDbSymbolTableRecord
100
AcDbLayerTableRecord
  2
중심선
 70
     0
 62
     1
  6
CENTERX2
370
    -3
390
F
  0
LAYER
  5
73
330
2
100
AcDbSymbolTableRecord
100
AcDbLayerTableRecord
  2
파단선
 70
     0
 62
     4
  6
Continuous
370
    -3
390
F
  0
LAYER
  5
74
330
2
100
AcDbSymbolTableRecord
100
AcDbLayerTableRecord
  2
해칭선
 70
     0
 62
   100
  6
Continuous
370
    -3
390
F
  0
LAYER
  5
75
330
2
100
AcDbSymbolTableRecord
100
AcDbLayerTableRecord
  2
가는실선
 70
     0
 62
     4
  6
Continuous
370
    -3
390
F
  0
LAYER
  5
76
330
2
100
AcDbSymbolTableRecord
100
AcDbLayerTableRecord
  2
치수_보조선
 70
     0
 62
     4
  6
Continuous
370
    -3
390
F
  0
LAYER
  5
77
330
2
100
AcDbSymbolTableRecord
100
AcDbLayerTableRecord
  2
치수문자_일반주서
 70
     0
 62
     7
  6
Continuous
370
    15
390
F
  0
LAYER
  5
78
330
2
100
AcDbSymbolTableRecord
100
AcDbLayerTableRecord
  2
개별주서
 70
     0
 62
   100
  6
Continuous
370
    30
390
F
  0
LAYER
  5
79
330
2
100
AcDbSymbolTableRecord
100
AcDbLayerTableRecord
  2
중간선
 70
     0
 62
     2
  6
Continuous
370
    15
390
F
  0
LAYER
  5
7A
330
2
100
AcDbSymbolTableRecord
100
AcDbLayerTableRecord
  2
윤곽선
 70
     0
 62
     3
  6
Continuous
370
    40
390
F
  0
LAYER
  5
7B
330
2
100
AcDbSymbolTableRecord
100
AcDbLayerTableRecord
  2
중심마크
 70
     0
 62
   100
  6
Continuous
370
    30
390
F
  0
LAYER
  5
7C
330
2
100
AcDbSymbolTableRecord
100
AcDbLayerTableRecord
  2
가상선
 70
     0
 62
     4
  6
PHANTOM
370
    -3
390
F
  0
LAYER
  5
7D
330
2
100
AcDbSymbolTableRecord
100
AcDbLayerTableRecord
  2
특수지정선
 70
     0
 62
     5
  6
CENTERX2
370
    60
390
F
  0
LAYER
  5
7E
330
2
100
AcDbSymbolTableRecord
100
AcDbLayerTableRecord
  2
참조1
 70
     0
 62
    -4
  6
Continuous
370
    -3
390
F
  0
LAYER
  5
18B
330
2
100
AcDbSymbolTableRecord
100
AcDbLayerTableRecord
  2
Defpoints
 70
     0
 62
     7
  6
Continuous
290
     0
370
    -3
390
F
  0
ENDTAB
  0
TABLE
  2
STYLE
  5
3
330
0
100
AcDbSymbolTable
 70
     2
  0
STYLE
  5
11
330
3
100
AcDbSymbolTableRecord
100
AcDbTextStyleTableRecord
  2
Standard
 70
     0
 40
0.0
 41
1.0
 50
0.0
 71
     0
 42
3.5
  3
txt
  4

  0
STYLE
  5
94
330
3
100
AcDbSymbolTableRecord
100
AcDbTextStyleTableRecord
  2
SLDTEXTSTYLE0
 70
     0
 40
0.0
 41
0.75
 50
0.0
 71
     0
 42
3.5
  3
TXT
  4

  0
ENDTAB
  0
TABLE
  2
VIEW
  5
6
330
0
100
AcDbSymbolTable
 70
     0
  0
ENDTAB
  0
TABLE
  2
UCS
  5
7
330
0
100
AcDbSymbolTable
 70
     0
  0
ENDTAB
  0
TABLE
  2
APPID
  5
9
330
0
100
AcDbSymbolTable
 70
     5
  0
APPID
  5
12
330
9
100
AcDbSymbolTableRecord
100
AcDbRegAppTableRecord
  2
ACAD
 70
     0
  0
APPID
  5
163
330
9
100
AcDbSymbolTableRecord
100
AcDbRegAppTableRecord
  2
PE_URL
 70
     0
  0
APPID
  5
18E
330
9
100
AcDbSymbolTableRecord
100
AcDbRegAppTableRecord
  2
ACAD_DSTYLE_DIMRADIAL_EXTENSION
 70
     0
  0
APPID
  5
19B
330
9
100
AcDbSymbolTableRecord
100
AcDbRegAppTableRecord
  2
ACAD_DSTYLE_DIMFLIPARROW_SYMBOL
 70
     0
  0
APPID
  5
19C
330
9
100
AcDbSymbolTableRecord
100
AcDbRegAppTableRecord
  2
ACAD_DSTYLE_DIMFLIPARROW_WHICH_SYMBOL
 70
     0
  0
ENDTAB
  0
TABLE
  2
DIMSTYLE
  5
A
330
0
100
AcDbSymbolTable
 70
     3
100
AcDbDimStyleTable
  0
DIMSTYLE
105
27
102
{ACAD_REACTORS
330
183
330
189
102
}
330
A
100
AcDbSymbolTableRecord
100
AcDbDimStyleTableRecord
  2
ISO-25
 70
     0
 41
2.5
 42
0.625
 43
3.75
 44
1.25
 73
     0
 74
     0
 77
     1
 78
     8
140
2.5
141
2.5
143
0.03937007874016
147
0.625
171
     3
172
     1
178
     0
271
     2
272
     2
274
     3
278
    44
283
     0
284
     8
340
11
  0
DIMSTYLE
105
E0
330
A
100
AcDbSymbolTableRecord
100
AcDbDimStyleTableRecord
  2
SLDDIMSTYLE0
 70
     0
 41
3.302
 44
0.0
 45
0.000000001
 73
     0
 74
     0
 77
     1
 78
    12
 79
     3
140
3.5
143
0.0393700787401575
147
0.875
148
0.000000001
170
     1
173
     1
178
     0
271
     2
272
     2
276
     2
284
    12
340
94
  0
DIMSTYLE
105
107
102
{ACAD_REACTORS
330
106
330
DF
330
F3
330
11B
102
}
330
A
100
AcDbSymbolTableRecord
100
AcDbDimStyleTableRecord
  2
SLDDIMSTYLE1
 70
     0
 41
3.302
 44
0.0
 45
0.000000001
 73
     0
 74
     0
 77
     1
 78
    12
 79
     3
140
3.5
143
0.0393700787401575
147
0.875
148
0.000000001
170
     1
172
     1
173
     1
178
     0
271
     2
272
     2
276
     2
284
    12
289
     0
340
94
  0
ENDTAB
  0
TABLE
  2
BLOCK_RECORD
  5
1
330
0
100
AcDbSymbolTable
 70
     8
  0
BLOCK_RECORD
  5
1F
330
1
100
AcDbSymbolTableRecord
100
AcDbBlockTableRecord
  2
*Model_Space
340
22
  0
BLOCK_RECORD
  5
1B
330
1
100
AcDbSymbolTableRecord
100
AcDbBlockTableRecord
  2
*Paper_Space
340
1E
  0
BLOCK_RECORD
  5
23
330
1
100
AcDbSymbolTableRecord
100
AcDbBlockTableRecord
  2
*Paper_Space0
340
26
  0
BLOCK_RECORD
  5
7F
330
1
100
AcDbSymbolTableRecord
100
AcDbBlockTableRecord
  2
블럭10
340
0
102
{BLKREFS
331
D8
102
}
  0
BLOCK_RECORD
  5
E1
330
1
100
AcDbSymbolTableRecord
100
AcDbBlockTableRecord
  2
_D
340
0
  0
BLOCK_RECORD
  5
F4
330
1
100
AcDbSymbolTableRecord
100
AcDbBlockTableRecord
  2
_D_1
340
0
  0
BLOCK_RECORD
  5
108
330
1
100
AcDbSymbolTableRecord
100
AcDbBlockTableRecord
  2
_D_2
340
0
  0
BLOCK_RECORD
  5
11C
330
1
100
AcDbSymbolTableRecord
100
AcDbBlockTableRecord
  2
_D_3
340
0
  0
BLOCK_RECORD
  5
135
330
1
100
AcDbSymbolTableRecord
100
AcDbBlockTableRecord
  2
SW_DOWELSYMBOL_0
340
0
102
{BLKREFS
331
13B
102
}
  0
ENDTAB
  0
ENDSEC
  0
SECTION
  2
BLOCKS
  0
BLOCK
  5
20
330
1F
100
AcDbEntity
  8
0
100
AcDbBlockBegin
  2
*Model_Space
 70
     0
 10
0.0
 20
0.0
 30
0.0
  3
*Model_Space
  1

  0
ENDBLK
  5
21
330
1F
100
AcDbEntity
  8
0
100
AcDbBlockEnd
  0
BLOCK
  5
1C
330
1B
100
AcDbEntity
 67
     1
  8
0
100
AcDbBlockBegin
  2
*Paper_Space
 70
     0
 10
0.0
 20
0.0
 30
0.0
  3
*Paper_Space
  1

  0
ENDBLK
  5
1D
330
1B
100
AcDbEntity
 67
     1
  8
0
100
AcDbBlockEnd
  0
BLOCK
  5
24
330
23
100
AcDbEntity
  8
0
100
AcDbBlockBegin
  2
*Paper_Space0
 70
     0
 10
0.0
 20
0.0
 30
0.0
  3
*Paper_Space0
  1

  0
ENDBLK
  5
25
330
23
100
AcDbEntity
  8
0
100
AcDbBlockEnd
  0
BLOCK
  5
80
330
7F
100
AcDbEntity
  8
0
100
AcDbBlockBegin
  2
블럭10
 70
     2
 10
0.0
 20
0.0
 30
0.0
  3
블럭10
  1

  0
ELLIPSE
  5
82
330
7F
100
AcDbEntity
  8
중심선
100
AcDbEllipse
 10
20.54032771741204
 20
12.0471743016438
 30
0.0
 11
6.600054785286829
 21
-1.261213355974178E-13
 31
0.0
210
0.0
220
0.0
230
1.0
 40
0.636358354079598
 41
0.9219305317359503
 42
6.513795318482858
  0
ELLIPSE
  5
83
330
7F
100
AcDbEntity
  8
중심선
100
AcDbEllipse
 10
20.54032771746488
 20
12.04717430159265
 30
0.0
 11
3.960054785062283
 21
1.540847449632565E-10
 31
0.0
210
0.0
220
0.0
230
1.0
 40
0.3939339440162632
 41
1.131841032648279
 42
5.62031148352944
  0
LINE
  5
84
330
7F
100
AcDbEntity
  8
중심선
100
AcDbLine
 10
2.268634060543552
 20
16.24717430164393
 30
0.0
 11
5.714909304380834
 21
16.24717430164393
 31
0.0
  0
LINE
  5
85
330
7F
100
AcDbEntity
  8
중심선
100
AcDbLine
 10
5.245725140726316
 20
7.84717430164391
 30
0.0
 11
8.692000384563599
 21
7.84717430164391
 31
0.0
  0
LINE
  5
86
330
7F
100
AcDbEntity
  8
중심선
100
AcDbLine
 10
15.74043728645272
 20
16.24717430164393
 30
0.0
 11
8.692000384563599
 21
7.84717430164391
 31
0.0
  0
LINE
  5
87
330
7F
100
AcDbEntity
  8
중심선
100
AcDbLine
 10
0.1404042013395286
 20
13.71084872107135
 30
0.0
 11
3.58671253028996
 21
13.71088815037384
 31
0.0
  0
LINE
  5
88
330
7F
100
AcDbEntity
  8
중심선
100
AcDbLine
 10
2.750260043222114
 20
10.84717430164391
 30
0.0
 11
6.196535287059397
 21
10.84717430164391
 31
0.0
  0
LINE
  5
89
330
7F
100
AcDbEntity
  8
중심선
100
AcDbLine
 10
12.29416204261559
 20
16.24717430164393
 30
0.0
 11
5.245725140726316
 21
7.84717430164391
 31
0.0
  0
LINE
  5
8A
330
7F
100
AcDbEntity
  8
중심선
100
AcDbLine
 10
10.72767329541681
 20
16.24717430164393
 30
0.0
 11
6.196535287059397
 21
10.84717430164391
 31
0.0
  0
LINE
  5
8B
330
7F
100
AcDbEntity
  8
중심선
100
AcDbLine
 10
7.28139805157953
 20
16.24717430164393
 30
0.0
 11
2.750260043222114
 21
10.84717430164391
 31
0.0
  0
LINE
  5
8C
330
7F
100
AcDbEntity
  8
중심선
100
AcDbLine
 10
5.714909304380834
 20
16.24717430164393
 30
0.0
 11
3.58671253028996
 21
13.71088815037384
 31
0.0
  0
LINE
  5
8D
330
7F
100
AcDbEntity
  8
중심선
100
AcDbLine
 10
2.268634060543552
 20
16.24717430164393
 30
0.0
 11
0.1404042013395286
 21
13.71084872107135
 31
0.0
  0
LINE
  5
8E
330
7F
100
AcDbEntity
  8
중심선
100
AcDbLine
 10
7.28139805157953
 20
16.24717430164393
 30
0.0
 11
10.72767329541681
 21
16.24717430164393
 31
0.0
  0
LINE
  5
8F
330
7F
100
AcDbEntity
  8
중심선
100
AcDbLine
 10
12.29416204261559
 20
16.24717430164393
 30
0.0
 11
15.74043728645272
 21
16.24717430164393
 31
0.0
  0
LINE
  5
90
330
7F
100
AcDbEntity
  8
중심선
100
AcDbLine
 10
19.22036997980202
 20
11.08717430171403
 30
0.0
 11
23.66174974927406
 21
11.08717430171406
 31
0.0
  0
LINE
  5
91
330
7F
100
AcDbEntity
  8
중심선
100
AcDbLine
 10
19.22039502424796
 20
13.00717430171391
 30
0.0
 11
19.22036997980202
 21
11.08717430171403
 31
0.0
  0
LINE
  5
92
330
7F
100
AcDbEntity
  8
중심선
100
AcDbLine
 10
19.22039502424796
 20
13.00717430171391
 30
0.0
 11
26.96566020931264
 21
13.00717430171391
 31
0.0
  0
LINE
  5
93
330
7F
100
AcDbEntity
  8
중심선
100
AcDbLine
 10
22.22332737316547
 20
13.45928029700563
 30
0.0
 11
24.52862924686651
 21
15.39360700705356
 31
0.0
  0
ATTDEF
  5
95
330
7F
100
AcDbEntity
  8
FORMAT
 62
     2
100
AcDbText
 10
3.448148490846466
 20
2.075366912832191
 30
0.0
 40
4.233333333333333
  1
EM668903
 41
0.75
  7
SLDTEXTSTYLE0
 11
3.448148490846466
 21
-0.0412997538344756
 31
0.0
100
AcDbAttributeDefinition
  3

  2
AUTOATTR0
 70
     0
 74
     1
  0
ENDBLK
  5
81
330
7F
100
AcDbEntity
  8
0
100
AcDbBlockEnd
  0
BLOCK
  5
E2
330
E1
100
AcDbEntity
  8
0
100
AcDbBlockBegin
  2
_D
 70
     0
 10
0.0
 20
0.0
 30
0.0
  3
_D
  1

  0
LINE
  5
E4
330
E1
100
AcDbEntity
  8
치수문자_일반주서
 62
     0
370
    -2
100
AcDbLine
 10
43.74999999999999
 20
6.475999999999996
 30
0.0
 11
43.74999999999999
 21
17.41054920291657
 31
0.0
  0
LINE
  5
E5
330
E1
100
AcDbEntity
  8
치수문자_일반주서
 62
     0
370
    -2
100
AcDbLine
 10
11.99999999999999
 20
7.964910935819936
 30
0.0
 11
11.99999999999999
 21
17.41054920291657
 31
0.0
  0
LINE
  5
E6
330
E1
100
AcDbEntity
  8
치수문자_일반주서
 62
     0
370
    -2
100
AcDbLine
 10
40.44799999999999
 20
17.41054920291657
 30
0.0
 11
15.30199999999999
 21
17.41054920291657
 31
0.0
  0
SOLID
  5
E7
330
E1
100
AcDbEntity
  8
치수문자_일반주서
 62
     0
100
AcDbTrace
 10
40.44799999999999
 20
16.86021586958324
 30
0.0
 11
40.44799999999999
 21
17.96088253624991
 31
0.0
 12
43.74999999999999
 22
17.41054920291657
 32
0.0
 13
43.74999999999999
 23
17.41054920291657
 33
0.0
  0
SOLID
  5
E8
330
E1
100
AcDbEntity
  8
치수문자_일반주서
 62
     0
100
AcDbTrace
 10
15.30199999999999
 20
17.96088253624991
 30
0.0
 11
15.30199999999999
 21
16.86021586958324
 31
0.0
 12
11.99999999999999
 22
17.41054920291657
 32
0.0
 13
11.99999999999999
 23
17.41054920291657
 33
0.0
  0
MTEXT
  5
E9
330
E1
100
AcDbEntity
  8
치수문자_일반주서
 62
     0
100
AcDbMText
 10
27.87499999999999
 20
21.78554920291657
 30
0.0
 40
3.5
 41
0.0
 71
     2
 72
     1
  1
\A1;31.75 [1 1/4]
  7
SLDTEXTSTYLE0
 73
     1
 44
1.0
  0
POINT
  5
EA
330
E1
100
AcDbEntity
  8
Defpoints
 62
     0
100
AcDbPoint
 10
43.74999999999999
 20
6.413499999999996
 30
0.0
  0
POINT
  5
EB
330
E1
100
AcDbEntity
  8
Defpoints
 62
     0
100
AcDbPoint
 10
11.99999999999999
 20
7.902410935819936
 30
0.0
  0
POINT
  5
EC
330
E1
100
AcDbEntity
  8
Defpoints
 62
     0
100
AcDbPoint
 10
11.99999999999999
 20
17.41054920291657
 30
0.0
  0
ENDBLK
  5
E3
330
E1
100
AcDbEntity
  8
0
100
AcDbBlockEnd
  0
BLOCK
  5
F5
330
F4
100
AcDbEntity
  8
0
100
AcDbBlockBegin
  2
_D_1
 70
     0
 10
0.0
 20
0.0
 30
0.0
  3
_D_1
  1

  0
LINE
  5
F7
330
F4
100
AcDbEntity
  8
치수문자_일반주서
 62
     0
370
    -2
100
AcDbLine
 10
43.74999999999999
 20
6.475999999999996
 30
0.0
 11
43.74999999999999
 21
29.90648030427566
 31
0.0
  0
LINE
  5
F8
330
F4
100
AcDbEntity
  8
치수문자_일반주서
 62
     0
370
    -2
100
AcDbLine
 10
-48.32500000000002
 20
6.412499999999997
 30
0.0
 11
-48.32500000000002
 21
29.90648030427566
 31
0.0
  0
LINE
  5
F9
330
F4
100
AcDbEntity
  8
치수문자_일반주서
 62
     0
370
    -2
100
AcDbLine
 10
40.44799999999999
 20
29.90648030427566
 30
0.0
 11
-45.02300000000002
 21
29.90648030427566
 31
0.0
  0
SOLID
  5
FA
330
F4
100
AcDbEntity
  8
치수문자_일반주서
 62
     0
100
AcDbTrace
 10
40.44799999999999
 20
29.35614697094232
 30
0.0
 11
40.44799999999999
 21
30.45681363760899
 31
0.0
 12
43.74999999999999
 22
29.90648030427566
 32
0.0
 13
43.74999999999999
 23
29.90648030427566
 33
0.0
  0
SOLID
  5
FB
330
F4
100
AcDbEntity
  8
치수문자_일반주서
 62
     0
100
AcDbTrace
 10
-45.02300000000002
 20
30.45681363760899
 30
0.0
 11
-45.02300000000002
 21
29.35614697094232
 31
0.0
 12
-48.32500000000002
 22
29.90648030427566
 32
0.0
 13
-48.32500000000002
 23
29.90648030427566
 33
0.0
  0
MTEXT
  5
FC
330
F4
100
AcDbEntity
  8
치수문자_일반주서
 62
     0
100
AcDbMText
 10
-2.287500000000021
 20
34.28148030427566
 30
0.0
 40
3.5
 41
0.0
 71
     2
 72
     1
  1
\A1;92.08 [3 5/8]
  7
SLDTEXTSTYLE0
 73
     1
 44
1.0
  0
POINT
  5
FD
330
F4
100
AcDbEntity
  8
Defpoints
 62
     0
100
AcDbPoint
 10
43.74999999999999
 20
6.413499999999996
 30
0.0
  0
POINT
  5
FE
330
F4
100
AcDbEntity
  8
Defpoints
 62
     0
100
AcDbPoint
 10
-48.32500000000002
 20
6.349999999999997
 30
0.0
  0
POINT
  5
FF
330
F4
100
AcDbEntity
  8
Defpoints
 62
     0
100
AcDbPoint
 10
-48.32500000000002
 20
29.90648030427566
 30
0.0
  0
ENDBLK
  5
F6
330
F4
100
AcDbEntity
  8
0
100
AcDbBlockEnd
  0
BLOCK
  5
109
330
108
100
AcDbEntity
  8
0
100
AcDbBlockBegin
  2
_D_2
 70
     0
 10
0.0
 20
0.0
 30
0.0
  3
_D_2
  1

  0
LINE
  5
10B
330
108
100
AcDbEntity
  8
치수문자_일반주서
 62
     0
370
    -2
100
AcDbLine
 10
-46.80000000000003
 20
7.93750000000001
 30
0.0
 11
-60.37250000000007
 21
7.937499999999957
 31
0.0
  0
LINE
  5
10C
330
108
100
AcDbEntity
  8
치수문자_일반주서
 62
     0
370
    -2
100
AcDbLine
 10
-46.80000000000003
 20
-7.937500000000019
 30
0.0
 11
-60.37250000000001
 21
-7.937500000000071
 31
0.0
  0
LINE
  5
10D
330
108
100
AcDbEntity
  8
치수문자_일반주서
 62
     0
370
    -2
100
AcDbLine
 10
-60.37250000000007
 20
7.937499999999957
 30
0.0
 11
-60.37250000000001
 21
-7.937500000000071
 31
0.0
  0
LINE
  5
10E
330
108
100
AcDbEntity
  8
치수문자_일반주서
 62
     0
370
    -2
100
AcDbLine
 10
-60.37250000000008
 20
11.23949999999996
 30
0.0
 11
-60.37250000000009
 21
14.54149999999996
 31
0.0
  0
LINE
  5
10F
330
108
100
AcDbEntity
  8
치수문자_일반주서
 62
     0
370
    -2
100
AcDbLine
 10
-60.3725
 20
-11.23950000000007
 30
0.0
 11
-60.37249999999998
 21
-14.54150000000007
 31
0.0
  0
SOLID
  5
110
330
108
100
AcDbEntity
  8
치수문자_일반주서
 62
     0
100
AcDbTrace
 10
-60.92283333333341
 20
11.23949999999996
 30
0.0
 11
-59.82216666666675
 21
11.23949999999996
 31
0.0
 12
-60.37250000000007
 22
7.937499999999957
 32
0.0
 13
-60.37250000000007
 23
7.937499999999957
 33
0.0
  0
SOLID
  5
111
330
108
100
AcDbEntity
  8
치수문자_일반주서
 62
     0
100
AcDbTrace
 10
-59.82216666666666
 20
-11.23950000000007
 30
0.0
 11
-60.92283333333333
 21
-11.23950000000007
 31
0.0
 12
-60.37250000000001
 22
-7.937500000000071
 32
0.0
 13
-60.37250000000001
 23
-7.937500000000071
 33
0.0
  0
MTEXT
  5
112
330
108
100
AcDbEntity
  8
치수문자_일반주서
 62
     0
100
AcDbMText
 10
-64.74750000000003
 20
-0.000000000000005
 30
0.0
 40
3.5
 41
0.0
 71
     2
 72
     1
  1
\A1;%%c15.88 [5/8]
  7
SLDTEXTSTYLE0
 11
-3.580687802255617E-15
 21
1.0
 31
0.0
 73
     1
 44
1.0
  0
POINT
  5
113
330
108
100
AcDbEntity
  8
Defpoints
 62
     0
100
AcDbPoint
 10
-46.73750000000003
 20
7.93750000000001
 30
0.0
  0
POINT
  5
18F
330
108
100
AcDbEntity
  8
Defpoints
 62
     0
100
AcDbPoint
 10
-46.73750000000003
 20
-7.937500000000019
 30
0.0
  0
POINT
  5
190
330
108
100
AcDbEntity
  8
Defpoints
 62
     0
100
AcDbPoint
 10
-60.37250000000001
 20
-7.937500000000069
 30
0.0
  0
ENDBLK
  5
10A
330
108
100
AcDbEntity
  8
0
100
AcDbBlockEnd
  0
BLOCK
  5
11D
330
11C
100
AcDbEntity
  8
0
100
AcDbBlockBegin
  2
_D_3
 70
     0
 10
0.0
 20
0.0
 30
0.0
  3
_D_3
  1

  0
LINE
  5
11F
330
11C
100
AcDbEntity
  8
치수문자_일반주서
 62
     0
370
    -2
100
AcDbLine
 10
43.81249999999999
 20
7.937500000000047
 30
0.0
 11
59.59458361571961
 21
7.937500000000103
 31
0.0
  0
LINE
  5
120
330
11C
100
AcDbEntity
  8
치수문자_일반주서
 62
     0
370
    -2
100
AcDbLine
 10
43.81249999999999
 20
-7.937499999999949
 30
0.0
 11
59.59458361571967
 21
-7.93749999999989
 31
0.0
  0
LINE
  5
121
330
11C
100
AcDbEntity
  8
치수문자_일반주서
 62
     0
370
    -2
100
AcDbLine
 10
59.59458361571961
 20
7.937500000000103
 30
0.0
 11
59.59458361571949
 21
42.54150000000014
 31
0.0
  0
LINE
  5
122
330
11C
100
AcDbEntity
  8
치수문자_일반주서
 62
     0
370
    -2
100
AcDbLine
 10
59.59458361571961
 20
7.937500000000103
 30
0.0
 11
59.59458361571967
 21
-7.93749999999989
 31
0.0
  0
LINE
  5
123
330
11C
100
AcDbEntity
  8
치수문자_일반주서
 62
     0
370
    -2
100
AcDbLine
 10
59.5945836157196
 20
11.2395000000001
 30
0.0
 11
59.59458361571959
 21
14.5415000000001
 31
0.0
  0
LINE
  5
124
330
11C
100
AcDbEntity
  8
치수문자_일반주서
 62
     0
370
    -2
100
AcDbLine
 10
59.59458361571969
 20
-11.23949999999989
 30
0.0
 11
59.5945836157197
 21
-14.54149999999989
 31
0.0
  0
SOLID
  5
125
330
11C
100
AcDbEntity
  8
치수문자_일반주서
 62
     0
100
AcDbTrace
 10
59.04425028238627
 20
11.2395000000001
 30
0.0
 11
60.14491694905293
 21
11.2395000000001
 31
0.0
 12
59.59458361571961
 22
7.937500000000103
 32
0.0
 13
59.59458361571961
 23
7.937500000000103
 33
0.0
  0
SOLID
  5
126
330
11C
100
AcDbEntity
  8
치수문자_일반주서
 62
     0
100
AcDbTrace
 10
60.14491694905302
 20
-11.23949999999989
 30
0.0
 11
59.04425028238635
 21
-11.23949999999989
 31
0.0
 12
59.59458361571967
 22
-7.93749999999989
 32
0.0
 13
59.59458361571967
 23
-7.93749999999989
 33
0.0
  0
MTEXT
  5
127
330
11C
100
AcDbEntity
  8
치수문자_일반주서
 62
     0
100
AcDbMText
 10
55.21958361571954
 20
28.54150000000013
 30
0.0
 40
3.5
 41
0.0
 71
     2
 72
     1
  1
\A1;%%c15.88 [5/8]
  7
SLDTEXTSTYLE0
 11
-3.580687802255625E-15
 21
1.0
 31
0.0
 73
     1
 44
1.0
  0
POINT
  5
128
330
11C
100
AcDbEntity
  8
Defpoints
 62
     0
100
AcDbPoint
 10
43.74999999999999
 20
7.937500000000047
 30
0.0
  0
POINT
  5
18C
330
11C
100
AcDbEntity
  8
Defpoints
 62
     0
100
AcDbPoint
 10
43.74999999999999
 20
-7.937499999999949
 30
0.0
  0
POINT
  5
18D
330
11C
100
AcDbEntity
  8
Defpoints
 62
     0
100
AcDbPoint
 10
59.59458361571967
 20
-7.93749999999989
 30
0.0
  0
ENDBLK
  5
11E
330
11C
100
AcDbEntity
  8
0
100
AcDbBlockEnd
  0
BLOCK
  5
136
330
135
100
AcDbEntity
  8
0
100
AcDbBlockBegin
  2
SW_DOWELSYMBOL_0
 70
     0
 10
0.0
 20
0.0
 30
0.0
  3
SW_DOWELSYMBOL_0
  1

  0
CIRCLE
  5
138
330
135
100
AcDbEntity
  8
해칭선
 62
     0
100
AcDbCircle
 10
0.0
 20
0.0
 30
0.0
 40
3.000000000000001
  0
HATCH
  5
139
330
135
100
AcDbEntity
  8
0
  6
Continuous
 62
     0
370
     0
100
AcDbHatch
 10
0.0
 20
0.0
 30
0.0
210
0.0
220
0.0
230
1.0
  2
SOLID
 70
     1
 71
     0
 91
        1
 92
        0
 93
        3
 72
     2
 10
0.0
 20
0.0
 40
3.000000000000001
 50
0.0
 51
90.0
 73
     1
 72
     1
 10
0.0
 20
3.000000000000001
 11
0.0
 21
0.0
 72
     1
 10
0.0
 20
0.0
 11
3.000000000000003
 21
0.0
 97
        0
 75
     0
 76
     1
 98
        1
 10
0.0
 20
0.0
  0
HATCH
  5
13A
330
135
100
AcDbEntity
  8
0
  6
Continuous
 62
     0
370
     0
100
AcDbHatch
 10
0.0
 20
0.0
 30
0.0
210
0.0
220
0.0
230
1.0
  2
SOLID
 70
     1
 71
     0
 91
        1
 92
        0
 93
        3
 72
     2
 10
0.0
 20
0.0
 40
3.000000000000001
 50
180.0
 51
270.0000000000008
 73
     1
 72
     1
 10
0.0
 20
-3.000000000000001
 11
0.0
 21
0.0
 72
     1
 10
0.0
 20
0.0
 11
-3.000000000000001
 21
0.0
 97
        0
 75
     0
 76
     1
 98
        1
 10
0.0
 20
0.0
  0
ENDBLK
  5
137
330
135
100
AcDbEntity
  8
0
100
AcDbBlockEnd
  0
ENDSEC
  0
SECTION
  2
ENTITIES
  0
SPLINE
  5
96
330
1F
100
AcDbEntity
  8
외형선
  6
Continuous
370
    15
100
AcDbSpline
210
0.0
220
0.0
230
1.0
 70
     8
 71
     3
 72
     9
 73
     5
 74
     0
 42
0.000000001
 43
0.00000001
 40
0.0
 40
0.0
 40
0.0
 40
0.0
 40
0.5761179498379261
 40
1.0
 40
1.0
 40
1.0
 40
1.0
 10
11.99999999999999
 20
-1.43155792472429
 30
0.0
 10
12.05392300941953
 20
-1.476440523003008
 30
0.0
 10
12.14752017894827
 20
-1.554345747603881
 30
0.0
 10
12.24803279590449
 20
-1.616558412856352
 30
0.0
 10
12.29063829004705
 20
-1.642929244949617
 30
0.0
  0
LINE
  5
97
330
1F
100
AcDbEntity
  8
외형선
  6
Continuous
 62
     1
370
    15
100
AcDbLine
 10
17.80282985024838
 20
1.543271672299176
 30
0.0
 11
17.72359584165801
 21
1.5875423028274
 31
0.0
  0
LINE
  5
98
330
1F
100
AcDbEntity
  8
외형선
  6
Continuous
 62
     1
370
    15
100
AcDbLine
 10
16.61798918129501
 20
7.937499999999996
 30
0.0
 11
13.2936187019656
 21
7.937499999999996
 31
0.0
  0
LINE
  5
99
330
1F
100
AcDbEntity
  8
외형선
  6
Continuous
 62
     1
370
    15
100
AcDbLine
 10
42.08813082075432
 20
-7.937500000000004
 30
0.0
 11
42.226
 21
-7.937500000000004
 31
0.0
  0
LINE
  5
9A
330
1F
100
AcDbEntity
  8
외형선
  6
Continuous
 62
     1
370
    15
100
AcDbLine
 10
27.69067713430394
 20
-7.937500000000004
 30
0.0
 11
31.01450403658772
 21
-7.937500000000004
 31
0.0
  0
LINE
  5
9B
330
1F
100
AcDbEntity
  8
외형선
  6
Continuous
 62
     1
370
    15
100
AcDbLine
 10
31.01450403658769
 20
7.937499999999996
 30
0.0
 11
27.69067713430405
 21
7.937499999999996
 31
0.0
  0
LINE
  5
9C
330
1F
100
AcDbEntity
  8
외형선
  6
Continuous
 62
     1
370
    15
100
AcDbLine
 10
13.2936187019655
 20
-7.937500000000004
 30
0.0
 11
16.61798918129487
 21
-7.937500000000004
 31
0.0
  0
ARC
  5
9D
330
1F
100
AcDbEntity
  8
외형선
  6
Continuous
 62
     1
370
    15
100
AcDbCircle
 10
42.226
 20
-6.413500000000009
 30
0.0
 40
1.523999999999997
100
AcDbArc
 50
270.0000000000008
 51
0.0
  0
ARC
  5
9E
330
1F
100
AcDbEntity
  8
외형선
  6
Continuous
 62
     1
370
    15
100
AcDbCircle
 10
42.226
 20
6.4135
 30
0.0
 40
1.523999999999997
100
AcDbArc
 50
0.0
 51
90.0
  0
LINE
  5
9F
330
1F
100
AcDbEntity
  8
외형선
  6
Continuous
 62
     1
370
    15
100
AcDbLine
 10
42.226
 20
7.937499999999996
 30
0.0
 11
42.08813082075429
 21
7.937499999999996
 31
0.0
  0
LINE
  5
A0
330
1F
100
AcDbEntity
  8
외형선
  6
Continuous
370
    15
100
AcDbLine
 10
-46.73750000000003
 20
-7.937500000000004
 30
0.0
 11
11.74984504546611
 21
-7.937500000000004
 31
0.0
  0
LINE
  5
A1
330
1F
100
AcDbEntity
  8
외형선
  6
Continuous
370
    15
100
AcDbLine
 10
11.74984504546611
 20
7.937499999999996
 30
0.0
 11
-46.73750000000003
 21
7.937499999999996
 31
0.0
  0
LINE
  5
A2
330
1F
100
AcDbEntity
  8
외형선
  6
Continuous
370
    15
100
AcDbLine
 10
-46.73750000000003
 20
7.937499999999994
 30
0.0
 11
-48.32500000000002
 21
6.349999999999997
 31
0.0
  0
LINE
  5
A3
330
1F
100
AcDbEntity
  8
외형선
  6
Continuous
370
    15
100
AcDbLine
 10
-48.32500000000002
 20
-6.350000000000006
 30
0.0
 11
-46.73750000000003
 21
-7.937500000000003
 31
0.0
  0
SPLINE
  5
A4
330
1F
100
AcDbEntity
  8
외형선
  6
Continuous
 62
     1
370
    15
100
AcDbSpline
210
0.0
220
0.0
230
1.0
 70
     8
 71
     3
 72
    18
 73
    14
 74
     0
 42
0.000000001
 43
0.00000001
 40
0.0
 40
0.0
 40
0.0
 40
0.0
 40
0.0984717198855885
 40
0.1969644778829274
 40
0.2954697574251663
 40
0.3939529676855389
 40
0.492417639678874
 40
0.5908697585909538
 40
0.6893153345723656
 40
0.7795464944571692
 40
0.8698065373345104
 40
0.9601236826231292
 40
1.0
 40
1.0
 40
1.0
 40
1.0
 10
11.99999999999999
 20
-1.481680424439234
 30
0.0
 10
12.80604054604221
 20
-1.934443312236918
 30
0.0
 10
14.41829384565087
 20
-2.84006581891651
 30
0.0
 10
16.83699163989194
 20
-4.098493986272586
 30
0.0
 10
19.25588580739447
 20
-5.233639911658533
 30
0.0
 10
21.67437984412687
 20
-6.206549535883114
 30
0.0
 10
24.09236809019842
 20
-6.988036017360598
 30
0.0
 10
26.50995517064126
 20
-7.554072470373535
 30
0.0
 10
28.86022081733852
 20
-7.876918845844346
 30
0.0
 10
31.14307577352028
 20
-7.973439121745414
 30
0.0
 10
33.35958564718952
 20
-7.84936002798766
 30
0.0
 10
35.16433050299454
 20
-7.61602772258244
 30
0.0
 10
36.23003572056645
 20
-7.357378336705859
 30
0.0
 10
36.55644534679531
 20
-7.278157884392924
 30
0.0
  0
SPLINE
  5
A5
330
1F
100
AcDbEntity
  8
외형선
  6
Continuous
370
    15
100
AcDbSpline
210
0.0
220
0.0
230
1.0
 70
    24
 71
     3
 72
    22
 73
    18
 74
     0
 42
0.000000001
 43
0.00000001
 40
0.0
 40
0.0
 40
0.0
 40
0.0
 40
0.0848956343010599
 40
0.1522026611440514
 40
0.2214615963251931
 40
0.2887686231681534
 40
0.3580275583492613
 40
0.4253345851922203
 40
0.4945935203733275
 40
0.561900547216294
 40
0.631159482397395
 40
0.6984665092403546
 40
0.7677254444214623
 40
0.8350324712644207
 40
0.9042914064455292
 40
0.9715984332884888
 40
1.0
 40
1.0
 40
1.0
 40
1.0
 10
11.99999999999999
 20
4.59684913013781
 30
0.0
 10
11.99999999999999
 20
4.494851680895423
 30
0.0
 10
11.99999999999999
 20
4.311988529775732
 30
0.0
 10
11.99999999999997
 20
3.928121238639381
 30
0.0
 10
11.99999999999992
 20
3.517826330232192
 30
0.0
 10
11.99999999999995
 20
3.050005960991184
 30
0.0
 10
11.99999999999999
 20
2.548520628052641
 30
0.0
 10
11.99999999999996
 20
2.017948036956221
 30
0.0
 10
12.00000000000003
 20
1.483015721993642
 30
0.0
 10
11.99999999999991
 20
0.9491852334168059
 30
0.0
 10
12.00000000000001
 20
0.4412211799760895
 30
0.0
 10
11.99999999999993
 20
-0.0357759155695911
 30
0.0
 10
11.99999999999999
 20
-0.45922756937326
 30
0.0
 10
11.99999999999997
 20
-0.826606653792374
 30
0.0
 10
11.99999999999997
 20
-1.114059333353204
 30
0.0
 10
11.99999999999999
 20
-1.29852719460149
 30
0.0
 10
11.99999999999998
 20
-1.352547073008351
 30
0.0
 10
11.99999999999998
 20
-1.368577495390924
 30
0.0
  0
SPLINE
  5
A6
330
1F
100
AcDbEntity
  8
외형선
  6
Continuous
 62
     1
370
    15
100
AcDbSpline
210
0.0
220
0.0
230
1.0
 70
     8
 71
     3
 72
    20
 73
    16
 74
     0
 42
0.000000001
 43
0.00000001
 40
0.0
 40
0.0
 40
0.0
 40
0.0
 40
0.0757620598562881
 40
0.15610830705657
 40
0.2364613474068292
 40
0.3168260810015461
 40
0.3972073846918255
 40
0.4776020569368227
 40
0.5579801553200925
 40
0.6316420368859372
 40
0.7052823105120621
 40
0.7789258020820682
 40
0.8525973188068833
 40
0.9263137839148363
 40
1.0
 40
1.0
 40
1.0
 40
1.0
 10
42.08813082075432
 20
-7.930912975001598
 30
0.0
 10
41.32830636948345
 20
-7.912550287353768
 30
0.0
 10
39.76268224346205
 20
-7.87471382821909
 30
0.0
 10
37.39118405815587
 20
-7.513923680489548
 30
0.0
 10
34.97348272729538
 20
-6.934487224061264
 30
0.0
 10
32.55536059123055
 20
-6.135648973274011
 30
0.0
 10
30.13671799959934
 20
-5.148876744640948
 30
0.0
 10
27.71782446849279
 20
-4.002964956664842
 30
0.0
 10
25.36641624553265
 20
-2.768770493388441
 30
0.0
 10
23.08308073519241
 20
-1.493656843793842
 30
0.0
 10
20.86741135710309
 20
-0.2173776390085736
 30
0.0
 10
18.65161663380383
 20
1.065136820563231
 30
0.0
 10
16.43492955979628
 20
2.317943883188655
 30
0.0
 10
14.2173433742785
 20
3.518672086540171
 30
0.0
 10
12.73901333365665
 20
4.237505953747542
 30
0.0
 10
12.0
 20
4.596849130137809
 30
0.0
  0
LINE
  5
A7
330
1F
100
AcDbEntity
  8
외형선
  6
Continuous
 62
     1
370
    15
100
AcDbLine
 10
43.74999999999999
 20
-6.358801094091058
 30
0.0
 11
43.74999999999999
 21
-3.903260458796222
 31
0.0
  0
SPLINE
  5
A8
330
1F
100
AcDbEntity
  8
외형선
  6
Continuous
 62
     1
370
    15
100
AcDbSpline
210
0.0
220
0.0
230
1.0
 70
     8
 71
     3
 72
    18
 73
    14
 74
     0
 42
0.000000001
 43
0.00000001
 40
0.0
 40
0.0
 40
0.0
 40
0.0
 40
0.2499999999999998
 40
0.2499999999999998
 40
0.4999999999999997
 40
0.4999999999999997
 40
0.6249999999999997
 40
0.6249999999999997
 40
0.7499999999999998
 40
0.7499999999999998
 40
0.875
 40
0.875
 40
1.0
 40
1.0
 40
1.0
 40
1.0
 10
42.226
 20
-7.725363743667451
 30
0.0
 10
42.41526263535864
 20
-7.750419093493434
 30
0.0
 10
42.59595699530139
 20
-7.740995813604171
 30
0.0
 10
42.94672351573917
 20
-7.65103186356451
 30
0.0
 10
43.10687299682887
 20
-7.57347045221581
 30
0.0
 10
43.32712093953714
 20
-7.395058432991732
 30
0.0
 10
43.39447637342771
 20
-7.326937997334267
 30
0.0
 10
43.51638444558675
 20
-7.170924029254332
 30
0.0
 10
43.57092192791976
 20
-7.082296401340354
 30
0.0
 10
43.65912176532666
 20
-6.892155116203019
 30
0.0
 10
43.6938643323485
 20
-6.787856308043958
 30
0.0
 10
43.73892650856839
 20
-6.576453798169227
 30
0.0
 10
43.75000000000001
 20
-6.467130939383511
 30
0.0
 10
43.74999999999999
 20
-6.358801094091058
 30
0.0
  0
SPLINE
  5
A9
330
1F
100
AcDbEntity
  8
외형선
  6
Continuous
 62
     1
370
    15
100
AcDbSpline
210
0.0
220
0.0
230
1.0
 70
     8
 71
     3
 72
    44
 73
    40
 74
     0
 42
0.000000001
 43
0.00000001
 40
0.0
 40
0.0
 40
0.0
 40
0.0
 40
0.0624999999999995
 40
0.0624999999999995
 40
0.1249999999999991
 40
0.1249999999999991
 40
0.1874999999999986
 40
0.1874999999999986
 40
0.2499999999999982
 40
0.2499999999999982
 40
0.3124999999999977
 40
0.3124999999999977
 40
0.3749999999999973
 40
0.3749999999999973
 40
0.4062499999999971
 40
0.4062499999999971
 40
0.4374999999999969
 40
0.4374999999999969
 40
0.4687499999999967
 40
0.4687499999999967
 40
0.4999999999999966
 40
0.4999999999999966
 40
0.5624999999999962
 40
0.5624999999999962
 40
0.593749999999996
 40
0.593749999999996
 40
0.6249999999999957
 40
0.6249999999999957
 40
0.6874999999999963
 40
0.6874999999999963
 40
0.749999999999997
 40
0.749999999999997
 40
0.8124999999999977
 40
0.8124999999999977
 40
0.8749999999999982
 40
0.8749999999999982
 40
0.9374999999999989
 40
0.9374999999999989
 40
1.0
 40
1.0
 40
1.0
 40
1.0
 10
42.22600000000001
 20
-7.725363743667453
 30
0.0
 10
41.59486493489964
 20
-7.641811542179982
 30
0.0
 10
40.96872847302045
 20
-7.534172997036497
 30
0.0
 10
39.70833758719102
 20
-7.271793841976386
 30
0.0
 10
39.07513551476732
 20
-7.116981008825903
 30
0.0
 10
37.82055841151628
 20
-6.764680620918776
 30
0.0
 10
37.18896025033442
 20
-6.566268739338961
 30
0.0
 10
35.92751912945609
 20
-6.129510453125953
 30
0.0
 10
35.30181185319515
 20
-5.891753143631719
 30
0.0
 10
34.04006996154124
 20
-5.379400681547292
 30
0.0
 10
33.40945668741846
 20
-5.105463615067933
 30
0.0
 10
32.15398248513534
 20
-4.528141720545334
 30
0.0
 10
31.52067860123778
 20
-4.22343446474625
 30
0.0
 10
30.57575992497608
 20
-3.748675121777163
 30
0.0
 10
30.26268542895951
 20
-3.58767120487668
 30
0.0
 10
29.63420421867528
 20
-3.259888447263909
 30
0.0
 10
29.31873066425204
 20
-3.093089747388465
 30
0.0
 10
28.68754477369259
 20
-2.754835857266828
 30
0.0
 10
28.3718341964206
 20
-2.583381604275969
 30
0.0
 10
27.74241046787669
 20
-2.237043617918103
 30
0.0
 10
27.42958914575928
 20
-2.062329819517873
 30
0.0
 10
26.48588468758922
 20
-1.532770802382278
 30
0.0
 10
25.85244482713869
 20
-1.172973879029436
 30
0.0
 10
24.90922651002884
 20
-0.6307548916860581
 30
0.0
 10
24.5963181316168
 20
-0.449665288008309
 30
0.0
 10
23.96661605595311
 20
-0.0863179699719569
 30
0.0
 10
23.65084710202256
 20
0.0957431603745624
 30
0.0
 10
22.70413758700372
 20
0.6411558738220561
 30
0.0
 10
22.07798043974734
 20
1.002932860684564
 30
0.0
 10
20.81762393564313
 20
1.719451136285404
 30
0.0
 10
20.18441354293955
 20
2.073971963623583
 30
0.0
 10
18.92976955022493
 20
2.765597168076217
 30
0.0
 10
18.29824584177152
 20
3.104558640457455
 30
0.0
 10
17.03678105714224
 20
3.760521040349808
 30
0.0
 10
16.41107681617945
 20
4.076839678174482
 30
0.0
 10
15.14935489659896
 20
4.683585084328135
 30
0.0
 10
14.51867318778371
 20
4.973088625678626
 30
0.0
 10
13.26326224717317
 20
5.518208088508137
 30
0.0
 10
12.62996481380259
 20
5.775023373933864
 30
0.0
 10
11.99999999999998
 20
6.01241063662169
 30
0.0
  0
SPLINE
  5
AA
330
1F
100
AcDbEntity
  8
외형선
  6
Continuous
370
    15
100
AcDbSpline
210
0.0
220
0.0
230
1.0
 70
    24
 71
     3
 72
    11
 73
     7
 74
     0
 42
0.000000001
 43
0.00000001
 40
0.0
 40
0.0
 40
0.0
 40
0.0
 40
0.3522137449419058
 40
0.6314561368558015
 40
0.9187965770524308
 40
1.0
 40
1.0
 40
1.0
 40
1.0
 10
11.99999999999999
 20
7.902410935819936
 30
0.0
 10
11.99999999999999
 20
7.679892432965873
 30
0.0
 10
12.0
 20
7.280956627055343
 30
0.0
 10
11.99999999999994
 20
6.712054854928415
 30
0.0
 10
11.99999999999996
 20
6.320526034365313
 30
0.0
 10
11.99999999999995
 20
6.121297359861469
 30
0.0
 10
11.99999999999995
 20
6.077400141818011
 30
0.0
  0
SPLINE
  5
AB
330
1F
100
AcDbEntity
  8
외형선
  6
Continuous
 62
     1
370
    15
100
AcDbSpline
210
0.0
220
0.0
230
1.0
 70
     8
 71
     3
 72
    44
 73
    40
 74
     0
 42
0.000000001
 43
0.00000001
 40
0.0
 40
0.0
 40
0.0
 40
0.0
 40
0.0624999999999983
 40
0.0624999999999983
 40
0.1249999999999966
 40
0.1249999999999966
 40
0.1874999999999949
 40
0.1874999999999949
 40
0.2499999999999932
 40
0.2499999999999932
 40
0.3124999999999915
 40
0.3124999999999915
 40
0.3749999999999898
 40
0.3749999999999898
 40
0.4062499999999895
 40
0.4062499999999895
 40
0.4374999999999892
 40
0.4374999999999892
 40
0.4687499999999888
 40
0.4687499999999888
 40
0.4999999999999886
 40
0.4999999999999886
 40
0.562499999999989
 40
0.562499999999989
 40
0.5937499999999897
 40
0.5937499999999897
 40
0.6249999999999903
 40
0.6249999999999903
 40
0.6874999999999919
 40
0.6874999999999919
 40
0.7499999999999933
 40
0.7499999999999933
 40
0.8124999999999949
 40
0.8124999999999949
 40
0.8749999999999964
 40
0.8749999999999964
 40
0.9374999999999979
 40
0.9374999999999979
 40
1.0
 40
1.0
 40
1.0
 40
1.0
 10
42.22600000000001
 20
-4.037644485233759
 30
0.0
 10
41.59486493489965
 20
-3.724402835948505
 30
0.0
 10
40.96872847302043
 20
-3.399285161752843
 30
0.0
 10
39.70833758719102
 20
-2.728350587383757
 30
0.0
 10
39.07513551476732
 20
-2.382665058827607
 30
0.0
 10
37.82055841151625
 20
-1.680675802102441
 30
0.0
 10
37.1889602503344
 20
-1.322481438934461
 30
0.0
 10
35.9275191294561
 20
-0.6003367673280618
 30
0.0
 10
35.30181185319514
 20
-0.2371982224991142
 30
0.0
 10
34.04006996154127
 20
0.4902679716370773
 30
0.0
 10
33.40945668741851
 20
0.8535460503370602
 30
0.0
 10
32.15398248513533
 20
1.571374842117806
 30
0.0
 10
31.52067860123778
 20
1.927519481852898
 30
0.0
 10
30.57575992497605
 20
2.450022347084057
 30
0.0
 10
30.2626854289595
 20
2.622052214026934
 30
0.0
 10
29.63420421867531
 20
2.962152071848103
 30
0.0
 10
29.31873066425206
 20
3.130227951627085
 30
0.0
 10
28.68754477369257
 20
3.461222457813079
 30
0.0
 10
28.37183419642061
 20
3.624140155659746
 30
0.0
 10
27.74241046787667
 20
3.943679014978981
 30
0.0
 10
27.42958914575932
 20
4.100159249697013
 30
0.0
 10
26.48588468758922
 20
4.560440238194566
 30
0.0
 10
25.85244482713875
 20
4.854548525680253
 30
0.0
 10
24.90922651002884
 20
5.270383547168938
 30
0.0
 10
24.59631813161682
 20
5.404750364506071
 30
0.0
 10
23.9666160559531
 20
5.665328961411837
 30
0.0
 10
23.65084710202261
 20
5.79138526199839
 30
0.0
 10
22.70413758700372
 20
6.155485943495838
 30
0.0
 10
22.0779804397474
 20
6.378975640871751
 30
0.0
 10
20.81762393564318
 20
6.785438424648644
 30
0.0
 10
20.18441354293958
 20
6.968171059244936
 30
0.0
 10
18.92976955022495
 20
7.287682890790891
 30
0.0
 10
18.29824584177152
 20
7.425346186141365
 30
0.0
 10
17.03678105714229
 20
7.652924626747059
 30
0.0
 10
16.41107681617947
 20
7.742709785029469
 30
0.0
 10
15.14935489659899
 20
7.873534998496972
 30
0.0
 10
14.51867318778377
 20
7.914277307583323
 30
0.0
 10
13.26326224717322
 20
7.945782223868987
 30
0.0
 10
12.6299648138026
 20
7.936562335929803
 30
0.0
 10
11.99999999999999
 20
7.902410935819933
 30
0.0
  0
SPLINE
  5
AC
330
1F
100
AcDbEntity
  8
외형선
  6
Continuous
 62
     1
370
    15
100
AcDbSpline
210
0.0
220
0.0
230
1.0
 70
     8
 71
     3
 72
    18
 73
    14
 74
     0
 42
0.000000001
 43
0.00000001
 40
0.0
 40
0.0
 40
0.0
 40
0.0
 40
0.1250000000000028
 40
0.1250000000000028
 40
0.2500000000000056
 40
0.2500000000000056
 40
0.3750000000000083
 40
0.3750000000000083
 40
0.5000000000000111
 40
0.5000000000000111
 40
0.7500000000000056
 40
0.7500000000000056
 40
1.0
 40
1.0
 40
1.0
 40
1.0
 10
43.74999999999998
 20
-3.903260458796222
 30
0.0
 10
43.74999999999999
 20
-3.941319439160033
 30
0.0
 10
43.73958469151565
 20
-3.979509512113053
 30
0.0
 10
43.69849109036522
 20
-4.053528446315615
 30
0.0
 10
43.66731864327927
 20
-4.089723743759186
 30
0.0
 10
43.58604830119139
 20
-4.154619988036508
 30
0.0
 10
43.53639005333581
 20
-4.183241573193864
 30
0.0
 10
43.41992785440167
 20
-4.230101757852971
 30
0.0
 10
43.35245921953416
 20
-4.248299335855273
 30
0.0
 10
43.13403355940838
 20
-4.281197859958084
 30
0.0
 10
42.96160809351274
 20
-4.274430262207204
 30
0.0
 10
42.6023653294285
 20
-4.198988862259675
 30
0.0
 10
42.41276528578955
 20
-4.13033885349966
 30
0.0
 10
42.226
 20
-4.037644485233745
 30
0.0
  0
LINE
  5
AD
330
1F
100
AcDbEntity
  8
외형선
  6
Continuous
 62
     1
370
    15
100
AcDbLine
 10
43.74999999999999
 20
-2.455540635294748
 30
0.0
 11
43.74999999999999
 21
2.455540635294861
 31
0.0
  0
SPLINE
  5
AE
330
1F
100
AcDbEntity
  8
외형선
  6
Continuous
 62
     1
370
    15
100
AcDbSpline
210
0.0
220
0.0
230
1.0
 70
     8
 71
     3
 72
    18
 73
    14
 74
     0
 42
0.000000001
 43
0.00000001
 40
0.0
 40
0.0
 40
0.0
 40
0.0
 40
0.2500000000000003
 40
0.2500000000000003
 40
0.5000000000000007
 40
0.5000000000000007
 40
0.6250000000000004
 40
0.6250000000000004
 40
0.7500000000000003
 40
0.7500000000000003
 40
0.8750000000000001
 40
0.8750000000000001
 40
1.0
 40
1.0
 40
1.0
 40
1.0
 10
42.226
 20
-2.284076171058057
 30
0.0
 10
42.41526263535864
 20
-2.388565548805767
 30
0.0
 10
42.5959569953014
 20
-2.485016046980159
 30
0.0
 10
42.94672351573918
 20
-2.651611826231789
 30
0.0
 10
43.10687299682883
 20
-2.717317976467814
 30
0.0
 10
43.32712093953707
 20
-2.771665664957113
 30
0.0
 10
43.39447637342773
 20
-2.781453731968666
 30
0.0
 10
43.51638444558682
 20
-2.780145408703455
 30
0.0
 10
43.57092192791976
 20
-2.768592704076787
 30
0.0
 10
43.65912176532662
 20
-2.720584553037399
 30
0.0
 10
43.69386433234848
 20
-2.683220219603695
 30
0.0
 10
43.73892650856836
 20
-2.585888030788247
 30
0.0
 10
43.75000000000002
 20
-2.52513572286779
 30
0.0
 10
43.74999999999999
 20
-2.455540635294747
 30
0.0
  0
SPLINE
  5
AF
330
1F
100
AcDbEntity
  8
외형선
  6
Continuous
 62
     1
370
    15
100
AcDbSpline
210
0.0
220
0.0
230
1.0
 70
     8
 71
     3
 72
    19
 73
    15
 74
     0
 42
0.000000001
 43
0.00000001
 40
0.0
 40
0.0
 40
0.0
 40
0.0
 40
0.0085481021770252
 40
0.1030060982051974
 40
0.1974429317114366
 40
0.2918619886318687
 40
0.3862690082391247
 40
0.4806697537449131
 40
0.5671935886258815
 40
0.6537451197847229
 40
0.7403514071897552
 40
0.8269389905416308
 40
0.9134788312846134
 40
1.0
 40
1.0
 40
1.0
 40
1.0
 10
16.61798918129501
 20
7.927411771120975
 30
0.0
 10
16.69096139605723
 20
7.930714279293261
 30
0.0
 10
17.57028910697897
 20
7.970510069525188
 30
0.0
 10
19.25589317216144
 20
7.816045564462938
 30
0.0
 10
21.67437785891185
 20
7.44944330955614
 30
0.0
 10
24.09236866837104
 20
6.827221072957765
 30
0.0
 10
26.50995484277828
 20
6.001296538953375
 30
0.0
 10
28.86022152112965
 20
5.016601599164257
 30
0.0
 10
31.14307349738997
 20
3.921064504980698
 30
0.0
 10
33.35959414088634
 20
2.755876571096109
 30
0.0
 10
35.57707345345383
 20
1.519342024286853
 30
0.0
 10
37.79428276027149
 20
0.2443053104993494
 30
0.0
 10
40.01045818998443
 20
-1.041430999290552
 30
0.0
 10
41.48753918543655
 20
-1.869890908740526
 30
0.0
 10
42.22600000000001
 20
-2.284076171058078
 30
0.0
  0
SPLINE
  5
B0
330
1F
100
AcDbEntity
  8
외형선
  6
Continuous
 62
     1
370
    15
100
AcDbSpline
210
0.0
220
0.0
230
1.0
 70
     8
 71
     3
 72
    16
 73
    12
 74
     0
 42
0.000000001
 43
0.00000001
 40
0.0
 40
0.0
 40
0.0
 40
0.0
 40
0.1205080410515574
 40
0.241018901204146
 40
0.361539950362139
 40
0.4820785381482146
 40
0.6026419793224532
 40
0.7232254719127088
 40
0.8437841054659543
 40
0.9542691252059534
 40
1.0
 40
1.0
 40
1.0
 40
1.0
 10
42.22600000000004
 20
3.899454529015745
 30
0.0
 10
41.42021918518176
 20
4.29310038215144
 30
0.0
 10
39.80863870553728
 20
5.080401297164594
 30
0.0
 10
37.39118406384787
 20
6.072435297291007
 30
0.0
 10
34.97348273715037
 20
6.885726359032197
 30
0.0
 10
32.55536054610636
 20
7.484545169052476
 30
0.0
 10
30.13671817028902
 20
7.85210923438154
 30
0.0
 10
27.71782383081366
 20
7.980697478847107
 30
0.0
 10
25.36641854095416
 20
7.853655801058282
 30
0.0
 10
23.51582173298466
 20
7.611692063316684
 30
0.0
 10
22.47137361469273
 20
7.356793656597997
 30
0.0
 10
22.16562030918593
 20
7.282174315476382
 30
0.0
  0
SPLINE
  5
B1
330
1F
100
AcDbEntity
  8
외형선
  6
Continuous
 62
     1
370
    15
100
AcDbSpline
210
0.0
220
0.0
230
1.0
 70
     8
 71
     3
 72
    18
 73
    14
 74
     0
 42
0.000000001
 43
0.00000001
 40
0.0
 40
0.0
 40
0.0
 40
0.0
 40
0.1249999999999971
 40
0.1249999999999971
 40
0.2499999999999942
 40
0.2499999999999942
 40
0.3749999999999913
 40
0.3749999999999913
 40
0.4999999999999885
 40
0.4999999999999885
 40
0.7499999999999942
 40
0.7499999999999942
 40
1.0
 40
1.0
 40
1.0
 40
1.0
 10
43.74999999999998
 20
2.455540635294861
 30
0.0
 10
43.75000000000002
 20
2.523921547615197
 30
0.0
 10
43.73958469151559
 20
2.59056049624725
 30
0.0
 10
43.69849109036517
 20
2.722610983411053
 30
0.0
 10
43.6673186432793
 20
2.788721800671786
 30
0.0
 10
43.58604830119142
 20
2.918340401896378
 30
0.0
 10
43.5363900533358
 20
2.98159994906414
 30
0.0
 10
43.41992785440166
 20
3.107548542403433
 30
0.0
 10
43.35245921953415
 20
3.170654819927782
 30
0.0
 10
43.13403355940838
 20
3.354318103791186
 30
0.0
 10
42.96160809351275
 20
3.474421408251074
 30
0.0
 10
42.60236532942849
 20
3.699096284649593
 30
0.0
 10
42.41276528578958
 20
3.805677968146603
 30
0.0
 10
42.226
 20
3.899454529015752
 30
0.0
  0
LINE
  5
B2
330
1F
100
AcDbEntity
  8
외형선
  6
Continuous
370
    15
100
AcDbLine
 10
11.99999999999998
 20
4.596849130137821
 30
0.0
 11
11.99999999999998
 21
6.012410636621688
 31
0.0
  0
SPLINE
  5
B3
330
1F
100
AcDbEntity
  8
외형선
  6
Continuous
 62
     1
370
    15
100
AcDbSpline
210
0.0
220
0.0
230
1.0
 70
     8
 71
     3
 72
    14
 73
    10
 74
     0
 42
0.000000001
 43
0.00000001
 40
0.0
 40
0.0
 40
0.0
 40
0.0
 40
0.1524080629503809
 40
0.2936578679864579
 40
0.4348662388749436
 40
0.5760807803083049
 40
0.7173490611733605
 40
0.8587035324834597
 40
1.0
 40
1.0
 40
1.0
 40
1.0
 10
27.69067713430394
 20
-7.936148142583372
 30
0.0
 10
26.89346764945934
 20
-7.913686114964034
 30
0.0
 10
25.35741481126887
 20
-7.870406573096913
 30
0.0
 10
23.08308175214913
 20
-7.525861198209528
 30
0.0
 10
20.86741108464146
 20
-7.01062342796065
 30
0.0
 10
18.65161670681546
 20
-6.309777885960167
 30
0.0
 10
16.43492954030988
 20
-5.444592051047858
 30
0.0
 10
14.217343379149
 20
-4.444482293338738
 30
0.0
 10
12.73901333527991
 20
-3.685150026485678
 30
0.0
 10
11.99999999999999
 20
-3.305561805682103
 30
0.0
  0
LINE
  5
B4
330
1F
100
AcDbEntity
  8
외형선
  6
Continuous
370
    15
100
AcDbLine
 10
11.99999999999998
 20
-3.305561805682097
 30
0.0
 11
11.99999999999999
 21
-1.481680424439237
 31
0.0
  0
LINE
  5
B5
330
1F
100
AcDbEntity
  8
외형선
  6
Continuous
 62
     1
370
    15
100
AcDbLine
 10
43.74999999999999
 20
-3.903260458796222
 30
0.0
 11
43.74999999999999
 21
-2.455540635294748
 31
0.0
  0
SPLINE
  5
B6
330
1F
100
AcDbEntity
  8
외형선
  6
Continuous
 62
     1
370
    15
100
AcDbSpline
210
0.0
220
0.0
230
1.0
 70
     8
 71
     3
 72
    12
 73
     8
 74
     0
 42
0.000000001
 43
0.00000001
 40
0.0
 40
0.0
 40
0.0
 40
0.0
 40
0.2378820527816786
 40
0.4758149281672081
 40
0.7137780523470905
 40
0.9516878628844421
 40
1.0
 40
1.0
 40
1.0
 40
1.0
 10
11.99999999999998
 20
-7.494091061060862
 30
0.0
 10
12.80604045061074
 20
-7.624818083227874
 30
0.0
 10
14.41829355933605
 20
-7.886300056897391
 30
0.0
 10
16.83699278549719
 20
-7.977937493680247
 30
0.0
 10
19.25588151120164
 20
-7.820900143969321
 30
0.0
 10
21.03209238297119
 20
-7.577712223441852
 30
0.0
 10
22.00192052764191
 20
-7.324854773410462
 30
0.0
 10
22.16562030918585
 20
-7.282174315476395
 30
0.0
  0
SPLINE
  5
B7
330
1F
100
AcDbEntity
  8
외형선
  6
Continuous
370
    15
100
AcDbSpline
210
0.0
220
0.0
230
1.0
 70
    24
 71
     3
 72
    16
 73
    12
 74
     0
 42
0.000000001
 43
0.00000001
 40
0.0
 40
0.0
 40
0.0
 40
0.0
 40
0.0668818795392335
 40
0.1850868923177178
 40
0.2999605609245204
 40
0.418165573703016
 40
0.5330392423098164
 40
0.6512442550883135
 40
0.7661179236951159
 40
0.884322936473611
 40
1.0
 40
1.0
 40
1.0
 40
1.0
 10
11.99999999999998
 20
-3.37056131087842
 30
0.0
 10
11.99999999999997
 20
-3.432431250190485
 30
0.0
 10
11.99999999999994
 20
-3.603648250580531
 30
0.0
 10
12.00000000000003
 20
-3.956147722851998
 30
0.0
 10
11.99999999999994
 20
-4.411325828808786
 30
0.0
 10
12.0
 20
-4.906762129015916
 30
0.0
 10
11.99999999999995
 20
-5.433234537482812
 30
0.0
 10
11.99999999999999
 20
-5.967744086711423
 30
0.0
 10
11.99999999999993
 20
-6.503372768393516
 30
0.0
 10
12.00000000000003
 20
-7.020757989174188
 30
0.0
 10
11.99999999999999
 20
-7.337454390504331
 30
0.0
 10
11.99999999999998
 20
-7.494091061060864
 30
0.0
  0
SPLINE
  5
B8
330
1F
100
AcDbEntity
  8
외형선
  6
Continuous
 62
     1
370
    15
100
AcDbSpline
210
0.0
220
0.0
230
1.0
 70
     8
 71
     3
 72
    18
 73
    14
 74
     0
 42
0.000000001
 43
0.00000001
 40
0.0
 40
0.0
 40
0.0
 40
0.0
 40
0.2499999999999999
 40
0.2499999999999999
 40
0.4999999999999998
 40
0.4999999999999998
 40
0.6249999999999998
 40
0.6249999999999998
 40
0.7499999999999999
 40
0.7499999999999999
 40
0.8749999999999999
 40
0.8749999999999999
 40
1.0
 40
1.0
 40
1.0
 40
1.0
 10
42.226
 20
5.441287572609317
 30
0.0
 10
42.41526263535866
 20
5.36185354468759
 30
0.0
 10
42.59595699530137
 20
5.255979766623931
 30
0.0
 10
42.94672351573914
 20
4.99942003733264
 30
0.0
 10
43.10687299682882
 20
4.856152475747906
 30
0.0
 10
43.32712093953712
 20
4.623392768034533
 30
0.0
 10
43.3944763734278
 20
4.545484265365541
 30
0.0
 10
43.51638444558689
 20
4.390778620550818
 30
0.0
 10
43.57092192791973
 20
4.313703697263496
 30
0.0
 10
43.65912176532666
 20
4.171570563165554
 30
0.0
 10
43.69386433234857
 20
4.104636088440191
 30
0.0
 10
43.7389265085684
 20
3.990565767380907
 30
0.0
 10
43.74999999999999
 20
3.941995216515653
 30
0.0
 10
43.74999999999999
 20
3.903260458796246
 30
0.0
  0
LINE
  5
B9
330
1F
100
AcDbEntity
  8
외형선
  6
Continuous
 62
     1
370
    15
100
AcDbLine
 10
43.74999999999999
 20
2.455540635294861
 30
0.0
 11
43.74999999999999
 21
3.903260458796245
 31
0.0
  0
SPLINE
  5
BA
330
1F
100
AcDbEntity
  8
외형선
  6
Continuous
 62
     1
370
    15
100
AcDbSpline
210
0.0
220
0.0
230
1.0
 70
     8
 71
     3
 72
    13
 73
     9
 74
     0
 42
0.000000001
 43
0.00000001
 40
0.0
 40
0.0
 40
0.0
 40
0.0
 40
0.0114504042080922
 40
0.2091380513725557
 40
0.4069507643022574
 40
0.604720756320941
 40
0.8023817020420577
 40
0.9999999999999999
 40
0.9999999999999999
 40
0.9999999999999999
 40
0.9999999999999999
 10
31.0145040365877
 20
7.931881210846774
 30
0.0
 10
31.05729239090257
 20
7.933736850230174
 30
0.0
 10
31.83880829900728
 20
7.967629523156116
 30
0.0
 10
33.35959485355444
 20
7.841707846454748
 30
0.0
 10
35.5770732625519
 20
7.541412547334672
 30
0.0
 10
37.79428281114308
 20
7.01977507304331
 30
0.0
 10
40.01045817727271
 20
6.332254418798929
 30
0.0
 10
41.4875391811996
 20
5.738255158601998
 30
0.0
 10
42.22600000000001
 20
5.44128757260929
 30
0.0
  0
LINE
  5
BB
330
1F
100
AcDbEntity
  8
외형선
  6
Continuous
 62
     1
370
    15
100
AcDbLine
 10
43.74999999999999
 20
3.903260458796245
 30
0.0
 11
43.74999999999999
 21
6.358801094091057
 31
0.0
  0
SPLINE
  5
BC
330
1F
100
AcDbEntity
  8
외형선
  6
Continuous
 62
     1
370
    15
100
AcDbSpline
210
0.0
220
0.0
230
1.0
 70
     8
 71
     3
 72
    10
 73
     6
 74
     0
 42
0.000000001
 43
0.00000001
 40
0.0
 40
0.0
 40
0.0
 40
0.0
 40
0.4263749386218848
 40
0.8527598516323566
 40
1.0
 40
1.0
 40
1.0
 40
1.0
 10
42.22600000000001
 20
7.93709901424948
 30
0.0
 10
41.42021847496073
 20
7.915254129613874
 30
0.0
 10
39.80863657485764
 20
7.871563849315044
 30
0.0
 10
37.91879898524884
 20
7.618960592131889
 30
0.0
 10
36.83471255839488
 20
7.347768458704413
 30
0.0
 10
36.55644534679531
 20
7.278157884392914
 30
0.0
  0
SPLINE
  5
BD
330
1F
100
AcDbEntity
  8
외형선
  6
Continuous
 62
     1
370
    15
100
AcDbSpline
210
0.0
220
0.0
230
1.0
 70
     8
 71
     3
 72
    18
 73
    14
 74
     0
 42
0.000000001
 43
0.00000001
 40
0.0
 40
0.0
 40
0.0
 40
0.0
 40
0.1250000000000029
 40
0.1250000000000029
 40
0.2500000000000059
 40
0.2500000000000059
 40
0.3750000000000088
 40
0.3750000000000088
 40
0.5000000000000118
 40
0.5000000000000118
 40
0.7500000000000059
 40
0.7500000000000059
 40
1.0
 40
1.0
 40
1.0
 40
1.0
 10
43.74999999999998
 20
6.358801094091057
 30
0.0
 10
43.74999999999998
 20
6.465240986775201
 30
0.0
 10
43.73958469151559
 20
6.570070008360265
 30
0.0
 10
43.69849109036515
 20
6.776139429726626
 30
0.0
 10
43.66731864327927
 20
6.878445544430939
 30
0.0
 10
43.58604830119138
 20
7.072960389932853
 30
0.0
 10
43.53639005333573
 20
7.164841522257976
 30
0.0
 10
43.4199278544016
 20
7.337650300256374
 30
0.0
 10
43.3524592195342
 20
7.418954155783033
 30
0.0
 10
43.13403355940846
 20
7.635515963749255
 30
0.0
 10
42.96160809351275
 20
7.74885167045826
 30
0.0
 10
42.6023653294285
 20
7.898085146909254
 30
0.0
 10
42.41276528578953
 20
7.936016821646239
 30
0.0
 10
42.226
 20
7.937099014249475
 30
0.0
  0
LINE
  5
BE
330
1F
100
AcDbEntity
  8
외형선
  6
Continuous
 62
     1
370
    15
100
AcDbLine
 10
13.2936187019655
 20
-7.912439357111157
 30
0.0
 11
11.99999999999999
 21
-7.902410935819947
 31
0.0
  0
LINE
  5
BF
330
1F
100
AcDbEntity
  8
외형선
  6
Continuous
370
    15
100
AcDbLine
 10
11.99999999999999
 20
-7.902410935819951
 30
0.0
 11
11.99999999999998
 21
-7.494091061060864
 31
0.0
  0
LINE
  5
C0
330
1F
100
AcDbEntity
  8
외형선
  6
Continuous
 62
     1
370
    15
100
AcDbLine
 10
43.74999999999999
 20
-6.413500000000007
 30
0.0
 11
43.74999999999999
 21
-6.358801094091058
 31
0.0
  0
LINE
  5
C1
330
1F
100
AcDbEntity
  8
외형선
  6
Continuous
 62
     1
370
    15
100
AcDbLine
 10
43.74999999999999
 20
6.358801094091057
 30
0.0
 11
43.74999999999999
 21
6.413499999999998
 31
0.0
  0
SPLINE
  5
C2
330
1F
100
AcDbEntity
  8
외형선
  6
Continuous
370
    15
100
AcDbSpline
210
0.0
220
0.0
230
1.0
 70
     8
 71
     3
 72
     8
 73
     4
 74
     0
 42
0.000000001
 43
0.00000001
 40
0.0
 40
0.0
 40
0.0
 40
0.0
 40
1.0
 40
1.0
 40
1.0
 40
1.0
 10
11.99999999999998
 20
7.902410935819933
 30
0.0
 10
11.91654961943773
 20
7.897886957220717
 30
0.0
 10
11.83315776125033
 20
7.892927516732104
 30
0.0
 10
11.74984504546611
 20
7.887534564253757
 30
0.0
  0
LINE
  5
C3
330
1F
100
AcDbEntity
  8
외형선
  6
Continuous
370
    15
100
AcDbLine
 10
11.74984504546611
 20
6.105710376039958
 30
0.0
 11
11.74984504546611
 21
7.937499999999996
 31
0.0
  0
SPLINE
  5
C4
330
1F
100
AcDbEntity
  8
외형선
  6
Continuous
370
    15
100
AcDbSpline
210
0.0
220
0.0
230
1.0
 70
     8
 71
     3
 72
     8
 73
     4
 74
     0
 42
0.000000001
 43
0.00000001
 40
0.0
 40
0.0
 40
0.0
 40
0.0
 40
1.0
 40
1.0
 40
1.0
 40
1.0
 10
11.99999999999999
 20
6.012410636621686
 30
0.0
 10
11.91654961943773
 20
6.043856928506391
 30
0.0
 10
11.83315776125032
 20
6.074963753694363
 30
0.0
 10
11.7498450454661
 20
6.105723944127313
 30
0.0
  0
SPLINE
  5
C5
330
1F
100
AcDbEntity
  8
외형선
  6
Continuous
370
    15
100
AcDbSpline
210
0.0
220
0.0
230
1.0
 70
     8
 71
     3
 72
     8
 73
     4
 74
     0
 42
0.000000001
 43
0.00000001
 40
0.0
 40
0.0
 40
0.0
 40
0.0
 40
1.0
 40
1.0
 40
1.0
 40
1.0
 10
11.99999999999998
 20
4.596849130137816
 30
0.0
 10
11.91654961943773
 20
4.636115858667443
 30
0.0
 10
11.83315776125033
 20
4.675119486729983
 30
0.0
 10
11.74984504546611
 20
4.713850758625724
 30
0.0
  0
LINE
  5
C6
330
1F
100
AcDbEntity
  8
외형선
  6
Continuous
370
    15
100
AcDbLine
 10
11.74984504546611
 20
-1.339542254202103
 30
0.0
 11
11.74984504546611
 21
4.713872943263019
 31
0.0
  0
SPLINE
  5
C7
330
1F
100
AcDbEntity
  8
외형선
  6
Continuous
370
    15
100
AcDbSpline
210
0.0
220
0.0
230
1.0
 70
     8
 71
     3
 72
     8
 73
     4
 74
     0
 42
0.000000001
 43
0.00000001
 40
0.0
 40
0.0
 40
0.0
 40
0.0
 40
1.0
 40
1.0
 40
1.0
 40
1.0
 10
11.99999999999999
 20
-1.481680424439234
 30
0.0
 10
11.91654961943773
 20
-1.434360882557767
 30
0.0
 10
11.83315776125032
 20
-1.386970552803654
 30
0.0
 10
11.7498450454661
 20
-1.339521324744964
 30
0.0
  0
SPLINE
  5
C8
330
1F
100
AcDbEntity
  8
외형선
  6
Continuous
370
    15
100
AcDbSpline
210
0.0
220
0.0
230
1.0
 70
     8
 71
     3
 72
     8
 73
     4
 74
     0
 42
0.000000001
 43
0.00000001
 40
0.0
 40
0.0
 40
0.0
 40
0.0
 40
1.0
 40
1.0
 40
1.0
 40
1.0
 10
11.99999999999998
 20
-3.305561805682096
 30
0.0
 10
11.91654961943773
 20
-3.261771098553253
 30
0.0
 10
11.83315776125033
 20
-3.217808030002102
 30
0.0
 10
11.74984504546611
 20
-3.173683805628015
 30
0.0
  0
SPLINE
  5
C9
330
1F
100
AcDbEntity
  8
외형선
  6
Continuous
370
    15
100
AcDbSpline
210
0.0
220
0.0
230
1.0
 70
     8
 71
     3
 72
     8
 73
     4
 74
     0
 42
0.000000001
 43
0.00000001
 40
0.0
 40
0.0
 40
0.0
 40
0.0
 40
1.0
 40
1.0
 40
1.0
 40
1.0
 10
11.99999999999999
 20
-7.494091061060864
 30
0.0
 10
11.91654961943773
 20
-7.478217811064103
 30
0.0
 10
11.83315776125032
 20
-7.461934306497963
 30
0.0
 10
11.7498450454661
 20
-7.445245268872222
 30
0.0
  0
SPLINE
  5
CA
330
1F
100
AcDbEntity
  8
외형선
  6
Continuous
370
    15
100
AcDbSpline
210
0.0
220
0.0
230
1.0
 70
     8
 71
     3
 72
     8
 73
     4
 74
     0
 42
0.000000001
 43
0.00000001
 40
0.0
 40
0.0
 40
0.0
 40
0.0
 40
1.0
 40
1.0
 40
1.0
 40
1.0
 10
11.99999999999998
 20
-7.902410935819947
 30
0.0
 10
11.91654961943773
 20
-7.897886957220731
 30
0.0
 10
11.83315776125033
 20
-7.89292751673212
 30
0.0
 10
11.74984504546611
 20
-7.887534564253773
 30
0.0
  0
LINE
  5
CB
330
1F
100
AcDbEntity
  8
외형선
  6
Continuous
370
    15
100
AcDbLine
 10
11.74984504546611
 20
-7.937500000000004
 30
0.0
 11
11.74984504546611
 21
-7.887531475207494
 31
0.0
  0
LINE
  5
CC
330
1F
100
AcDbEntity
  8
외형선
  6
Continuous
370
    15
100
AcDbLine
 10
-46.73750000000003
 20
-0.0000000000000042
 30
0.0
 11
-46.73750000000003
 21
7.937499999999996
 31
0.0
  0
LINE
  5
CD
330
1F
100
AcDbEntity
  8
외형선
  6
Continuous
370
    15
100
AcDbLine
 10
-46.73750000000003
 20
-7.937500000000004
 30
0.0
 11
-46.73750000000003
 21
-0.0000000000000042
 31
0.0
  0
LINE
  5
CE
330
1F
100
AcDbEntity
  8
외형선
  6
Continuous
370
    15
100
AcDbLine
 10
11.74984504546611
 20
-7.445252630242009
 30
0.0
 11
11.74984504546611
 21
-3.173658531944439
 31
0.0
  0
LINE
  5
CF
330
1F
100
AcDbEntity
  8
외형선
  6
Continuous
370
    15
100
AcDbLine
 10
-48.32500000000002
 20
-0.0000000000000042
 30
0.0
 11
-48.32500000000002
 21
6.349999999999997
 31
0.0
  0
LINE
  5
D0
330
1F
100
AcDbEntity
  8
외형선
  6
Continuous
370
    15
100
AcDbLine
 10
-48.32500000000002
 20
-6.350000000000006
 30
0.0
 11
-48.32500000000002
 21
-0.0000000000000042
 31
0.0
  0
SPLINE
  5
D1
330
1F
100
AcDbEntity
  8
외형선
  6
Continuous
370
    15
100
AcDbSpline
210
0.0
220
0.0
230
1.0
 70
    24
 71
     3
 72
    24
 73
    20
 74
     0
 42
0.000000001
 43
0.00000001
 40
0.0
 40
0.0
 40
0.0
 40
0.0
 40
0.0498485679716979
 40
0.1059734310002323
 40
0.1669826650509577
 40
0.2297611710222134
 40
0.2907704050729388
 40
0.3535489110441942
 40
0.414558145094895
 40
0.4773366510661751
 40
0.5383458851169007
 40
0.6011243910881564
 40
0.662133625138881
 40
0.7249121311101359
 40
0.7859213651608614
 40
0.848699871132118
 40
0.9097091051828436
 40
0.9724876111540999
 40
1.0
 40
1.0
 40
1.0
 40
1.0
 10
11.99999999999999
 20
-1.479038333351047
 30
0.0
 10
11.99999999999999
 20
-1.4745623661955
 30
0.0
 10
12.00000000000001
 20
-1.465046875263304
 30
0.0
 10
11.99999999999997
 20
-1.358214136869005
 30
0.0
 10
11.99999999999999
 20
-1.170524631123465
 30
0.0
 10
12.00000000000001
 20
-0.8947350313784654
 30
0.0
 10
11.99999999999993
 20
-0.5431888478513112
 30
0.0
 10
11.99999999999999
 20
-0.1314792854225741
 30
0.0
 10
11.99999999999999
 20
0.3359665018637332
 30
0.0
 10
11.99999999999995
 20
0.8375535790968935
 30
0.0
 10
12.00000000000005
 20
1.368098563179923
 30
0.0
 10
11.99999999999999
 20
1.903040893713005
 30
0.0
 10
11.99999999999995
 20
2.436859398366164
 30
0.0
 10
12.00000000000005
 20
2.944861950056771
 30
0.0
 10
11.99999999999991
 20
3.421718848301073
 30
0.0
 10
11.99999999999999
 20
3.845699556426947
 30
0.0
 10
11.99999999999995
 20
4.211127518799395
 30
0.0
 10
12.00000000000004
 20
4.452509408192888
 30
0.0
 10
12.00000000000001
 20
4.56313928409128
 30
0.0
 10
12.0
 20
4.596849130137816
 30
0.0
  0
SPLINE
  5
D2
330
1F
100
AcDbEntity
  8
외형선
  6
Continuous
370
    15
100
AcDbSpline
210
0.0
220
0.0
230
1.0
 70
    24
 71
     3
 72
    16
 73
    12
 74
     0
 42
0.000000001
 43
0.00000001
 40
0.0
 40
0.0
 40
0.0
 40
0.0
 40
0.1045570808845418
 40
0.2091141617690835
 40
0.3257392819940972
 40
0.4423644022191108
 40
0.5589895224441244
 40
0.675614642669138
 40
0.7922397628941515
 40
0.9088648831191654
 40
1.0
 40
1.0
 40
1.0
 40
1.0
 10
11.99999999999999
 20
-7.494091061060866
 30
0.0
 10
11.99999999999998
 20
-7.352990533663262
 30
0.0
 10
11.99999999999998
 20
-7.070789478868062
 30
0.0
 10
12.00000000000001
 20
-6.592805644072627
 30
0.0
 10
11.99999999999998
 20
-6.080251821924321
 30
0.0
 10
12.0
 20
-5.542662091863584
 30
0.0
 10
11.99999999999999
 20
-5.014913723637814
 30
0.0
 10
11.99999999999997
 20
-4.510279787460802
 30
0.0
 10
11.99999999999996
 20
-4.04721106245918
 30
0.0
 10
11.99999999999999
 20
-3.657320311791933
 30
0.0
 10
11.99999999999998
 20
-3.457989024671781
 30
0.0
 10
11.99999999999999
 20
-3.37055131087842
 30
0.0
  0
SPLINE
  5
D3
330
1F
100
AcDbEntity
  8
외형선
  6
Continuous
370
    15
100
AcDbSpline
210
0.0
220
0.0
230
1.0
 70
    24
 71
     3
 72
    12
 73
     8
 74
     0
 42
0.000000001
 43
0.00000001
 40
0.0
 40
0.0
 40
0.0
 40
0.0
 40
0.0187002912732228
 40
0.3064661847272165
 40
0.5861220394490442
 40
0.8738879329030369
 40
1.0
 40
1.0
 40
1.0
 40
1.0
 10
11.99999999999999
 20
6.077400141818011
 30
0.0
 10
11.99999999999998
 20
6.087336238205333
 30
0.0
 10
11.99999999999991
 20
6.2501720735629
 30
0.0
 10
11.99999999999999
 20
6.602741388193272
 30
0.0
 10
11.99999999999998
 20
7.125359813068175
 30
0.0
 10
12.00000000000006
 20
7.564207858853863
 30
0.0
 10
12.00000000000001
 20
7.82342523802747
 30
0.0
 10
11.99999999999999
 20
7.902410935819936
 30
0.0
  0
LINE
  5
D4
330
1F
100
AcDbEntity
  8
중심선
 62
     1
100
AcDbLine
 10
-51.32500000000004
 20
-0.0000000000000047
 30
0.0
 11
46.74999999999999
 21
0.000000000000003
 31
0.0
  0
LINE
  5
D5
330
1F
100
AcDbEntity
  8
참조1
100
AcDbLine
 10
-2.287500000000028
 20
-0.0000000000000086
 30
0.0
 11
-2.287500000000021
 21
-40.00000000000001
 31
0.0
  0
LINE
  5
D6
330
1F
100
AcDbEntity
  8
참조1
100
AcDbLine
 10
-2.287500000000021
 20
-40.00000000000001
 30
0.0
 11
-34.90885681430869
 21
-40.0
 31
0.0
  0
INSERT
  5
D8
330
1F
100
AcDbEntity
  8
0
  6
Continuous
 62
     7
100
AcDbBlockReference
 66
     1
  2
블럭10
 10
-16.22777293212523
 20
-52.04717430164393
 30
0.0
  0
ATTRIB
  5
D9
330
D8
100
AcDbEntity
  8
FORMAT
 62
     2
100
AcDbText
 10
-26.36940894426186
 20
-49.97180738881175
 30
0.0
 40
4.233333333333333
  1
EM668903 [ 6 FLUTE ]
 41
0.75
  7
SLDTEXTSTYLE0
 11
-26.36940894426186
 21
-52.08847405547841
 31
0.0
100
AcDbAttribute
  2
AUTOATTR0
 70
     0
 74
     1
  0
SEQEND
  5
DA
330
D8
100
AcDbEntity
  8
0
  6
Continuous
 62
     7
  0
HATCH
  5
DB
330
1F
100
AcDbEntity
  8
중심선
100
AcDbHatch
 10
0.0
 20
0.0
 30
0.0
210
0.0
220
0.0
230
1.0
  2
SOLID
 70
     1
 71
     0
 91
        1
 92
        0
 93
        4
 72
     1
 10
-10.5128636277444
 20
-35.8
 11
-13.95913887158168
 21
-35.8
 72
     1
 10
-13.95913887158168
 20
-35.8
 11
-16.0873687307857
 21
-38.33632558057257
 72
     1
 10
-16.0873687307857
 20
-38.33632558057257
 11
-12.64106040183527
 21
-38.33628615127008
 72
     1
 10
-12.64106040183527
 20
-38.33628615127008
 11
-10.5128636277444
 21
-35.8
 97
        0
 75
     0
 76
     1
 98
        1
 10
-13.87500000000003
 20
-0.0010749287238978
  0
HATCH
  5
DC
330
1F
100
AcDbEntity
  8
중심선
100
AcDbHatch
 10
0.0
 20
0.0
 30
0.0
210
0.0
220
0.0
230
1.0
  2
SOLID
 70
     1
 71
     0
 91
        1
 92
        0
 93
        4
 72
     1
 10
-5.500099636708418
 20
-35.8
 11
-8.94637488054573
 21
-35.8
 72
     1
 10
-8.94637488054573
 20
-35.8
 11
-13.47751288890312
 21
-41.20000000000002
 72
     1
 10
-13.47751288890312
 20
-41.20000000000002
 11
-10.03123764506583
 21
-41.20000000000002
 72
     1
 10
-10.03123764506583
 20
-41.20000000000002
 11
-5.500099636708418
 21
-35.8
 97
        0
 75
     0
 76
     1
 98
        1
 10
-13.87500000000003
 20
-0.0010749287238978
  0
HATCH
  5
DD
330
1F
100
AcDbEntity
  8
중심선
100
AcDbHatch
 10
0.0
 20
0.0
 30
0.0
210
0.0
220
0.0
230
1.0
  2
SOLID
 70
     1
 71
     0
 91
        1
 92
        0
 93
        4
 72
     1
 10
-0.4873356456725233
 20
-35.79999999999998
 11
-3.933610889509611
 21
-35.79999999999998
 72
     1
 10
-3.933610889509611
 20
-35.79999999999998
 11
-10.98204779139892
 21
-44.20000000000002
 72
     1
 10
-10.98204779139892
 20
-44.20000000000002
 11
-7.535772547561633
 21
-44.20000000000002
 72
     1
 10
-7.535772547561633
 20
-44.20000000000002
 11
-0.4873356456725233
 21
-35.79999999999998
 97
        0
 75
     0
 76
     1
 98
        1
 10
-13.87500000000003
 20
-0.0010749287238978
  0
HATCH
  5
DE
330
1F
100
AcDbEntity
  8
중심선
100
AcDbHatch
 10
0.0
 20
0.0
 30
0.0
210
0.0
220
0.0
230
1.0
  2
SOLID
 70
     1
 71
     0
 91
        1
 92
        0
 93
        6
 72
     3
 10
4.31255478533965
 20
-40.00000000005127
 11
3.960054785062283
 21
1.540882976769353E-10
 40
0.3939339440162628
 50
17.09539180608437
 51
320.0019657685079
 73
     0
 72
     1
 10
5.995554441040245
 20
-38.5878940046383
 11
8.30085631474131
 21
-36.65356729459038
 72
     3
 10
4.312554785286803
 20
-40.00000000000015
 11
6.600054785286829
 21
-1.278976924368180E-13
 40
0.636358354079598
 50
39.99873849337386
 51
368.4976242363725
 73
     1
 72
     1
 10
10.73788727718741
 20
-39.03999999993002
 11
2.992622092122723
 21
-39.03999999993002
 72
     1
 10
2.992622092122723
 20
-39.03999999993002
 11
2.992597047676789
 21
-40.95999999992991
 72
     1
 10
2.992597047676789
 20
-40.95999999992991
 11
7.433976817148828
 21
-40.95999999992988
 97
        0
 75
     0
 76
     1
 98
        1
 10
-13.87500000000003
 20
-0.0010749287238978
  0
DIMENSION
  5
DF
330
1F
100
AcDbEntity
  8
치수문자_일반주서
100
AcDbDimension
  2
_D
 10
11.99999999999999
 20
17.41054920291657
 30
0.0
 11
27.87499999999999
 21
17.41054920291657
 31
0.0
 70
   160
  1
<>
 71
     2
 42
31.75
  3
SLDDIMSTYLE1
100
AcDbAlignedDimension
 13
43.74999999999999
 23
6.413499999999996
 33
0.0
 14
11.99999999999999
 24
7.902410935819936
 34
0.0
100
AcDbRotatedDimension
1001
PE_URL
1000

1001
ACAD
1000
DSTYLE
1002
{
1070
   171
1070
     6
1070
   273
1070
     7
1002
}
  0
DIMENSION
  5
F3
330
1F
100
AcDbEntity
  8
치수문자_일반주서
100
AcDbDimension
  2
_D_1
 10
-48.32500000000002
 20
29.90648030427566
 30
0.0
 11
-2.287500000000021
 21
29.90648030427566
 31
0.0
 70
   160
  1
<>
 71
     2
 42
92.07500000000002
  3
SLDDIMSTYLE1
100
AcDbAlignedDimension
 13
43.74999999999999
 23
6.413499999999996
 33
0.0
 14
-48.32500000000002
 24
6.349999999999997
 34
0.0
 50
0.0000000000000066
100
AcDbRotatedDimension
1001
PE_URL
1000

1001
ACAD
1000
DSTYLE
1002
{
1070
   171
1070
     6
1070
   273
1070
     7
1002
}
  0
DIMENSION
  5
106
330
1F
100
AcDbEntity
  8
치수문자_일반주서
100
AcDbDimension
  2
_D_2
 10
-60.37250000000001
 20
-7.937500000000071
 30
0.0
 11
-60.37250000000004
 21
0.0000000000000105
 31
0.0
 70
   160
  1
%%c<>
 71
     2
 42
15.87500000000003
 52
-270.0
  3
SLDDIMSTYLE1
100
AcDbAlignedDimension
 13
-46.73750000000003
 23
7.93750000000001
 33
0.0
 14
-46.73750000000003
 24
-7.937500000000019
 34
0.0
 50
90.0000000000002
100
AcDbRotatedDimension
1001
ACAD
1000
DSTYLE
1002
{
1070
   171
1070
     6
1070
   273
1070
     7
1002
}
1001
ACAD_DSTYLE_DIMFLIPARROW_SYMBOL
1070
   385
1070
     0
1001
ACAD_DSTYLE_DIMFLIPARROW_WHICH_SYMBOL
1070
   386
1070
     3
  0
DIMENSION
  5
11B
330
1F
100
AcDbEntity
  8
치수문자_일반주서
100
AcDbDimension
  2
_D_3
 10
59.59458361571967
 20
-7.93749999999989
 30
0.0
 11
59.59458361571954
 21
28.54150000000014
 31
0.0
 70
   160
  1
%%c<>
 71
     2
 42
15.875
 52
-270.0
  3
SLDDIMSTYLE1
100
AcDbAlignedDimension
 13
43.74999999999999
 23
7.937500000000047
 33
0.0
 14
43.74999999999999
 24
-7.937499999999949
 34
0.0
 50
90.0000000000002
100
AcDbRotatedDimension
1001
PE_URL
1000

1001
ACAD
1000
DSTYLE
1002
{
1070
   171
1070
     6
1070
   273
1070
     7
1002
}
  0
LINE
  5
12E
330
1F
100
AcDbEntity
  8
참조1
100
AcDbLine
 10
63.06348381534556
 20
7.439999999999998
 30
0.0
 11
63.06348381534556
 21
-7.440000000000007
 31
0.0
  0
LINE
  5
12F
330
1F
100
AcDbEntity
  8
참조1
100
AcDbLine
 10
75.76348381534557
 20
5.439999999999998
 30
0.0
 11
63.06348381534556
 21
5.439999999999998
 31
0.0
  0
SOLID
  5
130
330
1F
100
AcDbEntity
  8
참조1
100
AcDbTrace
 10
63.06348381534556
 20
5.439999999999998
 30
0.0
 11
69.41348381534556
 21
4.423999999999998
 31
0.0
 12
69.41348381534556
 22
6.455999999999998
 32
0.0
 13
69.41348381534556
 23
6.455999999999998
 33
0.0
  0
LINE
  5
131
330
1F
100
AcDbEntity
  8
참조1
100
AcDbLine
 10
75.76348381534557
 20
-5.440000000000007
 30
0.0
 11
63.06348381534556
 21
-5.440000000000007
 31
0.0
  0
SOLID
  5
132
330
1F
100
AcDbEntity
  8
참조1
100
AcDbTrace
 10
63.06348381534556
 20
-5.440000000000007
 30
0.0
 11
69.41348381534556
 21
-6.456000000000007
 31
0.0
 12
69.41348381534556
 22
-4.424000000000007
 32
0.0
 13
69.41348381534556
 23
-4.424000000000007
 33
0.0
  0
MTEXT
  5
133
330
1F
100
AcDbEntity
  8
참조1
100
AcDbMText
 10
72.46097390781584
 20
10.98821664464993
 30
0.0
 40
3.5
 41
0.0
 71
     1
 72
     1
  1
A
  7
SLDTEXTSTYLE0
 73
     1
 44
1.0
  0
MTEXT
  5
134
330
1F
100
AcDbEntity
  8
참조1
100
AcDbMText
 10
72.46097390781584
 20
0.1082166446499281
 30
0.0
 40
3.5
 41
0.0
 71
     1
 72
     1
  1
A
  7
SLDTEXTSTYLE0
 73
     1
 44
1.0
  0
INSERT
  5
13B
330
1F
100
AcDbEntity
  8
해칭선
100
AcDbBlockReference
  2
SW_DOWELSYMBOL_0
 10
0.0
 20
0.0
 30
0.0
  0
MTEXT
  5
188
102
{ACAD_REACTORS
330
189
102
}
330
1F
100
AcDbEntity
  8
치수문자_일반주서
100
AcDbMText
 10
53.79259168306373
 20
-21.40444500806979
 30
0.0
 40
3.5
 41
0.0
 71
     7
 72
     1
  1
{R1.52[.060"]}
 73
     1
 44
1.0
1001
PE_URL
1000

1001
ACAD
1000
ACAD_MTEXT_DEFINED_HEIGHT_BEGIN
1070
    46
1040
3.5
1000
ACAD_MTEXT_DEFINED_HEIGHT_END
  0
LEADER
  5
189
102
{ACAD_XDICTIONARY
360
18A
102
}
330
1F
100
AcDbEntity
  8
치수문자_일반주서
100
AcDbLeader
  3
ISO-25
 73
     0
 74
     0
 75
     1
 40
3.5
 41
30.33333333333334
 76
     3
 10
43.3036307345283
 20
-7.491130734528297
 30
0.0
 10
48.96659168306373
 20
-19.65444500806979
 30
0.0
 10
52.26859168306373
 20
-19.65444500806979
 30
0.0
340
188
213
0.0
223
1.75
233
0.0
1001
ACAD
1000
DSTYLE
1002
{
1070
    77
1070
     0
1070
   179
1070
     2
1070
   143
1040
0.0393700787401575
1070
    41
1040
3.302
1070
    44
1040
1.0
1070
    42
1040
1.0
1070
   147
1040
1.524
1070
    73
1070
     1
1070
    74
1070
     1
1070
   140
1040
3.5
1070
   284
1070
     0
1070
    78
1070
     0
1002
}
1001
PE_URL
1000

  0
ENDSEC
  0
SECTION
  2
OBJECTS
  0
DICTIONARY
  5
C
330
0
100
AcDbDictionary
281
     1
  3
ACAD_DETAILVIEWSTYLE
350
196
  3
ACAD_GROUP
350
D
  3
ACAD_LAYOUT
350
1A
  3
ACAD_MLINESTYLE
350
17
  3
ACAD_PLOTSETTINGS
350
19
  3
ACAD_PLOTSTYLENAME
350
E
  3
ACAD_SCALELIST
350
47
  3
ACAD_SECTIONVIEWSTYLE
350
197
  3
AcDbVariableDictionary
350
191
  3
APPDATA
350
15D
  3
DWGPROPS
350
19A
  0
DICTIONARY
  5
18A
330
189
100
AcDbDictionary
280
     1
281
     1
  0
DICTIONARY
  5
196
102
{ACAD_REACTORS
330
C
102
}
330
C
100
AcDbDictionary
281
     1
  0
DICTIONARY
  5
D
102
{ACAD_REACTORS
330
C
102
}
330
C
100
AcDbDictionary
281
     1
  0
DICTIONARY
  5
1A
102
{ACAD_REACTORS
330
C
102
}
330
C
100
AcDbDictionary
281
     1
  3
Layout1
350
1E
  3
Layout2
350
26
  3
Model
350
22
  0
DICTIONARY
  5
17
102
{ACAD_REACTORS
330
C
102
}
330
C
100
AcDbDictionary
281
     1
  3
Standard
350
18
  0
DICTIONARY
  5
19
102
{ACAD_REACTORS
330
C
102
}
330
C
100
AcDbDictionary
281
     1
  0
ACDBDICTIONARYWDFLT
  5
E
102
{ACAD_REACTORS
330
C
102
}
330
C
100
AcDbDictionary
281
     1
  3
Normal
350
F
100
AcDbDictionaryWithDefault
340
F
  0
DICTIONARY
  5
47
102
{ACAD_REACTORS
330
C
102
}
330
C
100
AcDbDictionary
281
     1
  3
A0
350
48
  3
A1
350
49
  3
A2
350
4A
  3
A3
350
4B
  3
A4
350
4C
  3
A5
350
4D
  3
A6
350
4E
  3
A7
350
4F
  3
A8
350
50
  3
A9
350
51
  3
B0
350
52
  3
B1
350
53
  3
B2
350
54
  3
B3
350
55
  3
B4
350
56
  3
B5
350
57
  3
B6
350
58
  3
B7
350
59
  3
B8
350
5A
  3
B9
350
5B
  3
C0
350
5C
  3
C1
350
5D
  3
C2
350
5E
  3
C3
350
5F
  3
C4
350
60
  3
C5
350
61
  3
C6
350
62
  3
C7
350
63
  3
C8
350
64
  3
C9
350
65
  3
D0
350
66
  3
D1
350
67
  3
D2
350
68
  0
DICTIONARY
  5
197
102
{ACAD_REACTORS
330
C
102
}
330
C
100
AcDbDictionary
281
     1
  0
DICTIONARY
  5
191
102
{ACAD_REACTORS
330
C
102
}
330
C
100
AcDbDictionary
281
     1
  0
DICTIONARY
  5
15D
102
{ACAD_REACTORS
330
C
102
}
330
C
100
AcDbDictionary
281
     1
  0
XRECORD
  5
19A
102
{ACAD_REACTORS
330
C
102
}
330
C
100
AcDbXrecord
280
     1
  1
DWGPROPS COOKIE
  2

  3

  4

  6

  7

  8
H
  9

300
=
301
=
302
=
303
=
304
=
305
=
306
=
307
=
308
=
309
=
 40
0.0
 41
2458295.115375532
 42
2458301.671199051
  1

 90
        0
  0
LAYOUT
  5
1E
102
{ACAD_REACTORS
330
1A
102
}
330
1A
100
AcDbPlotSettings
  1

  2
none_device
  4

  6

 40
0.0
 41
0.0
 42
0.0
 43
0.0
 44
0.0
 45
0.0
 46
0.0
 47
0.0
 48
0.0
 49
0.0
140
0.0
141
0.0
142
1.0
143
1.0
 70
   688
 72
     1
 73
     0
 74
     5
  7

 75
    16
147
1.0
148
0.0
149
0.0
100
AcDbLayout
  1
Layout1
 70
     1
 71
     1
 10
0.0
 20
0.0
 11
420.0
 21
297.0
 12
0.0
 22
0.0
 32
0.0
 14
1.000000000000000E+20
 24
1.000000000000000E+20
 34
1.000000000000000E+20
 15
-1.000000000000000E+20
 25
-1.000000000000000E+20
 35
-1.000000000000000E+20
146
0.0
 13
0.0
 23
0.0
 33
0.0
 16
1.0
 26
0.0
 36
0.0
 17
0.0
 27
1.0
 37
0.0
 76
     0
330
1B
  0
LAYOUT
  5
26
102
{ACAD_REACTORS
330
1A
102
}
330
1A
100
AcDbPlotSettings
  1

  2
none_device
  4

  6

 40
0.0
 41
0.0
 42
0.0
 43
0.0
 44
0.0
 45
0.0
 46
0.0
 47
0.0
 48
0.0
 49
0.0
140
0.0
141
0.0
142
1.0
143
1.0
 70
   688
 72
     1
 73
     0
 74
     5
  7

 75
    16
147
1.0
148
0.0
149
0.0
100
AcDbLayout
  1
Layout2
 70
     1
 71
     2
 10
0.0
 20
0.0
 11
0.0
 21
0.0
 12
0.0
 22
0.0
 32
0.0
 14
0.0
 24
0.0
 34
0.0
 15
0.0
 25
0.0
 35
0.0
146
0.0
 13
0.0
 23
0.0
 33
0.0
 16
1.0
 26
0.0
 36
0.0
 17
0.0
 27
1.0
 37
0.0
 76
     0
330
23
  0
LAYOUT
  5
22
102
{ACAD_REACTORS
330
1A
102
}
330
1A
100
AcDbPlotSettings
  1

  2
none_device
  4
ANSI_A_(11.00_x_8.50_Inches)
  6

 40
6.35
 41
19.05
 42
6.35000508
 43
19.05000254
 44
279.4
 45
215.9
 46
102.9009801858271
 47
98.3263450677348
 48
0.0
 49
0.0
140
0.0
141
0.0
142
0.0741174986998969
143
1.0
 70
  1696
 72
     0
 73
     0
 74
     0
  7

 75
     0
147
0.0235690232323232
148
0.0
149
0.0
100
AcDbLayout
  1
Model
 70
     1
 71
     0
 10
0.0
 20
0.0
 11
420.0
 21
297.0
 12
0.0
 22
0.0
 32
0.0
 14
-64.74750000000009
 24
-49.97180738881175
 34
0.0
 15
84.12592501639708
 25
42.54150000000014
 35
0.0
146
0.0
 13
0.0
 23
0.0
 33
0.0
 16
1.0
 26
0.0
 36
0.0
 17
0.0
 27
1.0
 37
0.0
 76
     0
330
1F
331
29
  0
MLINESTYLE
  5
18
102
{ACAD_REACTORS
330
17
102
}
330
17
100
AcDbMlineStyle
  2
Standard
 70
     0
  3

 62
   256
 51
90.0
 52
90.0
 71
     2
 49
0.5
 62
   256
  6
BYLAYER
 49
-0.5
 62
   256
  6
BYLAYER
  0
ACDBPLACEHOLDER
  5
F
102
{ACAD_REACTORS
330
E
102
}
330
E
  0
SCALE
  5
48
102
{ACAD_REACTORS
330
47
102
}
330
47
100
AcDbScale
 70
     0
300
1:1
140
1.0
141
1.0
290
     1
  0
SCALE
  5
49
102
{ACAD_REACTORS
330
47
102
}
330
47
100
AcDbScale
 70
     0
300
1:2
140
1.0
141
2.0
290
     0
  0
SCALE
  5
4A
102
{ACAD_REACTORS
330
47
102
}
330
47
100
AcDbScale
 70
     0
300
1:4
140
1.0
141
4.0
290
     0
  0
SCALE
  5
4B
102
{ACAD_REACTORS
330
47
102
}
330
47
100
AcDbScale
 70
     0
300
1:5
140
1.0
141
5.0
290
     0
  0
SCALE
  5
4C
102
{ACAD_REACTORS
330
47
102
}
330
47
100
AcDbScale
 70
     0
300
1:8
140
1.0
141
8.0
290
     0
  0
SCALE
  5
4D
102
{ACAD_REACTORS
330
47
102
}
330
47
100
AcDbScale
 70
     0
300
1:10
140
1.0
141
10.0
290
     0
  0
SCALE
  5
4E
102
{ACAD_REACTORS
330
47
102
}
330
47
100
AcDbScale
 70
     0
300
1:16
140
1.0
141
16.0
290
     0
  0
SCALE
  5
4F
102
{ACAD_REACTORS
330
47
102
}
330
47
100
AcDbScale
 70
     0
300
1:20
140
1.0
141
20.0
290
     0
  0
SCALE
  5
50
102
{ACAD_REACTORS
330
47
102
}
330
47
100
AcDbScale
 70
     0
300
1:30
140
1.0
141
30.0
290
     0
  0
SCALE
  5
51
102
{ACAD_REACTORS
330
47
102
}
330
47
100
AcDbScale
 70
     0
300
1:40
140
1.0
141
40.0
290
     0
  0
SCALE
  5
52
102
{ACAD_REACTORS
330
47
102
}
330
47
100
AcDbScale
 70
     0
300
1:50
140
1.0
141
50.0
290
     0
  0
SCALE
  5
53
102
{ACAD_REACTORS
330
47
102
}
330
47
100
AcDbScale
 70
     0
300
1:100
140
1.0
141
100.0
290
     0
  0
SCALE
  5
54
102
{ACAD_REACTORS
330
47
102
}
330
47
100
AcDbScale
 70
     0
300
2:1
140
2.0
141
1.0
290
     0
  0
SCALE
  5
55
102
{ACAD_REACTORS
330
47
102
}
330
47
100
AcDbScale
 70
     0
300
4:1
140
4.0
141
1.0
290
     0
  0
SCALE
  5
56
102
{ACAD_REACTORS
330
47
102
}
330
47
100
AcDbScale
 70
     0
300
8:1
140
8.0
141
1.0
290
     0
  0
SCALE
  5
57
102
{ACAD_REACTORS
330
47
102
}
330
47
100
AcDbScale
 70
     0
300
10:1
140
10.0
141
1.0
290
     0
  0
SCALE
  5
58
102
{ACAD_REACTORS
330
47
102
}
330
47
100
AcDbScale
 70
     0
300
100:1
140
100.0
141
1.0
290
     0
  0
SCALE
  5
59
102
{ACAD_REACTORS
330
47
102
}
330
47
100
AcDbScale
 70
     0
300
1/128" = 1'-0"
140
0.0078125
141
12.0
290
     0
  0
SCALE
  5
5A
102
{ACAD_REACTORS
330
47
102
}
330
47
100
AcDbScale
 70
     0
300
1/64" = 1'-0"
140
0.015625
141
12.0
290
     0
  0
SCALE
  5
5B
102
{ACAD_REACTORS
330
47
102
}
330
47
100
AcDbScale
 70
     0
300
1/32" = 1'-0"
140
0.03125
141
12.0
290
     0
  0
SCALE
  5
5C
102
{ACAD_REACTORS
330
47
102
}
330
47
100
AcDbScale
 70
     0
300
1/16" = 1'-0"
140
0.0625
141
12.0
290
     0
  0
SCALE
  5
5D
102
{ACAD_REACTORS
330
47
102
}
330
47
100
AcDbScale
 70
     0
300
3/32" = 1'-0"
140
0.09375
141
12.0
290
     0
  0
SCALE
  5
5E
102
{ACAD_REACTORS
330
47
102
}
330
47
100
AcDbScale
 70
     0
300
1/8" = 1'-0"
140
0.125
141
12.0
290
     0
  0
SCALE
  5
5F
102
{ACAD_REACTORS
330
47
102
}
330
47
100
AcDbScale
 70
     0
300
3/16" = 1'-0"
140
0.1875
141
12.0
290
     0
  0
SCALE
  5
60
102
{ACAD_REACTORS
330
47
102
}
330
47
100
AcDbScale
 70
     0
300
1/4" = 1'-0"
140
0.25
141
12.0
290
     0
  0
SCALE
  5
61
102
{ACAD_REACTORS
330
47
102
}
330
47
100
AcDbScale
 70
     0
300
3/8" = 1'-0"
140
0.375
141
12.0
290
     0
  0
SCALE
  5
62
102
{ACAD_REACTORS
330
47
102
}
330
47
100
AcDbScale
 70
     0
300
1/2" = 1'-0"
140
0.5
141
12.0
290
     0
  0
SCALE
  5
63
102
{ACAD_REACTORS
330
47
102
}
330
47
100
AcDbScale
 70
     0
300
3/4" = 1'-0"
140
0.75
141
12.0
290
     0
  0
SCALE
  5
64
102
{ACAD_REACTORS
330
47
102
}
330
47
100
AcDbScale
 70
     0
300
1" = 1'-0"
140
1.0
141
12.0
290
     0
  0
SCALE
  5
65
102
{ACAD_REACTORS
330
47
102
}
330
47
100
AcDbScale
 70
     0
300
1-1/2" = 1'-0"
140
1.5
141
12.0
290
     0
  0
SCALE
  5
66
102
{ACAD_REACTORS
330
47
102
}
330
47
100
AcDbScale
 70
     0
300
3" = 1'-0"
140
3.0
141
12.0
290
     0
  0
SCALE
  5
67
102
{ACAD_REACTORS
330
47
102
}
330
47
100
AcDbScale
 70
     0
300
6" = 1'-0"
140
6.0
141
12.0
290
     0
  0
SCALE
  5
68
102
{ACAD_REACTORS
330
47
102
}
330
47
100
AcDbScale
 70
     0
300
1'-0" = 1'-0"
140
12.0
141
12.0
290
     0
  0
ENDSEC
  0
EOF
