  0
SECTION
  2
HEADER
  9
$ACADVER
  1
AC1015
  9
$ACADMAINTVER
 70
     6
  9
$DWGCODEPAGE
  3
ANSI_949
  9
$INSBASE
 10
0.0
 20
0.0
 30
0.0
  9
$EXTMIN
 10
1.000000000000000E+20
 20
1.000000000000000E+20
 30
1.000000000000000E+20
  9
$EXTMAX
 10
-1.000000000000000E+20
 20
-1.000000000000000E+20
 30
-1.000000000000000E+20
  9
$LIMMIN
 10
0.0
 20
0.0
  9
$LIMMAX
 10
420.0
 20
297.0
  9
$ORTHOMODE
 70
     1
  9
$REGENMODE
 70
     1
  9
$FILLMODE
 70
     1
  9
$QTEXTMODE
 70
     0
  9
$MIRRTEXT
 70
     1
  9
$LTSCALE
 40
1.0
  9
$ATTMODE
 70
     1
  9
$TEXTSIZE
 40
3.5
  9
$TRACEWID
 40
1.0
  9
$TEXTSTYLE
  7
Standard
  9
$CLAYER
  8
0
  9
$CELTYPE
  6
ByLayer
  9
$CECOLOR
 62
   256
  9
$CELTSCALE
 40
1.0
  9
$DISPSILH
 70
     0
  9
$DIMSCALE
 40
1.0
  9
$DIMASZ
 40
3.302
  9
$DIMEXO
 40
1.0
  9
$DIMDLI
 40
3.75
  9
$DIMRND
 40
0.0
  9
$DIMDLE
 40
0.0
  9
$DIMEXE
 40
1.0
  9
$DIMTP
 40
0.0
  9
$DIMTM
 40
0.0
  9
$DIMTXT
 40
3.5
  9
$DIMCEN
 40
2.5
  9
$DIMTSZ
 40
0.0
  9
$DIMTOL
 70
     0
  9
$DIMLIM
 70
     0
  9
$DIMTIH
 70
     1
  9
$DIMTOH
 70
     1
  9
$DIMSE1
 70
     0
  9
$DIMSE2
 70
     0
  9
$DIMTAD
 70
     1
  9
$DIMZIN
 70
     0
  9
$DIMBLK
  1

  9
$DIMASO
 70
     1
  9
$DIMSHO
 70
     1
  9
$DIMPOST
  1

  9
$DIMAPOST
  1

  9
$DIMALT
 70
     0
  9
$DIMALTD
 70
     3
  9
$DIMALTF
 40
0.0393700787401575
  9
$DIMLFAC
 40
1.0
  9
$DIMTOFL
 70
     1
  9
$DIMTVP
 40
0.0
  9
$DIMTIX
 70
     0
  9
$DIMSOXD
 70
     0
  9
$DIMSAH
 70
     0
  9
$DIMBLK1
  1

  9
$DIMBLK2
  1

  9
$DIMSTYLE
  2
ISO-25
  9
$DIMCLRD
 70
     0
  9
$DIMCLRE
 70
     0
  9
$DIMCLRT
 70
     0
  9
$DIMTFAC
 40
1.0
  9
$DIMGAP
 40
1.524
  9
$DIMJUST
 70
     0
  9
$DIMSD1
 70
     0
  9
$DIMSD2
 70
     0
  9
$DIMTOLJ
 70
     0
  9
$DIMTZIN
 70
     0
  9
$DIMALTZ
 70
     0
  9
$DIMALTTZ
 70
     0
  9
$DIMUPT
 70
     0
  9
$DIMDEC
 70
     2
  9
$DIMTDEC
 70
     2
  9
$DIMALTU
 70
     2
  9
$DIMALTTD
 70
     3
  9
$DIMTXSTY
  7
Standard
  9
$DIMAUNIT
 70
     0
  9
$DIMADEC
 70
     2
  9
$DIMALTRND
 40
0.0
  9
$DIMAZIN
 70
     0
  9
$DIMDSEP
 70
    44
  9
$DIMATFIT
 70
     3
  9
$DIMFRAC
 70
     0
  9
$DIMLDRBLK
  1

  9
$DIMLUNIT
 70
     2
  9
$DIMLWD
 70
    -2
  9
$DIMLWE
 70
    -2
  9
$DIMTMOVE
 70
     0
  9
$LUNITS
 70
     2
  9
$LUPREC
 70
     2
  9
$SKETCHINC
 40
1.0
  9
$FILLETRAD
 40
10.0
  9
$AUNITS
 70
     0
  9
$AUPREC
 70
     2
  9
$MENU
  1
.
  9
$ELEVATION
 40
0.0
  9
$PELEVATION
 40
0.0
  9
$THICKNESS
 40
0.0
  9
$LIMCHECK
 70
     0
  9
$CHAMFERA
 40
0.0
  9
$CHAMFERB
 40
0.0
  9
$CHAMFERC
 40
0.0
  9
$CHAMFERD
 40
0.0
  9
$SKPOLY
 70
     0
  9
$TDCREATE
 40
2458296.696439919
  9
$TDUCREATE
 40
2458296.321439919
  9
$TDUPDATE
 40
2458304.485356192
  9
$TDUUPDATE
 40
2458304.110356192
  9
$TDINDWG
 40
0.0016385995
  9
$TDUSRTIMER
 40
2458304.107639977
  9
$USRTIMER
 70
     1
  9
$ANGBASE
 50
0.0
  9
$ANGDIR
 70
     0
  9
$PDMODE
 70
     0
  9
$PDSIZE
 40
-1.0
  9
$PLINEWID
 40
0.0
  9
$SPLFRAME
 70
     0
  9
$SPLINETYPE
 70
     6
  9
$SPLINESEGS
 70
     8
  9
$HANDSEED
  5
27C
  9
$SURFTAB1
 70
     6
  9
$SURFTAB2
 70
     6
  9
$SURFTYPE
 70
     6
  9
$SURFU
 70
     6
  9
$SURFV
 70
     6
  9
$UCSBASE
  2

  9
$UCSNAME
  2

  9
$UCSORG
 10
0.0
 20
0.0
 30
0.0
  9
$UCSXDIR
 10
1.0
 20
0.0
 30
0.0
  9
$UCSYDIR
 10
0.0
 20
1.0
 30
0.0
  9
$UCSORTHOREF
  2

  9
$UCSORTHOVIEW
 70
     0
  9
$UCSORGTOP
 10
0.0
 20
0.0
 30
0.0
  9
$UCSORGBOTTOM
 10
0.0
 20
0.0
 30
0.0
  9
$UCSORGLEFT
 10
0.0
 20
0.0
 30
0.0
  9
$UCSORGRIGHT
 10
0.0
 20
0.0
 30
0.0
  9
$UCSORGFRONT
 10
0.0
 20
0.0
 30
0.0
  9
$UCSORGBACK
 10
0.0
 20
0.0
 30
0.0
  9
$PUCSBASE
  2

  9
$PUCSNAME
  2

  9
$PUCSORG
 10
0.0
 20
0.0
 30
0.0
  9
$PUCSXDIR
 10
1.0
 20
0.0
 30
0.0
  9
$PUCSYDIR
 10
0.0
 20
1.0
 30
0.0
  9
$PUCSORTHOREF
  2

  9
$PUCSORTHOVIEW
 70
     0
  9
$PUCSORGTOP
 10
0.0
 20
0.0
 30
0.0
  9
$PUCSORGBOTTOM
 10
0.0
 20
0.0
 30
0.0
  9
$PUCSORGLEFT
 10
0.0
 20
0.0
 30
0.0
  9
$PUCSORGRIGHT
 10
0.0
 20
0.0
 30
0.0
  9
$PUCSORGFRONT
 10
0.0
 20
0.0
 30
0.0
  9
$PUCSORGBACK
 10
0.0
 20
0.0
 30
0.0
  9
$USERI1
 70
     0
  9
$USERI2
 70
     0
  9
$USERI3
 70
     0
  9
$USERI4
 70
     0
  9
$USERI5
 70
     0
  9
$USERR1
 40
0.0
  9
$USERR2
 40
0.0
  9
$USERR3
 40
0.0
  9
$USERR4
 40
0.0
  9
$USERR5
 40
0.0
  9
$WORLDVIEW
 70
     1
  9
$SHADEDGE
 70
     3
  9
$SHADEDIF
 70
    70
  9
$TILEMODE
 70
     1
  9
$MAXACTVP
 70
    64
  9
$PINSBASE
 10
0.0
 20
0.0
 30
0.0
  9
$PLIMCHECK
 70
     0
  9
$PEXTMIN
 10
1.000000000000000E+20
 20
1.000000000000000E+20
 30
1.000000000000000E+20
  9
$PEXTMAX
 10
-1.000000000000000E+20
 20
-1.000000000000000E+20
 30
-1.000000000000000E+20
  9
$PLIMMIN
 10
0.0
 20
0.0
  9
$PLIMMAX
 10
0.0
 20
0.0
  9
$UNITMODE
 70
     0
  9
$VISRETAIN
 70
     1
  9
$PLINEGEN
 70
     0
  9
$PSLTSCALE
 70
     1
  9
$TREEDEPTH
 70
  3020
  9
$CMLSTYLE
  2
Standard
  9
$CMLJUST
 70
     0
  9
$CMLSCALE
 40
20.0
  9
$PROXYGRAPHICS
 70
     1
  9
$MEASUREMENT
 70
     1
  9
$CELWEIGHT
370
    -1
  9
$ENDCAPS
280
     0
  9
$JOINSTYLE
280
     0
  9
$LWDISPLAY
290
     1
  9
$INSUNITS
 70
     4
  9
$HYPERLINKBASE
  1

  9
$STYLESHEET
  1

  9
$XEDIT
290
     1
  9
$CEPSNTYPE
380
     0
  9
$PSTYLEMODE
290
     1
  9
$FINGERPRINTGUID
  2
{8342CD68-9900-4F74-B9AB-26AD50D5DC1A}
  9
$VERSIONGUID
  2
{FAEB1C32-E019-11D5-929B-00C0DF256EC4}
  9
$EXTNAMES
290
     1
  9
$PSVPSCALE
 40
0.0
  9
$OLESTARTUP
290
     0
  0
ENDSEC
  0
SECTION
  2
CLASSES
  0
CLASS
  1
ACDBDICTIONARYWDFLT
  2
AcDbDictionaryWithDefault
  3
ObjectDBX Classes
 90
        0
280
     0
281
     0
  0
CLASS
  1
VISUALSTYLE
  2
AcDbVisualStyle
  3
ObjectDBX Classes
 90
     4095
280
     0
281
     0
  0
CLASS
  1
MATERIAL
  2
AcDbMaterial
  3
ObjectDBX Classes
 90
     1153
280
     0
281
     0
  0
CLASS
  1
SCALE
  2
AcDbScale
  3
ObjectDBX Classes
 90
     1153
280
     0
281
     0
  0
CLASS
  1
SUN
  2
AcDbSun
  3
SCENEOE
 90
     1153
280
     0
281
     0
  0
CLASS
  1
ACDBPLACEHOLDER
  2
AcDbPlaceHolder
  3
ObjectDBX Classes
 90
        0
280
     0
281
     0
  0
CLASS
  1
LAYOUT
  2
AcDbLayout
  3
ObjectDBX Classes
 90
        0
280
     0
281
     0
  0
CLASS
  1
TABLESTYLE
  2
AcDbTableStyle
  3
ObjectDBX Classes
 90
     4095
280
     0
281
     0
  0
CLASS
  1
MLEADERSTYLE
  2
AcDbMLeaderStyle
  3
ACDB_MLEADERSTYLE_CLASS
 90
     4095
280
     0
281
     0
  0
CLASS
  1
RASTERVARIABLES
  2
AcDbRasterVariables
  3
ISM
 90
        0
280
     0
281
     0
  0
CLASS
  1
DIMASSOC
  2
AcDbDimAssoc
  3
"AcDbDimAssoc|Product Desc:     AcDim ARX App For Dimension|Company:          Autodesk, Inc.|WEB Address:      www.autodesk.com"
 90
        0
280
     0
281
     0
  0
ENDSEC
  0
SECTION
  2
TABLES
  0
TABLE
  2
VPORT
  5
8
330
0
100
AcDbSymbolTable
 70
     1
  0
VPORT
  5
29
330
8
100
AcDbSymbolTableRecord
100
AcDbViewportTableRecord
  2
*Active
 70
     0
 10
0.0
 20
0.0
 11
1.0
 21
1.0
 12
5.319415862743142
 22
-6.295318920083322
 13
0.0
 23
0.0
 14
10.0
 24
10.0
 15
10.0
 25
10.0
 16
0.0
 26
0.0
 36
1.0
 17
0.0
 27
0.0
 37
0.0
 40
85.192669841135
 41
1.308523409363745
 42
50.0
 43
0.0
 44
0.0
 50
0.0
 51
0.0
 71
    16
 72
  2000
 73
     1
 74
     3
 75
     0
 76
     0
 77
     0
 78
     0
281
     0
 65
     1
110
0.0
120
0.0
130
0.0
111
1.0
121
0.0
131
0.0
112
0.0
122
1.0
132
0.0
 79
     0
146
0.0
  0
ENDTAB
  0
TABLE
  2
LTYPE
  5
5
330
0
100
AcDbSymbolTable
 70
     6
  0
LTYPE
  5
14
330
5
100
AcDbSymbolTableRecord
100
AcDbLinetypeTableRecord
  2
ByBlock
 70
     0
  3

 72
    65
 73
     0
 40
0.0
  0
LTYPE
  5
15
330
5
100
AcDbSymbolTableRecord
100
AcDbLinetypeTableRecord
  2
ByLayer
 70
     0
  3

 72
    65
 73
     0
 40
0.0
  0
LTYPE
  5
16
330
5
100
AcDbSymbolTableRecord
100
AcDbLinetypeTableRecord
  2
Continuous
 70
     0
  3
Solid line
 72
    65
 73
     0
 40
0.0
  0
LTYPE
  5
6A
330
5
100
AcDbSymbolTableRecord
100
AcDbLinetypeTableRecord
  2
HIDDEN
 70
     0
  3
Hidden __ __ __ __ __ __ __ __ __ __ __ __ __ __
 72
    65
 73
     2
 40
1.905
 49
1.27
 74
     0
 49
-0.635
 74
     0
  0
LTYPE
  5
6B
330
5
100
AcDbSymbolTableRecord
100
AcDbLinetypeTableRecord
  2
PHANTOM
 70
     0
  3
Phantom ______  __  __  ______  __  __  ______
 72
    65
 73
     6
 40
12.7
 49
6.35
 74
     0
 49
-1.27
 74
     0
 49
1.27
 74
     0
 49
-1.27
 74
     0
 49
1.27
 74
     0
 49
-1.27
 74
     0
  0
LTYPE
  5
6C
330
5
100
AcDbSymbolTableRecord
100
AcDbLinetypeTableRecord
  2
CENTER
 70
     0
  3
Center ____ _ ____ _ ____ _ ____ _ ____ _ ____
 72
    65
 73
     4
 40
10.16
 49
6.35
 74
     0
 49
-1.27
 74
     0
 49
1.27
 74
     0
 49
-1.27
 74
     0
  0
LTYPE
  5
6D
330
5
100
AcDbSymbolTableRecord
100
AcDbLinetypeTableRecord
  2
CENTERX2
 70
     0
  3
Center (2x) ________  __  ________  __  _____
 72
    65
 73
     4
 40
20.32
 49
12.7
 74
     0
 49
-2.54
 74
     0
 49
2.54
 74
     0
 49
-2.54
 74
     0
  0
LTYPE
  5
6E
330
5
100
AcDbSymbolTableRecord
100
AcDbLinetypeTableRecord
  2
DOT2
 70
     0
  3
Dot (.5x) ........................................
 72
    65
 73
     2
 40
0.635
 49
0.0
 74
     0
 49
-0.635
 74
     0
  0
ENDTAB
  0
TABLE
  2
LAYER
  5
2
102
{ACAD_XDICTIONARY
360
1DC
102
}
330
0
100
AcDbSymbolTable
 70
    18
  0
LAYER
  5
10
330
2
100
AcDbSymbolTableRecord
100
AcDbLayerTableRecord
  2
0
 70
     0
 62
     7
  6
Continuous
370
    -3
390
F
  0
LAYER
  5
6F
330
2
100
AcDbSymbolTableRecord
100
AcDbLayerTableRecord
  2
FORMAT
 70
     0
 62
     2
  6
Continuous
370
    -3
390
F
  0
LAYER
  5
70
330
2
100
AcDbSymbolTableRecord
100
AcDbLayerTableRecord
  2
외형선
 70
     0
 62
     4
  6
Continuous
370
    30
390
F
  0
LAYER
  5
71
330
2
100
AcDbSymbolTableRecord
100
AcDbLayerTableRecord
  2
숨은선
 70
     0
 62
     2
  6
HIDDEN
370
    15
390
F
  0
LAYER
  5
72
330
2
100
AcDbSymbolTableRecord
100
AcDbLayerTableRecord
  2
중심선
 70
     0
 62
     1
  6
CENTERX2
370
    -3
390
F
  0
LAYER
  5
73
330
2
100
AcDbSymbolTableRecord
100
AcDbLayerTableRecord
  2
파단선
 70
     0
 62
     4
  6
Continuous
370
    -3
390
F
  0
LAYER
  5
74
330
2
100
AcDbSymbolTableRecord
100
AcDbLayerTableRecord
  2
해칭선
 70
     0
 62
   100
  6
Continuous
370
    -3
390
F
  0
LAYER
  5
75
330
2
100
AcDbSymbolTableRecord
100
AcDbLayerTableRecord
  2
가는실선
 70
     0
 62
     4
  6
Continuous
370
    -3
390
F
  0
LAYER
  5
76
330
2
100
AcDbSymbolTableRecord
100
AcDbLayerTableRecord
  2
치수_보조선
 70
     0
 62
     4
  6
Continuous
370
    -3
390
F
  0
LAYER
  5
77
330
2
100
AcDbSymbolTableRecord
100
AcDbLayerTableRecord
  2
치수문자_일반주서
 70
     0
 62
     7
  6
Continuous
370
    15
390
F
  0
LAYER
  5
78
330
2
100
AcDbSymbolTableRecord
100
AcDbLayerTableRecord
  2
개별주서
 70
     0
 62
   100
  6
Continuous
370
    30
390
F
  0
LAYER
  5
79
330
2
100
AcDbSymbolTableRecord
100
AcDbLayerTableRecord
  2
중간선
 70
     0
 62
     2
  6
Continuous
370
    15
390
F
  0
LAYER
  5
7A
330
2
100
AcDbSymbolTableRecord
100
AcDbLayerTableRecord
  2
윤곽선
 70
     0
 62
     3
  6
Continuous
370
    40
390
F
  0
LAYER
  5
7B
330
2
100
AcDbSymbolTableRecord
100
AcDbLayerTableRecord
  2
중심마크
 70
     0
 62
   100
  6
Continuous
370
    30
390
F
  0
LAYER
  5
7C
330
2
100
AcDbSymbolTableRecord
100
AcDbLayerTableRecord
  2
가상선
 70
     0
 62
     4
  6
PHANTOM
370
    -3
390
F
  0
LAYER
  5
7D
330
2
100
AcDbSymbolTableRecord
100
AcDbLayerTableRecord
  2
특수지정선
 70
     0
 62
     5
  6
CENTERX2
370
    60
390
F
  0
LAYER
  5
7E
330
2
100
AcDbSymbolTableRecord
100
AcDbLayerTableRecord
  2
참조1
 70
     0
 62
    -4
  6
Continuous
370
    -3
390
F
  0
LAYER
  5
139
330
2
100
AcDbSymbolTableRecord
100
AcDbLayerTableRecord
  2
Defpoints
 70
     0
 62
     7
  6
Continuous
290
     0
370
    -3
390
F
  0
ENDTAB
  0
TABLE
  2
STYLE
  5
3
330
0
100
AcDbSymbolTable
 70
     2
  0
STYLE
  5
11
330
3
100
AcDbSymbolTableRecord
100
AcDbTextStyleTableRecord
  2
Standard
 70
     0
 40
0.0
 41
1.0
 50
0.0
 71
     0
 42
3.5
  3
txt
  4

  0
STYLE
  5
94
330
3
100
AcDbSymbolTableRecord
100
AcDbTextStyleTableRecord
  2
SLDTEXTSTYLE0
 70
     0
 40
0.0
 41
0.75
 50
0.0
 71
     0
 42
3.5
  3
TXT
  4

  0
ENDTAB
  0
TABLE
  2
VIEW
  5
6
330
0
100
AcDbSymbolTable
 70
     0
  0
ENDTAB
  0
TABLE
  2
UCS
  5
7
330
0
100
AcDbSymbolTable
 70
     0
  0
ENDTAB
  0
TABLE
  2
APPID
  5
9
330
0
100
AcDbSymbolTable
 70
     4
  0
APPID
  5
12
330
9
100
AcDbSymbolTableRecord
100
AcDbRegAppTableRecord
  2
ACAD
 70
     0
  0
APPID
  5
144
330
9
100
AcDbSymbolTableRecord
100
AcDbRegAppTableRecord
  2
ACAD_DSTYLE_DIMRADIAL_EXTENSION
 70
     0
  0
APPID
  5
27A
330
9
100
AcDbSymbolTableRecord
100
AcDbRegAppTableRecord
  2
ACAD_DSTYLE_DIMFLIPARROW_SYMBOL
 70
     0
  0
APPID
  5
27B
330
9
100
AcDbSymbolTableRecord
100
AcDbRegAppTableRecord
  2
ACAD_DSTYLE_DIMFLIPARROW_WHICH_SYMBOL
 70
     0
  0
ENDTAB
  0
TABLE
  2
DIMSTYLE
  5
A
330
0
100
AcDbSymbolTable
 70
     4
100
AcDbDimStyleTable
  0
DIMSTYLE
105
27
330
A
100
AcDbSymbolTableRecord
100
AcDbDimStyleTableRecord
  2
ISO-25
 70
     0
 41
2.5
 42
0.625
 43
3.75
 44
1.25
 73
     0
 74
     0
 77
     1
 78
     8
140
2.5
141
2.5
143
0.03937007874016
147
0.625
171
     3
172
     1
178
     0
271
     2
272
     2
274
     3
278
    44
283
     0
284
     8
340
11
  0
DIMSTYLE
105
BC
330
A
100
AcDbSymbolTableRecord
100
AcDbDimStyleTableRecord
  2
SLDDIMSTYLE0
 70
     0
 41
3.302
 44
0.0
 45
0.000000001
 73
     0
 74
     0
 77
     1
 78
    12
 79
     3
140
3.5
147
0.875
172
     1
173
     1
178
     0
271
     2
272
     2
276
     2
284
    12
289
     0
340
94
  0
DIMSTYLE
105
CA
102
{ACAD_REACTORS
330
16D
330
179
330
186
330
194
330
1CF
330
1EB
330
1EC
330
1ED
330
1EE
330
269
102
}
330
A
100
AcDbSymbolTableRecord
100
AcDbDimStyleTableRecord
  2
SLDDIMSTYLE1
 70
     0
 41
3.302
 44
0.0
 45
0.000000001
 73
     0
 74
     0
 77
     1
 78
     4
 79
     1
140
3.5
143
0.0393700787401575
147
0.875
148
0.000000001
170
     1
173
     1
178
     0
271
     2
272
     2
276
     2
284
    12
340
94
  0
DIMSTYLE
105
DE
330
A
100
AcDbSymbolTableRecord
100
AcDbDimStyleTableRecord
  2
SLDDIMSTYLE2
 70
     0
 41
3.302
 44
0.0
 45
0.000000001
 73
     0
 74
     0
 77
     1
 78
    12
 79
     3
140
3.5
143
0.0393700787401575
147
0.875
148
0.000000001
170
     1
172
     1
173
     1
178
     0
271
     2
272
     2
276
     2
284
    12
289
     0
340
94
  0
ENDTAB
  0
TABLE
  2
BLOCK_RECORD
  5
1
330
0
100
AcDbSymbolTable
 70
    19
  0
BLOCK_RECORD
  5
1F
330
1
100
AcDbSymbolTableRecord
100
AcDbBlockTableRecord
  2
*Model_Space
340
22
  0
BLOCK_RECORD
  5
1B
330
1
100
AcDbSymbolTableRecord
100
AcDbBlockTableRecord
  2
*Paper_Space
340
1E
  0
BLOCK_RECORD
  5
23
330
1
100
AcDbSymbolTableRecord
100
AcDbBlockTableRecord
  2
*Paper_Space0
340
26
  0
BLOCK_RECORD
  5
7F
330
1
100
AcDbSymbolTableRecord
100
AcDbBlockTableRecord
  2
블럭10
340
0
102
{BLKREFS
331
B4
102
}
  0
BLOCK_RECORD
  5
BD
330
1
100
AcDbSymbolTableRecord
100
AcDbBlockTableRecord
  2
_D
340
0
  0
BLOCK_RECORD
  5
CB
330
1
100
AcDbSymbolTableRecord
100
AcDbBlockTableRecord
  2
_D_1
340
0
  0
BLOCK_RECORD
  5
DF
330
1
100
AcDbSymbolTableRecord
100
AcDbBlockTableRecord
  2
_D_2
340
0
  0
BLOCK_RECORD
  5
F4
330
1
100
AcDbSymbolTableRecord
100
AcDbBlockTableRecord
  2
_D_3
340
0
  0
BLOCK_RECORD
  5
10E
330
1
100
AcDbSymbolTableRecord
100
AcDbBlockTableRecord
  2
SW_DOWELSYMBOL_0
340
0
102
{BLKREFS
331
0
331
1A3
331
1EF
102
}
  0
BLOCK_RECORD
  5
16E
330
1
100
AcDbSymbolTableRecord
100
AcDbBlockTableRecord
  2
*D8
340
0
  0
BLOCK_RECORD
  5
17A
330
1
100
AcDbSymbolTableRecord
100
AcDbBlockTableRecord
  2
*D9
340
0
  0
BLOCK_RECORD
  5
187
330
1
100
AcDbSymbolTableRecord
100
AcDbBlockTableRecord
  2
*D10
340
0
  0
BLOCK_RECORD
  5
195
330
1
100
AcDbSymbolTableRecord
100
AcDbBlockTableRecord
  2
*D11
340
0
  0
BLOCK_RECORD
  5
1D2
330
1
100
AcDbSymbolTableRecord
100
AcDbBlockTableRecord
  2
*D12
340
0
  0
BLOCK_RECORD
  5
218
330
1
100
AcDbSymbolTableRecord
100
AcDbBlockTableRecord
  2
*D13
340
0
  0
BLOCK_RECORD
  5
223
330
1
100
AcDbSymbolTableRecord
100
AcDbBlockTableRecord
  2
*D14
340
0
  0
BLOCK_RECORD
  5
22F
330
1
100
AcDbSymbolTableRecord
100
AcDbBlockTableRecord
  2
*D15
340
0
  0
BLOCK_RECORD
  5
23C
330
1
100
AcDbSymbolTableRecord
100
AcDbBlockTableRecord
  2
*D16
340
0
  0
BLOCK_RECORD
  5
24A
330
1
100
AcDbSymbolTableRecord
100
AcDbBlockTableRecord
  2
*D17
340
0
  0
BLOCK_RECORD
  5
26C
330
1
100
AcDbSymbolTableRecord
100
AcDbBlockTableRecord
  2
*D18
340
0
  0
ENDTAB
  0
ENDSEC
  0
SECTION
  2
BLOCKS
  0
BLOCK
  5
20
330
1F
100
AcDbEntity
  8
0
100
AcDbBlockBegin
  2
*Model_Space
 70
     0
 10
0.0
 20
0.0
 30
0.0
  3
*Model_Space
  1
*Model_Space
  0
ENDBLK
  5
21
330
1F
100
AcDbEntity
  8
0
100
AcDbBlockEnd
  0
BLOCK
  5
1C
330
1B
100
AcDbEntity
 67
     1
  8
0
100
AcDbBlockBegin
  2
*Paper_Space
 70
     0
 10
0.0
 20
0.0
 30
0.0
  3
*Paper_Space
  1
*Paper_Space
  0
ENDBLK
  5
1D
330
1B
100
AcDbEntity
 67
     1
  8
0
100
AcDbBlockEnd
  0
BLOCK
  5
24
330
23
100
AcDbEntity
  8
0
100
AcDbBlockBegin
  2
*Paper_Space0
 70
     0
 10
0.0
 20
0.0
 30
0.0
  3
*Paper_Space0
  1
*Paper_Space0
  0
ENDBLK
  5
25
330
23
100
AcDbEntity
  8
0
100
AcDbBlockEnd
  0
BLOCK
  5
80
330
7F
100
AcDbEntity
  8
0
100
AcDbBlockBegin
  2
블럭10
 70
     2
 10
0.0
 20
0.0
 30
0.0
  3
블럭10
  1
블럭10
  0
ELLIPSE
  5
82
330
7F
100
AcDbEntity
  8
중심선
100
AcDbEllipse
 10
20.54032771741204
 20
12.0471743016438
 30
0.0
 11
6.600054785286829
 21
-1.261213355974178E-13
 31
0.0
210
0.0
220
0.0
230
1.0
 40
0.636358354079598
 41
0.9219305317359503
 42
6.513795318482858
  0
ELLIPSE
  5
83
330
7F
100
AcDbEntity
  8
중심선
100
AcDbEllipse
 10
20.54032771746488
 20
12.04717430159265
 30
0.0
 11
3.960054785062283
 21
1.540847449632565E-10
 31
0.0
210
0.0
220
0.0
230
1.0
 40
0.3939339440162632
 41
1.131841032648279
 42
5.62031148352944
  0
LINE
  5
84
330
7F
100
AcDbEntity
  8
중심선
100
AcDbLine
 10
2.268634060543552
 20
16.24717430164393
 30
0.0
 11
5.714909304380834
 21
16.24717430164393
 31
0.0
  0
LINE
  5
85
330
7F
100
AcDbEntity
  8
중심선
100
AcDbLine
 10
5.245725140726316
 20
7.84717430164391
 30
0.0
 11
8.692000384563599
 21
7.84717430164391
 31
0.0
  0
LINE
  5
86
330
7F
100
AcDbEntity
  8
중심선
100
AcDbLine
 10
15.74043728645272
 20
16.24717430164393
 30
0.0
 11
8.692000384563599
 21
7.84717430164391
 31
0.0
  0
LINE
  5
87
330
7F
100
AcDbEntity
  8
중심선
100
AcDbLine
 10
0.1404042013395286
 20
13.71084872107135
 30
0.0
 11
3.58671253028996
 21
13.71088815037384
 31
0.0
  0
LINE
  5
88
330
7F
100
AcDbEntity
  8
중심선
100
AcDbLine
 10
2.750260043222114
 20
10.84717430164391
 30
0.0
 11
6.196535287059397
 21
10.84717430164391
 31
0.0
  0
LINE
  5
89
330
7F
100
AcDbEntity
  8
중심선
100
AcDbLine
 10
12.29416204261559
 20
16.24717430164393
 30
0.0
 11
5.245725140726316
 21
7.84717430164391
 31
0.0
  0
LINE
  5
8A
330
7F
100
AcDbEntity
  8
중심선
100
AcDbLine
 10
10.72767329541681
 20
16.24717430164393
 30
0.0
 11
6.196535287059397
 21
10.84717430164391
 31
0.0
  0
LINE
  5
8B
330
7F
100
AcDbEntity
  8
중심선
100
AcDbLine
 10
7.28139805157953
 20
16.24717430164393
 30
0.0
 11
2.750260043222114
 21
10.84717430164391
 31
0.0
  0
LINE
  5
8C
330
7F
100
AcDbEntity
  8
중심선
100
AcDbLine
 10
5.714909304380834
 20
16.24717430164393
 30
0.0
 11
3.58671253028996
 21
13.71088815037384
 31
0.0
  0
LINE
  5
8D
330
7F
100
AcDbEntity
  8
중심선
100
AcDbLine
 10
2.268634060543552
 20
16.24717430164393
 30
0.0
 11
0.1404042013395286
 21
13.71084872107135
 31
0.0
  0
LINE
  5
8E
330
7F
100
AcDbEntity
  8
중심선
100
AcDbLine
 10
7.28139805157953
 20
16.24717430164393
 30
0.0
 11
10.72767329541681
 21
16.24717430164393
 31
0.0
  0
LINE
  5
8F
330
7F
100
AcDbEntity
  8
중심선
100
AcDbLine
 10
12.29416204261559
 20
16.24717430164393
 30
0.0
 11
15.74043728645272
 21
16.24717430164393
 31
0.0
  0
LINE
  5
90
330
7F
100
AcDbEntity
  8
중심선
100
AcDbLine
 10
19.22036997980202
 20
11.08717430171403
 30
0.0
 11
23.66174974927406
 21
11.08717430171406
 31
0.0
  0
LINE
  5
91
330
7F
100
AcDbEntity
  8
중심선
100
AcDbLine
 10
19.22039502424796
 20
13.00717430171391
 30
0.0
 11
19.22036997980202
 21
11.08717430171403
 31
0.0
  0
LINE
  5
92
330
7F
100
AcDbEntity
  8
중심선
100
AcDbLine
 10
19.22039502424796
 20
13.00717430171391
 30
0.0
 11
26.96566020931264
 21
13.00717430171391
 31
0.0
  0
LINE
  5
93
330
7F
100
AcDbEntity
  8
중심선
100
AcDbLine
 10
22.22332737316547
 20
13.45928029700563
 30
0.0
 11
24.52862924686651
 21
15.39360700705356
 31
0.0
  0
ATTDEF
  5
95
330
7F
100
AcDbEntity
  8
FORMAT
 62
     2
100
AcDbText
 10
3.448148490846466
 20
2.075366912832191
 30
0.0
 40
4.233333333333333
  1
EM649004
 41
0.75
  7
SLDTEXTSTYLE0
 11
3.448148490846466
 21
-0.0412997538344756
 31
0.0
100
AcDbAttributeDefinition
  3

  2
AUTOATTR0
 70
     0
 74
     1
  0
ENDBLK
  5
81
330
7F
100
AcDbEntity
  8
0
100
AcDbBlockEnd
  0
BLOCK
  5
BE
330
BD
100
AcDbEntity
  8
0
100
AcDbBlockBegin
  2
_D
 70
     0
 10
0.0
 20
0.0
 30
0.0
  3
_D
  1
_D
  0
SOLID
  5
C0
330
BD
100
AcDbEntity
  8
치수문자_일반주서
100
AcDbTrace
 10
-41.61124999999998
 20
-0.7926750712761061
 30
0.0
 11
-42.11924999999999
 21
-4.094675071276106
 31
0.0
 12
-41.10324999999998
 22
-4.094675071276106
 32
0.0
 13
-41.10324999999998
 23
-4.094675071276106
 33
0.0
  0
SOLID
  5
C1
330
BD
100
AcDbEntity
  8
치수문자_일반주서
100
AcDbTrace
 10
-41.61124999999998
 20
0.7948249287238933
 30
0.0
 11
-41.10324999999998
 21
4.096824928723893
 31
0.0
 12
-42.11924999999999
 22
4.096824928723893
 32
0.0
 13
-42.11924999999999
 23
4.096824928723893
 33
0.0
  0
LINE
  5
C2
330
BD
100
AcDbEntity
  8
치수문자_일반주서
100
AcDbLine
 10
-54.24624999999999
 20
-0.7926750712761069
 30
0.0
 11
-40.61124999999998
 21
-0.792675071276106
 31
0.0
  0
LINE
  5
C3
330
BD
100
AcDbEntity
  8
치수문자_일반주서
100
AcDbLine
 10
-54.24624999999999
 20
0.7948249287238925
 30
0.0
 11
-40.61124999999998
 21
0.7948249287238934
 31
0.0
  0
LINE
  5
C4
330
BD
100
AcDbEntity
  8
치수문자_일반주서
100
AcDbLine
 10
-41.61124999999998
 20
-0.7926750712761061
 30
0.0
 11
-41.61124999999998
 21
-7.142675071276106
 31
0.0
  0
LINE
  5
C5
330
BD
100
AcDbEntity
  8
치수문자_일반주서
100
AcDbLine
 10
-41.61124999999998
 20
-0.7926750712761061
 30
0.0
 11
-41.61124999999998
 21
0.7948249287238933
 31
0.0
  0
LINE
  5
C6
330
BD
100
AcDbEntity
  8
치수문자_일반주서
100
AcDbLine
 10
-41.61124999999998
 20
0.7948249287238933
 30
0.0
 11
-41.61124999999998
 21
7.144824928723893
 31
0.0
  0
MTEXT
  5
C7
330
BD
100
AcDbEntity
  8
치수문자_일반주서
100
AcDbMText
 10
-46.12298708920186
 20
-6.834098612090667
 30
0.0
 40
3.5
 41
0.0
 71
     1
 72
     1
  1
%%c
  7
SLDTEXTSTYLE0
 11
6.123233995736766E-17
 21
1.0
 31
0.0
 73
     1
 44
1.0
  0
MTEXT
  5
C8
330
BD
100
AcDbEntity
  8
치수문자_일반주서
100
AcDbMText
 10
-46.17645926586171
 20
-1.555661213716586
 30
0.0
 40
3.5
 41
0.0
 71
     1
 72
     1
  1
1.59
  7
SLDTEXTSTYLE0
 11
6.123233995736766E-17
 21
1.0
 31
0.0
 73
     1
 44
1.0
  0
ENDBLK
  5
BF
330
BD
100
AcDbEntity
  8
0
100
AcDbBlockEnd
  0
BLOCK
  5
CC
330
CB
100
AcDbEntity
  8
0
100
AcDbBlockBegin
  2
_D_1
 70
     0
 10
0.0
 20
0.0
 30
0.0
  3
_D_1
  1
_D_1
  0
SOLID
  5
CE
330
CB
100
AcDbEntity
  8
치수문자_일반주서
100
AcDbTrace
 10
22.70000000000003
 20
27.84481249110362
 30
0.0
 11
19.39800000000003
 21
28.35281249110362
 31
0.0
 12
19.39800000000003
 22
27.33681249110362
 32
0.0
 13
19.39800000000003
 23
27.33681249110362
 33
0.0
  0
SOLID
  5
CF
330
CB
100
AcDbEntity
  8
치수문자_일반주서
100
AcDbTrace
 10
-53.49999999999999
 20
27.84481249110361
 30
0.0
 11
-50.19799999999999
 21
27.33681249110361
 31
0.0
 12
-50.19799999999999
 22
28.35281249110361
 32
0.0
 13
-50.19799999999999
 23
28.35281249110361
 33
0.0
  0
LINE
  5
D0
330
CB
100
AcDbEntity
  8
치수문자_일반주서
100
AcDbLine
 10
-20.81436608182264
 20
38.63769420714635
 30
0.0
 11
-21.52530356738714
 21
38.63769420714636
 31
0.0
  0
LINE
  5
D1
330
CB
100
AcDbEntity
  8
치수문자_일반주서
100
AcDbLine
 10
-21.52530356738714
 20
38.63769420714636
 30
0.0
 11
-21.52530356738718
 21
33.08144421608706
 31
0.0
  0
LINE
  5
D2
330
CB
100
AcDbEntity
  8
치수문자_일반주서
100
AcDbLine
 10
-21.52530356738718
 20
33.08144421608706
 30
0.0
 11
-20.81436608182268
 21
33.08144421608705
 31
0.0
  0
LINE
  5
D3
330
CB
100
AcDbEntity
  8
치수문자_일반주서
100
AcDbLine
 10
-9.985633219685385
 20
38.63769420714628
 30
0.0
 11
-9.274695734120884
 21
38.63769420714628
 31
0.0
  0
LINE
  5
D4
330
CB
100
AcDbEntity
  8
치수문자_일반주서
100
AcDbLine
 10
-9.274695734120884
 20
38.63769420714628
 30
0.0
 11
-9.274695734120925
 21
33.08144421608697
 31
0.0
  0
LINE
  5
D5
330
CB
100
AcDbEntity
  8
치수문자_일반주서
100
AcDbLine
 10
-9.274695734120925
 20
33.08144421608697
 30
0.0
 11
-9.985633219685425
 21
33.08144421608698
 31
0.0
  0
LINE
  5
D6
330
CB
100
AcDbEntity
  8
치수문자_일반주서
100
AcDbLine
 10
22.70000000000003
 20
1.68848259297779
 30
0.0
 11
22.70000000000003
 21
28.84481249110362
 31
0.0
  0
LINE
  5
D7
330
CB
100
AcDbEntity
  8
치수문자_일반주서
100
AcDbLine
 10
-53.49999999999999
 20
3.541074928723894
 30
0.0
 11
-53.49999999999999
 21
28.84481249110361
 31
0.0
  0
LINE
  5
D8
330
CB
100
AcDbEntity
  8
치수문자_일반주서
100
AcDbLine
 10
22.70000000000003
 20
27.84481249110362
 30
0.0
 11
-53.49999999999999
 21
27.84481249110361
 31
0.0
  0
MTEXT
  5
D9
330
CB
100
AcDbEntity
  8
치수문자_일반주서
100
AcDbMText
 10
-22.03906229287388
 20
32.41002175696535
 30
0.0
 40
3.5
 41
0.0
 71
     1
 72
     1
  1

  7
SLDTEXTSTYLE0
 73
     1
 44
1.0
  0
MTEXT
  5
DA
330
CB
100
AcDbEntity
  8
치수문자_일반주서
100
AcDbMText
 10
-19.92569418121128
 20
37.59318113066595
 30
0.0
 40
3.5
 41
0.0
 71
     1
 72
     1
  1
3.00
  7
SLDTEXTSTYLE0
 73
     1
 44
1.0
  0
MTEXT
  5
DB
330
CB
100
AcDbEntity
  8
치수문자_일반주서
100
AcDbMText
 10
-21.21874989438804
 20
32.35654958030548
 30
0.0
 40
3.5
 41
0.0
 71
     1
 72
     1
  1
76.20
  7
SLDTEXTSTYLE0
 73
     1
 44
1.0
  0
MTEXT
  5
DC
330
CB
100
AcDbEntity
  8
치수문자_일반주서
100
AcDbMText
 10
-7.428992488980318
 20
32.41002175696524
 30
0.0
 40
3.5
 41
0.0
 71
     1
 72
     1
  1

  7
SLDTEXTSTYLE0
 73
     1
 44
1.0
  0
ENDBLK
  5
CD
330
CB
100
AcDbEntity
  8
0
100
AcDbBlockEnd
  0
BLOCK
  5
E0
330
DF
100
AcDbEntity
  8
0
100
AcDbBlockBegin
  2
_D_2
 70
     0
 10
0.0
 20
0.0
 30
0.0
  3
_D_2
  1
_D_2
  0
SOLID
  5
E2
330
DF
100
AcDbEntity
  8
치수문자_일반주서
100
AcDbTrace
 10
48.10000000000003
 20
14.34489393989774
 30
0.0
 11
51.40200000000003
 21
13.83689393989773
 31
0.0
 12
51.40200000000003
 22
14.85289393989773
 32
0.0
 13
51.40200000000003
 23
14.85289393989773
 33
0.0
  0
SOLID
  5
E3
330
DF
100
AcDbEntity
  8
치수문자_일반주서
100
AcDbTrace
 10
32.22500000000005
 20
14.34489393989777
 30
0.0
 11
28.92300000000005
 21
14.85289393989778
 31
0.0
 12
28.92300000000005
 22
13.83689393989778
 32
0.0
 13
28.92300000000005
 23
13.83689393989778
 33
0.0
  0
LINE
  5
E4
330
DF
100
AcDbEntity
  8
치수문자_일반주서
100
AcDbLine
 10
34.74813391817737
 20
25.13777565594049
 30
0.0
 11
34.03719643261287
 21
25.13777565594049
 31
0.0
  0
LINE
  5
E5
330
DF
100
AcDbEntity
  8
치수문자_일반주서
100
AcDbLine
 10
34.03719643261287
 20
25.13777565594049
 30
0.0
 11
34.03719643261282
 21
19.58152566488119
 31
0.0
  0
LINE
  5
E6
330
DF
100
AcDbEntity
  8
치수문자_일반주서
100
AcDbLine
 10
34.03719643261282
 20
19.58152566488119
 30
0.0
 11
34.74813391817732
 21
19.58152566488118
 31
0.0
  0
LINE
  5
E7
330
DF
100
AcDbEntity
  8
치수문자_일반주서
100
AcDbLine
 10
45.57686678031463
 20
25.13777565594039
 30
0.0
 11
46.28780426587913
 21
25.13777565594038
 31
0.0
  0
LINE
  5
E8
330
DF
100
AcDbEntity
  8
치수문자_일반주서
100
AcDbLine
 10
46.28780426587913
 20
25.13777565594038
 30
0.0
 11
46.28780426587908
 21
19.58152566488108
 31
0.0
  0
LINE
  5
E9
330
DF
100
AcDbEntity
  8
치수문자_일반주서
100
AcDbLine
 10
46.28780426587908
 20
19.58152566488108
 30
0.0
 11
45.57686678031458
 21
19.58152566488108
 31
0.0
  0
LINE
  5
EA
330
DF
100
AcDbEntity
  8
치수문자_일반주서
100
AcDbLine
 10
48.10000000000001
 20
5.050129940695
 30
0.0
 11
48.10000000000003
 21
15.34489393989774
 31
0.0
  0
LINE
  5
EB
330
DF
100
AcDbEntity
  8
치수문자_일반주서
100
AcDbLine
 10
32.22500000000004
 20
7.345556814009666
 30
0.0
 11
32.22500000000005
 21
15.34489393989777
 31
0.0
  0
LINE
  5
EC
330
DF
100
AcDbEntity
  8
치수문자_일반주서
100
AcDbLine
 10
48.10000000000003
 20
14.34489393989774
 30
0.0
 11
54.45000000000003
 21
14.34489393989772
 31
0.0
  0
LINE
  5
ED
330
DF
100
AcDbEntity
  8
치수문자_일반주서
100
AcDbLine
 10
48.10000000000003
 20
14.34489393989774
 30
0.0
 11
32.22500000000005
 21
14.34489393989777
 31
0.0
  0
LINE
  5
EE
330
DF
100
AcDbEntity
  8
치수문자_일반주서
100
AcDbLine
 10
32.22500000000005
 20
14.34489393989777
 30
0.0
 11
25.87500000000005
 21
14.34489393989779
 31
0.0
  0
MTEXT
  5
EF
330
DF
100
AcDbEntity
  8
치수문자_일반주서
100
AcDbMText
 10
33.52343770712613
 20
18.91010320575947
 30
0.0
 40
3.5
 41
0.0
 71
     1
 72
     1
  1

  7
SLDTEXTSTYLE0
 73
     1
 44
1.0
  0
MTEXT
  5
F0
330
DF
100
AcDbEntity
  8
치수문자_일반주서
100
AcDbMText
 10
35.63680581878874
 20
24.09326257946007
 30
0.0
 40
3.5
 41
0.0
 71
     1
 72
     1
  1
0.63
  7
SLDTEXTSTYLE0
 73
     1
 44
1.0
  0
MTEXT
  5
F1
330
DF
100
AcDbEntity
  8
치수문자_일반주서
100
AcDbMText
 10
34.34375010561196
 20
18.85663102909961
 30
0.0
 40
3.5
 41
0.0
 71
     1
 72
     1
  1
15.88
  7
SLDTEXTSTYLE0
 73
     1
 44
1.0
  0
MTEXT
  5
F2
330
DF
100
AcDbEntity
  8
치수문자_일반주서
100
AcDbMText
 10
48.13350751101969
 20
18.91010320575933
 30
0.0
 40
3.5
 41
0.0
 71
     1
 72
     1
  1

  7
SLDTEXTSTYLE0
 73
     1
 44
1.0
  0
ENDBLK
  5
E1
330
DF
100
AcDbEntity
  8
0
100
AcDbBlockEnd
  0
BLOCK
  5
F5
330
F4
100
AcDbEntity
  8
0
100
AcDbBlockBegin
  2
_D_3
 70
     0
 10
0.0
 20
0.0
 30
0.0
  3
_D_3
  1
_D_3
  0
SOLID
  5
F7
330
F4
100
AcDbEntity
  8
치수문자_일반주서
100
AcDbTrace
 10
47.67595001570916
 20
3.176074928723897
 30
0.0
 11
48.18395001570916
 21
6.478074928723896
 31
0.0
 12
47.16795001570916
 22
6.478074928723896
 32
0.0
 13
47.16795001570916
 23
6.478074928723896
 33
0.0
  0
SOLID
  5
F8
330
F4
100
AcDbEntity
  8
치수문자_일반주서
100
AcDbTrace
 10
47.67595001570916
 20
-3.173925071276115
 30
0.0
 11
47.16795001570916
 21
-6.475925071276114
 31
0.0
 12
48.18395001570916
 22
-6.475925071276114
 32
0.0
 13
48.18395001570916
 23
-6.475925071276114
 33
0.0
  0
LINE
  5
F9
330
F4
100
AcDbEntity
  8
치수문자_일반주서
100
AcDbLine
 10
36.88306829966643
 20
4.407458044959878
 30
0.0
 11
36.88306829966644
 21
3.696520559395377
 31
0.0
  0
LINE
  5
FA
330
F4
100
AcDbEntity
  8
치수문자_일반주서
100
AcDbLine
 10
36.88306829966644
 20
3.696520559395377
 30
0.0
 11
42.43931829072574
 21
3.696520559395416
 31
0.0
  0
LINE
  5
FB
330
F4
100
AcDbEntity
  8
치수문자_일반주서
100
AcDbLine
 10
42.43931829072574
 20
3.696520559395416
 30
0.0
 11
42.43931829072574
 21
4.407458044959917
 31
0.0
  0
LINE
  5
FC
330
F4
100
AcDbEntity
  8
치수문자_일반주서
100
AcDbLine
 10
36.88306829966636
 20
15.23619090709714
 30
0.0
 11
36.88306829966636
 21
15.94712839266164
 31
0.0
  0
LINE
  5
FD
330
F4
100
AcDbEntity
  8
치수문자_일반주서
100
AcDbLine
 10
36.88306829966636
 20
15.94712839266164
 30
0.0
 11
42.43931829072567
 21
15.94712839266167
 31
0.0
  0
LINE
  5
FE
330
F4
100
AcDbEntity
  8
치수문자_일반주서
100
AcDbLine
 10
42.43931829072567
 20
15.94712839266167
 30
0.0
 11
42.43931829072567
 21
15.23619090709717
 31
0.0
  0
LINE
  5
FF
330
F4
100
AcDbEntity
  8
치수문자_일반주서
100
AcDbLine
 10
23.44600000000002
 20
3.176074928723899
 30
0.0
 11
48.67595001570916
 21
3.176074928723897
 31
0.0
  0
LINE
  5
100
330
F4
100
AcDbEntity
  8
치수문자_일반주서
100
AcDbLine
 10
23.44600000000002
 20
-3.173925071276113
 30
0.0
 11
48.67595001570916
 21
-3.173925071276115
 31
0.0
  0
LINE
  5
101
330
F4
100
AcDbEntity
  8
치수문자_일반주서
100
AcDbLine
 10
47.67595001570916
 20
3.176074928723897
 30
0.0
 11
47.67595001570916
 21
16.98673817133417
 31
0.0
  0
LINE
  5
102
330
F4
100
AcDbEntity
  8
치수문자_일반주서
100
AcDbLine
 10
47.67595001570916
 20
3.176074928723897
 30
0.0
 11
47.67595001570916
 21
-3.173925071276115
 31
0.0
  0
LINE
  5
103
330
F4
100
AcDbEntity
  8
치수문자_일반주서
100
AcDbLine
 10
47.67595001570916
 20
-3.173925071276115
 30
0.0
 11
47.67595001570916
 21
-9.523925071276114
 31
0.0
  0
MTEXT
  5
104
330
F4
100
AcDbEntity
  8
치수문자_일반주서
100
AcDbMText
 10
37.92758137614685
 20
5.296129945571255
 30
0.0
 40
3.5
 41
0.0
 71
     1
 72
     1
  1
0.25
  7
SLDTEXTSTYLE0
 11
-7.044195017643634E-15
 21
1.0
 31
0.0
 73
     1
 44
1.0
  0
MTEXT
  5
105
330
F4
100
AcDbEntity
  8
치수문자_일반주서
100
AcDbMText
 10
43.16421292650733
 20
2.656910780722964
 30
0.0
 40
3.5
 41
0.0
 71
     1
 72
     1
  1
%%c
  7
SLDTEXTSTYLE0
 11
-7.044195017643634E-15
 21
1.0
 31
0.0
 73
     1
 44
1.0
  0
MTEXT
  5
106
330
F4
100
AcDbEntity
  8
치수문자_일반주서
100
AcDbMText
 10
43.1642129265073
 20
7.935348179097044
 30
0.0
 40
3.5
 41
0.0
 71
     1
 72
     1
  1
6.35
  7
SLDTEXTSTYLE0
 11
-7.044195017643634E-15
 21
1.0
 31
0.0
 73
     1
 44
1.0
  0
ENDBLK
  5
F6
330
F4
100
AcDbEntity
  8
0
100
AcDbBlockEnd
  0
BLOCK
  5
10F
330
10E
100
AcDbEntity
  8
0
100
AcDbBlockBegin
  2
SW_DOWELSYMBOL_0
 70
     0
 10
0.0
 20
0.0
 30
0.0
  3
SW_DOWELSYMBOL_0
  1
SW_DOWELSYMBOL_0
  0
CIRCLE
  5
111
330
10E
100
AcDbEntity
  8
해칭선
 62
     0
100
AcDbCircle
 10
0.0
 20
0.0
 30
0.0
 40
3.000000000000001
  0
HATCH
  5
112
330
10E
100
AcDbEntity
  8
0
  6
Continuous
 62
     0
370
     0
100
AcDbHatch
 10
0.0
 20
0.0
 30
0.0
210
0.0
220
0.0
230
1.0
  2
SOLID
 70
     1
 71
     0
 91
        1
 92
        0
 93
        3
 72
     2
 10
0.0
 20
0.0
 40
3.000000000000001
 50
0.0
 51
90.0
 73
     1
 72
     1
 10
0.0
 20
3.000000000000001
 11
0.0
 21
0.0
 72
     1
 10
0.0
 20
0.0
 11
3.000000000000003
 21
0.0
 97
        0
 75
     0
 76
     1
 98
        1
 10
0.0
 20
0.0
  0
HATCH
  5
113
330
10E
100
AcDbEntity
  8
0
  6
Continuous
 62
     0
370
     0
100
AcDbHatch
 10
0.0
 20
0.0
 30
0.0
210
0.0
220
0.0
230
1.0
  2
SOLID
 70
     1
 71
     0
 91
        1
 92
        0
 93
        3
 72
     2
 10
0.0
 20
0.0
 40
3.000000000000001
 50
180.0
 51
270.0000000000008
 73
     1
 72
     1
 10
0.0
 20
-3.000000000000001
 11
0.0
 21
0.0
 72
     1
 10
0.0
 20
0.0
 11
-3.000000000000003
 21
0.0
 97
        0
 75
     0
 76
     1
 98
        1
 10
0.0
 20
0.0
  0
ENDBLK
  5
110
330
10E
100
AcDbEntity
  8
0
100
AcDbBlockEnd
  0
BLOCK
  5
16F
330
16E
100
AcDbEntity
  8
0
100
AcDbBlockBegin
  2
*D8
 70
     1
 10
0.0
 20
0.0
 30
0.0
  3
*D8
  1
*D8
  0
LINE
  5
170
330
16E
100
AcDbEntity
  8
0
  6
Continuous
 62
     0
370
    -2
100
AcDbLine
 10
11.12015619282811
 20
38.792065249268
 30
0.0
 11
4.375000000000037
 21
38.79206524926797
 31
0.0
  0
LINE
  5
171
330
16E
100
AcDbEntity
  8
0
  6
Continuous
 62
     0
370
    -2
100
AcDbLine
 10
11.18265619282811
 20
32.442065249268
 30
0.0
 11
4.37500000000006
 21
32.44206524926797
 31
0.0
  0
SOLID
  5
172
330
16E
100
AcDbEntity
  8
0
 62
     0
100
AcDbTrace
 10
4.925333333333382
 20
35.49006524926797
 30
0.0
 11
3.824666666666716
 21
35.49006524926797
 31
0.0
 12
4.375000000000037
 22
38.79206524926797
 32
0.0
 13
4.375000000000037
 23
38.79206524926797
 33
0.0
  0
SOLID
  5
173
330
16E
100
AcDbEntity
  8
0
 62
     0
100
AcDbTrace
 10
3.824666666666715
 20
35.74406524926797
 30
0.0
 11
4.925333333333382
 21
35.74406524926797
 31
0.0
 12
4.37500000000006
 22
32.44206524926797
 32
0.0
 13
4.37500000000006
 23
32.44206524926797
 33
0.0
  0
MTEXT
  5
174
330
16E
100
AcDbEntity
  8
0
 62
     0
370
    15
100
AcDbMText
 10
0.0000000000000426
 20
37.20456524926784
 30
0.0
 40
3.5
 41
0.0
 71
     2
 72
     1
  1
\A1;%%c6.35 [1/4]
  7
SLDTEXTSTYLE0
 11
-3.496765431890256E-15
 21
1.0
 31
0.0
 73
     1
 44
1.0
  0
POINT
  5
175
330
16E
100
AcDbEntity
  8
Defpoints
 62
     0
100
AcDbPoint
 10
11.18265619282811
 20
38.792065249268
 30
0.0
  0
POINT
  5
176
330
16E
100
AcDbEntity
  8
Defpoints
 62
     0
100
AcDbPoint
 10
11.24515619282811
 20
32.442065249268
 30
0.0
  0
POINT
  5
177
330
16E
100
AcDbEntity
  8
Defpoints
 62
     0
100
AcDbPoint
 10
4.375000000000057
 20
32.44206524926797
 30
0.0
  0
ENDBLK
  5
178
330
16E
100
AcDbEntity
  8
0
100
AcDbBlockEnd
  0
BLOCK
  5
17B
330
17A
100
AcDbEntity
  8
0
100
AcDbBlockBegin
  2
*D9
 70
     1
 10
0.0
 20
0.0
 30
0.0
  3
*D9
  1
*D9
  0
LINE
  5
17C
330
17A
100
AcDbEntity
  8
0
  6
Continuous
 62
     0
370
    -2
100
AcDbLine
 10
67.00015619282811
 20
42.02956524926804
 30
0.0
 11
67.00015619282811
 21
68.58214464421948
 31
0.0
  0
LINE
  5
17D
330
17A
100
AcDbEntity
  8
0
  6
Continuous
 62
     0
370
    -2
100
AcDbLine
 10
9.850156192828102
 20
37.584565249268
 30
0.0
 11
9.850156192828102
 21
68.58214464421948
 31
0.0
  0
LINE
  5
17E
330
17A
100
AcDbEntity
  8
0
  6
Continuous
 62
     0
370
    -2
100
AcDbLine
 10
63.69815619282812
 20
68.58214464421948
 30
0.0
 11
13.1521561928281
 21
68.58214464421948
 31
0.0
  0
SOLID
  5
17F
330
17A
100
AcDbEntity
  8
0
 62
     0
100
AcDbTrace
 10
63.69815619282812
 20
68.03181131088616
 30
0.0
 11
63.69815619282812
 21
69.13247797755281
 31
0.0
 12
67.00015619282811
 22
68.58214464421948
 32
0.0
 13
67.00015619282811
 23
68.58214464421948
 33
0.0
  0
SOLID
  5
180
330
17A
100
AcDbEntity
  8
0
 62
     0
100
AcDbTrace
 10
13.1521561928281
 20
69.13247797755281
 30
0.0
 11
13.1521561928281
 21
68.03181131088616
 31
0.0
 12
9.850156192828102
 22
68.58214464421948
 32
0.0
 13
9.850156192828102
 23
68.58214464421948
 33
0.0
  0
MTEXT
  5
181
330
17A
100
AcDbEntity
  8
0
 62
     0
370
    15
100
AcDbMText
 10
38.42515619282811
 20
72.95714464421948
 30
0.0
 40
3.5
 41
0.0
 71
     2
 72
     1
  1
\A1;57.15 [2 1/4]
  7
SLDTEXTSTYLE0
 73
     1
 44
1.0
  0
POINT
  5
182
330
17A
100
AcDbEntity
  8
Defpoints
 62
     0
100
AcDbPoint
 10
67.00015619282811
 20
41.96706524926804
 30
0.0
  0
POINT
  5
183
330
17A
100
AcDbEntity
  8
Defpoints
 62
     0
100
AcDbPoint
 10
9.850156192828102
 20
37.522065249268
 30
0.0
  0
POINT
  5
184
330
17A
100
AcDbEntity
  8
Defpoints
 62
     0
100
AcDbPoint
 10
9.850156192828102
 20
68.58214464421948
 30
0.0
  0
ENDBLK
  5
185
330
17A
100
AcDbEntity
  8
0
100
AcDbBlockEnd
  0
BLOCK
  5
188
330
187
100
AcDbEntity
  8
0
100
AcDbBlockBegin
  2
*D10
 70
     1
 10
0.0
 20
0.0
 30
0.0
  3
*D10
  1
*D10
  0
LINE
  5
189
330
187
100
AcDbEntity
  8
0
  6
Continuous
 62
     0
370
    -2
100
AcDbLine
 10
67.00015619282811
 20
42.02956524926804
 30
0.0
 11
67.00015619282811
 21
51.7205787452964
 31
0.0
  0
LINE
  5
18A
330
187
100
AcDbEntity
  8
0
  6
Continuous
 62
     0
370
    -2
100
AcDbLine
 10
54.30015619282812
 20
37.267065249268
 30
0.0
 11
54.30015619282812
 21
51.7205787452964
 31
0.0
  0
LINE
  5
18B
330
187
100
AcDbEntity
  8
0
  6
Continuous
 62
     0
370
    -2
100
AcDbLine
 10
54.30015619282812
 20
51.7205787452964
 30
0.0
 11
26.93565619282812
 21
51.7205787452964
 31
0.0
  0
LINE
  5
18C
330
187
100
AcDbEntity
  8
0
  6
Continuous
 62
     0
370
    -2
100
AcDbLine
 10
63.69815619282812
 20
51.7205787452964
 30
0.0
 11
57.60215619282812
 21
51.7205787452964
 31
0.0
  0
SOLID
  5
18D
330
187
100
AcDbEntity
  8
0
 62
     0
100
AcDbTrace
 10
63.69815619282812
 20
51.17024541196307
 30
0.0
 11
63.69815619282812
 21
52.27091207862973
 31
0.0
 12
67.00015619282811
 22
51.7205787452964
 32
0.0
 13
67.00015619282811
 23
51.7205787452964
 33
0.0
  0
SOLID
  5
18E
330
187
100
AcDbEntity
  8
0
 62
     0
100
AcDbTrace
 10
57.60215619282812
 20
52.27091207862973
 30
0.0
 11
57.60215619282812
 21
51.17024541196307
 31
0.0
 12
54.30015619282812
 22
51.7205787452964
 32
0.0
 13
54.30015619282812
 23
51.7205787452964
 33
0.0
  0
MTEXT
  5
18F
330
187
100
AcDbEntity
  8
0
 62
     0
370
    15
100
AcDbMText
 10
38.96690619282812
 20
56.0955787452964
 30
0.0
 40
3.5
 41
0.0
 71
     2
 72
     1
  1
\A1;12.70 [1/2]
  7
SLDTEXTSTYLE0
 73
     1
 44
1.0
  0
POINT
  5
190
330
187
100
AcDbEntity
  8
Defpoints
 62
     0
100
AcDbPoint
 10
67.00015619282811
 20
41.96706524926804
 30
0.0
  0
POINT
  5
191
330
187
100
AcDbEntity
  8
Defpoints
 62
     0
100
AcDbPoint
 10
54.30015619282812
 20
37.204565249268
 30
0.0
  0
POINT
  5
192
330
187
100
AcDbEntity
  8
Defpoints
 62
     0
100
AcDbPoint
 10
54.30015619282812
 20
51.7205787452964
 30
0.0
  0
ENDBLK
  5
193
330
187
100
AcDbEntity
  8
0
100
AcDbBlockEnd
  0
BLOCK
  5
196
330
195
100
AcDbEntity
  8
0
100
AcDbBlockBegin
  2
*D11
 70
     1
 10
0.0
 20
0.0
 30
0.0
  3
*D11
  1
*D11
  0
LINE
  5
197
330
195
100
AcDbEntity
  8
0
  6
Continuous
 62
     0
370
    -2
100
AcDbLine
 10
67.06265619282811
 20
37.204565249268
 30
0.0
 11
79.76932374799877
 21
37.20456524926805
 31
0.0
  0
LINE
  5
198
330
195
100
AcDbEntity
  8
0
  6
Continuous
 62
     0
370
    -2
100
AcDbLine
 10
67.06265619282811
 20
34.029565249268
 30
0.0
 11
79.76932374799878
 21
34.02956524926805
 31
0.0
  0
LINE
  5
199
330
195
100
AcDbEntity
  8
0
  6
Continuous
 62
     0
370
    -2
100
AcDbLine
 10
79.76932374799877
 20
37.20456524926805
 30
0.0
 11
79.76932374799861
 21
71.30031524926807
 31
0.0
  0
LINE
  5
19A
330
195
100
AcDbEntity
  8
0
  6
Continuous
 62
     0
370
    -2
100
AcDbLine
 10
79.76932374799875
 20
40.50656524926805
 30
0.0
 11
79.76932374799874
 21
43.80856524926805
 31
0.0
  0
LINE
  5
19B
330
195
100
AcDbEntity
  8
0
  6
Continuous
 62
     0
370
    -2
100
AcDbLine
 10
79.7693237479988
 20
30.72756524926805
 30
0.0
 11
79.76932374799881
 21
27.42556524926805
 31
0.0
  0
SOLID
  5
19C
330
195
100
AcDbEntity
  8
0
 62
     0
100
AcDbTrace
 10
79.21899041466543
 20
40.50656524926805
 30
0.0
 11
80.31965708133208
 21
40.50656524926805
 31
0.0
 12
79.76932374799877
 22
37.20456524926805
 32
0.0
 13
79.76932374799877
 23
37.20456524926805
 33
0.0
  0
SOLID
  5
19D
330
195
100
AcDbEntity
  8
0
 62
     0
100
AcDbTrace
 10
80.31965708133212
 20
30.72756524926806
 30
0.0
 11
79.21899041466547
 21
30.72756524926805
 31
0.0
 12
79.76932374799878
 22
34.02956524926805
 32
0.0
 13
79.76932374799878
 23
34.02956524926805
 33
0.0
  0
MTEXT
  5
19E
330
195
100
AcDbEntity
  8
0
 62
     0
370
    15
100
AcDbMText
 10
75.39432374799867
 20
59.05031524926805
 30
0.0
 40
3.5
 41
0.0
 71
     2
 72
     1
  1
\A1;%%c3.18 [1/8]
  7
SLDTEXTSTYLE0
 11
-4.475859752819533E-15
 21
1.0
 31
0.0
 73
     1
 44
1.0
  0
POINT
  5
19F
330
195
100
AcDbEntity
  8
Defpoints
 62
     0
100
AcDbPoint
 10
67.00015619282811
 20
37.204565249268
 30
0.0
  0
POINT
  5
1A0
330
195
100
AcDbEntity
  8
Defpoints
 62
     0
100
AcDbPoint
 10
67.00015619282811
 20
34.029565249268
 30
0.0
  0
POINT
  5
1A1
330
195
100
AcDbEntity
  8
Defpoints
 62
     0
100
AcDbPoint
 10
79.76932374799875
 20
34.02956524926805
 30
0.0
  0
ENDBLK
  5
1A2
330
195
100
AcDbEntity
  8
0
100
AcDbBlockEnd
  0
BLOCK
  5
1D3
330
1D2
100
AcDbEntity
  8
0
100
AcDbBlockBegin
  2
*D12
 70
     1
 10
0.0
 20
0.0
 30
0.0
  3
*D12
  1
*D12
  0
LINE
  5
1D4
330
1D2
100
AcDbEntity
  8
0
  6
Continuous
 62
     0
370
    -2
100
AcDbLine
 10
68.49919066780738
 20
31.18969936181681
 30
0.0
 11
86.17177901989922
 21
-0.0000000000001954
 31
0.0
  0
MTEXT
  5
1D5
330
1D2
100
AcDbEntity
  8
0
 62
     0
370
    15
100
AcDbMText
 10
81.66176540804638
 20
13.28432361030839
 30
0.0
 40
3.5
 41
0.0
 71
     5
 72
     1
  1
\A1;R0.25 [R0.01]
  7
SLDTEXTSTYLE0
 11
0.4929793236724611
 21
-0.8700410257174329
 31
0.0
 73
     1
 44
1.0
  0
SOLID
  5
1D6
330
1D2
100
AcDbEntity
  8
0
 62
     0
100
AcDbTrace
 10
68.9780032456272
 20
31.46100231627789
 30
0.0
 11
68.02037808998756
 21
30.91839640735574
 31
0.0
 12
66.87137294104092
 22
34.06257482873578
 32
0.0
 13
66.87137294104092
 23
34.06257482873578
 33
0.0
  0
LINE
  5
1D7
330
1D2
100
AcDbEntity
  8
0
  6
Continuous
 62
     0
370
    15
100
AcDbLine
 10
66.6561561928281
 20
34.28356524926801
 30
0.0
 11
66.83615619282811
 21
34.28356524926801
 31
0.0
  0
LINE
  5
1D8
330
1D2
100
AcDbEntity
  8
0
  6
Continuous
 62
     0
370
    15
100
AcDbLine
 10
66.74615619282811
 20
34.193565249268
 30
0.0
 11
66.74615619282811
 21
34.37356524926801
 31
0.0
  0
POINT
  5
1D9
330
1D2
100
AcDbEntity
  8
Defpoints
 62
     0
100
AcDbPoint
 10
66.87137294104092
 20
34.06257482873578
 30
0.0
  0
POINT
  5
1DA
330
1D2
100
AcDbEntity
  8
Defpoints
 62
     0
100
AcDbPoint
 10
66.74615619282811
 20
34.28356524926801
 30
0.0
  0
ENDBLK
  5
1DB
330
1D2
100
AcDbEntity
  8
0
100
AcDbBlockEnd
  0
BLOCK
  5
219
330
218
100
AcDbEntity
  8
0
100
AcDbBlockBegin
  2
*D13
 70
     1
 10
0.0
 20
0.0
 30
0.0
  3
*D13
  1
*D13
  0
LINE
  5
21B
330
218
100
AcDbEntity
  8
0
  6
Continuous
 62
     0
370
    -2
100
AcDbLine
 10
-42.57506939492369
 20
3.174999999999997
 30
0.0
 11
-49.32022558775176
 21
3.174999999999972
 31
0.0
  0
LINE
  5
21C
330
218
100
AcDbEntity
  8
0
  6
Continuous
 62
     0
370
    -2
100
AcDbLine
 10
-42.51256939492369
 20
-3.175000000000004
 30
0.0
 11
-49.32022558775174
 21
-3.17500000000003
 31
0.0
  0
SOLID
  5
21D
330
218
100
AcDbEntity
  8
0
 62
     0
100
AcDbTrace
 10
-48.76989225441841
 20
-0.1270000000000259
 30
0.0
 11
-49.87055892108508
 21
-0.1270000000000296
 31
0.0
 12
-49.32022558775176
 22
3.174999999999972
 32
0.0
 13
-49.32022558775176
 23
3.174999999999972
 33
0.0
  0
SOLID
  5
21E
330
218
100
AcDbEntity
  8
0
 62
     0
100
AcDbTrace
 10
-49.87055892108508
 20
0.1269999999999682
 30
0.0
 11
-48.76989225441842
 21
0.1269999999999719
 31
0.0
 12
-49.32022558775174
 22
-3.17500000000003
 32
0.0
 13
-49.32022558775174
 23
-3.17500000000003
 33
0.0
  0
MTEXT
  5
21F
330
218
100
AcDbEntity
  8
0
 62
     0
370
    15
100
AcDbMText
 10
-53.69522558775175
 20
1.587499999999842
 30
0.0
 40
3.5
 41
0.0
 71
     2
 72
     1
  1
\A1;%%c6.35 [1/4]
  7
SLDTEXTSTYLE0
 11
-3.356894814614646E-15
 21
1.0
 31
0.0
 73
     1
 44
1.0
  0
POINT
  5
220
330
218
100
AcDbEntity
  8
Defpoints
 62
     0
100
AcDbPoint
 10
-42.51256939492369
 20
3.174999999999998
 30
0.0
  0
POINT
  5
221
330
218
100
AcDbEntity
  8
Defpoints
 62
     0
100
AcDbPoint
 10
-42.45006939492369
 20
-3.175000000000004
 30
0.0
  0
POINT
  5
222
330
218
100
AcDbEntity
  8
Defpoints
 62
     0
100
AcDbPoint
 10
-49.32022558775174
 20
-3.17500000000003
 30
0.0
  0
ENDBLK
  5
21A
330
218
100
AcDbEntity
  8
0
100
AcDbBlockEnd
  0
BLOCK
  5
224
330
223
100
AcDbEntity
  8
0
100
AcDbBlockBegin
  2
*D14
 70
     1
 10
0.0
 20
0.0
 30
0.0
  3
*D14
  1
*D14
  0
LINE
  5
226
330
223
100
AcDbEntity
  8
0
  6
Continuous
 62
     0
370
    -2
100
AcDbLine
 10
13.30493060507631
 20
1.395999999999994
 30
0.0
 11
13.30493060507631
 21
32.96507939495148
 31
0.0
  0
LINE
  5
227
330
223
100
AcDbEntity
  8
0
  6
Continuous
 62
     0
370
    -2
100
AcDbLine
 10
-43.8450693949237
 20
1.967500000000002
 30
0.0
 11
-43.8450693949237
 21
32.96507939495148
 31
0.0
  0
LINE
  5
228
330
223
100
AcDbEntity
  8
0
  6
Continuous
 62
     0
370
    -2
100
AcDbLine
 10
10.00293060507632
 20
32.96507939495148
 30
0.0
 11
-40.5430693949237
 21
32.96507939495148
 31
0.0
  0
SOLID
  5
229
330
223
100
AcDbEntity
  8
0
 62
     0
100
AcDbTrace
 10
10.00293060507632
 20
32.41474606161815
 30
0.0
 11
10.00293060507632
 21
33.51541272828482
 31
0.0
 12
13.30493060507631
 22
32.96507939495148
 32
0.0
 13
13.30493060507631
 23
32.96507939495148
 33
0.0
  0
SOLID
  5
22A
330
223
100
AcDbEntity
  8
0
 62
     0
100
AcDbTrace
 10
-40.5430693949237
 20
33.51541272828482
 30
0.0
 11
-40.5430693949237
 21
32.41474606161815
 31
0.0
 12
-43.8450693949237
 22
32.96507939495148
 32
0.0
 13
-43.8450693949237
 23
32.96507939495148
 33
0.0
  0
MTEXT
  5
22B
330
223
100
AcDbEntity
  8
0
 62
     0
370
    15
100
AcDbMText
 10
-15.27006939492368
 20
37.34007939495148
 30
0.0
 40
3.5
 41
0.0
 71
     2
 72
     1
  1
\A1;57.15 [2 1/4]
  7
SLDTEXTSTYLE0
 73
     1
 44
1.0
  0
POINT
  5
22C
330
223
100
AcDbEntity
  8
Defpoints
 62
     0
100
AcDbPoint
 10
13.30493060507631
 20
1.333499999999994
 30
0.0
  0
POINT
  5
22D
330
223
100
AcDbEntity
  8
Defpoints
 62
     0
100
AcDbPoint
 10
-43.8450693949237
 20
1.905000000000002
 30
0.0
  0
POINT
  5
22E
330
223
100
AcDbEntity
  8
Defpoints
 62
     0
100
AcDbPoint
 10
-43.8450693949237
 20
32.96507939495148
 30
0.0
  0
ENDBLK
  5
225
330
223
100
AcDbEntity
  8
0
100
AcDbBlockEnd
  0
BLOCK
  5
230
330
22F
100
AcDbEntity
  8
0
100
AcDbBlockBegin
  2
*D15
 70
     1
 10
0.0
 20
0.0
 30
0.0
  3
*D15
  1
*D15
  0
LINE
  5
232
330
22F
100
AcDbEntity
  8
0
  6
Continuous
 62
     0
370
    -2
100
AcDbLine
 10
13.30493060507631
 20
1.395999999999994
 30
0.0
 11
13.30493060507631
 21
16.1035134960284
 31
0.0
  0
LINE
  5
233
330
22F
100
AcDbEntity
  8
0
  6
Continuous
 62
     0
370
    -2
100
AcDbLine
 10
8.54243060507632
 20
0.85625
 30
0.0
 11
8.54243060507632
 21
16.1035134960284
 31
0.0
  0
LINE
  5
234
330
22F
100
AcDbEntity
  8
0
  6
Continuous
 62
     0
370
    -2
100
AcDbLine
 10
8.54243060507632
 20
16.1035134960284
 30
0.0
 11
-27.41581939492368
 21
16.1035134960284
 31
0.0
  0
LINE
  5
235
330
22F
100
AcDbEntity
  8
0
  6
Continuous
 62
     0
370
    -2
100
AcDbLine
 10
16.60693060507631
 20
16.1035134960284
 30
0.0
 11
19.90893060507631
 21
16.1035134960284
 31
0.0
  0
LINE
  5
236
330
22F
100
AcDbEntity
  8
0
  6
Continuous
 62
     0
370
    -2
100
AcDbLine
 10
5.24043060507632
 20
16.1035134960284
 30
0.0
 11
1.93843060507632
 21
16.1035134960284
 31
0.0
  0
SOLID
  5
237
330
22F
100
AcDbEntity
  8
0
 62
     0
100
AcDbTrace
 10
16.60693060507631
 20
16.65384682936173
 30
0.0
 11
16.60693060507631
 21
15.55318016269507
 31
0.0
 12
13.30493060507631
 22
16.1035134960284
 32
0.0
 13
13.30493060507631
 23
16.1035134960284
 33
0.0
  0
SOLID
  5
238
330
22F
100
AcDbEntity
  8
0
 62
     0
100
AcDbTrace
 10
5.24043060507632
 20
15.55318016269507
 30
0.0
 11
5.24043060507632
 21
16.65384682936173
 31
0.0
 12
8.54243060507632
 22
16.1035134960284
 32
0.0
 13
8.54243060507632
 23
16.1035134960284
 33
0.0
  0
MTEXT
  5
239
330
22F
100
AcDbEntity
  8
0
 62
     0
370
    15
100
AcDbMText
 10
-14.72831939492368
 20
20.4785134960284
 30
0.0
 40
3.5
 41
0.0
 71
     2
 72
     1
  1
\A1;4.76 [3/16]
  7
SLDTEXTSTYLE0
 73
     1
 44
1.0
  0
POINT
  5
23A
330
22F
100
AcDbEntity
  8
Defpoints
 62
     0
100
AcDbPoint
 10
13.30493060507631
 20
1.333499999999994
 30
0.0
  0
POINT
  5
23B
330
22F
100
AcDbEntity
  8
Defpoints
 62
     0
100
AcDbPoint
 10
8.54243060507632
 20
0.79375
 30
0.0
  0
POINT
  5
256
330
22F
100
AcDbEntity
  8
Defpoints
 62
     0
100
AcDbPoint
 10
8.54243060507632
 20
16.1035134960284
 30
0.0
  0
ENDBLK
  5
231
330
22F
100
AcDbEntity
  8
0
100
AcDbBlockEnd
  0
BLOCK
  5
23D
330
23C
100
AcDbEntity
  8
0
100
AcDbBlockBegin
  2
*D16
 70
     1
 10
0.0
 20
0.0
 30
0.0
  3
*D16
  1
*D16
  0
LINE
  5
23F
330
23C
100
AcDbEntity
  8
0
  6
Continuous
 62
     0
370
    -2
100
AcDbLine
 10
13.36743060507632
 20
0.7937500000000002
 30
0.0
 11
26.07409816024698
 21
0.7937500000000455
 31
0.0
  0
LINE
  5
240
330
23C
100
AcDbEntity
  8
0
  6
Continuous
 62
     0
370
    -2
100
AcDbLine
 10
13.36743060507632
 20
-0.7937499999999997
 30
0.0
 11
26.07409816024698
 21
-0.7937499999999531
 31
0.0
  0
LINE
  5
241
330
23C
100
AcDbEntity
  8
0
  6
Continuous
 62
     0
370
    -2
100
AcDbLine
 10
26.07409816024698
 20
0.7937500000000455
 30
0.0
 11
26.07409816024681
 21
36.55825000000007
 31
0.0
  0
LINE
  5
242
330
23C
100
AcDbEntity
  8
0
  6
Continuous
 62
     0
370
    -2
100
AcDbLine
 10
26.07409816024696
 20
4.095750000000045
 30
0.0
 11
26.07409816024695
 21
7.397750000000045
 31
0.0
  0
LINE
  5
243
330
23C
100
AcDbEntity
  8
0
  6
Continuous
 62
     0
370
    -2
100
AcDbLine
 10
26.074098160247
 20
-4.095749999999953
 30
0.0
 11
26.07409816024701
 21
-7.397749999999952
 31
0.0
  0
SOLID
  5
244
330
23C
100
AcDbEntity
  8
0
 62
     0
100
AcDbTrace
 10
25.52376482691363
 20
4.095750000000042
 30
0.0
 11
26.6244314935803
 21
4.095750000000048
 31
0.0
 12
26.07409816024698
 22
0.7937500000000455
 32
0.0
 13
26.07409816024698
 23
0.7937500000000455
 33
0.0
  0
SOLID
  5
245
330
23C
100
AcDbEntity
  8
0
 62
     0
100
AcDbTrace
 10
26.62443149358033
 20
-4.09574999999995
 30
0.0
 11
25.52376482691366
 21
-4.095749999999955
 31
0.0
 12
26.07409816024698
 22
-0.7937499999999531
 32
0.0
 13
26.07409816024698
 23
-0.7937499999999531
 33
0.0
  0
MTEXT
  5
246
330
23C
100
AcDbEntity
  8
0
 62
     0
370
    15
100
AcDbMText
 10
21.69909816024687
 20
23.43325000000005
 30
0.0
 40
3.5
 41
0.0
 71
     2
 72
     1
  1
\A1;%%c1.59 [1/16]
  7
SLDTEXTSTYLE0
 11
-4.475859752819529E-15
 21
1.0
 31
0.0
 73
     1
 44
1.0
  0
POINT
  5
247
330
23C
100
AcDbEntity
  8
Defpoints
 62
     0
100
AcDbPoint
 10
13.30493060507632
 20
0.79375
 30
0.0
  0
POINT
  5
248
330
23C
100
AcDbEntity
  8
Defpoints
 62
     0
100
AcDbPoint
 10
13.30493060507632
 20
-0.79375
 30
0.0
  0
POINT
  5
249
330
23C
100
AcDbEntity
  8
Defpoints
 62
     0
100
AcDbPoint
 10
26.07409816024698
 20
-0.7937499999999522
 30
0.0
  0
ENDBLK
  5
23E
330
23C
100
AcDbEntity
  8
0
100
AcDbBlockEnd
  0
BLOCK
  5
24B
330
24A
100
AcDbEntity
  8
0
100
AcDbBlockBegin
  2
*D17
 70
     1
 10
0.0
 20
0.0
 30
0.0
  3
*D17
  1
*D17
  0
LINE
  5
24D
330
24A
100
AcDbEntity
  8
0
  6
Continuous
 62
     0
370
    -2
100
AcDbLine
 10
20.56065487836347
 20
-4.427365887451188
 30
0.0
 11
38.23324323045532
 21
-35.6170652492682
 31
0.0
  0
MTEXT
  5
24E
330
24A
100
AcDbEntity
  8
0
 62
     0
370
    15
100
AcDbMText
 10
33.72322961860247
 20
-22.33274163895961
 30
0.0
 40
3.5
 41
0.0
 71
     5
 72
     1
  1
\A1;R0.25 [R0.01]
  7
SLDTEXTSTYLE0
 11
0.4929793236724611
 21
-0.8700410257174329
 31
0.0
 73
     1
 44
1.0
  0
SOLID
  5
24F
330
24A
100
AcDbEntity
  8
0
 62
     0
100
AcDbTrace
 10
21.0394674561833
 20
-4.15606293299011
 30
0.0
 11
20.08184230054365
 21
-4.698668841912266
 31
0.0
 12
18.93283715159701
 22
-1.554490420532225
 32
0.0
 13
18.93283715159701
 23
-1.554490420532225
 33
0.0
  0
LINE
  5
250
330
24A
100
AcDbEntity
  8
0
  6
Continuous
 62
     0
370
    15
100
AcDbLine
 10
18.7176204033842
 20
-1.333499999999994
 30
0.0
 11
18.8976204033842
 21
-1.333499999999994
 31
0.0
  0
LINE
  5
251
330
24A
100
AcDbEntity
  8
0
  6
Continuous
 62
     0
370
    15
100
AcDbLine
 10
18.8076204033842
 20
-1.423499999999994
 30
0.0
 11
18.8076204033842
 21
-1.243499999999994
 31
0.0
  0
POINT
  5
252
330
24A
100
AcDbEntity
  8
Defpoints
 62
     0
100
AcDbPoint
 10
18.93283715159701
 20
-1.554490420532225
 30
0.0
  0
POINT
  5
253
330
24A
100
AcDbEntity
  8
Defpoints
 62
     0
100
AcDbPoint
 10
18.8076204033842
 20
-1.333499999999994
 30
0.0
  0
ENDBLK
  5
24C
330
24A
100
AcDbEntity
  8
0
100
AcDbBlockEnd
  0
BLOCK
  5
26D
330
26C
100
AcDbEntity
  8
0
100
AcDbBlockBegin
  2
*D18
 70
     1
 10
0.0
 20
0.0
 30
0.0
  3
*D18
  1
*D18
  0
LINE
  5
26F
330
26C
100
AcDbEntity
  8
0
  6
Continuous
 62
     0
370
    -2
100
AcDbLine
 10
14.12476481872811
 20
-3.943135276722704
 30
0.0
 11
24.85674453789866
 21
-39.11290449504161
 31
0.0
  0
MTEXT
  5
270
330
26C
100
AcDbEntity
  8
0
 62
     0
370
    15
100
AcDbMText
 10
22.96216325554398
 20
-23.9101917164928
 30
0.0
 40
3.5
 41
0.0
 71
     5
 72
     1
  1
\A1;R0.20 [R0.008]
  7
SLDTEXTSTYLE0
 11
0.2918618662706241
 21
-0.9564604806352579
 31
0.0
 73
     1
 44
1.0
  0
SOLID
  5
271
330
26C
100
AcDbEntity
  8
0
 62
     0
100
AcDbTrace
 10
14.65113690323771
 20
-3.782513962985104
 30
0.0
 11
13.59839273421851
 21
-4.103756590460304
 31
0.0
 12
13.16103693630251
 22
-0.784902769665083
 32
0.0
 13
13.16103693630251
 23
-0.784902769665083
 33
0.0
  0
LINE
  5
272
330
26C
100
AcDbEntity
  8
0
  6
Continuous
 62
     0
370
    15
100
AcDbLine
 10
13.01173060507632
 20
-0.5905499999999987
 30
0.0
 11
13.19173060507632
 21
-0.5905499999999987
 31
0.0
  0
LINE
  5
273
330
26C
100
AcDbEntity
  8
0
  6
Continuous
 62
     0
370
    15
100
AcDbLine
 10
13.10173060507632
 20
-0.6805499999999987
 30
0.0
 11
13.10173060507632
 21
-0.5005499999999987
 31
0.0
  0
POINT
  5
274
330
26C
100
AcDbEntity
  8
Defpoints
 62
     0
100
AcDbPoint
 10
13.16103693630251
 20
-0.784902769665083
 30
0.0
  0
POINT
  5
275
330
26C
100
AcDbEntity
  8
Defpoints
 62
     0
100
AcDbPoint
 10
13.10173060507632
 20
-0.5905499999999987
 30
0.0
  0
ENDBLK
  5
26E
330
26C
100
AcDbEntity
  8
0
100
AcDbBlockEnd
  0
ENDSEC
  0
SECTION
  2
ENTITIES
  0
LINE
  5
B1
330
1F
100
AcDbEntity
  8
참조1
100
AcDbLine
 10
-21.15668979830787
 20
0.0010749287238896
 30
0.0
 11
-21.15668979830786
 21
-39.99892507127611
 31
0.0
  0
LINE
  5
B2
330
1F
100
AcDbEntity
  8
참조1
100
AcDbLine
 10
-21.15668979830786
 20
-39.99892507127611
 30
0.0
 11
-36.31554661261653
 21
-39.9989250712761
 31
0.0
  0
INSERT
  5
B4
330
1F
100
AcDbEntity
  8
0
  6
Continuous
 62
     7
100
AcDbBlockReference
 66
     1
  2
블럭10
 10
-35.09696273043308
 20
-52.04609937292004
 30
0.0
  0
ATTRIB
  5
B5
330
B4
100
AcDbEntity
  8
FORMAT
 62
     2
100
AcDbText
 10
-45.23859874256971
 20
-49.97073246008785
 30
0.0
 40
4.233333333333333
  1
EM649004 [ 4 FLUTE ]
 41
0.75
  7
SLDTEXTSTYLE0
 11
-45.23859874256971
 21
-52.08739912675452
 31
0.0
100
AcDbAttribute
  2
AUTOATTR0
 70
     0
 74
     1
  0
SEQEND
  5
B6
330
B4
100
AcDbEntity
  8
0
  6
Continuous
 62
     7
  0
HATCH
  5
B7
330
1F
100
AcDbEntity
  8
중심선
100
AcDbHatch
 10
0.0
 20
0.0
 30
0.0
210
0.0
220
0.0
230
1.0
  2
SOLID
 70
     1
 71
     0
 91
        1
 92
        0
 93
        4
 72
     1
 10
-29.38205342605222
 20
-35.7989250712761
 11
-32.82832866988951
 21
-35.7989250712761
 72
     1
 10
-32.82832866988951
 20
-35.7989250712761
 11
-34.95655852909353
 21
-38.3352506518487
 72
     1
 10
-34.95655852909353
 20
-38.3352506518487
 11
-31.51025020014309
 21
-38.33521122254621
 72
     1
 10
-31.5102502001431
 20
-38.33521122254621
 11
-29.38205342605222
 21
-35.7989250712761
 97
        0
 75
     0
 76
     1
 98
        1
 10
-5.756689798307885
 20
0.0000000000000004
  0
HATCH
  5
B8
330
1F
100
AcDbEntity
  8
중심선
100
AcDbHatch
 10
0.0
 20
0.0
 30
0.0
210
0.0
220
0.0
230
1.0
  2
SOLID
 70
     1
 71
     0
 91
        1
 92
        0
 93
        4
 72
     1
 10
-24.36928943501625
 20
-35.7989250712761
 11
-27.81556467885353
 21
-35.7989250712761
 72
     1
 10
-27.81556467885353
 20
-35.7989250712761
 11
-32.34670268721094
 21
-41.19892507127612
 72
     1
 10
-32.34670268721094
 20
-41.19892507127612
 11
-28.90042744337366
 21
-41.19892507127612
 72
     1
 10
-28.90042744337366
 20
-41.19892507127612
 11
-24.36928943501625
 21
-35.7989250712761
 97
        0
 75
     0
 76
     1
 98
        1
 10
-5.756689798307885
 20
0.0000000000000004
  0
HATCH
  5
B9
330
1F
100
AcDbEntity
  8
중심선
100
AcDbHatch
 10
0.0
 20
0.0
 30
0.0
210
0.0
220
0.0
230
1.0
  2
SOLID
 70
     1
 71
     0
 91
        1
 92
        0
 93
        4
 72
     1
 10
-19.35652544398038
 20
-35.7989250712761
 11
-22.80280068781749
 21
-35.7989250712761
 72
     1
 10
-22.80280068781749
 20
-35.7989250712761
 11
-29.85123758970674
 21
-44.19892507127612
 72
     1
 10
-29.85123758970674
 20
-44.19892507127612
 11
-26.40496234586946
 21
-44.19892507127612
 72
     1
 10
-26.40496234586946
 20
-44.19892507127612
 11
-19.35652544398038
 21
-35.7989250712761
 97
        0
 75
     0
 76
     1
 98
        1
 10
-5.756689798307885
 20
0.0000000000000004
  0
HATCH
  5
BA
330
1F
100
AcDbEntity
  8
중심선
100
AcDbHatch
 10
0.0
 20
0.0
 30
0.0
210
0.0
220
0.0
230
1.0
  2
SOLID
 70
     1
 71
     0
 91
        1
 92
        0
 93
        6
 72
     3
 10
-14.55663501296818
 20
-39.99892507132738
 11
3.960054785062283
 21
1.540882976769353E-10
 40
0.3939339440162628
 50
17.09539180608437
 51
320.0019657685075
 73
     0
 72
     1
 10
-12.87363535726758
 20
-38.58681907591438
 11
-10.56833348356654
 21
-36.65249236586649
 72
     3
 10
-14.55663501302102
 20
-39.99892507127625
 11
6.600054785286829
 21
-1.278976924368180E-13
 40
0.636358354079598
 50
39.9987384933741
 51
368.4976242363725
 73
     1
 72
     1
 10
-8.131302521120416
 20
-39.03892507120613
 11
-15.8765677061851
 21
-39.0389250712061
 72
     1
 10
-15.8765677061851
 20
-39.0389250712061
 11
-15.87659275063104
 21
-40.95892507120602
 72
     1
 10
-15.87659275063104
 20
-40.95892507120602
 11
-11.435212981159
 21
-40.95892507120599
 97
        0
 75
     0
 76
     1
 98
        1
 10
-5.756689798307885
 20
0.0000000000000004
  0
LINE
  5
107
330
1F
100
AcDbEntity
  8
참조1
100
AcDbLine
 10
61.65679401703773
 20
7.441074928723896
 30
0.0
 11
61.65679401703773
 21
-7.438925071276108
 31
0.0
  0
LINE
  5
108
330
1F
100
AcDbEntity
  8
참조1
100
AcDbLine
 10
74.35679401703773
 20
5.441074928723896
 30
0.0
 11
61.65679401703773
 21
5.441074928723896
 31
0.0
  0
SOLID
  5
109
330
1F
100
AcDbEntity
  8
참조1
100
AcDbTrace
 10
61.65679401703773
 20
5.441074928723896
 30
0.0
 11
68.00679401703772
 21
4.425074928723896
 31
0.0
 12
68.00679401703772
 22
6.457074928723896
 32
0.0
 13
68.00679401703772
 23
6.457074928723896
 33
0.0
  0
LINE
  5
10A
330
1F
100
AcDbEntity
  8
참조1
100
AcDbLine
 10
74.35679401703773
 20
-5.438925071276108
 30
0.0
 11
61.65679401703773
 21
-5.438925071276108
 31
0.0
  0
SOLID
  5
10B
330
1F
100
AcDbEntity
  8
참조1
100
AcDbTrace
 10
61.65679401703773
 20
-5.438925071276108
 30
0.0
 11
68.00679401703772
 21
-6.454925071276108
 31
0.0
 12
68.00679401703772
 22
-4.422925071276108
 32
0.0
 13
68.00679401703772
 23
-4.422925071276108
 33
0.0
  0
MTEXT
  5
10C
330
1F
100
AcDbEntity
  8
참조1
100
AcDbMText
 10
71.054284109508
 20
10.98929157337383
 30
0.0
 40
3.5
 41
0.0
 71
     1
 72
     1
  1
A
  7
SLDTEXTSTYLE0
 73
     1
 44
1.0
  0
MTEXT
  5
10D
330
1F
100
AcDbEntity
  8
참조1
100
AcDbMText
 10
71.054284109508
 20
0.1092915733738255
 30
0.0
 40
3.5
 41
0.0
 71
     1
 72
     1
  1
A
  7
SLDTEXTSTYLE0
 73
     1
 44
1.0
  0
LINE
  5
1E1
330
1F
100
AcDbEntity
  8
0
  6
Continuous
 62
     1
370
    15
100
AcDbLine
 10
11.74722583634668
 20
0.7937499999999993
 30
0.0
 11
11.26333832483884
 21
0.7937499999999993
 31
0.0
  0
LINE
  5
1E2
330
1F
100
AcDbEntity
  8
0
  6
Continuous
 62
     1
370
    15
100
AcDbLine
 10
11.26333832483883
 20
-0.7937500000000024
 30
0.0
 11
11.74722583634668
 21
-0.7937500000000024
 31
0.0
  0
LINE
  5
1E3
330
1F
100
AcDbEntity
  8
외형선
  6
Continuous
370
    15
100
AcDbLine
 10
-42.57506939492369
 20
3.174999999999998
 30
0.0
 11
-43.8450693949237
 21
1.905000000000002
 31
0.0
  0
LINE
  5
1E4
330
1F
100
AcDbEntity
  8
외형선
  6
Continuous
370
    15
100
AcDbLine
 10
-43.8450693949237
 20
-1.905000000000008
 30
0.0
 11
-42.57506939492369
 21
-3.175000000000004
 31
0.0
  0
SPLINE
  5
1E5
330
1F
100
AcDbEntity
  8
0
  6
Continuous
 62
     1
370
    15
100
AcDbSpline
210
0.0
220
0.0
230
1.0
 70
     8
 71
     3
 72
    18
 73
    14
 74
     0
 42
0.000000001
 43
0.00000001
 40
0.0
 40
0.0
 40
0.0
 40
0.0
 40
0.0883853443123383
 40
0.1768063120159699
 40
0.2652014765171716
 40
0.3535642365385396
 40
0.4419085192525871
 40
0.530248322244409
 40
0.6185976601899811
 40
0.7157958095163086
 40
0.812997707249123
 40
0.9102040135793357
 40
0.9999999999999999
 40
0.9999999999999999
 40
0.9999999999999999
 40
0.9999999999999999
 10
13.24143060507631
 20
0.1045089119180213
 30
0.0
 10
13.15844582946994
 20
0.1516703025065206
 30
0.0
 10
12.99244283154544
 20
0.2460120919103305
 30
0.0
 10
12.74340918524526
 20
0.3785015985298764
 30
0.0
 10
12.4944231664416
 20
0.4988929109854077
 30
0.0
 10
12.24552714254979
 20
0.6028994193905568
 30
0.0
 10
11.99669413490799
 20
0.6872053267337037
 30
0.0
 10
11.7478740517059
 20
0.7490531403553682
 30
0.0
 10
11.49074465078424
 20
0.7876281067431528
 30
0.0
 10
11.22524625089436
 20
0.7988073922277437
 30
0.0
 10
10.95144283889274
 20
0.7781564572330808
 30
0.0
 10
10.68458393960137
 20
0.730224018619861
 30
0.0
 10
10.50899280242389
 20
0.6757760895819054
 30
0.0
 10
10.42467629946751
 20
0.6496309262012723
 30
0.0
  0
SPLINE
  5
1E6
330
1F
100
AcDbEntity
  8
0
  6
Continuous
 62
     1
370
    15
100
AcDbSpline
210
0.0
220
0.0
230
1.0
 70
     8
 71
     3
 72
    14
 73
    10
 74
     0
 42
0.000000001
 43
0.00000001
 40
0.0
 40
0.0
 40
0.0
 40
0.0
 40
0.25
 40
0.25
 40
0.5
 40
0.5
 40
0.75
 40
0.75
 40
1.0
 40
1.0
 40
1.0
 40
1.0
 10
13.30493060507632
 20
0.0778011571177865
 30
0.0
 10
13.30493060507632
 20
0.0770894449763626
 30
0.0
 10
13.30315333549474
 20
0.0770623069903033
 30
0.0
 10
13.29629052840763
 20
0.0786822362726875
 30
0.0
 10
13.29116154928878
 20
0.0803611154472003
 30
0.0
 10
13.27885290267831
 20
0.0852902251725
 30
0.0
 10
13.27167872515402
 20
0.0885368677876423
 30
0.0
 10
13.25666091110915
 20
0.0960327282561197
 30
0.0
 10
13.24900583023853
 20
0.1001739432160671
 30
0.0
 10
13.24143060507633
 20
0.1045089119180213
 30
0.0
  0
SPLINE
  5
1E7
330
1F
100
AcDbEntity
  8
0
  6
Continuous
 62
     1
370
    15
100
AcDbSpline
210
0.0
220
0.0
230
1.0
 70
     8
 71
     3
 72
    10
 73
     6
 74
     0
 42
0.000000001
 43
0.00000001
 40
0.0
 40
0.0
 40
0.0
 40
0.0
 40
0.5
 40
0.5
 40
1.0
 40
1.0
 40
1.0
 40
1.0
 10
13.24143060507631
 20
0.3694024059501261
 30
0.0
 10
13.25795802126293
 20
0.3609576282767401
 30
0.0
 10
13.27309989577169
 20
0.3485129185443975
 30
0.0
 10
13.29670645075011
 20
0.3212823192893347
 30
0.0
 10
13.30493060507632
 20
0.3065738234506697
 30
0.0
 10
13.30493060507632
 20
0.2956690650437822
 30
0.0
  0
LINE
  5
1E8
330
1F
100
AcDbEntity
  8
0
  6
Continuous
 62
     1
370
    15
100
AcDbLine
 10
13.30493060507632
 20
0.0778011571177865
 30
0.0
 11
13.30493060507632
 21
0.2956690650437822
 31
0.0
  0
SPLINE
  5
1E9
330
1F
100
AcDbEntity
  8
0
  6
Continuous
 62
     1
370
    15
100
AcDbSpline
210
0.0
220
0.0
230
1.0
 70
     8
 71
     3
 72
    13
 73
     9
 74
     0
 42
0.000000001
 43
0.00000001
 40
0.0
 40
0.0
 40
0.0
 40
0.0
 40
0.0836628069076694
 40
0.2669494016612667
 40
0.4502270733010812
 40
0.633493905829908
 40
0.8167511346506166
 40
1.0
 40
1.0
 40
1.0
 40
1.0
 10
11.74722583634668
 20
0.7904990096914233
 30
0.0
 10
11.78889447265334
 20
0.7911044449648976
 30
0.0
 10
11.92184981973343
 20
0.7930362542116995
 30
0.0
 10
12.14610393977216
 20
0.7646599651998542
 30
0.0
 10
12.41995938387518
 20
0.705589385154834
 30
0.0
 10
12.69379879420466
 20
0.6168045794863382
 30
0.0
 10
12.96762064534845
 20
0.505095543287311
 30
0.0
 10
13.15016200699883
 20
0.4146327636252459
 30
0.0
 10
13.24143060507633
 20
0.3694024059501261
 30
0.0
  0
CIRCLE
  5
1EA
330
1F
100
AcDbEntity
  8
해칭선
100
AcDbCircle
 10
0.0
 20
0.0
 30
0.0
 40
3.000000000000001
  0
DIMENSION
  5
1EB
330
1F
100
AcDbEntity
  8
0
  6
Continuous
370
    15
100
AcDbDimension
  2
*D13
 10
-49.32022558775174
 20
-3.17500000000003
 30
0.0
 11
-49.32022558775175
 21
1.587499999999857
 31
0.0
 70
   160
  1
%%c<>
 71
     2
 42
6.350000000000001
 52
-270.0
  3
SLDDIMSTYLE1
100
AcDbAlignedDimension
 13
-42.51256939492369
 23
3.174999999999998
 33
0.0
 14
-42.45006939492369
 24
-3.175000000000004
 34
0.0
 50
90.0000000000002
100
AcDbRotatedDimension
1001
ACAD
1000
DSTYLE
1002
{
1070
   171
1070
     6
1070
   273
1070
     7
1002
}
1001
ACAD_DSTYLE_DIMFLIPARROW_SYMBOL
1070
   385
1070
     0
1001
ACAD_DSTYLE_DIMFLIPARROW_WHICH_SYMBOL
1070
   386
1070
     3
  0
DIMENSION
  5
1EC
330
1F
100
AcDbEntity
  8
0
  6
Continuous
370
    15
100
AcDbDimension
  2
*D14
 10
-43.8450693949237
 20
32.96507939495148
 30
0.0
 11
-15.27006939492368
 21
32.96507939495148
 31
0.0
 70
   160
  1
<>
 71
     2
 42
57.15000000000001
  3
SLDDIMSTYLE1
100
AcDbAlignedDimension
 13
13.30493060507631
 23
1.333499999999994
 33
0.0
 14
-43.8450693949237
 24
1.905000000000002
 34
0.0
 50
0.000000000000004
100
AcDbRotatedDimension
1001
ACAD
1000
DSTYLE
1002
{
1070
   171
1070
     6
1070
   273
1070
     7
1002
}
  0
DIMENSION
  5
1ED
330
1F
100
AcDbEntity
  8
0
  6
Continuous
370
    15
100
AcDbDimension
  2
*D15
 10
8.54243060507632
 20
16.1035134960284
 30
0.0
 11
-14.72831939492368
 21
16.1035134960284
 31
0.0
 70
   160
  1
<>
 71
     2
 42
4.762499999999996
  3
SLDDIMSTYLE1
100
AcDbAlignedDimension
 13
13.30493060507631
 23
1.333499999999994
 33
0.0
 14
8.54243060507632
 24
0.79375
 34
0.0
100
AcDbRotatedDimension
1001
ACAD
1000
DSTYLE
1002
{
1070
   171
1070
     6
1070
   273
1070
     7
1002
}
  0
DIMENSION
  5
1EE
330
1F
100
AcDbEntity
  8
0
  6
Continuous
370
    15
100
AcDbDimension
  2
*D16
 10
26.07409816024698
 20
-0.7937499999999531
 30
0.0
 11
26.07409816024687
 21
23.43325000000007
 31
0.0
 70
   160
  1
%%c<>
 71
     2
 42
1.5875
 52
-270.0
  3
SLDDIMSTYLE1
100
AcDbAlignedDimension
 13
13.30493060507632
 23
0.79375
 33
0.0
 14
13.30493060507632
 24
-0.79375
 34
0.0
 50
90.0000000000002
100
AcDbRotatedDimension
1001
ACAD
1000
DSTYLE
1002
{
1070
   171
1070
     6
1070
   273
1070
     7
1002
}
  0
INSERT
  5
1EF
330
1F
100
AcDbEntity
  8
해칭선
100
AcDbBlockReference
  2
SW_DOWELSYMBOL_0
 10
0.0
 20
0.0
 30
0.0
  0
SPLINE
  5
1F0
330
1F
100
AcDbEntity
  8
0
  6
Continuous
 62
     1
370
    15
100
AcDbSpline
210
0.0
220
0.0
230
1.0
 70
  1064
 71
     3
 72
     9
 73
     5
 74
     3
 42
0.000000001
 43
0.0000000001
 44
0.0
 40
0.0
 40
0.0
 40
0.0
 40
0.0
 40
0.5424324031062911
 40
1.06026264849837
 40
1.06026264849837
 40
1.06026264849837
 40
1.06026264849837
 10
10.12993060507631
 20
0.7328237009517835
 30
0.0
 10
9.949729464829096
 20
0.7481250551199339
 30
0.0
 10
9.597500252254747
 20
0.7780337666995324
 30
0.0
 10
9.244165357249958
 20
0.7885929265614663
 30
0.0
 10
9.07159727174299
 20
0.7937499999999993
 30
0.0
 11
10.12993060507631
 21
0.7328237009517835
 31
0.0
 11
9.589037786861875
 21
0.7736632791047562
 31
0.0
 11
9.07159727174299
 21
0.7937499999999993
 31
0.0
  0
SPLINE
  5
1F1
330
1F
100
AcDbEntity
  8
0
  6
Continuous
 62
     1
370
    15
100
AcDbSpline
210
0.0
220
0.0
230
1.0
 70
  1064
 71
     3
 72
     9
 73
     5
 74
     3
 42
0.000000001
 43
0.0000000001
 44
0.0
 40
0.0
 40
0.0
 40
0.0
 40
0.0
 40
0.4780365895175284
 40
1.064851589740209
 40
1.064851589740209
 40
1.064851589740209
 40
1.064851589740209
 10
10.08306853116429
 20
0.4808016045822079
 30
0.0
 10
9.939821622724354
 20
0.5528584715755611
 30
0.0
 10
9.62073161680747
 20
0.7133689242315235
 30
0.0
 10
9.2666973438638
 20
0.7651916812196713
 30
0.0
 10
9.07159727174299
 20
0.7937499999999993
 30
0.0
 11
10.08306853116429
 21
0.4808016045822079
 31
0.0
 11
9.646285416255408
 21
0.6750681520062187
 31
0.0
 11
9.07159727174299
 21
0.7937499999999993
 31
0.0
  0
SPLINE
  5
1F2
330
1F
100
AcDbEntity
  8
0
  6
Continuous
 62
     1
370
    15
100
AcDbSpline
210
0.0
220
0.0
230
1.0
 70
    24
 71
     3
 72
     8
 73
     4
 74
     0
 42
0.000000001
 43
0.0000000001
 40
0.0
 40
0.0
 40
0.0
 40
0.0
 40
0.078300454037379
 40
0.078300454037379
 40
0.078300454037379
 40
0.078300454037379
 10
10.12993060507631
 20
-0.7328237009517866
 30
0.0
 10
10.11690210038198
 20
-0.733573727950048
 30
0.0
 10
10.10387359568765
 20
-0.7343237549483059
 30
0.0
 10
10.09084509099332
 20
-0.7350737819465674
 30
0.0
  0
SPLINE
  5
1F3
330
1F
100
AcDbEntity
  8
0
  6
Continuous
 62
     1
370
    15
100
AcDbSpline
210
0.0
220
0.0
230
1.0
 70
     8
 71
     3
 72
     8
 73
     4
 74
     0
 42
0.000000001
 43
0.0000000001
 40
0.0
 40
0.0
 40
0.0
 40
0.0
 40
7.122837189520761
 40
7.122837189520761
 40
7.122837189520761
 40
7.122837189520761
 10
10.12993060507631
 20
-0.3049729263776261
 30
0.0
 10
9.777152827298535
 20
-0.1257056451676736
 30
0.0
 10
9.424375049520764
 20
0.0535616360422823
 30
0.0
 10
9.081573174422163
 20
0.2682773577097458
 30
0.0
  0
SPLINE
  5
1F4
330
1F
100
AcDbEntity
  8
0
  6
Continuous
 62
     1
370
    15
100
AcDbSpline
210
0.0
220
0.0
230
1.0
 70
     8
 71
     3
 72
    10
 73
     6
 74
     0
 42
0.000000001
 43
0.00000001
 40
0.2256550813943988
 40
0.2256550813943988
 40
0.2256550813943988
 40
0.2256550813943988
 40
0.3787612894518905
 40
0.7576752372627505
 40
0.9495153929784363
 40
0.9495153929784363
 40
0.9495153929784363
 40
0.9495153929784363
 10
13.10173060507632
 20
0.7937499999999988
 30
0.0
 10
12.84734062839597
 20
0.7841509069494483
 30
0.0
 10
12.75461524694638
 20
0.7692879212044988
 30
0.0
 10
12.65769042428446
 20
0.7388399353937416
 30
0.0
 10
12.54346114964249
 20
0.6917765601348513
 30
0.0
 10
12.50260123559538
 20
0.6770040788849307
 30
0.0
  0
SPLINE
  5
1F5
330
1F
100
AcDbEntity
  8
0
  6
Continuous
 62
     1
370
    15
100
AcDbSpline
210
0.0
220
0.0
230
1.0
 70
     8
 71
     3
 72
    17
 73
    13
 74
     0
 42
0.000000001
 43
0.00000001
 40
0.0
 40
0.0
 40
0.0
 40
0.0
 40
0.1014621810699251
 40
0.2028844324849521
 40
0.3042827189041055
 40
0.4056730962801239
 40
0.5070716507370849
 40
0.6084944372055853
 40
0.7099574183085766
 40
0.821542555900308
 40
0.9331222610877735
 40
0.9419087837516374
 40
0.9419087837516374
 40
0.9419087837516374
 40
0.9419087837516374
 10
10.12993060507631
 20
-0.3049729263776261
 30
0.0
 10
10.21293782760984
 20
-0.348238099021081
 30
0.0
 10
10.3789196058279
 20
-0.4347514176346575
 30
0.0
 10
10.62782942161613
 20
-0.5476594207373782
 30
0.0
 10
10.87667070602017
 20
-0.6433683455107757
 30
0.0
 10
11.12548810737264
 20
-0.7178498455043463
 30
0.0
 10
11.3743300309532
 20
-0.7689406372268297
 30
0.0
 10
11.62324201925621
 20
-0.7948125332041935
 30
0.0
 10
11.88051189007263
 20
-0.7949775120927494
 30
0.0
 10
12.14610321507119
 20
-0.7649216107349548
 30
0.0
 10
12.33586782781208
 20
-0.7254391563594562
 30
0.0
 10
12.4343413378352
 20
-0.6964475309854978
 30
0.0
 10
12.44152972694967
 20
-0.694291835829755
 30
0.0
  0
LINE
  5
1F6
330
1F
100
AcDbEntity
  8
외형선
  6
Continuous
370
    15
100
AcDbLine
 10
-43.8450693949237
 20
-1.905000000000008
 30
0.0
 11
-43.8450693949237
 21
-0.0000000000000138
 31
0.0
  0
LINE
  5
1F7
330
1F
100
AcDbEntity
  8
외형선
  6
Continuous
370
    15
100
AcDbLine
 10
-42.57506939492369
 20
-0.0000000000000138
 30
0.0
 11
-42.57506939492369
 21
3.174999999999998
 31
0.0
  0
LINE
  5
1F8
330
1F
100
AcDbEntity
  8
외형선
  6
Continuous
370
    15
100
AcDbLine
 10
-42.57506939492369
 20
-3.175000000000004
 30
0.0
 11
-42.57506939492369
 21
-0.0000000000000138
 31
0.0
  0
LINE
  5
1F9
330
1F
100
AcDbEntity
  8
0
  6
Continuous
 62
     1
370
    15
100
AcDbLine
 10
13.30493060507632
 20
0.2956690650437822
 30
0.0
 11
13.30493060507632
 21
0.5905499999999989
 31
0.0
  0
LINE
  5
1FA
330
1F
100
AcDbEntity
  8
0
  6
Continuous
 62
     1
370
    15
100
AcDbLine
 10
13.30493060507632
 20
-0.6667499999999964
 30
0.0
 11
13.30493060507632
 21
-0.6655688979187029
 31
0.0
  0
SPLINE
  5
1FB
330
1F
100
AcDbEntity
  8
0
  6
Continuous
 62
     1
370
    15
100
AcDbSpline
210
0.0
220
0.0
230
1.0
 70
     8
 71
     3
 72
    36
 73
    32
 74
     0
 42
0.000000001
 43
0.00000001
 40
0.0232082487519614
 40
0.0232082487519614
 40
0.0232082487519614
 40
0.0232082487519614
 40
0.0625
 40
0.0625
 40
0.125
 40
0.125
 40
0.1875
 40
0.1875
 40
0.25
 40
0.25
 40
0.3125
 40
0.3125
 40
0.375
 40
0.375
 40
0.4375
 40
0.4375
 40
0.5
 40
0.5
 40
0.5625
 40
0.5625
 40
0.625
 40
0.625
 40
0.6875
 40
0.6875
 40
0.75
 40
0.75
 40
0.8125
 40
0.8125
 40
0.875
 40
0.875
 40
0.9232464229860721
 40
0.9232464229860721
 40
0.9232464229860721
 40
0.9232464229860721
 10
13.10173060507632
 20
-0.7937499999999986
 30
0.0
 10
12.82120206792432
 20
-0.7791893031585507
 30
0.0
 10
12.76926537405439
 20
-0.7696087674702893
 30
0.0
 10
12.6962879402147
 20
-0.7541325259455038
 30
0.0
 10
12.63153739666683
 20
-0.7414784908013412
 30
0.0
 10
12.50156226650292
 20
-0.7112751936362254
 30
0.0
 10
12.43715421749374
 20
-0.693796800676036
 30
0.0
 10
12.30743069511409
 20
-0.6542594552475296
 30
0.0
 10
12.24220412871727
 20
-0.632194436183187
 30
0.0
 10
12.11296916283072
 20
-0.5841468761326634
 30
0.0
 10
12.04812405275556
 20
-0.5580671734179279
 30
0.0
 10
11.91816785341068
 20
-0.5023201893686671
 30
0.0
 10
11.85378953213376
 20
-0.4727655372075109
 30
0.0
 10
11.72401256103244
 20
-0.4105522647303804
 30
0.0
 10
11.65879704948368
 20
-0.3779129951277046
 30
0.0
 10
11.52965866360335
 20
-0.3105568675538951
 30
0.0
 10
11.46470906615638
 20
-0.2756646056512896
 30
0.0
 10
11.33477761099379
 20
-0.2042654060966559
 30
0.0
 10
11.27041902721089
 20
-0.1678775603353412
 30
0.0
 10
11.14059439403983
 20
-0.0940199771984173
 30
0.0
 10
11.07539287927745
 20
-0.0565979879659861
 30
0.0
 10
10.94635676524982
 20
0.0181119353621748
 30
0.0
 10
10.88129277509559
 20
0.0556361149554585
 30
0.0
 10
10.7513918737881
 20
0.130020469956918
 30
0.0
 10
10.68704303432288
 20
0.1667886200736285
 30
0.0
 10
10.55717653283293
 20
0.2391899522658073
 30
0.0
 10
10.49199472150841
 20
0.2747549060791387
 30
0.0
 10
10.36306101435986
 20
0.3435669576232955
 30
0.0
 10
10.29787551799347
 20
0.3770680018538038
 30
0.0
 10
10.18281924970263
 20
0.4339251128521476
 30
0.0
 10
10.13304276782698
 20
0.4578255904670279
 30
0.0
 10
10.08306853116429
 20
0.4808016045822079
 30
0.0
  0
LINE
  5
1FD
330
1F
100
AcDbEntity
  8
0
  6
Continuous
 62
     1
370
    15
100
AcDbLine
 10
9.071597271742979
 20
-0.7937500000000024
 30
0.0
 11
9.555484783250835
 21
-0.7937500000000024
 31
0.0
  0
SPLINE
  5
205
330
1F
100
AcDbEntity
  8
0
  6
Continuous
 62
     1
370
    15
100
AcDbSpline
210
0.0
220
0.0
230
1.0
 70
     8
 71
     3
 72
    15
 73
    11
 74
     0
 42
0.000000001
 43
0.00000001
 40
0.2462114026173883
 40
0.2462114026173883
 40
0.2462114026173883
 40
0.2462114026173883
 40
0.3042827189041055
 40
0.4056730962801239
 40
0.5070716507370849
 40
0.6084944372055853
 40
0.7099574183085766
 40
0.821542555900308
 40
0.9331222610877735
 40
0.9419087837516374
 40
0.9419087837516374
 40
0.9419087837516374
 40
0.9419087837516374
 10
8.542430605076325
 20
-0.5877472773474012
 30
0.0
 10
8.589932550667989
 20
-0.6061850008837524
 30
0.0
 10
8.720370011591513
 20
-0.6539771335597386
 30
0.0
 10
8.933747054276791
 20
-0.7178498455043463
 30
0.0
 10
9.182588977857348
 20
-0.7689406372268297
 30
0.0
 10
9.43150096616037
 20
-0.7948125332041935
 30
0.0
 10
9.688770836976788
 20
-0.7949775120927494
 30
0.0
 10
9.954362161975338
 20
-0.7649216107349548
 30
0.0
 10
10.14412677471624
 20
-0.7254391563594562
 30
0.0
 10
10.24260028473935
 20
-0.6964475309854978
 30
0.0
 10
10.24978867385382
 20
-0.694291835829755
 30
0.0
  0
SPLINE
  5
206
330
1F
100
AcDbEntity
  8
0
  6
Continuous
 62
     1
370
    15
100
AcDbSpline
210
0.0
220
0.0
230
1.0
 70
     8
 71
     3
 72
    30
 73
    26
 74
     0
 42
0.000000001
 43
0.00000001
 40
0.0111189049821518
 40
0.0111189049821518
 40
0.0111189049821518
 40
0.0111189049821518
 40
0.0625
 40
0.0625
 40
0.125
 40
0.125
 40
0.1875
 40
0.1875
 40
0.25
 40
0.25
 40
0.3125
 40
0.3125
 40
0.375
 40
0.375
 40
0.4375
 40
0.4375
 40
0.5
 40
0.5
 40
0.5625
 40
0.5625
 40
0.625
 40
0.625
 40
0.6875
 40
0.6875
 40
0.7139316080372468
 40
0.7139316080372468
 40
0.7139316080372468
 40
0.7139316080372468
 10
10.94385621864714
 20
-0.7937499999999988
 30
0.0
 10
10.66367093219656
 20
-0.7854262470919369
 30
0.0
 10
10.58619151917755
 20
-0.7714468103545502
 30
0.0
 10
10.50454688711885
 20
-0.7541325259455038
 30
0.0
 10
10.43979634357098
 20
-0.7414784908013412
 30
0.0
 10
10.30982121340707
 20
-0.7112751936362254
 30
0.0
 10
10.24541316439789
 20
-0.693796800676036
 30
0.0
 10
10.11568964201824
 20
-0.6542594552475296
 30
0.0
 10
10.05046307562143
 20
-0.632194436183187
 30
0.0
 10
9.921228109734875
 20
-0.5841468761326634
 30
0.0
 10
9.856382999659713
 20
-0.5580671734179279
 30
0.0
 10
9.726426800314838
 20
-0.5023201893686671
 30
0.0
 10
9.662048479037908
 20
-0.4727655372075109
 30
0.0
 10
9.532271507936594
 20
-0.4105522647303804
 30
0.0
 10
9.46705599638784
 20
-0.3779129951277046
 30
0.0
 10
9.337917610507498
 20
-0.3105568675538951
 30
0.0
 10
9.27296801306054
 20
-0.2756646056512896
 30
0.0
 10
9.143036557897949
 20
-0.2042654060966559
 30
0.0
 10
9.078677974115044
 20
-0.1678775603353412
 30
0.0
 10
8.948853340943982
 20
-0.0940199771984173
 30
0.0
 10
8.883651826181604
 20
-0.0565979879659861
 30
0.0
 10
8.754615712153969
 20
0.0181119353621748
 30
0.0
 10
8.689551721999743
 20
0.0556361149554585
 30
0.0
 10
8.597133353689642
 20
0.1085570773802042
 30
0.0
 10
8.569773033746317
 20
0.1242100253223703
 30
0.0
 10
8.542430605076323
 20
0.1397762857427799
 30
0.0
  0
SPLINE
  5
208
330
1F
100
AcDbEntity
  8
0
  6
Continuous
 62
     1
370
    15
100
AcDbSpline
210
0.0
220
0.0
230
1.0
 70
     8
 71
     3
 72
    12
 73
     8
 74
     0
 42
0.000000001
 43
0.00000001
 40
0.6325198695765026
 40
0.6325198695765026
 40
0.6325198695765026
 40
0.6325198695765026
 40
0.6875
 40
0.6875
 40
0.75
 40
0.75
 40
0.8057555700769673
 40
0.8057555700769673
 40
0.8057555700769673
 40
0.8057555700769673
 10
9.081573174422163
 20
0.2682773577097458
 30
0.0
 10
9.02471062875444
 20
0.2992320412108712
 30
0.0
 10
8.967487019314122
 20
0.3295601233384354
 30
0.0
 10
8.845400820692253
 20
0.3923439676787376
 30
0.0
 10
8.781051981227018
 20
0.4244465415302479
 30
0.0
 10
8.658192483886271
 20
0.4824936218655028
 30
0.0
 10
8.60006842706434
 20
0.5086772856847813
 30
0.0
 10
8.542430605076321
 20
0.5333763879543383
 30
0.0
  0
SPLINE
  5
209
330
1F
100
AcDbEntity
  8
0
  6
Continuous
 62
     1
370
    15
100
AcDbSpline
210
0.0
220
0.0
230
1.0
 70
     8
 71
     3
 72
     8
 73
     4
 74
     0
 42
0.000000001
 43
0.0000000001
 40
2.100186341143633
 40
2.100186341143633
 40
2.100186341143633
 40
2.100186341143633
 40
2.120171180221194
 40
2.120171180221194
 40
2.120171180221194
 40
2.120171180221194
 10
9.08157317442217
 20
-0.7931757056725313
 30
0.0
 10
9.07824787352911
 20
-0.7933671371150228
 30
0.0
 10
9.07492257263605
 20
-0.7935585685575108
 30
0.0
 10
8.54243060507632
 20
-0.79375
 30
0.0
  0
LINE
  5
20A
330
1F
100
AcDbEntity
  8
0
  6
Continuous
 62
     1
370
    15
100
AcDbLine
 10
11.26333832483883
 20
-0.7937500000000024
 30
0.0
 11
10.94385621864714
 21
-0.7937499999999988
 31
0.0
  0
LINE
  5
20E
330
1F
100
AcDbEntity
  8
외형선
  6
Continuous
370
    15
100
AcDbLine
 10
-43.8450693949237
 20
-0.0000000000000138
 30
0.0
 11
-43.8450693949237
 21
1.905000000000002
 31
0.0
  0
LINE
  5
20F
330
1F
100
AcDbEntity
  8
외형선
  6
Continuous
370
    15
100
AcDbLine
 10
-42.57506939492369
 20
-3.175000000000004
 30
0.0
 11
1.999999999999982
 21
-3.175000000000004
 31
0.0
  0
LINE
  5
210
330
1F
100
AcDbEntity
  8
외형선
  6
Continuous
370
    15
100
AcDbLine
 10
2.0
 20
3.174999999999998
 30
0.0
 11
-42.57506939492369
 21
3.174999999999998
 31
0.0
  0
LINE
  5
211
330
1F
100
AcDbEntity
  8
중심선
 48
0.8
100
AcDbLine
 10
-46.8450693949237
 20
-0.0000000000000067
 30
0.0
 11
16.30493060507632
 21
0.0000000000000004
 31
0.0
  0
SPLINE
  5
214
330
1F
100
AcDbEntity
  8
0
  6
Continuous
 62
     1
370
    15
100
AcDbSpline
210
0.0
220
0.0
230
1.0
 70
     8
 71
     3
 72
    38
 73
    34
 74
     0
 42
0.000000001
 43
0.00000001
 40
0.0411921410047756
 40
0.0411921410047756
 40
0.0411921410047756
 40
0.0411921410047756
 40
0.0625
 40
0.0625
 40
0.125
 40
0.125
 40
0.1875
 40
0.1875
 40
0.25
 40
0.25
 40
0.3124999999999999
 40
0.3124999999999999
 40
0.3749999999999999
 40
0.3749999999999999
 40
0.4375
 40
0.4375
 40
0.5
 40
0.5
 40
0.5625
 40
0.5625
 40
0.625
 40
0.625
 40
0.6875
 40
0.6875
 40
0.75
 40
0.75
 40
0.8125000000000001
 40
0.8125000000000001
 40
0.8750000000000001
 40
0.8750000000000001
 40
0.9375000000000001
 40
0.9375000000000001
 40
1.0
 40
1.0
 40
1.0
 40
1.0
 10
13.29076677777559
 20
-0.6650856653638082
 30
0.0
 10
13.09085782382274
 20
-0.6581179692649577
 30
0.0
 10
13.06874611414872
 20
-0.6508955581927991
 30
0.0
 10
12.9820379402147
 20
-0.6215336258663231
 30
0.0
 10
12.91728739666683
 20
-0.597482424877636
 30
0.0
 10
12.78731226650293
 20
-0.5454938804575558
 30
0.0
 10
12.72290421749375
 20
-0.5176716846687373
 30
0.0
 10
12.59318069511408
 20
-0.4586391587807337
 30
0.0
 10
12.52795412871728
 20
-0.4274316347001981
 30
0.0
 10
12.39871916283072
 20
-0.3625773320550426
 30
0.0
 10
12.33387405275557
 20
-0.3287951318962034
 30
0.0
 10
12.20391785341069
 20
-0.2592142791539193
 30
0.0
 10
12.13953953213376
 20
-0.2235511553971602
 30
0.0
 10
12.00976256103245
 20
-0.1507880793429341
 30
0.0
 10
11.94454704948368
 20
-0.1137185856798728
 30
0.0
 10
11.81540866360334
 20
-0.0393151269146334
 30
0.0
 10
11.75045906615638
 20
-0.0017852944469892
 30
0.0
 10
11.62052761099379
 20
0.0730433917972386
 30
0.0
 10
11.55616902721089
 20
0.1102224257696955
 30
0.0
 10
11.42634439403984
 20
0.183810410310379
 30
0.0
 10
11.36114287927745
 20
0.2201650348934515
 30
0.0
 10
11.2321067652498
 20
0.2909181474393457
 30
0.0
 10
11.16704277509558
 20
0.3255413474037426
 30
0.0
 10
11.0371418737881
 20
0.3923439676787376
 30
0.0
 10
10.97279303432287
 20
0.4244465415302479
 30
0.0
 10
10.84292653283293
 20
0.4858042013612761
 30
0.0
 10
10.77774472150842
 20
0.5149945261693283
 30
0.0
 10
10.64881101435985
 20
0.5695531002993448
 30
0.0
 10
10.58362551799347
 20
0.5951226662467128
 30
0.0
 10
10.45376097565818
 20
0.6420513251017894
 30
0.0
 10
10.38941188588364
 20
0.663385348554133
 30
0.0
 10
10.25950931606429
 20
0.7016247438834746
 30
0.0
 10
10.19445129095478
 20
0.7184668432967776
 30
0.0
 10
10.12993060507631
 20
0.7328237009517835
 30
0.0
  0
LINE
  5
255
330
1F
100
AcDbEntity
  8
외형선
  6
Continuous
370
    15
100
AcDbLine
 10
8.54243060507632
 20
0.79375
 30
0.0
 11
8.54243060507632
 21
-0.79375
 31
0.0
  0
SPLINE
  5
259
330
1F
100
AcDbEntity
  8
0
  6
Continuous
 62
     1
370
    15
100
AcDbSpline
210
0.0
220
0.0
230
1.0
 70
     8
 71
     3
 72
     8
 73
     4
 74
     0
 42
0.000000001
 43
0.00000001
 40
0.9991567691484634
 40
0.9991567691484634
 40
0.9991567691484634
 40
0.9991567691484634
 40
0.9999999999999999
 40
0.9999999999999999
 40
0.9999999999999999
 40
0.9999999999999999
 10
8.2353105733571
 20
0.6503674717307112
 30
0.0
 10
8.234518797695518
 20
0.6501219594703481
 30
0.0
 10
8.233727022033593
 20
0.6498764428358103
 30
0.0
 10
8.232935246371666
 20
0.6496309262012723
 30
0.0
  0
LINE
  5
25C
330
1F
100
AcDbEntity
  8
0
  6
Continuous
 62
     1
370
    15
100
AcDbLine
 10
9.07159727174299
 20
0.7937499999999993
 30
0.0
 11
8.54243060507632
 21
0.79375
 31
0.0
  0
LINE
  5
25D
330
1F
100
AcDbEntity
  8
외형선
  6
Continuous
370
    15
100
AcDbLine
 10
8.54243060507632
 20
0.7937499999999997
 30
0.0
 11
2.000000000000002
 21
3.174999999999997
 31
0.0
  0
LINE
  5
25E
330
1F
100
AcDbEntity
  8
외형선
  6
Continuous
370
    15
100
AcDbLine
 10
8.54243060507632
 20
-0.7937499999999997
 30
0.0
 11
2.000000000000002
 21
-3.174999999999997
 31
0.0
  0
LINE
  5
25F
330
1F
100
AcDbEntity
  8
외형선
  6
Continuous
370
    15
100
AcDbLine
 10
2.0
 20
3.174999999999998
 30
0.0
 11
2.0
 21
-3.174999999999998
 31
0.0
  0
ARC
  5
266
330
1F
100
AcDbEntity
  8
0
  6
Continuous
 62
     1
370
    15
100
AcDbCircle
 10
13.10173060507632
 20
0.5905499999999989
 30
0.0
 40
0.2032
100
AcDbArc
 50
0.0
 51
90.0
  0
ARC
  5
267
102
{ACAD_REACTORS
102
}
330
1F
100
AcDbEntity
  8
0
  6
Continuous
 62
     1
370
    15
100
AcDbCircle
 10
13.10173060507632
 20
-0.5905499999999987
 30
0.0
 40
0.2032
100
AcDbArc
 50
270.0
 51
0.0
  0
LINE
  5
268
330
1F
100
AcDbEntity
  8
0
  6
Continuous
 62
     1
370
    15
100
AcDbLine
 10
13.30493060507632
 20
-0.5905499999999987
 30
0.0
 11
13.30493060507632
 21
0.077801157117783
 31
0.0
  0
DIMENSION
  5
269
102
{ACAD_REACTORS
102
}
102
{ACAD_XDICTIONARY
360
26A
102
}
330
1F
100
AcDbEntity
  8
0
  6
Continuous
370
    15
100
AcDbDimension
  2
*D18
 10
13.10173060507632
 20
-0.5905499999999987
 30
0.0
 11
20.45145449387643
 21
-24.67632911545319
 31
0.0
 70
   164
  1
<>
 71
     5
 42
0.2031999999999999
  3
SLDDIMSTYLE1
100
AcDbRadialDimension
 15
13.16103693630251
 25
-0.784902769665083
 35
0.0
 40
0.0
1001
ACAD
1000
DSTYLE
1002
{
1070
    78
1070
     0
1070
   171
1070
     3
1070
   273
1070
     2
1002
}
1001
ACAD_DSTYLE_DIMRADIAL_EXTENSION
1070
   387
1070
     1
1070
   388
1040
4.71238898038469
1070
   390
1040
0.0
  0
ENDSEC
  0
SECTION
  2
OBJECTS
  0
DICTIONARY
  5
C
330
0
100
AcDbDictionary
281
     1
  3
ACAD_GROUP
350
D
  3
ACAD_IMAGE_VARS
350
138
  3
ACAD_LAYOUT
350
1A
  3
ACAD_MLINESTYLE
350
17
  3
ACAD_PLOTSETTINGS
350
19
  3
ACAD_PLOTSTYLENAME
350
E
  3
ACAD_SCALELIST
350
47
  3
APPDATA
350
136
  3
DWGPROPS
350
279
  0
DICTIONARY
  5
1DC
330
2
100
AcDbDictionary
280
     1
281
     1
  3
ACAD_LAYERSTATES
360
1DD
  0
DICTIONARY
  5
26A
330
269
100
AcDbDictionary
280
     1
281
     1
  0
DICTIONARY
  5
D
102
{ACAD_REACTORS
330
C
102
}
330
C
100
AcDbDictionary
281
     1
  0
RASTERVARIABLES
  5
138
102
{ACAD_REACTORS
330
C
102
}
330
C
100
AcDbRasterVariables
 90
        0
 70
     1
 71
     1
 72
     1
  0
DICTIONARY
  5
1A
102
{ACAD_REACTORS
330
C
102
}
330
C
100
AcDbDictionary
281
     1
  3
Layout1
350
1E
  3
Layout2
350
26
  3
Model
350
22
  0
DICTIONARY
  5
17
102
{ACAD_REACTORS
330
C
102
}
330
C
100
AcDbDictionary
281
     1
  3
Standard
350
18
  0
DICTIONARY
  5
19
102
{ACAD_REACTORS
330
C
102
}
330
C
100
AcDbDictionary
281
     1
  0
ACDBDICTIONARYWDFLT
  5
E
102
{ACAD_REACTORS
330
C
102
}
330
C
100
AcDbDictionary
281
     1
  3
Normal
350
F
100
AcDbDictionaryWithDefault
340
F
  0
DICTIONARY
  5
47
102
{ACAD_REACTORS
330
C
102
}
330
C
100
AcDbDictionary
281
     1
  3
A0
350
48
  3
A1
350
49
  3
A2
350
4A
  3
A3
350
4B
  3
A4
350
4C
  3
A5
350
4D
  3
A6
350
4E
  3
A7
350
4F
  3
A8
350
50
  3
A9
350
51
  3
B0
350
52
  3
B1
350
53
  3
B2
350
54
  3
B3
350
55
  3
B4
350
56
  3
B5
350
57
  3
B6
350
58
  3
B7
350
59
  3
B8
350
5A
  3
B9
350
5B
  3
C0
350
5C
  3
C1
350
5D
  3
C2
350
5E
  3
C3
350
5F
  3
C4
350
60
  3
C5
350
61
  3
C6
350
62
  3
C7
350
63
  3
C8
350
64
  3
C9
350
65
  3
D0
350
66
  3
D1
350
67
  3
D2
350
68
  0
DICTIONARY
  5
136
102
{ACAD_REACTORS
330
C
102
}
330
C
100
AcDbDictionary
281
     1
  0
XRECORD
  5
279
102
{ACAD_REACTORS
330
C
102
}
330
C
100
AcDbXrecord
280
     1
  1
DWGPROPS COOKIE
  2

  3

  4

  6

  7

  8
12016016
  9

300
=
301
=
302
=
303
=
304
=
305
=
306
=
307
=
308
=
309
=
 40
0.0
 41
2458296.321439919
 42
2458304.110356192
  1

 90
        0
  0
DICTIONARY
  5
1DD
102
{ACAD_REACTORS
330
1DC
102
}
330
1DC
100
AcDbDictionary
281
     1
  0
LAYOUT
  5
1E
102
{ACAD_REACTORS
330
1A
102
}
330
1A
100
AcDbPlotSettings
  1

  2
none_device
  4

  6

 40
0.0
 41
0.0
 42
0.0
 43
0.0
 44
0.0
 45
0.0
 46
0.0
 47
0.0
 48
0.0
 49
0.0
140
0.0
141
0.0
142
1.0
143
1.0
 70
   688
 72
     1
 73
     0
 74
     5
  7

 75
    16
147
1.0
148
0.0
149
0.0
100
AcDbLayout
  1
Layout1
 70
     1
 71
     1
 10
0.0
 20
0.0
 11
420.0
 21
297.0
 12
0.0
 22
0.0
 32
0.0
 14
1.000000000000000E+20
 24
1.000000000000000E+20
 34
1.000000000000000E+20
 15
-1.000000000000000E+20
 25
-1.000000000000000E+20
 35
-1.000000000000000E+20
146
0.0
 13
0.0
 23
0.0
 33
0.0
 16
1.0
 26
0.0
 36
0.0
 17
0.0
 27
1.0
 37
0.0
 76
     0
330
1B
  0
LAYOUT
  5
26
102
{ACAD_REACTORS
330
1A
102
}
330
1A
100
AcDbPlotSettings
  1

  2
none_device
  4

  6

 40
0.0
 41
0.0
 42
0.0
 43
0.0
 44
0.0
 45
0.0
 46
0.0
 47
0.0
 48
0.0
 49
0.0
140
0.0
141
0.0
142
1.0
143
1.0
 70
   688
 72
     1
 73
     0
 74
     5
  7

 75
    16
147
1.0
148
0.0
149
0.0
100
AcDbLayout
  1
Layout2
 70
     1
 71
     2
 10
0.0
 20
0.0
 11
0.0
 21
0.0
 12
0.0
 22
0.0
 32
0.0
 14
0.0
 24
0.0
 34
0.0
 15
0.0
 25
0.0
 35
0.0
146
0.0
 13
0.0
 23
0.0
 33
0.0
 16
1.0
 26
0.0
 36
0.0
 17
0.0
 27
1.0
 37
0.0
 76
     0
330
23
  0
LAYOUT
  5
22
102
{ACAD_REACTORS
330
1A
102
}
330
1A
100
AcDbPlotSettings
  1

  2
none_device
  4
ANSI_A_(11.00_x_8.50_Inches)
  6

 40
6.35
 41
19.05
 42
6.35000508
 43
19.05000254
 44
279.4
 45
215.9
 46
109.4444827120707
 47
101.1263605523763
 48
0.0
 49
0.0
140
0.0
141
0.0
142
0.0797139469389385
143
1.0
 70
  1696
 72
     0
 73
     0
 74
     0
  7

 75
     0
147
0.0235690232323232
148
0.0
149
0.0
100
AcDbLayout
  1
Model
 70
     1
 71
     0
 10
0.0
 20
0.0
 11
420.0
 21
297.0
 12
0.0
 22
0.0
 32
0.0
 14
1.000000000000000E+20
 24
1.000000000000000E+20
 34
1.000000000000000E+20
 15
-1.000000000000000E+20
 25
-1.000000000000000E+20
 35
-1.000000000000000E+20
146
0.0
 13
0.0
 23
0.0
 33
0.0
 16
1.0
 26
0.0
 36
0.0
 17
0.0
 27
1.0
 37
0.0
 76
     0
330
1F
331
29
  0
MLINESTYLE
  5
18
102
{ACAD_REACTORS
330
17
102
}
330
17
100
AcDbMlineStyle
  2
Standard
 70
     0
  3

 62
   256
 51
90.0
 52
90.0
 71
     2
 49
0.5
 62
   256
  6
BYLAYER
 49
-0.5
 62
   256
  6
BYLAYER
  0
ACDBPLACEHOLDER
  5
F
102
{ACAD_REACTORS
330
E
102
}
330
E
  0
SCALE
  5
48
102
{ACAD_REACTORS
330
47
102
}
330
47
100
AcDbScale
 70
     0
300
1:1
140
1.0
141
1.0
290
     1
  0
SCALE
  5
49
102
{ACAD_REACTORS
330
47
102
}
330
47
100
AcDbScale
 70
     0
300
1:2
140
1.0
141
2.0
290
     0
  0
SCALE
  5
4A
102
{ACAD_REACTORS
330
47
102
}
330
47
100
AcDbScale
 70
     0
300
1:4
140
1.0
141
4.0
290
     0
  0
SCALE
  5
4B
102
{ACAD_REACTORS
330
47
102
}
330
47
100
AcDbScale
 70
     0
300
1:5
140
1.0
141
5.0
290
     0
  0
SCALE
  5
4C
102
{ACAD_REACTORS
330
47
102
}
330
47
100
AcDbScale
 70
     0
300
1:8
140
1.0
141
8.0
290
     0
  0
SCALE
  5
4D
102
{ACAD_REACTORS
330
47
102
}
330
47
100
AcDbScale
 70
     0
300
1:10
140
1.0
141
10.0
290
     0
  0
SCALE
  5
4E
102
{ACAD_REACTORS
330
47
102
}
330
47
100
AcDbScale
 70
     0
300
1:16
140
1.0
141
16.0
290
     0
  0
SCALE
  5
4F
102
{ACAD_REACTORS
330
47
102
}
330
47
100
AcDbScale
 70
     0
300
1:20
140
1.0
141
20.0
290
     0
  0
SCALE
  5
50
102
{ACAD_REACTORS
330
47
102
}
330
47
100
AcDbScale
 70
     0
300
1:30
140
1.0
141
30.0
290
     0
  0
SCALE
  5
51
102
{ACAD_REACTORS
330
47
102
}
330
47
100
AcDbScale
 70
     0
300
1:40
140
1.0
141
40.0
290
     0
  0
SCALE
  5
52
102
{ACAD_REACTORS
330
47
102
}
330
47
100
AcDbScale
 70
     0
300
1:50
140
1.0
141
50.0
290
     0
  0
SCALE
  5
53
102
{ACAD_REACTORS
330
47
102
}
330
47
100
AcDbScale
 70
     0
300
1:100
140
1.0
141
100.0
290
     0
  0
SCALE
  5
54
102
{ACAD_REACTORS
330
47
102
}
330
47
100
AcDbScale
 70
     0
300
2:1
140
2.0
141
1.0
290
     0
  0
SCALE
  5
55
102
{ACAD_REACTORS
330
47
102
}
330
47
100
AcDbScale
 70
     0
300
4:1
140
4.0
141
1.0
290
     0
  0
SCALE
  5
56
102
{ACAD_REACTORS
330
47
102
}
330
47
100
AcDbScale
 70
     0
300
8:1
140
8.0
141
1.0
290
     0
  0
SCALE
  5
57
102
{ACAD_REACTORS
330
47
102
}
330
47
100
AcDbScale
 70
     0
300
10:1
140
10.0
141
1.0
290
     0
  0
SCALE
  5
58
102
{ACAD_REACTORS
330
47
102
}
330
47
100
AcDbScale
 70
     0
300
100:1
140
100.0
141
1.0
290
     0
  0
SCALE
  5
59
102
{ACAD_REACTORS
330
47
102
}
330
47
100
AcDbScale
 70
     0
300
1/128" = 1'-0"
140
0.0078125
141
12.0
290
     0
  0
SCALE
  5
5A
102
{ACAD_REACTORS
330
47
102
}
330
47
100
AcDbScale
 70
     0
300
1/64" = 1'-0"
140
0.015625
141
12.0
290
     0
  0
SCALE
  5
5B
102
{ACAD_REACTORS
330
47
102
}
330
47
100
AcDbScale
 70
     0
300
1/32" = 1'-0"
140
0.03125
141
12.0
290
     0
  0
SCALE
  5
5C
102
{ACAD_REACTORS
330
47
102
}
330
47
100
AcDbScale
 70
     0
300
1/16" = 1'-0"
140
0.0625
141
12.0
290
     0
  0
SCALE
  5
5D
102
{ACAD_REACTORS
330
47
102
}
330
47
100
AcDbScale
 70
     0
300
3/32" = 1'-0"
140
0.09375
141
12.0
290
     0
  0
SCALE
  5
5E
102
{ACAD_REACTORS
330
47
102
}
330
47
100
AcDbScale
 70
     0
300
1/8" = 1'-0"
140
0.125
141
12.0
290
     0
  0
SCALE
  5
5F
102
{ACAD_REACTORS
330
47
102
}
330
47
100
AcDbScale
 70
     0
300
3/16" = 1'-0"
140
0.1875
141
12.0
290
     0
  0
SCALE
  5
60
102
{ACAD_REACTORS
330
47
102
}
330
47
100
AcDbScale
 70
     0
300
1/4" = 1'-0"
140
0.25
141
12.0
290
     0
  0
SCALE
  5
61
102
{ACAD_REACTORS
330
47
102
}
330
47
100
AcDbScale
 70
     0
300
3/8" = 1'-0"
140
0.375
141
12.0
290
     0
  0
SCALE
  5
62
102
{ACAD_REACTORS
330
47
102
}
330
47
100
AcDbScale
 70
     0
300
1/2" = 1'-0"
140
0.5
141
12.0
290
     0
  0
SCALE
  5
63
102
{ACAD_REACTORS
330
47
102
}
330
47
100
AcDbScale
 70
     0
300
3/4" = 1'-0"
140
0.75
141
12.0
290
     0
  0
SCALE
  5
64
102
{ACAD_REACTORS
330
47
102
}
330
47
100
AcDbScale
 70
     0
300
1" = 1'-0"
140
1.0
141
12.0
290
     0
  0
SCALE
  5
65
102
{ACAD_REACTORS
330
47
102
}
330
47
100
AcDbScale
 70
     0
300
1-1/2" = 1'-0"
140
1.5
141
12.0
290
     0
  0
SCALE
  5
66
102
{ACAD_REACTORS
330
47
102
}
330
47
100
AcDbScale
 70
     0
300
3" = 1'-0"
140
3.0
141
12.0
290
     0
  0
SCALE
  5
67
102
{ACAD_REACTORS
330
47
102
}
330
47
100
AcDbScale
 70
     0
300
6" = 1'-0"
140
6.0
141
12.0
290
     0
  0
SCALE
  5
68
102
{ACAD_REACTORS
330
47
102
}
330
47
100
AcDbScale
 70
     0
300
1'-0" = 1'-0"
140
12.0
141
12.0
290
     0
  0
ENDSEC
  0
EOF
