  0
SECTION
  2
HEADER
  9
$ACADVER
  1
AC1015
  9
$ACADMAINTVER
 70
     6
  9
$DWGCODEPAGE
  3
ANSI_949
  9
$INSBASE
 10
0.0
 20
0.0
 30
0.0
  9
$EXTMIN
 10
-61.96413893789582
 20
-49.97073246008785
 30
0.0
  9
$EXTMAX
 10
80.11348381534562
 20
35.67275000000007
 30
0.0
  9
$LIMMIN
 10
0.0
 20
0.0
  9
$LIMMAX
 10
420.0
 20
297.0
  9
$ORTHOMODE
 70
     1
  9
$REGENMODE
 70
     1
  9
$FILLMODE
 70
     1
  9
$QTEXTMODE
 70
     0
  9
$MIRRTEXT
 70
     1
  9
$LTSCALE
 40
1.0
  9
$ATTMODE
 70
     1
  9
$TEXTSIZE
 40
3.5
  9
$TRACEWID
 40
1.0
  9
$TEXTSTYLE
  7
Standard
  9
$CLAYER
  8
0
  9
$CELTYPE
  6
ByLayer
  9
$CECOLOR
 62
   256
  9
$CELTSCALE
 40
1.0
  9
$DISPSILH
 70
     0
  9
$DIMSCALE
 40
1.0
  9
$DIMASZ
 40
3.302
  9
$DIMEXO
 40
1.0
  9
$DIMDLI
 40
3.75
  9
$DIMRND
 40
0.0
  9
$DIMDLE
 40
0.0
  9
$DIMEXE
 40
1.0
  9
$DIMTP
 40
0.0
  9
$DIMTM
 40
0.0
  9
$DIMTXT
 40
3.5
  9
$DIMCEN
 40
2.5
  9
$DIMTSZ
 40
0.0
  9
$DIMTOL
 70
     0
  9
$DIMLIM
 70
     0
  9
$DIMTIH
 70
     1
  9
$DIMTOH
 70
     1
  9
$DIMSE1
 70
     0
  9
$DIMSE2
 70
     0
  9
$DIMTAD
 70
     1
  9
$DIMZIN
 70
     0
  9
$DIMBLK
  1

  9
$DIMASO
 70
     1
  9
$DIMSHO
 70
     1
  9
$DIMPOST
  1

  9
$DIMAPOST
  1

  9
$DIMALT
 70
     0
  9
$DIMALTD
 70
     3
  9
$DIMALTF
 40
0.0393700787401575
  9
$DIMLFAC
 40
1.0
  9
$DIMTOFL
 70
     1
  9
$DIMTVP
 40
0.0
  9
$DIMTIX
 70
     0
  9
$DIMSOXD
 70
     0
  9
$DIMSAH
 70
     0
  9
$DIMBLK1
  1

  9
$DIMBLK2
  1

  9
$DIMSTYLE
  2
ISO-25
  9
$DIMCLRD
 70
     0
  9
$DIMCLRE
 70
     0
  9
$DIMCLRT
 70
     0
  9
$DIMTFAC
 40
1.0
  9
$DIMGAP
 40
1.524
  9
$DIMJUST
 70
     0
  9
$DIMSD1
 70
     0
  9
$DIMSD2
 70
     0
  9
$DIMTOLJ
 70
     0
  9
$DIMTZIN
 70
     0
  9
$DIMALTZ
 70
     0
  9
$DIMALTTZ
 70
     0
  9
$DIMUPT
 70
     0
  9
$DIMDEC
 70
     2
  9
$DIMTDEC
 70
     2
  9
$DIMALTU
 70
     2
  9
$DIMALTTD
 70
     3
  9
$DIMTXSTY
  7
Standard
  9
$DIMAUNIT
 70
     0
  9
$DIMADEC
 70
     2
  9
$DIMALTRND
 40
0.0
  9
$DIMAZIN
 70
     0
  9
$DIMDSEP
 70
    44
  9
$DIMATFIT
 70
     3
  9
$DIMFRAC
 70
     0
  9
$DIMLDRBLK
  1

  9
$DIMLUNIT
 70
     2
  9
$DIMLWD
 70
    -2
  9
$DIMLWE
 70
    -2
  9
$DIMTMOVE
 70
     0
  9
$LUNITS
 70
     2
  9
$LUPREC
 70
     2
  9
$SKETCHINC
 40
1.0
  9
$FILLETRAD
 40
10.0
  9
$AUNITS
 70
     0
  9
$AUPREC
 70
     2
  9
$MENU
  1
.
  9
$ELEVATION
 40
0.0
  9
$PELEVATION
 40
0.0
  9
$THICKNESS
 40
0.0
  9
$LIMCHECK
 70
     0
  9
$CHAMFERA
 40
0.0
  9
$CHAMFERB
 40
0.0
  9
$CHAMFERC
 40
0.0
  9
$CHAMFERD
 40
0.0
  9
$SKPOLY
 70
     0
  9
$TDCREATE
 40
2458296.68738522
  9
$TDUCREATE
 40
2458296.31238522
  9
$TDUPDATE
 40
2459703.640028924
  9
$TDUUPDATE
 40
2459703.265028924
  9
$TDINDWG
 40
0.001347662
  9
$TDUSRTIMER
 40
0.0004758912
  9
$USRTIMER
 70
     1
  9
$ANGBASE
 50
0.0
  9
$ANGDIR
 70
     0
  9
$PDMODE
 70
     0
  9
$PDSIZE
 40
-1.0
  9
$PLINEWID
 40
0.0
  9
$SPLFRAME
 70
     0
  9
$SPLINETYPE
 70
     6
  9
$SPLINESEGS
 70
     8
  9
$HANDSEED
  5
27B
  9
$SURFTAB1
 70
     6
  9
$SURFTAB2
 70
     6
  9
$SURFTYPE
 70
     6
  9
$SURFU
 70
     6
  9
$SURFV
 70
     6
  9
$UCSBASE
  2

  9
$UCSNAME
  2

  9
$UCSORG
 10
0.0
 20
0.0
 30
0.0
  9
$UCSXDIR
 10
1.0
 20
0.0
 30
0.0
  9
$UCSYDIR
 10
0.0
 20
1.0
 30
0.0
  9
$UCSORTHOREF
  2

  9
$UCSORTHOVIEW
 70
     0
  9
$UCSORGTOP
 10
0.0
 20
0.0
 30
0.0
  9
$UCSORGBOTTOM
 10
0.0
 20
0.0
 30
0.0
  9
$UCSORGLEFT
 10
0.0
 20
0.0
 30
0.0
  9
$UCSORGRIGHT
 10
0.0
 20
0.0
 30
0.0
  9
$UCSORGFRONT
 10
0.0
 20
0.0
 30
0.0
  9
$UCSORGBACK
 10
0.0
 20
0.0
 30
0.0
  9
$PUCSBASE
  2

  9
$PUCSNAME
  2

  9
$PUCSORG
 10
0.0
 20
0.0
 30
0.0
  9
$PUCSXDIR
 10
1.0
 20
0.0
 30
0.0
  9
$PUCSYDIR
 10
0.0
 20
1.0
 30
0.0
  9
$PUCSORTHOREF
  2

  9
$PUCSORTHOVIEW
 70
     0
  9
$PUCSORGTOP
 10
0.0
 20
0.0
 30
0.0
  9
$PUCSORGBOTTOM
 10
0.0
 20
0.0
 30
0.0
  9
$PUCSORGLEFT
 10
0.0
 20
0.0
 30
0.0
  9
$PUCSORGRIGHT
 10
0.0
 20
0.0
 30
0.0
  9
$PUCSORGFRONT
 10
0.0
 20
0.0
 30
0.0
  9
$PUCSORGBACK
 10
0.0
 20
0.0
 30
0.0
  9
$USERI1
 70
     0
  9
$USERI2
 70
     0
  9
$USERI3
 70
     0
  9
$USERI4
 70
     0
  9
$USERI5
 70
     0
  9
$USERR1
 40
0.0
  9
$USERR2
 40
0.0
  9
$USERR3
 40
0.0
  9
$USERR4
 40
0.0
  9
$USERR5
 40
0.0
  9
$WORLDVIEW
 70
     1
  9
$SHADEDGE
 70
     3
  9
$SHADEDIF
 70
    70
  9
$TILEMODE
 70
     1
  9
$MAXACTVP
 70
    64
  9
$PINSBASE
 10
0.0
 20
0.0
 30
0.0
  9
$PLIMCHECK
 70
     0
  9
$PEXTMIN
 10
1.000000000000000E+20
 20
1.000000000000000E+20
 30
1.000000000000000E+20
  9
$PEXTMAX
 10
-1.000000000000000E+20
 20
-1.000000000000000E+20
 30
-1.000000000000000E+20
  9
$PLIMMIN
 10
0.0
 20
0.0
  9
$PLIMMAX
 10
0.0
 20
0.0
  9
$UNITMODE
 70
     0
  9
$VISRETAIN
 70
     1
  9
$PLINEGEN
 70
     0
  9
$PSLTSCALE
 70
     1
  9
$TREEDEPTH
 70
  3020
  9
$CMLSTYLE
  2
Standard
  9
$CMLJUST
 70
     0
  9
$CMLSCALE
 40
20.0
  9
$PROXYGRAPHICS
 70
     1
  9
$MEASUREMENT
 70
     1
  9
$CELWEIGHT
370
    -1
  9
$ENDCAPS
280
     0
  9
$JOINSTYLE
280
     0
  9
$LWDISPLAY
290
     1
  9
$INSUNITS
 70
     4
  9
$HYPERLINKBASE
  1

  9
$STYLESHEET
  1

  9
$XEDIT
290
     1
  9
$CEPSNTYPE
380
     0
  9
$PSTYLEMODE
290
     1
  9
$FINGERPRINTGUID
  2
{77DF1155-40C5-43A4-BC40-49FB672C0F10}
  9
$VERSIONGUID
  2
{FAEB1C32-E019-11D5-929B-00C0DF256EC4}
  9
$EXTNAMES
290
     1
  9
$PSVPSCALE
 40
0.0
  9
$OLESTARTUP
290
     0
  0
ENDSEC
  0
SECTION
  2
CLASSES
  0
CLASS
  1
ACDBDICTIONARYWDFLT
  2
AcDbDictionaryWithDefault
  3
ObjectDBX Classes
 90
        0
280
     0
281
     0
  0
CLASS
  1
VISUALSTYLE
  2
AcDbVisualStyle
  3
ObjectDBX Classes
 90
     4095
280
     0
281
     0
  0
CLASS
  1
MATERIAL
  2
AcDbMaterial
  3
ObjectDBX Classes
 90
     1153
280
     0
281
     0
  0
CLASS
  1
SCALE
  2
AcDbScale
  3
ObjectDBX Classes
 90
     1153
280
     0
281
     0
  0
CLASS
  1
SUN
  2
AcDbSun
  3
SCENEOE
 90
     1153
280
     0
281
     0
  0
CLASS
  1
ACDBPLACEHOLDER
  2
AcDbPlaceHolder
  3
ObjectDBX Classes
 90
        0
280
     0
281
     0
  0
CLASS
  1
LAYOUT
  2
AcDbLayout
  3
ObjectDBX Classes
 90
        0
280
     0
281
     0
  0
CLASS
  1
TABLESTYLE
  2
AcDbTableStyle
  3
ObjectDBX Classes
 90
     4095
280
     0
281
     0
  0
CLASS
  1
MLEADERSTYLE
  2
AcDbMLeaderStyle
  3
ACDB_MLEADERSTYLE_CLASS
 90
     4095
280
     0
281
     0
  0
CLASS
  1
RASTERVARIABLES
  2
AcDbRasterVariables
  3
ISM
 90
        0
280
     0
281
     0
  0
CLASS
  1
DIMASSOC
  2
AcDbDimAssoc
  3
"AcDbDimAssoc|Product Desc:     AcDim ARX App For Dimension|Company:          Autodesk, Inc.|WEB Address:      www.autodesk.com"
 90
        0
280
     0
281
     0
  0
ENDSEC
  0
SECTION
  2
TABLES
  0
TABLE
  2
VPORT
  5
8
330
0
100
AcDbSymbolTable
 70
     1
  0
VPORT
  5
29
330
8
100
AcDbSymbolTableRecord
100
AcDbViewportTableRecord
  2
*Active
 70
     0
 10
0.0
 20
0.0
 11
1.0
 21
1.0
 12
-6.367615274389204
 22
-1.230770204493799
 13
0.0
 23
0.0
 14
10.0
 24
10.0
 15
10.0
 25
10.0
 16
0.0
 26
0.0
 36
1.0
 17
0.0
 27
0.0
 37
0.0
 40
18.57076011434307
 41
1.531481481481482
 42
50.0
 43
0.0
 44
0.0
 50
0.0
 51
0.0
 71
    16
 72
  2000
 73
     1
 74
     3
 75
     0
 76
     0
 77
     0
 78
     0
281
     0
 65
     1
110
0.0
120
0.0
130
0.0
111
1.0
121
0.0
131
0.0
112
0.0
122
1.0
132
0.0
 79
     0
146
0.0
  0
ENDTAB
  0
TABLE
  2
LTYPE
  5
5
330
0
100
AcDbSymbolTable
 70
     6
  0
LTYPE
  5
14
330
5
100
AcDbSymbolTableRecord
100
AcDbLinetypeTableRecord
  2
ByBlock
 70
     0
  3

 72
    65
 73
     0
 40
0.0
  0
LTYPE
  5
15
330
5
100
AcDbSymbolTableRecord
100
AcDbLinetypeTableRecord
  2
ByLayer
 70
     0
  3

 72
    65
 73
     0
 40
0.0
  0
LTYPE
  5
16
330
5
100
AcDbSymbolTableRecord
100
AcDbLinetypeTableRecord
  2
Continuous
 70
     0
  3
Solid line
 72
    65
 73
     0
 40
0.0
  0
LTYPE
  5
6A
330
5
100
AcDbSymbolTableRecord
100
AcDbLinetypeTableRecord
  2
HIDDEN
 70
     0
  3
Hidden __ __ __ __ __ __ __ __ __ __ __ __ __ __
 72
    65
 73
     2
 40
1.905
 49
1.27
 74
     0
 49
-0.635
 74
     0
  0
LTYPE
  5
6B
330
5
100
AcDbSymbolTableRecord
100
AcDbLinetypeTableRecord
  2
PHANTOM
 70
     0
  3
Phantom ______  __  __  ______  __  __  ______
 72
    65
 73
     6
 40
12.7
 49
6.35
 74
     0
 49
-1.27
 74
     0
 49
1.27
 74
     0
 49
-1.27
 74
     0
 49
1.27
 74
     0
 49
-1.27
 74
     0
  0
LTYPE
  5
6C
330
5
100
AcDbSymbolTableRecord
100
AcDbLinetypeTableRecord
  2
CENTER
 70
     0
  3
Center ____ _ ____ _ ____ _ ____ _ ____ _ ____
 72
    65
 73
     4
 40
10.16
 49
6.35
 74
     0
 49
-1.27
 74
     0
 49
1.27
 74
     0
 49
-1.27
 74
     0
  0
LTYPE
  5
6D
330
5
100
AcDbSymbolTableRecord
100
AcDbLinetypeTableRecord
  2
CENTERX2
 70
     0
  3
Center (2x) ________  __  ________  __  _____
 72
    65
 73
     4
 40
20.32
 49
12.7
 74
     0
 49
-2.54
 74
     0
 49
2.54
 74
     0
 49
-2.54
 74
     0
  0
LTYPE
  5
6E
330
5
100
AcDbSymbolTableRecord
100
AcDbLinetypeTableRecord
  2
DOT2
 70
     0
  3
Dot (.5x) ........................................
 72
    65
 73
     2
 40
0.635
 49
0.0
 74
     0
 49
-0.635
 74
     0
  0
ENDTAB
  0
TABLE
  2
LAYER
  5
2
102
{ACAD_XDICTIONARY
360
1D4
102
}
330
0
100
AcDbSymbolTable
 70
    18
  0
LAYER
  5
10
330
2
100
AcDbSymbolTableRecord
100
AcDbLayerTableRecord
  2
0
 70
     0
 62
     7
  6
Continuous
370
    -3
390
F
  0
LAYER
  5
6F
330
2
100
AcDbSymbolTableRecord
100
AcDbLayerTableRecord
  2
FORMAT
 70
     0
 62
     2
  6
Continuous
370
    -3
390
F
  0
LAYER
  5
70
330
2
100
AcDbSymbolTableRecord
100
AcDbLayerTableRecord
  2
외형선
 70
     0
 62
     4
  6
Continuous
370
    30
390
F
  0
LAYER
  5
71
330
2
100
AcDbSymbolTableRecord
100
AcDbLayerTableRecord
  2
숨은선
 70
     0
 62
     2
  6
HIDDEN
370
    15
390
F
  0
LAYER
  5
72
330
2
100
AcDbSymbolTableRecord
100
AcDbLayerTableRecord
  2
중심선
 70
     0
 62
     1
  6
CENTERX2
370
    -3
390
F
  0
LAYER
  5
73
330
2
100
AcDbSymbolTableRecord
100
AcDbLayerTableRecord
  2
파단선
 70
     0
 62
     4
  6
Continuous
370
    -3
390
F
  0
LAYER
  5
74
330
2
100
AcDbSymbolTableRecord
100
AcDbLayerTableRecord
  2
해칭선
 70
     0
 62
   100
  6
Continuous
370
    -3
390
F
  0
LAYER
  5
75
330
2
100
AcDbSymbolTableRecord
100
AcDbLayerTableRecord
  2
가는실선
 70
     0
 62
     4
  6
Continuous
370
    -3
390
F
  0
LAYER
  5
76
330
2
100
AcDbSymbolTableRecord
100
AcDbLayerTableRecord
  2
치수_보조선
 70
     0
 62
     4
  6
Continuous
370
    -3
390
F
  0
LAYER
  5
77
330
2
100
AcDbSymbolTableRecord
100
AcDbLayerTableRecord
  2
치수문자_일반주서
 70
     0
 62
     7
  6
Continuous
370
    15
390
F
  0
LAYER
  5
78
330
2
100
AcDbSymbolTableRecord
100
AcDbLayerTableRecord
  2
개별주서
 70
     0
 62
   100
  6
Continuous
370
    30
390
F
  0
LAYER
  5
79
330
2
100
AcDbSymbolTableRecord
100
AcDbLayerTableRecord
  2
중간선
 70
     0
 62
     2
  6
Continuous
370
    15
390
F
  0
LAYER
  5
7A
330
2
100
AcDbSymbolTableRecord
100
AcDbLayerTableRecord
  2
윤곽선
 70
     0
 62
     3
  6
Continuous
370
    40
390
F
  0
LAYER
  5
7B
330
2
100
AcDbSymbolTableRecord
100
AcDbLayerTableRecord
  2
중심마크
 70
     0
 62
   100
  6
Continuous
370
    30
390
F
  0
LAYER
  5
7C
330
2
100
AcDbSymbolTableRecord
100
AcDbLayerTableRecord
  2
가상선
 70
     0
 62
     4
  6
PHANTOM
370
    -3
390
F
  0
LAYER
  5
7D
330
2
100
AcDbSymbolTableRecord
100
AcDbLayerTableRecord
  2
특수지정선
 70
     0
 62
     5
  6
CENTERX2
370
    60
390
F
  0
LAYER
  5
7E
330
2
100
AcDbSymbolTableRecord
100
AcDbLayerTableRecord
  2
참조1
 70
     0
 62
    -4
  6
Continuous
370
    -3
390
F
  0
LAYER
  5
13A
330
2
100
AcDbSymbolTableRecord
100
AcDbLayerTableRecord
  2
Defpoints
 70
     0
 62
     7
  6
Continuous
290
     0
370
    -3
390
F
  0
ENDTAB
  0
TABLE
  2
STYLE
  5
3
330
0
100
AcDbSymbolTable
 70
     2
  0
STYLE
  5
11
330
3
100
AcDbSymbolTableRecord
100
AcDbTextStyleTableRecord
  2
Standard
 70
     0
 40
0.0
 41
1.0
 50
0.0
 71
     0
 42
3.5
  3
txt
  4

  0
STYLE
  5
94
330
3
100
AcDbSymbolTableRecord
100
AcDbTextStyleTableRecord
  2
SLDTEXTSTYLE0
 70
     0
 40
0.0
 41
0.75
 50
0.0
 71
     0
 42
3.5
  3
TXT
  4

  0
ENDTAB
  0
TABLE
  2
VIEW
  5
6
330
0
100
AcDbSymbolTable
 70
     0
  0
ENDTAB
  0
TABLE
  2
UCS
  5
7
330
0
100
AcDbSymbolTable
 70
     0
  0
ENDTAB
  0
TABLE
  2
APPID
  5
9
330
0
100
AcDbSymbolTable
 70
     3
  0
APPID
  5
12
330
9
100
AcDbSymbolTableRecord
100
AcDbRegAppTableRecord
  2
ACAD
 70
     0
  0
APPID
  5
147
330
9
100
AcDbSymbolTableRecord
100
AcDbRegAppTableRecord
  2
ACAD_DSTYLE_DIMRADIAL_EXTENSION
 70
     0
  0
APPID
  5
275
330
9
100
AcDbSymbolTableRecord
100
AcDbRegAppTableRecord
  2
PE_URL
 70
     0
  0
ENDTAB
  0
TABLE
  2
DIMSTYLE
  5
A
330
0
100
AcDbSymbolTable
 70
     5
100
AcDbDimStyleTable
  0
DIMSTYLE
105
27
330
A
100
AcDbSymbolTableRecord
100
AcDbDimStyleTableRecord
  2
ISO-25
 70
     0
 41
2.5
 42
0.625
 43
3.75
 44
1.25
 73
     0
 74
     0
 77
     1
 78
     8
140
2.5
141
2.5
143
0.03937007874016
147
0.625
171
     3
172
     1
178
     0
271
     2
272
     2
274
     3
278
    44
283
     0
284
     8
340
11
  0
DIMSTYLE
105
BC
330
A
100
AcDbSymbolTableRecord
100
AcDbDimStyleTableRecord
  2
SLDDIMSTYLE0
 70
     0
 41
3.302
 44
0.0
 45
0.000000001
 73
     0
 74
     0
 77
     1
 78
    12
 79
     3
140
3.5
147
0.875
172
     1
173
     1
178
     0
271
     2
272
     2
276
     2
284
    12
289
     0
340
94
  0
DIMSTYLE
105
CA
102
{ACAD_REACTORS
330
1E7
102
}
330
A
100
AcDbSymbolTableRecord
100
AcDbDimStyleTableRecord
  2
SLDDIMSTYLE1
 70
     0
 41
3.302
 44
0.0
 45
0.000000001
 73
     0
 74
     0
 77
     1
 78
     4
 79
     1
140
3.5
143
0.0393700787401575
147
0.875
148
0.000000001
170
     1
173
     1
178
     0
271
     2
272
     2
276
     2
284
    12
340
94
  0
DIMSTYLE
105
DE
102
{ACAD_REACTORS
330
1E6
330
1E8
102
}
330
A
100
AcDbSymbolTableRecord
100
AcDbDimStyleTableRecord
  2
SLDDIMSTYLE2
 70
     0
 41
3.302
 44
0.0
 45
0.000000001
 73
     0
 74
     0
 77
     1
 78
     4
 79
     1
140
3.5
143
0.0393700787401575
147
0.875
148
0.000000001
170
     1
172
     1
173
     1
178
     0
271
     2
272
     2
276
     2
284
    12
289
     0
340
94
  0
DIMSTYLE
105
F4
102
{ACAD_REACTORS
330
1E9
330
245
102
}
330
A
100
AcDbSymbolTableRecord
100
AcDbDimStyleTableRecord
  2
SLDDIMSTYLE3
 70
     0
 41
3.302
 44
0.0
 45
0.000000001
 73
     0
 74
     0
 77
     1
 78
    12
 79
     3
140
3.5
143
0.0393700787401575
147
0.875
148
0.000000001
170
     1
172
     1
173
     1
178
     0
271
     2
272
     2
276
     2
284
    12
289
     0
340
94
  0
ENDTAB
  0
TABLE
  2
BLOCK_RECORD
  5
1
330
0
100
AcDbSymbolTable
 70
    18
  0
BLOCK_RECORD
  5
1F
102
{ACAD_XDICTIONARY
360
277
102
}
330
1
100
AcDbSymbolTableRecord
100
AcDbBlockTableRecord
  2
*Model_Space
340
22
  0
BLOCK_RECORD
  5
1B
330
1
100
AcDbSymbolTableRecord
100
AcDbBlockTableRecord
  2
*Paper_Space
340
1E
  0
BLOCK_RECORD
  5
23
330
1
100
AcDbSymbolTableRecord
100
AcDbBlockTableRecord
  2
*Paper_Space0
340
26
  0
BLOCK_RECORD
  5
7F
330
1
100
AcDbSymbolTableRecord
100
AcDbBlockTableRecord
  2
블럭10
340
0
102
{BLKREFS
331
B4
102
}
  0
BLOCK_RECORD
  5
BD
330
1
100
AcDbSymbolTableRecord
100
AcDbBlockTableRecord
  2
_D
340
0
  0
BLOCK_RECORD
  5
CB
330
1
100
AcDbSymbolTableRecord
100
AcDbBlockTableRecord
  2
_D_1
340
0
  0
BLOCK_RECORD
  5
DF
330
1
100
AcDbSymbolTableRecord
100
AcDbBlockTableRecord
  2
_D_2
340
0
  0
BLOCK_RECORD
  5
F5
330
1
100
AcDbSymbolTableRecord
100
AcDbBlockTableRecord
  2
_D_3
340
0
  0
BLOCK_RECORD
  5
10F
330
1
100
AcDbSymbolTableRecord
100
AcDbBlockTableRecord
  2
SW_DOWELSYMBOL_0
340
0
102
{BLKREFS
331
1EA
102
}
  0
BLOCK_RECORD
  5
174
330
1
100
AcDbSymbolTableRecord
100
AcDbBlockTableRecord
  2
*D7
340
0
  0
BLOCK_RECORD
  5
181
330
1
100
AcDbSymbolTableRecord
100
AcDbBlockTableRecord
  2
*D8
340
0
  0
BLOCK_RECORD
  5
18E
330
1
100
AcDbSymbolTableRecord
100
AcDbBlockTableRecord
  2
*D9
340
0
  0
BLOCK_RECORD
  5
19E
330
1
100
AcDbSymbolTableRecord
100
AcDbBlockTableRecord
  2
*D10
340
0
  0
BLOCK_RECORD
  5
1CB
330
1
100
AcDbSymbolTableRecord
100
AcDbBlockTableRecord
  2
*D11
340
0
  0
BLOCK_RECORD
  5
202
330
1
100
AcDbSymbolTableRecord
100
AcDbBlockTableRecord
  2
*D12
340
0
  0
BLOCK_RECORD
  5
20E
330
1
100
AcDbSymbolTableRecord
100
AcDbBlockTableRecord
  2
*D13
340
0
  0
BLOCK_RECORD
  5
21A
330
1
100
AcDbSymbolTableRecord
100
AcDbBlockTableRecord
  2
*D14
340
0
  0
BLOCK_RECORD
  5
229
330
1
100
AcDbSymbolTableRecord
100
AcDbBlockTableRecord
  2
*D15
340
0
  0
BLOCK_RECORD
  5
238
330
1
100
AcDbSymbolTableRecord
100
AcDbBlockTableRecord
  2
*D16
340
0
  0
BLOCK_RECORD
  5
248
330
1
100
AcDbSymbolTableRecord
100
AcDbBlockTableRecord
  2
*D17
340
0
  0
ENDTAB
  0
ENDSEC
  0
SECTION
  2
BLOCKS
  0
BLOCK
  5
20
330
1F
100
AcDbEntity
  8
0
100
AcDbBlockBegin
  2
*Model_Space
 70
     0
 10
0.0
 20
0.0
 30
0.0
  3
*Model_Space
  1
*Model_Space
  0
ENDBLK
  5
21
330
1F
100
AcDbEntity
  8
0
100
AcDbBlockEnd
  0
BLOCK
  5
1C
330
1B
100
AcDbEntity
 67
     1
  8
0
100
AcDbBlockBegin
  2
*Paper_Space
 70
     0
 10
0.0
 20
0.0
 30
0.0
  3
*Paper_Space
  1
*Paper_Space
  0
ENDBLK
  5
1D
330
1B
100
AcDbEntity
 67
     1
  8
0
100
AcDbBlockEnd
  0
BLOCK
  5
24
330
23
100
AcDbEntity
  8
0
100
AcDbBlockBegin
  2
*Paper_Space0
 70
     0
 10
0.0
 20
0.0
 30
0.0
  3
*Paper_Space0
  1
*Paper_Space0
  0
ENDBLK
  5
25
330
23
100
AcDbEntity
  8
0
100
AcDbBlockEnd
  0
BLOCK
  5
80
330
7F
100
AcDbEntity
  8
0
100
AcDbBlockBegin
  2
블럭10
 70
     2
 10
0.0
 20
0.0
 30
0.0
  3
블럭10
  1
블럭10
  0
ELLIPSE
  5
82
330
7F
100
AcDbEntity
  8
중심선
100
AcDbEllipse
 10
20.54032771741204
 20
12.0471743016438
 30
0.0
 11
6.600054785286829
 21
-1.261213355974178E-13
 31
0.0
210
0.0
220
0.0
230
1.0
 40
0.636358354079598
 41
0.9219305317359503
 42
6.513795318482858
  0
ELLIPSE
  5
83
330
7F
100
AcDbEntity
  8
중심선
100
AcDbEllipse
 10
20.54032771746488
 20
12.04717430159265
 30
0.0
 11
3.960054785062283
 21
1.540847449632565E-10
 31
0.0
210
0.0
220
0.0
230
1.0
 40
0.3939339440162632
 41
1.131841032648279
 42
5.62031148352944
  0
LINE
  5
84
330
7F
100
AcDbEntity
  8
중심선
100
AcDbLine
 10
2.268634060543552
 20
16.24717430164393
 30
0.0
 11
5.714909304380834
 21
16.24717430164393
 31
0.0
  0
LINE
  5
85
330
7F
100
AcDbEntity
  8
중심선
100
AcDbLine
 10
5.245725140726316
 20
7.84717430164391
 30
0.0
 11
8.692000384563599
 21
7.84717430164391
 31
0.0
  0
LINE
  5
86
330
7F
100
AcDbEntity
  8
중심선
100
AcDbLine
 10
15.74043728645272
 20
16.24717430164393
 30
0.0
 11
8.692000384563599
 21
7.84717430164391
 31
0.0
  0
LINE
  5
87
330
7F
100
AcDbEntity
  8
중심선
100
AcDbLine
 10
0.1404042013395286
 20
13.71084872107135
 30
0.0
 11
3.58671253028996
 21
13.71088815037384
 31
0.0
  0
LINE
  5
88
330
7F
100
AcDbEntity
  8
중심선
100
AcDbLine
 10
2.750260043222114
 20
10.84717430164391
 30
0.0
 11
6.196535287059397
 21
10.84717430164391
 31
0.0
  0
LINE
  5
89
330
7F
100
AcDbEntity
  8
중심선
100
AcDbLine
 10
12.29416204261559
 20
16.24717430164393
 30
0.0
 11
5.245725140726316
 21
7.84717430164391
 31
0.0
  0
LINE
  5
8A
330
7F
100
AcDbEntity
  8
중심선
100
AcDbLine
 10
10.72767329541681
 20
16.24717430164393
 30
0.0
 11
6.196535287059397
 21
10.84717430164391
 31
0.0
  0
LINE
  5
8B
330
7F
100
AcDbEntity
  8
중심선
100
AcDbLine
 10
7.28139805157953
 20
16.24717430164393
 30
0.0
 11
2.750260043222114
 21
10.84717430164391
 31
0.0
  0
LINE
  5
8C
330
7F
100
AcDbEntity
  8
중심선
100
AcDbLine
 10
5.714909304380834
 20
16.24717430164393
 30
0.0
 11
3.58671253028996
 21
13.71088815037384
 31
0.0
  0
LINE
  5
8D
330
7F
100
AcDbEntity
  8
중심선
100
AcDbLine
 10
2.268634060543552
 20
16.24717430164393
 30
0.0
 11
0.1404042013395286
 21
13.71084872107135
 31
0.0
  0
LINE
  5
8E
330
7F
100
AcDbEntity
  8
중심선
100
AcDbLine
 10
7.28139805157953
 20
16.24717430164393
 30
0.0
 11
10.72767329541681
 21
16.24717430164393
 31
0.0
  0
LINE
  5
8F
330
7F
100
AcDbEntity
  8
중심선
100
AcDbLine
 10
12.29416204261559
 20
16.24717430164393
 30
0.0
 11
15.74043728645272
 21
16.24717430164393
 31
0.0
  0
LINE
  5
90
330
7F
100
AcDbEntity
  8
중심선
100
AcDbLine
 10
19.22036997980202
 20
11.08717430171403
 30
0.0
 11
23.66174974927406
 21
11.08717430171406
 31
0.0
  0
LINE
  5
91
330
7F
100
AcDbEntity
  8
중심선
100
AcDbLine
 10
19.22039502424796
 20
13.00717430171391
 30
0.0
 11
19.22036997980202
 21
11.08717430171403
 31
0.0
  0
LINE
  5
92
330
7F
100
AcDbEntity
  8
중심선
100
AcDbLine
 10
19.22039502424796
 20
13.00717430171391
 30
0.0
 11
26.96566020931264
 21
13.00717430171391
 31
0.0
  0
LINE
  5
93
330
7F
100
AcDbEntity
  8
중심선
100
AcDbLine
 10
22.22332737316547
 20
13.45928029700563
 30
0.0
 11
24.52862924686651
 21
15.39360700705356
 31
0.0
  0
ATTDEF
  5
95
330
7F
100
AcDbEntity
  8
FORMAT
 62
     2
100
AcDbText
 10
3.448148490846466
 20
2.075366912832191
 30
0.0
 40
4.233333333333333
  1
EM639008
 41
0.75
  7
SLDTEXTSTYLE0
 11
3.448148490846466
 21
-0.0412997538344756
 31
0.0
100
AcDbAttributeDefinition
  3

  2
AUTOATTR0
 70
     0
 74
     1
  0
ENDBLK
  5
81
330
7F
100
AcDbEntity
  8
0
100
AcDbBlockEnd
  0
BLOCK
  5
BE
330
BD
100
AcDbEntity
  8
0
100
AcDbBlockBegin
  2
_D
 70
     0
 10
0.0
 20
0.0
 30
0.0
  3
_D
  1
_D
  0
SOLID
  5
C0
330
BD
100
AcDbEntity
  8
치수문자_일반주서
100
AcDbTrace
 10
-40.81749999999999
 20
-1.586425071276106
 30
0.0
 11
-41.32549999999999
 21
-4.888425071276106
 31
0.0
 12
-40.30949999999999
 22
-4.888425071276106
 32
0.0
 13
-40.30949999999999
 23
-4.888425071276106
 33
0.0
  0
SOLID
  5
C1
330
BD
100
AcDbEntity
  8
치수문자_일반주서
100
AcDbTrace
 10
-40.81749999999999
 20
1.588574928723893
 30
0.0
 11
-40.30949999999999
 21
4.890574928723893
 31
0.0
 12
-41.32549999999999
 22
4.890574928723893
 32
0.0
 13
-41.32549999999999
 23
4.890574928723893
 33
0.0
  0
LINE
  5
C2
330
BD
100
AcDbEntity
  8
치수문자_일반주서
100
AcDbLine
 10
-53.45249999999999
 20
-1.586425071276107
 30
0.0
 11
-39.81749999999999
 21
-1.586425071276106
 31
0.0
  0
LINE
  5
C3
330
BD
100
AcDbEntity
  8
치수문자_일반주서
100
AcDbLine
 10
-53.45249999999999
 20
1.588574928723893
 30
0.0
 11
-39.81749999999999
 21
1.588574928723893
 31
0.0
  0
LINE
  5
C4
330
BD
100
AcDbEntity
  8
치수문자_일반주서
100
AcDbLine
 10
-40.81749999999999
 20
-1.586425071276106
 30
0.0
 11
-40.81749999999999
 21
-7.936425071276107
 31
0.0
  0
LINE
  5
C5
330
BD
100
AcDbEntity
  8
치수문자_일반주서
100
AcDbLine
 10
-40.81749999999999
 20
-1.586425071276106
 30
0.0
 11
-40.81749999999999
 21
1.588574928723893
 31
0.0
  0
LINE
  5
C6
330
BD
100
AcDbEntity
  8
치수문자_일반주서
100
AcDbLine
 10
-40.81749999999999
 20
1.588574928723893
 30
0.0
 11
-40.81749999999999
 21
7.938574928723893
 31
0.0
  0
MTEXT
  5
C7
330
BD
100
AcDbEntity
  8
치수문자_일반주서
100
AcDbMText
 10
-45.32923708920186
 20
-6.504358457599654
 30
0.0
 40
3.5
 41
0.0
 71
     1
 72
     1
  1
%%c
  7
SLDTEXTSTYLE0
 11
6.123233995736766E-17
 21
1.0
 31
0.0
 73
     1
 44
1.0
  0
MTEXT
  5
C8
330
BD
100
AcDbEntity
  8
치수문자_일반주서
100
AcDbMText
 10
-45.38270926586171
 20
-1.225921059225574
 30
0.0
 40
3.5
 41
0.0
 71
     1
 72
     1
  1
3.18
  7
SLDTEXTSTYLE0
 11
6.123233995736766E-17
 21
1.0
 31
0.0
 73
     1
 44
1.0
  0
ENDBLK
  5
BF
330
BD
100
AcDbEntity
  8
0
100
AcDbBlockEnd
  0
BLOCK
  5
CC
330
CB
100
AcDbEntity
  8
0
100
AcDbBlockBegin
  2
_D_1
 70
     0
 10
0.0
 20
0.0
 30
0.0
  3
_D_1
  1
_D_1
  0
SOLID
  5
CE
330
CB
100
AcDbEntity
  8
치수문자_일반주서
100
AcDbTrace
 10
22.70000000000003
 20
28.53222015535753
 30
0.0
 11
19.39800000000003
 21
29.04022015535753
 31
0.0
 12
19.39800000000003
 22
28.02422015535753
 32
0.0
 13
19.39800000000003
 23
28.02422015535753
 33
0.0
  0
SOLID
  5
CF
330
CB
100
AcDbEntity
  8
치수문자_일반주서
100
AcDbTrace
 10
-53.49999999999999
 20
28.53222015535752
 30
0.0
 11
-50.19799999999999
 21
28.02422015535753
 31
0.0
 12
-50.19799999999999
 22
29.04022015535752
 32
0.0
 13
-50.19799999999999
 23
29.04022015535752
 33
0.0
  0
LINE
  5
D0
330
CB
100
AcDbEntity
  8
치수문자_일반주서
100
AcDbLine
 10
-20.81436608182264
 20
39.32510187140024
 30
0.0
 11
-21.52530356738714
 21
39.32510187140025
 31
0.0
  0
LINE
  5
D1
330
CB
100
AcDbEntity
  8
치수문자_일반주서
100
AcDbLine
 10
-21.52530356738714
 20
39.32510187140025
 30
0.0
 11
-21.52530356738718
 21
33.76885188034095
 31
0.0
  0
LINE
  5
D2
330
CB
100
AcDbEntity
  8
치수문자_일반주서
100
AcDbLine
 10
-21.52530356738718
 20
33.76885188034095
 30
0.0
 11
-20.81436608182268
 21
33.76885188034094
 31
0.0
  0
LINE
  5
D3
330
CB
100
AcDbEntity
  8
치수문자_일반주서
100
AcDbLine
 10
-9.985633219685385
 20
39.32510187140017
 30
0.0
 11
-9.274695734120884
 21
39.32510187140016
 31
0.0
  0
LINE
  5
D4
330
CB
100
AcDbEntity
  8
치수문자_일반주서
100
AcDbLine
 10
-9.274695734120884
 20
39.32510187140016
 30
0.0
 11
-9.274695734120925
 21
33.76885188034086
 31
0.0
  0
LINE
  5
D5
330
CB
100
AcDbEntity
  8
치수문자_일반주서
100
AcDbLine
 10
-9.274695734120925
 20
33.76885188034086
 30
0.0
 11
-9.985633219685425
 21
33.76885188034087
 31
0.0
  0
LINE
  5
D6
330
CB
100
AcDbEntity
  8
치수문자_일반주서
100
AcDbLine
 10
22.70000000000003
 20
2.375890257231688
 30
0.0
 11
22.70000000000003
 21
29.53222015535754
 31
0.0
  0
LINE
  5
D7
330
CB
100
AcDbEntity
  8
치수문자_일반주서
100
AcDbLine
 10
-53.49999999999999
 20
3.541074928723894
 30
0.0
 11
-53.49999999999999
 21
29.53222015535753
 31
0.0
  0
LINE
  5
D8
330
CB
100
AcDbEntity
  8
치수문자_일반주서
100
AcDbLine
 10
22.70000000000003
 20
28.53222015535753
 30
0.0
 11
-53.49999999999999
 21
28.53222015535752
 31
0.0
  0
MTEXT
  5
D9
330
CB
100
AcDbEntity
  8
치수문자_일반주서
100
AcDbMText
 10
-22.03906229287388
 20
33.09742942121924
 30
0.0
 40
3.5
 41
0.0
 71
     1
 72
     1
  1

  7
SLDTEXTSTYLE0
 73
     1
 44
1.0
  0
MTEXT
  5
DA
330
CB
100
AcDbEntity
  8
치수문자_일반주서
100
AcDbMText
 10
-19.92569418121128
 20
38.28058879491984
 30
0.0
 40
3.5
 41
0.0
 71
     1
 72
     1
  1
3.00
  7
SLDTEXTSTYLE0
 73
     1
 44
1.0
  0
MTEXT
  5
DB
330
CB
100
AcDbEntity
  8
치수문자_일반주서
100
AcDbMText
 10
-21.21874989438804
 20
33.04395724455937
 30
0.0
 40
3.5
 41
0.0
 71
     1
 72
     1
  1
76.20
  7
SLDTEXTSTYLE0
 73
     1
 44
1.0
  0
MTEXT
  5
DC
330
CB
100
AcDbEntity
  8
치수문자_일반주서
100
AcDbMText
 10
-7.428992488980318
 20
33.09742942121913
 30
0.0
 40
3.5
 41
0.0
 71
     1
 72
     1
  1

  7
SLDTEXTSTYLE0
 73
     1
 44
1.0
  0
ENDBLK
  5
CD
330
CB
100
AcDbEntity
  8
0
100
AcDbBlockEnd
  0
BLOCK
  5
E0
330
DF
100
AcDbEntity
  8
0
100
AcDbBlockBegin
  2
_D_2
 70
     0
 10
0.0
 20
0.0
 30
0.0
  3
_D_2
  1
_D_2
  0
SOLID
  5
E2
330
DF
100
AcDbEntity
  8
치수문자_일반주서
100
AcDbTrace
 10
22.70000000000017
 20
11.67065425643442
 30
0.0
 11
26.00200000000016
 21
11.16265425643437
 31
0.0
 12
26.00200000000018
 22
12.17865425643437
 32
0.0
 13
26.00200000000018
 23
12.17865425643437
 33
0.0
  0
SOLID
  5
E3
330
DF
100
AcDbEntity
  8
치수문자_일반주서
100
AcDbTrace
 10
10.00000000000017
 20
11.67065425643459
 30
0.0
 11
6.698000000000178
 21
12.17865425643463
 31
0.0
 12
6.698000000000164
 22
11.16265425643463
 32
0.0
 13
6.698000000000164
 23
11.16265425643463
 33
0.0
  0
LINE
  5
E4
330
DF
100
AcDbEntity
  8
치수문자_일반주서
100
AcDbLine
 10
10.9356339181775
 20
22.46353597247721
 30
0.0
 11
10.224696432613
 21
22.46353597247722
 31
0.0
  0
LINE
  5
E5
330
DF
100
AcDbEntity
  8
치수문자_일반주서
100
AcDbLine
 10
10.224696432613
 20
22.46353597247722
 30
0.0
 11
10.22469643261288
 21
16.90728598141792
 31
0.0
  0
LINE
  5
E6
330
DF
100
AcDbEntity
  8
치수문자_일반주서
100
AcDbLine
 10
10.22469643261288
 20
16.90728598141792
 30
0.0
 11
10.93563391817738
 21
16.9072859814179
 31
0.0
  0
LINE
  5
E7
330
DF
100
AcDbEntity
  8
치수문자_일반주서
100
AcDbLine
 10
21.76436678031476
 20
22.46353597247698
 30
0.0
 11
22.47530426587926
 21
22.46353597247697
 31
0.0
  0
LINE
  5
E8
330
DF
100
AcDbEntity
  8
치수문자_일반주서
100
AcDbLine
 10
22.47530426587926
 20
22.46353597247697
 30
0.0
 11
22.47530426587914
 21
16.90728598141767
 31
0.0
  0
LINE
  5
E9
330
DF
100
AcDbEntity
  8
치수문자_일반주서
100
AcDbLine
 10
22.47530426587914
 20
16.90728598141767
 30
0.0
 11
21.76436678031464
 21
16.90728598141768
 31
0.0
  0
LINE
  5
EA
330
DF
100
AcDbEntity
  8
치수문자_일반주서
100
AcDbLine
 10
22.70000000000005
 20
2.375890257231688
 30
0.0
 11
22.70000000000018
 21
12.67065425643442
 31
0.0
  0
LINE
  5
EB
330
DF
100
AcDbEntity
  8
치수문자_일반주서
100
AcDbLine
 10
10.00000000000006
 20
3.247996997705583
 30
0.0
 11
10.00000000000018
 21
12.67065425643458
 31
0.0
  0
LINE
  5
EC
330
DF
100
AcDbEntity
  8
치수문자_일반주서
100
AcDbLine
 10
22.70000000000017
 20
11.67065425643442
 30
0.0
 11
29.05000000000017
 21
11.67065425643433
 31
0.0
  0
LINE
  5
ED
330
DF
100
AcDbEntity
  8
치수문자_일반주서
100
AcDbLine
 10
22.70000000000017
 20
11.67065425643442
 30
0.0
 11
10.00000000000017
 21
11.67065425643459
 31
0.0
  0
LINE
  5
EE
330
DF
100
AcDbEntity
  8
치수문자_일반주서
100
AcDbLine
 10
10.00000000000017
 20
11.67065425643459
 30
0.0
 11
3.65000000000017
 21
11.67065425643467
 31
0.0
  0
MTEXT
  5
EF
330
DF
100
AcDbEntity
  8
치수문자_일반주서
100
AcDbMText
 10
9.710937707126172
 20
16.2358635222962
 30
0.0
 40
3.5
 41
0.0
 71
     1
 72
     1
  1

  7
SLDTEXTSTYLE0
 73
     1
 44
1.0
  0
MTEXT
  5
F0
330
DF
100
AcDbEntity
  8
치수문자_일반주서
100
AcDbMText
 10
11.82430581878885
 20
21.41902289599678
 30
0.0
 40
3.5
 41
0.0
 71
     1
 72
     1
  1
0.50
  7
SLDTEXTSTYLE0
 73
     1
 44
1.0
  0
MTEXT
  5
F1
330
DF
100
AcDbEntity
  8
치수문자_일반주서
100
AcDbMText
 10
10.53125010561201
 20
16.18239134563633
 30
0.0
 40
3.5
 41
0.0
 71
     1
 72
     1
  1
12.70
  7
SLDTEXTSTYLE0
 73
     1
 44
1.0
  0
MTEXT
  5
F2
330
DF
100
AcDbEntity
  8
치수문자_일반주서
100
AcDbMText
 10
24.32100751101974
 20
16.2358635222959
 30
0.0
 40
3.5
 41
0.0
 71
     1
 72
     1
  1

  7
SLDTEXTSTYLE0
 73
     1
 44
1.0
  0
ENDBLK
  5
E1
330
DF
100
AcDbEntity
  8
0
100
AcDbBlockEnd
  0
BLOCK
  5
F6
330
F5
100
AcDbEntity
  8
0
100
AcDbBlockBegin
  2
_D_3
 70
     0
 10
0.0
 20
0.0
 30
0.0
  3
_D_3
  1
_D_3
  0
SOLID
  5
F8
330
F5
100
AcDbEntity
  8
치수문자_일반주서
100
AcDbTrace
 10
47.67595001570916
 20
3.176074928723897
 30
0.0
 11
48.18395001570916
 21
6.478074928723896
 31
0.0
 12
47.16795001570916
 22
6.478074928723896
 32
0.0
 13
47.16795001570916
 23
6.478074928723896
 33
0.0
  0
SOLID
  5
F9
330
F5
100
AcDbEntity
  8
치수문자_일반주서
100
AcDbTrace
 10
47.67595001570916
 20
-3.173925071276115
 30
0.0
 11
47.16795001570916
 21
-6.475925071276114
 31
0.0
 12
48.18395001570916
 22
-6.475925071276114
 32
0.0
 13
48.18395001570916
 23
-6.475925071276114
 33
0.0
  0
LINE
  5
FA
330
F5
100
AcDbEntity
  8
치수문자_일반주서
100
AcDbLine
 10
36.88306829966643
 20
4.407458044959878
 30
0.0
 11
36.88306829966644
 21
3.696520559395377
 31
0.0
  0
LINE
  5
FB
330
F5
100
AcDbEntity
  8
치수문자_일반주서
100
AcDbLine
 10
36.88306829966644
 20
3.696520559395377
 30
0.0
 11
42.43931829072574
 21
3.696520559395416
 31
0.0
  0
LINE
  5
FC
330
F5
100
AcDbEntity
  8
치수문자_일반주서
100
AcDbLine
 10
42.43931829072574
 20
3.696520559395416
 30
0.0
 11
42.43931829072574
 21
4.407458044959917
 31
0.0
  0
LINE
  5
FD
330
F5
100
AcDbEntity
  8
치수문자_일반주서
100
AcDbLine
 10
36.88306829966636
 20
15.23619090709714
 30
0.0
 11
36.88306829966636
 21
15.94712839266164
 31
0.0
  0
LINE
  5
FE
330
F5
100
AcDbEntity
  8
치수문자_일반주서
100
AcDbLine
 10
36.88306829966636
 20
15.94712839266164
 30
0.0
 11
42.43931829072567
 21
15.94712839266167
 31
0.0
  0
LINE
  5
FF
330
F5
100
AcDbEntity
  8
치수문자_일반주서
100
AcDbLine
 10
42.43931829072567
 20
15.94712839266167
 30
0.0
 11
42.43931829072567
 21
15.23619090709717
 31
0.0
  0
LINE
  5
100
330
F5
100
AcDbEntity
  8
치수문자_일반주서
100
AcDbLine
 10
23.44600000000002
 20
3.176074928723899
 30
0.0
 11
48.67595001570916
 21
3.176074928723897
 31
0.0
  0
LINE
  5
101
330
F5
100
AcDbEntity
  8
치수문자_일반주서
100
AcDbLine
 10
23.44600000000002
 20
-3.173925071276113
 30
0.0
 11
48.67595001570916
 21
-3.173925071276115
 31
0.0
  0
LINE
  5
102
330
F5
100
AcDbEntity
  8
치수문자_일반주서
100
AcDbLine
 10
47.67595001570916
 20
3.176074928723897
 30
0.0
 11
47.67595001570916
 21
16.98673817133417
 31
0.0
  0
LINE
  5
103
330
F5
100
AcDbEntity
  8
치수문자_일반주서
100
AcDbLine
 10
47.67595001570916
 20
3.176074928723897
 30
0.0
 11
47.67595001570916
 21
-3.173925071276115
 31
0.0
  0
LINE
  5
104
330
F5
100
AcDbEntity
  8
치수문자_일반주서
100
AcDbLine
 10
47.67595001570916
 20
-3.173925071276115
 30
0.0
 11
47.67595001570916
 21
-9.523925071276114
 31
0.0
  0
MTEXT
  5
105
330
F5
100
AcDbEntity
  8
치수문자_일반주서
100
AcDbMText
 10
37.92758137614685
 20
5.296129945571255
 30
0.0
 40
3.5
 41
0.0
 71
     1
 72
     1
  1
0.25
  7
SLDTEXTSTYLE0
 11
-7.044195017643634E-15
 21
1.0
 31
0.0
 73
     1
 44
1.0
  0
MTEXT
  5
106
330
F5
100
AcDbEntity
  8
치수문자_일반주서
100
AcDbMText
 10
43.16421292650733
 20
2.656910780722964
 30
0.0
 40
3.5
 41
0.0
 71
     1
 72
     1
  1
%%c
  7
SLDTEXTSTYLE0
 11
-7.044195017643634E-15
 21
1.0
 31
0.0
 73
     1
 44
1.0
  0
MTEXT
  5
107
330
F5
100
AcDbEntity
  8
치수문자_일반주서
100
AcDbMText
 10
43.1642129265073
 20
7.935348179097044
 30
0.0
 40
3.5
 41
0.0
 71
     1
 72
     1
  1
6.35
  7
SLDTEXTSTYLE0
 11
-7.044195017643634E-15
 21
1.0
 31
0.0
 73
     1
 44
1.0
  0
ENDBLK
  5
F7
330
F5
100
AcDbEntity
  8
0
100
AcDbBlockEnd
  0
BLOCK
  5
110
330
10F
100
AcDbEntity
  8
0
100
AcDbBlockBegin
  2
SW_DOWELSYMBOL_0
 70
     0
 10
0.0
 20
0.0
 30
0.0
  3
SW_DOWELSYMBOL_0
  1
SW_DOWELSYMBOL_0
  0
CIRCLE
  5
112
330
10F
100
AcDbEntity
  8
해칭선
 62
     0
100
AcDbCircle
 10
0.0
 20
0.0
 30
0.0
 40
3.000000000000001
  0
HATCH
  5
113
330
10F
100
AcDbEntity
  8
0
  6
Continuous
 62
     0
370
     0
100
AcDbHatch
 10
0.0
 20
0.0
 30
0.0
210
0.0
220
0.0
230
1.0
  2
SOLID
 70
     1
 71
     0
 91
        1
 92
        0
 93
        3
 72
     2
 10
0.0
 20
0.0
 40
3.000000000000001
 50
0.0
 51
90.0
 73
     1
 72
     1
 10
0.0
 20
3.000000000000001
 11
0.0
 21
0.0
 72
     1
 10
0.0
 20
0.0
 11
3.000000000000003
 21
0.0
 97
        0
 75
     0
 76
     1
 98
        1
 10
0.0
 20
0.0
  0
HATCH
  5
114
330
10F
100
AcDbEntity
  8
0
  6
Continuous
 62
     0
370
     0
100
AcDbHatch
 10
0.0
 20
0.0
 30
0.0
210
0.0
220
0.0
230
1.0
  2
SOLID
 70
     1
 71
     0
 91
        1
 92
        0
 93
        3
 72
     2
 10
0.0
 20
0.0
 40
3.000000000000001
 50
180.0
 51
270.0000000000007
 73
     1
 72
     1
 10
0.0
 20
-3.000000000000001
 11
0.0
 21
0.0
 72
     1
 10
0.0
 20
0.0
 11
-3.000000000000003
 21
0.0
 97
        0
 75
     0
 76
     1
 98
        1
 10
0.0
 20
0.0
  0
ENDBLK
  5
111
330
10F
100
AcDbEntity
  8
0
100
AcDbBlockEnd
  0
BLOCK
  5
175
330
174
100
AcDbEntity
  8
0
100
AcDbBlockBegin
  2
*D7
 70
     1
 10
0.0
 20
0.0
 30
0.0
  3
*D7
  1
*D8
  0
LINE
  5
176
330
174
100
AcDbEntity
  8
0
  6
Continuous
 62
     0
370
    -2
100
AcDbLine
 10
17.94750000000005
 20
40.08949565102883
 30
0.0
 11
4.37500000000002
 21
40.08949565102878
 31
0.0
  0
LINE
  5
177
330
174
100
AcDbEntity
  8
0
  6
Continuous
 62
     0
370
    -2
100
AcDbLine
 10
17.94750000000005
 20
33.73949565102882
 30
0.0
 11
4.375000000000042
 21
33.73949565102877
 31
0.0
  0
LINE
  5
178
330
174
100
AcDbEntity
  8
0
  6
Continuous
 62
     0
370
    -2
100
AcDbLine
 10
4.375000000000031
 20
36.78749565102878
 30
0.0
 11
4.37500000000003
 21
37.04149565102877
 31
0.0
  0
SOLID
  5
179
330
174
100
AcDbEntity
  8
0
 62
     0
100
AcDbTrace
 10
4.925333333333365
 20
36.78749565102878
 30
0.0
 11
3.824666666666698
 21
36.78749565102878
 31
0.0
 12
4.37500000000002
 22
40.08949565102878
 32
0.0
 13
4.37500000000002
 23
40.08949565102878
 33
0.0
  0
SOLID
  5
17A
330
174
100
AcDbEntity
  8
0
 62
     0
100
AcDbTrace
 10
3.824666666666697
 20
37.04149565102877
 30
0.0
 11
4.925333333333364
 21
37.04149565102877
 31
0.0
 12
4.375000000000042
 22
33.73949565102877
 32
0.0
 13
4.375000000000042
 23
33.73949565102877
 33
0.0
  0
MTEXT
  5
17B
330
174
100
AcDbEntity
  8
0
 62
     0
370
    15
100
AcDbMText
 10
0.0000000000000355
 20
35.59553503306472
 30
0.0
 40
3.5
 41
0.0
 71
     2
 72
     1
  1
\A1;%%c6.35 [1/4]
  7
SLDTEXTSTYLE0
 11
-3.496765431890248E-15
 21
1.0
 31
0.0
 73
     1
 44
1.0
  0
POINT
  5
17C
330
174
100
AcDbEntity
  8
Defpoints
 62
     0
100
AcDbPoint
 10
18.01000000000005
 20
40.08949565102883
 30
0.0
  0
POINT
  5
17D
330
174
100
AcDbEntity
  8
Defpoints
 62
     0
100
AcDbPoint
 10
18.01000000000005
 20
33.73949565102882
 30
0.0
  0
POINT
  5
17E
330
174
100
AcDbEntity
  8
Defpoints
 62
     0
100
AcDbPoint
 10
4.375000000000043
 20
33.73949565102877
 30
0.0
  0
ENDBLK
  5
17F
330
174
100
AcDbEntity
  8
0
100
AcDbBlockEnd
  0
BLOCK
  5
182
330
181
100
AcDbEntity
  8
0
100
AcDbBlockBegin
  2
*D8
 70
     1
 10
0.0
 20
0.0
 30
0.0
  3
*D8
  1
*D9
  0
LINE
  5
183
330
181
100
AcDbEntity
  8
0
  6
Continuous
 62
     0
370
    -2
100
AcDbLine
 10
74.46250000000006
 20
40.15199565102884
 30
0.0
 11
74.46250000000006
 21
66.97520029756751
 31
0.0
  0
LINE
  5
184
330
181
100
AcDbEntity
  8
0
  6
Continuous
 62
     0
370
    -2
100
AcDbLine
 10
17.31250000000006
 20
39.51699565102884
 30
0.0
 11
17.31250000000006
 21
66.97520029756751
 31
0.0
  0
LINE
  5
185
330
181
100
AcDbEntity
  8
0
  6
Continuous
 62
     0
370
    -2
100
AcDbLine
 10
71.16050000000007
 20
66.97520029756751
 30
0.0
 11
20.61450000000006
 21
66.97520029756751
 31
0.0
  0
SOLID
  5
186
330
181
100
AcDbEntity
  8
0
 62
     0
100
AcDbTrace
 10
71.16050000000007
 20
66.42486696423418
 30
0.0
 11
71.16050000000007
 21
67.52553363090084
 31
0.0
 12
74.46250000000006
 22
66.97520029756751
 32
0.0
 13
74.46250000000006
 23
66.97520029756751
 33
0.0
  0
SOLID
  5
187
330
181
100
AcDbEntity
  8
0
 62
     0
100
AcDbTrace
 10
20.61450000000006
 20
67.52553363090084
 30
0.0
 11
20.61450000000006
 21
66.42486696423418
 31
0.0
 12
17.31250000000006
 22
66.97520029756751
 32
0.0
 13
17.31250000000006
 23
66.97520029756751
 33
0.0
  0
MTEXT
  5
188
330
181
100
AcDbEntity
  8
0
 62
     0
370
    15
100
AcDbMText
 10
45.88750000000006
 20
71.35020029756751
 30
0.0
 40
3.5
 41
0.0
 71
     2
 72
     1
  1
\A1;57.15 [2 1/4]
  7
SLDTEXTSTYLE0
 73
     1
 44
1.0
  0
POINT
  5
189
330
181
100
AcDbEntity
  8
Defpoints
 62
     0
100
AcDbPoint
 10
74.46250000000006
 20
40.08949565102884
 30
0.0
  0
POINT
  5
18A
330
181
100
AcDbEntity
  8
Defpoints
 62
     0
100
AcDbPoint
 10
17.31250000000006
 20
39.45449565102884
 30
0.0
  0
POINT
  5
18B
330
181
100
AcDbEntity
  8
Defpoints
 62
     0
100
AcDbPoint
 10
17.31250000000006
 20
66.97520029756751
 30
0.0
  0
ENDBLK
  5
18C
330
181
100
AcDbEntity
  8
0
100
AcDbBlockEnd
  0
BLOCK
  5
18F
330
18E
100
AcDbEntity
  8
0
100
AcDbBlockBegin
  2
*D9
 70
     1
 10
0.0
 20
0.0
 30
0.0
  3
*D9
  1
*D10
  0
LINE
  5
190
330
18E
100
AcDbEntity
  8
0
  6
Continuous
 62
     0
370
    -2
100
AcDbLine
 10
74.46250000000006
 20
40.15199565102884
 30
0.0
 11
74.46250000000006
 21
50.11363439864441
 31
0.0
  0
LINE
  5
191
330
18E
100
AcDbEntity
  8
0
  6
Continuous
 62
     0
370
    -2
100
AcDbLine
 10
68.11250000000007
 20
38.56449565102884
 30
0.0
 11
68.11250000000007
 21
50.11363439864441
 31
0.0
  0
LINE
  5
192
330
18E
100
AcDbEntity
  8
0
  6
Continuous
 62
     0
370
    -2
100
AcDbLine
 10
68.11250000000007
 20
50.11363439864441
 30
0.0
 11
38.75850000000007
 21
50.11363439864441
 31
0.0
  0
LINE
  5
193
330
18E
100
AcDbEntity
  8
0
  6
Continuous
 62
     0
370
    -2
100
AcDbLine
 10
74.46250000000006
 20
50.11363439864441
 30
0.0
 11
68.11250000000007
 21
50.11363439864441
 31
0.0
  0
LINE
  5
194
330
18E
100
AcDbEntity
  8
0
  6
Continuous
 62
     0
370
    -2
100
AcDbLine
 10
77.76450000000006
 20
50.11363439864441
 30
0.0
 11
81.06650000000005
 21
50.11363439864441
 31
0.0
  0
LINE
  5
195
330
18E
100
AcDbEntity
  8
0
  6
Continuous
 62
     0
370
    -2
100
AcDbLine
 10
64.81050000000008
 20
50.11363439864441
 30
0.0
 11
61.50850000000008
 21
50.11363439864441
 31
0.0
  0
SOLID
  5
196
330
18E
100
AcDbEntity
  8
0
 62
     0
100
AcDbTrace
 10
77.76450000000006
 20
50.66396773197775
 30
0.0
 11
77.76450000000006
 21
49.56330106531108
 31
0.0
 12
74.46250000000006
 22
50.11363439864441
 32
0.0
 13
74.46250000000006
 23
50.11363439864441
 33
0.0
  0
SOLID
  5
197
330
18E
100
AcDbEntity
  8
0
 62
     0
100
AcDbTrace
 10
64.81050000000008
 20
49.56330106531108
 30
0.0
 11
64.81050000000008
 21
50.66396773197775
 31
0.0
 12
68.11250000000007
 22
50.11363439864441
 32
0.0
 13
68.11250000000007
 23
50.11363439864441
 33
0.0
  0
MTEXT
  5
198
330
18E
100
AcDbEntity
  8
0
 62
     0
370
    15
100
AcDbMText
 10
50.13350000000007
 20
54.48863439864441
 30
0.0
 40
3.5
 41
0.0
 71
     2
 72
     1
  1
\A1;6.35 [1/4]
  7
SLDTEXTSTYLE0
 73
     1
 44
1.0
  0
POINT
  5
199
330
18E
100
AcDbEntity
  8
Defpoints
 62
     0
100
AcDbPoint
 10
74.46250000000006
 20
40.08949565102884
 30
0.0
  0
POINT
  5
19A
330
18E
100
AcDbEntity
  8
Defpoints
 62
     0
100
AcDbPoint
 10
68.11250000000007
 20
38.50199565102884
 30
0.0
  0
POINT
  5
19B
330
18E
100
AcDbEntity
  8
Defpoints
 62
     0
100
AcDbPoint
 10
68.11250000000007
 20
50.11363439864441
 30
0.0
  0
ENDBLK
  5
19C
330
18E
100
AcDbEntity
  8
0
100
AcDbBlockEnd
  0
BLOCK
  5
19F
330
19E
100
AcDbEntity
  8
0
100
AcDbBlockBegin
  2
*D10
 70
     1
 10
0.0
 20
0.0
 30
0.0
  3
*D10
  1
*D11
  0
LINE
  5
1A0
330
19E
100
AcDbEntity
  8
0
  6
Continuous
 62
     0
370
    -2
100
AcDbLine
 10
74.52500000000006
 20
38.50199565102884
 30
0.0
 11
93.46250000000016
 21
38.50199565102891
 31
0.0
  0
LINE
  5
1A1
330
19E
100
AcDbEntity
  8
0
  6
Continuous
 62
     0
370
    -2
100
AcDbLine
 10
74.52500000000006
 20
35.32699565102885
 30
0.0
 11
93.46250000000018
 21
35.32699565102892
 31
0.0
  0
LINE
  5
1A2
330
19E
100
AcDbEntity
  8
0
  6
Continuous
 62
     0
370
    -2
100
AcDbLine
 10
93.46250000000016
 20
38.50199565102891
 30
0.0
 11
93.4625
 21
72.58724565102892
 31
0.0
  0
LINE
  5
1A3
330
19E
100
AcDbEntity
  8
0
  6
Continuous
 62
     0
370
    -2
100
AcDbLine
 10
93.46250000000016
 20
38.50199565102891
 30
0.0
 11
93.46250000000018
 21
35.32699565102892
 31
0.0
  0
LINE
  5
1A4
330
19E
100
AcDbEntity
  8
0
  6
Continuous
 62
     0
370
    -2
100
AcDbLine
 10
93.46250000000015
 20
41.80399565102891
 30
0.0
 11
93.46250000000013
 21
45.10599565102891
 31
0.0
  0
LINE
  5
1A5
330
19E
100
AcDbEntity
  8
0
  6
Continuous
 62
     0
370
    -2
100
AcDbLine
 10
93.46250000000019
 20
32.02499565102892
 30
0.0
 11
93.4625000000002
 21
28.72299565102892
 31
0.0
  0
SOLID
  5
1A6
330
19E
100
AcDbEntity
  8
0
 62
     0
100
AcDbTrace
 10
92.91216666666682
 20
41.80399565102891
 30
0.0
 11
94.01283333333348
 21
41.80399565102891
 31
0.0
 12
93.46250000000016
 22
38.50199565102891
 32
0.0
 13
93.46250000000016
 23
38.50199565102891
 33
0.0
  0
SOLID
  5
1A7
330
19E
100
AcDbEntity
  8
0
 62
     0
100
AcDbTrace
 10
94.01283333333352
 20
32.02499565102892
 30
0.0
 11
92.91216666666686
 21
32.02499565102892
 31
0.0
 12
93.46250000000018
 22
35.32699565102892
 32
0.0
 13
93.46250000000018
 23
35.32699565102892
 33
0.0
  0
MTEXT
  5
1A8
330
19E
100
AcDbEntity
  8
0
 62
     0
370
    15
100
AcDbMText
 10
89.08750000000006
 20
60.33724565102889
 30
0.0
 40
3.5
 41
0.0
 71
     2
 72
     1
  1
\A1;%%c3.18 [1/8]
  7
SLDTEXTSTYLE0
 11
-4.475859752819533E-15
 21
1.0
 31
0.0
 73
     1
 44
1.0
  0
POINT
  5
1A9
330
19E
100
AcDbEntity
  8
Defpoints
 62
     0
100
AcDbPoint
 10
74.46250000000006
 20
38.50199565102884
 30
0.0
  0
POINT
  5
1AA
330
19E
100
AcDbEntity
  8
Defpoints
 62
     0
100
AcDbPoint
 10
74.46250000000006
 20
35.32699565102885
 30
0.0
  0
POINT
  5
1AB
330
19E
100
AcDbEntity
  8
Defpoints
 62
     0
100
AcDbPoint
 10
93.46250000000015
 20
35.32699565102892
 30
0.0
  0
ENDBLK
  5
1AC
330
19E
100
AcDbEntity
  8
0
100
AcDbBlockEnd
  0
BLOCK
  5
1CC
330
1CB
100
AcDbEntity
  8
0
100
AcDbBlockBegin
  2
*D11
 70
     1
 10
0.0
 20
0.0
 30
0.0
  3
*D11
  1
*D12
  0
LINE
  5
1CD
330
1CB
100
AcDbEntity
  8
0
  6
Continuous
 62
     0
370
    -2
100
AcDbLine
 10
75.75039728839556
 20
32.47480920835431
 30
0.0
 11
93.10700020118612
 21
0.0000000000000888
 31
0.0
  0
MTEXT
  5
1CE
330
1CB
100
AcDbEntity
  8
0
 62
     0
370
    15
100
AcDbMText
 10
88.92610253880301
 20
13.39154850266323
 30
0.0
 40
3.5
 41
0.0
 71
     5
 72
     1
  1
\A1;R0.51 [R.020]
  7
SLDTEXTSTYLE0
 11
0.4713641176891049
 21
-0.8819386988647069
 31
0.0
 73
     1
 44
1.0
  0
LINE
  5
1CF
330
1CB
100
AcDbEntity
  8
0
  6
Continuous
 62
     0
370
    -2
100
AcDbLine
 10
73.95450000000007
 20
35.83499565102884
 30
0.0
 11
74.19395297178613
 21
35.38697079200557
 31
0.0
  0
SOLID
  5
1D0
330
1CB
100
AcDbEntity
  8
0
 62
     0
100
AcDbTrace
 10
76.23575755233743
 20
32.73421659445588
 30
0.0
 11
75.26503702445369
 21
32.21540182225274
 31
0.0
 12
74.19395297178613
 22
35.38697079200557
 32
0.0
 13
74.19395297178613
 23
35.38697079200557
 33
0.0
  0
POINT
  5
1D1
330
1CB
100
AcDbEntity
  8
Defpoints
 62
     0
100
AcDbPoint
 10
74.19395297178613
 20
35.38697079200557
 30
0.0
  0
POINT
  5
1D2
330
1CB
100
AcDbEntity
  8
Defpoints
 62
     0
100
AcDbPoint
 10
73.95450000000007
 20
35.83499565102884
 30
0.0
  0
ENDBLK
  5
1D3
330
1CB
100
AcDbEntity
  8
0
100
AcDbBlockEnd
  0
BLOCK
  5
203
330
202
100
AcDbEntity
  8
0
100
AcDbBlockBegin
  2
*D12
 70
     1
 10
0.0
 20
0.0
 30
0.0
  3
*D12
  1
*D13
  0
LINE
  5
205
330
202
100
AcDbEntity
  8
0
  6
Continuous
 62
     0
370
    -2
100
AcDbLine
 10
-44.01663893789576
 20
3.17499999999999
 30
0.0
 11
-57.5891389378958
 21
3.174999999999939
 31
0.0
  0
LINE
  5
206
330
202
100
AcDbEntity
  8
0
  6
Continuous
 62
     0
370
    -2
100
AcDbLine
 10
-44.01663893789576
 20
-3.175000000000026
 30
0.0
 11
-57.58913893789578
 21
-3.175000000000077
 31
0.0
  0
LINE
  5
207
330
202
100
AcDbEntity
  8
0
  6
Continuous
 62
     0
370
    -2
100
AcDbLine
 10
-57.58913893789578
 20
-0.1270000000000606
 30
0.0
 11
-57.58913893789579
 21
0.1269999999999234
 31
0.0
  0
SOLID
  5
208
330
202
100
AcDbEntity
  8
0
 62
     0
100
AcDbTrace
 10
-57.03880560456245
 20
-0.1270000000000588
 30
0.0
 11
-58.13947227122912
 21
-0.1270000000000625
 31
0.0
 12
-57.5891389378958
 22
3.174999999999939
 32
0.0
 13
-57.5891389378958
 23
3.174999999999939
 33
0.0
  0
SOLID
  5
209
330
202
100
AcDbEntity
  8
0
 62
     0
100
AcDbTrace
 10
-58.13947227122912
 20
0.1269999999999215
 30
0.0
 11
-57.03880560456246
 21
0.1269999999999253
 31
0.0
 12
-57.58913893789578
 22
-3.175000000000077
 32
0.0
 13
-57.58913893789578
 23
-3.175000000000077
 33
0.0
  0
MTEXT
  5
20A
330
202
100
AcDbEntity
  8
0
 62
     0
370
    15
100
AcDbMText
 10
-61.96413893789578
 20
-1.318960617964124
 30
0.0
 40
3.5
 41
0.0
 71
     2
 72
     1
  1
\A1;%%c6.35 [1/4]
  7
SLDTEXTSTYLE0
 11
-3.356894814614638E-15
 21
1.0
 31
0.0
 73
     1
 44
1.0
  0
POINT
  5
20B
330
202
100
AcDbEntity
  8
Defpoints
 62
     0
100
AcDbPoint
 10
-43.95413893789576
 20
3.17499999999999
 30
0.0
  0
POINT
  5
20C
330
202
100
AcDbEntity
  8
Defpoints
 62
     0
100
AcDbPoint
 10
-43.95413893789576
 20
-3.175000000000026
 30
0.0
  0
POINT
  5
20D
330
202
100
AcDbEntity
  8
Defpoints
 62
     0
100
AcDbPoint
 10
-57.58913893789577
 20
-3.175000000000077
 30
0.0
  0
ENDBLK
  5
204
330
202
100
AcDbEntity
  8
0
100
AcDbBlockEnd
  0
BLOCK
  5
20F
330
20E
100
AcDbEntity
  8
0
100
AcDbBlockBegin
  2
*D13
 70
     1
 10
0.0
 20
0.0
 30
0.0
  3
*D13
  1
*D14
  0
LINE
  5
211
330
20E
100
AcDbEntity
  8
0
  6
Continuous
 62
     0
370
    -2
100
AcDbLine
 10
12.49836106210425
 20
3.237499999999997
 30
0.0
 11
12.49836106210425
 21
30.06070464653867
 31
0.0
  0
LINE
  5
212
330
20E
100
AcDbEntity
  8
0
  6
Continuous
 62
     0
370
    -2
100
AcDbLine
 10
-44.65163893789575
 20
2.602499999999992
 30
0.0
 11
-44.65163893789575
 21
30.06070464653867
 31
0.0
  0
LINE
  5
213
330
20E
100
AcDbEntity
  8
0
  6
Continuous
 62
     0
370
    -2
100
AcDbLine
 10
9.196361062104252
 20
30.06070464653867
 30
0.0
 11
-41.34963893789575
 21
30.06070464653867
 31
0.0
  0
SOLID
  5
214
330
20E
100
AcDbEntity
  8
0
 62
     0
100
AcDbTrace
 10
9.196361062104252
 20
29.51037131320534
 30
0.0
 11
9.196361062104252
 21
30.61103797987201
 31
0.0
 12
12.49836106210425
 22
30.06070464653867
 32
0.0
 13
12.49836106210425
 23
30.06070464653867
 33
0.0
  0
SOLID
  5
215
330
20E
100
AcDbEntity
  8
0
 62
     0
100
AcDbTrace
 10
-41.34963893789575
 20
30.61103797987201
 30
0.0
 11
-41.34963893789575
 21
29.51037131320534
 31
0.0
 12
-44.65163893789575
 22
30.06070464653867
 32
0.0
 13
-44.65163893789575
 23
30.06070464653867
 33
0.0
  0
MTEXT
  5
216
330
20E
100
AcDbEntity
  8
0
 62
     0
370
    15
100
AcDbMText
 10
-16.07663893789575
 20
34.43570464653867
 30
0.0
 40
3.5
 41
0.0
 71
     2
 72
     1
  1
\A1;57.15 [2 1/4]
  7
SLDTEXTSTYLE0
 73
     1
 44
1.0
  0
POINT
  5
217
330
20E
100
AcDbEntity
  8
Defpoints
 62
     0
100
AcDbPoint
 10
12.49836106210425
 20
3.174999999999997
 30
0.0
  0
POINT
  5
218
330
20E
100
AcDbEntity
  8
Defpoints
 62
     0
100
AcDbPoint
 10
-44.65163893789575
 20
2.539999999999992
 30
0.0
  0
POINT
  5
219
330
20E
100
AcDbEntity
  8
Defpoints
 62
     0
100
AcDbPoint
 10
-44.65163893789575
 20
30.06070464653867
 30
0.0
  0
ENDBLK
  5
210
330
20E
100
AcDbEntity
  8
0
100
AcDbBlockEnd
  0
BLOCK
  5
21B
330
21A
100
AcDbEntity
  8
0
100
AcDbBlockBegin
  2
*D14
 70
     1
 10
0.0
 20
0.0
 30
0.0
  3
*D14
  1
*D15
  0
LINE
  5
21D
330
21A
100
AcDbEntity
  8
0
  6
Continuous
 62
     0
370
    -2
100
AcDbLine
 10
12.49836106210425
 20
3.237499999999997
 30
0.0
 11
12.49836106210425
 21
13.19913874761557
 31
0.0
  0
LINE
  5
21E
330
21A
100
AcDbEntity
  8
0
  6
Continuous
 62
     0
370
    -2
100
AcDbLine
 10
6.148361062104258
 20
1.649999999999999
 30
0.0
 11
6.148361062104257
 21
13.19913874761557
 31
0.0
  0
LINE
  5
21F
330
21A
100
AcDbEntity
  8
0
  6
Continuous
 62
     0
370
    -2
100
AcDbLine
 10
6.148361062104257
 20
13.19913874761557
 30
0.0
 11
-23.20563893789574
 21
13.19913874761557
 31
0.0
  0
LINE
  5
220
330
21A
100
AcDbEntity
  8
0
  6
Continuous
 62
     0
370
    -2
100
AcDbLine
 10
12.49836106210425
 20
13.19913874761557
 30
0.0
 11
6.148361062104257
 21
13.19913874761557
 31
0.0
  0
LINE
  5
221
330
21A
100
AcDbEntity
  8
0
  6
Continuous
 62
     0
370
    -2
100
AcDbLine
 10
15.80036106210425
 20
13.19913874761557
 30
0.0
 11
19.10236106210425
 21
13.19913874761557
 31
0.0
  0
LINE
  5
222
330
21A
100
AcDbEntity
  8
0
  6
Continuous
 62
     0
370
    -2
100
AcDbLine
 10
2.846361062104257
 20
13.19913874761557
 30
0.0
 11
-0.4556389378957428
 21
13.19913874761557
 31
0.0
  0
SOLID
  5
223
330
21A
100
AcDbEntity
  8
0
 62
     0
100
AcDbTrace
 10
15.80036106210425
 20
13.7494720809489
 30
0.0
 11
15.80036106210425
 21
12.64880541428224
 31
0.0
 12
12.49836106210425
 22
13.19913874761557
 32
0.0
 13
12.49836106210425
 23
13.19913874761557
 33
0.0
  0
SOLID
  5
224
330
21A
100
AcDbEntity
  8
0
 62
     0
100
AcDbTrace
 10
2.846361062104257
 20
12.64880541428224
 30
0.0
 11
2.846361062104257
 21
13.7494720809489
 31
0.0
 12
6.148361062104257
 22
13.19913874761557
 32
0.0
 13
6.148361062104257
 23
13.19913874761557
 33
0.0
  0
MTEXT
  5
225
330
21A
100
AcDbEntity
  8
0
 62
     0
370
    15
100
AcDbMText
 10
-11.83063893789574
 20
17.57413874761557
 30
0.0
 40
3.5
 41
0.0
 71
     2
 72
     1
  1
\A1;6.35 [1/4]
  7
SLDTEXTSTYLE0
 73
     1
 44
1.0
  0
POINT
  5
226
330
21A
100
AcDbEntity
  8
Defpoints
 62
     0
100
AcDbPoint
 10
12.49836106210425
 20
3.174999999999997
 30
0.0
  0
POINT
  5
227
330
21A
100
AcDbEntity
  8
Defpoints
 62
     0
100
AcDbPoint
 10
6.148361062104258
 20
1.587499999999999
 30
0.0
  0
POINT
  5
228
330
21A
100
AcDbEntity
  8
Defpoints
 62
     0
100
AcDbPoint
 10
6.148361062104258
 20
13.19913874761557
 30
0.0
  0
ENDBLK
  5
21C
330
21A
100
AcDbEntity
  8
0
100
AcDbBlockEnd
  0
BLOCK
  5
22A
330
229
100
AcDbEntity
  8
0
100
AcDbBlockBegin
  2
*D15
 70
     1
 10
0.0
 20
0.0
 30
0.0
  3
*D15
  1
*D16
  0
LINE
  5
22C
330
229
100
AcDbEntity
  8
0
  6
Continuous
 62
     0
370
    -2
100
AcDbLine
 10
12.56086106210425
 20
1.587499999999999
 30
0.0
 11
31.49836106210433
 21
1.58750000000007
 31
0.0
  0
LINE
  5
22D
330
229
100
AcDbEntity
  8
0
  6
Continuous
 62
     0
370
    -2
100
AcDbLine
 10
12.56086106210425
 20
-1.587499999999999
 30
0.0
 11
31.49836106210434
 21
-1.587499999999928
 31
0.0
  0
LINE
  5
22E
330
229
100
AcDbEntity
  8
0
  6
Continuous
 62
     0
370
    -2
100
AcDbLine
 10
31.49836106210433
 20
1.58750000000007
 30
0.0
 11
31.49836106210421
 21
35.67275000000007
 31
0.0
  0
LINE
  5
22F
330
229
100
AcDbEntity
  8
0
  6
Continuous
 62
     0
370
    -2
100
AcDbLine
 10
31.49836106210433
 20
1.58750000000007
 30
0.0
 11
31.49836106210434
 21
-1.587499999999928
 31
0.0
  0
LINE
  5
230
330
229
100
AcDbEntity
  8
0
  6
Continuous
 62
     0
370
    -2
100
AcDbLine
 10
31.49836106210432
 20
4.889500000000069
 30
0.0
 11
31.4983610621043
 21
8.191500000000069
 31
0.0
  0
LINE
  5
231
330
229
100
AcDbEntity
  8
0
  6
Continuous
 62
     0
370
    -2
100
AcDbLine
 10
31.49836106210435
 20
-4.889499999999927
 30
0.0
 11
31.49836106210436
 21
-8.191499999999927
 31
0.0
  0
SOLID
  5
232
330
229
100
AcDbEntity
  8
0
 62
     0
100
AcDbTrace
 10
30.94802772877098
 20
4.889500000000067
 30
0.0
 11
32.04869439543765
 21
4.889500000000071
 31
0.0
 12
31.49836106210433
 22
1.58750000000007
 32
0.0
 13
31.49836106210433
 23
1.58750000000007
 33
0.0
  0
SOLID
  5
233
330
229
100
AcDbEntity
  8
0
 62
     0
100
AcDbTrace
 10
32.04869439543768
 20
-4.889499999999925
 30
0.0
 11
30.94802772877101
 21
-4.889499999999929
 31
0.0
 12
31.49836106210434
 22
-1.587499999999928
 32
0.0
 13
31.49836106210434
 23
-1.587499999999928
 33
0.0
  0
MTEXT
  5
234
330
229
100
AcDbEntity
  8
0
 62
     0
370
    15
100
AcDbMText
 10
27.12336106210425
 20
23.42275000000006
 30
0.0
 40
3.5
 41
0.0
 71
     2
 72
     1
  1
\A1;%%c3.18 [1/8]
  7
SLDTEXTSTYLE0
 11
-3.356894814614648E-15
 21
1.0
 31
0.0
 73
     1
 44
1.0
  0
POINT
  5
235
330
229
100
AcDbEntity
  8
Defpoints
 62
     0
100
AcDbPoint
 10
12.49836106210425
 20
1.587499999999999
 30
0.0
  0
POINT
  5
236
330
229
100
AcDbEntity
  8
Defpoints
 62
     0
100
AcDbPoint
 10
12.49836106210425
 20
-1.587499999999999
 30
0.0
  0
POINT
  5
237
330
229
100
AcDbEntity
  8
Defpoints
 62
     0
100
AcDbPoint
 10
31.49836106210434
 20
-1.587499999999928
 30
0.0
  0
ENDBLK
  5
22B
330
229
100
AcDbEntity
  8
0
100
AcDbBlockEnd
  0
BLOCK
  5
239
330
238
100
AcDbEntity
  8
0
100
AcDbBlockBegin
  2
*D16
 70
     1
 10
0.0
 20
0.0
 30
0.0
  3
*D16
  1
*D17
  0
LINE
  5
23B
330
238
100
AcDbEntity
  8
0
  6
Continuous
 62
     0
370
    -2
100
AcDbLine
 10
13.99951769177967
 20
-4.439686442674535
 30
0.0
 11
31.35612060457025
 21
-36.91449565102875
 31
0.0
  0
MTEXT
  5
23C
330
238
100
AcDbEntity
  8
0
 62
     0
370
    15
100
AcDbMText
 10
27.17522294218713
 20
-23.52294714836561
 30
0.0
 40
3.5
 41
0.0
 71
     5
 72
     1
  1
\A1;R0.51 [R.020]
  7
SLDTEXTSTYLE0
 11
0.4713641176891049
 21
-0.8819386988647069
 31
0.0
 73
     1
 44
1.0
  0
LINE
  5
23D
330
238
100
AcDbEntity
  8
0
  6
Continuous
 62
     0
370
    -2
100
AcDbLine
 10
12.20362040338419
 20
-1.079500000000003
 30
0.0
 11
12.44307337517025
 21
-1.527524859023274
 31
0.0
  0
SOLID
  5
23E
330
238
100
AcDbEntity
  8
0
 62
     0
100
AcDbTrace
 10
14.48487795572155
 20
-4.180279056572965
 30
0.0
 11
13.5141574278378
 21
-4.699093828776106
 31
0.0
 12
12.44307337517025
 22
-1.527524859023274
 32
0.0
 13
12.44307337517025
 23
-1.527524859023274
 33
0.0
  0
POINT
  5
23F
330
238
100
AcDbEntity
  8
Defpoints
 62
     0
100
AcDbPoint
 10
12.44307337517025
 20
-1.527524859023274
 30
0.0
  0
POINT
  5
240
330
238
100
AcDbEntity
  8
Defpoints
 62
     0
100
AcDbPoint
 10
12.20362040338419
 20
-1.079500000000003
 30
0.0
  0
ENDBLK
  5
23A
330
238
100
AcDbEntity
  8
0
100
AcDbBlockEnd
  0
BLOCK
  5
249
330
248
100
AcDbEntity
  8
0
100
AcDbBlockBegin
  2
*D17
 70
     1
 10
0.0
 20
0.0
 30
0.0
  3
*D17
  1
*D18
  0
LINE
  5
24B
330
248
100
AcDbEntity
  8
0
  6
Continuous
 62
     0
370
    -2
100
AcDbLine
 10
14.24347747004644
 20
-4.274362048362066
 30
0.0
 11
36.10801883822329
 21
-36.43887215845724
 31
0.0
  0
MTEXT
  5
24C
330
248
100
AcDbEntity
  8
0
 62
     0
370
    15
100
AcDbMText
 10
31.14625659164959
 20
-24.47040539539708
 30
0.0
 40
3.5
 41
0.0
 71
     5
 72
     1
  1
\A1;R0.25 [R.01]
  7
SLDTEXTSTYLE0
 11
0.5621812170816054
 21
-0.827014074342538
 31
0.0
 73
     1
 44
1.0
  0
LINE
  5
24D
330
248
100
AcDbEntity
  8
0
  6
Continuous
 62
     0
370
    -2
100
AcDbLine
 10
12.24436106210425
 20
-1.333499999999999
 30
0.0
 11
12.38715509124298
 21
-1.543561574883006
 31
0.0
  0
SOLID
  5
24E
330
248
100
AcDbEntity
  8
0
 62
     0
100
AcDbTrace
 10
14.69861088229295
 20
-3.964974985228156
 30
0.0
 11
13.78834405779993
 21
-4.583749111495976
 31
0.0
 12
12.38715509124298
 22
-1.543561574883006
 32
0.0
 13
12.38715509124298
 23
-1.543561574883006
 33
0.0
  0
POINT
  5
24F
330
248
100
AcDbEntity
  8
Defpoints
 62
     0
100
AcDbPoint
 10
12.38715509124298
 20
-1.543561574883006
 30
0.0
  0
POINT
  5
250
330
248
100
AcDbEntity
  8
Defpoints
 62
     0
100
AcDbPoint
 10
12.24436106210425
 20
-1.333499999999999
 30
0.0
  0
ENDBLK
  5
24A
330
248
100
AcDbEntity
  8
0
100
AcDbBlockEnd
  0
ENDSEC
  0
SECTION
  2
ENTITIES
  0
LINE
  5
B1
330
1F
100
AcDbEntity
  8
참조1
100
AcDbLine
 10
-15.39999999999998
 20
0.0010749287238892
 30
0.0
 11
-15.39999999999998
 21
-39.99892507127611
 31
0.0
  0
LINE
  5
B2
330
1F
100
AcDbEntity
  8
참조1
100
AcDbLine
 10
-15.39999999999998
 20
-39.99892507127611
 30
0.0
 11
-30.55885681430864
 21
-39.9989250712761
 31
0.0
  0
INSERT
  5
B4
330
1F
100
AcDbEntity
  8
0
  6
Continuous
 62
     7
100
AcDbBlockReference
 66
     1
  2
블럭10
 10
-29.34027293212519
 20
-52.04609937292004
 30
0.0
  0
ATTRIB
  5
B5
330
B4
100
AcDbEntity
  8
FORMAT
 62
     2
100
AcDbText
 10
-39.48190894426182
 20
-49.97073246008785
 30
0.0
 40
4.233333333333333
  1
EM639008 [ 4 FLUTE ]
 41
0.75
  7
SLDTEXTSTYLE0
 11
-39.48190894426182
 21
-52.08739912675452
 31
0.0
100
AcDbAttribute
  2
AUTOATTR0
 70
     0
 74
     1
  0
SEQEND
  5
B6
330
B4
100
AcDbEntity
  8
0
  6
Continuous
 62
     7
  0
HATCH
  5
B7
330
1F
100
AcDbEntity
  8
중심선
100
AcDbHatch
 10
0.0
 20
0.0
 30
0.0
210
0.0
220
0.0
230
1.0
  2
SOLID
 70
     1
 71
     0
 91
        1
 92
        0
 93
        4
 72
     1
 10
-23.62536362774434
 20
-35.7989250712761
 11
-27.07163887158162
 21
-35.7989250712761
 72
     1
 10
-27.07163887158162
 20
-35.7989250712761
 11
-29.19986873078565
 21
-38.3352506518487
 72
     1
 10
-29.19986873078565
 20
-38.3352506518487
 11
-25.75356040183521
 21
-38.33521122254621
 72
     1
 10
-25.75356040183521
 20
-38.33521122254621
 11
-23.62536362774434
 21
-35.7989250712761
 97
        0
 75
     0
 76
     1
 98
        1
 10
0.0
 20
0.0
  0
HATCH
  5
B8
330
1F
100
AcDbEntity
  8
중심선
100
AcDbHatch
 10
0.0
 20
0.0
 30
0.0
210
0.0
220
0.0
230
1.0
  2
SOLID
 70
     1
 71
     0
 91
        1
 92
        0
 93
        4
 72
     1
 10
-18.61259963670836
 20
-35.7989250712761
 11
-22.05887488054564
 21
-35.7989250712761
 72
     1
 10
-22.05887488054564
 20
-35.7989250712761
 11
-26.59001288890306
 21
-41.19892507127612
 72
     1
 10
-26.59001288890306
 20
-41.19892507127612
 11
-23.14373764506578
 21
-41.19892507127612
 72
     1
 10
-23.14373764506578
 20
-41.19892507127612
 11
-18.61259963670836
 21
-35.7989250712761
 97
        0
 75
     0
 76
     1
 98
        1
 10
0.0
 20
0.0
  0
HATCH
  5
B9
330
1F
100
AcDbEntity
  8
중심선
100
AcDbHatch
 10
0.0
 20
0.0
 30
0.0
210
0.0
220
0.0
230
1.0
  2
SOLID
 70
     1
 71
     0
 91
        1
 92
        0
 93
        4
 72
     1
 10
-13.59983564567249
 20
-35.7989250712761
 11
-17.04611088950961
 21
-35.7989250712761
 72
     1
 10
-17.04611088950961
 20
-35.7989250712761
 11
-24.09454779139886
 21
-44.19892507127612
 72
     1
 10
-24.09454779139886
 20
-44.19892507127612
 11
-20.64827254756158
 21
-44.19892507127612
 72
     1
 10
-20.64827254756158
 20
-44.19892507127612
 11
-13.59983564567249
 21
-35.7989250712761
 97
        0
 75
     0
 76
     1
 98
        1
 10
0.0
 20
0.0
  0
HATCH
  5
BA
330
1F
100
AcDbEntity
  8
중심선
100
AcDbHatch
 10
0.0
 20
0.0
 30
0.0
210
0.0
220
0.0
230
1.0
  2
SOLID
 70
     1
 71
     0
 91
        1
 92
        0
 93
        6
 72
     3
 10
-8.799945214660292
 20
-39.99892507132738
 11
3.960054785062284
 21
1.540850780301639E-10
 40
0.3939339440162633
 50
17.09539180608434
 51
320.0019657685073
 73
     0
 72
     1
 10
-7.116945558959697
 20
-38.58681907591438
 11
-4.81164368525866
 21
-36.65249236586649
 72
     3
 10
-8.799945214713139
 20
-39.99892507127625
 11
6.600054785286829
 21
-1.249000902703301E-13
 40
0.6363583540795982
 50
39.99873849337408
 51
368.4976242363724
 73
     1
 72
     1
 10
-2.37461272281253
 20
-39.03892507120613
 11
-10.11987790787722
 21
-39.0389250712061
 72
     1
 10
-10.11987790787722
 20
-39.0389250712061
 11
-10.11990295232315
 21
-40.95892507120602
 72
     1
 10
-10.11990295232315
 20
-40.95892507120602
 11
-5.678523182851114
 21
-40.95892507120599
 97
        0
 75
     0
 76
     1
 98
        1
 10
0.0
 20
0.0
  0
LINE
  5
108
330
1F
100
AcDbEntity
  8
참조1
100
AcDbLine
 10
67.41348381534561
 20
7.441074928723896
 30
0.0
 11
67.41348381534561
 21
-7.438925071276109
 31
0.0
  0
LINE
  5
109
330
1F
100
AcDbEntity
  8
참조1
100
AcDbLine
 10
80.11348381534562
 20
5.441074928723896
 30
0.0
 11
67.41348381534561
 21
5.441074928723896
 31
0.0
  0
SOLID
  5
10A
330
1F
100
AcDbEntity
  8
참조1
100
AcDbTrace
 10
67.41348381534561
 20
5.441074928723896
 30
0.0
 11
73.76348381534561
 21
4.425074928723896
 31
0.0
 12
73.76348381534561
 22
6.457074928723896
 32
0.0
 13
73.76348381534561
 23
6.457074928723896
 33
0.0
  0
LINE
  5
10B
330
1F
100
AcDbEntity
  8
참조1
100
AcDbLine
 10
80.11348381534562
 20
-5.438925071276109
 30
0.0
 11
67.41348381534561
 21
-5.438925071276109
 31
0.0
  0
SOLID
  5
10C
330
1F
100
AcDbEntity
  8
참조1
100
AcDbTrace
 10
67.41348381534561
 20
-5.438925071276109
 30
0.0
 11
73.76348381534561
 21
-6.454925071276109
 31
0.0
 12
73.76348381534561
 22
-4.422925071276109
 32
0.0
 13
73.76348381534561
 23
-4.422925071276109
 33
0.0
  0
MTEXT
  5
10D
330
1F
100
AcDbEntity
  8
참조1
100
AcDbMText
 10
76.81097390781589
 20
10.98929157337383
 30
0.0
 40
3.5
 41
0.0
 71
     1
 72
     1
  1
A
  7
SLDTEXTSTYLE0
 73
     1
 44
1.0
  0
MTEXT
  5
10E
330
1F
100
AcDbEntity
  8
참조1
100
AcDbMText
 10
76.81097390781589
 20
0.1092915733738251
 30
0.0
 40
3.5
 41
0.0
 71
     1
 72
     1
  1
A
  7
SLDTEXTSTYLE0
 73
     1
 44
1.0
  0
LINE
  5
1D9
330
1F
100
AcDbEntity
  8
0
  6
Continuous
 62
     1
370
    15
100
AcDbLine
 10
9.382932958996378
 20
1.587499999999999
 30
0.0
 11
8.414785514212511
 21
1.587499999999999
 31
0.0
  0
LINE
  5
1DA
330
1F
100
AcDbEntity
  8
0
  6
Continuous
 62
     1
370
    15
100
AcDbLine
 10
8.414785514212483
 20
-1.587500000000006
 30
0.0
 11
9.382932958996392
 21
-1.587500000000006
 31
0.0
  0
LINE
  5
1DB
330
1F
100
AcDbEntity
  8
외형선
  6
Continuous
370
    15
100
AcDbLine
 10
-44.01663893789576
 20
3.17499999999999
 30
0.0
 11
-44.65163893789575
 21
2.539999999999992
 31
0.0
  0
LINE
  5
1DC
330
1F
100
AcDbEntity
  8
외형선
  6
Continuous
370
    15
100
AcDbLine
 10
-44.65163893789575
 20
-2.540000000000006
 30
0.0
 11
-44.01663893789576
 21
-3.175000000000004
 31
0.0
  0
SPLINE
  5
1DD
330
1F
100
AcDbEntity
  8
0
  6
Continuous
 62
     1
370
    15
100
AcDbSpline
210
0.0
220
0.0
230
1.0
 70
     8
 71
     3
 72
    10
 73
     6
 74
     0
 42
0.000000001
 43
0.00000001
 40
0.0
 40
0.0
 40
0.0
 40
0.0
 40
0.5
 40
0.5
 40
1.0
 40
1.0
 40
1.0
 40
1.0
 10
12.49836106210425
 20
0.1556023142355656
 30
0.0
 10
12.49836106210425
 20
0.1527551136329706
 30
0.0
 10
12.48312619543763
 20
0.1558129280158269
 30
0.0
 10
12.43388786994059
 20
0.1755798379629354
 30
0.0
 10
12.40165914250808
 20
0.1917710359169362
 30
0.0
 10
12.37136106210427
 20
0.2091237410413598
 30
0.0
  0
SPLINE
  5
1DE
330
1F
100
AcDbEntity
  8
0
  6
Continuous
 62
     1
370
    15
100
AcDbSpline
210
0.0
220
0.0
230
1.0
 70
     8
 71
     3
 72
    10
 73
     6
 74
     0
 42
0.000000001
 43
0.00000001
 40
0.0
 40
0.0
 40
0.0
 40
0.0
 40
0.5
 40
0.5
 40
1.0
 40
1.0
 40
1.0
 40
1.0
 10
12.37136106210424
 20
0.7388993819475829
 30
0.0
 10
12.40441641924401
 20
0.7219959349426546
 30
0.0
 10
12.43469602837287
 20
0.6970876669696722
 30
0.0
 10
12.48190741377972
 20
0.6425899580413414
 30
0.0
 10
12.49836106210424
 20
0.6131528985508581
 30
0.0
 10
12.49836106210424
 20
0.5913381300875713
 30
0.0
  0
LINE
  5
1DF
330
1F
100
AcDbEntity
  8
0
  6
Continuous
 62
     1
370
    15
100
AcDbLine
 10
12.49836106210425
 20
0.1556023142355656
 30
0.0
 11
12.49836106210425
 21
0.5913381300875642
 31
0.0
  0
SPLINE
  5
1E0
330
1F
100
AcDbEntity
  8
0
  6
Continuous
 62
     1
370
    15
100
AcDbSpline
210
0.0
220
0.0
230
1.0
 70
     8
 71
     3
 72
    12
 73
     8
 74
     0
 42
0.000000001
 43
0.00000001
 40
0.0
 40
0.0
 40
0.0
 40
0.0
 40
0.0837042324723336
 40
0.3128079135494536
 40
0.5418921638820784
 40
0.7709553865287893
 40
0.9999999999999999
 40
0.9999999999999999
 40
0.9999999999999999
 40
0.9999999999999999
 10
9.382932958996378
 20
1.578824541968991
 30
0.0
 10
9.466306399198473
 20
1.580793701202062
 30
0.0
 10
9.777878121496684
 20
1.58815257151187
 30
0.0
 10
10.31773158359469
 20
1.509150922843538
 30
0.0
 10
11.0023315889902
 20
1.33418462546296
 30
0.0
 10
11.68687462654643
 20
1.075144379978873
 30
0.0
 10
12.14320509591018
 20
0.8509780126091684
 30
0.0
 10
12.37136106210424
 20
0.7388993819475829
 30
0.0
  0
SPLINE
  5
1E1
330
1F
100
AcDbEntity
  8
0
  6
Continuous
 62
     1
370
    15
100
AcDbSpline
210
0.0
220
0.0
230
1.0
 70
     8
 71
     3
 72
    11
 73
     7
 74
     0
 42
0.000000001
 43
0.00000001
 40
0.0
 40
0.0
 40
0.0
 40
0.0
 40
0.0938953081159456
 40
0.3959567190688295
 40
0.6979905530526253
 40
1.0
 40
1.0
 40
1.0
 40
1.0
 10
8.414785514212483
 20
-1.576982356556535
 30
0.0
 10
8.343847588955242
 20
-1.579971925312769
 30
0.0
 10
8.04470220346137
 20
-1.592578943276749
 30
0.0
 10
7.517382338676357
 20
-1.514059252889105
 30
0.0
 10
6.8328449370663
 20
-1.349868434987073
 30
0.0
 10
6.376516212639147
 20
-1.168676066257767
 30
0.0
 10
6.148361062104258
 20
-1.078083539532415
 30
0.0
  0
LINE
  5
1E2
330
1F
100
AcDbEntity
  8
외형선
  6
Continuous
370
    15
100
AcDbLine
 10
-44.01663893789576
 20
-0.0000000000000071
 30
0.0
 11
-44.01663893789576
 21
3.17499999999999
 31
0.0
  0
LINE
  5
1E3
330
1F
100
AcDbEntity
  8
외형선
  6
Continuous
370
    15
100
AcDbLine
 10
-44.01663893789576
 20
-3.175000000000011
 30
0.0
 11
-44.01663893789576
 21
-0.0000000000000071
 31
0.0
  0
LINE
  5
1E4
330
1F
100
AcDbEntity
  8
외형선
  6
Continuous
370
    15
100
AcDbLine
 10
-44.65163893789575
 20
-2.540000000000006
 30
0.0
 11
-44.65163893789575
 21
-0.0000000000000071
 31
0.0
  0
CIRCLE
  5
1E5
330
1F
100
AcDbEntity
  8
해칭선
100
AcDbCircle
 10
0.0
 20
0.0
 30
0.0
 40
3.000000000000001
  0
DIMENSION
  5
1E6
330
1F
100
AcDbEntity
  8
0
  6
Continuous
 62
     0
370
    15
100
AcDbDimension
  2
*D12
 10
-57.58913893789578
 20
-3.175000000000077
 30
0.0
 11
-57.58913893789578
 21
-1.318960617964109
 31
0.0
 70
   160
  1
%%c<>
 71
     2
 42
6.350000000000016
 52
-270.0
  3
SLDDIMSTYLE2
100
AcDbAlignedDimension
 13
-43.95413893789576
 23
3.17499999999999
 33
0.0
 14
-43.95413893789576
 24
-3.175000000000026
 34
0.0
 50
90.0000000000002
100
AcDbRotatedDimension
1001
ACAD
1000
DSTYLE
1002
{
1070
   171
1070
     6
1070
   273
1070
     7
1002
}
  0
DIMENSION
  5
1E7
330
1F
100
AcDbEntity
  8
0
  6
Continuous
 62
     0
370
    15
100
AcDbDimension
  2
*D13
 10
-44.65163893789575
 20
30.06070464653867
 30
0.0
 11
-16.07663893789575
 21
30.06070464653867
 31
0.0
 70
   160
  1
<>
 71
     2
 42
57.15
  3
SLDDIMSTYLE1
100
AcDbAlignedDimension
 13
12.49836106210425
 23
3.174999999999997
 33
0.0
 14
-44.65163893789575
 24
2.539999999999992
 34
0.0
 50
0.0000000000000053
100
AcDbRotatedDimension
1001
ACAD
1000
DSTYLE
1002
{
1070
   171
1070
     6
1070
   273
1070
     7
1002
}
  0
DIMENSION
  5
1E8
330
1F
100
AcDbEntity
  8
0
  6
Continuous
 62
     0
370
    15
100
AcDbDimension
  2
*D14
 10
6.148361062104257
 20
13.19913874761557
 30
0.0
 11
-11.83063893789574
 21
13.19913874761557
 31
0.0
 70
   160
  1
<>
 71
     2
 42
6.349999999999993
  3
SLDDIMSTYLE2
100
AcDbAlignedDimension
 13
12.49836106210425
 23
3.174999999999997
 33
0.0
 14
6.148361062104258
 24
1.587499999999999
 34
0.0
100
AcDbRotatedDimension
1001
ACAD
1000
DSTYLE
1002
{
1070
   171
1070
     6
1070
   273
1070
     7
1002
}
  0
DIMENSION
  5
1E9
330
1F
100
AcDbEntity
  8
0
  6
Continuous
 62
     0
370
    15
100
AcDbDimension
  2
*D15
 10
31.49836106210434
 20
-1.587499999999928
 30
0.0
 11
31.49836106210425
 21
23.42275000000007
 31
0.0
 70
   160
  1
%%c<>
 71
     2
 42
3.174999999999998
 52
-270.0
  3
SLDDIMSTYLE3
100
AcDbAlignedDimension
 13
12.49836106210425
 23
1.587499999999999
 33
0.0
 14
12.49836106210425
 24
-1.587499999999999
 34
0.0
 50
90.0000000000002
100
AcDbRotatedDimension
1001
ACAD
1000
DSTYLE
1002
{
1070
   171
1070
     6
1070
   273
1070
     7
1002
}
  0
INSERT
  5
1EA
330
1F
100
AcDbEntity
  8
해칭선
100
AcDbBlockReference
  2
SW_DOWELSYMBOL_0
 10
0.0
 20
0.0
 30
0.0
  0
SPLINE
  5
1EB
330
1F
100
AcDbEntity
  8
0
  6
Continuous
 62
     1
370
    15
100
AcDbSpline
210
0.0
220
0.0
230
1.0
 70
  1080
 71
     3
 72
     8
 73
     4
 74
     2
 42
0.000000001
 43
0.0000000001
 44
0.0
 40
0.0
 40
0.0
 40
0.0
 40
0.0
 40
1.33422893775561
 40
1.33422893775561
 40
1.33422893775561
 40
1.33422893775561
 10
6.148361062104258
 20
1.587499999999999
 30
0.0
 10
6.556825629515956
 20
1.411565311086745
 30
0.0
 10
6.965290196927654
 20
1.235630622173491
 30
0.0
 10
7.373754764339354
 20
1.059695933260237
 30
0.0
 11
6.148361062104258
 21
1.587499999999999
 31
0.0
 11
7.373754764339354
 21
1.059695933260237
 31
0.0
  0
SPLINE
  5
1EC
330
1F
100
AcDbEntity
  8
0
  6
Continuous
 62
     1
370
    15
100
AcDbSpline
210
0.0
220
0.0
230
1.0
 70
     8
 71
     3
 72
    32
 73
    28
 74
     0
 42
0.000000001
 43
0.00000001
 40
0.0053141636547453
 40
0.0053141636547453
 40
0.0053141636547453
 40
0.0053141636547453
 40
0.0625
 40
0.0625
 40
0.125
 40
0.125
 40
0.1875
 40
0.1875
 40
0.2499999999999999
 40
0.2499999999999999
 40
0.3124999999999999
 40
0.3124999999999999
 40
0.3749999999999999
 40
0.3749999999999999
 40
0.4374999999999999
 40
0.4374999999999999
 40
0.4999999999999999
 40
0.4999999999999999
 40
0.5625
 40
0.5625
 40
0.625
 40
0.625
 40
0.6875
 40
0.6875
 40
0.75
 40
0.75
 40
0.80322265625
 40
0.80322265625
 40
0.80322265625
 40
0.80322265625
 10
12.4905335787358
 20
-1.396070696458457
 30
0.0
 10
12.21966829478029
 20
-1.36346683715491
 30
0.0
 10
12.10019024876991
 20
-1.326879245949363
 30
0.0
 10
11.85150876947294
 20
-1.242895003383261
 30
0.0
 10
11.7234081165449
 20
-1.194960023220894
 30
0.0
 10
11.4638383368145
 20
-1.09104672189342
 30
0.0
 10
11.33317697600826
 20
-1.035141688343977
 30
0.0
 10
11.07400769480748
 20
-0.9171172108644399
 30
0.0
 10
10.94577154386714
 20
-0.8550675517573652
 30
0.0
 10
10.68576649766081
 20
-0.725120456176704
 30
0.0
 10
10.55517933708697
 20
-0.6573989755942407
 30
0.0
 10
10.2967348146786
 20
-0.5185113502451202
 30
0.0
 10
10.1679707014857
 20
-0.4471955235610423
 30
0.0
 10
9.90770310742873
 20
-0.3015515217631943
 30
0.0
 10
9.777277798689184
 20
-0.2274197410582985
 30
0.0
 10
9.519727306420492
 20
-0.078767483424194
 30
0.0
 10
9.390043930969213
 20
-0.0037572475722101
 30
0.0
 10
9.129687090162761
 20
0.1459804894120751
 30
0.0
 10
8.999971471660302
 20
0.22052028491035
 30
0.0
 10
8.74244920720065
 20
0.3672815369559075
 30
0.0
 10
8.612029853218715
 20
0.4399957634974214
 30
0.0
 10
8.351757264925908
 20
0.5818929572365832
 30
0.0
 10
8.222972148597776
 20
0.650889379012277
 30
0.0
 10
7.964551007909862
 20
0.7842592739175984
 30
0.0
 10
7.833967282991794
 20
0.848780447238326
 30
0.0
 10
7.593250249432871
 20
0.9624234184344331
 30
0.0
 10
7.48381819907273
 20
1.01229179528756
 30
0.0
 10
7.373754764339354
 20
1.059695933260237
 30
0.0
  0
SPLINE
  5
1ED
330
1F
100
AcDbEntity
  8
0
  6
Continuous
 62
     1
370
    15
100
AcDbSpline
210
0.0
220
0.0
230
1.0
 70
     8
 71
     3
 72
    17
 73
    13
 74
     0
 42
0.000000001
 43
0.00000001
 40
0.0
 40
0.0
 40
0.0
 40
0.0
 40
0.1033196360155571
 40
0.2066132765736642
 40
0.3097877073056019
 40
0.4129220532579539
 40
0.5160959208058731
 40
0.6193884417512756
 40
0.7410595586017719
 40
0.8627199473810325
 40
0.9843692290653152
 40
0.9931107239744074
 40
0.9931107239744074
 40
0.9931107239744074
 40
0.9931107239744074
 10
12.37136106210427
 20
0.2091237410413669
 30
0.0
 10
12.17756798839873
 20
0.3190467071757439
 30
0.0
 10
11.79003059976959
 20
0.538864982574033
 30
0.0
 10
11.20896721511249
 20
0.8420108184196806
 30
0.0
 10
10.6284471309791
 20
1.108527749554831
 30
0.0
 10
10.04817755112094
 20
1.325508247991316
 30
0.0
 10
9.467658259470085
 20
1.483780758367878
 30
0.0
 10
8.852190540108111
 20
1.581084116047542
 30
0.0
 10
8.201986402953779
 20
1.600460943849264
 30
0.0
 10
7.517383371165466
 20
1.514532977588487
 30
0.0
 10
7.044607101426991
 20
1.410227983609609
 30
0.0
 10
6.800036472962504
 20
1.319992553074599
 30
0.0
 10
6.783640286261844
 20
1.31387124100273
 30
0.0
  0
SPLINE
  5
1EE
330
1F
100
AcDbEntity
  8
0
  6
Continuous
 62
     1
370
    15
100
AcDbSpline
210
0.0
220
0.0
230
1.0
 70
     8
 71
     3
 72
     9
 73
     5
 74
     0
 42
0.000000001
 43
0.0000000001
 40
0.0
 40
0.0
 40
0.0
 40
0.0
 40
1.400987775349233
 40
1.943907794334781
 40
1.943907794334781
 40
1.943907794334781
 40
1.943907794334781
 10
6.148361062104258
 20
-1.587499999999999
 30
0.0
 10
6.459671339073766
 20
-1.573671480938756
 30
0.0
 10
6.891622626947552
 20
-1.554484043003718
 30
0.0
 10
7.32025673170945
 20
-1.504079110531251
 30
0.0
 10
7.439778402994691
 20
-1.488186260528416
 30
0.0
  0
SPLINE
  5
1EF
330
1F
100
AcDbEntity
  8
0
  6
Continuous
 62
     1
370
    15
100
AcDbSpline
210
0.0
220
0.0
230
1.0
 70
     8
 71
     3
 72
    10
 73
     6
 74
     0
 42
0.000000001
 43
0.00000001
 40
0.0
 40
0.0
 40
0.0
 40
0.0
 40
0.4440268977639873
 40
0.8879420773418426
 40
0.9353798249026449
 40
0.9353798249026449
 40
0.9353798249026449
 40
0.9353798249026449
 10
12.24436106210425
 20
1.587499999999999
 30
0.0
 10
11.92593661400873
 20
1.581315816478984
 30
0.0
 10
11.62070315579088
 20
1.506624478386243
 30
0.0
 10
11.21243744086452
 20
1.409836808825439
 30
0.0
 10
10.99804525836026
 20
1.335351552396816
 30
0.0
 10
10.97734710079266
 20
1.328033278288309
 30
0.0
  0
LINE
  5
1F0
330
1F
100
AcDbEntity
  8
0
  6
Continuous
 62
     1
370
    15
100
AcDbLine
 10
12.49836106210425
 20
0.5913381300875642
 30
0.0
 11
12.49836106210425
 21
1.333499999999999
 31
0.0
  0
SPLINE
  5
1F3
330
1F
100
AcDbEntity
  8
0
  6
Continuous
 62
     1
370
    15
100
AcDbSpline
210
0.0
220
0.0
230
1.0
 70
     8
 71
     3
 72
    15
 73
    11
 74
     0
 42
0.000000001
 43
0.00000001
 40
0.0
 40
0.0
 40
0.0
 40
0.0
 40
0.1183026471723103
 40
0.2365796185667716
 40
0.3547190133627428
 40
0.4728114192731241
 40
0.5909479882274168
 40
0.7092193418341672
 40
0.8485371472210375
 40
0.9661185162782178
 40
0.9661185162782178
 40
0.9661185162782178
 40
0.9661185162782178
 10
6.148361062104258
 20
-0.6101806204269522
 30
0.0
 10
6.342150002477994
 20
-0.7107595827095636
 30
0.0
 10
6.729685824303702
 20
-0.9118956781513035
 30
0.0
 10
7.310755234517843
 20
-1.165681998704173
 30
0.0
 10
7.891281366197476
 20
-1.369678196230801
 30
0.0
 10
8.471551067995648
 20
-1.512356741594893
 30
0.0
 10
9.052064190742229
 20
-1.58752448283807
 30
0.0
 10
9.667523790246847
 20
-1.594186340558878
 30
0.0
 10
10.28213608730279
 20
-1.511898959558607
 30
0.0
 10
10.70297618078699
 20
-1.42002948291352
 30
0.0
 10
10.89558981428064
 20
-1.357200318242292
 30
0.0
  0
LINE
  5
1F5
330
1F
100
AcDbEntity
  8
0
  6
Continuous
 62
     1
370
    15
100
AcDbLine
 10
12.49836106210425
 20
-1.333499999999999
 30
0.0
 11
12.49836106210425
 21
0.155305486403428
 31
0.0
  0
SPLINE
  5
1F6
330
1F
100
AcDbEntity
  8
0
  6
Continuous
 62
     1
370
    15
100
AcDbSpline
210
0.0
220
0.0
230
1.0
 70
     8
 71
     3
 72
    38
 73
    34
 74
     0
 42
0.000000001
 43
0.00000001
 40
0.0
 40
0.0
 40
0.0
 40
0.0
 40
0.0625
 40
0.0625
 40
0.125
 40
0.125
 40
0.1874999999999999
 40
0.1874999999999999
 40
0.2499999999999999
 40
0.2499999999999999
 40
0.3125
 40
0.3125
 40
0.375
 40
0.375
 40
0.4375000000000001
 40
0.4375000000000001
 40
0.5000000000000001
 40
0.5000000000000001
 40
0.5625000000000001
 40
0.5625000000000001
 40
0.6250000000000001
 40
0.6250000000000001
 40
0.6875000000000001
 40
0.6875000000000001
 40
0.75
 40
0.75
 40
0.8125
 40
0.8125
 40
0.875
 40
0.875
 40
0.9375
 40
0.9375
 40
0.945729055112304
 40
0.945729055112304
 40
0.945729055112304
 40
0.945729055112304
 10
12.24436106210425
 20
-1.587499999999999
 30
0.0
 10
11.90321301608391
 20
-1.574522400516067
 30
0.0
 10
11.77256527357856
 20
-1.548658202412774
 30
0.0
 10
11.51284210280629
 20
-1.508180399355986
 30
0.0
 10
11.38474144987823
 20
-1.482953263443456
 30
0.0
 10
11.12517167014785
 20
-1.4225855549358
 30
0.0
 10
10.99451030934156
 20
-1.387463258411131
 30
0.0
 10
10.73534102814081
 20
-1.308406259892962
 30
0.0
 10
10.60710487720051
 20
-1.264538375493181
 30
0.0
 10
10.34709983099417
 20
-1.168270247023706
 30
0.0
 10
10.2165126704203
 20
-1.115982110543733
 30
0.0
 10
9.958068148011932
 20
-1.004705688891242
 30
0.0
 10
9.829304034819032
 20
-0.9456101813497284
 30
0.0
 10
9.569036440762076
 20
-0.8210840553883827
 30
0.0
 10
9.43861113202253
 20
-0.7558092298917174
 30
0.0
 10
9.181060639753824
 20
-0.6212389468502693
 30
0.0
 10
9.051377264302573
 20
-0.5515049237603549
 30
0.0
 10
8.791020423496136
 20
-0.4086346215478542
 30
0.0
 10
8.661304804993634
 20
-0.3356771933426828
 30
0.0
 10
8.403782540533996
 20
-0.1883826946832485
 30
0.0
 10
8.27336318655209
 20
-0.1135464548934522
 30
0.0
 10
8.013090598259282
 20
0.0362811836734025
 30
0.0
 10
7.884305481931151
 20
0.1110633359223314
 30
0.0
 10
7.625884341243194
 20
0.2595572952305645
 30
0.0
 10
7.49530061632514
 20
0.3334465992991369
 30
0.0
 10
7.235285592734088
 20
0.4782898884292379
 30
0.0
 10
7.107039724863356
 20
0.5490332527938406
 30
0.0
 10
6.847888927835997
 20
0.6868856789185003
 30
0.0
 10
6.717228475857227
 20
0.7539332719316221
 30
0.0
 10
6.457643757715403
 20
0.8822586200608171
 30
0.0
 10
6.329544695500489
 20
0.9434247131890672
 30
0.0
 10
6.182592564481198
 20
1.009173727413973
 30
0.0
 10
6.165481471910042
 20
1.016767171748086
 30
0.0
 10
6.148361062104258
 20
1.024302565399232
 30
0.0
  0
LINE
  5
1F7
330
1F
100
AcDbEntity
  8
외형선
  6
Continuous
370
    15
100
AcDbLine
 10
6.148361062104258
 20
1.587499999999999
 30
0.0
 11
6.148361062104258
 21
-1.587499999999999
 31
0.0
  0
LINE
  5
1FA
330
1F
100
AcDbEntity
  8
외형선
  6
Continuous
370
    15
100
AcDbLine
 10
0.0
 20
-3.17499999999999
 30
0.0
 11
0.0
 21
3.17499999999999
 31
0.0
  0
LINE
  5
1FB
330
1F
100
AcDbEntity
  8
외형선
  6
Continuous
370
    15
100
AcDbLine
 10
-44.65163893789575
 20
-0.0000000000000071
 30
0.0
 11
-44.65163893789575
 21
2.539999999999992
 31
0.0
  0
LINE
  5
1FC
330
1F
100
AcDbEntity
  8
중심선
 48
0.8
100
AcDbLine
 10
-47.65163893789575
 20
-0.0000000000000071
 30
0.0
 11
15.49836106210425
 21
0.0
 31
0.0
  0
LINE
  5
1FD
330
1F
100
AcDbEntity
  8
외형선
  6
Continuous
370
    15
100
AcDbLine
 10
-0.0000000000000002
 20
3.17499999999999
 30
0.0
 11
-44.01663893789577
 21
3.17499999999999
 31
0.0
  0
LINE
  5
1FE
330
1F
100
AcDbEntity
  8
외형선
  6
Continuous
370
    15
100
AcDbLine
 10
-44.01663893789576
 20
-3.175000000000011
 30
0.0
 11
-0.0000000000000062
 21
-3.175000000000011
 31
0.0
  0
ARC
  5
243
330
1F
100
AcDbEntity
  8
0
  6
Continuous
 62
     1
370
    15
100
AcDbCircle
 10
12.24436106210425
 20
1.333499999999999
 30
0.0
 40
0.2539999999999999
100
AcDbArc
 50
0.0
 51
92.36188277976296
  0
ARC
  5
244
330
1F
100
AcDbEntity
  8
0
  6
Continuous
 62
     1
370
    15
100
AcDbCircle
 10
12.24436106210425
 20
-1.333499999999999
 30
0.0
 40
0.2539999999999999
100
AcDbArc
 50
267.638117220237
 51
0.0
  0
DIMENSION
  5
245
330
1F
100
AcDbEntity
  8
0
  6
Continuous
 62
     0
370
    15
100
AcDbDimension
  2
*D17
 10
12.24436106210425
 20
-1.333499999999999
 30
0.0
 11
28.97534464650042
 21
-25.9461310902363
 31
0.0
 70
   164
  1
<>
 71
     5
 42
0.2540000000000021
  3
SLDDIMSTYLE3
100
AcDbRadialDimension
 15
12.38715509124298
 25
-1.543561574883004
 35
0.0
 40
0.0
1001
ACAD
1000
DSTYLE
1002
{
1070
   285
1070
     4
1070
    78
1070
     8
1070
   171
1070
     2
1070
   273
1070
     2
1002
}
1001
ACAD_DSTYLE_DIMRADIAL_EXTENSION
1070
   387
1070
     1
1070
   388
1040
4.671166349331663
1070
   390
1040
0.0
  0
ARC
  5
274
330
1F
100
AcDbEntity
  8
외형선
  6
Continuous
370
    15
100
AcDbCircle
 10
6.148361062104265
 20
14.28749999999999
 30
0.0
 40
12.7
100
AcDbArc
 50
241.0449756281402
 51
269.9999999999999
1001
PE_URL
1000

  0
ARC
  5
276
330
1F
100
AcDbEntity
  8
외형선
  6
Continuous
370
    15
100
AcDbCircle
 10
6.148361062104265
 20
-14.28749999999999
 30
0.0
 40
12.7
100
AcDbArc
 50
90.00000000000006
 51
118.9550243718598
1001
PE_URL
1000

  0
ENDSEC
  0
SECTION
  2
OBJECTS
  0
DICTIONARY
  5
C
330
0
100
AcDbDictionary
281
     1
  3
ACAD_GROUP
350
D
  3
ACAD_IMAGE_VARS
350
139
  3
ACAD_LAYOUT
350
1A
  3
ACAD_MLINESTYLE
350
17
  3
ACAD_PLOTSETTINGS
350
19
  3
ACAD_PLOTSTYLENAME
350
E
  3
ACAD_SCALELIST
350
47
  3
APPDATA
350
137
  3
DWGPROPS
350
27A
  0
DICTIONARY
  5
1D4
330
2
100
AcDbDictionary
280
     1
281
     1
  3
ACAD_LAYERSTATES
360
1D5
  0
DICTIONARY
  5
277
330
1F
100
AcDbDictionary
280
     1
281
     1
  3
DIM_BOUNDING_BOXES_V1
360
278
  0
DICTIONARY
  5
D
102
{ACAD_REACTORS
330
C
102
}
330
C
100
AcDbDictionary
281
     1
  0
RASTERVARIABLES
  5
139
102
{ACAD_REACTORS
330
C
102
}
330
C
100
AcDbRasterVariables
 90
        0
 70
     1
 71
     1
 72
     1
  0
DICTIONARY
  5
1A
102
{ACAD_REACTORS
330
C
102
}
330
C
100
AcDbDictionary
281
     1
  3
Layout1
350
1E
  3
Layout2
350
26
  3
Model
350
22
  0
DICTIONARY
  5
17
102
{ACAD_REACTORS
330
C
102
}
330
C
100
AcDbDictionary
281
     1
  3
Standard
350
18
  0
DICTIONARY
  5
19
102
{ACAD_REACTORS
330
C
102
}
330
C
100
AcDbDictionary
281
     1
  0
ACDBDICTIONARYWDFLT
  5
E
102
{ACAD_REACTORS
330
C
102
}
330
C
100
AcDbDictionary
281
     1
  3
Normal
350
F
100
AcDbDictionaryWithDefault
340
F
  0
DICTIONARY
  5
47
102
{ACAD_REACTORS
330
C
102
}
330
C
100
AcDbDictionary
281
     1
  3
A0
350
48
  3
A1
350
49
  3
A2
350
4A
  3
A3
350
4B
  3
A4
350
4C
  3
A5
350
4D
  3
A6
350
4E
  3
A7
350
4F
  3
A8
350
50
  3
A9
350
51
  3
B0
350
52
  3
B1
350
53
  3
B2
350
54
  3
B3
350
55
  3
B4
350
56
  3
B5
350
57
  3
B6
350
58
  3
B7
350
59
  3
B8
350
5A
  3
B9
350
5B
  3
C0
350
5C
  3
C1
350
5D
  3
C2
350
5E
  3
C3
350
5F
  3
C4
350
60
  3
C5
350
61
  3
C6
350
62
  3
C7
350
63
  3
C8
350
64
  3
C9
350
65
  3
D0
350
66
  3
D1
350
67
  3
D2
350
68
  0
DICTIONARY
  5
137
102
{ACAD_REACTORS
330
C
102
}
330
C
100
AcDbDictionary
281
     1
  0
XRECORD
  5
27A
102
{ACAD_REACTORS
330
C
102
}
330
C
100
AcDbXrecord
280
     1
  1
DWGPROPS COOKIE
  2

  3

  4

  6

  7

  8
12016016
  9

300
=
301
=
302
=
303
=
304
=
305
=
306
=
307
=
308
=
309
=
 40
0.0
 41
2458296.31238522
 42
2459703.265028924
  1

 90
        0
  0
DICTIONARY
  5
1D5
102
{ACAD_REACTORS
330
1D4
102
}
330
1D4
100
AcDbDictionary
281
     1
  0
DICTIONARY
  5
278
102
{ACAD_REACTORS
330
277
102
}
330
277
100
AcDbDictionary
281
     1
  0
LAYOUT
  5
1E
102
{ACAD_REACTORS
330
1A
102
}
330
1A
100
AcDbPlotSettings
  1

  2
none_device
  4

  6

 40
0.0
 41
0.0
 42
0.0
 43
0.0
 44
0.0
 45
0.0
 46
0.0
 47
0.0
 48
0.0
 49
0.0
140
0.0
141
0.0
142
1.0
143
1.0
 70
   688
 72
     1
 73
     0
 74
     5
  7

 75
    16
147
1.0
148
0.0
149
0.0
100
AcDbLayout
  1
Layout1
 70
     1
 71
     1
 10
0.0
 20
0.0
 11
420.0
 21
297.0
 12
0.0
 22
0.0
 32
0.0
 14
1.000000000000000E+20
 24
1.000000000000000E+20
 34
1.000000000000000E+20
 15
-1.000000000000000E+20
 25
-1.000000000000000E+20
 35
-1.000000000000000E+20
146
0.0
 13
0.0
 23
0.0
 33
0.0
 16
1.0
 26
0.0
 36
0.0
 17
0.0
 27
1.0
 37
0.0
 76
     0
330
1B
  0
LAYOUT
  5
26
102
{ACAD_REACTORS
330
1A
102
}
330
1A
100
AcDbPlotSettings
  1

  2
none_device
  4

  6

 40
0.0
 41
0.0
 42
0.0
 43
0.0
 44
0.0
 45
0.0
 46
0.0
 47
0.0
 48
0.0
 49
0.0
140
0.0
141
0.0
142
1.0
143
1.0
 70
   688
 72
     1
 73
     0
 74
     5
  7

 75
    16
147
1.0
148
0.0
149
0.0
100
AcDbLayout
  1
Layout2
 70
     1
 71
     2
 10
0.0
 20
0.0
 11
0.0
 21
0.0
 12
0.0
 22
0.0
 32
0.0
 14
0.0
 24
0.0
 34
0.0
 15
0.0
 25
0.0
 35
0.0
146
0.0
 13
0.0
 23
0.0
 33
0.0
 16
1.0
 26
0.0
 36
0.0
 17
0.0
 27
1.0
 37
0.0
 76
     0
330
23
  0
LAYOUT
  5
22
102
{ACAD_REACTORS
330
1A
102
}
330
1A
100
AcDbPlotSettings
  1

  2
none_device
  4
ANSI_A_(11.00_x_8.50_Inches)
  6

 40
6.35
 41
19.05
 42
6.35000508
 43
19.05000254
 44
279.4
 45
215.9
 46
109.4444827120707
 47
100.4304516308396
 48
0.0
 49
0.0
140
0.0
141
0.0
142
0.0797139469389385
143
1.0
 70
  1696
 72
     0
 73
     0
 74
     0
  7

 75
     0
147
0.0235690232323232
148
0.0
149
0.0
100
AcDbLayout
  1
Model
 70
     1
 71
     0
 10
0.0
 20
0.0
 11
420.0
 21
297.0
 12
0.0
 22
0.0
 32
0.0
 14
-61.96413893789582
 24
-49.97073246008785
 34
0.0
 15
80.11348381534562
 25
35.67275000000007
 35
0.0
146
0.0
 13
0.0
 23
0.0
 33
0.0
 16
1.0
 26
0.0
 36
0.0
 17
0.0
 27
1.0
 37
0.0
 76
     0
330
1F
331
29
  0
MLINESTYLE
  5
18
102
{ACAD_REACTORS
330
17
102
}
330
17
100
AcDbMlineStyle
  2
Standard
 70
     0
  3

 62
   256
 51
90.0
 52
90.0
 71
     2
 49
0.5
 62
   256
  6
BYLAYER
 49
-0.5
 62
   256
  6
BYLAYER
  0
ACDBPLACEHOLDER
  5
F
102
{ACAD_REACTORS
330
E
102
}
330
E
  0
SCALE
  5
48
102
{ACAD_REACTORS
330
47
102
}
330
47
100
AcDbScale
 70
     0
300
1:1
140
1.0
141
1.0
290
     1
  0
SCALE
  5
49
102
{ACAD_REACTORS
330
47
102
}
330
47
100
AcDbScale
 70
     0
300
1:2
140
1.0
141
2.0
290
     0
  0
SCALE
  5
4A
102
{ACAD_REACTORS
330
47
102
}
330
47
100
AcDbScale
 70
     0
300
1:4
140
1.0
141
4.0
290
     0
  0
SCALE
  5
4B
102
{ACAD_REACTORS
330
47
102
}
330
47
100
AcDbScale
 70
     0
300
1:5
140
1.0
141
5.0
290
     0
  0
SCALE
  5
4C
102
{ACAD_REACTORS
330
47
102
}
330
47
100
AcDbScale
 70
     0
300
1:8
140
1.0
141
8.0
290
     0
  0
SCALE
  5
4D
102
{ACAD_REACTORS
330
47
102
}
330
47
100
AcDbScale
 70
     0
300
1:10
140
1.0
141
10.0
290
     0
  0
SCALE
  5
4E
102
{ACAD_REACTORS
330
47
102
}
330
47
100
AcDbScale
 70
     0
300
1:16
140
1.0
141
16.0
290
     0
  0
SCALE
  5
4F
102
{ACAD_REACTORS
330
47
102
}
330
47
100
AcDbScale
 70
     0
300
1:20
140
1.0
141
20.0
290
     0
  0
SCALE
  5
50
102
{ACAD_REACTORS
330
47
102
}
330
47
100
AcDbScale
 70
     0
300
1:30
140
1.0
141
30.0
290
     0
  0
SCALE
  5
51
102
{ACAD_REACTORS
330
47
102
}
330
47
100
AcDbScale
 70
     0
300
1:40
140
1.0
141
40.0
290
     0
  0
SCALE
  5
52
102
{ACAD_REACTORS
330
47
102
}
330
47
100
AcDbScale
 70
     0
300
1:50
140
1.0
141
50.0
290
     0
  0
SCALE
  5
53
102
{ACAD_REACTORS
330
47
102
}
330
47
100
AcDbScale
 70
     0
300
1:100
140
1.0
141
100.0
290
     0
  0
SCALE
  5
54
102
{ACAD_REACTORS
330
47
102
}
330
47
100
AcDbScale
 70
     0
300
2:1
140
2.0
141
1.0
290
     0
  0
SCALE
  5
55
102
{ACAD_REACTORS
330
47
102
}
330
47
100
AcDbScale
 70
     0
300
4:1
140
4.0
141
1.0
290
     0
  0
SCALE
  5
56
102
{ACAD_REACTORS
330
47
102
}
330
47
100
AcDbScale
 70
     0
300
8:1
140
8.0
141
1.0
290
     0
  0
SCALE
  5
57
102
{ACAD_REACTORS
330
47
102
}
330
47
100
AcDbScale
 70
     0
300
10:1
140
10.0
141
1.0
290
     0
  0
SCALE
  5
58
102
{ACAD_REACTORS
330
47
102
}
330
47
100
AcDbScale
 70
     0
300
100:1
140
100.0
141
1.0
290
     0
  0
SCALE
  5
59
102
{ACAD_REACTORS
330
47
102
}
330
47
100
AcDbScale
 70
     0
300
1/128" = 1'-0"
140
0.0078125
141
12.0
290
     0
  0
SCALE
  5
5A
102
{ACAD_REACTORS
330
47
102
}
330
47
100
AcDbScale
 70
     0
300
1/64" = 1'-0"
140
0.015625
141
12.0
290
     0
  0
SCALE
  5
5B
102
{ACAD_REACTORS
330
47
102
}
330
47
100
AcDbScale
 70
     0
300
1/32" = 1'-0"
140
0.03125
141
12.0
290
     0
  0
SCALE
  5
5C
102
{ACAD_REACTORS
330
47
102
}
330
47
100
AcDbScale
 70
     0
300
1/16" = 1'-0"
140
0.0625
141
12.0
290
     0
  0
SCALE
  5
5D
102
{ACAD_REACTORS
330
47
102
}
330
47
100
AcDbScale
 70
     0
300
3/32" = 1'-0"
140
0.09375
141
12.0
290
     0
  0
SCALE
  5
5E
102
{ACAD_REACTORS
330
47
102
}
330
47
100
AcDbScale
 70
     0
300
1/8" = 1'-0"
140
0.125
141
12.0
290
     0
  0
SCALE
  5
5F
102
{ACAD_REACTORS
330
47
102
}
330
47
100
AcDbScale
 70
     0
300
3/16" = 1'-0"
140
0.1875
141
12.0
290
     0
  0
SCALE
  5
60
102
{ACAD_REACTORS
330
47
102
}
330
47
100
AcDbScale
 70
     0
300
1/4" = 1'-0"
140
0.25
141
12.0
290
     0
  0
SCALE
  5
61
102
{ACAD_REACTORS
330
47
102
}
330
47
100
AcDbScale
 70
     0
300
3/8" = 1'-0"
140
0.375
141
12.0
290
     0
  0
SCALE
  5
62
102
{ACAD_REACTORS
330
47
102
}
330
47
100
AcDbScale
 70
     0
300
1/2" = 1'-0"
140
0.5
141
12.0
290
     0
  0
SCALE
  5
63
102
{ACAD_REACTORS
330
47
102
}
330
47
100
AcDbScale
 70
     0
300
3/4" = 1'-0"
140
0.75
141
12.0
290
     0
  0
SCALE
  5
64
102
{ACAD_REACTORS
330
47
102
}
330
47
100
AcDbScale
 70
     0
300
1" = 1'-0"
140
1.0
141
12.0
290
     0
  0
SCALE
  5
65
102
{ACAD_REACTORS
330
47
102
}
330
47
100
AcDbScale
 70
     0
300
1-1/2" = 1'-0"
140
1.5
141
12.0
290
     0
  0
SCALE
  5
66
102
{ACAD_REACTORS
330
47
102
}
330
47
100
AcDbScale
 70
     0
300
3" = 1'-0"
140
3.0
141
12.0
290
     0
  0
SCALE
  5
67
102
{ACAD_REACTORS
330
47
102
}
330
47
100
AcDbScale
 70
     0
300
6" = 1'-0"
140
6.0
141
12.0
290
     0
  0
SCALE
  5
68
102
{ACAD_REACTORS
330
47
102
}
330
47
100
AcDbScale
 70
     0
300
1'-0" = 1'-0"
140
12.0
141
12.0
290
     0
  0
ENDSEC
  0
EOF
