  0
SECTION
  2
HEADER
  9
$ACADVER
  1
AC1015
  9
$ACADMAINTVER
 70
     6
  9
$DWGCODEPAGE
  3
ANSI_949
  9
$INSBASE
 10
0.0
 20
0.0
 30
0.0
  9
$EXTMIN
 10
1.000000000000000E+20
 20
1.000000000000000E+20
 30
1.000000000000000E+20
  9
$EXTMAX
 10
-1.000000000000000E+20
 20
-1.000000000000000E+20
 30
-1.000000000000000E+20
  9
$LIMMIN
 10
0.0
 20
0.0
  9
$LIMMAX
 10
420.0
 20
297.0
  9
$ORTHOMODE
 70
     1
  9
$REGENMODE
 70
     1
  9
$FILLMODE
 70
     1
  9
$QTEXTMODE
 70
     0
  9
$MIRRTEXT
 70
     1
  9
$LTSCALE
 40
1.0
  9
$ATTMODE
 70
     1
  9
$TEXTSIZE
 40
3.5
  9
$TRACEWID
 40
1.0
  9
$TEXTSTYLE
  7
Standard
  9
$CLAYER
  8
0
  9
$CELTYPE
  6
ByLayer
  9
$CECOLOR
 62
   256
  9
$CELTSCALE
 40
1.0
  9
$DISPSILH
 70
     0
  9
$DIMSCALE
 40
1.0
  9
$DIMASZ
 40
3.302
  9
$DIMEXO
 40
1.0
  9
$DIMDLI
 40
3.75
  9
$DIMRND
 40
0.0
  9
$DIMDLE
 40
0.0
  9
$DIMEXE
 40
1.0
  9
$DIMTP
 40
0.0
  9
$DIMTM
 40
0.0
  9
$DIMTXT
 40
3.5
  9
$DIMCEN
 40
2.5
  9
$DIMTSZ
 40
0.0
  9
$DIMTOL
 70
     0
  9
$DIMLIM
 70
     0
  9
$DIMTIH
 70
     1
  9
$DIMTOH
 70
     1
  9
$DIMSE1
 70
     0
  9
$DIMSE2
 70
     0
  9
$DIMTAD
 70
     1
  9
$DIMZIN
 70
     0
  9
$DIMBLK
  1

  9
$DIMASO
 70
     1
  9
$DIMSHO
 70
     1
  9
$DIMPOST
  1

  9
$DIMAPOST
  1

  9
$DIMALT
 70
     0
  9
$DIMALTD
 70
     3
  9
$DIMALTF
 40
0.0393700787401575
  9
$DIMLFAC
 40
1.0
  9
$DIMTOFL
 70
     1
  9
$DIMTVP
 40
0.0
  9
$DIMTIX
 70
     0
  9
$DIMSOXD
 70
     0
  9
$DIMSAH
 70
     0
  9
$DIMBLK1
  1

  9
$DIMBLK2
  1

  9
$DIMSTYLE
  2
ISO-25
  9
$DIMCLRD
 70
     0
  9
$DIMCLRE
 70
     0
  9
$DIMCLRT
 70
     0
  9
$DIMTFAC
 40
1.0
  9
$DIMGAP
 40
1.524
  9
$DIMJUST
 70
     0
  9
$DIMSD1
 70
     0
  9
$DIMSD2
 70
     0
  9
$DIMTOLJ
 70
     0
  9
$DIMTZIN
 70
     0
  9
$DIMALTZ
 70
     0
  9
$DIMALTTZ
 70
     0
  9
$DIMUPT
 70
     0
  9
$DIMDEC
 70
     2
  9
$DIMTDEC
 70
     2
  9
$DIMALTU
 70
     2
  9
$DIMALTTD
 70
     3
  9
$DIMTXSTY
  7
Standard
  9
$DIMAUNIT
 70
     0
  9
$DIMADEC
 70
     2
  9
$DIMALTRND
 40
0.0
  9
$DIMAZIN
 70
     0
  9
$DIMDSEP
 70
    44
  9
$DIMATFIT
 70
     3
  9
$DIMFRAC
 70
     0
  9
$DIMLDRBLK
  1

  9
$DIMLUNIT
 70
     2
  9
$DIMLWD
 70
    -2
  9
$DIMLWE
 70
    -2
  9
$DIMTMOVE
 70
     0
  9
$LUNITS
 70
     2
  9
$LUPREC
 70
     2
  9
$SKETCHINC
 40
1.0
  9
$FILLETRAD
 40
10.0
  9
$AUNITS
 70
     0
  9
$AUPREC
 70
     2
  9
$MENU
  1
.
  9
$ELEVATION
 40
0.0
  9
$PELEVATION
 40
0.0
  9
$THICKNESS
 40
0.0
  9
$LIMCHECK
 70
     0
  9
$CHAMFERA
 40
0.0
  9
$CHAMFERB
 40
0.0
  9
$CHAMFERC
 40
0.0
  9
$CHAMFERD
 40
0.0
  9
$SKPOLY
 70
     0
  9
$TDCREATE
 40
2458296.686954062
  9
$TDUCREATE
 40
2458296.311954062
  9
$TDUPDATE
 40
2458304.428322778
  9
$TDUUPDATE
 40
2458304.053322778
  9
$TDINDWG
 40
0.0001607986
  9
$TDUSRTIMER
 40
2458304.045746088
  9
$USRTIMER
 70
     1
  9
$ANGBASE
 50
0.0
  9
$ANGDIR
 70
     0
  9
$PDMODE
 70
     0
  9
$PDSIZE
 40
-1.0
  9
$PLINEWID
 40
0.0
  9
$SPLFRAME
 70
     0
  9
$SPLINETYPE
 70
     6
  9
$SPLINESEGS
 70
     8
  9
$HANDSEED
  5
263
  9
$SURFTAB1
 70
     6
  9
$SURFTAB2
 70
     6
  9
$SURFTYPE
 70
     6
  9
$SURFU
 70
     6
  9
$SURFV
 70
     6
  9
$UCSBASE
  2

  9
$UCSNAME
  2

  9
$UCSORG
 10
0.0
 20
0.0
 30
0.0
  9
$UCSXDIR
 10
1.0
 20
0.0
 30
0.0
  9
$UCSYDIR
 10
0.0
 20
1.0
 30
0.0
  9
$UCSORTHOREF
  2

  9
$UCSORTHOVIEW
 70
     0
  9
$UCSORGTOP
 10
0.0
 20
0.0
 30
0.0
  9
$UCSORGBOTTOM
 10
0.0
 20
0.0
 30
0.0
  9
$UCSORGLEFT
 10
0.0
 20
0.0
 30
0.0
  9
$UCSORGRIGHT
 10
0.0
 20
0.0
 30
0.0
  9
$UCSORGFRONT
 10
0.0
 20
0.0
 30
0.0
  9
$UCSORGBACK
 10
0.0
 20
0.0
 30
0.0
  9
$PUCSBASE
  2

  9
$PUCSNAME
  2

  9
$PUCSORG
 10
0.0
 20
0.0
 30
0.0
  9
$PUCSXDIR
 10
1.0
 20
0.0
 30
0.0
  9
$PUCSYDIR
 10
0.0
 20
1.0
 30
0.0
  9
$PUCSORTHOREF
  2

  9
$PUCSORTHOVIEW
 70
     0
  9
$PUCSORGTOP
 10
0.0
 20
0.0
 30
0.0
  9
$PUCSORGBOTTOM
 10
0.0
 20
0.0
 30
0.0
  9
$PUCSORGLEFT
 10
0.0
 20
0.0
 30
0.0
  9
$PUCSORGRIGHT
 10
0.0
 20
0.0
 30
0.0
  9
$PUCSORGFRONT
 10
0.0
 20
0.0
 30
0.0
  9
$PUCSORGBACK
 10
0.0
 20
0.0
 30
0.0
  9
$USERI1
 70
     0
  9
$USERI2
 70
     0
  9
$USERI3
 70
     0
  9
$USERI4
 70
     0
  9
$USERI5
 70
     0
  9
$USERR1
 40
0.0
  9
$USERR2
 40
0.0
  9
$USERR3
 40
0.0
  9
$USERR4
 40
0.0
  9
$USERR5
 40
0.0
  9
$WORLDVIEW
 70
     1
  9
$SHADEDGE
 70
     3
  9
$SHADEDIF
 70
    70
  9
$TILEMODE
 70
     1
  9
$MAXACTVP
 70
    64
  9
$PINSBASE
 10
0.0
 20
0.0
 30
0.0
  9
$PLIMCHECK
 70
     0
  9
$PEXTMIN
 10
1.000000000000000E+20
 20
1.000000000000000E+20
 30
1.000000000000000E+20
  9
$PEXTMAX
 10
-1.000000000000000E+20
 20
-1.000000000000000E+20
 30
-1.000000000000000E+20
  9
$PLIMMIN
 10
0.0
 20
0.0
  9
$PLIMMAX
 10
0.0
 20
0.0
  9
$UNITMODE
 70
     0
  9
$VISRETAIN
 70
     1
  9
$PLINEGEN
 70
     0
  9
$PSLTSCALE
 70
     1
  9
$TREEDEPTH
 70
  3020
  9
$CMLSTYLE
  2
Standard
  9
$CMLJUST
 70
     0
  9
$CMLSCALE
 40
20.0
  9
$PROXYGRAPHICS
 70
     1
  9
$MEASUREMENT
 70
     1
  9
$CELWEIGHT
370
    -1
  9
$ENDCAPS
280
     0
  9
$JOINSTYLE
280
     0
  9
$LWDISPLAY
290
     1
  9
$INSUNITS
 70
     4
  9
$HYPERLINKBASE
  1

  9
$STYLESHEET
  1

  9
$XEDIT
290
     1
  9
$CEPSNTYPE
380
     0
  9
$PSTYLEMODE
290
     1
  9
$FINGERPRINTGUID
  2
{120FBD4C-94A0-4D00-9414-565326A643D1}
  9
$VERSIONGUID
  2
{FAEB1C32-E019-11D5-929B-00C0DF256EC4}
  9
$EXTNAMES
290
     1
  9
$PSVPSCALE
 40
0.0
  9
$OLESTARTUP
290
     0
  0
ENDSEC
  0
SECTION
  2
CLASSES
  0
CLASS
  1
ACDBDICTIONARYWDFLT
  2
AcDbDictionaryWithDefault
  3
ObjectDBX Classes
 90
        0
280
     0
281
     0
  0
CLASS
  1
VISUALSTYLE
  2
AcDbVisualStyle
  3
ObjectDBX Classes
 90
     4095
280
     0
281
     0
  0
CLASS
  1
MATERIAL
  2
AcDbMaterial
  3
ObjectDBX Classes
 90
     1153
280
     0
281
     0
  0
CLASS
  1
SCALE
  2
AcDbScale
  3
ObjectDBX Classes
 90
     1153
280
     0
281
     0
  0
CLASS
  1
SUN
  2
AcDbSun
  3
SCENEOE
 90
     1153
280
     0
281
     0
  0
CLASS
  1
ACDBPLACEHOLDER
  2
AcDbPlaceHolder
  3
ObjectDBX Classes
 90
        0
280
     0
281
     0
  0
CLASS
  1
LAYOUT
  2
AcDbLayout
  3
ObjectDBX Classes
 90
        0
280
     0
281
     0
  0
CLASS
  1
TABLESTYLE
  2
AcDbTableStyle
  3
ObjectDBX Classes
 90
     4095
280
     0
281
     0
  0
CLASS
  1
MLEADERSTYLE
  2
AcDbMLeaderStyle
  3
ACDB_MLEADERSTYLE_CLASS
 90
     4095
280
     0
281
     0
  0
CLASS
  1
RASTERVARIABLES
  2
AcDbRasterVariables
  3
ISM
 90
        0
280
     0
281
     0
  0
CLASS
  1
DIMASSOC
  2
AcDbDimAssoc
  3
"AcDbDimAssoc|Product Desc:     AcDim ARX App For Dimension|Company:          Autodesk, Inc.|WEB Address:      www.autodesk.com"
 90
        0
280
     0
281
     0
  0
ENDSEC
  0
SECTION
  2
TABLES
  0
TABLE
  2
VPORT
  5
8
330
0
100
AcDbSymbolTable
 70
     1
  0
VPORT
  5
29
330
8
100
AcDbSymbolTableRecord
100
AcDbViewportTableRecord
  2
*Active
 70
     0
 10
0.0
 20
0.0
 11
1.0
 21
1.0
 12
-39.46311088551835
 22
-0.8468758599632906
 13
0.0
 23
0.0
 14
10.0
 24
10.0
 15
10.0
 25
10.0
 16
0.0
 26
0.0
 36
1.0
 17
0.0
 27
0.0
 37
0.0
 40
219.8798489894114
 41
1.308523409363745
 42
50.0
 43
0.0
 44
0.0
 50
0.0
 51
0.0
 71
    16
 72
  2000
 73
     1
 74
     3
 75
     0
 76
     0
 77
     0
 78
     0
281
     0
 65
     1
110
0.0
120
0.0
130
0.0
111
1.0
121
0.0
131
0.0
112
0.0
122
1.0
132
0.0
 79
     0
146
0.0
  0
ENDTAB
  0
TABLE
  2
LTYPE
  5
5
330
0
100
AcDbSymbolTable
 70
     6
  0
LTYPE
  5
14
330
5
100
AcDbSymbolTableRecord
100
AcDbLinetypeTableRecord
  2
ByBlock
 70
     0
  3

 72
    65
 73
     0
 40
0.0
  0
LTYPE
  5
15
330
5
100
AcDbSymbolTableRecord
100
AcDbLinetypeTableRecord
  2
ByLayer
 70
     0
  3

 72
    65
 73
     0
 40
0.0
  0
LTYPE
  5
16
330
5
100
AcDbSymbolTableRecord
100
AcDbLinetypeTableRecord
  2
Continuous
 70
     0
  3
Solid line
 72
    65
 73
     0
 40
0.0
  0
LTYPE
  5
6A
330
5
100
AcDbSymbolTableRecord
100
AcDbLinetypeTableRecord
  2
HIDDEN
 70
     0
  3
Hidden __ __ __ __ __ __ __ __ __ __ __ __ __ __
 72
    65
 73
     2
 40
1.905
 49
1.27
 74
     0
 49
-0.635
 74
     0
  0
LTYPE
  5
6B
330
5
100
AcDbSymbolTableRecord
100
AcDbLinetypeTableRecord
  2
PHANTOM
 70
     0
  3
Phantom ______  __  __  ______  __  __  ______
 72
    65
 73
     6
 40
12.7
 49
6.35
 74
     0
 49
-1.27
 74
     0
 49
1.27
 74
     0
 49
-1.27
 74
     0
 49
1.27
 74
     0
 49
-1.27
 74
     0
  0
LTYPE
  5
6C
330
5
100
AcDbSymbolTableRecord
100
AcDbLinetypeTableRecord
  2
CENTER
 70
     0
  3
Center ____ _ ____ _ ____ _ ____ _ ____ _ ____
 72
    65
 73
     4
 40
10.16
 49
6.35
 74
     0
 49
-1.27
 74
     0
 49
1.27
 74
     0
 49
-1.27
 74
     0
  0
LTYPE
  5
6D
330
5
100
AcDbSymbolTableRecord
100
AcDbLinetypeTableRecord
  2
CENTERX2
 70
     0
  3
Center (2x) ________  __  ________  __  _____
 72
    65
 73
     4
 40
20.32
 49
12.7
 74
     0
 49
-2.54
 74
     0
 49
2.54
 74
     0
 49
-2.54
 74
     0
  0
LTYPE
  5
6E
330
5
100
AcDbSymbolTableRecord
100
AcDbLinetypeTableRecord
  2
DOT2
 70
     0
  3
Dot (.5x) ........................................
 72
    65
 73
     2
 40
0.635
 49
0.0
 74
     0
 49
-0.635
 74
     0
  0
ENDTAB
  0
TABLE
  2
LAYER
  5
2
102
{ACAD_XDICTIONARY
360
1D2
102
}
330
0
100
AcDbSymbolTable
 70
    18
  0
LAYER
  5
10
330
2
100
AcDbSymbolTableRecord
100
AcDbLayerTableRecord
  2
0
 70
     0
 62
     7
  6
Continuous
370
    -3
390
F
  0
LAYER
  5
6F
330
2
100
AcDbSymbolTableRecord
100
AcDbLayerTableRecord
  2
FORMAT
 70
     0
 62
     2
  6
Continuous
370
    -3
390
F
  0
LAYER
  5
70
330
2
100
AcDbSymbolTableRecord
100
AcDbLayerTableRecord
  2
외형선
 70
     0
 62
     4
  6
Continuous
370
    30
390
F
  0
LAYER
  5
71
330
2
100
AcDbSymbolTableRecord
100
AcDbLayerTableRecord
  2
숨은선
 70
     0
 62
     2
  6
HIDDEN
370
    15
390
F
  0
LAYER
  5
72
330
2
100
AcDbSymbolTableRecord
100
AcDbLayerTableRecord
  2
중심선
 70
     0
 62
     1
  6
CENTERX2
370
    -3
390
F
  0
LAYER
  5
73
330
2
100
AcDbSymbolTableRecord
100
AcDbLayerTableRecord
  2
파단선
 70
     0
 62
     4
  6
Continuous
370
    -3
390
F
  0
LAYER
  5
74
330
2
100
AcDbSymbolTableRecord
100
AcDbLayerTableRecord
  2
해칭선
 70
     0
 62
   100
  6
Continuous
370
    -3
390
F
  0
LAYER
  5
75
330
2
100
AcDbSymbolTableRecord
100
AcDbLayerTableRecord
  2
가는실선
 70
     0
 62
     4
  6
Continuous
370
    -3
390
F
  0
LAYER
  5
76
330
2
100
AcDbSymbolTableRecord
100
AcDbLayerTableRecord
  2
치수_보조선
 70
     0
 62
     4
  6
Continuous
370
    -3
390
F
  0
LAYER
  5
77
330
2
100
AcDbSymbolTableRecord
100
AcDbLayerTableRecord
  2
치수문자_일반주서
 70
     0
 62
     7
  6
Continuous
370
    15
390
F
  0
LAYER
  5
78
330
2
100
AcDbSymbolTableRecord
100
AcDbLayerTableRecord
  2
개별주서
 70
     0
 62
   100
  6
Continuous
370
    30
390
F
  0
LAYER
  5
79
330
2
100
AcDbSymbolTableRecord
100
AcDbLayerTableRecord
  2
중간선
 70
     0
 62
     2
  6
Continuous
370
    15
390
F
  0
LAYER
  5
7A
330
2
100
AcDbSymbolTableRecord
100
AcDbLayerTableRecord
  2
윤곽선
 70
     0
 62
     3
  6
Continuous
370
    40
390
F
  0
LAYER
  5
7B
330
2
100
AcDbSymbolTableRecord
100
AcDbLayerTableRecord
  2
중심마크
 70
     0
 62
   100
  6
Continuous
370
    30
390
F
  0
LAYER
  5
7C
330
2
100
AcDbSymbolTableRecord
100
AcDbLayerTableRecord
  2
가상선
 70
     0
 62
     4
  6
PHANTOM
370
    -3
390
F
  0
LAYER
  5
7D
330
2
100
AcDbSymbolTableRecord
100
AcDbLayerTableRecord
  2
특수지정선
 70
     0
 62
     5
  6
CENTERX2
370
    60
390
F
  0
LAYER
  5
7E
330
2
100
AcDbSymbolTableRecord
100
AcDbLayerTableRecord
  2
참조1
 70
     0
 62
    -4
  6
Continuous
370
    -3
390
F
  0
LAYER
  5
139
330
2
100
AcDbSymbolTableRecord
100
AcDbLayerTableRecord
  2
Defpoints
 70
     0
 62
     7
  6
Continuous
290
     0
370
    -3
390
F
  0
ENDTAB
  0
TABLE
  2
STYLE
  5
3
330
0
100
AcDbSymbolTable
 70
     2
  0
STYLE
  5
11
330
3
100
AcDbSymbolTableRecord
100
AcDbTextStyleTableRecord
  2
Standard
 70
     0
 40
0.0
 41
1.0
 50
0.0
 71
     0
 42
3.5
  3
txt
  4

  0
STYLE
  5
94
330
3
100
AcDbSymbolTableRecord
100
AcDbTextStyleTableRecord
  2
SLDTEXTSTYLE0
 70
     0
 40
0.0
 41
0.75
 50
0.0
 71
     0
 42
3.5
  3
TXT
  4

  0
ENDTAB
  0
TABLE
  2
VIEW
  5
6
330
0
100
AcDbSymbolTable
 70
     0
  0
ENDTAB
  0
TABLE
  2
UCS
  5
7
330
0
100
AcDbSymbolTable
 70
     0
  0
ENDTAB
  0
TABLE
  2
APPID
  5
9
330
0
100
AcDbSymbolTable
 70
     2
  0
APPID
  5
12
330
9
100
AcDbSymbolTableRecord
100
AcDbRegAppTableRecord
  2
ACAD
 70
     0
  0
APPID
  5
146
330
9
100
AcDbSymbolTableRecord
100
AcDbRegAppTableRecord
  2
ACAD_DSTYLE_DIMRADIAL_EXTENSION
 70
     0
  0
ENDTAB
  0
TABLE
  2
DIMSTYLE
  5
A
330
0
100
AcDbSymbolTable
 70
     5
100
AcDbDimStyleTable
  0
DIMSTYLE
105
27
330
A
100
AcDbSymbolTableRecord
100
AcDbDimStyleTableRecord
  2
ISO-25
 70
     0
 41
2.5
 42
0.625
 43
3.75
 44
1.25
 73
     0
 74
     0
 77
     1
 78
     8
140
2.5
141
2.5
143
0.03937007874016
147
0.625
171
     3
172
     1
178
     0
271
     2
272
     2
274
     3
278
    44
283
     0
284
     8
340
11
  0
DIMSTYLE
105
BC
330
A
100
AcDbSymbolTableRecord
100
AcDbDimStyleTableRecord
  2
SLDDIMSTYLE0
 70
     0
 41
3.302
 44
0.0
 45
0.000000001
 73
     0
 74
     0
 77
     1
 78
    12
 79
     3
140
3.5
147
0.875
172
     1
173
     1
178
     0
271
     2
272
     2
276
     2
284
    12
289
     0
340
94
  0
DIMSTYLE
105
CA
102
{ACAD_REACTORS
330
17F
330
1E5
102
}
330
A
100
AcDbSymbolTableRecord
100
AcDbDimStyleTableRecord
  2
SLDDIMSTYLE1
 70
     0
 41
3.302
 44
0.0
 45
0.000000001
 73
     0
 74
     0
 77
     1
 78
    12
 79
     3
140
3.5
143
0.0393700787401575
147
0.875
148
0.000000001
170
     1
173
     1
178
     0
271
     2
272
     2
276
     2
284
    12
340
94
  0
DIMSTYLE
105
DE
102
{ACAD_REACTORS
330
172
330
18C
330
1E4
330
1E6
102
}
330
A
100
AcDbSymbolTableRecord
100
AcDbDimStyleTableRecord
  2
SLDDIMSTYLE2
 70
     0
 41
3.302
 44
0.0
 45
0.000000001
 73
     0
 74
     0
 77
     1
 78
    12
 79
     3
140
3.5
143
0.0393700787401575
147
0.875
148
0.000000001
170
     1
172
     1
173
     1
178
     0
271
     2
272
     2
276
     2
284
    12
289
     0
340
94
  0
DIMSTYLE
105
145
102
{ACAD_REACTORS
330
19C
330
1C6
330
1E7
330
255
102
}
330
A
100
AcDbSymbolTableRecord
100
AcDbDimStyleTableRecord
  2
SLDDIMSTYLE3
 70
     0
 41
3.302
 44
0.0
 45
0.000000001
 73
     0
 74
     0
 77
     1
 78
    12
 79
     3
140
3.5
143
0.0393700787401575
147
0.875
148
0.000000001
170
     1
172
     1
173
     1
178
     0
271
     2
272
     2
276
     2
284
    12
289
     0
340
94
  0
ENDTAB
  0
TABLE
  2
BLOCK_RECORD
  5
1
330
0
100
AcDbSymbolTable
 70
    20
  0
BLOCK_RECORD
  5
1F
330
1
100
AcDbSymbolTableRecord
100
AcDbBlockTableRecord
  2
*Model_Space
340
22
  0
BLOCK_RECORD
  5
1B
330
1
100
AcDbSymbolTableRecord
100
AcDbBlockTableRecord
  2
*Paper_Space
340
1E
  0
BLOCK_RECORD
  5
23
330
1
100
AcDbSymbolTableRecord
100
AcDbBlockTableRecord
  2
*Paper_Space0
340
26
  0
BLOCK_RECORD
  5
7F
330
1
100
AcDbSymbolTableRecord
100
AcDbBlockTableRecord
  2
블럭10
340
0
102
{BLKREFS
331
B4
102
}
  0
BLOCK_RECORD
  5
BD
330
1
100
AcDbSymbolTableRecord
100
AcDbBlockTableRecord
  2
_D
340
0
  0
BLOCK_RECORD
  5
CB
330
1
100
AcDbSymbolTableRecord
100
AcDbBlockTableRecord
  2
_D_1
340
0
  0
BLOCK_RECORD
  5
DF
330
1
100
AcDbSymbolTableRecord
100
AcDbBlockTableRecord
  2
_D_2
340
0
  0
BLOCK_RECORD
  5
F4
330
1
100
AcDbSymbolTableRecord
100
AcDbBlockTableRecord
  2
_D_3
340
0
  0
BLOCK_RECORD
  5
10E
330
1
100
AcDbSymbolTableRecord
100
AcDbBlockTableRecord
  2
SW_DOWELSYMBOL_0
340
0
102
{BLKREFS
331
0
331
1AC
331
1E8
102
}
  0
BLOCK_RECORD
  5
173
330
1
100
AcDbSymbolTableRecord
100
AcDbBlockTableRecord
  2
*D8
340
0
  0
BLOCK_RECORD
  5
180
330
1
100
AcDbSymbolTableRecord
100
AcDbBlockTableRecord
  2
*D9
340
0
  0
BLOCK_RECORD
  5
18D
330
1
100
AcDbSymbolTableRecord
100
AcDbBlockTableRecord
  2
*D10
340
0
  0
BLOCK_RECORD
  5
19D
330
1
100
AcDbSymbolTableRecord
100
AcDbBlockTableRecord
  2
*D11
340
0
  0
BLOCK_RECORD
  5
1C9
330
1
100
AcDbSymbolTableRecord
100
AcDbBlockTableRecord
  2
*D12
340
0
  0
BLOCK_RECORD
  5
1FF
330
1
100
AcDbSymbolTableRecord
100
AcDbBlockTableRecord
  2
*D13
340
0
  0
BLOCK_RECORD
  5
20B
330
1
100
AcDbSymbolTableRecord
100
AcDbBlockTableRecord
  2
*D14
340
0
  0
BLOCK_RECORD
  5
217
330
1
100
AcDbSymbolTableRecord
100
AcDbBlockTableRecord
  2
*D15
340
0
  0
BLOCK_RECORD
  5
226
330
1
100
AcDbSymbolTableRecord
100
AcDbBlockTableRecord
  2
*D16
340
0
  0
BLOCK_RECORD
  5
235
330
1
100
AcDbSymbolTableRecord
100
AcDbBlockTableRecord
  2
*D17
340
0
  0
BLOCK_RECORD
  5
246
330
1
100
AcDbSymbolTableRecord
100
AcDbBlockTableRecord
  2
*D18
340
0
  0
BLOCK_RECORD
  5
258
330
1
100
AcDbSymbolTableRecord
100
AcDbBlockTableRecord
  2
*D19
340
0
  0
ENDTAB
  0
ENDSEC
  0
SECTION
  2
BLOCKS
  0
BLOCK
  5
20
330
1F
100
AcDbEntity
  8
0
100
AcDbBlockBegin
  2
*Model_Space
 70
     0
 10
0.0
 20
0.0
 30
0.0
  3
*Model_Space
  1
*Model_Space
  0
ENDBLK
  5
21
330
1F
100
AcDbEntity
  8
0
100
AcDbBlockEnd
  0
BLOCK
  5
1C
330
1B
100
AcDbEntity
 67
     1
  8
0
100
AcDbBlockBegin
  2
*Paper_Space
 70
     0
 10
0.0
 20
0.0
 30
0.0
  3
*Paper_Space
  1
*Paper_Space
  0
ENDBLK
  5
1D
330
1B
100
AcDbEntity
 67
     1
  8
0
100
AcDbBlockEnd
  0
BLOCK
  5
24
330
23
100
AcDbEntity
  8
0
100
AcDbBlockBegin
  2
*Paper_Space0
 70
     0
 10
0.0
 20
0.0
 30
0.0
  3
*Paper_Space0
  1
*Paper_Space0
  0
ENDBLK
  5
25
330
23
100
AcDbEntity
  8
0
100
AcDbBlockEnd
  0
BLOCK
  5
80
330
7F
100
AcDbEntity
  8
0
100
AcDbBlockBegin
  2
블럭10
 70
     2
 10
0.0
 20
0.0
 30
0.0
  3
블럭10
  1
블럭10
  0
ELLIPSE
  5
82
330
7F
100
AcDbEntity
  8
중심선
100
AcDbEllipse
 10
20.54032771741204
 20
12.0471743016438
 30
0.0
 11
6.600054785286829
 21
-1.261213355974178E-13
 31
0.0
210
0.0
220
0.0
230
1.0
 40
0.636358354079598
 41
0.9219305317359503
 42
6.513795318482858
  0
ELLIPSE
  5
83
330
7F
100
AcDbEntity
  8
중심선
100
AcDbEllipse
 10
20.54032771746488
 20
12.04717430159265
 30
0.0
 11
3.960054785062283
 21
1.540847449632565E-10
 31
0.0
210
0.0
220
0.0
230
1.0
 40
0.3939339440162632
 41
1.131841032648279
 42
5.62031148352944
  0
LINE
  5
84
330
7F
100
AcDbEntity
  8
중심선
100
AcDbLine
 10
2.268634060543552
 20
16.24717430164393
 30
0.0
 11
5.714909304380834
 21
16.24717430164393
 31
0.0
  0
LINE
  5
85
330
7F
100
AcDbEntity
  8
중심선
100
AcDbLine
 10
5.245725140726316
 20
7.84717430164391
 30
0.0
 11
8.692000384563599
 21
7.84717430164391
 31
0.0
  0
LINE
  5
86
330
7F
100
AcDbEntity
  8
중심선
100
AcDbLine
 10
15.74043728645272
 20
16.24717430164393
 30
0.0
 11
8.692000384563599
 21
7.84717430164391
 31
0.0
  0
LINE
  5
87
330
7F
100
AcDbEntity
  8
중심선
100
AcDbLine
 10
0.1404042013395286
 20
13.71084872107135
 30
0.0
 11
3.58671253028996
 21
13.71088815037384
 31
0.0
  0
LINE
  5
88
330
7F
100
AcDbEntity
  8
중심선
100
AcDbLine
 10
2.750260043222114
 20
10.84717430164391
 30
0.0
 11
6.196535287059397
 21
10.84717430164391
 31
0.0
  0
LINE
  5
89
330
7F
100
AcDbEntity
  8
중심선
100
AcDbLine
 10
12.29416204261559
 20
16.24717430164393
 30
0.0
 11
5.245725140726316
 21
7.84717430164391
 31
0.0
  0
LINE
  5
8A
330
7F
100
AcDbEntity
  8
중심선
100
AcDbLine
 10
10.72767329541681
 20
16.24717430164393
 30
0.0
 11
6.196535287059397
 21
10.84717430164391
 31
0.0
  0
LINE
  5
8B
330
7F
100
AcDbEntity
  8
중심선
100
AcDbLine
 10
7.28139805157953
 20
16.24717430164393
 30
0.0
 11
2.750260043222114
 21
10.84717430164391
 31
0.0
  0
LINE
  5
8C
330
7F
100
AcDbEntity
  8
중심선
100
AcDbLine
 10
5.714909304380834
 20
16.24717430164393
 30
0.0
 11
3.58671253028996
 21
13.71088815037384
 31
0.0
  0
LINE
  5
8D
330
7F
100
AcDbEntity
  8
중심선
100
AcDbLine
 10
2.268634060543552
 20
16.24717430164393
 30
0.0
 11
0.1404042013395286
 21
13.71084872107135
 31
0.0
  0
LINE
  5
8E
330
7F
100
AcDbEntity
  8
중심선
100
AcDbLine
 10
7.28139805157953
 20
16.24717430164393
 30
0.0
 11
10.72767329541681
 21
16.24717430164393
 31
0.0
  0
LINE
  5
8F
330
7F
100
AcDbEntity
  8
중심선
100
AcDbLine
 10
12.29416204261559
 20
16.24717430164393
 30
0.0
 11
15.74043728645272
 21
16.24717430164393
 31
0.0
  0
LINE
  5
90
330
7F
100
AcDbEntity
  8
중심선
100
AcDbLine
 10
19.22036997980202
 20
11.08717430171403
 30
0.0
 11
23.66174974927406
 21
11.08717430171406
 31
0.0
  0
LINE
  5
91
330
7F
100
AcDbEntity
  8
중심선
100
AcDbLine
 10
19.22039502424796
 20
13.00717430171391
 30
0.0
 11
19.22036997980202
 21
11.08717430171403
 31
0.0
  0
LINE
  5
92
330
7F
100
AcDbEntity
  8
중심선
100
AcDbLine
 10
19.22039502424796
 20
13.00717430171391
 30
0.0
 11
26.96566020931264
 21
13.00717430171391
 31
0.0
  0
LINE
  5
93
330
7F
100
AcDbEntity
  8
중심선
100
AcDbLine
 10
22.22332737316547
 20
13.45928029700563
 30
0.0
 11
24.52862924686651
 21
15.39360700705356
 31
0.0
  0
ATTDEF
  5
95
330
7F
100
AcDbEntity
  8
FORMAT
 62
     2
100
AcDbText
 10
3.448148490846466
 20
2.075366912832191
 30
0.0
 40
4.233333333333333
  1
EM639004
 41
0.75
  7
SLDTEXTSTYLE0
 11
3.448148490846466
 21
-0.0412997538344756
 31
0.0
100
AcDbAttributeDefinition
  3

  2
AUTOATTR0
 70
     0
 74
     1
  0
ENDBLK
  5
81
330
7F
100
AcDbEntity
  8
0
100
AcDbBlockEnd
  0
BLOCK
  5
BE
330
BD
100
AcDbEntity
  8
0
100
AcDbBlockBegin
  2
_D
 70
     0
 10
0.0
 20
0.0
 30
0.0
  3
_D
  1
_D
  0
SOLID
  5
C0
330
BD
100
AcDbEntity
  8
치수문자_일반주서
100
AcDbTrace
 10
-41.61124999999998
 20
-0.7926750712761064
 30
0.0
 11
-42.11924999999999
 21
-4.094675071276106
 31
0.0
 12
-41.10324999999998
 22
-4.094675071276106
 32
0.0
 13
-41.10324999999998
 23
-4.094675071276106
 33
0.0
  0
SOLID
  5
C1
330
BD
100
AcDbEntity
  8
치수문자_일반주서
100
AcDbTrace
 10
-41.61124999999998
 20
0.7948249287238935
 30
0.0
 11
-41.10324999999998
 21
4.096824928723893
 31
0.0
 12
-42.11924999999999
 22
4.096824928723893
 32
0.0
 13
-42.11924999999999
 23
4.096824928723893
 33
0.0
  0
LINE
  5
C2
330
BD
100
AcDbEntity
  8
치수문자_일반주서
100
AcDbLine
 10
-54.24624999999999
 20
-0.7926750712761071
 30
0.0
 11
-40.61124999999998
 21
-0.7926750712761063
 31
0.0
  0
LINE
  5
C3
330
BD
100
AcDbEntity
  8
치수문자_일반주서
100
AcDbLine
 10
-54.24624999999999
 20
0.7948249287238928
 30
0.0
 11
-40.61124999999998
 21
0.7948249287238937
 31
0.0
  0
LINE
  5
C4
330
BD
100
AcDbEntity
  8
치수문자_일반주서
100
AcDbLine
 10
-41.61124999999998
 20
-0.7926750712761064
 30
0.0
 11
-41.61124999999998
 21
-7.142675071276106
 31
0.0
  0
LINE
  5
C5
330
BD
100
AcDbEntity
  8
치수문자_일반주서
100
AcDbLine
 10
-41.61124999999998
 20
-0.7926750712761064
 30
0.0
 11
-41.61124999999998
 21
0.7948249287238935
 31
0.0
  0
LINE
  5
C6
330
BD
100
AcDbEntity
  8
치수문자_일반주서
100
AcDbLine
 10
-41.61124999999998
 20
0.7948249287238935
 30
0.0
 11
-41.61124999999998
 21
7.144824928723893
 31
0.0
  0
MTEXT
  5
C7
330
BD
100
AcDbEntity
  8
치수문자_일반주서
100
AcDbMText
 10
-46.12298708920186
 20
-6.834098612090667
 30
0.0
 40
3.5
 41
0.0
 71
     1
 72
     1
  1
%%c
  7
SLDTEXTSTYLE0
 11
6.123233995736766E-17
 21
1.0
 31
0.0
 73
     1
 44
1.0
  0
MTEXT
  5
C8
330
BD
100
AcDbEntity
  8
치수문자_일반주서
100
AcDbMText
 10
-46.17645926586171
 20
-1.555661213716586
 30
0.0
 40
3.5
 41
0.0
 71
     1
 72
     1
  1
1.59
  7
SLDTEXTSTYLE0
 11
6.123233995736766E-17
 21
1.0
 31
0.0
 73
     1
 44
1.0
  0
ENDBLK
  5
BF
330
BD
100
AcDbEntity
  8
0
100
AcDbBlockEnd
  0
BLOCK
  5
CC
330
CB
100
AcDbEntity
  8
0
100
AcDbBlockBegin
  2
_D_1
 70
     0
 10
0.0
 20
0.0
 30
0.0
  3
_D_1
  1
_D_1
  0
SOLID
  5
CE
330
CB
100
AcDbEntity
  8
치수문자_일반주서
100
AcDbTrace
 10
16.50000000000002
 20
27.84481249110362
 30
0.0
 11
13.19800000000002
 21
28.35281249110362
 31
0.0
 12
13.19800000000002
 22
27.33681249110362
 32
0.0
 13
13.19800000000002
 23
27.33681249110362
 33
0.0
  0
SOLID
  5
CF
330
CB
100
AcDbEntity
  8
치수문자_일반주서
100
AcDbTrace
 10
-53.49999999999999
 20
27.84481249110361
 30
0.0
 11
-50.19799999999999
 21
27.33681249110361
 31
0.0
 12
-50.19799999999999
 22
28.35281249110361
 32
0.0
 13
-50.19799999999999
 23
28.35281249110361
 33
0.0
  0
LINE
  5
D0
330
CB
100
AcDbEntity
  8
치수문자_일반주서
100
AcDbLine
 10
-23.91436608182265
 20
38.63769420714635
 30
0.0
 11
-24.62530356738715
 21
38.63769420714636
 31
0.0
  0
LINE
  5
D1
330
CB
100
AcDbEntity
  8
치수문자_일반주서
100
AcDbLine
 10
-24.62530356738715
 20
38.63769420714636
 30
0.0
 11
-24.62530356738719
 21
33.08144421608706
 31
0.0
  0
LINE
  5
D2
330
CB
100
AcDbEntity
  8
치수문자_일반주서
100
AcDbLine
 10
-24.62530356738719
 20
33.08144421608706
 30
0.0
 11
-23.91436608182269
 21
33.08144421608705
 31
0.0
  0
LINE
  5
D3
330
CB
100
AcDbEntity
  8
치수문자_일반주서
100
AcDbLine
 10
-13.08563321968539
 20
38.63769420714628
 30
0.0
 11
-12.37469573412089
 21
38.63769420714628
 31
0.0
  0
LINE
  5
D4
330
CB
100
AcDbEntity
  8
치수문자_일반주서
100
AcDbLine
 10
-12.37469573412089
 20
38.63769420714628
 30
0.0
 11
-12.37469573412093
 21
33.08144421608697
 31
0.0
  0
LINE
  5
D5
330
CB
100
AcDbEntity
  8
치수문자_일반주서
100
AcDbLine
 10
-12.37469573412093
 20
33.08144421608697
 30
0.0
 11
-13.08563321968543
 21
33.08144421608698
 31
0.0
  0
LINE
  5
D6
330
CB
100
AcDbEntity
  8
치수문자_일반주서
100
AcDbLine
 10
16.50000000000002
 20
1.68848259297779
 30
0.0
 11
16.50000000000002
 21
28.84481249110362
 31
0.0
  0
LINE
  5
D7
330
CB
100
AcDbEntity
  8
치수문자_일반주서
100
AcDbLine
 10
-53.49999999999999
 20
3.541074928723894
 30
0.0
 11
-53.49999999999999
 21
28.84481249110361
 31
0.0
  0
LINE
  5
D8
330
CB
100
AcDbEntity
  8
치수문자_일반주서
100
AcDbLine
 10
16.50000000000002
 20
27.84481249110362
 30
0.0
 11
-53.49999999999999
 21
27.84481249110361
 31
0.0
  0
MTEXT
  5
D9
330
CB
100
AcDbEntity
  8
치수문자_일반주서
100
AcDbMText
 10
-25.13906229287389
 20
32.41002175696535
 30
0.0
 40
3.5
 41
0.0
 71
     1
 72
     1
  1

  7
SLDTEXTSTYLE0
 73
     1
 44
1.0
  0
MTEXT
  5
DA
330
CB
100
AcDbEntity
  8
치수문자_일반주서
100
AcDbMText
 10
-23.02569418121129
 20
37.59318113066595
 30
0.0
 40
3.5
 41
0.0
 71
     1
 72
     1
  1
2.76
  7
SLDTEXTSTYLE0
 73
     1
 44
1.0
  0
MTEXT
  5
DB
330
CB
100
AcDbEntity
  8
치수문자_일반주서
100
AcDbMText
 10
-21.08611084427687
 20
32.35654958030546
 30
0.0
 40
3.5
 41
0.0
 71
     1
 72
     1
  1
70
  7
SLDTEXTSTYLE0
 73
     1
 44
1.0
  0
MTEXT
  5
DC
330
CB
100
AcDbEntity
  8
치수문자_일반주서
100
AcDbMText
 10
-10.52899248898032
 20
32.41002175696524
 30
0.0
 40
3.5
 41
0.0
 71
     1
 72
     1
  1

  7
SLDTEXTSTYLE0
 73
     1
 44
1.0
  0
ENDBLK
  5
CD
330
CB
100
AcDbEntity
  8
0
100
AcDbBlockEnd
  0
BLOCK
  5
E0
330
DF
100
AcDbEntity
  8
0
100
AcDbBlockBegin
  2
_D_2
 70
     0
 10
0.0
 20
0.0
 30
0.0
  3
_D_2
  1
_D_2
  0
SOLID
  5
E2
330
DF
100
AcDbEntity
  8
치수문자_일반주서
100
AcDbTrace
 10
16.49776225984156
 20
10.9832463489753
 30
0.0
 11
19.79987260418136
 21
10.47596410623055
 31
0.0
 12
19.79965175948776
 22
11.49196408222839
 32
0.0
 13
19.79965175948776
 23
11.49196408222839
 33
0.0
  0
SOLID
  5
E3
330
DF
100
AcDbEntity
  8
치수문자_일반주서
100
AcDbTrace
 10
3.49776225984157
 20
10.98042058019133
 30
0.0
 11
0.1956519155017787
 21
11.48770282293609
 31
0.0
 12
0.1958727601953697
 22
10.47170284693824
 32
0.0
 13
0.1958727601953697
 23
10.47170284693824
 33
0.0
  0
LINE
  5
E4
330
DF
100
AcDbEntity
  8
치수문자_일반주서
100
AcDbLine
 10
4.581050291503977
 20
21.77353802209183
 30
0.0
 11
3.870112822734784
 21
21.77338348786824
 31
0.0
  0
LINE
  5
E5
330
DF
100
AcDbEntity
  8
치수문자_일반주서
100
AcDbLine
 10
3.870112822734784
 20
21.77338348786824
 30
0.0
 11
3.871320567150956
 21
16.21713362807072
 31
0.0
  0
LINE
  5
E6
330
DF
100
AcDbEntity
  8
치수문자_일반주서
100
AcDbLine
 10
3.871320567150956
 20
16.21713362807072
 30
0.0
 11
4.582258035920148
 21
16.21728816229431
 31
0.0
  0
LINE
  5
E7
330
DF
100
AcDbEntity
  8
치수문자_일반주서
100
AcDbLine
 10
15.40978289782143
 20
21.77589182936643
 30
0.0
 11
16.12072036659062
 21
21.77604636359002
 31
0.0
  0
LINE
  5
E8
330
DF
100
AcDbEntity
  8
치수문자_일반주서
100
AcDbLine
 10
16.12072036659062
 20
21.77604636359002
 30
0.0
 11
16.12192811100679
 21
16.2197965037925
 31
0.0
  0
LINE
  5
E9
330
DF
100
AcDbEntity
  8
치수문자_일반주서
100
AcDbLine
 10
16.12192811100679
 20
16.2197965037925
 30
0.0
 11
15.4109906422376
 21
16.21964196956891
 31
0.0
  0
LINE
  5
EA
330
DF
100
AcDbEntity
  8
치수문자_일반주서
100
AcDbLine
 10
16.49978263317562
 20
1.688482569353622
 30
0.0
 11
16.49754489301716
 21
11.98324632535113
 31
0.0
  0
LINE
  5
EB
330
DF
100
AcDbEntity
  8
치수문자_일반주서
100
AcDbLine
 10
3.49978263317563
 20
1.685656800569658
 30
0.0
 11
3.49754489301717
 21
11.98042055656717
 31
0.0
  0
LINE
  5
EC
330
DF
100
AcDbEntity
  8
치수문자_일반주서
100
AcDbLine
 10
16.49776225984156
 20
10.9832463489753
 30
0.0
 11
22.84776210982809
 21
10.98462662831024
 31
0.0
  0
LINE
  5
ED
330
DF
100
AcDbEntity
  8
치수문자_일반주서
100
AcDbLine
 10
16.49776225984156
 20
10.9832463489753
 30
0.0
 11
3.49776225984157
 21
10.98042058019133
 31
0.0
  0
LINE
  5
EE
330
DF
100
AcDbEntity
  8
치수문자_일반주서
100
AcDbLine
 10
3.49776225984157
 20
10.98042058019133
 30
0.0
 11
-2.852237590144961
 21
10.97904030085639
 31
0.0
  0
MTEXT
  5
EF
330
DF
100
AcDbEntity
  8
치수문자_일반주서
100
AcDbMText
 10
3.357707798769157
 20
15.54559951070812
 30
0.0
 40
3.5
 41
0.0
 71
     1
 72
     1
  1

  7
SLDTEXTSTYLE0
 11
0.9999999763758315
 21
0.0002173668244076882
 31
0.0
 73
     1
 44
1.0
  0
MTEXT
  5
F0
330
DF
100
AcDbEntity
  8
치수문자_일반주서
100
AcDbMText
 10
5.469949213611701
 20
20.72921813807615
 30
0.0
 40
3.5
 41
0.0
 71
     1
 72
     1
  1
0.51
  7
SLDTEXTSTYLE0
 11
0.9999999763758315
 21
0.0002173668244076882
 31
0.0
 73
     1
 44
1.0
  0
MTEXT
  5
F1
330
DF
100
AcDbEntity
  8
치수문자_일반주서
100
AcDbMText
 10
7.4106707746958
 20
15.49300831249737
 30
0.0
 40
3.5
 41
0.0
 71
     1
 72
     1
  1
13
  7
SLDTEXTSTYLE0
 11
0.9999999763758315
 21
0.0002173668244076882
 31
0.0
 73
     1
 44
1.0
  0
MTEXT
  5
F2
330
DF
100
AcDbEntity
  8
치수문자_일반주서
100
AcDbMText
 10
17.96777725751198
 20
15.54877525518577
 30
0.0
 40
3.5
 41
0.0
 71
     1
 72
     1
  1

  7
SLDTEXTSTYLE0
 11
0.9999999763758315
 21
0.0002173668244076882
 31
0.0
 73
     1
 44
1.0
  0
ENDBLK
  5
E1
330
DF
100
AcDbEntity
  8
0
100
AcDbBlockEnd
  0
BLOCK
  5
F5
330
F4
100
AcDbEntity
  8
0
100
AcDbBlockBegin
  2
_D_3
 70
     0
 10
0.0
 20
0.0
 30
0.0
  3
_D_3
  1
_D_3
  0
SOLID
  5
F7
330
F4
100
AcDbEntity
  8
치수문자_일반주서
100
AcDbTrace
 10
41.22995001570917
 20
3.001074928723891
 30
0.0
 11
41.73795001570917
 21
6.303074928723891
 31
0.0
 12
40.72195001570917
 22
6.303074928723891
 32
0.0
 13
40.72195001570917
 23
6.303074928723891
 33
0.0
  0
SOLID
  5
F8
330
F4
100
AcDbEntity
  8
치수문자_일반주서
100
AcDbTrace
 10
41.22995001570917
 20
-2.998925071276109
 30
0.0
 11
40.72195001570917
 21
-6.300925071276109
 31
0.0
 12
41.73795001570917
 22
-6.300925071276109
 32
0.0
 13
41.73795001570917
 23
-6.300925071276109
 33
0.0
  0
LINE
  5
F9
330
F4
100
AcDbEntity
  8
치수문자_일반주서
100
AcDbLine
 10
30.43706829966645
 20
3.866156888809221
 30
0.0
 11
30.43706829966645
 21
3.155219403244721
 31
0.0
  0
LINE
  5
FA
330
F4
100
AcDbEntity
  8
치수문자_일반주서
100
AcDbLine
 10
30.43706829966645
 20
3.155219403244721
 30
0.0
 11
35.99331829072576
 21
3.15521940324476
 31
0.0
  0
LINE
  5
FB
330
F4
100
AcDbEntity
  8
치수문자_일반주서
100
AcDbLine
 10
35.99331829072576
 20
3.15521940324476
 30
0.0
 11
35.99331829072575
 21
3.866156888809261
 31
0.0
  0
LINE
  5
FC
330
F4
100
AcDbEntity
  8
치수문자_일반주서
100
AcDbLine
 10
30.43706829966637
 20
14.69488975094648
 30
0.0
 11
30.43706829966636
 21
15.40582723651098
 31
0.0
  0
LINE
  5
FD
330
F4
100
AcDbEntity
  8
치수문자_일반주서
100
AcDbLine
 10
30.43706829966636
 20
15.40582723651098
 30
0.0
 11
35.99331829072567
 21
15.40582723651102
 31
0.0
  0
LINE
  5
FE
330
F4
100
AcDbEntity
  8
치수문자_일반주서
100
AcDbLine
 10
35.99331829072567
 20
15.40582723651102
 30
0.0
 11
35.99331829072568
 21
14.69488975094652
 31
0.0
  0
LINE
  5
FF
330
F4
100
AcDbEntity
  8
치수문자_일반주서
100
AcDbLine
 10
17.00000000000002
 20
3.001074928723893
 30
0.0
 11
42.22995001570917
 21
3.001074928723891
 31
0.0
  0
LINE
  5
100
330
F4
100
AcDbEntity
  8
치수문자_일반주서
100
AcDbLine
 10
17.00000000000002
 20
-2.998925071276108
 30
0.0
 11
42.22995001570917
 21
-2.998925071276109
 31
0.0
  0
LINE
  5
101
330
F4
100
AcDbEntity
  8
치수문자_일반주서
100
AcDbLine
 10
41.22995001570917
 20
3.001074928723891
 30
0.0
 11
41.22995001570917
 21
15.93903036523633
 31
0.0
  0
LINE
  5
102
330
F4
100
AcDbEntity
  8
치수문자_일반주서
100
AcDbLine
 10
41.22995001570917
 20
3.001074928723891
 30
0.0
 11
41.22995001570917
 21
-2.998925071276109
 31
0.0
  0
LINE
  5
103
330
F4
100
AcDbEntity
  8
치수문자_일반주서
100
AcDbLine
 10
41.22995001570917
 20
-2.998925071276109
 30
0.0
 11
41.22995001570917
 21
-9.34892507127611
 31
0.0
  0
MTEXT
  5
104
330
F4
100
AcDbEntity
  8
치수문자_일반주서
100
AcDbMText
 10
31.48158137614685
 20
4.754828789420599
 30
0.0
 40
3.5
 41
0.0
 71
     1
 72
     1
  1
0.24
  7
SLDTEXTSTYLE0
 11
-7.044195017643634E-15
 21
1.0
 31
0.0
 73
     1
 44
1.0
  0
MTEXT
  5
105
330
F4
100
AcDbEntity
  8
치수문자_일반주서
100
AcDbMText
 10
36.71821292650731
 20
5.348248907514125
 30
0.0
 40
3.5
 41
0.0
 71
     1
 72
     1
  1
%%c
  7
SLDTEXTSTYLE0
 11
-7.044195017643634E-15
 21
1.0
 31
0.0
 73
     1
 44
1.0
  0
MTEXT
  5
106
330
F4
100
AcDbEntity
  8
치수문자_일반주서
100
AcDbMText
 10
36.71821292650728
 20
10.62668630588821
 30
0.0
 40
3.5
 41
0.0
 71
     1
 72
     1
  1
6
  7
SLDTEXTSTYLE0
 11
-7.044195017643634E-15
 21
1.0
 31
0.0
 73
     1
 44
1.0
  0
ENDBLK
  5
F6
330
F4
100
AcDbEntity
  8
0
100
AcDbBlockEnd
  0
BLOCK
  5
10F
330
10E
100
AcDbEntity
  8
0
100
AcDbBlockBegin
  2
SW_DOWELSYMBOL_0
 70
     0
 10
0.0
 20
0.0
 30
0.0
  3
SW_DOWELSYMBOL_0
  1
SW_DOWELSYMBOL_0
  0
CIRCLE
  5
111
330
10E
100
AcDbEntity
  8
해칭선
 62
     0
100
AcDbCircle
 10
0.0
 20
0.0
 30
0.0
 40
3.000000000000001
  0
HATCH
  5
112
330
10E
100
AcDbEntity
  8
0
  6
Continuous
 62
     0
370
     0
100
AcDbHatch
 10
0.0
 20
0.0
 30
0.0
210
0.0
220
0.0
230
1.0
  2
SOLID
 70
     1
 71
     0
 91
        1
 92
        0
 93
        3
 72
     2
 10
0.0
 20
0.0
 40
3.000000000000001
 50
0.0
 51
90.0
 73
     1
 72
     1
 10
0.0
 20
3.000000000000001
 11
0.0
 21
0.0
 72
     1
 10
0.0
 20
0.0
 11
3.000000000000003
 21
0.0
 97
        0
 75
     0
 76
     1
 98
        1
 10
0.0
 20
0.0
  0
HATCH
  5
113
330
10E
100
AcDbEntity
  8
0
  6
Continuous
 62
     0
370
     0
100
AcDbHatch
 10
0.0
 20
0.0
 30
0.0
210
0.0
220
0.0
230
1.0
  2
SOLID
 70
     1
 71
     0
 91
        1
 92
        0
 93
        3
 72
     2
 10
0.0
 20
0.0
 40
3.000000000000001
 50
180.0
 51
270.0000000000008
 73
     1
 72
     1
 10
0.0
 20
-3.000000000000001
 11
0.0
 21
0.0
 72
     1
 10
0.0
 20
0.0
 11
-3.000000000000003
 21
0.0
 97
        0
 75
     0
 76
     1
 98
        1
 10
0.0
 20
0.0
  0
ENDBLK
  5
110
330
10E
100
AcDbEntity
  8
0
100
AcDbBlockEnd
  0
BLOCK
  5
174
330
173
100
AcDbEntity
  8
0
100
AcDbBlockBegin
  2
*D8
 70
     1
 10
0.0
 20
0.0
 30
0.0
  3
*D8
  1
*D8
  0
LINE
  5
175
330
173
100
AcDbEntity
  8
0
  6
Continuous
 62
     0
370
    -2
100
AcDbLine
 10
17.94750000000005
 20
39.61387215845727
 30
0.0
 11
4.37500000000002
 21
39.61387215845722
 31
0.0
  0
LINE
  5
176
330
173
100
AcDbEntity
  8
0
  6
Continuous
 62
     0
370
    -2
100
AcDbLine
 10
17.94750000000005
 20
33.26387215845725
 30
0.0
 11
4.375000000000042
 21
33.2638721584572
 31
0.0
  0
LINE
  5
177
330
173
100
AcDbEntity
  8
0
  6
Continuous
 62
     0
370
    -2
100
AcDbLine
 10
4.375000000000031
 20
36.31187215845722
 30
0.0
 11
4.37500000000003
 21
36.5658721584572
 31
0.0
  0
SOLID
  5
178
330
173
100
AcDbEntity
  8
0
 62
     0
100
AcDbTrace
 10
4.925333333333365
 20
36.31187215845722
 30
0.0
 11
3.824666666666698
 21
36.31187215845722
 31
0.0
 12
4.37500000000002
 22
39.61387215845722
 32
0.0
 13
4.37500000000002
 23
39.61387215845722
 33
0.0
  0
SOLID
  5
179
330
173
100
AcDbEntity
  8
0
 62
     0
100
AcDbTrace
 10
3.824666666666697
 20
36.5658721584572
 30
0.0
 11
4.925333333333364
 21
36.5658721584572
 31
0.0
 12
4.375000000000042
 22
33.2638721584572
 32
0.0
 13
4.375000000000042
 23
33.2638721584572
 33
0.0
  0
MTEXT
  5
17A
330
173
100
AcDbEntity
  8
0
 62
     0
370
    15
100
AcDbMText
 10
0.0000000000000355
 20
35.11991154049316
 30
0.0
 40
3.5
 41
0.0
 71
     2
 72
     1
  1
\A1;%%c6.35 [1/4]
  7
SLDTEXTSTYLE0
 11
-3.496765431890248E-15
 21
1.0
 31
0.0
 73
     1
 44
1.0
  0
POINT
  5
17B
330
173
100
AcDbEntity
  8
Defpoints
 62
     0
100
AcDbPoint
 10
18.01000000000005
 20
39.61387215845727
 30
0.0
  0
POINT
  5
17C
330
173
100
AcDbEntity
  8
Defpoints
 62
     0
100
AcDbPoint
 10
18.01000000000005
 20
33.26387215845725
 30
0.0
  0
POINT
  5
17D
330
173
100
AcDbEntity
  8
Defpoints
 62
     0
100
AcDbPoint
 10
4.375000000000043
 20
33.2638721584572
 30
0.0
  0
ENDBLK
  5
17E
330
173
100
AcDbEntity
  8
0
100
AcDbBlockEnd
  0
BLOCK
  5
181
330
180
100
AcDbEntity
  8
0
100
AcDbBlockBegin
  2
*D9
 70
     1
 10
0.0
 20
0.0
 30
0.0
  3
*D9
  1
*D9
  0
LINE
  5
182
330
180
100
AcDbEntity
  8
0
  6
Continuous
 62
     0
370
    -2
100
AcDbLine
 10
74.46250000000006
 20
39.67637215845728
 30
0.0
 11
74.46250000000006
 21
66.49957680499594
 31
0.0
  0
LINE
  5
183
330
180
100
AcDbEntity
  8
0
  6
Continuous
 62
     0
370
    -2
100
AcDbLine
 10
17.31250000000006
 20
39.04137215845727
 30
0.0
 11
17.31250000000006
 21
66.49957680499594
 31
0.0
  0
LINE
  5
184
330
180
100
AcDbEntity
  8
0
  6
Continuous
 62
     0
370
    -2
100
AcDbLine
 10
71.16050000000007
 20
66.49957680499594
 30
0.0
 11
20.61450000000006
 21
66.49957680499594
 31
0.0
  0
SOLID
  5
185
330
180
100
AcDbEntity
  8
0
 62
     0
100
AcDbTrace
 10
71.16050000000007
 20
65.94924347166261
 30
0.0
 11
71.16050000000007
 21
67.04991013832927
 31
0.0
 12
74.46250000000006
 22
66.49957680499594
 32
0.0
 13
74.46250000000006
 23
66.49957680499594
 33
0.0
  0
SOLID
  5
186
330
180
100
AcDbEntity
  8
0
 62
     0
100
AcDbTrace
 10
20.61450000000006
 20
67.04991013832927
 30
0.0
 11
20.61450000000006
 21
65.94924347166261
 31
0.0
 12
17.31250000000006
 22
66.49957680499594
 32
0.0
 13
17.31250000000006
 23
66.49957680499594
 33
0.0
  0
MTEXT
  5
187
330
180
100
AcDbEntity
  8
0
 62
     0
370
    15
100
AcDbMText
 10
45.88750000000006
 20
70.87457680499594
 30
0.0
 40
3.5
 41
0.0
 71
     2
 72
     1
  1
\A1;57.15 [2 1/4]
  7
SLDTEXTSTYLE0
 73
     1
 44
1.0
  0
POINT
  5
188
330
180
100
AcDbEntity
  8
Defpoints
 62
     0
100
AcDbPoint
 10
74.46250000000006
 20
39.61387215845728
 30
0.0
  0
POINT
  5
189
330
180
100
AcDbEntity
  8
Defpoints
 62
     0
100
AcDbPoint
 10
17.31250000000006
 20
38.97887215845727
 30
0.0
  0
POINT
  5
18A
330
180
100
AcDbEntity
  8
Defpoints
 62
     0
100
AcDbPoint
 10
17.31250000000006
 20
66.49957680499594
 30
0.0
  0
ENDBLK
  5
18B
330
180
100
AcDbEntity
  8
0
100
AcDbBlockEnd
  0
BLOCK
  5
18E
330
18D
100
AcDbEntity
  8
0
100
AcDbBlockBegin
  2
*D10
 70
     1
 10
0.0
 20
0.0
 30
0.0
  3
*D10
  1
*D10
  0
LINE
  5
18F
330
18D
100
AcDbEntity
  8
0
  6
Continuous
 62
     0
370
    -2
100
AcDbLine
 10
74.46250000000006
 20
39.67637215845728
 30
0.0
 11
74.46250000000006
 21
49.63801090607285
 31
0.0
  0
LINE
  5
190
330
18D
100
AcDbEntity
  8
0
  6
Continuous
 62
     0
370
    -2
100
AcDbLine
 10
68.11250000000007
 20
38.08887215845728
 30
0.0
 11
68.11250000000007
 21
49.63801090607285
 31
0.0
  0
LINE
  5
191
330
18D
100
AcDbEntity
  8
0
  6
Continuous
 62
     0
370
    -2
100
AcDbLine
 10
68.11250000000007
 20
49.63801090607285
 30
0.0
 11
38.75850000000007
 21
49.63801090607285
 31
0.0
  0
LINE
  5
192
330
18D
100
AcDbEntity
  8
0
  6
Continuous
 62
     0
370
    -2
100
AcDbLine
 10
74.46250000000006
 20
49.63801090607285
 30
0.0
 11
68.11250000000007
 21
49.63801090607285
 31
0.0
  0
LINE
  5
193
330
18D
100
AcDbEntity
  8
0
  6
Continuous
 62
     0
370
    -2
100
AcDbLine
 10
77.76450000000006
 20
49.63801090607285
 30
0.0
 11
81.06650000000005
 21
49.63801090607285
 31
0.0
  0
LINE
  5
194
330
18D
100
AcDbEntity
  8
0
  6
Continuous
 62
     0
370
    -2
100
AcDbLine
 10
64.81050000000008
 20
49.63801090607285
 30
0.0
 11
61.50850000000008
 21
49.63801090607285
 31
0.0
  0
SOLID
  5
195
330
18D
100
AcDbEntity
  8
0
 62
     0
100
AcDbTrace
 10
77.76450000000006
 20
50.18834423940618
 30
0.0
 11
77.76450000000006
 21
49.08767757273952
 31
0.0
 12
74.46250000000006
 22
49.63801090607285
 32
0.0
 13
74.46250000000006
 23
49.63801090607285
 33
0.0
  0
SOLID
  5
196
330
18D
100
AcDbEntity
  8
0
 62
     0
100
AcDbTrace
 10
64.81050000000008
 20
49.08767757273952
 30
0.0
 11
64.81050000000008
 21
50.18834423940618
 31
0.0
 12
68.11250000000007
 22
49.63801090607285
 32
0.0
 13
68.11250000000007
 23
49.63801090607285
 33
0.0
  0
MTEXT
  5
197
330
18D
100
AcDbEntity
  8
0
 62
     0
370
    15
100
AcDbMText
 10
50.13350000000007
 20
54.01301090607285
 30
0.0
 40
3.5
 41
0.0
 71
     2
 72
     1
  1
\A1;6.35 [1/4]
  7
SLDTEXTSTYLE0
 73
     1
 44
1.0
  0
POINT
  5
198
330
18D
100
AcDbEntity
  8
Defpoints
 62
     0
100
AcDbPoint
 10
74.46250000000006
 20
39.61387215845728
 30
0.0
  0
POINT
  5
199
330
18D
100
AcDbEntity
  8
Defpoints
 62
     0
100
AcDbPoint
 10
68.11250000000007
 20
38.02637215845728
 30
0.0
  0
POINT
  5
19A
330
18D
100
AcDbEntity
  8
Defpoints
 62
     0
100
AcDbPoint
 10
68.11250000000007
 20
49.63801090607285
 30
0.0
  0
ENDBLK
  5
19B
330
18D
100
AcDbEntity
  8
0
100
AcDbBlockEnd
  0
BLOCK
  5
19E
330
19D
100
AcDbEntity
  8
0
100
AcDbBlockBegin
  2
*D11
 70
     1
 10
0.0
 20
0.0
 30
0.0
  3
*D11
  1
*D11
  0
LINE
  5
19F
330
19D
100
AcDbEntity
  8
0
  6
Continuous
 62
     0
370
    -2
100
AcDbLine
 10
74.52500000000006
 20
38.02637215845728
 30
0.0
 11
93.46250000000016
 21
38.02637215845735
 31
0.0
  0
LINE
  5
1A0
330
19D
100
AcDbEntity
  8
0
  6
Continuous
 62
     0
370
    -2
100
AcDbLine
 10
74.52500000000006
 20
34.85137215845728
 30
0.0
 11
93.46250000000018
 21
34.85137215845735
 31
0.0
  0
LINE
  5
1A1
330
19D
100
AcDbEntity
  8
0
  6
Continuous
 62
     0
370
    -2
100
AcDbLine
 10
93.46250000000016
 20
38.02637215845735
 30
0.0
 11
93.4625
 21
72.11162215845735
 31
0.0
  0
LINE
  5
1A2
330
19D
100
AcDbEntity
  8
0
  6
Continuous
 62
     0
370
    -2
100
AcDbLine
 10
93.46250000000016
 20
38.02637215845735
 30
0.0
 11
93.46250000000018
 21
34.85137215845735
 31
0.0
  0
LINE
  5
1A3
330
19D
100
AcDbEntity
  8
0
  6
Continuous
 62
     0
370
    -2
100
AcDbLine
 10
93.46250000000015
 20
41.32837215845735
 30
0.0
 11
93.46250000000013
 21
44.63037215845735
 31
0.0
  0
LINE
  5
1A4
330
19D
100
AcDbEntity
  8
0
  6
Continuous
 62
     0
370
    -2
100
AcDbLine
 10
93.46250000000019
 20
31.54937215845735
 30
0.0
 11
93.4625000000002
 21
28.24737215845735
 31
0.0
  0
SOLID
  5
1A5
330
19D
100
AcDbEntity
  8
0
 62
     0
100
AcDbTrace
 10
92.91216666666682
 20
41.32837215845735
 30
0.0
 11
94.01283333333348
 21
41.32837215845735
 31
0.0
 12
93.46250000000016
 22
38.02637215845735
 32
0.0
 13
93.46250000000016
 23
38.02637215845735
 33
0.0
  0
SOLID
  5
1A6
330
19D
100
AcDbEntity
  8
0
 62
     0
100
AcDbTrace
 10
94.01283333333352
 20
31.54937215845736
 30
0.0
 11
92.91216666666686
 21
31.54937215845735
 31
0.0
 12
93.46250000000018
 22
34.85137215845735
 32
0.0
 13
93.46250000000018
 23
34.85137215845735
 33
0.0
  0
MTEXT
  5
1A7
330
19D
100
AcDbEntity
  8
0
 62
     0
370
    15
100
AcDbMText
 10
89.08750000000006
 20
59.86162215845733
 30
0.0
 40
3.5
 41
0.0
 71
     2
 72
     1
  1
\A1;%%c3.18 [1/8]
  7
SLDTEXTSTYLE0
 11
-4.475859752819533E-15
 21
1.0
 31
0.0
 73
     1
 44
1.0
  0
POINT
  5
1A8
330
19D
100
AcDbEntity
  8
Defpoints
 62
     0
100
AcDbPoint
 10
74.46250000000006
 20
38.02637215845728
 30
0.0
  0
POINT
  5
1A9
330
19D
100
AcDbEntity
  8
Defpoints
 62
     0
100
AcDbPoint
 10
74.46250000000006
 20
34.85137215845728
 30
0.0
  0
POINT
  5
1AA
330
19D
100
AcDbEntity
  8
Defpoints
 62
     0
100
AcDbPoint
 10
93.46250000000015
 20
34.85137215845735
 30
0.0
  0
ENDBLK
  5
1AB
330
19D
100
AcDbEntity
  8
0
100
AcDbBlockEnd
  0
BLOCK
  5
1CA
330
1C9
100
AcDbEntity
  8
0
100
AcDbBlockBegin
  2
*D12
 70
     1
 10
0.0
 20
0.0
 30
0.0
  3
*D12
  1
*D12
  0
LINE
  5
1CB
330
1C9
100
AcDbEntity
  8
0
  6
Continuous
 62
     0
370
    -2
100
AcDbLine
 10
76.20761640794223
 20
32.1645101100952
 30
0.0
 11
98.0721577761189
 21
-0.0000000000001101
 31
0.0
  0
MTEXT
  5
1CC
330
1C9
100
AcDbEntity
  8
0
 62
     0
370
    15
100
AcDbMText
 10
93.11039552954526
 20
11.96846676306008
 30
0.0
 40
3.5
 41
0.0
 71
     5
 72
     1
  1
\A1;R0.25 [R.01]
  7
SLDTEXTSTYLE0
 11
0.5621812170816006
 21
-0.8270140743425413
 31
0.0
 73
     1
 44
1.0
  0
LINE
  5
1CD
330
1C9
100
AcDbEntity
  8
0
  6
Continuous
 62
     0
370
    -2
100
AcDbLine
 10
74.20850000000006
 20
35.10537215845728
 30
0.0
 11
74.35129402913878
 21
34.89531058357427
 31
0.0
  0
SOLID
  5
1CE
330
1C9
100
AcDbEntity
  8
0
 62
     0
100
AcDbTrace
 10
76.66274982018874
 20
32.4738971732291
 30
0.0
 11
75.75248299569571
 21
31.85512304696129
 31
0.0
 12
74.35129402913878
 22
34.89531058357427
 32
0.0
 13
74.35129402913878
 23
34.89531058357427
 33
0.0
  0
POINT
  5
1CF
330
1C9
100
AcDbEntity
  8
Defpoints
 62
     0
100
AcDbPoint
 10
74.35129402913878
 20
34.89531058357427
 30
0.0
  0
POINT
  5
1D0
330
1C9
100
AcDbEntity
  8
Defpoints
 62
     0
100
AcDbPoint
 10
74.20850000000006
 20
35.10537215845728
 30
0.0
  0
ENDBLK
  5
1D1
330
1C9
100
AcDbEntity
  8
0
100
AcDbBlockEnd
  0
BLOCK
  5
200
330
1FF
100
AcDbEntity
  8
0
100
AcDbBlockBegin
  2
*D13
 70
     1
 10
0.0
 20
0.0
 30
0.0
  3
*D13
  1
*D13
  0
LINE
  5
202
330
1FF
100
AcDbEntity
  8
0
  6
Continuous
 62
     0
370
    -2
100
AcDbLine
 10
-44.79756939492372
 20
3.17499999999999
 30
0.0
 11
-58.37006939492375
 21
3.17499999999994
 31
0.0
  0
LINE
  5
203
330
1FF
100
AcDbEntity
  8
0
  6
Continuous
 62
     0
370
    -2
100
AcDbLine
 10
-44.79756939492372
 20
-3.175000000000026
 30
0.0
 11
-58.37006939492373
 21
-3.175000000000076
 31
0.0
  0
LINE
  5
204
330
1FF
100
AcDbEntity
  8
0
  6
Continuous
 62
     0
370
    -2
100
AcDbLine
 10
-58.37006939492374
 20
-0.1270000000000593
 30
0.0
 11
-58.37006939492375
 21
0.1269999999999238
 31
0.0
  0
SOLID
  5
205
330
1FF
100
AcDbEntity
  8
0
 62
     0
100
AcDbTrace
 10
-57.8197360615904
 20
-0.1270000000000574
 30
0.0
 11
-58.92040272825707
 21
-0.1270000000000611
 31
0.0
 12
-58.37006939492375
 22
3.17499999999994
 32
0.0
 13
-58.37006939492375
 23
3.17499999999994
 33
0.0
  0
SOLID
  5
206
330
1FF
100
AcDbEntity
  8
0
 62
     0
100
AcDbTrace
 10
-58.92040272825708
 20
0.126999999999922
 30
0.0
 11
-57.81973606159041
 21
0.1269999999999257
 31
0.0
 12
-58.37006939492373
 22
-3.175000000000076
 32
0.0
 13
-58.37006939492373
 23
-3.175000000000076
 33
0.0
  0
MTEXT
  5
207
330
1FF
100
AcDbEntity
  8
0
 62
     0
370
    15
100
AcDbMText
 10
-62.74506939492374
 20
-1.318960617964124
 30
0.0
 40
3.5
 41
0.0
 71
     2
 72
     1
  1
\A1;%%c6.35 [1/4]
  7
SLDTEXTSTYLE0
 11
-3.356894814614638E-15
 21
1.0
 31
0.0
 73
     1
 44
1.0
  0
POINT
  5
208
330
1FF
100
AcDbEntity
  8
Defpoints
 62
     0
100
AcDbPoint
 10
-44.73506939492372
 20
3.17499999999999
 30
0.0
  0
POINT
  5
209
330
1FF
100
AcDbEntity
  8
Defpoints
 62
     0
100
AcDbPoint
 10
-44.73506939492372
 20
-3.175000000000026
 30
0.0
  0
POINT
  5
20A
330
1FF
100
AcDbEntity
  8
Defpoints
 62
     0
100
AcDbPoint
 10
-58.37006939492373
 20
-3.175000000000077
 30
0.0
  0
ENDBLK
  5
201
330
1FF
100
AcDbEntity
  8
0
100
AcDbBlockEnd
  0
BLOCK
  5
20C
330
20B
100
AcDbEntity
  8
0
100
AcDbBlockBegin
  2
*D14
 70
     1
 10
0.0
 20
0.0
 30
0.0
  3
*D14
  1
*D14
  0
LINE
  5
20E
330
20B
100
AcDbEntity
  8
0
  6
Continuous
 62
     0
370
    -2
100
AcDbLine
 10
11.71743060507629
 20
3.237499999999997
 30
0.0
 11
11.71743060507629
 21
30.06070464653866
 31
0.0
  0
LINE
  5
20F
330
20B
100
AcDbEntity
  8
0
  6
Continuous
 62
     0
370
    -2
100
AcDbLine
 10
-45.43256939492372
 20
2.602499999999992
 30
0.0
 11
-45.43256939492372
 21
30.06070464653866
 31
0.0
  0
LINE
  5
210
330
20B
100
AcDbEntity
  8
0
  6
Continuous
 62
     0
370
    -2
100
AcDbLine
 10
8.415430605076288
 20
30.06070464653866
 30
0.0
 11
-42.13056939492372
 21
30.06070464653866
 31
0.0
  0
SOLID
  5
211
330
20B
100
AcDbEntity
  8
0
 62
     0
100
AcDbTrace
 10
8.415430605076288
 20
29.51037131320533
 30
0.0
 11
8.415430605076288
 21
30.61103797987199
 31
0.0
 12
11.71743060507629
 22
30.06070464653866
 32
0.0
 13
11.71743060507629
 23
30.06070464653866
 33
0.0
  0
SOLID
  5
212
330
20B
100
AcDbEntity
  8
0
 62
     0
100
AcDbTrace
 10
-42.13056939492372
 20
30.61103797987199
 30
0.0
 11
-42.13056939492372
 21
29.51037131320533
 31
0.0
 12
-45.43256939492372
 22
30.06070464653866
 32
0.0
 13
-45.43256939492372
 23
30.06070464653866
 33
0.0
  0
MTEXT
  5
213
330
20B
100
AcDbEntity
  8
0
 62
     0
370
    15
100
AcDbMText
 10
-16.85756939492371
 20
34.43570464653866
 30
0.0
 40
3.5
 41
0.0
 71
     2
 72
     1
  1
\A1;57.15 [2 1/4]
  7
SLDTEXTSTYLE0
 73
     1
 44
1.0
  0
POINT
  5
214
330
20B
100
AcDbEntity
  8
Defpoints
 62
     0
100
AcDbPoint
 10
11.71743060507629
 20
3.174999999999997
 30
0.0
  0
POINT
  5
215
330
20B
100
AcDbEntity
  8
Defpoints
 62
     0
100
AcDbPoint
 10
-45.43256939492372
 20
2.539999999999992
 30
0.0
  0
POINT
  5
216
330
20B
100
AcDbEntity
  8
Defpoints
 62
     0
100
AcDbPoint
 10
-45.43256939492372
 20
30.06070464653866
 30
0.0
  0
ENDBLK
  5
20D
330
20B
100
AcDbEntity
  8
0
100
AcDbBlockEnd
  0
BLOCK
  5
218
330
217
100
AcDbEntity
  8
0
100
AcDbBlockBegin
  2
*D15
 70
     1
 10
0.0
 20
0.0
 30
0.0
  3
*D15
  1
*D15
  0
LINE
  5
21A
330
217
100
AcDbEntity
  8
0
  6
Continuous
 62
     0
370
    -2
100
AcDbLine
 10
11.71743060507629
 20
3.237499999999997
 30
0.0
 11
11.71743060507629
 21
13.19913874761557
 31
0.0
  0
LINE
  5
21B
330
217
100
AcDbEntity
  8
0
  6
Continuous
 62
     0
370
    -2
100
AcDbLine
 10
8.542430605076301
 20
0.85625
 30
0.0
 11
8.542430605076301
 21
13.19913874761557
 31
0.0
  0
LINE
  5
21C
330
217
100
AcDbEntity
  8
0
  6
Continuous
 62
     0
370
    -2
100
AcDbLine
 10
8.542430605076301
 20
13.19913874761557
 30
0.0
 11
-23.54906939492371
 21
13.19913874761557
 31
0.0
  0
LINE
  5
21D
330
217
100
AcDbEntity
  8
0
  6
Continuous
 62
     0
370
    -2
100
AcDbLine
 10
11.71743060507629
 20
13.19913874761557
 30
0.0
 11
8.542430605076301
 21
13.19913874761557
 31
0.0
  0
LINE
  5
21E
330
217
100
AcDbEntity
  8
0
  6
Continuous
 62
     0
370
    -2
100
AcDbLine
 10
15.01943060507629
 20
13.19913874761557
 30
0.0
 11
18.32143060507629
 21
13.19913874761557
 31
0.0
  0
LINE
  5
21F
330
217
100
AcDbEntity
  8
0
  6
Continuous
 62
     0
370
    -2
100
AcDbLine
 10
5.240430605076302
 20
13.19913874761557
 30
0.0
 11
1.938430605076302
 21
13.19913874761557
 31
0.0
  0
SOLID
  5
220
330
217
100
AcDbEntity
  8
0
 62
     0
100
AcDbTrace
 10
15.01943060507629
 20
13.7494720809489
 30
0.0
 11
15.01943060507629
 21
12.64880541428224
 31
0.0
 12
11.71743060507629
 22
13.19913874761557
 32
0.0
 13
11.71743060507629
 23
13.19913874761557
 33
0.0
  0
SOLID
  5
221
330
217
100
AcDbEntity
  8
0
 62
     0
100
AcDbTrace
 10
5.240430605076302
 20
12.64880541428224
 30
0.0
 11
5.240430605076302
 21
13.7494720809489
 31
0.0
 12
8.542430605076301
 22
13.19913874761557
 32
0.0
 13
8.542430605076301
 23
13.19913874761557
 33
0.0
  0
MTEXT
  5
222
330
217
100
AcDbEntity
  8
0
 62
     0
370
    15
100
AcDbMText
 10
-12.61156939492371
 20
17.57413874761557
 30
0.0
 40
3.5
 41
0.0
 71
     2
 72
     1
  1
\A1;3.18 [1/8]
  7
SLDTEXTSTYLE0
 73
     1
 44
1.0
  0
POINT
  5
223
330
217
100
AcDbEntity
  8
Defpoints
 62
     0
100
AcDbPoint
 10
11.71743060507629
 20
3.174999999999997
 30
0.0
  0
POINT
  5
224
330
217
100
AcDbEntity
  8
Defpoints
 62
     0
100
AcDbPoint
 10
8.542430605076301
 20
0.79375
 30
0.0
  0
POINT
  5
225
330
217
100
AcDbEntity
  8
Defpoints
 62
     0
100
AcDbPoint
 10
8.542430605076301
 20
13.19913874761557
 30
0.0
  0
ENDBLK
  5
219
330
217
100
AcDbEntity
  8
0
100
AcDbBlockEnd
  0
BLOCK
  5
227
330
226
100
AcDbEntity
  8
0
100
AcDbBlockBegin
  2
*D16
 70
     1
 10
0.0
 20
0.0
 30
0.0
  3
*D16
  1
*D16
  0
LINE
  5
229
330
226
100
AcDbEntity
  8
0
  6
Continuous
 62
     0
370
    -2
100
AcDbLine
 10
11.7799306050763
 20
0.7937500000000002
 30
0.0
 11
30.71743060507639
 21
0.7937500000000703
 31
0.0
  0
LINE
  5
22A
330
226
100
AcDbEntity
  8
0
  6
Continuous
 62
     0
370
    -2
100
AcDbLine
 10
11.7799306050763
 20
-0.7937499999999997
 30
0.0
 11
30.7174306050764
 21
-0.7937499999999282
 31
0.0
  0
LINE
  5
22B
330
226
100
AcDbEntity
  8
0
  6
Continuous
 62
     0
370
    -2
100
AcDbLine
 10
30.71743060507639
 20
0.7937500000000703
 30
0.0
 11
30.71743060507623
 21
36.54775000000007
 31
0.0
  0
LINE
  5
22C
330
226
100
AcDbEntity
  8
0
  6
Continuous
 62
     0
370
    -2
100
AcDbLine
 10
30.71743060507639
 20
0.7937500000000703
 30
0.0
 11
30.7174306050764
 21
-0.7937499999999282
 31
0.0
  0
LINE
  5
22D
330
226
100
AcDbEntity
  8
0
  6
Continuous
 62
     0
370
    -2
100
AcDbLine
 10
30.71743060507638
 20
4.09575000000007
 30
0.0
 11
30.71743060507636
 21
7.39775000000007
 31
0.0
  0
LINE
  5
22E
330
226
100
AcDbEntity
  8
0
  6
Continuous
 62
     0
370
    -2
100
AcDbLine
 10
30.71743060507641
 20
-4.095749999999928
 30
0.0
 11
30.71743060507643
 21
-7.397749999999927
 31
0.0
  0
SOLID
  5
22F
330
226
100
AcDbEntity
  8
0
 62
     0
100
AcDbTrace
 10
30.16709727174304
 20
4.095750000000067
 30
0.0
 11
31.26776393840971
 21
4.095750000000073
 31
0.0
 12
30.71743060507639
 22
0.7937500000000703
 32
0.0
 13
30.71743060507639
 23
0.7937500000000703
 33
0.0
  0
SOLID
  5
230
330
226
100
AcDbEntity
  8
0
 62
     0
100
AcDbTrace
 10
31.26776393840975
 20
-4.095749999999925
 30
0.0
 11
30.16709727174308
 21
-4.095749999999931
 31
0.0
 12
30.7174306050764
 22
-0.7937499999999282
 32
0.0
 13
30.7174306050764
 23
-0.7937499999999282
 33
0.0
  0
MTEXT
  5
231
330
226
100
AcDbEntity
  8
0
 62
     0
370
    15
100
AcDbMText
 10
26.34243060507629
 20
23.42275000000005
 30
0.0
 40
3.5
 41
0.0
 71
     2
 72
     1
  1
\A1;%%c1.59 [1/16]
  7
SLDTEXTSTYLE0
 11
-4.475859752819529E-15
 21
1.0
 31
0.0
 73
     1
 44
1.0
  0
POINT
  5
232
330
226
100
AcDbEntity
  8
Defpoints
 62
     0
100
AcDbPoint
 10
11.7174306050763
 20
0.79375
 30
0.0
  0
POINT
  5
233
330
226
100
AcDbEntity
  8
Defpoints
 62
     0
100
AcDbPoint
 10
11.7174306050763
 20
-0.79375
 30
0.0
  0
POINT
  5
234
330
226
100
AcDbEntity
  8
Defpoints
 62
     0
100
AcDbPoint
 10
30.7174306050764
 20
-0.793749999999929
 30
0.0
  0
ENDBLK
  5
228
330
226
100
AcDbEntity
  8
0
100
AcDbBlockEnd
  0
BLOCK
  5
236
330
235
100
AcDbEntity
  8
0
100
AcDbBlockBegin
  2
*D17
 70
     1
 10
0.0
 20
0.0
 30
0.0
  3
*D17
  1
*D17
  0
LINE
  5
238
330
235
100
AcDbEntity
  8
0
  6
Continuous
 62
     0
370
    -2
100
AcDbLine
 10
14.45673681132635
 20
-4.274362048362079
 30
0.0
 11
36.32127817950302
 21
-36.43887215845739
 31
0.0
  0
MTEXT
  5
239
330
235
100
AcDbEntity
  8
0
 62
     0
370
    15
100
AcDbMText
 10
31.35951593292938
 20
-24.47040539539719
 30
0.0
 40
3.5
 41
0.0
 71
     5
 72
     1
  1
\A1;R0.25 [R.01]
  7
SLDTEXTSTYLE0
 11
0.5621812170816006
 21
-0.8270140743425413
 31
0.0
 73
     1
 44
1.0
  0
LINE
  5
23A
330
235
100
AcDbEntity
  8
0
  6
Continuous
 62
     0
370
    -2
100
AcDbLine
 10
12.45762040338418
 20
-1.333500000000001
 30
0.0
 11
12.6004144325229
 21
-1.543561574883007
 31
0.0
  0
SOLID
  5
23B
330
235
100
AcDbEntity
  8
0
 62
     0
100
AcDbTrace
 10
14.91187022357286
 20
-3.964974985228171
 30
0.0
 11
14.00160339907984
 21
-4.583749111495987
 31
0.0
 12
12.6004144325229
 22
-1.543561574883007
 32
0.0
 13
12.6004144325229
 23
-1.543561574883007
 33
0.0
  0
POINT
  5
23C
330
235
100
AcDbEntity
  8
Defpoints
 62
     0
100
AcDbPoint
 10
12.6004144325229
 20
-1.543561574883007
 30
0.0
  0
POINT
  5
23D
330
235
100
AcDbEntity
  8
Defpoints
 62
     0
100
AcDbPoint
 10
12.45762040338418
 20
-1.333500000000001
 30
0.0
  0
ENDBLK
  5
237
330
235
100
AcDbEntity
  8
0
100
AcDbBlockEnd
  0
BLOCK
  5
247
330
246
100
AcDbEntity
  8
0
100
AcDbBlockBegin
  2
*D18
 70
     1
 10
0.0
 20
0.0
 30
0.0
  3
*D18
  1
*D18
  0
LINE
  5
249
330
246
100
AcDbEntity
  8
0
  6
Continuous
 62
     0
370
    -2
100
AcDbLine
 10
12.25905817863864
 20
-4.029929770376858
 30
0.0
 11
19.55702382335077
 21
-40.73851223345491
 31
0.0
  0
MTEXT
  5
24A
330
246
100
AcDbEntity
  8
0
 62
     0
370
    15
100
AcDbMText
 10
18.80458548078202
 20
-23.49167577598735
 30
0.0
 40
3.5
 41
0.0
 71
     5
 72
     1
  1
\A1;R.13 [R0.005000]
  7
SLDTEXTSTYLE0
 11
0.194992001622148
 21
-0.9808048324225307
 31
0.0
 73
     1
 44
1.0
  0
LINE
  5
24B
330
246
100
AcDbEntity
  8
0
  6
Continuous
 62
     0
370
    -2
100
AcDbLine
 10
11.59043060507629
 20
-0.6667500000000005
 30
0.0
 11
11.61519458928231
 21
-0.7913122137176618
 31
0.0
  0
SOLID
  5
24C
330
246
100
AcDbEntity
  8
0
 62
     0
100
AcDbTrace
 10
12.79882777141517
 20
-3.922619172150803
 30
0.0
 11
11.7192885858621
 21
-4.137240368602914
 31
0.0
 12
11.61519458928231
 22
-0.7913122137176618
 32
0.0
 13
11.61519458928231
 23
-0.7913122137176618
 33
0.0
  0
POINT
  5
24D
330
246
100
AcDbEntity
  8
Defpoints
 62
     0
100
AcDbPoint
 10
11.61519458928231
 20
-0.7913122137176618
 30
0.0
  0
POINT
  5
24E
330
246
100
AcDbEntity
  8
Defpoints
 62
     0
100
AcDbPoint
 10
11.59043060507629
 20
-0.6667500000000005
 30
0.0
  0
ENDBLK
  5
248
330
246
100
AcDbEntity
  8
0
100
AcDbBlockEnd
  0
BLOCK
  5
259
330
258
100
AcDbEntity
  8
0
100
AcDbBlockBegin
  2
*D19
 70
     1
 10
0.0
 20
0.0
 30
0.0
  3
*D19
  1
*D19
  0
LINE
  5
25B
330
258
100
AcDbEntity
  8
0
  6
Continuous
 62
     0
370
    -2
100
AcDbLine
 10
13.35497086159302
 20
-3.573518713888688
 30
0.0
 11
28.64432159717339
 21
-28.35031964408159
 31
0.0
  0
MTEXT
  5
25C
330
258
100
AcDbEntity
  8
0
 62
     0
370
    15
100
AcDbMText
 10
24.10056915459915
 20
-15.98843354999786
 30
0.0
 40
3.5
 41
0.0
 71
     5
 72
     1
  1
\A1;R0.2 [R.008]
  7
SLDTEXTSTYLE0
 11
0.52514557129885
 21
-0.8510124140958254
 31
0.0
 73
     1
 44
1.0
  0
LINE
  5
25D
330
258
100
AcDbEntity
  8
0
  6
Continuous
 62
     0
370
    -2
100
AcDbLine
 10
11.51423060507629
 20
-0.5905500000000006
 30
0.0
 11
11.62094018516422
 21
-0.7634757225442727
 31
0.0
  0
SOLID
  5
25E
330
258
100
AcDbEntity
  8
0
 62
     0
100
AcDbTrace
 10
13.82331136015042
 20
-3.284513601150554
 30
0.0
 11
12.88663036303562
 21
-3.862523826626822
 31
0.0
 12
11.62094018516422
 22
-0.7634757225442727
 32
0.0
 13
11.62094018516422
 23
-0.7634757225442727
 33
0.0
  0
POINT
  5
25F
330
258
100
AcDbEntity
  8
Defpoints
 62
     0
100
AcDbPoint
 10
11.62094018516422
 20
-0.7634757225442727
 30
0.0
  0
POINT
  5
260
330
258
100
AcDbEntity
  8
Defpoints
 62
     0
100
AcDbPoint
 10
11.51423060507629
 20
-0.5905500000000006
 30
0.0
  0
ENDBLK
  5
25A
330
258
100
AcDbEntity
  8
0
100
AcDbBlockEnd
  0
ENDSEC
  0
SECTION
  2
ENTITIES
  0
LINE
  5
B1
330
1F
100
AcDbEntity
  8
참조1
100
AcDbLine
 10
-19.49418979830788
 20
0.0010749287238892
 30
0.0
 11
-19.49418979830788
 21
-39.99892507127611
 31
0.0
  0
LINE
  5
B2
330
1F
100
AcDbEntity
  8
참조1
100
AcDbLine
 10
-19.49418979830788
 20
-39.99892507127611
 30
0.0
 11
-31.55304661261654
 21
-39.9989250712761
 31
0.0
  0
INSERT
  5
B4
330
1F
100
AcDbEntity
  8
0
  6
Continuous
 62
     7
100
AcDbBlockReference
 66
     1
  2
블럭10
 10
-33.43446273043309
 20
-52.04609937292004
 30
0.0
  0
ATTRIB
  5
B5
330
B4
100
AcDbEntity
  8
FORMAT
 62
     2
100
AcDbText
 10
-43.57609874256972
 20
-49.97073246008785
 30
0.0
 40
4.233333333333333
  1
EM639004 [ 4 FLUTE ]
 41
0.75
  7
SLDTEXTSTYLE0
 11
-43.57609874256972
 21
-52.08739912675452
 31
0.0
100
AcDbAttribute
  2
AUTOATTR0
 70
     0
 74
     1
  0
SEQEND
  5
B6
330
B4
100
AcDbEntity
  8
0
  6
Continuous
 62
     7
  0
HATCH
  5
B7
330
1F
100
AcDbEntity
  8
중심선
100
AcDbHatch
 10
0.0
 20
0.0
 30
0.0
210
0.0
220
0.0
230
1.0
  2
SOLID
 70
     1
 71
     0
 91
        1
 92
        0
 93
        4
 72
     1
 10
-27.71955342605225
 20
-35.7989250712761
 11
-31.16582866988954
 21
-35.7989250712761
 72
     1
 10
-31.16582866988954
 20
-35.7989250712761
 11
-33.29405852909355
 21
-38.3352506518487
 72
     1
 10
-33.29405852909355
 20
-38.3352506518487
 11
-29.84775020014312
 21
-38.33521122254621
 72
     1
 10
-29.84775020014312
 20
-38.33521122254621
 11
-27.71955342605225
 21
-35.7989250712761
 97
        0
 75
     0
 76
     1
 98
        1
 10
-0.994189798307894
 20
0.0
  0
HATCH
  5
B8
330
1F
100
AcDbEntity
  8
중심선
100
AcDbHatch
 10
0.0
 20
0.0
 30
0.0
210
0.0
220
0.0
230
1.0
  2
SOLID
 70
     1
 71
     0
 91
        1
 92
        0
 93
        4
 72
     1
 10
-22.7067894350163
 20
-35.7989250712761
 11
-26.15306467885358
 21
-35.7989250712761
 72
     1
 10
-26.15306467885358
 20
-35.7989250712761
 11
-30.68420268721097
 21
-41.19892507127612
 72
     1
 10
-30.68420268721097
 20
-41.19892507127612
 11
-27.23792744337369
 21
-41.19892507127612
 72
     1
 10
-27.23792744337369
 20
-41.19892507127612
 11
-22.7067894350163
 21
-35.7989250712761
 97
        0
 75
     0
 76
     1
 98
        1
 10
-0.994189798307894
 20
0.0
  0
HATCH
  5
B9
330
1F
100
AcDbEntity
  8
중심선
100
AcDbHatch
 10
0.0
 20
0.0
 30
0.0
210
0.0
220
0.0
230
1.0
  2
SOLID
 70
     1
 71
     0
 91
        1
 92
        0
 93
        4
 72
     1
 10
-17.6940254439804
 20
-35.7989250712761
 11
-21.14030068781749
 21
-35.79892507127613
 72
     1
 10
-21.14030068781749
 20
-35.79892507127613
 11
-28.18873758970677
 21
-44.19892507127612
 72
     1
 10
-28.18873758970677
 20
-44.19892507127612
 11
-24.74246234586949
 21
-44.19892507127612
 72
     1
 10
-24.74246234586949
 20
-44.19892507127612
 11
-17.6940254439804
 21
-35.7989250712761
 97
        0
 75
     0
 76
     1
 98
        1
 10
-0.994189798307894
 20
0.0
  0
HATCH
  5
BA
330
1F
100
AcDbEntity
  8
중심선
100
AcDbHatch
 10
0.0
 20
0.0
 30
0.0
210
0.0
220
0.0
230
1.0
  2
SOLID
 70
     1
 71
     0
 91
        1
 92
        0
 93
        6
 72
     3
 10
-12.89413501296821
 20
-39.99892507132738
 11
3.960054785062283
 21
1.540882976769353E-10
 40
0.3939339440162628
 50
17.09539180608437
 51
320.0019657685075
 73
     0
 72
     1
 10
-11.21113535726761
 20
-38.58681907591438
 11
-8.905833483566546
 21
-36.65249236586646
 72
     3
 10
-12.89413501302105
 20
-39.99892507127625
 11
6.600054785286829
 21
-1.278976924368180E-13
 40
0.6363583540795981
 50
39.99873849337413
 51
368.4976242363725
 73
     1
 72
     1
 10
-6.468802521120444
 20
-39.03892507120613
 11
-14.2140677061851
 21
-39.03892507120613
 72
     1
 10
-14.2140677061851
 20
-39.03892507120613
 11
-14.21409275063106
 21
-40.95892507120602
 72
     1
 10
-14.21409275063106
 20
-40.95892507120602
 11
-9.772712981159026
 21
-40.95892507120599
 97
        0
 75
     0
 76
     1
 98
        1
 10
-0.994189798307894
 20
0.0
  0
LINE
  5
107
330
1F
100
AcDbEntity
  8
참조1
100
AcDbLine
 10
66.41929401703771
 20
7.441074928723896
 30
0.0
 11
66.41929401703771
 21
-7.438925071276109
 31
0.0
  0
LINE
  5
108
330
1F
100
AcDbEntity
  8
참조1
100
AcDbLine
 10
79.11929401703772
 20
5.441074928723896
 30
0.0
 11
66.41929401703771
 21
5.441074928723896
 31
0.0
  0
SOLID
  5
109
330
1F
100
AcDbEntity
  8
참조1
100
AcDbTrace
 10
66.41929401703771
 20
5.441074928723896
 30
0.0
 11
72.76929401703771
 21
4.425074928723896
 31
0.0
 12
72.76929401703771
 22
6.457074928723896
 32
0.0
 13
72.76929401703771
 23
6.457074928723896
 33
0.0
  0
LINE
  5
10A
330
1F
100
AcDbEntity
  8
참조1
100
AcDbLine
 10
79.11929401703772
 20
-5.438925071276109
 30
0.0
 11
66.41929401703771
 21
-5.438925071276109
 31
0.0
  0
SOLID
  5
10B
330
1F
100
AcDbEntity
  8
참조1
100
AcDbTrace
 10
66.41929401703771
 20
-5.438925071276109
 30
0.0
 11
72.76929401703771
 21
-6.454925071276109
 31
0.0
 12
72.76929401703771
 22
-4.422925071276109
 32
0.0
 13
72.76929401703771
 23
-4.422925071276109
 33
0.0
  0
MTEXT
  5
10C
330
1F
100
AcDbEntity
  8
참조1
100
AcDbMText
 10
75.81678410950799
 20
10.98929157337383
 30
0.0
 40
3.5
 41
0.0
 71
     1
 72
     1
  1
A
  7
SLDTEXTSTYLE0
 73
     1
 44
1.0
  0
MTEXT
  5
10D
330
1F
100
AcDbEntity
  8
참조1
100
AcDbMText
 10
75.81678410950799
 20
0.1092915733738251
 30
0.0
 40
3.5
 41
0.0
 71
     1
 72
     1
  1
A
  7
SLDTEXTSTYLE0
 73
     1
 44
1.0
  0
LINE
  5
1D7
330
1F
100
AcDbEntity
  8
0
  6
Continuous
 62
     1
370
    15
100
AcDbLine
 10
10.15971655352236
 20
0.7937499999999995
 30
0.0
 11
9.675642831130425
 21
0.7937499999999995
 31
0.0
  0
LINE
  5
1D8
330
1F
100
AcDbEntity
  8
0
  6
Continuous
 62
     1
370
    15
100
AcDbLine
 10
9.67564283113041
 20
-0.7937500000000031
 30
0.0
 11
10.15971655352237
 21
-0.7937500000000031
 31
0.0
  0
LINE
  5
1D9
330
1F
100
AcDbEntity
  8
외형선
  6
Continuous
370
    15
100
AcDbLine
 10
-44.79756939492372
 20
3.17499999999999
 30
0.0
 11
-45.43256939492372
 21
2.539999999999992
 31
0.0
  0
LINE
  5
1DA
330
1F
100
AcDbEntity
  8
외형선
  6
Continuous
370
    15
100
AcDbLine
 10
-45.43256939492372
 20
-2.540000000000006
 30
0.0
 11
-44.79756939492372
 21
-3.175000000000004
 31
0.0
  0
SPLINE
  5
1DB
330
1F
100
AcDbEntity
  8
0
  6
Continuous
 62
     1
370
    15
100
AcDbSpline
210
0.0
220
0.0
230
1.0
 70
     8
 71
     3
 72
    10
 73
     6
 74
     0
 42
0.000000001
 43
0.00000001
 40
0.0
 40
0.0
 40
0.0
 40
0.0
 40
0.5
 40
0.5
 40
1.0
 40
1.0
 40
1.0
 40
1.0
 10
11.7174306050763
 20
0.0778011571177828
 30
0.0
 10
11.7174306050763
 20
0.0763775568164853
 30
0.0
 10
11.70981317174299
 20
0.0779064640079135
 30
0.0
 10
11.68519400899446
 20
0.0877899189814677
 30
0.0
 10
11.66907964527821
 20
0.0958855179584681
 30
0.0
 10
11.6539306050763
 20
0.1045618705206799
 30
0.0
  0
SPLINE
  5
1DC
330
1F
100
AcDbEntity
  8
0
  6
Continuous
 62
     1
370
    15
100
AcDbSpline
210
0.0
220
0.0
230
1.0
 70
     8
 71
     3
 72
    10
 73
     6
 74
     0
 42
0.000000001
 43
0.00000001
 40
0.0
 40
0.0
 40
0.0
 40
0.0
 40
0.5
 40
0.5
 40
1.0
 40
1.0
 40
1.0
 40
1.0
 10
11.65393060507629
 20
0.3694496909737915
 30
0.0
 10
11.67045828364618
 20
0.3609979674713273
 30
0.0
 10
11.6855980882106
 20
0.3485438334848361
 30
0.0
 10
11.70920378091403
 20
0.3212949790206708
 30
0.0
 10
11.71743060507629
 20
0.3065764492754291
 30
0.0
 10
11.71743060507629
 20
0.2956690650437857
 30
0.0
  0
LINE
  5
1DD
330
1F
100
AcDbEntity
  8
0
  6
Continuous
 62
     1
370
    15
100
AcDbLine
 10
11.7174306050763
 20
0.0778011571177828
 30
0.0
 11
11.7174306050763
 21
0.2956690650437822
 31
0.0
  0
SPLINE
  5
1DE
330
1F
100
AcDbEntity
  8
0
  6
Continuous
 62
     1
370
    15
100
AcDbSpline
210
0.0
220
0.0
230
1.0
 70
     8
 71
     3
 72
    12
 73
     8
 74
     0
 42
0.000000001
 43
0.00000001
 40
0.0
 40
0.0
 40
0.0
 40
0.0
 40
0.0837042324723336
 40
0.3128079135494536
 40
0.5418921638820784
 40
0.7709553865287893
 40
0.9999999999999999
 40
0.9999999999999999
 40
0.9999999999999999
 40
0.9999999999999999
 10
10.15971655352236
 20
0.789412270984496
 30
0.0
 10
10.20140327362341
 20
0.790396850601031
 30
0.0
 10
10.35718913477251
 20
0.7940762857559351
 30
0.0
 10
10.62711586582152
 20
0.7545754614217695
 30
0.0
 10
10.96941586851927
 20
0.6670923127314802
 30
0.0
 10
11.31168738729738
 20
0.5375721899894367
 30
0.0
 10
11.53985262197926
 20
0.4254890063045843
 30
0.0
 10
11.65393060507629
 20
0.3694496909737915
 30
0.0
  0
SPLINE
  5
1DF
330
1F
100
AcDbEntity
  8
0
  6
Continuous
 62
     1
370
    15
100
AcDbSpline
210
0.0
220
0.0
230
1.0
 70
     8
 71
     3
 72
    11
 73
     7
 74
     0
 42
0.000000001
 43
0.00000001
 40
0.0
 40
0.0
 40
0.0
 40
0.0
 40
0.0938953081159456
 40
0.3959567190688295
 40
0.6979905530526253
 40
1.0
 40
1.0
 40
1.0
 40
1.0
 10
9.67564283113041
 20
-0.7884911782782675
 30
0.0
 10
9.64017386850179
 20
-0.7899859626563848
 30
0.0
 10
9.490601175754854
 20
-0.7962894716383746
 30
0.0
 10
9.226941243362347
 20
-0.7570296264445526
 30
0.0
 10
8.884672542557318
 20
-0.6749342174935365
 30
0.0
 10
8.656508180343742
 20
-0.5843380331288835
 30
0.0
 10
8.542430605076298
 20
-0.5390417697662074
 30
0.0
  0
LINE
  5
1E0
330
1F
100
AcDbEntity
  8
외형선
  6
Continuous
370
    15
100
AcDbLine
 10
-44.79756939492372
 20
-0.0000000000000071
 30
0.0
 11
-44.79756939492372
 21
3.17499999999999
 31
0.0
  0
LINE
  5
1E1
330
1F
100
AcDbEntity
  8
외형선
  6
Continuous
370
    15
100
AcDbLine
 10
-44.79756939492372
 20
-3.175000000000011
 30
0.0
 11
-44.79756939492372
 21
-0.0000000000000071
 31
0.0
  0
LINE
  5
1E2
330
1F
100
AcDbEntity
  8
외형선
  6
Continuous
370
    15
100
AcDbLine
 10
-45.43256939492372
 20
-2.540000000000006
 30
0.0
 11
-45.43256939492372
 21
-0.0000000000000071
 31
0.0
  0
CIRCLE
  5
1E3
330
1F
100
AcDbEntity
  8
해칭선
100
AcDbCircle
 10
0.0
 20
0.0
 30
0.0
 40
3.000000000000001
  0
DIMENSION
  5
1E4
330
1F
100
AcDbEntity
  8
0
  6
Continuous
 62
     0
370
    15
100
AcDbDimension
  2
*D13
 10
-58.37006939492373
 20
-3.175000000000076
 30
0.0
 11
-58.37006939492374
 21
-1.318960617964109
 31
0.0
 70
   160
  1
%%c<>
 71
     2
 42
6.350000000000016
 52
-270.0
  3
SLDDIMSTYLE2
100
AcDbAlignedDimension
 13
-44.73506939492372
 23
3.17499999999999
 33
0.0
 14
-44.73506939492372
 24
-3.175000000000026
 34
0.0
 50
90.0000000000002
100
AcDbRotatedDimension
1001
ACAD
1000
DSTYLE
1002
{
1070
   171
1070
     6
1070
   273
1070
     7
1002
}
  0
DIMENSION
  5
1E5
330
1F
100
AcDbEntity
  8
0
  6
Continuous
 62
     0
370
    15
100
AcDbDimension
  2
*D14
 10
-45.43256939492372
 20
30.06070464653866
 30
0.0
 11
-16.85756939492371
 21
30.06070464653866
 31
0.0
 70
   160
  1
<>
 71
     2
 42
57.15000000000001
  3
SLDDIMSTYLE1
100
AcDbAlignedDimension
 13
11.71743060507629
 23
3.174999999999997
 33
0.0
 14
-45.43256939492372
 24
2.539999999999992
 34
0.0
 50
0.0000000000000053
100
AcDbRotatedDimension
1001
ACAD
1000
DSTYLE
1002
{
1070
   171
1070
     6
1070
   273
1070
     7
1002
}
  0
DIMENSION
  5
1E6
330
1F
100
AcDbEntity
  8
0
  6
Continuous
 62
     0
370
    15
100
AcDbDimension
  2
*D15
 10
8.542430605076301
 20
13.19913874761557
 30
0.0
 11
-12.61156939492371
 21
13.19913874761557
 31
0.0
 70
   160
  1
<>
 71
     2
 42
3.174999999999986
  3
SLDDIMSTYLE2
100
AcDbAlignedDimension
 13
11.71743060507629
 23
3.174999999999997
 33
0.0
 14
8.542430605076301
 24
0.79375
 34
0.0
100
AcDbRotatedDimension
1001
ACAD
1000
DSTYLE
1002
{
1070
   171
1070
     6
1070
   273
1070
     7
1002
}
  0
DIMENSION
  5
1E7
330
1F
100
AcDbEntity
  8
0
  6
Continuous
 62
     0
370
    15
100
AcDbDimension
  2
*D16
 10
30.7174306050764
 20
-0.7937499999999282
 30
0.0
 11
30.71743060507629
 21
23.42275000000007
 31
0.0
 70
   160
  1
%%c<>
 71
     2
 42
1.5875
 52
-270.0
  3
SLDDIMSTYLE3
100
AcDbAlignedDimension
 13
11.7174306050763
 23
0.79375
 33
0.0
 14
11.7174306050763
 24
-0.79375
 34
0.0
 50
90.0000000000002
100
AcDbRotatedDimension
1001
ACAD
1000
DSTYLE
1002
{
1070
   171
1070
     6
1070
   273
1070
     7
1002
}
  0
INSERT
  5
1E8
330
1F
100
AcDbEntity
  8
해칭선
100
AcDbBlockReference
  2
SW_DOWELSYMBOL_0
 10
0.0
 20
0.0
 30
0.0
  0
SPLINE
  5
1E9
330
1F
100
AcDbEntity
  8
0
  6
Continuous
 62
     1
370
    15
100
AcDbSpline
210
0.0
220
0.0
230
1.0
 70
  1080
 71
     3
 72
     8
 73
     4
 74
     2
 42
0.000000001
 43
0.0000000001
 44
0.0
 40
0.0
 40
0.0
 40
0.0
 40
0.0
 40
0.6671144688778052
 40
0.6671144688778052
 40
0.6671144688778052
 40
0.6671144688778052
 10
8.542430605076298
 20
0.7937499999999995
 30
0.0
 10
8.746662888782147
 20
0.7057826555433725
 30
0.0
 10
8.950895172487996
 20
0.6178153110867455
 30
0.0
 10
9.155127456193846
 20
0.5298479666301185
 30
0.0
 11
8.542430605076298
 21
0.7937499999999995
 31
0.0
 11
9.155127456193846
 21
0.5298479666301185
 31
0.0
  0
SPLINE
  5
1EA
330
1F
100
AcDbEntity
  8
0
  6
Continuous
 62
     1
370
    15
100
AcDbSpline
210
0.0
220
0.0
230
1.0
 70
     8
 71
     3
 72
    17
 73
    13
 74
     0
 42
0.000000001
 43
0.00000001
 40
0.0
 40
0.0
 40
0.0
 40
0.0
 40
0.1033196360155571
 40
0.2066132765736642
 40
0.3097877073056019
 40
0.4129220532579539
 40
0.5160959208058731
 40
0.6193884417512756
 40
0.7410595586017719
 40
0.8627199473810325
 40
0.9843692290653152
 40
0.9931107239744074
 40
0.9931107239744074
 40
0.9931107239744074
 40
0.9931107239744074
 10
11.6539306050763
 20
0.1045618705206835
 30
0.0
 10
11.55703406822354
 20
0.159523353587872
 30
0.0
 10
11.36326537390897
 20
0.2694324912870166
 30
0.0
 10
11.07273368158042
 20
0.4210054092098404
 30
0.0
 10
10.78247363951372
 20
0.5542638747774157
 30
0.0
 10
10.49233884958464
 20
0.6627541239956579
 30
0.0
 10
10.20207920375921
 20
0.7418903791839392
 30
0.0
 10
9.894345344078225
 20
0.7905420580237712
 30
0.0
 10
9.569243275501059
 20
0.800230471924632
 30
0.0
 10
9.226941759606902
 20
0.757266488794244
 30
0.0
 10
8.990553624737665
 20
0.7051139918048045
 30
0.0
 10
8.868268310505421
 20
0.6599962765372994
 30
0.0
 10
8.86007021715509
 20
0.6569356205013649
 30
0.0
  0
SPLINE
  5
1EB
330
1F
100
AcDbEntity
  8
0
  6
Continuous
 62
     1
370
    15
100
AcDbSpline
210
0.0
220
0.0
230
1.0
 70
     8
 71
     3
 72
     9
 73
     5
 74
     0
 42
0.000000001
 43
0.0000000001
 40
0.0
 40
0.0
 40
0.0
 40
0.0
 40
1.400987775349233
 40
1.943907794334781
 40
1.943907794334781
 40
1.943907794334781
 40
1.943907794334781
 10
8.542430605076298
 20
-0.7937499999999995
 30
0.0
 10
8.698085743561052
 20
-0.7868357404693784
 30
0.0
 10
8.914061387497945
 20
-0.7772420215018594
 30
0.0
 10
9.128378439878894
 20
-0.7520395552656256
 30
0.0
 10
9.188139275521515
 20
-0.7440931302642079
 30
0.0
  0
SPLINE
  5
1EC
330
1F
100
AcDbEntity
  8
0
  6
Continuous
 62
     1
370
    15
100
AcDbSpline
210
0.0
220
0.0
230
1.0
 70
     8
 71
     3
 72
    10
 73
     6
 74
     0
 42
0.000000001
 43
0.00000001
 40
0.0
 40
0.0
 40
0.0
 40
0.0
 40
0.4440268977639873
 40
0.8879420773418426
 40
0.9353798249026449
 40
0.9353798249026449
 40
0.9353798249026449
 40
0.9353798249026449
 10
11.51423060507629
 20
0.79375
 30
0.0
 10
11.43121838102854
 20
0.7906579082394922
 30
0.0
 10
11.27860165191961
 20
0.7533122391931217
 30
0.0
 10
11.07446879445643
 20
0.7049184044127196
 30
0.0
 10
10.9672727032043
 20
0.6676757761984079
 30
0.0
 10
10.9569236244205
 20
0.6640166391441548
 30
0.0
  0
LINE
  5
1ED
330
1F
100
AcDbEntity
  8
0
  6
Continuous
 62
     1
370
    15
100
AcDbLine
 10
11.7174306050763
 20
0.2956690650437822
 30
0.0
 11
11.7174306050763
 21
0.5905499999999999
 31
0.0
  0
SPLINE
  5
1EE
330
1F
100
AcDbEntity
  8
0
  6
Continuous
 62
     1
370
    15
100
AcDbSpline
210
0.0
220
0.0
230
1.0
 70
     8
 71
     3
 72
    15
 73
    11
 74
     0
 42
0.000000001
 43
0.00000001
 40
0.0
 40
0.0
 40
0.0
 40
0.0
 40
0.1183026471723103
 40
0.2365796185667716
 40
0.3547190133627428
 40
0.4728114192731241
 40
0.5909479882274168
 40
0.7092193418341672
 40
0.8485371472210375
 40
0.9661185162782178
 40
0.9661185162782178
 40
0.9661185162782178
 40
0.9661185162782178
 10
8.542430605076298
 20
-0.3050903102134762
 30
0.0
 10
8.639325075263166
 20
-0.3553797913547819
 30
0.0
 10
8.83309298617602
 20
-0.4559478390756518
 30
0.0
 10
9.12362769128309
 20
-0.5828409993520866
 30
0.0
 10
9.413890757122907
 20
-0.6848390981154006
 30
0.0
 10
9.704025608021993
 20
-0.7561783707974465
 30
0.0
 10
9.994282169395284
 20
-0.7937622414190353
 30
0.0
 10
10.30201196914759
 20
-0.797093170279439
 30
0.0
 10
10.60931811767556
 20
-0.7559494797793038
 30
0.0
 10
10.81973816441766
 20
-0.7100147414567602
 30
0.0
 10
10.91604498116449
 20
-0.678600159121146
 30
0.0
  0
LINE
  5
1EF
330
1F
100
AcDbEntity
  8
0
  6
Continuous
 62
     1
370
    15
100
AcDbLine
 10
11.7174306050763
 20
-0.5905500000000006
 30
0.0
 11
11.7174306050763
 21
0.077652743201714
 31
0.0
  0
SPLINE
  5
1F0
330
1F
100
AcDbEntity
  8
0
  6
Continuous
 62
     1
370
    15
100
AcDbSpline
210
0.0
220
0.0
230
1.0
 70
     8
 71
     3
 72
    38
 73
    34
 74
     0
 42
0.000000001
 43
0.00000001
 40
0.0061202117836599
 40
0.0061202117836599
 40
0.0061202117836599
 40
0.0061202117836599
 40
0.0625
 40
0.0625
 40
0.125
 40
0.125
 40
0.1874999999999999
 40
0.1874999999999999
 40
0.2499999999999999
 40
0.2499999999999999
 40
0.3125
 40
0.3125
 40
0.375
 40
0.375
 40
0.4375000000000001
 40
0.4375000000000001
 40
0.5000000000000001
 40
0.5000000000000001
 40
0.5625000000000001
 40
0.5625000000000001
 40
0.6250000000000001
 40
0.6250000000000001
 40
0.6875000000000001
 40
0.6875000000000001
 40
0.75
 40
0.75
 40
0.8125
 40
0.8125
 40
0.875
 40
0.875
 40
0.9375
 40
0.9375
 40
0.945729055112304
 40
0.945729055112304
 40
0.945729055112304
 40
0.945729055112304
 10
11.51423060507629
 20
-0.7937500000000006
 30
0.0
 10
11.40706688164147
 20
-0.7847554607942927
 30
0.0
 10
11.34817446757245
 20
-0.773338170297408
 30
0.0
 10
11.22467112542731
 20
-0.7540901996779932
 30
0.0
 10
11.16062079896329
 20
-0.741476631721728
 30
0.0
 10
11.03083590909809
 20
-0.7112927774679002
 30
0.0
 10
10.96550522869495
 20
-0.6937316292055656
 30
0.0
 10
10.83592058809457
 20
-0.6542031299464811
 30
0.0
 10
10.77180251262443
 20
-0.6322691877465908
 30
0.0
 10
10.64179998952125
 20
-0.5841351235118531
 30
0.0
 10
10.57650640923432
 20
-0.5579910552718667
 30
0.0
 10
10.44728414803014
 20
-0.5023528444456212
 30
0.0
 10
10.38290209143369
 20
-0.4728050906748643
 30
0.0
 10
10.25276829440521
 20
-0.4105420276941915
 30
0.0
 10
10.18755564003543
 20
-0.3779046149458588
 30
0.0
 10
10.05878039390108
 20
-0.3106194734251347
 30
0.0
 10
9.993938706175456
 20
-0.2757524618801775
 30
0.0
 10
9.863760285772237
 20
-0.2043173107739272
 30
0.0
 10
9.798902476520986
 20
-0.1678385966713414
 30
0.0
 10
9.670141344291167
 20
-0.0941913473416243
 30
0.0
 10
9.604931667300214
 20
-0.0567732274467261
 30
0.0
 10
9.47479537315381
 20
0.0181405918367013
 30
0.0
 10
9.410402814989745
 20
0.0555316679611657
 30
0.0
 10
9.281192244645766
 20
0.1297786476152823
 30
0.0
 10
9.215900382186739
 20
0.1667232996495685
 30
0.0
 10
9.085892870391213
 20
0.239144944214619
 30
0.0
 10
9.021769936455847
 20
0.2745166263969204
 30
0.0
 10
8.892194537942167
 20
0.3434428394592502
 30
0.0
 10
8.826864311952782
 20
0.3769666359658111
 30
0.0
 10
8.69707195288187
 20
0.4411293100304087
 30
0.0
 10
8.633022421774413
 20
0.4717123565945337
 30
0.0
 10
8.559546356264768
 20
0.5045868637069867
 30
0.0
 10
8.55099080997919
 20
0.508383585874043
 30
0.0
 10
8.542430605076298
 20
0.5121512826996161
 30
0.0
  0
LINE
  5
1F4
330
1F
100
AcDbEntity
  8
외형선
  6
Continuous
370
    15
100
AcDbLine
 10
2.0
 20
-3.17499999999999
 30
0.0
 11
2.0
 21
3.17499999999999
 31
0.0
  0
LINE
  5
1F5
330
1F
100
AcDbEntity
  8
외형선
  6
Continuous
370
    15
100
AcDbLine
 10
-45.43256939492372
 20
-0.0000000000000071
 30
0.0
 11
-45.43256939492372
 21
2.539999999999992
 31
0.0
  0
LINE
  5
1F6
330
1F
100
AcDbEntity
  8
중심선
 48
0.8
100
AcDbLine
 10
-48.43256939492372
 20
-0.0000000000000071
 30
0.0
 11
14.71743060507629
 21
0.0
 31
0.0
  0
LINE
  5
1F7
330
1F
100
AcDbEntity
  8
외형선
  6
Continuous
370
    15
100
AcDbLine
 10
2.0
 20
3.17499999999999
 30
0.0
 11
-44.79756939492373
 21
3.17499999999999
 31
0.0
  0
LINE
  5
1F8
330
1F
100
AcDbEntity
  8
외형선
  6
Continuous
370
    15
100
AcDbLine
 10
-44.79756939492372
 20
-3.175000000000011
 30
0.0
 11
1.999999999999942
 21
-3.175000000000011
 31
0.0
  0
SPLINE
  5
1FB
330
1F
100
AcDbEntity
  8
0
  6
Continuous
 62
     1
370
    15
100
AcDbSpline
210
0.0
220
0.0
230
1.0
 70
     8
 71
     3
 72
    32
 73
    28
 74
     0
 42
0.000000001
 43
0.00000001
 40
0.0089491666961416
 40
0.0089491666961416
 40
0.0089491666961416
 40
0.0089491666961416
 40
0.0625
 40
0.0625
 40
0.125
 40
0.125
 40
0.1875
 40
0.1875
 40
0.2499999999999999
 40
0.2499999999999999
 40
0.3124999999999999
 40
0.3124999999999999
 40
0.3749999999999999
 40
0.3749999999999999
 40
0.4374999999999999
 40
0.4374999999999999
 40
0.4999999999999999
 40
0.4999999999999999
 40
0.5625
 40
0.5625
 40
0.625
 40
0.625
 40
0.6875
 40
0.6875
 40
0.75
 40
0.75
 40
0.80322265625
 40
0.80322265625
 40
0.80322265625
 40
0.80322265625
 10
11.6885887986748
 20
-0.6949025769929348
 30
0.0
 10
11.57049095964334
 20
-0.679400585987594
 30
0.0
 10
11.51456882034642
 20
-0.6621642716612799
 30
0.0
 10
11.39400445876064
 20
-0.6214475016916304
 30
0.0
 10
11.32995413229662
 20
-0.597480011610447
 30
0.0
 10
11.20016924243142
 20
-0.5455233609467102
 30
0.0
 10
11.1348385620283
 20
-0.5175708441719885
 30
0.0
 10
11.00525392142791
 20
-0.45855860543222
 30
0.0
 10
10.94113584595774
 20
-0.4275337758786827
 30
0.0
 10
10.81113332285457
 20
-0.362560228088352
 30
0.0
 10
10.74583974256765
 20
-0.3286994877971204
 30
0.0
 10
10.61661748136347
 20
-0.2592556751225601
 30
0.0
 10
10.55223542476702
 20
-0.2235977617805212
 30
0.0
 10
10.42210162773853
 20
-0.1507757608815972
 30
0.0
 10
10.35688897336876
 20
-0.1137098705291493
 30
0.0
 10
10.22811372723442
 20
-0.039383741712097
 30
0.0
 10
10.16327203950878
 20
-0.001878623786105
 30
0.0
 10
10.03309361910555
 20
0.0729902447060376
 30
0.0
 10
9.96823580985432
 20
0.110260142455175
 30
0.0
 10
9.839474677624494
 20
0.1836407684779538
 30
0.0
 10
9.774265000633527
 20
0.2199978817487108
 30
0.0
 10
9.644128706487123
 20
0.2909464786182916
 30
0.0
 10
9.579736148323057
 20
0.3254446895061385
 30
0.0
 10
9.4505255779791
 20
0.3921296369587993
 30
0.0
 10
9.385233715520066
 20
0.4243902236191631
 30
0.0
 10
9.264875198740604
 20
0.4812117092172167
 30
0.0
 10
9.210159173560534
 20
0.5061458976437799
 30
0.0
 10
9.155127456193846
 20
0.5298479666301185
 30
0.0
  0
LINE
  5
23F
330
1F
100
AcDbEntity
  8
외형선
  6
Continuous
370
    15
100
AcDbLine
 10
8.542430605076301
 20
0.79375
 30
0.0
 11
8.542430605076301
 21
-0.79375
 31
0.0
  0
LINE
  5
240
330
1F
100
AcDbEntity
  8
외형선
  6
Continuous
370
    15
100
AcDbLine
 10
8.542430605076298
 20
0.7937499999999993
 30
0.0
 11
2.000000000000002
 21
3.17499999999999
 31
0.0
  0
LINE
  5
241
330
1F
100
AcDbEntity
  8
외형선
  6
Continuous
370
    15
100
AcDbLine
 10
8.542430605076298
 20
-0.7937499999999993
 30
0.0
 11
2.000000000000002
 21
-3.17499999999999
 31
0.0
  0
ARC
  5
253
330
1F
100
AcDbEntity
  8
0
  6
Continuous
 62
     1
370
    15
100
AcDbCircle
 10
11.51423060507629
 20
0.5905499999999999
 30
0.0
 40
0.2032
100
AcDbArc
 50
0.0
 51
90.0
  0
ARC
  5
254
102
{ACAD_REACTORS
102
}
330
1F
100
AcDbEntity
  8
0
  6
Continuous
 62
     1
370
    15
100
AcDbCircle
 10
11.51423060507629
 20
-0.5905500000000006
 30
0.0
 40
0.2032
100
AcDbArc
 50
270.0
 51
0.0
  0
DIMENSION
  5
255
102
{ACAD_REACTORS
102
}
102
{ACAD_XDICTIONARY
360
256
102
}
330
1F
100
AcDbEntity
  8
0
  6
Continuous
 62
     0
370
    15
100
AcDbDimension
  2
*D19
 10
11.51423060507629
 20
-0.5905500000000006
 30
0.0
 11
21.8666615675976
 21
-17.36694067465735
 31
0.0
 70
   164
  1
<>
 71
     5
 42
0.2032000000000004
  3
SLDDIMSTYLE3
100
AcDbRadialDimension
 15
11.62094018516422
 25
-0.7634757225442727
 35
0.0
 40
0.0
1001
ACAD
1000
DSTYLE
1002
{
1070
    78
1070
     8
1070
   285
1070
     4
1070
   171
1070
     3
1070
   273
1070
     2
1002
}
1001
ACAD_DSTYLE_DIMRADIAL_EXTENSION
1070
   387
1070
     1
1070
   388
1040
4.71238898038469
1070
   390
1040
0.0
  0
ENDSEC
  0
SECTION
  2
OBJECTS
  0
DICTIONARY
  5
C
330
0
100
AcDbDictionary
281
     1
  3
ACAD_GROUP
350
D
  3
ACAD_IMAGE_VARS
350
138
  3
ACAD_LAYOUT
350
1A
  3
ACAD_MLINESTYLE
350
17
  3
ACAD_PLOTSETTINGS
350
19
  3
ACAD_PLOTSTYLENAME
350
E
  3
ACAD_SCALELIST
350
47
  3
APPDATA
350
136
  3
DWGPROPS
350
262
  0
DICTIONARY
  5
1D2
330
2
100
AcDbDictionary
280
     1
281
     1
  3
ACAD_LAYERSTATES
360
1D3
  0
DICTIONARY
  5
256
330
255
100
AcDbDictionary
280
     1
281
     1
  0
DICTIONARY
  5
D
102
{ACAD_REACTORS
330
C
102
}
330
C
100
AcDbDictionary
281
     1
  0
RASTERVARIABLES
  5
138
102
{ACAD_REACTORS
330
C
102
}
330
C
100
AcDbRasterVariables
 90
        0
 70
     1
 71
     1
 72
     1
  0
DICTIONARY
  5
1A
102
{ACAD_REACTORS
330
C
102
}
330
C
100
AcDbDictionary
281
     1
  3
Layout1
350
1E
  3
Layout2
350
26
  3
Model
350
22
  0
DICTIONARY
  5
17
102
{ACAD_REACTORS
330
C
102
}
330
C
100
AcDbDictionary
281
     1
  3
Standard
350
18
  0
DICTIONARY
  5
19
102
{ACAD_REACTORS
330
C
102
}
330
C
100
AcDbDictionary
281
     1
  0
ACDBDICTIONARYWDFLT
  5
E
102
{ACAD_REACTORS
330
C
102
}
330
C
100
AcDbDictionary
281
     1
  3
Normal
350
F
100
AcDbDictionaryWithDefault
340
F
  0
DICTIONARY
  5
47
102
{ACAD_REACTORS
330
C
102
}
330
C
100
AcDbDictionary
281
     1
  3
A0
350
48
  3
A1
350
49
  3
A2
350
4A
  3
A3
350
4B
  3
A4
350
4C
  3
A5
350
4D
  3
A6
350
4E
  3
A7
350
4F
  3
A8
350
50
  3
A9
350
51
  3
B0
350
52
  3
B1
350
53
  3
B2
350
54
  3
B3
350
55
  3
B4
350
56
  3
B5
350
57
  3
B6
350
58
  3
B7
350
59
  3
B8
350
5A
  3
B9
350
5B
  3
C0
350
5C
  3
C1
350
5D
  3
C2
350
5E
  3
C3
350
5F
  3
C4
350
60
  3
C5
350
61
  3
C6
350
62
  3
C7
350
63
  3
C8
350
64
  3
C9
350
65
  3
D0
350
66
  3
D1
350
67
  3
D2
350
68
  0
DICTIONARY
  5
136
102
{ACAD_REACTORS
330
C
102
}
330
C
100
AcDbDictionary
281
     1
  0
XRECORD
  5
262
102
{ACAD_REACTORS
330
C
102
}
330
C
100
AcDbXrecord
280
     1
  1
DWGPROPS COOKIE
  2

  3

  4

  6

  7

  8
12016016
  9

300
=
301
=
302
=
303
=
304
=
305
=
306
=
307
=
308
=
309
=
 40
0.0
 41
2458296.311954062
 42
2458304.053322778
  1

 90
        0
  0
DICTIONARY
  5
1D3
102
{ACAD_REACTORS
330
1D2
102
}
330
1D2
100
AcDbDictionary
281
     1
  0
LAYOUT
  5
1E
102
{ACAD_REACTORS
330
1A
102
}
330
1A
100
AcDbPlotSettings
  1

  2
none_device
  4

  6

 40
0.0
 41
0.0
 42
0.0
 43
0.0
 44
0.0
 45
0.0
 46
0.0
 47
0.0
 48
0.0
 49
0.0
140
0.0
141
0.0
142
1.0
143
1.0
 70
   688
 72
     1
 73
     0
 74
     5
  7

 75
    16
147
1.0
148
0.0
149
0.0
100
AcDbLayout
  1
Layout1
 70
     1
 71
     1
 10
0.0
 20
0.0
 11
420.0
 21
297.0
 12
0.0
 22
0.0
 32
0.0
 14
1.000000000000000E+20
 24
1.000000000000000E+20
 34
1.000000000000000E+20
 15
-1.000000000000000E+20
 25
-1.000000000000000E+20
 35
-1.000000000000000E+20
146
0.0
 13
0.0
 23
0.0
 33
0.0
 16
1.0
 26
0.0
 36
0.0
 17
0.0
 27
1.0
 37
0.0
 76
     0
330
1B
  0
LAYOUT
  5
26
102
{ACAD_REACTORS
330
1A
102
}
330
1A
100
AcDbPlotSettings
  1

  2
none_device
  4

  6

 40
0.0
 41
0.0
 42
0.0
 43
0.0
 44
0.0
 45
0.0
 46
0.0
 47
0.0
 48
0.0
 49
0.0
140
0.0
141
0.0
142
1.0
143
1.0
 70
   688
 72
     1
 73
     0
 74
     5
  7

 75
    16
147
1.0
148
0.0
149
0.0
100
AcDbLayout
  1
Layout2
 70
     1
 71
     2
 10
0.0
 20
0.0
 11
0.0
 21
0.0
 12
0.0
 22
0.0
 32
0.0
 14
0.0
 24
0.0
 34
0.0
 15
0.0
 25
0.0
 35
0.0
146
0.0
 13
0.0
 23
0.0
 33
0.0
 16
1.0
 26
0.0
 36
0.0
 17
0.0
 27
1.0
 37
0.0
 76
     0
330
23
  0
LAYOUT
  5
22
102
{ACAD_REACTORS
330
1A
102
}
330
1A
100
AcDbPlotSettings
  1

  2
none_device
  4
ANSI_A_(11.00_x_8.50_Inches)
  6

 40
6.35
 41
19.05
 42
6.35000508
 43
19.05000254
 44
279.4
 45
215.9
 46
109.4444827120707
 47
101.1263605523763
 48
0.0
 49
0.0
140
0.0
141
0.0
142
0.0797139469389385
143
1.0
 70
  1696
 72
     0
 73
     0
 74
     0
  7

 75
     0
147
0.0235690232323232
148
0.0
149
0.0
100
AcDbLayout
  1
Model
 70
     1
 71
     0
 10
0.0
 20
0.0
 11
420.0
 21
297.0
 12
0.0
 22
0.0
 32
0.0
 14
1.000000000000000E+20
 24
1.000000000000000E+20
 34
1.000000000000000E+20
 15
-1.000000000000000E+20
 25
-1.000000000000000E+20
 35
-1.000000000000000E+20
146
0.0
 13
0.0
 23
0.0
 33
0.0
 16
1.0
 26
0.0
 36
0.0
 17
0.0
 27
1.0
 37
0.0
 76
     0
330
1F
331
29
  0
MLINESTYLE
  5
18
102
{ACAD_REACTORS
330
17
102
}
330
17
100
AcDbMlineStyle
  2
Standard
 70
     0
  3

 62
   256
 51
90.0
 52
90.0
 71
     2
 49
0.5
 62
   256
  6
BYLAYER
 49
-0.5
 62
   256
  6
BYLAYER
  0
ACDBPLACEHOLDER
  5
F
102
{ACAD_REACTORS
330
E
102
}
330
E
  0
SCALE
  5
48
102
{ACAD_REACTORS
330
47
102
}
330
47
100
AcDbScale
 70
     0
300
1:1
140
1.0
141
1.0
290
     1
  0
SCALE
  5
49
102
{ACAD_REACTORS
330
47
102
}
330
47
100
AcDbScale
 70
     0
300
1:2
140
1.0
141
2.0
290
     0
  0
SCALE
  5
4A
102
{ACAD_REACTORS
330
47
102
}
330
47
100
AcDbScale
 70
     0
300
1:4
140
1.0
141
4.0
290
     0
  0
SCALE
  5
4B
102
{ACAD_REACTORS
330
47
102
}
330
47
100
AcDbScale
 70
     0
300
1:5
140
1.0
141
5.0
290
     0
  0
SCALE
  5
4C
102
{ACAD_REACTORS
330
47
102
}
330
47
100
AcDbScale
 70
     0
300
1:8
140
1.0
141
8.0
290
     0
  0
SCALE
  5
4D
102
{ACAD_REACTORS
330
47
102
}
330
47
100
AcDbScale
 70
     0
300
1:10
140
1.0
141
10.0
290
     0
  0
SCALE
  5
4E
102
{ACAD_REACTORS
330
47
102
}
330
47
100
AcDbScale
 70
     0
300
1:16
140
1.0
141
16.0
290
     0
  0
SCALE
  5
4F
102
{ACAD_REACTORS
330
47
102
}
330
47
100
AcDbScale
 70
     0
300
1:20
140
1.0
141
20.0
290
     0
  0
SCALE
  5
50
102
{ACAD_REACTORS
330
47
102
}
330
47
100
AcDbScale
 70
     0
300
1:30
140
1.0
141
30.0
290
     0
  0
SCALE
  5
51
102
{ACAD_REACTORS
330
47
102
}
330
47
100
AcDbScale
 70
     0
300
1:40
140
1.0
141
40.0
290
     0
  0
SCALE
  5
52
102
{ACAD_REACTORS
330
47
102
}
330
47
100
AcDbScale
 70
     0
300
1:50
140
1.0
141
50.0
290
     0
  0
SCALE
  5
53
102
{ACAD_REACTORS
330
47
102
}
330
47
100
AcDbScale
 70
     0
300
1:100
140
1.0
141
100.0
290
     0
  0
SCALE
  5
54
102
{ACAD_REACTORS
330
47
102
}
330
47
100
AcDbScale
 70
     0
300
2:1
140
2.0
141
1.0
290
     0
  0
SCALE
  5
55
102
{ACAD_REACTORS
330
47
102
}
330
47
100
AcDbScale
 70
     0
300
4:1
140
4.0
141
1.0
290
     0
  0
SCALE
  5
56
102
{ACAD_REACTORS
330
47
102
}
330
47
100
AcDbScale
 70
     0
300
8:1
140
8.0
141
1.0
290
     0
  0
SCALE
  5
57
102
{ACAD_REACTORS
330
47
102
}
330
47
100
AcDbScale
 70
     0
300
10:1
140
10.0
141
1.0
290
     0
  0
SCALE
  5
58
102
{ACAD_REACTORS
330
47
102
}
330
47
100
AcDbScale
 70
     0
300
100:1
140
100.0
141
1.0
290
     0
  0
SCALE
  5
59
102
{ACAD_REACTORS
330
47
102
}
330
47
100
AcDbScale
 70
     0
300
1/128" = 1'-0"
140
0.0078125
141
12.0
290
     0
  0
SCALE
  5
5A
102
{ACAD_REACTORS
330
47
102
}
330
47
100
AcDbScale
 70
     0
300
1/64" = 1'-0"
140
0.015625
141
12.0
290
     0
  0
SCALE
  5
5B
102
{ACAD_REACTORS
330
47
102
}
330
47
100
AcDbScale
 70
     0
300
1/32" = 1'-0"
140
0.03125
141
12.0
290
     0
  0
SCALE
  5
5C
102
{ACAD_REACTORS
330
47
102
}
330
47
100
AcDbScale
 70
     0
300
1/16" = 1'-0"
140
0.0625
141
12.0
290
     0
  0
SCALE
  5
5D
102
{ACAD_REACTORS
330
47
102
}
330
47
100
AcDbScale
 70
     0
300
3/32" = 1'-0"
140
0.09375
141
12.0
290
     0
  0
SCALE
  5
5E
102
{ACAD_REACTORS
330
47
102
}
330
47
100
AcDbScale
 70
     0
300
1/8" = 1'-0"
140
0.125
141
12.0
290
     0
  0
SCALE
  5
5F
102
{ACAD_REACTORS
330
47
102
}
330
47
100
AcDbScale
 70
     0
300
3/16" = 1'-0"
140
0.1875
141
12.0
290
     0
  0
SCALE
  5
60
102
{ACAD_REACTORS
330
47
102
}
330
47
100
AcDbScale
 70
     0
300
1/4" = 1'-0"
140
0.25
141
12.0
290
     0
  0
SCALE
  5
61
102
{ACAD_REACTORS
330
47
102
}
330
47
100
AcDbScale
 70
     0
300
3/8" = 1'-0"
140
0.375
141
12.0
290
     0
  0
SCALE
  5
62
102
{ACAD_REACTORS
330
47
102
}
330
47
100
AcDbScale
 70
     0
300
1/2" = 1'-0"
140
0.5
141
12.0
290
     0
  0
SCALE
  5
63
102
{ACAD_REACTORS
330
47
102
}
330
47
100
AcDbScale
 70
     0
300
3/4" = 1'-0"
140
0.75
141
12.0
290
     0
  0
SCALE
  5
64
102
{ACAD_REACTORS
330
47
102
}
330
47
100
AcDbScale
 70
     0
300
1" = 1'-0"
140
1.0
141
12.0
290
     0
  0
SCALE
  5
65
102
{ACAD_REACTORS
330
47
102
}
330
47
100
AcDbScale
 70
     0
300
1-1/2" = 1'-0"
140
1.5
141
12.0
290
     0
  0
SCALE
  5
66
102
{ACAD_REACTORS
330
47
102
}
330
47
100
AcDbScale
 70
     0
300
3" = 1'-0"
140
3.0
141
12.0
290
     0
  0
SCALE
  5
67
102
{ACAD_REACTORS
330
47
102
}
330
47
100
AcDbScale
 70
     0
300
6" = 1'-0"
140
6.0
141
12.0
290
     0
  0
SCALE
  5
68
102
{ACAD_REACTORS
330
47
102
}
330
47
100
AcDbScale
 70
     0
300
1'-0" = 1'-0"
140
12.0
141
12.0
290
     0
  0
ENDSEC
  0
EOF
