  0
SECTION
  2
HEADER
  9
$ACADVER
  1
AC1015
  9
$ACADMAINTVER
 70
     6
  9
$DWGCODEPAGE
  3
ANSI_949
  9
$INSBASE
 10
0.0
 20
0.0
 30
0.0
  9
$EXTMIN
 10
1.000000000000000E+20
 20
1.000000000000000E+20
 30
1.000000000000000E+20
  9
$EXTMAX
 10
-1.000000000000000E+20
 20
-1.000000000000000E+20
 30
-1.000000000000000E+20
  9
$LIMMIN
 10
0.0
 20
0.0
  9
$LIMMAX
 10
420.0
 20
297.0
  9
$ORTHOMODE
 70
     0
  9
$REGENMODE
 70
     1
  9
$FILLMODE
 70
     1
  9
$QTEXTMODE
 70
     0
  9
$MIRRTEXT
 70
     1
  9
$LTSCALE
 40
1.0
  9
$ATTMODE
 70
     1
  9
$TEXTSIZE
 40
3.5
  9
$TRACEWID
 40
1.0
  9
$TEXTSTYLE
  7
Standard
  9
$CLAYER
  8
0
  9
$CELTYPE
  6
ByLayer
  9
$CECOLOR
 62
   256
  9
$CELTSCALE
 40
1.0
  9
$DISPSILH
 70
     0
  9
$DIMSCALE
 40
1.0
  9
$DIMASZ
 40
3.302
  9
$DIMEXO
 40
1.0
  9
$DIMDLI
 40
3.75
  9
$DIMRND
 40
0.0
  9
$DIMDLE
 40
0.0
  9
$DIMEXE
 40
1.0
  9
$DIMTP
 40
0.0
  9
$DIMTM
 40
0.0
  9
$DIMTXT
 40
3.5
  9
$DIMCEN
 40
2.5
  9
$DIMTSZ
 40
0.0
  9
$DIMTOL
 70
     0
  9
$DIMLIM
 70
     0
  9
$DIMTIH
 70
     1
  9
$DIMTOH
 70
     1
  9
$DIMSE1
 70
     0
  9
$DIMSE2
 70
     0
  9
$DIMTAD
 70
     1
  9
$DIMZIN
 70
     0
  9
$DIMBLK
  1

  9
$DIMASO
 70
     1
  9
$DIMSHO
 70
     1
  9
$DIMPOST
  1

  9
$DIMAPOST
  1

  9
$DIMALT
 70
     0
  9
$DIMALTD
 70
     3
  9
$DIMALTF
 40
0.0393700787401575
  9
$DIMLFAC
 40
1.0
  9
$DIMTOFL
 70
     1
  9
$DIMTVP
 40
0.0
  9
$DIMTIX
 70
     0
  9
$DIMSOXD
 70
     0
  9
$DIMSAH
 70
     0
  9
$DIMBLK1
  1

  9
$DIMBLK2
  1

  9
$DIMSTYLE
  2
ISO-25
  9
$DIMCLRD
 70
     0
  9
$DIMCLRE
 70
     0
  9
$DIMCLRT
 70
     0
  9
$DIMTFAC
 40
1.0
  9
$DIMGAP
 40
1.524
  9
$DIMJUST
 70
     0
  9
$DIMSD1
 70
     0
  9
$DIMSD2
 70
     0
  9
$DIMTOLJ
 70
     0
  9
$DIMTZIN
 70
     0
  9
$DIMALTZ
 70
     0
  9
$DIMALTTZ
 70
     0
  9
$DIMUPT
 70
     0
  9
$DIMDEC
 70
     2
  9
$DIMTDEC
 70
     2
  9
$DIMALTU
 70
     2
  9
$DIMALTTD
 70
     3
  9
$DIMTXSTY
  7
Standard
  9
$DIMAUNIT
 70
     0
  9
$DIMADEC
 70
     2
  9
$DIMALTRND
 40
0.0
  9
$DIMAZIN
 70
     0
  9
$DIMDSEP
 70
    44
  9
$DIMATFIT
 70
     3
  9
$DIMFRAC
 70
     0
  9
$DIMLDRBLK
  1

  9
$DIMLUNIT
 70
     2
  9
$DIMLWD
 70
    -2
  9
$DIMLWE
 70
    -2
  9
$DIMTMOVE
 70
     0
  9
$LUNITS
 70
     2
  9
$LUPREC
 70
     2
  9
$SKETCHINC
 40
1.0
  9
$FILLETRAD
 40
10.0
  9
$AUNITS
 70
     0
  9
$AUPREC
 70
     2
  9
$MENU
  1
.
  9
$ELEVATION
 40
0.0
  9
$PELEVATION
 40
0.0
  9
$THICKNESS
 40
0.0
  9
$LIMCHECK
 70
     0
  9
$CHAMFERA
 40
0.0
  9
$CHAMFERB
 40
0.0
  9
$CHAMFERC
 40
0.0
  9
$CHAMFERD
 40
0.0
  9
$SKPOLY
 70
     0
  9
$TDCREATE
 40
2458288.658433704
  9
$TDUCREATE
 40
2458288.283433704
  9
$TDUPDATE
 40
2458295.755996343
  9
$TDUUPDATE
 40
2458295.380996343
  9
$TDINDWG
 40
0.0011211111
  9
$TDUSRTIMER
 40
2458295.379875799
  9
$USRTIMER
 70
     1
  9
$ANGBASE
 50
0.0
  9
$ANGDIR
 70
     0
  9
$PDMODE
 70
     0
  9
$PDSIZE
 40
-1.0
  9
$PLINEWID
 40
0.0
  9
$SPLFRAME
 70
     0
  9
$SPLINETYPE
 70
     6
  9
$SPLINESEGS
 70
     8
  9
$HANDSEED
  5
2C6
  9
$SURFTAB1
 70
     6
  9
$SURFTAB2
 70
     6
  9
$SURFTYPE
 70
     6
  9
$SURFU
 70
     6
  9
$SURFV
 70
     6
  9
$UCSBASE
  2

  9
$UCSNAME
  2

  9
$UCSORG
 10
0.0
 20
0.0
 30
0.0
  9
$UCSXDIR
 10
1.0
 20
0.0
 30
0.0
  9
$UCSYDIR
 10
0.0
 20
1.0
 30
0.0
  9
$UCSORTHOREF
  2

  9
$UCSORTHOVIEW
 70
     0
  9
$UCSORGTOP
 10
0.0
 20
0.0
 30
0.0
  9
$UCSORGBOTTOM
 10
0.0
 20
0.0
 30
0.0
  9
$UCSORGLEFT
 10
0.0
 20
0.0
 30
0.0
  9
$UCSORGRIGHT
 10
0.0
 20
0.0
 30
0.0
  9
$UCSORGFRONT
 10
0.0
 20
0.0
 30
0.0
  9
$UCSORGBACK
 10
0.0
 20
0.0
 30
0.0
  9
$PUCSBASE
  2

  9
$PUCSNAME
  2

  9
$PUCSORG
 10
0.0
 20
0.0
 30
0.0
  9
$PUCSXDIR
 10
1.0
 20
0.0
 30
0.0
  9
$PUCSYDIR
 10
0.0
 20
1.0
 30
0.0
  9
$PUCSORTHOREF
  2

  9
$PUCSORTHOVIEW
 70
     0
  9
$PUCSORGTOP
 10
0.0
 20
0.0
 30
0.0
  9
$PUCSORGBOTTOM
 10
0.0
 20
0.0
 30
0.0
  9
$PUCSORGLEFT
 10
0.0
 20
0.0
 30
0.0
  9
$PUCSORGRIGHT
 10
0.0
 20
0.0
 30
0.0
  9
$PUCSORGFRONT
 10
0.0
 20
0.0
 30
0.0
  9
$PUCSORGBACK
 10
0.0
 20
0.0
 30
0.0
  9
$USERI1
 70
     0
  9
$USERI2
 70
     0
  9
$USERI3
 70
     0
  9
$USERI4
 70
     0
  9
$USERI5
 70
     0
  9
$USERR1
 40
0.0
  9
$USERR2
 40
0.0
  9
$USERR3
 40
0.0
  9
$USERR4
 40
0.0
  9
$USERR5
 40
0.0
  9
$WORLDVIEW
 70
     1
  9
$SHADEDGE
 70
     3
  9
$SHADEDIF
 70
    70
  9
$TILEMODE
 70
     1
  9
$MAXACTVP
 70
    64
  9
$PINSBASE
 10
0.0
 20
0.0
 30
0.0
  9
$PLIMCHECK
 70
     0
  9
$PEXTMIN
 10
1.000000000000000E+20
 20
1.000000000000000E+20
 30
1.000000000000000E+20
  9
$PEXTMAX
 10
-1.000000000000000E+20
 20
-1.000000000000000E+20
 30
-1.000000000000000E+20
  9
$PLIMMIN
 10
0.0
 20
0.0
  9
$PLIMMAX
 10
0.0
 20
0.0
  9
$UNITMODE
 70
     0
  9
$VISRETAIN
 70
     1
  9
$PLINEGEN
 70
     0
  9
$PSLTSCALE
 70
     1
  9
$TREEDEPTH
 70
  3020
  9
$CMLSTYLE
  2
Standard
  9
$CMLJUST
 70
     0
  9
$CMLSCALE
 40
20.0
  9
$PROXYGRAPHICS
 70
     1
  9
$MEASUREMENT
 70
     1
  9
$CELWEIGHT
370
    -1
  9
$ENDCAPS
280
     0
  9
$JOINSTYLE
280
     0
  9
$LWDISPLAY
290
     1
  9
$INSUNITS
 70
     4
  9
$HYPERLINKBASE
  1

  9
$STYLESHEET
  1

  9
$XEDIT
290
     1
  9
$CEPSNTYPE
380
     0
  9
$PSTYLEMODE
290
     1
  9
$FINGERPRINTGUID
  2
{4534578B-AFFC-4172-B359-A797408D9DC2}
  9
$VERSIONGUID
  2
{FAEB1C32-E019-11D5-929B-00C0DF256EC4}
  9
$EXTNAMES
290
     1
  9
$PSVPSCALE
 40
0.0
  9
$OLESTARTUP
290
     0
  0
ENDSEC
  0
SECTION
  2
CLASSES
  0
CLASS
  1
ACDBDICTIONARYWDFLT
  2
AcDbDictionaryWithDefault
  3
ObjectDBX Classes
 90
        0
280
     0
281
     0
  0
CLASS
  1
VISUALSTYLE
  2
AcDbVisualStyle
  3
ObjectDBX Classes
 90
     4095
280
     0
281
     0
  0
CLASS
  1
MATERIAL
  2
AcDbMaterial
  3
ObjectDBX Classes
 90
     1153
280
     0
281
     0
  0
CLASS
  1
SCALE
  2
AcDbScale
  3
ObjectDBX Classes
 90
     1153
280
     0
281
     0
  0
CLASS
  1
SUN
  2
AcDbSun
  3
SCENEOE
 90
     1153
280
     0
281
     0
  0
CLASS
  1
ACDBPLACEHOLDER
  2
AcDbPlaceHolder
  3
ObjectDBX Classes
 90
        0
280
     0
281
     0
  0
CLASS
  1
LAYOUT
  2
AcDbLayout
  3
ObjectDBX Classes
 90
        0
280
     0
281
     0
  0
CLASS
  1
TABLESTYLE
  2
AcDbTableStyle
  3
ObjectDBX Classes
 90
     4095
280
     0
281
     0
  0
CLASS
  1
MLEADERSTYLE
  2
AcDbMLeaderStyle
  3
ACDB_MLEADERSTYLE_CLASS
 90
     4095
280
     0
281
     0
  0
CLASS
  1
RASTERVARIABLES
  2
AcDbRasterVariables
  3
ISM
 90
        0
280
     0
281
     0
  0
CLASS
  1
DIMASSOC
  2
AcDbDimAssoc
  3
"AcDbDimAssoc|Product Desc:     AcDim ARX App For Dimension|Company:          Autodesk, Inc.|WEB Address:      www.autodesk.com"
 90
        0
280
     0
281
     0
  0
ENDSEC
  0
SECTION
  2
TABLES
  0
TABLE
  2
VPORT
  5
8
330
0
100
AcDbSymbolTable
 70
     1
  0
VPORT
  5
29
330
8
100
AcDbSymbolTableRecord
100
AcDbViewportTableRecord
  2
*Active
 70
     0
 10
0.0
 20
0.0
 11
1.0
 21
1.0
 12
-12.47400532201785
 22
1.997714190003229
 13
0.0
 23
0.0
 14
10.0
 24
10.0
 15
10.0
 25
10.0
 16
0.0
 26
0.0
 36
1.0
 17
0.0
 27
0.0
 37
0.0
 40
160.5310695187376
 41
1.859099804305284
 42
50.0
 43
0.0
 44
0.0
 50
0.0
 51
0.0
 71
    16
 72
  2000
 73
     1
 74
     3
 75
     0
 76
     0
 77
     0
 78
     0
281
     0
 65
     1
110
0.0
120
0.0
130
0.0
111
1.0
121
0.0
131
0.0
112
0.0
122
1.0
132
0.0
 79
     0
146
0.0
  0
ENDTAB
  0
TABLE
  2
LTYPE
  5
5
330
0
100
AcDbSymbolTable
 70
     6
  0
LTYPE
  5
14
330
5
100
AcDbSymbolTableRecord
100
AcDbLinetypeTableRecord
  2
ByBlock
 70
     0
  3

 72
    65
 73
     0
 40
0.0
  0
LTYPE
  5
15
330
5
100
AcDbSymbolTableRecord
100
AcDbLinetypeTableRecord
  2
ByLayer
 70
     0
  3

 72
    65
 73
     0
 40
0.0
  0
LTYPE
  5
16
330
5
100
AcDbSymbolTableRecord
100
AcDbLinetypeTableRecord
  2
Continuous
 70
     0
  3
Solid line
 72
    65
 73
     0
 40
0.0
  0
LTYPE
  5
6A
330
5
100
AcDbSymbolTableRecord
100
AcDbLinetypeTableRecord
  2
HIDDEN
 70
     0
  3
Hidden __ __ __ __ __ __ __ __ __ __ __ __ __ __
 72
    65
 73
     2
 40
1.905
 49
1.27
 74
     0
 49
-0.635
 74
     0
  0
LTYPE
  5
6B
330
5
100
AcDbSymbolTableRecord
100
AcDbLinetypeTableRecord
  2
PHANTOM
 70
     0
  3
Phantom ______  __  __  ______  __  __  ______
 72
    65
 73
     6
 40
12.7
 49
6.35
 74
     0
 49
-1.27
 74
     0
 49
1.27
 74
     0
 49
-1.27
 74
     0
 49
1.27
 74
     0
 49
-1.27
 74
     0
  0
LTYPE
  5
6C
330
5
100
AcDbSymbolTableRecord
100
AcDbLinetypeTableRecord
  2
CENTER
 70
     0
  3
Center ____ _ ____ _ ____ _ ____ _ ____ _ ____
 72
    65
 73
     4
 40
10.16
 49
6.35
 74
     0
 49
-1.27
 74
     0
 49
1.27
 74
     0
 49
-1.27
 74
     0
  0
LTYPE
  5
6D
330
5
100
AcDbSymbolTableRecord
100
AcDbLinetypeTableRecord
  2
CENTERX2
 70
     0
  3
Center (2x) ________  __  ________  __  _____
 72
    65
 73
     4
 40
20.32
 49
12.7
 74
     0
 49
-2.54
 74
     0
 49
2.54
 74
     0
 49
-2.54
 74
     0
  0
LTYPE
  5
6E
330
5
100
AcDbSymbolTableRecord
100
AcDbLinetypeTableRecord
  2
DOT2
 70
     0
  3
Dot (.5x) ........................................
 72
    65
 73
     2
 40
0.635
 49
0.0
 74
     0
 49
-0.635
 74
     0
  0
ENDTAB
  0
TABLE
  2
LAYER
  5
2
102
{ACAD_XDICTIONARY
360
203
102
}
330
0
100
AcDbSymbolTable
 70
    18
  0
LAYER
  5
10
330
2
100
AcDbSymbolTableRecord
100
AcDbLayerTableRecord
  2
0
 70
     0
 62
     7
  6
Continuous
370
    -3
390
F
  0
LAYER
  5
6F
330
2
100
AcDbSymbolTableRecord
100
AcDbLayerTableRecord
  2
FORMAT
 70
     0
 62
     2
  6
Continuous
370
    -3
390
F
  0
LAYER
  5
70
330
2
100
AcDbSymbolTableRecord
100
AcDbLayerTableRecord
  2
외형선
 70
     0
 62
     4
  6
Continuous
370
    30
390
F
  0
LAYER
  5
71
330
2
100
AcDbSymbolTableRecord
100
AcDbLayerTableRecord
  2
숨은선
 70
     0
 62
     2
  6
HIDDEN
370
    15
390
F
  0
LAYER
  5
72
330
2
100
AcDbSymbolTableRecord
100
AcDbLayerTableRecord
  2
중심선
 70
     0
 62
     1
  6
CENTERX2
370
    -3
390
F
  0
LAYER
  5
73
330
2
100
AcDbSymbolTableRecord
100
AcDbLayerTableRecord
  2
파단선
 70
     0
 62
     4
  6
Continuous
370
    -3
390
F
  0
LAYER
  5
74
330
2
100
AcDbSymbolTableRecord
100
AcDbLayerTableRecord
  2
해칭선
 70
     0
 62
   100
  6
Continuous
370
    -3
390
F
  0
LAYER
  5
75
330
2
100
AcDbSymbolTableRecord
100
AcDbLayerTableRecord
  2
가는실선
 70
     0
 62
     4
  6
Continuous
370
    -3
390
F
  0
LAYER
  5
76
330
2
100
AcDbSymbolTableRecord
100
AcDbLayerTableRecord
  2
치수_보조선
 70
     0
 62
     4
  6
Continuous
370
    -3
390
F
  0
LAYER
  5
77
330
2
100
AcDbSymbolTableRecord
100
AcDbLayerTableRecord
  2
치수문자_일반주서
 70
     0
 62
     7
  6
Continuous
370
    15
390
F
  0
LAYER
  5
78
330
2
100
AcDbSymbolTableRecord
100
AcDbLayerTableRecord
  2
개별주서
 70
     0
 62
   100
  6
Continuous
370
    30
390
F
  0
LAYER
  5
79
330
2
100
AcDbSymbolTableRecord
100
AcDbLayerTableRecord
  2
중간선
 70
     0
 62
     2
  6
Continuous
370
    15
390
F
  0
LAYER
  5
7A
330
2
100
AcDbSymbolTableRecord
100
AcDbLayerTableRecord
  2
윤곽선
 70
     0
 62
     3
  6
Continuous
370
    40
390
F
  0
LAYER
  5
7B
330
2
100
AcDbSymbolTableRecord
100
AcDbLayerTableRecord
  2
중심마크
 70
     0
 62
   100
  6
Continuous
370
    30
390
F
  0
LAYER
  5
7C
330
2
100
AcDbSymbolTableRecord
100
AcDbLayerTableRecord
  2
가상선
 70
     0
 62
     4
  6
PHANTOM
370
    -3
390
F
  0
LAYER
  5
7D
330
2
100
AcDbSymbolTableRecord
100
AcDbLayerTableRecord
  2
특수지정선
 70
     0
 62
     5
  6
CENTERX2
370
    60
390
F
  0
LAYER
  5
7E
330
2
100
AcDbSymbolTableRecord
100
AcDbLayerTableRecord
  2
참조1
 70
     0
 62
    -4
  6
Continuous
370
    -3
390
F
  0
LAYER
  5
15A
330
2
100
AcDbSymbolTableRecord
100
AcDbLayerTableRecord
  2
Defpoints
 70
     0
 62
     7
  6
Continuous
290
     0
370
    -3
390
F
  0
ENDTAB
  0
TABLE
  2
STYLE
  5
3
330
0
100
AcDbSymbolTable
 70
     2
  0
STYLE
  5
11
330
3
100
AcDbSymbolTableRecord
100
AcDbTextStyleTableRecord
  2
Standard
 70
     0
 40
0.0
 41
1.0
 50
0.0
 71
     0
 42
3.5
  3
txt
  4

  0
STYLE
  5
94
330
3
100
AcDbSymbolTableRecord
100
AcDbTextStyleTableRecord
  2
SLDTEXTSTYLE0
 70
     0
 40
0.0
 41
0.75
 50
0.0
 71
     0
 42
3.5
  3
TXT
  4

  0
ENDTAB
  0
TABLE
  2
VIEW
  5
6
330
0
100
AcDbSymbolTable
 70
     0
  0
ENDTAB
  0
TABLE
  2
UCS
  5
7
330
0
100
AcDbSymbolTable
 70
     0
  0
ENDTAB
  0
TABLE
  2
APPID
  5
9
330
0
100
AcDbSymbolTable
 70
     2
  0
APPID
  5
12
330
9
100
AcDbSymbolTableRecord
100
AcDbRegAppTableRecord
  2
ACAD
 70
     0
  0
APPID
  5
165
330
9
100
AcDbSymbolTableRecord
100
AcDbRegAppTableRecord
  2
ACAD_DSTYLE_DIMRADIAL_EXTENSION
 70
     0
  0
ENDTAB
  0
TABLE
  2
DIMSTYLE
  5
A
330
0
100
AcDbSymbolTable
 70
     4
100
AcDbDimStyleTable
  0
DIMSTYLE
105
27
330
A
100
AcDbSymbolTableRecord
100
AcDbDimStyleTableRecord
  2
ISO-25
 70
     0
 41
2.5
 42
0.625
 43
3.75
 44
1.25
 73
     0
 74
     0
 77
     1
 78
     8
140
2.5
141
2.5
143
0.03937007874016
147
0.625
171
     3
172
     1
178
     0
271
     2
272
     2
274
     3
278
    44
283
     0
284
     8
340
11
  0
DIMSTYLE
105
D5
102
{ACAD_REACTORS
330
1B7
330
1C4
330
1D4
330
1E1
330
1F7
330
26E
330
26F
330
270
330
271
330
2B8
102
}
330
A
100
AcDbSymbolTableRecord
100
AcDbDimStyleTableRecord
  2
SLDDIMSTYLE0
 70
     0
 41
3.302
 44
0.0
 45
0.000000001
 73
     0
 74
     0
 77
     1
 78
    12
 79
     3
140
3.5
143
0.0393700787401575
147
0.875
148
0.000000001
170
     1
172
     1
173
     1
178
     0
271
     2
272
     2
276
     2
284
    12
289
     0
340
94
  0
DIMSTYLE
105
FE
330
A
100
AcDbSymbolTableRecord
100
AcDbDimStyleTableRecord
  2
SLDDIMSTYLE1
 70
     0
 41
3.302
 44
0.0
 45
0.000000001
 73
     0
 74
     0
 77
     1
 78
     4
 79
     1
140
3.5
143
0.0393700787401575
147
0.875
148
0.000000001
170
     1
172
     1
173
     1
178
     0
271
     2
272
     2
276
     2
284
    12
289
     0
340
94
  0
DIMSTYLE
105
114
330
A
100
AcDbSymbolTableRecord
100
AcDbDimStyleTableRecord
  2
SLDDIMSTYLE2
 70
     0
 41
3.302
 44
0.0
 45
0.000000001
 73
     0
 74
     0
 77
     1
 78
     4
 79
     1
140
3.5
143
0.0393700787401575
147
0.875
148
0.000000001
170
     1
173
     1
178
     0
271
     2
272
     2
276
     2
284
    12
340
94
  0
ENDTAB
  0
TABLE
  2
BLOCK_RECORD
  5
1
330
0
100
AcDbSymbolTable
 70
    19
  0
BLOCK_RECORD
  5
1F
330
1
100
AcDbSymbolTableRecord
100
AcDbBlockTableRecord
  2
*Model_Space
340
22
  0
BLOCK_RECORD
  5
1B
330
1
100
AcDbSymbolTableRecord
100
AcDbBlockTableRecord
  2
*Paper_Space
340
1E
  0
BLOCK_RECORD
  5
23
330
1
100
AcDbSymbolTableRecord
100
AcDbBlockTableRecord
  2
*Paper_Space0
340
26
  0
BLOCK_RECORD
  5
7F
330
1
100
AcDbSymbolTableRecord
100
AcDbBlockTableRecord
  2
블럭10
340
0
102
{BLKREFS
331
CD
102
}
  0
BLOCK_RECORD
  5
D6
330
1
100
AcDbSymbolTableRecord
100
AcDbBlockTableRecord
  2
_D
340
0
  0
BLOCK_RECORD
  5
EA
330
1
100
AcDbSymbolTableRecord
100
AcDbBlockTableRecord
  2
_D_1
340
0
  0
BLOCK_RECORD
  5
FF
330
1
100
AcDbSymbolTableRecord
100
AcDbBlockTableRecord
  2
_D_2
340
0
  0
BLOCK_RECORD
  5
115
330
1
100
AcDbSymbolTableRecord
100
AcDbBlockTableRecord
  2
_D_3
340
0
  0
BLOCK_RECORD
  5
12E
330
1
100
AcDbSymbolTableRecord
100
AcDbBlockTableRecord
  2
SW_DOWELSYMBOL_0
340
0
102
{BLKREFS
331
0
331
1EE
331
272
102
}
  0
BLOCK_RECORD
  5
1FA
330
1
100
AcDbSymbolTableRecord
100
AcDbBlockTableRecord
  2
*D8
340
0
  0
BLOCK_RECORD
  5
207
330
1
100
AcDbSymbolTableRecord
100
AcDbBlockTableRecord
  2
*D9
340
0
  0
BLOCK_RECORD
  5
213
330
1
100
AcDbSymbolTableRecord
100
AcDbBlockTableRecord
  2
*D10
340
0
  0
BLOCK_RECORD
  5
222
330
1
100
AcDbSymbolTableRecord
100
AcDbBlockTableRecord
  2
*D11
340
0
  0
BLOCK_RECORD
  5
22E
330
1
100
AcDbSymbolTableRecord
100
AcDbBlockTableRecord
  2
*D12
340
0
  0
BLOCK_RECORD
  5
278
330
1
100
AcDbSymbolTableRecord
100
AcDbBlockTableRecord
  2
*D13
340
0
  0
BLOCK_RECORD
  5
284
330
1
100
AcDbSymbolTableRecord
100
AcDbBlockTableRecord
  2
*D14
340
0
  0
BLOCK_RECORD
  5
293
330
1
100
AcDbSymbolTableRecord
100
AcDbBlockTableRecord
  2
*D15
340
0
  0
BLOCK_RECORD
  5
29F
330
1
100
AcDbSymbolTableRecord
100
AcDbBlockTableRecord
  2
*D16
340
0
  0
BLOCK_RECORD
  5
2AB
330
1
100
AcDbSymbolTableRecord
100
AcDbBlockTableRecord
  2
*D17
340
0
  0
BLOCK_RECORD
  5
2BB
330
1
100
AcDbSymbolTableRecord
100
AcDbBlockTableRecord
  2
*D18
340
0
  0
ENDTAB
  0
ENDSEC
  0
SECTION
  2
BLOCKS
  0
BLOCK
  5
20
330
1F
100
AcDbEntity
  8
0
100
AcDbBlockBegin
  2
*Model_Space
 70
     0
 10
0.0
 20
0.0
 30
0.0
  3
*Model_Space
  1
*Model_Space
  0
ENDBLK
  5
21
330
1F
100
AcDbEntity
  8
0
100
AcDbBlockEnd
  0
BLOCK
  5
1C
330
1B
100
AcDbEntity
 67
     1
  8
0
100
AcDbBlockBegin
  2
*Paper_Space
 70
     0
 10
0.0
 20
0.0
 30
0.0
  3
*Paper_Space
  1
*Paper_Space
  0
ENDBLK
  5
1D
330
1B
100
AcDbEntity
 67
     1
  8
0
100
AcDbBlockEnd
  0
BLOCK
  5
24
330
23
100
AcDbEntity
  8
0
100
AcDbBlockBegin
  2
*Paper_Space0
 70
     0
 10
0.0
 20
0.0
 30
0.0
  3
*Paper_Space0
  1
*Paper_Space0
  0
ENDBLK
  5
25
330
23
100
AcDbEntity
  8
0
100
AcDbBlockEnd
  0
BLOCK
  5
80
330
7F
100
AcDbEntity
  8
0
100
AcDbBlockBegin
  2
블럭10
 70
     2
 10
0.0
 20
0.0
 30
0.0
  3
블럭10
  1
블럭10
  0
ELLIPSE
  5
82
330
7F
100
AcDbEntity
  8
중심선
100
AcDbEllipse
 10
20.54032771741204
 20
12.0471743016438
 30
0.0
 11
6.600054785286829
 21
-1.261213355974178E-13
 31
0.0
210
0.0
220
0.0
230
1.0
 40
0.636358354079598
 41
0.9219305317359503
 42
6.513795318482858
  0
ELLIPSE
  5
83
330
7F
100
AcDbEntity
  8
중심선
100
AcDbEllipse
 10
20.54032771746488
 20
12.04717430159265
 30
0.0
 11
3.960054785062283
 21
1.540847449632565E-10
 31
0.0
210
0.0
220
0.0
230
1.0
 40
0.3939339440162632
 41
1.131841032648279
 42
5.62031148352944
  0
LINE
  5
84
330
7F
100
AcDbEntity
  8
중심선
100
AcDbLine
 10
2.268634060543552
 20
16.24717430164393
 30
0.0
 11
5.714909304380834
 21
16.24717430164393
 31
0.0
  0
LINE
  5
85
330
7F
100
AcDbEntity
  8
중심선
100
AcDbLine
 10
5.245725140726316
 20
7.84717430164391
 30
0.0
 11
8.692000384563599
 21
7.84717430164391
 31
0.0
  0
LINE
  5
86
330
7F
100
AcDbEntity
  8
중심선
100
AcDbLine
 10
15.74043728645272
 20
16.24717430164393
 30
0.0
 11
8.692000384563599
 21
7.84717430164391
 31
0.0
  0
LINE
  5
87
330
7F
100
AcDbEntity
  8
중심선
100
AcDbLine
 10
0.1404042013395286
 20
13.71084872107135
 30
0.0
 11
3.58671253028996
 21
13.71088815037384
 31
0.0
  0
LINE
  5
88
330
7F
100
AcDbEntity
  8
중심선
100
AcDbLine
 10
2.750260043222114
 20
10.84717430164391
 30
0.0
 11
6.196535287059397
 21
10.84717430164391
 31
0.0
  0
LINE
  5
89
330
7F
100
AcDbEntity
  8
중심선
100
AcDbLine
 10
12.29416204261559
 20
16.24717430164393
 30
0.0
 11
5.245725140726316
 21
7.84717430164391
 31
0.0
  0
LINE
  5
8A
330
7F
100
AcDbEntity
  8
중심선
100
AcDbLine
 10
10.72767329541681
 20
16.24717430164393
 30
0.0
 11
6.196535287059397
 21
10.84717430164391
 31
0.0
  0
LINE
  5
8B
330
7F
100
AcDbEntity
  8
중심선
100
AcDbLine
 10
7.28139805157953
 20
16.24717430164393
 30
0.0
 11
2.750260043222114
 21
10.84717430164391
 31
0.0
  0
LINE
  5
8C
330
7F
100
AcDbEntity
  8
중심선
100
AcDbLine
 10
5.714909304380834
 20
16.24717430164393
 30
0.0
 11
3.58671253028996
 21
13.71088815037384
 31
0.0
  0
LINE
  5
8D
330
7F
100
AcDbEntity
  8
중심선
100
AcDbLine
 10
2.268634060543552
 20
16.24717430164393
 30
0.0
 11
0.1404042013395286
 21
13.71084872107135
 31
0.0
  0
LINE
  5
8E
330
7F
100
AcDbEntity
  8
중심선
100
AcDbLine
 10
7.28139805157953
 20
16.24717430164393
 30
0.0
 11
10.72767329541681
 21
16.24717430164393
 31
0.0
  0
LINE
  5
8F
330
7F
100
AcDbEntity
  8
중심선
100
AcDbLine
 10
12.29416204261559
 20
16.24717430164393
 30
0.0
 11
15.74043728645272
 21
16.24717430164393
 31
0.0
  0
LINE
  5
90
330
7F
100
AcDbEntity
  8
중심선
100
AcDbLine
 10
19.22036997980202
 20
11.08717430171403
 30
0.0
 11
23.66174974927406
 21
11.08717430171406
 31
0.0
  0
LINE
  5
91
330
7F
100
AcDbEntity
  8
중심선
100
AcDbLine
 10
19.22039502424796
 20
13.00717430171391
 30
0.0
 11
19.22036997980202
 21
11.08717430171403
 31
0.0
  0
LINE
  5
92
330
7F
100
AcDbEntity
  8
중심선
100
AcDbLine
 10
19.22039502424796
 20
13.00717430171391
 30
0.0
 11
26.96566020931264
 21
13.00717430171391
 31
0.0
  0
LINE
  5
93
330
7F
100
AcDbEntity
  8
중심선
100
AcDbLine
 10
22.22332737316547
 20
13.45928029700563
 30
0.0
 11
24.52862924686651
 21
15.39360700705356
 31
0.0
  0
ATTDEF
  5
95
330
7F
100
AcDbEntity
  8
FORMAT
 62
     2
100
AcDbText
 10
3.448148490846466
 20
2.075366912832191
 30
0.0
 40
4.233333333333333
  1
EM637917
 41
0.75
  7
SLDTEXTSTYLE0
 11
3.448148490846466
 21
-0.0412997538344756
 31
0.0
100
AcDbAttributeDefinition
  3

  2
AUTOATTR0
 70
     0
 74
     1
  0
ENDBLK
  5
81
330
7F
100
AcDbEntity
  8
0
100
AcDbBlockEnd
  0
BLOCK
  5
D7
330
D6
100
AcDbEntity
  8
0
100
AcDbBlockBegin
  2
_D
 70
     0
 10
0.0
 20
0.0
 30
0.0
  3
_D
  1
_D
  0
SOLID
  5
D9
330
D6
100
AcDbEntity
  8
치수문자_일반주서
100
AcDbTrace
 10
-78.7
 20
5.557324928723877
 30
0.0
 11
-78.19200000000001
 21
8.859324928723876
 31
0.0
 12
-79.208
 22
8.859324928723876
 32
0.0
 13
-79.208
 23
8.859324928723876
 33
0.0
  0
SOLID
  5
DA
330
D6
100
AcDbEntity
  8
치수문자_일반주서
100
AcDbTrace
 10
-78.7
 20
-5.55517507127612
 30
0.0
 11
-79.208
 21
-8.85717507127612
 31
0.0
 12
-78.19200000000001
 22
-8.85717507127612
 32
0.0
 13
-78.19200000000001
 23
-8.85717507127612
 33
0.0
  0
LINE
  5
DB
330
D6
100
AcDbEntity
  8
치수문자_일반주서
100
AcDbLine
 10
-89.4928817160427
 20
-5.413291502344828
 30
0.0
 11
-89.4928817160427
 21
-6.124228987909328
 31
0.0
  0
LINE
  5
DC
330
D6
100
AcDbEntity
  8
치수문자_일반주서
100
AcDbLine
 10
-89.4928817160427
 20
-6.124228987909328
 30
0.0
 11
-83.9366317249834
 21
-6.124228987909289
 31
0.0
  0
LINE
  5
DD
330
D6
100
AcDbEntity
  8
치수문자_일반주서
100
AcDbLine
 10
-83.9366317249834
 20
-6.124228987909289
 30
0.0
 11
-83.9366317249834
 21
-5.413291502344789
 31
0.0
  0
LINE
  5
DE
330
D6
100
AcDbEntity
  8
치수문자_일반주서
100
AcDbLine
 10
-89.49288171604279
 20
5.41544135979243
 30
0.0
 11
-89.49288171604279
 21
6.12637884535693
 31
0.0
  0
LINE
  5
DF
330
D6
100
AcDbEntity
  8
치수문자_일반주서
100
AcDbLine
 10
-89.49288171604279
 20
6.12637884535693
 30
0.0
 11
-83.93663172498349
 21
6.126378845356969
 31
0.0
  0
LINE
  5
E0
330
D6
100
AcDbEntity
  8
치수문자_일반주서
100
AcDbLine
 10
-83.93663172498349
 20
6.126378845356969
 30
0.0
 11
-83.93663172498349
 21
5.415441359792469
 31
0.0
  0
LINE
  5
E1
330
D6
100
AcDbEntity
  8
치수문자_일반주서
100
AcDbLine
 10
-66.19999999999997
 20
5.557324928723878
 30
0.0
 11
-79.7
 21
5.557324928723877
 31
0.0
  0
LINE
  5
E2
330
D6
100
AcDbEntity
  8
치수문자_일반주서
100
AcDbLine
 10
-66.19999999999997
 20
-5.555175071276119
 30
0.0
 11
-79.7
 21
-5.55517507127612
 31
0.0
  0
LINE
  5
E3
330
D6
100
AcDbEntity
  8
치수문자_일반주서
100
AcDbLine
 10
-78.7
 20
5.557324928723877
 30
0.0
 11
-78.7
 21
11.90732492872388
 31
0.0
  0
LINE
  5
E4
330
D6
100
AcDbEntity
  8
치수문자_일반주서
100
AcDbLine
 10
-78.7
 20
5.557324928723877
 30
0.0
 11
-78.7
 21
-5.55517507127612
 31
0.0
  0
LINE
  5
E5
330
D6
100
AcDbEntity
  8
치수문자_일반주서
100
AcDbLine
 10
-78.7
 20
-5.55517507127612
 30
0.0
 11
-78.7
 21
-11.90517507127612
 31
0.0
  0
MTEXT
  5
E6
330
D6
100
AcDbEntity
  8
치수문자_일반주서
100
AcDbMText
 10
-88.44836863956232
 20
-4.52461960173345
 30
0.0
 40
3.5
 41
0.0
 71
     1
 72
     1
  1
0.44
  7
SLDTEXTSTYLE0
 11
-7.044195017643634E-15
 21
1.0
 31
0.0
 73
     1
 44
1.0
  0
MTEXT
  5
E7
330
D6
100
AcDbEntity
  8
치수문자_일반주서
100
AcDbMText
 10
-83.21173708920182
 20
-8.45689401409718
 30
0.0
 40
3.5
 41
0.0
 71
     1
 72
     1
  1
%%c
  7
SLDTEXTSTYLE0
 11
-7.044195017643634E-15
 21
1.0
 31
0.0
 73
     1
 44
1.0
  0
MTEXT
  5
E8
330
D6
100
AcDbEntity
  8
치수문자_일반주서
100
AcDbMText
 10
-83.21173708920186
 20
-3.178456615723101
 30
0.0
 40
3.5
 41
0.0
 71
     1
 72
     1
  1
11.11
  7
SLDTEXTSTYLE0
 11
-7.044195017643634E-15
 21
1.0
 31
0.0
 73
     1
 44
1.0
  0
ENDBLK
  5
D8
330
D6
100
AcDbEntity
  8
0
100
AcDbBlockEnd
  0
BLOCK
  5
EB
330
EA
100
AcDbEntity
  8
0
100
AcDbBlockBegin
  2
_D_1
 70
     0
 10
0.0
 20
0.0
 30
0.0
  3
_D_1
  1
_D_1
  0
SOLID
  5
ED
330
EA
100
AcDbEntity
  8
치수문자_일반주서
100
AcDbTrace
 10
48.05000000000007
 20
3.176074928723893
 30
0.0
 11
48.55800000000007
 21
6.478074928723892
 31
0.0
 12
47.54200000000007
 22
6.478074928723892
 32
0.0
 13
47.54200000000007
 23
6.478074928723892
 33
0.0
  0
SOLID
  5
EE
330
EA
100
AcDbEntity
  8
치수문자_일반주서
100
AcDbTrace
 10
48.05000000000007
 20
-3.17392507127611
 30
0.0
 11
47.54200000000007
 21
-6.475925071276111
 31
0.0
 12
48.55800000000007
 22
-6.475925071276111
 32
0.0
 13
48.55800000000007
 23
-6.475925071276111
 33
0.0
  0
LINE
  5
EF
330
EA
100
AcDbEntity
  8
치수문자_일반주서
100
AcDbLine
 10
37.25711828395732
 20
7.781934058003486
 30
0.0
 11
37.25711828395733
 21
7.070996572438986
 31
0.0
  0
LINE
  5
F0
330
EA
100
AcDbEntity
  8
치수문자_일반주서
100
AcDbLine
 10
37.25711828395733
 20
7.070996572438986
 30
0.0
 11
42.81336827501663
 21
7.070996572439025
 31
0.0
  0
LINE
  5
F1
330
EA
100
AcDbEntity
  8
치수문자_일반주서
100
AcDbLine
 10
42.81336827501663
 20
7.070996572439025
 30
0.0
 11
42.81336827501662
 21
7.781934058003525
 31
0.0
  0
LINE
  5
F2
330
EA
100
AcDbEntity
  8
치수문자_일반주서
100
AcDbLine
 10
37.25711828395725
 20
18.61066692014075
 30
0.0
 11
37.25711828395725
 21
19.32160440570525
 31
0.0
  0
LINE
  5
F3
330
EA
100
AcDbEntity
  8
치수문자_일반주서
100
AcDbLine
 10
37.25711828395725
 20
19.32160440570525
 30
0.0
 11
42.81336827501655
 21
19.32160440570528
 31
0.0
  0
LINE
  5
F4
330
EA
100
AcDbEntity
  8
치수문자_일반주서
100
AcDbLine
 10
42.81336827501655
 20
19.32160440570528
 30
0.0
 11
42.81336827501656
 21
18.61066692014078
 31
0.0
  0
LINE
  5
F5
330
EA
100
AcDbEntity
  8
치수문자_일반주서
100
AcDbLine
 10
14.53767706952182
 20
3.176074928723895
 30
0.0
 11
49.05000000000007
 21
3.176074928723893
 31
0.0
  0
LINE
  5
F6
330
EA
100
AcDbEntity
  8
치수문자_일반주서
100
AcDbLine
 10
14.53767706952182
 20
-3.173925071276109
 30
0.0
 11
49.05000000000007
 21
-3.17392507127611
 31
0.0
  0
LINE
  5
F7
330
EA
100
AcDbEntity
  8
치수문자_일반주서
100
AcDbLine
 10
48.05000000000007
 20
3.176074928723893
 30
0.0
 11
48.05000000000007
 21
20.36121418437776
 31
0.0
  0
LINE
  5
F8
330
EA
100
AcDbEntity
  8
치수문자_일반주서
100
AcDbLine
 10
48.05000000000007
 20
3.176074928723893
 30
0.0
 11
48.05000000000007
 21
-3.17392507127611
 31
0.0
  0
LINE
  5
F9
330
EA
100
AcDbEntity
  8
치수문자_일반주서
100
AcDbLine
 10
48.05000000000007
 20
-3.17392507127611
 30
0.0
 11
48.05000000000007
 21
-9.52392507127611
 31
0.0
  0
MTEXT
  5
FA
330
EA
100
AcDbEntity
  8
치수문자_일반주서
100
AcDbMText
 10
38.30163136043773
 20
8.670605958614866
 30
0.0
 40
3.5
 41
0.0
 71
     1
 72
     1
  1
0.25
  7
SLDTEXTSTYLE0
 11
-7.044195017643634E-15
 21
1.0
 31
0.0
 73
     1
 44
1.0
  0
MTEXT
  5
FB
330
EA
100
AcDbEntity
  8
치수문자_일반주서
100
AcDbMText
 10
43.53826291079822
 20
6.031386793766572
 30
0.0
 40
3.5
 41
0.0
 71
     1
 72
     1
  1
%%c
  7
SLDTEXTSTYLE0
 11
-7.044195017643634E-15
 21
1.0
 31
0.0
 73
     1
 44
1.0
  0
MTEXT
  5
FC
330
EA
100
AcDbEntity
  8
치수문자_일반주서
100
AcDbMText
 10
43.53826291079818
 20
11.30982419214065
 30
0.0
 40
3.5
 41
0.0
 71
     1
 72
     1
  1
6.35
  7
SLDTEXTSTYLE0
 11
-7.044195017643634E-15
 21
1.0
 31
0.0
 73
     1
 44
1.0
  0
ENDBLK
  5
EC
330
EA
100
AcDbEntity
  8
0
100
AcDbBlockEnd
  0
BLOCK
  5
100
330
FF
100
AcDbEntity
  8
0
100
AcDbBlockBegin
  2
_D_2
 70
     0
 10
0.0
 20
0.0
 30
0.0
  3
_D_2
  1
_D_2
  0
SOLID
  5
102
330
FF
100
AcDbEntity
  8
치수문자_일반주서
100
AcDbTrace
 10
35.39999999999998
 20
14.86317548907219
 30
0.0
 11
38.70199999999998
 21
14.3551754890722
 31
0.0
 12
38.70199999999998
 22
15.3711754890722
 32
0.0
 13
38.70199999999998
 23
15.3711754890722
 33
0.0
  0
SOLID
  5
103
330
FF
100
AcDbEntity
  8
치수문자_일반주서
100
AcDbTrace
 10
9.999999999999984
 20
14.86317548907211
 30
0.0
 11
6.697999999999983
 21
15.3711754890721
 31
0.0
 12
6.697999999999986
 22
14.3551754890721
 32
0.0
 13
6.697999999999986
 23
14.3551754890721
 33
0.0
  0
LINE
  5
104
330
FF
100
AcDbEntity
  8
치수문자_일반주서
100
AcDbLine
 10
17.33904093191
 20
25.65605720511493
 30
0.0
 11
16.6281034463455
 21
25.65605720511493
 31
0.0
  0
LINE
  5
105
330
FF
100
AcDbEntity
  8
치수문자_일반주서
100
AcDbLine
 10
16.6281034463455
 20
25.65605720511493
 30
0.0
 11
16.62810344634555
 21
20.09980721405562
 31
0.0
  0
LINE
  5
106
330
FF
100
AcDbEntity
  8
치수문자_일반주서
100
AcDbLine
 10
16.62810344634555
 20
20.09980721405562
 30
0.0
 11
17.33904093191005
 21
20.09980721405563
 31
0.0
  0
LINE
  5
107
330
FF
100
AcDbEntity
  8
치수문자_일반주서
100
AcDbLine
 10
28.16777379404726
 20
25.65605720511504
 30
0.0
 11
28.87871127961176
 21
25.65605720511505
 31
0.0
  0
LINE
  5
108
330
FF
100
AcDbEntity
  8
치수문자_일반주서
100
AcDbLine
 10
28.87871127961176
 20
25.65605720511505
 30
0.0
 11
28.87871127961181
 21
20.09980721405574
 31
0.0
  0
LINE
  5
109
330
FF
100
AcDbEntity
  8
치수문자_일반주서
100
AcDbLine
 10
28.87871127961181
 20
20.09980721405574
 30
0.0
 11
28.16777379404731
 21
20.09980721405574
 31
0.0
  0
LINE
  5
10A
330
FF
100
AcDbEntity
  8
치수문자_일반주서
100
AcDbLine
 10
35.40000000000001
 20
4.890449928723891
 30
0.0
 11
35.39999999999998
 21
15.86317548907219
 31
0.0
  0
LINE
  5
10B
330
FF
100
AcDbEntity
  8
치수문자_일반주서
100
AcDbLine
 10
10.00000000000001
 20
6.466126753069521
 30
0.0
 11
9.99999999999998
 21
15.86317548907211
 31
0.0
  0
LINE
  5
10C
330
FF
100
AcDbEntity
  8
치수문자_일반주서
100
AcDbLine
 10
35.39999999999998
 20
14.86317548907219
 30
0.0
 11
41.74999999999998
 21
14.86317548907221
 31
0.0
  0
LINE
  5
10D
330
FF
100
AcDbEntity
  8
치수문자_일반주서
100
AcDbLine
 10
35.39999999999998
 20
14.86317548907219
 30
0.0
 11
9.999999999999984
 21
14.86317548907211
 31
0.0
  0
LINE
  5
10E
330
FF
100
AcDbEntity
  8
치수문자_일반주서
100
AcDbLine
 10
9.999999999999984
 20
14.86317548907211
 30
0.0
 11
3.649999999999985
 21
14.86317548907209
 31
0.0
  0
MTEXT
  5
10F
330
FF
100
AcDbEntity
  8
치수문자_일반주서
100
AcDbMText
 10
16.11434472085886
 20
19.42838475493389
 30
0.0
 40
3.5
 41
0.0
 71
     1
 72
     1
  1

  7
SLDTEXTSTYLE0
 73
     1
 44
1.0
  0
MTEXT
  5
110
330
FF
100
AcDbEntity
  8
치수문자_일반주서
100
AcDbMText
 10
18.22771283252138
 20
24.61154412863453
 30
0.0
 40
3.5
 41
0.0
 71
     1
 72
     1
  1
1.00
  7
SLDTEXTSTYLE0
 73
     1
 44
1.0
  0
MTEXT
  5
111
330
FF
100
AcDbEntity
  8
치수문자_일반주서
100
AcDbMText
 10
16.9346571193447
 20
19.37491257827405
 30
0.0
 40
3.5
 41
0.0
 71
     1
 72
     1
  1
25.40
  7
SLDTEXTSTYLE0
 73
     1
 44
1.0
  0
MTEXT
  5
112
330
FF
100
AcDbEntity
  8
치수문자_일반주서
100
AcDbMText
 10
30.72441452475243
 20
19.42838475493404
 30
0.0
 40
3.5
 41
0.0
 71
     1
 72
     1
  1

  7
SLDTEXTSTYLE0
 73
     1
 44
1.0
  0
ENDBLK
  5
101
330
FF
100
AcDbEntity
  8
0
100
AcDbBlockEnd
  0
BLOCK
  5
116
330
115
100
AcDbEntity
  8
0
100
AcDbBlockBegin
  2
_D_3
 70
     0
 10
0.0
 20
0.0
 30
0.0
  3
_D_3
  1
_D_3
  0
SOLID
  5
118
330
115
100
AcDbEntity
  8
치수문자_일반주서
100
AcDbTrace
 10
35.40000000000001
 20
26.86317548907215
 30
0.0
 11
32.09800000000001
 21
27.37117548907215
 31
0.0
 12
32.09800000000001
 22
26.35517548907215
 32
0.0
 13
32.09800000000001
 23
26.35517548907215
 33
0.0
  0
SOLID
  5
119
330
115
100
AcDbEntity
  8
치수문자_일반주서
100
AcDbTrace
 10
-66.19999999999997
 20
26.86317548907214
 30
0.0
 11
-62.89799999999997
 21
26.35517548907215
 31
0.0
 12
-62.89799999999997
 22
27.37117548907214
 32
0.0
 13
-62.89799999999997
 23
27.37117548907214
 33
0.0
  0
LINE
  5
11A
330
115
100
AcDbEntity
  8
치수문자_일반주서
100
AcDbLine
 10
-21.27155136568573
 20
37.65605720511488
 30
0.0
 11
-21.98248885125023
 21
37.65605720511488
 31
0.0
  0
LINE
  5
11B
330
115
100
AcDbEntity
  8
치수문자_일반주서
100
AcDbLine
 10
-21.98248885125023
 20
37.65605720511488
 30
0.0
 11
-21.98248885125027
 21
32.09980721405558
 31
0.0
  0
LINE
  5
11C
330
115
100
AcDbEntity
  8
치수문자_일반주서
100
AcDbLine
 10
-21.98248885125027
 20
32.09980721405558
 30
0.0
 11
-21.27155136568577
 21
32.09980721405557
 31
0.0
  0
LINE
  5
11D
330
115
100
AcDbEntity
  8
치수문자_일반주서
100
AcDbLine
 10
-10.44281850354848
 20
37.6560572051148
 30
0.0
 11
-9.731881017983977
 21
37.65605720511479
 31
0.0
  0
LINE
  5
11E
330
115
100
AcDbEntity
  8
치수문자_일반주서
100
AcDbLine
 10
-9.731881017983977
 20
37.65605720511479
 30
0.0
 11
-9.731881017984017
 21
32.09980721405549
 31
0.0
  0
LINE
  5
11F
330
115
100
AcDbEntity
  8
치수문자_일반주서
100
AcDbLine
 10
-9.731881017984017
 20
32.09980721405549
 30
0.0
 11
-10.44281850354852
 21
32.0998072140555
 31
0.0
  0
LINE
  5
120
330
115
100
AcDbEntity
  8
치수문자_일반주서
100
AcDbLine
 10
35.40000000000001
 20
4.890449928723891
 30
0.0
 11
35.40000000000001
 21
27.86317548907215
 31
0.0
  0
LINE
  5
121
330
115
100
AcDbEntity
  8
치수문자_일반주서
100
AcDbLine
 10
-66.19999999999997
 20
5.557324928723883
 30
0.0
 11
-66.19999999999997
 21
27.86317548907214
 31
0.0
  0
LINE
  5
122
330
115
100
AcDbEntity
  8
치수문자_일반주서
100
AcDbLine
 10
35.40000000000001
 20
26.86317548907215
 30
0.0
 11
-66.19999999999997
 21
26.86317548907214
 31
0.0
  0
MTEXT
  5
123
330
115
100
AcDbEntity
  8
치수문자_일반주서
100
AcDbMText
 10
-22.94954648818927
 20
31.42838475493387
 30
0.0
 40
3.5
 41
0.0
 71
     1
 72
     1
  1

  7
SLDTEXTSTYLE0
 73
     1
 44
1.0
  0
MTEXT
  5
124
330
115
100
AcDbEntity
  8
치수문자_일반주서
100
AcDbMText
 10
-20.38287946507437
 20
36.61154412863447
 30
0.0
 40
3.5
 41
0.0
 71
     1
 72
     1
  1
4.00
  7
SLDTEXTSTYLE0
 73
     1
 44
1.0
  0
MTEXT
  5
125
330
115
100
AcDbEntity
  8
치수문자_일반주서
100
AcDbMText
 10
-22.96899089142786
 20
31.37491257827401
 30
0.0
 40
3.5
 41
0.0
 71
     1
 72
     1
  1
101.60
  7
SLDTEXTSTYLE0
 73
     1
 44
1.0
  0
MTEXT
  5
126
330
115
100
AcDbEntity
  8
치수문자_일반주서
100
AcDbMText
 10
-7.432878861391117
 20
31.42838475493376
 30
0.0
 40
3.5
 41
0.0
 71
     1
 72
     1
  1

  7
SLDTEXTSTYLE0
 73
     1
 44
1.0
  0
ENDBLK
  5
117
330
115
100
AcDbEntity
  8
0
100
AcDbBlockEnd
  0
BLOCK
  5
12F
330
12E
100
AcDbEntity
  8
0
100
AcDbBlockBegin
  2
SW_DOWELSYMBOL_0
 70
     0
 10
0.0
 20
0.0
 30
0.0
  3
SW_DOWELSYMBOL_0
  1
SW_DOWELSYMBOL_0
  0
CIRCLE
  5
131
330
12E
100
AcDbEntity
  8
해칭선
 62
     0
100
AcDbCircle
 10
0.0
 20
0.0
 30
0.0
 40
3.000000000000002
  0
HATCH
  5
132
330
12E
100
AcDbEntity
  8
0
  6
Continuous
 62
     0
370
     0
100
AcDbHatch
 10
0.0
 20
0.0
 30
0.0
210
0.0
220
0.0
230
1.0
  2
SOLID
 70
     1
 71
     0
 91
        1
 92
        0
 93
        3
 72
     2
 10
0.0000000000000069
 20
0.0
 40
3.000000000000002
 50
0.0
 51
90.0
 73
     1
 72
     1
 10
0.0000000000000069
 20
3.000000000000002
 11
0.0000000000000069
 21
0.0
 72
     1
 10
0.0000000000000069
 20
0.0
 11
3.000000000000009
 21
0.0
 97
        0
 75
     0
 76
     1
 98
        1
 10
0.0
 20
0.0
  0
HATCH
  5
133
330
12E
100
AcDbEntity
  8
0
  6
Continuous
 62
     0
370
     0
100
AcDbHatch
 10
0.0
 20
0.0
 30
0.0
210
0.0
220
0.0
230
1.0
  2
SOLID
 70
     1
 71
     0
 91
        1
 92
        0
 93
        3
 72
     2
 10
0.0000000000000069
 20
0.0
 40
3.000000000000002
 50
180.0
 51
270.0000000000008
 73
     1
 72
     1
 10
0.0000000000000069
 20
-3.000000000000002
 11
0.0000000000000069
 21
0.0
 72
     1
 10
0.0000000000000069
 20
0.0
 11
-2.999999999999995
 21
0.0
 97
        0
 75
     0
 76
     1
 98
        1
 10
0.0
 20
0.0
  0
ENDBLK
  5
130
330
12E
100
AcDbEntity
  8
0
100
AcDbBlockEnd
  0
BLOCK
  5
1FB
330
1FA
100
AcDbEntity
  8
0
100
AcDbBlockBegin
  2
*D8
 70
     1
 10
0.0
 20
0.0
 30
0.0
  3
*D8
  1
*D8
  0
LINE
  5
1FC
330
1FA
100
AcDbEntity
  8
치수문자_일반주서
 62
     0
370
    -2
100
AcDbLine
 10
119.4404453797915
 20
28.46301161798718
 30
0.0
 11
131.3767065148504
 21
-0.0000000000001776
 31
0.0
  0
MTEXT
  5
1FD
330
1FA
100
AcDbEntity
  8
치수문자_일반주서
 62
     0
100
AcDbMText
 10
128.4678243599374
 20
13.72413498809028
 30
0.0
 40
3.5
 41
0.0
 71
     5
 72
     1
  1
\A1;R.51 [R0.020]
  7
SLDTEXTSTYLE0
 11
0.3867310708114134
 21
-0.9221925389359088
 31
0.0
 73
     1
 44
1.0
  0
LINE
  5
1FE
330
1FA
100
AcDbEntity
  8
치수문자_일반주서
 62
     0
370
    -2
100
AcDbLine
 10
117.9670000000001
 20
31.97656519133299
 30
0.0
 11
118.1634593839723
 21
31.50809138155356
 31
0.0
  0
SOLID
  5
1FF
330
1FA
100
AcDbEntity
  8
치수문자_일반주서
 62
     0
100
AcDbTrace
 10
119.9479586737193
 20
28.6758426172904
 30
0.0
 11
118.9329320858638
 21
28.25018061868397
 31
0.0
 12
118.1634593839723
 22
31.50809138155356
 32
0.0
 13
118.1634593839723
 23
31.50809138155356
 33
0.0
  0
POINT
  5
200
330
1FA
100
AcDbEntity
  8
Defpoints
 62
     0
100
AcDbPoint
 10
118.1634593839723
 20
31.50809138155356
 30
0.0
  0
POINT
  5
201
330
1FA
100
AcDbEntity
  8
Defpoints
 62
     0
100
AcDbPoint
 10
117.9670000000001
 20
31.97656519133299
 30
0.0
  0
ENDBLK
  5
202
330
1FA
100
AcDbEntity
  8
0
100
AcDbBlockEnd
  0
BLOCK
  5
208
330
207
100
AcDbEntity
  8
0
100
AcDbBlockBegin
  2
*D9
 70
     1
 10
0.0
 20
0.0
 30
0.0
  3
*D9
  1
*D9
  0
LINE
  5
20A
330
207
100
AcDbEntity
  8
치수문자_일반주서
 62
     0
370
    -2
100
AcDbLine
 10
17.81250000000007
 20
42.58106519133297
 30
0.0
 11
4.375000000000037
 21
42.58106519133293
 31
0.0
  0
LINE
  5
20B
330
207
100
AcDbEntity
  8
치수문자_일반주서
 62
     0
370
    -2
100
AcDbLine
 10
17.81250000000007
 20
31.46856519133298
 30
0.0
 11
4.375000000000076
 21
31.46856519133293
 31
0.0
  0
LINE
  5
20C
330
207
100
AcDbEntity
  8
치수문자_일반주서
 62
     0
370
    -2
100
AcDbLine
 10
4.375000000000049
 20
39.27906519133293
 30
0.0
 11
4.375000000000065
 21
34.77056519133293
 31
0.0
  0
SOLID
  5
20D
330
207
100
AcDbEntity
  8
치수문자_일반주서
 62
     0
100
AcDbTrace
 10
4.925333333333382
 20
39.27906519133293
 30
0.0
 11
3.824666666666716
 21
39.27906519133293
 31
0.0
 12
4.375000000000037
 22
42.58106519133293
 32
0.0
 13
4.375000000000037
 23
42.58106519133293
 33
0.0
  0
SOLID
  5
20E
330
207
100
AcDbEntity
  8
치수문자_일반주서
 62
     0
100
AcDbTrace
 10
3.824666666666732
 20
34.77056519133293
 30
0.0
 11
4.925333333333398
 21
34.77056519133293
 31
0.0
 12
4.375000000000076
 22
31.46856519133293
 32
0.0
 13
4.375000000000076
 23
31.46856519133293
 33
0.0
  0
MTEXT
  5
20F
330
207
100
AcDbEntity
  8
치수문자_일반주서
 62
     0
100
AcDbMText
 10
0.0000000000000568
 20
37.02481519133296
 30
0.0
 40
3.5
 41
0.0
 71
     2
 72
     1
  1
\A1;%%c11.11 [7/16]
  7
SLDTEXTSTYLE0
 11
-3.516746948643917E-15
 21
1.0
 31
0.0
 73
     1
 44
1.0
  0
POINT
  5
210
330
207
100
AcDbEntity
  8
Defpoints
 62
     0
100
AcDbPoint
 10
17.87500000000007
 20
42.58106519133297
 30
0.0
  0
POINT
  5
211
330
207
100
AcDbEntity
  8
Defpoints
 62
     0
100
AcDbPoint
 10
17.87500000000007
 20
31.46856519133298
 30
0.0
  0
POINT
  5
212
330
207
100
AcDbEntity
  8
Defpoints
 62
     0
100
AcDbPoint
 10
4.375000000000085
 20
31.46856519133293
 30
0.0
  0
ENDBLK
  5
209
330
207
100
AcDbEntity
  8
0
100
AcDbBlockEnd
  0
BLOCK
  5
214
330
213
100
AcDbEntity
  8
0
100
AcDbBlockBegin
  2
*D10
 70
     1
 10
0.0
 20
0.0
 30
0.0
  3
*D10
  1
*D10
  0
LINE
  5
216
330
213
100
AcDbEntity
  8
치수문자_일반주서
 62
     0
370
    -2
100
AcDbLine
 10
118.5375000000001
 20
42.581065191333
 30
0.0
 11
131.1250000000001
 21
42.58106519133305
 31
0.0
  0
LINE
  5
217
330
213
100
AcDbEntity
  8
치수문자_일반주서
 62
     0
370
    -2
100
AcDbLine
 10
118.5375000000001
 20
31.468565191333
 30
0.0
 11
131.1250000000001
 21
31.46856519133305
 31
0.0
  0
LINE
  5
218
330
213
100
AcDbEntity
  8
치수문자_일반주서
 62
     0
370
    -2
100
AcDbLine
 10
131.1250000000001
 20
42.58106519133305
 30
0.0
 11
131.125
 21
76.31006519133305
 31
0.0
  0
LINE
  5
219
330
213
100
AcDbEntity
  8
치수문자_일반주서
 62
     0
370
    -2
100
AcDbLine
 10
131.1250000000001
 20
42.58106519133305
 30
0.0
 11
131.1250000000001
 21
31.46856519133305
 31
0.0
  0
LINE
  5
21A
330
213
100
AcDbEntity
  8
치수문자_일반주서
 62
     0
370
    -2
100
AcDbLine
 10
131.1250000000001
 20
45.88306519133305
 30
0.0
 11
131.1250000000001
 21
49.18506519133305
 31
0.0
  0
LINE
  5
21B
330
213
100
AcDbEntity
  8
치수문자_일반주서
 62
     0
370
    -2
100
AcDbLine
 10
131.1250000000001
 20
28.16656519133305
 30
0.0
 11
131.1250000000001
 21
24.86456519133305
 31
0.0
  0
SOLID
  5
21C
330
213
100
AcDbEntity
  8
치수문자_일반주서
 62
     0
100
AcDbTrace
 10
130.5746666666668
 20
45.88306519133305
 30
0.0
 11
131.6753333333334
 21
45.88306519133305
 31
0.0
 12
131.1250000000001
 22
42.58106519133305
 32
0.0
 13
131.1250000000001
 23
42.58106519133305
 33
0.0
  0
SOLID
  5
21D
330
213
100
AcDbEntity
  8
치수문자_일반주서
 62
     0
100
AcDbTrace
 10
131.6753333333335
 20
28.16656519133305
 30
0.0
 11
130.5746666666668
 21
28.16656519133305
 31
0.0
 12
131.1250000000001
 22
31.46856519133305
 32
0.0
 13
131.1250000000001
 23
31.46856519133305
 33
0.0
  0
MTEXT
  5
21E
330
213
100
AcDbEntity
  8
치수문자_일반주서
 62
     0
100
AcDbMText
 10
126.7500000000001
 20
62.74756519133303
 30
0.0
 40
3.5
 41
0.0
 71
     2
 72
     1
  1
\A1;%%c11.11 [7/16]
  7
SLDTEXTSTYLE0
 11
-2.557634144468301E-15
 21
1.0
 31
0.0
 73
     1
 44
1.0
  0
POINT
  5
21F
330
213
100
AcDbEntity
  8
Defpoints
 62
     0
100
AcDbPoint
 10
118.4750000000001
 20
42.581065191333
 30
0.0
  0
POINT
  5
220
330
213
100
AcDbEntity
  8
Defpoints
 62
     0
100
AcDbPoint
 10
118.4750000000001
 20
31.468565191333
 30
0.0
  0
POINT
  5
221
330
213
100
AcDbEntity
  8
Defpoints
 62
     0
100
AcDbPoint
 10
131.1250000000001
 20
31.46856519133304
 30
0.0
  0
ENDBLK
  5
215
330
213
100
AcDbEntity
  8
0
100
AcDbBlockEnd
  0
BLOCK
  5
223
330
222
100
AcDbEntity
  8
0
100
AcDbBlockBegin
  2
*D11
 70
     1
 10
0.0
 20
0.0
 30
0.0
  3
*D11
  1
*D11
  0
LINE
  5
225
330
222
100
AcDbEntity
  8
치수문자_일반주서
 62
     0
370
    -2
100
AcDbLine
 10
118.4750000000001
 20
42.643565191333
 30
0.0
 11
118.4750000000001
 21
51.88691575168125
 31
0.0
  0
LINE
  5
226
330
222
100
AcDbEntity
  8
치수문자_일반주서
 62
     0
370
    -2
100
AcDbLine
 10
93.07500000000006
 20
42.55236701567861
 30
0.0
 11
93.07500000000006
 21
51.88691575168125
 31
0.0
  0
LINE
  5
227
330
222
100
AcDbEntity
  8
치수문자_일반주서
 62
     0
370
    -2
100
AcDbLine
 10
115.1730000000001
 20
51.88691575168125
 30
0.0
 11
96.37700000000007
 21
51.88691575168125
 31
0.0
  0
SOLID
  5
228
330
222
100
AcDbEntity
  8
치수문자_일반주서
 62
     0
100
AcDbTrace
 10
115.1730000000001
 20
51.33658241834792
 30
0.0
 11
115.1730000000001
 21
52.43724908501459
 31
0.0
 12
118.4750000000001
 22
51.88691575168125
 32
0.0
 13
118.4750000000001
 23
51.88691575168125
 33
0.0
  0
SOLID
  5
229
330
222
100
AcDbEntity
  8
치수문자_일반주서
 62
     0
100
AcDbTrace
 10
96.37700000000007
 20
52.43724908501459
 30
0.0
 11
96.37700000000007
 21
51.33658241834792
 31
0.0
 12
93.07500000000006
 22
51.88691575168125
 32
0.0
 13
93.07500000000006
 23
51.88691575168125
 33
0.0
  0
MTEXT
  5
22A
330
222
100
AcDbEntity
  8
치수문자_일반주서
 62
     0
100
AcDbMText
 10
105.8284070137327
 20
56.26191575168125
 30
0.0
 40
3.5
 41
0.0
 71
     2
 72
     1
  1
\A1;25.4 [1]
  7
SLDTEXTSTYLE0
 73
     1
 44
1.0
  0
POINT
  5
22B
330
222
100
AcDbEntity
  8
Defpoints
 62
     0
100
AcDbPoint
 10
118.4750000000001
 20
42.581065191333
 30
0.0
  0
POINT
  5
22C
330
222
100
AcDbEntity
  8
Defpoints
 62
     0
100
AcDbPoint
 10
93.07500000000006
 20
42.48986701567861
 30
0.0
  0
POINT
  5
22D
330
222
100
AcDbEntity
  8
Defpoints
 62
     0
100
AcDbPoint
 10
93.07500000000006
 20
51.88691575168125
 30
0.0
  0
ENDBLK
  5
224
330
222
100
AcDbEntity
  8
0
100
AcDbBlockEnd
  0
BLOCK
  5
22F
330
22E
100
AcDbEntity
  8
0
100
AcDbBlockBegin
  2
*D12
 70
     1
 10
0.0
 20
0.0
 30
0.0
  3
*D12
  1
*D12
  0
LINE
  5
231
330
22E
100
AcDbEntity
  8
치수문자_일반주서
 62
     0
370
    -2
100
AcDbLine
 10
118.4750000000001
 20
42.643565191333
 30
0.0
 11
118.4750000000001
 21
63.88691575168124
 31
0.0
  0
LINE
  5
232
330
22E
100
AcDbEntity
  8
치수문자_일반주서
 62
     0
370
    -2
100
AcDbLine
 10
16.87500000000007
 20
41.64356519133298
 30
0.0
 11
16.87500000000007
 21
63.88691575168124
 31
0.0
  0
LINE
  5
233
330
22E
100
AcDbEntity
  8
치수문자_일반주서
 62
     0
370
    -2
100
AcDbLine
 10
115.1730000000001
 20
63.88691575168124
 30
0.0
 11
20.17700000000007
 21
63.88691575168124
 31
0.0
  0
SOLID
  5
234
330
22E
100
AcDbEntity
  8
치수문자_일반주서
 62
     0
100
AcDbTrace
 10
115.1730000000001
 20
63.33658241834791
 30
0.0
 11
115.1730000000001
 21
64.43724908501457
 31
0.0
 12
118.4750000000001
 22
63.88691575168124
 32
0.0
 13
118.4750000000001
 23
63.88691575168124
 33
0.0
  0
SOLID
  5
235
330
22E
100
AcDbEntity
  8
치수문자_일반주서
 62
     0
100
AcDbTrace
 10
20.17700000000007
 20
64.43724908501457
 30
0.0
 11
20.17700000000007
 21
63.33658241834791
 31
0.0
 12
16.87500000000007
 22
63.88691575168124
 32
0.0
 13
16.87500000000007
 23
63.88691575168124
 33
0.0
  0
MTEXT
  5
236
330
22E
100
AcDbEntity
  8
치수문자_일반주서
 62
     0
100
AcDbMText
 10
67.21781471613698
 20
68.26191575168124
 30
0.0
 40
3.5
 41
0.0
 71
     2
 72
     1
  1
\A1;101.6 [4]
  7
SLDTEXTSTYLE0
 73
     1
 44
1.0
  0
POINT
  5
237
330
22E
100
AcDbEntity
  8
Defpoints
 62
     0
100
AcDbPoint
 10
118.4750000000001
 20
42.581065191333
 30
0.0
  0
POINT
  5
238
330
22E
100
AcDbEntity
  8
Defpoints
 62
     0
100
AcDbPoint
 10
16.87500000000007
 20
41.58106519133298
 30
0.0
  0
POINT
  5
239
330
22E
100
AcDbEntity
  8
Defpoints
 62
     0
100
AcDbPoint
 10
16.87500000000007
 20
63.88691575168124
 30
0.0
  0
ENDBLK
  5
230
330
22E
100
AcDbEntity
  8
0
100
AcDbBlockEnd
  0
BLOCK
  5
279
330
278
100
AcDbEntity
  8
0
100
AcDbBlockBegin
  2
*D13
 70
     1
 10
0.0
 20
0.0
 30
0.0
  3
*D13
  1
*D13
  0
LINE
  5
27B
330
278
100
AcDbEntity
  8
치수문자_일반주서
 62
     0
370
    -2
100
AcDbLine
 10
-65.26249999999999
 20
5.55732492872388
 30
0.0
 11
-78.70000000000002
 21
5.557324928723829
 31
0.0
  0
LINE
  5
27C
330
278
100
AcDbEntity
  8
치수문자_일반주서
 62
     0
370
    -2
100
AcDbLine
 10
-65.26249999999999
 20
-5.555175071276118
 30
0.0
 11
-78.69999999999997
 21
-5.555175071276168
 31
0.0
  0
LINE
  5
27D
330
278
100
AcDbEntity
  8
치수문자_일반주서
 62
     0
370
    -2
100
AcDbLine
 10
-78.7
 20
2.255324928723829
 30
0.0
 11
-78.69999999999999
 21
-2.253175071276169
 31
0.0
  0
SOLID
  5
27E
330
278
100
AcDbEntity
  8
치수문자_일반주서
 62
     0
100
AcDbTrace
 10
-78.14966666666668
 20
2.255324928723832
 30
0.0
 11
-79.25033333333333
 21
2.255324928723827
 31
0.0
 12
-78.70000000000002
 22
5.557324928723829
 32
0.0
 13
-78.70000000000002
 23
5.557324928723829
 33
0.0
  0
SOLID
  5
27F
330
278
100
AcDbEntity
  8
치수문자_일반주서
 62
     0
100
AcDbTrace
 10
-79.25033333333332
 20
-2.253175071276171
 30
0.0
 11
-78.14966666666666
 21
-2.253175071276166
 31
0.0
 12
-78.69999999999997
 22
-5.555175071276168
 32
0.0
 13
-78.69999999999997
 23
-5.555175071276168
 33
0.0
  0
MTEXT
  5
280
330
278
100
AcDbEntity
  8
치수문자_일반주서
 62
     0
100
AcDbMText
 10
-83.075
 20
0.001074928723864
 30
0.0
 40
3.5
 41
0.0
 71
     2
 72
     1
  1
\A1;%%c11.11 [7/16]
  7
SLDTEXTSTYLE0
 11
-3.836451216702454E-15
 21
1.0
 31
0.0
 73
     1
 44
1.0
  0
POINT
  5
281
330
278
100
AcDbEntity
  8
Defpoints
 62
     0
100
AcDbPoint
 10
-65.19999999999999
 20
5.55732492872388
 30
0.0
  0
POINT
  5
282
330
278
100
AcDbEntity
  8
Defpoints
 62
     0
100
AcDbPoint
 10
-65.19999999999999
 20
-5.555175071276118
 30
0.0
  0
POINT
  5
283
330
278
100
AcDbEntity
  8
Defpoints
 62
     0
100
AcDbPoint
 10
-78.69999999999997
 20
-5.555175071276168
 30
0.0
  0
ENDBLK
  5
27A
330
278
100
AcDbEntity
  8
0
100
AcDbBlockEnd
  0
BLOCK
  5
285
330
284
100
AcDbEntity
  8
0
100
AcDbBlockBegin
  2
*D14
 70
     1
 10
0.0
 20
0.0
 30
0.0
  3
*D14
  1
*D14
  0
LINE
  5
287
330
284
100
AcDbEntity
  8
치수문자_일반주서
 62
     0
370
    -2
100
AcDbLine
 10
35.46249999999998
 20
5.557324928723901
 30
0.0
 11
48.05000000000008
 21
5.557324928723951
 31
0.0
  0
LINE
  5
288
330
284
100
AcDbEntity
  8
치수문자_일반주서
 62
     0
370
    -2
100
AcDbLine
 10
35.46249999999998
 20
-5.5551750712761
 30
0.0
 11
48.05000000000011
 21
-5.55517507127605
 31
0.0
  0
LINE
  5
289
330
284
100
AcDbEntity
  8
치수문자_일반주서
 62
     0
370
    -2
100
AcDbLine
 10
48.05000000000008
 20
5.557324928723951
 30
0.0
 11
48.04999999999997
 21
39.28632492872395
 31
0.0
  0
LINE
  5
28A
330
284
100
AcDbEntity
  8
치수문자_일반주서
 62
     0
370
    -2
100
AcDbLine
 10
48.05000000000008
 20
5.557324928723951
 30
0.0
 11
48.05000000000011
 21
-5.55517507127605
 31
0.0
  0
LINE
  5
28B
330
284
100
AcDbEntity
  8
치수문자_일반주서
 62
     0
370
    -2
100
AcDbLine
 10
48.05000000000007
 20
8.85932492872395
 30
0.0
 11
48.05000000000006
 21
12.16132492872395
 31
0.0
  0
LINE
  5
28C
330
284
100
AcDbEntity
  8
치수문자_일반주서
 62
     0
370
    -2
100
AcDbLine
 10
48.05000000000012
 20
-8.85717507127605
 30
0.0
 11
48.05000000000013
 21
-12.15917507127605
 31
0.0
  0
SOLID
  5
28D
330
284
100
AcDbEntity
  8
치수문자_일반주서
 62
     0
100
AcDbTrace
 10
47.49966666666673
 20
8.859324928723948
 30
0.0
 11
48.6003333333334
 21
8.859324928723952
 31
0.0
 12
48.05000000000008
 22
5.557324928723951
 32
0.0
 13
48.05000000000008
 23
5.557324928723951
 33
0.0
  0
SOLID
  5
28E
330
284
100
AcDbEntity
  8
치수문자_일반주서
 62
     0
100
AcDbTrace
 10
48.60033333333345
 20
-8.857175071276048
 30
0.0
 11
47.49966666666678
 21
-8.857175071276052
 31
0.0
 12
48.05000000000011
 22
-5.55517507127605
 32
0.0
 13
48.05000000000011
 23
-5.55517507127605
 33
0.0
  0
MTEXT
  5
28F
330
284
100
AcDbEntity
  8
치수문자_일반주서
 62
     0
100
AcDbMText
 10
43.67500000000001
 20
25.72382492872394
 30
0.0
 40
3.5
 41
0.0
 71
     2
 72
     1
  1
\A1;%%c11.11 [7/16]
  7
SLDTEXTSTYLE0
 11
-3.197042680585377E-15
 21
1.0
 31
0.0
 73
     1
 44
1.0
  0
POINT
  5
290
330
284
100
AcDbEntity
  8
Defpoints
 62
     0
100
AcDbPoint
 10
35.39999999999998
 20
5.557324928723901
 30
0.0
  0
POINT
  5
291
330
284
100
AcDbEntity
  8
Defpoints
 62
     0
100
AcDbPoint
 10
35.39999999999998
 20
-5.5551750712761
 30
0.0
  0
POINT
  5
292
330
284
100
AcDbEntity
  8
Defpoints
 62
     0
100
AcDbPoint
 10
48.0500000000001
 20
-5.555175071276053
 30
0.0
  0
ENDBLK
  5
286
330
284
100
AcDbEntity
  8
0
100
AcDbBlockEnd
  0
BLOCK
  5
294
330
293
100
AcDbEntity
  8
0
100
AcDbBlockBegin
  2
*D15
 70
     1
 10
0.0
 20
0.0
 30
0.0
  3
*D15
  1
*D15
  0
LINE
  5
296
330
293
100
AcDbEntity
  8
치수문자_일반주서
 62
     0
370
    -2
100
AcDbLine
 10
35.39999999999998
 20
5.619824928723901
 30
0.0
 11
35.39999999999998
 21
14.86317548907216
 31
0.0
  0
LINE
  5
297
330
293
100
AcDbEntity
  8
치수문자_일반주서
 62
     0
370
    -2
100
AcDbLine
 10
10.0
 20
5.528626753069517
 30
0.0
 11
10.0
 21
14.86317548907216
 31
0.0
  0
LINE
  5
298
330
293
100
AcDbEntity
  8
치수문자_일반주서
 62
     0
370
    -2
100
AcDbLine
 10
32.09799999999998
 20
14.86317548907216
 30
0.0
 11
13.302
 21
14.86317548907216
 31
0.0
  0
SOLID
  5
299
330
293
100
AcDbEntity
  8
치수문자_일반주서
 62
     0
100
AcDbTrace
 10
32.09799999999998
 20
14.31284215573882
 30
0.0
 11
32.09799999999998
 21
15.41350882240549
 31
0.0
 12
35.39999999999998
 22
14.86317548907216
 32
0.0
 13
35.39999999999998
 23
14.86317548907216
 33
0.0
  0
SOLID
  5
29A
330
293
100
AcDbEntity
  8
치수문자_일반주서
 62
     0
100
AcDbTrace
 10
13.302
 20
15.41350882240549
 30
0.0
 11
13.302
 21
14.31284215573882
 31
0.0
 12
10.0
 22
14.86317548907216
 32
0.0
 13
10.0
 23
14.86317548907216
 33
0.0
  0
MTEXT
  5
29B
330
293
100
AcDbEntity
  8
치수문자_일반주서
 62
     0
100
AcDbMText
 10
22.75340701373264
 20
19.23817548907216
 30
0.0
 40
3.5
 41
0.0
 71
     2
 72
     1
  1
\A1;25.4 [1]
  7
SLDTEXTSTYLE0
 73
     1
 44
1.0
  0
POINT
  5
29C
330
293
100
AcDbEntity
  8
Defpoints
 62
     0
100
AcDbPoint
 10
35.39999999999998
 20
5.557324928723901
 30
0.0
  0
POINT
  5
29D
330
293
100
AcDbEntity
  8
Defpoints
 62
     0
100
AcDbPoint
 10
10.0
 20
5.466126753069517
 30
0.0
  0
POINT
  5
29E
330
293
100
AcDbEntity
  8
Defpoints
 62
     0
100
AcDbPoint
 10
10.0
 20
14.86317548907216
 30
0.0
  0
ENDBLK
  5
295
330
293
100
AcDbEntity
  8
0
100
AcDbBlockEnd
  0
BLOCK
  5
2A0
330
29F
100
AcDbEntity
  8
0
100
AcDbBlockBegin
  2
*D16
 70
     1
 10
0.0
 20
0.0
 30
0.0
  3
*D16
  1
*D16
  0
LINE
  5
2A2
330
29F
100
AcDbEntity
  8
치수문자_일반주서
 62
     0
370
    -2
100
AcDbLine
 10
35.39999999999998
 20
5.619824928723901
 30
0.0
 11
35.39999999999998
 21
26.86317548907215
 31
0.0
  0
LINE
  5
2A3
330
29F
100
AcDbEntity
  8
치수문자_일반주서
 62
     0
370
    -2
100
AcDbLine
 10
-66.19999999999999
 20
4.619824928723887
 30
0.0
 11
-66.19999999999999
 21
26.86317548907215
 31
0.0
  0
LINE
  5
2A4
330
29F
100
AcDbEntity
  8
치수문자_일반주서
 62
     0
370
    -2
100
AcDbLine
 10
32.09799999999998
 20
26.86317548907215
 30
0.0
 11
-62.89799999999999
 21
26.86317548907215
 31
0.0
  0
SOLID
  5
2A5
330
29F
100
AcDbEntity
  8
치수문자_일반주서
 62
     0
100
AcDbTrace
 10
32.09799999999998
 20
26.31284215573881
 30
0.0
 11
32.09799999999998
 21
27.41350882240548
 31
0.0
 12
35.39999999999998
 22
26.86317548907215
 32
0.0
 13
35.39999999999998
 23
26.86317548907215
 33
0.0
  0
SOLID
  5
2A6
330
29F
100
AcDbEntity
  8
치수문자_일반주서
 62
     0
100
AcDbTrace
 10
-62.89799999999999
 20
27.41350882240548
 30
0.0
 11
-62.89799999999999
 21
26.31284215573881
 31
0.0
 12
-66.19999999999999
 22
26.86317548907215
 32
0.0
 13
-66.19999999999999
 23
26.86317548907215
 33
0.0
  0
MTEXT
  5
2A7
330
29F
100
AcDbEntity
  8
치수문자_일반주서
 62
     0
100
AcDbMText
 10
-15.85718528386309
 20
31.23817548907215
 30
0.0
 40
3.5
 41
0.0
 71
     2
 72
     1
  1
\A1;101.6 [4]
  7
SLDTEXTSTYLE0
 73
     1
 44
1.0
  0
POINT
  5
2A8
330
29F
100
AcDbEntity
  8
Defpoints
 62
     0
100
AcDbPoint
 10
35.39999999999998
 20
5.557324928723901
 30
0.0
  0
POINT
  5
2A9
330
29F
100
AcDbEntity
  8
Defpoints
 62
     0
100
AcDbPoint
 10
-66.19999999999999
 20
4.557324928723887
 30
0.0
  0
POINT
  5
2AA
330
29F
100
AcDbEntity
  8
Defpoints
 62
     0
100
AcDbPoint
 10
-66.19999999999999
 20
26.86317548907215
 30
0.0
  0
ENDBLK
  5
2A1
330
29F
100
AcDbEntity
  8
0
100
AcDbBlockEnd
  0
BLOCK
  5
2AC
330
2AB
100
AcDbEntity
  8
0
100
AcDbBlockBegin
  2
*D17
 70
     1
 10
0.0
 20
0.0
 30
0.0
  3
*D17
  1
*D17
  0
LINE
  5
2AE
330
2AB
100
AcDbEntity
  8
치수문자_일반주서
 62
     0
370
    -2
100
AcDbLine
 10
188.3862813664664
 20
-32.63219389719149
 30
0.0
 11
200.3225425015245
 21
-61.09520551517916
 31
0.0
  0
MTEXT
  5
2AF
330
2AB
100
AcDbEntity
  8
치수문자_일반주서
 62
     0
100
AcDbMText
 10
197.4136603466118
 20
-47.37107052708863
 30
0.0
 40
3.5
 41
0.0
 71
     5
 72
     1
  1
\A1;R.51 [R0.020]
  7
SLDTEXTSTYLE0
 11
0.3867310708113897
 21
-0.9221925389359188
 31
0.0
 73
     1
 44
1.0
  0
LINE
  5
2B0
330
2AB
100
AcDbEntity
  8
치수문자_일반주서
 62
     0
370
    -2
100
AcDbLine
 10
186.912835986675
 20
-29.11864032384565
 30
0.0
 11
187.1092953706471
 21
-29.58711413362509
 31
0.0
  0
SOLID
  5
2B1
330
2AB
100
AcDbEntity
  8
치수문자_일반주서
 62
     0
100
AcDbTrace
 10
188.8937946603941
 20
-32.41936289788829
 30
0.0
 11
187.8787680725386
 21
-32.84502489649469
 31
0.0
 12
187.1092953706471
 22
-29.58711413362509
 32
0.0
 13
187.1092953706471
 23
-29.58711413362509
 33
0.0
  0
POINT
  5
2B2
330
2AB
100
AcDbEntity
  8
Defpoints
 62
     0
100
AcDbPoint
 10
187.1092953706471
 20
-29.58711413362509
 30
0.0
  0
POINT
  5
2B3
330
2AB
100
AcDbEntity
  8
Defpoints
 62
     0
100
AcDbPoint
 10
186.912835986675
 20
-29.11864032384565
 30
0.0
  0
ENDBLK
  5
2AD
330
2AB
100
AcDbEntity
  8
0
100
AcDbBlockEnd
  0
BLOCK
  5
2BC
330
2BB
100
AcDbEntity
  8
0
100
AcDbBlockBegin
  2
*D18
 70
     1
 10
0.0
 20
0.0
 30
0.0
  3
*D18
  1
*D18
  0
LINE
  5
2BE
330
2BB
100
AcDbEntity
  8
치수문자_일반주서
 62
     0
370
    -2
100
AcDbLine
 10
36.2173584092013
 20
-8.53773419289309
 30
0.0
 11
48.55201545370068
 21
-37.78242765759848
 31
0.0
  0
MTEXT
  5
2BF
330
2BB
100
AcDbEntity
  8
치수문자_일반주서
 62
     0
100
AcDbMText
 10
45.44496951704056
 20
-23.66117622190823
 30
0.0
 40
3.5
 41
0.0
 71
     5
 72
     1
  1
\A1;R.76 [R0.030]
  7
SLDTEXTSTYLE0
 11
0.3886216558074126
 21
-0.9213974216577258
 31
0.0
 73
     1
 44
1.0
  0
LINE
  5
2C0
330
2BB
100
AcDbEntity
  8
치수문자_일반주서
 62
     0
370
    -2
100
AcDbLine
 10
34.63799999999998
 20
-4.793175071276092
 30
0.0
 11
34.93412970172523
 21
-5.495279906579281
 31
0.0
  0
SOLID
  5
2C1
330
2BB
100
AcDbEntity
  8
치수문자_일반주서
 62
     0
100
AcDbTrace
 10
36.72443412358694
 20
-8.323862741647078
 30
0.0
 11
35.71028269481567
 21
-8.751605644139103
 31
0.0
 12
34.93412970172523
 22
-5.495279906579281
 32
0.0
 13
34.93412970172523
 23
-5.495279906579281
 33
0.0
  0
POINT
  5
2C2
330
2BB
100
AcDbEntity
  8
Defpoints
 62
     0
100
AcDbPoint
 10
34.93412970172523
 20
-5.495279906579281
 30
0.0
  0
POINT
  5
2C3
330
2BB
100
AcDbEntity
  8
Defpoints
 62
     0
100
AcDbPoint
 10
34.63799999999998
 20
-4.793175071276092
 30
0.0
  0
ENDBLK
  5
2BD
330
2BB
100
AcDbEntity
  8
0
100
AcDbBlockEnd
  0
ENDSEC
  0
SECTION
  2
ENTITIES
  0
LINE
  5
CA
330
1F
100
AcDbEntity
  8
참조1
100
AcDbLine
 10
-15.4
 20
0.0010749287238892
 30
0.0
 11
-15.39999999999999
 21
-39.99892507127611
 31
0.0
  0
LINE
  5
CB
330
1F
100
AcDbEntity
  8
참조1
100
AcDbLine
 10
-15.39999999999999
 20
-39.99892507127611
 30
0.0
 11
-14.66672777521594
 21
-39.9989250712761
 31
0.0
  0
INSERT
  5
CD
330
1F
100
AcDbEntity
  8
0
  6
Continuous
 62
     7
100
AcDbBlockReference
 66
     1
  2
블럭10
 10
-29.3402729321252
 20
-52.04609937292004
 30
0.0
  0
ATTRIB
  5
CE
330
CD
100
AcDbEntity
  8
FORMAT
 62
     2
100
AcDbText
 10
-39.48190894426183
 20
-49.97073246008785
 30
0.0
 40
4.233333333333333
  1
EM637917 [ 2 FLUTE ]
 41
0.75
  7
SLDTEXTSTYLE0
 11
-39.48190894426183
 21
-52.08739912675452
 31
0.0
100
AcDbAttribute
  2
AUTOATTR0
 70
     0
 74
     1
  0
SEQEND
  5
CF
330
CD
100
AcDbEntity
  8
0
  6
Continuous
 62
     7
  0
HATCH
  5
D0
330
1F
100
AcDbEntity
  8
중심선
100
AcDbHatch
 10
0.0
 20
0.0
 30
0.0
210
0.0
220
0.0
230
1.0
  2
SOLID
 70
     1
 71
     0
 91
        1
 92
        0
 93
        4
 72
     1
 10
-23.62536362774437
 20
-35.7989250712761
 11
-27.07163887158165
 21
-35.7989250712761
 72
     1
 10
-27.07163887158165
 20
-35.7989250712761
 11
-29.1998687307857
 21
-38.3352506518487
 72
     1
 10
-29.1998687307857
 20
-38.3352506518487
 11
-25.75356040183524
 21
-38.33521122254621
 72
     1
 10
-25.75356040183524
 20
-38.33521122254621
 11
-23.62536362774437
 21
-35.7989250712761
 97
        0
 75
     0
 76
     1
 98
        1
 10
0.0
 20
0.0
  0
HATCH
  5
D1
330
1F
100
AcDbEntity
  8
중심선
100
AcDbHatch
 10
0.0
 20
0.0
 30
0.0
210
0.0
220
0.0
230
1.0
  2
SOLID
 70
     1
 71
     0
 91
        1
 92
        0
 93
        4
 72
     1
 10
-18.61259963670836
 20
-35.7989250712761
 11
-22.05887488054564
 21
-35.7989250712761
 72
     1
 10
-22.05887488054564
 20
-35.7989250712761
 11
-26.59001288890309
 21
-41.19892507127612
 72
     1
 10
-26.59001288890309
 20
-41.19892507127612
 11
-23.1437376450658
 21
-41.19892507127612
 72
     1
 10
-23.1437376450658
 20
-41.19892507127612
 11
-18.61259963670836
 21
-35.7989250712761
 97
        0
 75
     0
 76
     1
 98
        1
 10
0.0
 20
0.0
  0
HATCH
  5
D2
330
1F
100
AcDbEntity
  8
중심선
100
AcDbHatch
 10
0.0
 20
0.0
 30
0.0
210
0.0
220
0.0
230
1.0
  2
SOLID
 70
     1
 71
     0
 91
        1
 92
        0
 93
        4
 72
     1
 10
-13.59983564567255
 20
-35.7989250712761
 11
-17.04611088950963
 21
-35.7989250712761
 72
     1
 10
-17.04611088950963
 20
-35.7989250712761
 11
-24.09454779139888
 21
-44.19892507127612
 72
     1
 10
-24.09454779139888
 20
-44.19892507127612
 11
-20.6482725475616
 21
-44.19892507127612
 72
     1
 10
-20.6482725475616
 20
-44.19892507127612
 11
-13.59983564567255
 21
-35.7989250712761
 97
        0
 75
     0
 76
     1
 98
        1
 10
0.0
 20
0.0
  0
HATCH
  5
D3
330
1F
100
AcDbEntity
  8
중심선
100
AcDbHatch
 10
0.0
 20
0.0
 30
0.0
210
0.0
220
0.0
230
1.0
  2
SOLID
 70
     1
 71
     0
 91
        1
 92
        0
 93
        6
 72
     3
 10
-8.79994521466032
 20
-39.99892507132738
 11
3.960054785062284
 21
1.540850780301639E-10
 40
0.3939339440162633
 50
17.09539180608433
 51
320.0019657685074
 73
     0
 72
     1
 10
-7.116945558959725
 20
-38.58681907591438
 11
-4.811643685258687
 21
-36.65249236586649
 72
     3
 10
-8.799945214713167
 20
-39.99892507127625
 11
6.600054785286829
 21
-1.249000902703301E-13
 40
0.6363583540795982
 50
39.99873849337408
 51
368.4976242363725
 73
     1
 72
     1
 10
-2.374612722812558
 20
-39.03892507120613
 11
-10.11987790787724
 21
-39.03892507120613
 72
     1
 10
-10.11987790787724
 20
-39.03892507120613
 11
-10.11990295232318
 21
-40.95892507120602
 72
     1
 10
-10.11990295232318
 20
-40.95892507120602
 11
-5.678523182851142
 21
-40.95892507120599
 97
        0
 75
     0
 76
     1
 98
        1
 10
0.0
 20
0.0
  0
LINE
  5
127
330
1F
100
AcDbEntity
  8
참조1
100
AcDbLine
 10
83.30561285443832
 20
7.441074928723896
 30
0.0
 11
83.30561285443832
 21
-7.438925071276109
 31
0.0
  0
LINE
  5
128
330
1F
100
AcDbEntity
  8
참조1
100
AcDbLine
 10
96.00561285443833
 20
5.441074928723896
 30
0.0
 11
83.30561285443832
 21
5.441074928723896
 31
0.0
  0
SOLID
  5
129
330
1F
100
AcDbEntity
  8
참조1
100
AcDbTrace
 10
83.30561285443832
 20
5.441074928723896
 30
0.0
 11
89.65561285443832
 21
4.425074928723896
 31
0.0
 12
89.65561285443832
 22
6.457074928723896
 32
0.0
 13
89.65561285443832
 23
6.457074928723896
 33
0.0
  0
LINE
  5
12A
330
1F
100
AcDbEntity
  8
참조1
100
AcDbLine
 10
96.00561285443833
 20
-5.438925071276109
 30
0.0
 11
83.30561285443832
 21
-5.438925071276109
 31
0.0
  0
SOLID
  5
12B
330
1F
100
AcDbEntity
  8
참조1
100
AcDbTrace
 10
83.30561285443832
 20
-5.438925071276109
 30
0.0
 11
89.65561285443832
 21
-6.454925071276109
 31
0.0
 12
89.65561285443832
 22
-4.422925071276109
 32
0.0
 13
89.65561285443832
 23
-4.422925071276109
 33
0.0
  0
MTEXT
  5
12C
330
1F
100
AcDbEntity
  8
참조1
100
AcDbMText
 10
92.7031029469086
 20
10.98929157337383
 30
0.0
 40
3.5
 41
0.0
 71
     1
 72
     1
  1
A
  7
SLDTEXTSTYLE0
 73
     1
 44
1.0
  0
MTEXT
  5
12D
330
1F
100
AcDbEntity
  8
참조1
100
AcDbMText
 10
92.7031029469086
 20
0.1092915733738251
 30
0.0
 40
3.5
 41
0.0
 71
     1
 72
     1
  1
A
  7
SLDTEXTSTYLE0
 73
     1
 44
1.0
  0
LINE
  5
23B
330
1F
100
AcDbEntity
  8
외형선
  6
Continuous
370
    15
100
AcDbLine
 10
8.254494908925324
 20
5.557324928723894
 30
0.0
 11
-65.19999999999999
 21
5.557324928723887
 31
0.0
  0
LINE
  5
23C
330
1F
100
AcDbEntity
  8
외형선
  6
Continuous
370
    15
100
AcDbLine
 10
-65.19999999999999
 20
-5.555175071276111
 30
0.0
 11
8.254494908925324
 21
-5.555175071276107
 31
0.0
  0
LINE
  5
23D
330
1F
100
AcDbEntity
  8
외형선
  6
Continuous
370
    15
100
AcDbLine
 10
-65.19999999999999
 20
5.557324928723887
 30
0.0
 11
-66.19999999999999
 21
4.55732492872388
 31
0.0
  0
LINE
  5
23E
330
1F
100
AcDbEntity
  8
외형선
  6
Continuous
370
    15
100
AcDbLine
 10
-66.19999999999999
 20
-4.555175071276103
 30
0.0
 11
-65.19999999999999
 21
-5.555175071276107
 31
0.0
  0
SPLINE
  5
23F
330
1F
100
AcDbEntity
  8
0
  6
Continuous
 62
     1
370
    15
100
AcDbSpline
210
0.0
220
0.0
230
1.0
 70
     8
 71
     3
 72
    10
 73
     6
 74
     0
 42
0.000000001
 43
0.00000001
 40
0.0
 40
0.0
 40
0.0
 40
0.0
 40
0.4477636217692004
 40
0.6545572625924271
 40
1.0
 40
1.0
 40
1.0
 40
1.0
 10
21.00421431762476
 20
1.424908877401769
 30
0.0
 10
20.77304785561404
 20
1.535084389985364
 30
0.0
 10
20.43512025448587
 20
1.69614298969136
 30
0.0
 10
19.92579754995896
 20
1.954053740014402
 30
0.0
 10
19.64190358749303
 20
2.102774397590188
 30
0.0
 10
19.46431820667857
 20
2.195804254164692
 30
0.0
  0
SPLINE
  5
240
330
1F
100
AcDbEntity
  8
0
  6
Continuous
 62
     1
370
    15
100
AcDbSpline
210
0.0
220
0.0
230
1.0
 70
     8
 71
     3
 72
    15
 73
    11
 74
     0
 42
0.000000001
 43
0.00000001
 40
0.0
 40
0.0
 40
0.0
 40
0.0
 40
0.1408620445406754
 40
0.2445805563460083
 40
0.321969517652775
 40
0.4044016743788276
 40
0.4940761075826526
 40
0.691944135435122
 40
0.9051482435940391
 40
1.0
 40
1.0
 40
1.0
 40
1.0
 10
19.16819650823601
 20
4.416282847990722
 30
0.0
 10
18.95588233620532
 20
4.405651709514494
 30
0.0
 10
18.5872385437292
 20
4.387192728803363
 30
0.0
 10
18.09898523227884
 20
4.369183361648176
 30
0.0
 10
17.69447526892321
 20
4.357314889062842
 30
0.0
 10
17.31372362182969
 20
4.348812270165467
 30
0.0
 10
16.75121349738237
 20
4.340374847549242
 30
0.0
 10
15.99022425022147
 20
4.33897913258631
 30
0.0
 10
15.22144019358865
 20
4.349279052948546
 30
0.0
 10
14.75319549655671
 20
4.365189342054663
 30
0.0
 10
14.60902089366775
 20
4.37008819008917
 30
0.0
  0
SPLINE
  5
241
330
1F
100
AcDbEntity
  8
0
  6
Continuous
 62
     1
370
    15
100
AcDbSpline
210
0.0
220
0.0
230
1.0
 70
     8
 71
     3
 72
    28
 73
    24
 74
     0
 42
0.000000001
 43
0.00000001
 40
0.0
 40
0.0
 40
0.0
 40
0.0
 40
0.071088471677338
 40
0.1283834277957491
 40
0.1757011060704239
 40
0.2057905357932688
 40
0.2310668952919179
 40
0.2562656585273539
 40
0.2815593886987938
 40
0.3086998711519531
 40
0.338377083549656
 40
0.4307857329474946
 40
0.5288437017075803
 40
0.5830817318241869
 40
0.6268385512778709
 40
0.6689398472720994
 40
0.7105829332882306
 40
0.7375824151092449
 40
0.7638605663370961
 40
0.7974030035246117
 40
0.8480377019137981
 40
0.9154268907362872
 40
1.0
 40
1.0
 40
1.0
 40
1.0
 10
33.33479099586268
 20
3.801267280413136
 30
0.0
 10
33.10304406797081
 20
3.782418734071577
 30
0.0
 10
32.68451678384326
 20
3.748378883007113
 30
0.0
 10
32.11390189592009
 20
3.713956982131869
 30
0.0
 10
31.67740221396198
 20
3.692877025013502
 30
0.0
 10
31.34899267636979
 20
3.680354392306448
 30
0.0
 10
31.09157809336438
 20
3.6722594553409
 30
0.0
 10
30.84792323600936
 20
3.666147225930864
 30
0.0
 10
30.5967923467249
 20
3.661491413203755
 30
0.0
 10
30.33098603742758
 20
3.658360111947239
 30
0.0
 10
29.84801636919644
 20
3.65619614697593
 30
0.0
 10
29.1358015099525
 20
3.664129203200169
 30
0.0
 10
28.34467793073424
 20
3.692437452480021
 30
0.0
 10
27.71017369898209
 20
3.72717458111255
 30
0.0
 10
27.25674661853816
 20
3.757550916406586
 30
0.0
 10
26.84428331926694
 20
3.789640520896526
 30
0.0
 10
26.48610355661509
 20
3.821263081147542
 30
0.0
 10
26.17908374578843
 20
3.850776278950661
 30
0.0
 10
25.89827825360595
 20
3.879511212984163
 30
0.0
 10
25.54132541698937
 20
3.918485455902172
 30
0.0
 10
25.05141408277615
 20
3.976797810497224
 30
0.0
 10
24.39643092950411
 20
4.063271896449336
 30
0.0
 10
23.90362910111378
 20
4.138329831283571
 30
0.0
 10
23.62936513299337
 20
4.180102580207404
 30
0.0
  0
SPLINE
  5
242
330
1F
100
AcDbEntity
  8
0
  6
Continuous
 62
     1
370
    15
100
AcDbSpline
210
0.0
220
0.0
230
1.0
 70
     8
 71
     3
 72
    15
 73
    11
 74
     0
 42
0.000000001
 43
0.00000001
 40
0.0
 40
0.0
 40
0.0
 40
0.0
 40
0.1723370272215729
 40
0.2979829611966812
 40
0.3816692485872796
 40
0.4644572382586733
 40
0.5573522567804816
 40
0.6578474457086965
 40
0.9038328890179816
 40
1.0
 40
1.0
 40
1.0
 40
1.0
 10
23.62936513299337
 20
-4.17795272275962
 30
0.0
 10
23.86602374323201
 20
-4.141765500216977
 30
0.0
 10
24.27522329023901
 20
-4.079195222055716
 30
0.0
 10
24.79772210277753
 20
-4.007891290954305
 30
0.0
 10
25.19790410762423
 20
-3.957087763848975
 30
0.0
 10
25.55598138400055
 20
-3.914707840234534
 30
0.0
 10
25.93911986475831
 20
-3.872642642483541
 30
0.0
 10
26.55006620487111
 20
-3.811891785745885
 30
0.0
 10
27.16106361038408
 20
-3.758395305385434
 30
0.0
 10
27.63256756495076
 20
-3.73254316704584
 30
0.0
 10
27.76509082850254
 20
-3.725277035533317
 30
0.0
  0
SPLINE
  5
243
330
1F
100
AcDbEntity
  8
0
  6
Continuous
 62
     1
370
    15
100
AcDbSpline
210
0.0
220
0.0
230
1.0
 70
     8
 71
     3
 72
    21
 73
    17
 74
     0
 42
0.000000001
 43
0.00000001
 40
0.0
 40
0.0
 40
0.0
 40
0.0
 40
0.0894610863633314
 40
0.1559898862756323
 40
0.2005321679582722
 40
0.2379860026049029
 40
0.2752647130664211
 40
0.3124838259072444
 40
0.4012587909793975
 40
0.5064199811919915
 40
0.6536228542490959
 40
0.7828187649861532
 40
0.8267240598558577
 40
0.8683033529229239
 40
0.9243811991548784
 40
1.0
 40
1.0
 40
1.0
 40
1.0
 10
10.80671841801612
 20
-4.623029361440608
 30
0.0
 10
11.05706848021379
 20
-4.598815111569373
 30
0.0
 10
11.49359434099654
 20
-4.55659364705101
 30
0.0
 10
12.05342659661034
 20
-4.51021450335282
 30
0.0
 10
12.46578888120666
 20
-4.47930309659742
 30
0.0
 10
12.79669653686028
 20
-4.456517174813449
 30
0.0
 10
13.10847698559238
 20
-4.436753804369971
 30
0.0
 10
13.56377802026859
 20
-4.410421853094761
 30
0.0
 10
14.20775723948185
 20
-4.379216382417667
 30
0.0
 10
15.15875361972854
 20
-4.3478676999828
 30
0.0
 10
16.22224351033674
 20
-4.333915223857815
 30
0.0
 10
17.11414477570588
 20
-4.342017526310826
 30
0.0
 10
17.71500552031159
 20
-4.355715774993087
 30
0.0
 10
18.1134512633152
 20
-4.367531258110404
 30
0.0
 10
18.59514390335215
 20
-4.385412945638301
 30
0.0
 10
18.95917421280751
 20
-4.403657286114381
 30
0.0
 10
19.16819650823601
 20
-4.414132990542939
 30
0.0
  0
SPLINE
  5
244
330
1F
100
AcDbEntity
  8
외형선
  6
Continuous
370
    15
100
AcDbSpline
210
0.0
220
0.0
230
1.0
 70
     8
 71
     3
 72
     9
 73
     5
 74
     0
 42
0.000000001
 43
0.00000001
 40
0.0
 40
0.0
 40
0.0
 40
0.0
 40
0.6501393070948432
 40
1.0
 40
1.0
 40
1.0
 40
1.0
 10
10.00000000000099
 20
5.466126753069418
 30
0.0
 10
9.621915742079295
 20
5.50028294399371
 30
0.0
 10
9.040372288552078
 20
5.552819670433031
 30
0.0
 10
8.458180819641768
 20
5.552306055462012
 30
0.0
 10
8.254494908925324
 20
5.552126361772366
 30
0.0
  0
LINE
  5
245
330
1F
100
AcDbEntity
  8
외형선
  6
Continuous
370
    15
100
AcDbLine
 10
10.0
 20
5.466126753069517
 30
0.0
 11
10.0
 21
4.976680168603565
 31
0.0
  0
SPLINE
  5
246
330
1F
100
AcDbEntity
  8
외형선
  6
Continuous
370
    15
100
AcDbSpline
210
0.0
220
0.0
230
1.0
 70
     8
 71
     3
 72
    10
 73
     6
 74
     0
 42
0.000000001
 43
0.00000001
 40
0.0
 40
0.0
 40
0.0
 40
0.0
 40
0.5
 40
0.5
 40
1.0
 40
1.0
 40
1.0
 40
1.0
 10
7.969892621685062
 20
5.384194183935676
 30
0.0
 10
8.308815430550908
 20
5.335779883704262
 30
0.0
 10
8.64895157492225
 20
5.277287063074894
 30
0.0
 10
9.32598218511501
 20
5.141142817514691
 30
0.0
 10
9.661431967573776
 20
5.063645582653606
 30
0.0
 10
10.0
 20
4.976680168603565
 30
0.0
  0
SPLINE
  5
247
330
1F
100
AcDbEntity
  8
외형선
  6
Continuous
370
    15
100
AcDbSpline
210
0.0
220
0.0
230
1.0
 70
     8
 71
     3
 72
    10
 73
     6
 74
     0
 42
0.000000001
 43
0.00000001
 40
0.0
 40
0.0
 40
0.0
 40
0.0
 40
0.5
 40
0.5
 40
1.0
 40
1.0
 40
1.0
 40
1.0
 10
10.00000000000099
 20
-5.463976895621631
 30
0.0
 10
9.661413236846727
 20
-5.499236093010229
 30
0.0
 10
9.325944908570818
 20
-5.524279487637383
 30
0.0
 10
8.648876484572725
 20
-5.553964702210205
 30
0.0
 10
8.308721410348141
 20
-5.5585245370082
 30
0.0
 10
7.969780119597715
 20
-5.552751249832781
 30
0.0
  0
LINE
  5
248
330
1F
100
AcDbEntity
  8
외형선
  6
Continuous
370
    15
100
AcDbLine
 10
-65.19999999999999
 20
5.557324928723887
 30
0.0
 11
-65.19999999999999
 21
-5.555175071276111
 31
0.0
  0
LINE
  5
249
330
1F
100
AcDbEntity
  8
외형선
  6
Continuous
370
    15
100
AcDbLine
 10
7.969892621685091
 20
-5.552744211863924
 30
0.0
 11
7.969892621685062
 21
5.384193472332562
 31
0.0
  0
LINE
  5
24A
330
1F
100
AcDbEntity
  8
외형선
  6
Continuous
370
    15
100
AcDbLine
 10
-66.19999999999999
 20
4.557324928723887
 30
0.0
 11
-66.19999999999999
 21
-4.555175071276103
 31
0.0
  0
SPLINE
  5
24B
330
1F
100
AcDbEntity
  8
외형선
  6
Continuous
370
    15
100
AcDbSpline
210
0.0
220
0.0
230
1.0
 70
    24
 71
     3
 72
    14
 73
    10
 74
     0
 42
0.000000001
 43
0.00000001
 40
0.0
 40
0.0
 40
0.0
 40
0.0
 40
0.25
 40
0.25
 40
0.4999999999999999
 40
0.4999999999999999
 40
0.75
 40
0.75
 40
1.0
 40
1.0
 40
1.0
 40
1.0
 10
10.0
 20
-2.13919767877853
 30
0.0
 10
10.0
 20
-2.488398044777
 30
0.0
 10
10.0
 20
-2.819480333284488
 30
0.0
 10
10.0
 20
-3.416936011109243
 30
0.0
 10
10.0
 20
-3.683078540295767
 30
0.0
 10
10.0
 20
-4.128393916684189
 30
0.0
 10
10.0
 20
-4.307438170323422
 30
0.0
 10
10.0
 20
-4.568764912102111
 30
0.0
 10
10.0
 20
-4.651081222079419
 30
0.0
 10
10.0
 20
-4.687136150761631
 30
0.0
  0
SPLINE
  5
24C
330
1F
100
AcDbEntity
  8
외형선
  6
Continuous
370
    15
100
AcDbSpline
210
0.0
220
0.0
230
1.0
 70
     8
 71
     3
 72
    10
 73
     6
 74
     0
 42
0.000000001
 43
0.00000001
 40
0.0
 40
0.0
 40
0.0
 40
0.0
 40
0.5
 40
0.5
 40
1.0
 40
1.0
 40
1.0
 40
1.0
 10
10.00000000000108
 20
-4.687136150761575
 30
0.0
 10
9.661413236846784
 20
-4.707205269102992
 30
0.0
 10
9.325944908570875
 20
-4.718541955579624
 30
0.0
 10
8.648876484572781
 20
-4.72376533385065
 30
0.0
 10
8.308721410348141
 20
-4.717596456137912
 30
0.0
 10
7.969780119597715
 20
-4.702687930425128
 30
0.0
  0
SPLINE
  5
24D
330
1F
100
AcDbEntity
  8
외형선
  6
Continuous
370
    15
100
AcDbSpline
210
0.0
220
0.0
230
1.0
 70
     8
 71
     3
 72
    10
 73
     6
 74
     0
 42
0.000000001
 43
0.00000001
 40
0.0
 40
0.0
 40
0.0
 40
0.0
 40
0.5
 40
0.5
 40
1.0
 40
1.0
 40
1.0
 40
1.0
 10
10.0
 20
-2.13919767877853
 30
0.0
 10
9.661425128367966
 20
-2.002190189912369
 30
0.0
 10
9.325968574223623
 20
-1.861644858875856
 30
0.0
 10
8.648924156965563
 20
-1.573328792421805
 30
0.0
 10
8.30878110067863
 20
-1.425744661670251
 30
0.0
 10
7.969851543456514
 20
-1.275960957830911
 30
0.0
  0
SPLINE
  5
24E
330
1F
100
AcDbEntity
  8
외형선
  6
Continuous
370
    15
100
AcDbSpline
210
0.0
220
0.0
230
1.0
 70
    24
 71
     3
 72
    14
 73
    10
 74
     0
 42
0.000000001
 43
0.00000001
 40
0.0
 40
0.0
 40
0.0
 40
0.0
 40
0.25
 40
0.25
 40
0.5
 40
0.5
 40
0.75
 40
0.75
 40
1.0
 40
1.0
 40
1.0
 40
1.0
 10
10.0
 20
3.409899987746165
 30
0.0
 10
10.0
 20
3.086499494212717
 30
0.0
 10
10.0
 20
2.707233446985882
 30
0.0
 10
10.0
 20
1.85839952041048
 30
0.0
 10
10.0
 20
1.389068695228794
 30
0.0
 10
10.0
 20
0.402834053241655
 30
0.0
 10
10.0
 20
-0.1135442565138334
 30
0.0
 10
10.0
 20
-1.141644300661724
 30
0.0
 10
10.0
 20
-1.652877191952356
 30
0.0
 10
10.0
 20
-2.139197678778523
 30
0.0
  0
SPLINE
  5
24F
330
1F
100
AcDbEntity
  8
외형선
  6
Continuous
370
    15
100
AcDbSpline
210
0.0
220
0.0
230
1.0
 70
     8
 71
     3
 72
    10
 73
     6
 74
     0
 42
0.000000001
 43
0.00000001
 40
0.0
 40
0.0
 40
0.0
 40
0.0
 40
0.5
 40
0.5
 40
1.0
 40
1.0
 40
1.0
 40
1.0
 10
10.0
 20
3.409899987746165
 30
0.0
 10
9.661427455381158
 20
3.475759999967067
 30
0.0
 10
9.325973205276966
 20
3.535113858133343
 30
0.0
 10
8.648933485819327
 20
3.640874989520036
 30
0.0
 10
8.308792781284467
 20
3.687167516029263
 30
0.0
 10
7.969865520162841
 20
3.726478094530378
 30
0.0
  0
SPLINE
  5
250
330
1F
100
AcDbEntity
  8
외형선
  6
Continuous
370
    15
100
AcDbSpline
210
0.0
220
0.0
230
1.0
 70
    24
 71
     3
 72
    10
 73
     6
 74
     0
 42
0.000000001
 43
0.00000001
 40
0.0
 40
0.0
 40
0.0
 40
0.0
 40
0.5
 40
0.5
 40
1.0
 40
1.0
 40
1.0
 40
1.0
 10
10.0
 20
4.976680168603572
 30
0.0
 10
10.0
 20
4.76707946279555
 30
0.0
 10
10.0
 20
4.512837629653141
 30
0.0
 10
10.0
 20
3.96953677361055
 30
0.0
 10
10.0
 20
3.682075707259095
 30
0.0
 10
10.0
 20
3.409899987746165
 30
0.0
  0
SPLINE
  5
251
330
1F
100
AcDbEntity
  8
외형선
  6
Continuous
370
    15
100
AcDbSpline
210
0.0
220
0.0
230
1.0
 70
    24
 71
     3
 72
     8
 73
     4
 74
     0
 42
0.000000001
 43
0.00000001
 40
0.0
 40
0.0
 40
0.0
 40
0.0
 40
1.0
 40
1.0
 40
1.0
 40
1.0
 10
10.0
 20
-4.687136150761631
 30
0.0
 10
10.0
 20
-4.956172760624909
 30
0.0
 10
10.0
 20
-5.216828706565018
 30
0.0
 10
10.0
 20
-5.46397689561363
 30
0.0
  0
SPLINE
  5
252
330
1F
100
AcDbEntity
  8
0
  6
Continuous
 62
     1
370
    15
100
AcDbSpline
210
0.0
220
0.0
230
1.0
 70
     8
 71
     3
 72
    14
 73
    10
 74
     0
 42
0.000000001
 43
0.00000001
 40
0.0
 40
0.0
 40
0.0
 40
0.0
 40
0.15859682489328
 40
0.3172084715268609
 40
0.4758330036881891
 40
0.6344684744209819
 40
0.7931129276308906
 40
0.9517643997074718
 40
1.0
 40
1.0
 40
1.0
 40
1.0
 10
35.39999999999998
 20
-4.382652215172008
 30
0.0
 10
34.63830372587935
 20
-4.219645078590119
 30
0.0
 10
33.11483999295717
 20
-3.893615571518296
 30
0.0
 10
30.82950565444463
 20
-3.119880084988615
 30
0.0
 10
28.54396067688779
 20
-2.189024324070289
 30
0.0
 10
26.25823422682458
 20
-1.128740951147677
 30
0.0
 10
23.97235869206509
 20
-0.0126183910119266
 30
0.0
 10
22.21671873719146
 20
0.8636408290376636
 30
0.0
 10
21.22303895975918
 20
1.316542492458275
 30
0.0
 10
20.99136309903901
 20
1.422136251209913
 30
0.0
  0
LINE
  5
253
330
1F
100
AcDbEntity
  8
0
  6
Continuous
 62
     1
370
    15
100
AcDbLine
 10
35.39999999999998
 20
-4.725815380899299
 30
0.0
 11
35.39999999999998
 21
-4.382652215172008
 31
0.0
  0
SPLINE
  5
254
330
1F
100
AcDbEntity
  8
0
  6
Continuous
 62
     1
370
    15
100
AcDbSpline
210
0.0
220
0.0
230
1.0
 70
     8
 71
     3
 72
    14
 73
    10
 74
     0
 42
0.000000001
 43
0.00000001
 40
0.0
 40
0.0
 40
0.0
 40
0.0
 40
0.2500000000000003
 40
0.2500000000000003
 40
0.5000000000000002
 40
0.5000000000000002
 40
0.7500000000000001
 40
0.7500000000000001
 40
1.0
 40
1.0
 40
1.0
 40
1.0
 10
34.892
 20
-5.17147383414958
 30
0.0
 10
34.95259736346679
 20
-5.184245176218532
 30
0.0
 10
35.01451467830663
 20
-5.185286193417735
 30
0.0
 10
35.1355749638621
 20
-5.158849851638166
 30
0.0
 10
35.19390223821335
 20
-5.131000890552315
 30
0.0
 10
35.29304265085759
 20
-5.047477328635182
 30
0.0
 10
35.33366400031173
 20
-4.991517792497021
 30
0.0
 10
35.38693551479798
 20
-4.86563504438945
 30
0.0
 10
35.39999999999998
 20
-4.795939487986537
 30
0.0
 10
35.39999999999998
 20
-4.725815380899299
 30
0.0
  0
SPLINE
  5
255
330
1F
100
AcDbEntity
  8
0
  6
Continuous
 62
     1
370
    15
100
AcDbSpline
210
0.0
220
0.0
230
1.0
 70
     8
 71
     3
 72
    46
 73
    42
 74
     0
 42
0.000000001
 43
0.00000001
 40
0.0
 40
0.0
 40
0.0
 40
0.0
 40
0.0624999999999999
 40
0.0624999999999999
 40
0.1249999999999999
 40
0.1249999999999999
 40
0.1874999999999998
 40
0.1874999999999998
 40
0.2187499999999998
 40
0.2187499999999998
 40
0.2499999999999998
 40
0.2499999999999998
 40
0.3125000000000001
 40
0.3125000000000001
 40
0.3437500000000002
 40
0.3437500000000002
 40
0.3750000000000003
 40
0.3750000000000003
 40
0.4375000000000003
 40
0.4375000000000003
 40
0.5000000000000002
 40
0.5000000000000002
 40
0.5625000000000001
 40
0.5625000000000001
 40
0.6250000000000001
 40
0.6250000000000001
 40
0.6562500000000001
 40
0.6562500000000001
 40
0.6875
 40
0.6875
 40
0.7500000000000001
 40
0.7500000000000001
 40
0.7812500000000001
 40
0.7812500000000001
 40
0.8125
 40
0.8125
 40
0.875
 40
0.875
 40
0.9375
 40
0.9375
 40
1.0
 40
1.0
 40
1.0
 40
1.0
 10
34.892
 20
-5.171473834149577
 30
0.0
 10
34.37320699367069
 20
-5.062134375008881
 30
0.0
 10
33.85068265400344
 20
-4.929857797814151
 30
0.0
 10
32.81851010038346
 20
-4.62480688929989
 30
0.0
 10
32.29802778115044
 20
-4.451014723731447
 30
0.0
 10
31.25892385078618
 20
-4.066334456238351
 30
0.0
 10
30.74456738620842
 20
-3.856106138319859
 30
0.0
 10
29.9646345579178
 20
-3.515842824589463
 30
0.0
 10
29.70429171754711
 20
-3.398402975219312
 30
0.0
 10
29.18542521899008
 20
-3.156652031457398
 30
0.0
 10
28.92807197742911
 20
-3.032537340939271
 30
0.0
 10
28.1521398050233
 20
-2.650104978234367
 30
0.0
 10
27.62944143762792
 20
-2.381551479688746
 30
0.0
 10
26.85254929745682
 20
-1.966149292704621
 30
0.0
 10
26.59545780518562
 20
-1.825731114385071
 30
0.0
 10
26.07708933390813
 20
-1.540471547869004
 30
0.0
 10
25.81683578388592
 20
-1.395809725153988
 30
0.0
 10
25.03668730066261
 20
-0.957837175957728
 30
0.0
 10
24.52199596667418
 20
-0.6614223171184932
 30
0.0
 10
23.48360256655383
 20
-0.0637034051778542
 30
0.0
 10
22.96127636134793
 20
0.2373397068013929
 30
0.0
 10
21.93067839967938
 20
0.8320799039795048
 30
0.0
 10
21.40842925921928
 20
1.128449925562585
 30
0.0
 10
20.36998250422232
 20
1.707656732028781
 30
0.0
 10
19.8553220113364
 20
1.99025019000274
 30
0.0
 10
19.07518432656195
 20
2.400792329252752
 30
0.0
 10
18.81492342669713
 20
2.535204541281686
 30
0.0
 10
18.29651859608325
 20
2.797859722274275
 30
0.0
 10
18.03941866875095
 20
2.925939269230113
 30
0.0
 10
17.26258792930332
 20
3.301142511817261
 30
0.0
 10
16.73988695438317
 20
3.538687636117302
 30
0.0
 10
15.96388580888197
 20
3.869203228605016
 30
0.0
 10
15.70655968059535
 20
3.9751102039016
 30
0.0
 10
15.18772446009069
 20
4.178614845921864
 30
0.0
 10
14.92738639645091
 20
4.276041170298591
 30
0.0
 10
14.14743507838449
 20
4.553880491674896
 30
0.0
 10
13.6330639760925
 20
4.719433460752811
 30
0.0
 10
12.59400318839167
 20
5.009190587422474
 30
0.0
 10
12.07339955864677
 20
5.132862216510865
 30
0.0
 10
11.04133709616605
 20
5.333981208057068
 30
0.0
 10
10.51882477785986
 20
5.412098222591183
 30
0.0
 10
9.999999999999602
 20
5.46612675306956
 30
0.0
  0
SPLINE
  5
256
330
1F
100
AcDbEntity
  8
0
  6
Continuous
 62
     1
370
    15
100
AcDbSpline
210
0.0
220
0.0
230
1.0
 70
     8
 71
     3
 72
    12
 73
     8
 74
     0
 42
0.000000001
 43
0.00000001
 40
0.0
 40
0.0
 40
0.0
 40
0.0
 40
0.1894747709615511
 40
0.3865955820319322
 40
0.5837178160855256
 40
0.7918716077313157
 40
1.0
 40
1.0
 40
1.0
 40
1.0
 10
21.59780375903398
 20
-0.5280956322687231
 30
0.0
 10
20.86532249253023
 20
-0.2323367935041247
 30
0.0
 10
19.37080150636177
 20
0.371115897495514
 30
0.0
 10
17.11421517905995
 20
1.271689369626472
 30
0.0
 10
14.78547185665991
 20
2.122336087069947
 30
0.0
 10
12.41396079732613
 20
2.878012965497575
 30
0.0
 10
10.80462086792031
 20
3.232611525584204
 30
0.0
 10
10.0
 20
3.409899987746165
 30
0.0
  0
SPLINE
  5
257
330
1F
100
AcDbEntity
  8
외형선
  6
Continuous
370
    15
100
AcDbSpline
210
0.0
220
0.0
230
1.0
 70
    24
 71
     3
 72
    10
 73
     6
 74
     0
 42
0.000000001
 43
0.00000001
 40
0.0
 40
0.0
 40
0.0
 40
0.0
 40
0.5
 40
0.5
 40
1.0
 40
1.0
 40
1.0
 40
1.0
 10
10.0
 20
4.976680168603565
 30
0.0
 10
10.0
 20
4.76707946279555
 30
0.0
 10
10.0
 20
4.512837629653141
 30
0.0
 10
10.0
 20
3.969536773610557
 30
0.0
 10
10.0
 20
3.682075707259095
 30
0.0
 10
10.0
 20
3.409899987746165
 30
0.0
  0
SPLINE
  5
258
330
1F
100
AcDbEntity
  8
0
  6
Continuous
 62
     1
370
    15
100
AcDbSpline
210
0.0
220
0.0
230
1.0
 70
     8
 71
     3
 72
    46
 73
    42
 74
     0
 42
0.000000001
 43
0.00000001
 40
0.0
 40
0.0
 40
0.0
 40
0.0
 40
0.0624999999999997
 40
0.0624999999999997
 40
0.1249999999999993
 40
0.1249999999999993
 40
0.1874999999999991
 40
0.1874999999999991
 40
0.2187499999999989
 40
0.2187499999999989
 40
0.2499999999999988
 40
0.2499999999999988
 40
0.3124999999999984
 40
0.3124999999999984
 40
0.3437499999999983
 40
0.3437499999999983
 40
0.3749999999999983
 40
0.3749999999999983
 40
0.4374999999999983
 40
0.4374999999999983
 40
0.4999999999999984
 40
0.4999999999999984
 40
0.5624999999999984
 40
0.5624999999999984
 40
0.6249999999999987
 40
0.6249999999999987
 40
0.6562499999999987
 40
0.6562499999999987
 40
0.6874999999999989
 40
0.6874999999999989
 40
0.7499999999999991
 40
0.7499999999999991
 40
0.7812499999999991
 40
0.7812499999999991
 40
0.8124999999999991
 40
0.8124999999999991
 40
0.8749999999999994
 40
0.8749999999999994
 40
0.9374999999999997
 40
0.9374999999999997
 40
1.0
 40
1.0
 40
1.0
 40
1.0
 10
9.999999999999147
 20
4.976680168604226
 30
0.0
 10
10.51882477785938
 20
4.843413565426424
 30
0.0
 10
11.04133709616559
 20
4.688019797032901
 30
0.0
 10
12.07339955864632
 20
4.339250918030089
 30
0.0
 10
12.59400318839124
 20
4.144676123635364
 30
0.0
 10
13.63306397609207
 20
3.7213586783948
 30
0.0
 10
14.14743507838409
 20
3.493297253258838
 30
0.0
 10
14.92738639645052
 20
3.128685030665515
 30
0.0
 10
15.18772446009029
 20
3.003543180637919
 30
0.0
 10
15.70655968059498
 20
2.747291036446455
 30
0.0
 10
15.96388580888157
 20
2.616386573378868
 30
0.0
 10
16.73988695438283
 20
2.214908803700673
 30
0.0
 10
17.26258792930292
 20
1.935479781633617
 30
0.0
 10
18.03941866875061
 20
1.506820004187674
 30
0.0
 10
18.29651859608288
 20
1.36248379889831
 30
0.0
 10
18.81492342669679
 20
1.070383589609769
 30
0.0
 10
19.07518432656161
 20
0.9228098477323741
 30
0.0
 10
19.85532201133606
 20
0.47767500450108
 30
0.0
 10
20.36998250422201
 20
0.1785858343374684
 30
0.0
 10
21.40842925921899
 20
-0.4202833171612497
 30
0.0
 10
21.9306783996791
 20
-0.7197527591194159
 30
0.0
 10
22.96127636134764
 20
-1.307209722561758
 30
0.0
 10
23.48360256655354
 20
-1.59783692832044
 30
0.0
 10
24.5219959666739
 20
-2.161480944925991
 30
0.0
 10
25.03668730066238
 20
-2.434309102143736
 30
0.0
 10
25.81683578388572
 20
-2.827297536135887
 30
0.0
 10
26.07708933390791
 20
-2.955380294267187
 30
0.0
 10
26.59545780518542
 20
-3.2044856843982
 30
0.0
 10
26.85254929745662
 20
-3.325359382080741
 30
0.0
 10
27.62944143762772
 20
-3.677621563342363
 30
0.0
 10
28.15213980502313
 20
-3.89809312708018
 30
0.0
 10
28.92807197742894
 20
-4.200834627706215
 30
0.0
 10
29.18542521898991
 20
-4.297134073352701
 30
0.0
 10
29.70429171754694
 20
-4.480683673289725
 30
0.0
 10
29.96463455791763
 20
-4.567776463830498
 30
0.0
 10
30.7445673862083
 20
-4.813698077795713
 30
0.0
 10
31.25892385078606
 20
-4.956816686361648
 30
0.0
 10
32.29802778115032
 20
-5.199675348577472
 30
0.0
 10
32.81851010038338
 20
-5.298927223762536
 30
0.0
 10
33.85068265400338
 20
-5.450124297386463
 30
0.0
 10
34.17577383095423
 20
-5.528617528425116
 30
0.0
 10
34.63799999999998
 20
-5.555175071276093
 30
0.0
  0
SPLINE
  5
259
330
1F
100
AcDbEntity
  8
0
  6
Continuous
 62
     1
370
    15
100
AcDbSpline
210
0.0
220
0.0
230
1.0
 70
     8
 71
     3
 72
    15
 73
    11
 74
     0
 42
0.000000001
 43
0.00000001
 40
0.0
 40
0.0
 40
0.0
 40
0.0
 40
0.1260417566375993
 40
0.2520952422203184
 40
0.3781768532089684
 40
0.5297517791983558
 40
0.681335407440069
 40
0.8329258357733513
 40
0.9845211563242813
 40
1.0
 40
1.0
 40
1.0
 40
1.0
 10
34.24598710377688
 20
0.5327431331292445
 30
0.0
 10
33.61253609144734
 20
0.8213052499127045
 30
0.0
 10
32.34557512035366
 20
1.398456335923775
 30
0.0
 10
30.44492298315174
 20
2.204247943871145
 30
0.0
 10
28.41596522242378
 20
2.97477360129119
 30
0.0
 10
26.25823394387879
 20
3.649734310931876
 30
0.0
 10
23.9723944287731
 20
4.166781347119418
 30
0.0
 10
21.68640110349122
 20
4.424601187214797
 30
0.0
 10
20.08456866544182
 20
4.497396605165974
 30
0.0
 10
19.24473285781619
 20
4.412738480040062
 30
0.0
 10
19.16692497387623
 20
4.404895197442968
 30
0.0
  0
SPLINE
  5
25A
330
1F
100
AcDbEntity
  8
0
  6
Continuous
 62
     1
370
    15
100
AcDbSpline
210
0.0
220
0.0
230
1.0
 70
    24
 71
     3
 72
     8
 73
     4
 74
     0
 42
0.000000001
 43
0.00000001
 40
0.0
 40
0.0
 40
0.0
 40
0.0
 40
1.0
 40
1.0
 40
1.0
 40
1.0
 10
34.24598710377688
 20
0.5327431331292516
 30
0.0
 10
34.03564250428695
 20
0.356243057277112
 30
0.0
 10
33.82546512868646
 20
0.1798832989289281
 30
0.0
 10
33.61545153745189
 20
0.0036609719817875
 30
0.0
  0
SPLINE
  5
25B
330
1F
100
AcDbEntity
  8
0
  6
Continuous
 62
     1
370
    15
100
AcDbSpline
210
0.0
220
0.0
230
1.0
 70
     8
 71
     3
 72
     8
 73
     4
 74
     0
 42
0.000000001
 43
0.00000001
 40
0.0
 40
0.0
 40
0.0
 40
0.0
 40
1.0
 40
1.0
 40
1.0
 40
1.0
 10
35.39999999999998
 20
-1.48379369015332
 30
0.0
 10
34.79778821620715
 20
-1.010353603675973
 30
0.0
 10
34.20279396819035
 20
-0.514975391061256
 30
0.0
 10
33.6154515374626
 20
0.0036609719907901
 30
0.0
  0
SPLINE
  5
25C
330
1F
100
AcDbEntity
  8
0
  6
Continuous
 62
     1
370
    15
100
AcDbSpline
210
0.0
220
0.0
230
1.0
 70
    24
 71
     3
 72
    10
 73
     6
 74
     0
 42
0.000000001
 43
0.00000001
 40
0.0
 40
0.0
 40
0.0
 40
0.0
 40
0.5
 40
0.5
 40
1.0
 40
1.0
 40
1.0
 40
1.0
 10
35.39999999999998
 20
-4.382652215172008
 30
0.0
 10
35.39999999999998
 20
-4.046605351428497
 30
0.0
 10
35.39999999999998
 20
-3.621997253731422
 30
0.0
 10
35.39999999999998
 20
-2.63482429055707
 30
0.0
 10
35.39999999999998
 20
-2.073114551729944
 30
0.0
 10
35.39999999999998
 20
-1.483793690153497
 30
0.0
  0
LINE
  5
25D
330
1F
100
AcDbEntity
  8
0
  6
Continuous
 62
     1
370
    15
100
AcDbLine
 10
34.34858107100638
 20
0.618829693192545
 30
0.0
 11
35.39999999999998
 21
0.0010749287238951
 31
0.0
  0
LINE
  5
25E
330
1F
100
AcDbEntity
  8
0
  6
Continuous
 62
     1
370
    15
100
AcDbLine
 10
35.39999999999998
 20
0.0010749287238951
 30
0.0
 11
35.39999999999998
 21
-1.48379369015332
 31
0.0
  0
LINE
  5
25F
330
1F
100
AcDbEntity
  8
0
  6
Continuous
 62
     1
370
    15
100
AcDbLine
 10
35.39999999999998
 20
3.890449928723889
 30
0.0
 11
33.33240879020224
 21
3.791672473461468
 31
0.0
  0
SPLINE
  5
260
330
1F
100
AcDbEntity
  8
0
  6
Continuous
 62
     1
370
    15
100
AcDbSpline
210
0.0
220
0.0
230
1.0
 70
    24
 71
     3
 72
    10
 73
     6
 74
     0
 42
0.000000001
 43
0.00000001
 40
0.0
 40
0.0
 40
0.0
 40
0.0
 40
0.5
 40
0.5
 40
1.0
 40
1.0
 40
1.0
 40
1.0
 10
35.39999999999998
 20
1.501074928727512
 30
0.0
 10
35.39999999999998
 20
2.105622592118749
 30
0.0
 10
35.39999999999998
 20
2.639750217316703
 30
0.0
 10
35.39999999999998
 20
3.457205071863342
 30
0.0
 10
35.39999999999998
 20
3.739570564887828
 30
0.0
 10
35.39999999999998
 20
3.890449928723889
 30
0.0
  0
SPLINE
  5
261
330
1F
100
AcDbEntity
  8
0
  6
Continuous
 62
     1
370
    15
100
AcDbSpline
210
0.0
220
0.0
230
1.0
 70
    24
 71
     3
 72
     8
 73
     4
 74
     0
 42
0.000000001
 43
0.00000001
 40
0.0
 40
0.0
 40
0.0
 40
0.0
 40
1.0
 40
1.0
 40
1.0
 40
1.0
 10
35.39999999999998
 20
1.501074928723895
 30
0.0
 10
35.02294965491359
 20
1.184692123226625
 30
0.0
 10
34.63804071755396
 20
0.8617151758514581
 30
0.0
 10
34.24598710377688
 20
0.5327431331293937
 30
0.0
  0
SPLINE
  5
262
330
1F
100
AcDbEntity
  8
0
  6
Continuous
 62
     1
370
    15
100
AcDbSpline
210
0.0
220
0.0
230
1.0
 70
     8
 71
     3
 72
    14
 73
    10
 74
     0
 42
0.000000001
 43
0.00000001
 40
0.0
 40
0.0
 40
0.0
 40
0.0
 40
0.1430133841265274
 40
0.3106420597987764
 40
0.4782740309020234
 40
0.645907180455006
 40
0.7638228736389038
 40
0.8818960503895469
 40
1.0
 40
1.0
 40
1.0
 40
1.0
 10
23.63679814849641
 20
-4.161847760152412
 30
0.0
 10
22.98667609301714
 20
-4.253851239252803
 30
0.0
 10
21.57453375635288
 20
-4.453693725541456
 30
0.0
 10
19.40031349664122
 20
-4.4630772465893
 30
0.0
 10
17.114293188261
 20
-4.245800598355437
 30
0.0
 10
15.05383103962981
 20
-3.82992111805148
 30
0.0
 10
13.21989064615801
 20
-3.313855036698769
 30
0.0
 10
11.61033168592553
 20
-2.773352278171274
 30
0.0
 10
10.53682385312032
 20
-2.35060090613559
 30
0.0
 10
10.0
 20
-2.13919767877853
 30
0.0
  0
SPLINE
  5
263
330
1F
100
AcDbEntity
  8
외형선
  6
Continuous
370
    15
100
AcDbSpline
210
0.0
220
0.0
230
1.0
 70
    24
 71
     3
 72
    14
 73
    10
 74
     0
 42
0.000000001
 43
0.00000001
 40
0.0
 40
0.0
 40
0.0
 40
0.0
 40
0.2500000000000002
 40
0.2500000000000002
 40
0.5000000000000002
 40
0.5000000000000002
 40
0.75
 40
0.75
 40
1.0
 40
1.0
 40
1.0
 40
1.0
 10
10.0
 20
3.409899987746165
 30
0.0
 10
10.0
 20
3.086499494212717
 30
0.0
 10
10.0
 20
2.707233446985882
 30
0.0
 10
10.0
 20
1.85839952041048
 30
0.0
 10
10.0
 20
1.389068695228794
 30
0.0
 10
10.0
 20
0.402834053241655
 30
0.0
 10
10.0
 20
-0.1135442565138334
 30
0.0
 10
10.0
 20
-1.141644300661724
 30
0.0
 10
10.0
 20
-1.652877191952363
 30
0.0
 10
10.0
 20
-2.13919767877853
 30
0.0
  0
LINE
  5
264
330
1F
100
AcDbEntity
  8
0
  6
Continuous
 62
     1
370
    15
100
AcDbLine
 10
10.81095744152032
 20
-4.60636596072969
 30
0.0
 11
10.00000000000003
 21
-4.687136150761631
 31
0.0
  0
SPLINE
  5
265
330
1F
100
AcDbEntity
  8
외형선
  6
Continuous
370
    15
100
AcDbSpline
210
0.0
220
0.0
230
1.0
 70
    24
 71
     3
 72
    14
 73
    10
 74
     0
 42
0.000000001
 43
0.00000001
 40
0.0
 40
0.0
 40
0.0
 40
0.0
 40
0.25
 40
0.25
 40
0.5
 40
0.5
 40
0.75
 40
0.75
 40
1.0
 40
1.0
 40
1.0
 40
1.0
 10
10.0
 20
-2.13919767877853
 30
0.0
 10
10.0
 20
-2.488398044777
 30
0.0
 10
10.0
 20
-2.819480333284496
 30
0.0
 10
10.0
 20
-3.416936011109243
 30
0.0
 10
10.0
 20
-3.683078540295767
 30
0.0
 10
10.0
 20
-4.128393916684189
 30
0.0
 10
10.0
 20
-4.307438170323422
 30
0.0
 10
10.0
 20
-4.568764912102104
 30
0.0
 10
10.0
 20
-4.651081222079419
 30
0.0
 10
10.0
 20
-4.687136150761631
 30
0.0
  0
LINE
  5
266
330
1F
100
AcDbEntity
  8
0
  6
Continuous
 62
     1
370
    15
100
AcDbLine
 10
35.39999999999998
 20
-4.725815380899299
 30
0.0
 11
35.39999999999998
 21
-4.793175071276092
 31
0.0
  0
LINE
  5
267
330
1F
100
AcDbEntity
  8
0
  6
Continuous
 62
     1
370
    15
100
AcDbLine
 10
35.39999999999998
 20
0.0010749287238951
 30
0.0
 11
35.39999999999998
 21
1.501074928723895
 31
0.0
  0
SPLINE
  5
268
330
1F
100
AcDbEntity
  8
0
  6
Continuous
 62
     1
370
    15
100
AcDbSpline
210
0.0
220
0.0
230
1.0
 70
     8
 71
     3
 72
    13
 73
     9
 74
     0
 42
0.000000001
 43
0.00000001
 40
0.0
 40
0.0
 40
0.0
 40
0.0
 40
0.0262821952327409
 40
0.2518776801029919
 40
0.453822637255013
 40
0.6569019462000504
 40
0.8281061700926179
 40
1.0
 40
1.0
 40
1.0
 40
1.0
 10
27.76100097238736
 20
3.725580866775253
 30
0.0
 10
27.82347052397154
 20
3.7539630401007
 30
0.0
 10
28.42215284828836
 20
4.025966040998789
 30
0.0
 10
29.50059534835259
 20
4.423862231254873
 30
0.0
 10
30.99999994243467
 20
4.901561239058388
 30
0.0
 10
32.36992766874818
 20
5.223991008751952
 30
0.0
 10
33.66728807113154
 20
5.440871234139088
 30
0.0
 10
34.02948998560103
 20
5.502115435595407
 30
0.0
 10
34.63799999999998
 20
5.557324928723897
 30
0.0
  0
SPLINE
  5
269
330
1F
100
AcDbEntity
  8
0
  6
Continuous
 62
     1
370
    15
100
AcDbSpline
210
0.0
220
0.0
230
1.0
 70
     8
 71
     3
 72
    10
 73
     6
 74
     0
 42
0.000000001
 43
0.00000001
 40
0.0
 40
0.0
 40
0.0
 40
0.0
 40
0.5
 40
0.5
 40
0.8015349298341387
 40
0.8015349298341387
 40
0.8015349298341387
 40
0.8015349298341387
 10
35.39999999999998
 20
3.890449928723896
 30
0.0
 10
35.39999999999998
 20
4.056078158457026
 30
0.0
 10
35.39999999999998
 20
4.240193701444348
 30
0.0
 10
35.39999999999998
 20
4.552688806280546
 30
0.0
 10
35.39999999999998
 20
4.674111223148621
 30
0.0
 10
35.39999572371519
 20
4.797877778055472
 30
0.0
  0
SPLINE
  5
26A
330
1F
100
AcDbEntity
  8
0
  6
Continuous
 62
     1
370
    15
100
AcDbSpline
210
0.0
220
0.0
230
1.0
 70
     8
 71
     3
 72
    10
 73
     6
 74
     0
 42
0.000000001
 43
0.00000001
 40
0.0
 40
0.0
 40
0.0
 40
0.0
 40
0.2072720565122046
 40
0.6037460537306547
 40
1.0
 40
1.0
 40
1.0
 40
1.0
 10
14.60747248101197
 20
-4.368482450755003
 30
0.0
 10
14.28915795912854
 20
-4.484336881731537
 30
0.0
 10
13.36196526530318
 20
-4.821799908278841
 30
0.0
 10
11.82591143217331
 20
-5.212329507048938
 30
0.0
 10
10.60852450047364
 20
-5.380109957319856
 30
0.0
 10
9.999999999999602
 20
-5.463976895621776
 30
0.0
  0
SPLINE
  5
26B
330
1F
100
AcDbEntity
  8
외형선
  6
Continuous
370
    15
100
AcDbSpline
210
0.0
220
0.0
230
1.0
 70
    24
 71
     3
 72
     8
 73
     4
 74
     0
 42
0.000000001
 43
0.00000001
 40
0.0
 40
0.0
 40
0.0
 40
0.0
 40
1.0
 40
1.0
 40
1.0
 40
1.0
 10
10.0
 20
-4.687136150761631
 30
0.0
 10
10.0
 20
-4.956172760624909
 30
0.0
 10
10.0
 20
-5.216828706565018
 30
0.0
 10
10.0
 20
-5.46397689561363
 30
0.0
  0
LINE
  5
26C
330
1F
100
AcDbEntity
  8
중심선
 48
0.8
100
AcDbLine
 10
-69.20000000000002
 20
0.001074928723888
 30
0.0
 11
38.40000000000001
 21
0.0010749287239022
 31
0.0
  0
CIRCLE
  5
26D
330
1F
100
AcDbEntity
  8
해칭선
100
AcDbCircle
 10
0.0
 20
0.0
 30
0.0
 40
3.000000000000001
  0
DIMENSION
  5
26E
330
1F
100
AcDbEntity
  8
치수문자_일반주서
100
AcDbDimension
  2
*D13
 10
-78.69999999999997
 20
-5.555175071276168
 30
0.0
 11
-78.7
 21
0.0010749287238809
 31
0.0
 70
   160
  1
%%c<>
 71
     2
 42
11.1125
 52
-270.0
  3
SLDDIMSTYLE0
100
AcDbAlignedDimension
 13
-65.19999999999999
 23
5.55732492872388
 33
0.0
 14
-65.19999999999999
 24
-5.555175071276118
 34
0.0
 50
90.0000000000002
100
AcDbRotatedDimension
1001
ACAD
1000
DSTYLE
1002
{
1070
   171
1070
     6
1070
   273
1070
     7
1002
}
  0
DIMENSION
  5
26F
330
1F
100
AcDbEntity
  8
치수문자_일반주서
100
AcDbDimension
  2
*D14
 10
48.05000000000011
 20
-5.55517507127605
 30
0.0
 11
48.05000000000001
 21
25.72382492872395
 31
0.0
 70
   160
  1
%%c<>
 71
     2
 42
11.1125
 52
-270.0
  3
SLDDIMSTYLE0
100
AcDbAlignedDimension
 13
35.39999999999998
 23
5.557324928723901
 33
0.0
 14
35.39999999999998
 24
-5.5551750712761
 34
0.0
 50
90.0000000000002
100
AcDbRotatedDimension
1001
ACAD
1000
DSTYLE
1002
{
1070
   171
1070
     6
1070
   273
1070
     7
1002
}
  0
DIMENSION
  5
270
330
1F
100
AcDbEntity
  8
치수문자_일반주서
100
AcDbDimension
  2
*D15
 10
10.0
 20
14.86317548907216
 30
0.0
 11
22.75340701373264
 21
14.86317548907216
 31
0.0
 70
   160
  1
<>
 71
     2
 42
25.39999999999998
  3
SLDDIMSTYLE0
100
AcDbAlignedDimension
 13
35.39999999999998
 23
5.557324928723901
 33
0.0
 14
10.0
 24
5.466126753069517
 34
0.0
 50
0.0000000000001683
100
AcDbRotatedDimension
1001
ACAD
1000
DSTYLE
1002
{
1070
   171
1070
     6
1070
   273
1070
     7
1002
}
  0
DIMENSION
  5
271
330
1F
100
AcDbEntity
  8
치수문자_일반주서
100
AcDbDimension
  2
*D16
 10
-66.19999999999999
 20
26.86317548907215
 30
0.0
 11
-15.85718528386309
 21
26.86317548907215
 31
0.0
 70
   160
  1
<>
 71
     2
 42
101.6
  3
SLDDIMSTYLE0
100
AcDbAlignedDimension
 13
35.39999999999998
 23
5.557324928723901
 33
0.0
 14
-66.19999999999999
 24
4.557324928723887
 34
0.0
 50
0.000000000000004
100
AcDbRotatedDimension
1001
ACAD
1000
DSTYLE
1002
{
1070
   171
1070
     6
1070
   273
1070
     7
1002
}
  0
INSERT
  5
272
330
1F
100
AcDbEntity
  8
해칭선
100
AcDbBlockReference
  2
SW_DOWELSYMBOL_0
 10
0.0
 20
0.0
 30
0.0
  0
ARC
  5
2B6
330
1F
100
AcDbEntity
  8
0
  6
Continuous
 62
     1
370
    15
100
AcDbCircle
 10
34.63799999999998
 20
4.795324928723897
 30
0.0
 40
0.7620000000000002
100
AcDbArc
 50
359.8119541800374
 51
90.0
  0
ARC
  5
2B7
102
{ACAD_REACTORS
102
}
330
1F
100
AcDbEntity
  8
0
  6
Continuous
 62
     1
370
    15
100
AcDbCircle
 10
34.63799999999998
 20
-4.793175071276092
 30
0.0
 40
0.7620000000000002
100
AcDbArc
 50
270.0
 51
0.1880458199625748
  0
DIMENSION
  5
2B8
102
{ACAD_REACTORS
102
}
102
{ACAD_XDICTIONARY
360
2B9
102
}
330
1F
100
AcDbEntity
  8
치수문자_일반주서
100
AcDbDimension
  2
*D18
 10
34.63799999999998
 20
-4.793175071276092
 30
0.0
 11
43.02630128518903
 21
-24.68130806840269
 31
0.0
 70
   164
  1
<>
 71
     5
 42
0.7620000000000018
  3
SLDDIMSTYLE0
100
AcDbRadialDimension
 15
34.93412970172523
 25
-5.495279906579281
 35
0.0
 40
0.0
1001
ACAD
1000
DSTYLE
1002
{
1070
   171
1070
     3
1002
}
1001
ACAD_DSTYLE_DIMRADIAL_EXTENSION
1070
   387
1070
     1
1070
   388
1040
4.71238898038469
1070
   390
1040
0.0032820187029594
  0
ENDSEC
  0
SECTION
  2
OBJECTS
  0
DICTIONARY
  5
C
330
0
100
AcDbDictionary
281
     1
  3
ACAD_GROUP
350
D
  3
ACAD_IMAGE_VARS
350
158
  3
ACAD_LAYOUT
350
1A
  3
ACAD_MLINESTYLE
350
17
  3
ACAD_PLOTSETTINGS
350
19
  3
ACAD_PLOTSTYLENAME
350
E
  3
ACAD_SCALELIST
350
47
  3
APPDATA
350
156
  3
DWGPROPS
350
2C5
  0
DICTIONARY
  5
203
330
2
100
AcDbDictionary
280
     1
281
     1
  3
ACAD_LAYERSTATES
360
204
  0
DICTIONARY
  5
2B9
330
2B8
100
AcDbDictionary
280
     1
281
     1
  0
DICTIONARY
  5
D
102
{ACAD_REACTORS
330
C
102
}
330
C
100
AcDbDictionary
281
     1
  0
RASTERVARIABLES
  5
158
102
{ACAD_REACTORS
330
C
102
}
330
C
100
AcDbRasterVariables
 90
        0
 70
     1
 71
     1
 72
     1
  0
DICTIONARY
  5
1A
102
{ACAD_REACTORS
330
C
102
}
330
C
100
AcDbDictionary
281
     1
  3
Layout1
350
1E
  3
Layout2
350
26
  3
Model
350
22
  0
DICTIONARY
  5
17
102
{ACAD_REACTORS
330
C
102
}
330
C
100
AcDbDictionary
281
     1
  3
Standard
350
18
  0
DICTIONARY
  5
19
102
{ACAD_REACTORS
330
C
102
}
330
C
100
AcDbDictionary
281
     1
  0
ACDBDICTIONARYWDFLT
  5
E
102
{ACAD_REACTORS
330
C
102
}
330
C
100
AcDbDictionary
281
     1
  3
Normal
350
F
100
AcDbDictionaryWithDefault
340
F
  0
DICTIONARY
  5
47
102
{ACAD_REACTORS
330
C
102
}
330
C
100
AcDbDictionary
281
     1
  3
A0
350
48
  3
A1
350
49
  3
A2
350
4A
  3
A3
350
4B
  3
A4
350
4C
  3
A5
350
4D
  3
A6
350
4E
  3
A7
350
4F
  3
A8
350
50
  3
A9
350
51
  3
B0
350
52
  3
B1
350
53
  3
B2
350
54
  3
B3
350
55
  3
B4
350
56
  3
B5
350
57
  3
B6
350
58
  3
B7
350
59
  3
B8
350
5A
  3
B9
350
5B
  3
C0
350
5C
  3
C1
350
5D
  3
C2
350
5E
  3
C3
350
5F
  3
C4
350
60
  3
C5
350
61
  3
C6
350
62
  3
C7
350
63
  3
C8
350
64
  3
C9
350
65
  3
D0
350
66
  3
D1
350
67
  3
D2
350
68
  0
DICTIONARY
  5
156
102
{ACAD_REACTORS
330
C
102
}
330
C
100
AcDbDictionary
281
     1
  0
XRECORD
  5
2C5
102
{ACAD_REACTORS
330
C
102
}
330
C
100
AcDbXrecord
280
     1
  1
DWGPROPS COOKIE
  2

  3

  4

  6

  7

  8
12017012
  9

300
=
301
=
302
=
303
=
304
=
305
=
306
=
307
=
308
=
309
=
 40
0.0
 41
2458288.283433704
 42
2458295.380996343
  1

 90
        0
  0
DICTIONARY
  5
204
102
{ACAD_REACTORS
330
203
102
}
330
203
100
AcDbDictionary
281
     1
  0
LAYOUT
  5
1E
102
{ACAD_REACTORS
330
1A
102
}
330
1A
100
AcDbPlotSettings
  1

  2
none_device
  4

  6

 40
0.0
 41
0.0
 42
0.0
 43
0.0
 44
0.0
 45
0.0
 46
0.0
 47
0.0
 48
0.0
 49
0.0
140
0.0
141
0.0
142
1.0
143
1.0
 70
   688
 72
     1
 73
     0
 74
     5
  7

 75
    16
147
1.0
148
0.0
149
0.0
100
AcDbLayout
  1
Layout1
 70
     1
 71
     1
 10
0.0
 20
0.0
 11
420.0
 21
297.0
 12
0.0
 22
0.0
 32
0.0
 14
1.000000000000000E+20
 24
1.000000000000000E+20
 34
1.000000000000000E+20
 15
-1.000000000000000E+20
 25
-1.000000000000000E+20
 35
-1.000000000000000E+20
146
0.0
 13
0.0
 23
0.0
 33
0.0
 16
1.0
 26
0.0
 36
0.0
 17
0.0
 27
1.0
 37
0.0
 76
     0
330
1B
  0
LAYOUT
  5
26
102
{ACAD_REACTORS
330
1A
102
}
330
1A
100
AcDbPlotSettings
  1

  2
none_device
  4

  6

 40
0.0
 41
0.0
 42
0.0
 43
0.0
 44
0.0
 45
0.0
 46
0.0
 47
0.0
 48
0.0
 49
0.0
140
0.0
141
0.0
142
1.0
143
1.0
 70
   688
 72
     1
 73
     0
 74
     5
  7

 75
    16
147
1.0
148
0.0
149
0.0
100
AcDbLayout
  1
Layout2
 70
     1
 71
     2
 10
0.0
 20
0.0
 11
0.0
 21
0.0
 12
0.0
 22
0.0
 32
0.0
 14
0.0
 24
0.0
 34
0.0
 15
0.0
 25
0.0
 35
0.0
146
0.0
 13
0.0
 23
0.0
 33
0.0
 16
1.0
 26
0.0
 36
0.0
 17
0.0
 27
1.0
 37
0.0
 76
     0
330
23
  0
LAYOUT
  5
22
102
{ACAD_REACTORS
330
1A
102
}
330
1A
100
AcDbPlotSettings
  1

  2
none_device
  4
ANSI_A_(11.00_x_8.50_Inches)
  6

 40
6.35
 41
19.05
 42
6.35000508
 43
19.05000254
 44
279.4
 45
215.9
 46
128.4942693490029
 47
98.63619216604704
 48
0.0
 49
0.0
140
0.0
141
0.0
142
0.0587066758962957
143
1.0
 70
  1696
 72
     0
 73
     0
 74
     0
  7

 75
     0
147
0.0235690232323232
148
0.0
149
0.0
100
AcDbLayout
  1
Model
 70
     1
 71
     0
 10
0.0
 20
0.0
 11
420.0
 21
297.0
 12
0.0
 22
0.0
 32
0.0
 14
1.000000000000000E+20
 24
1.000000000000000E+20
 34
1.000000000000000E+20
 15
-1.000000000000000E+20
 25
-1.000000000000000E+20
 35
-1.000000000000000E+20
146
0.0
 13
0.0
 23
0.0
 33
0.0
 16
1.0
 26
0.0
 36
0.0
 17
0.0
 27
1.0
 37
0.0
 76
     0
330
1F
331
29
  0
MLINESTYLE
  5
18
102
{ACAD_REACTORS
330
17
102
}
330
17
100
AcDbMlineStyle
  2
Standard
 70
     0
  3

 62
   256
 51
90.0
 52
90.0
 71
     2
 49
0.5
 62
   256
  6
BYLAYER
 49
-0.5
 62
   256
  6
BYLAYER
  0
ACDBPLACEHOLDER
  5
F
102
{ACAD_REACTORS
330
E
102
}
330
E
  0
SCALE
  5
48
102
{ACAD_REACTORS
330
47
102
}
330
47
100
AcDbScale
 70
     0
300
1:1
140
1.0
141
1.0
290
     1
  0
SCALE
  5
49
102
{ACAD_REACTORS
330
47
102
}
330
47
100
AcDbScale
 70
     0
300
1:2
140
1.0
141
2.0
290
     0
  0
SCALE
  5
4A
102
{ACAD_REACTORS
330
47
102
}
330
47
100
AcDbScale
 70
     0
300
1:4
140
1.0
141
4.0
290
     0
  0
SCALE
  5
4B
102
{ACAD_REACTORS
330
47
102
}
330
47
100
AcDbScale
 70
     0
300
1:5
140
1.0
141
5.0
290
     0
  0
SCALE
  5
4C
102
{ACAD_REACTORS
330
47
102
}
330
47
100
AcDbScale
 70
     0
300
1:8
140
1.0
141
8.0
290
     0
  0
SCALE
  5
4D
102
{ACAD_REACTORS
330
47
102
}
330
47
100
AcDbScale
 70
     0
300
1:10
140
1.0
141
10.0
290
     0
  0
SCALE
  5
4E
102
{ACAD_REACTORS
330
47
102
}
330
47
100
AcDbScale
 70
     0
300
1:16
140
1.0
141
16.0
290
     0
  0
SCALE
  5
4F
102
{ACAD_REACTORS
330
47
102
}
330
47
100
AcDbScale
 70
     0
300
1:20
140
1.0
141
20.0
290
     0
  0
SCALE
  5
50
102
{ACAD_REACTORS
330
47
102
}
330
47
100
AcDbScale
 70
     0
300
1:30
140
1.0
141
30.0
290
     0
  0
SCALE
  5
51
102
{ACAD_REACTORS
330
47
102
}
330
47
100
AcDbScale
 70
     0
300
1:40
140
1.0
141
40.0
290
     0
  0
SCALE
  5
52
102
{ACAD_REACTORS
330
47
102
}
330
47
100
AcDbScale
 70
     0
300
1:50
140
1.0
141
50.0
290
     0
  0
SCALE
  5
53
102
{ACAD_REACTORS
330
47
102
}
330
47
100
AcDbScale
 70
     0
300
1:100
140
1.0
141
100.0
290
     0
  0
SCALE
  5
54
102
{ACAD_REACTORS
330
47
102
}
330
47
100
AcDbScale
 70
     0
300
2:1
140
2.0
141
1.0
290
     0
  0
SCALE
  5
55
102
{ACAD_REACTORS
330
47
102
}
330
47
100
AcDbScale
 70
     0
300
4:1
140
4.0
141
1.0
290
     0
  0
SCALE
  5
56
102
{ACAD_REACTORS
330
47
102
}
330
47
100
AcDbScale
 70
     0
300
8:1
140
8.0
141
1.0
290
     0
  0
SCALE
  5
57
102
{ACAD_REACTORS
330
47
102
}
330
47
100
AcDbScale
 70
     0
300
10:1
140
10.0
141
1.0
290
     0
  0
SCALE
  5
58
102
{ACAD_REACTORS
330
47
102
}
330
47
100
AcDbScale
 70
     0
300
100:1
140
100.0
141
1.0
290
     0
  0
SCALE
  5
59
102
{ACAD_REACTORS
330
47
102
}
330
47
100
AcDbScale
 70
     0
300
1/128" = 1'-0"
140
0.0078125
141
12.0
290
     0
  0
SCALE
  5
5A
102
{ACAD_REACTORS
330
47
102
}
330
47
100
AcDbScale
 70
     0
300
1/64" = 1'-0"
140
0.015625
141
12.0
290
     0
  0
SCALE
  5
5B
102
{ACAD_REACTORS
330
47
102
}
330
47
100
AcDbScale
 70
     0
300
1/32" = 1'-0"
140
0.03125
141
12.0
290
     0
  0
SCALE
  5
5C
102
{ACAD_REACTORS
330
47
102
}
330
47
100
AcDbScale
 70
     0
300
1/16" = 1'-0"
140
0.0625
141
12.0
290
     0
  0
SCALE
  5
5D
102
{ACAD_REACTORS
330
47
102
}
330
47
100
AcDbScale
 70
     0
300
3/32" = 1'-0"
140
0.09375
141
12.0
290
     0
  0
SCALE
  5
5E
102
{ACAD_REACTORS
330
47
102
}
330
47
100
AcDbScale
 70
     0
300
1/8" = 1'-0"
140
0.125
141
12.0
290
     0
  0
SCALE
  5
5F
102
{ACAD_REACTORS
330
47
102
}
330
47
100
AcDbScale
 70
     0
300
3/16" = 1'-0"
140
0.1875
141
12.0
290
     0
  0
SCALE
  5
60
102
{ACAD_REACTORS
330
47
102
}
330
47
100
AcDbScale
 70
     0
300
1/4" = 1'-0"
140
0.25
141
12.0
290
     0
  0
SCALE
  5
61
102
{ACAD_REACTORS
330
47
102
}
330
47
100
AcDbScale
 70
     0
300
3/8" = 1'-0"
140
0.375
141
12.0
290
     0
  0
SCALE
  5
62
102
{ACAD_REACTORS
330
47
102
}
330
47
100
AcDbScale
 70
     0
300
1/2" = 1'-0"
140
0.5
141
12.0
290
     0
  0
SCALE
  5
63
102
{ACAD_REACTORS
330
47
102
}
330
47
100
AcDbScale
 70
     0
300
3/4" = 1'-0"
140
0.75
141
12.0
290
     0
  0
SCALE
  5
64
102
{ACAD_REACTORS
330
47
102
}
330
47
100
AcDbScale
 70
     0
300
1" = 1'-0"
140
1.0
141
12.0
290
     0
  0
SCALE
  5
65
102
{ACAD_REACTORS
330
47
102
}
330
47
100
AcDbScale
 70
     0
300
1-1/2" = 1'-0"
140
1.5
141
12.0
290
     0
  0
SCALE
  5
66
102
{ACAD_REACTORS
330
47
102
}
330
47
100
AcDbScale
 70
     0
300
3" = 1'-0"
140
3.0
141
12.0
290
     0
  0
SCALE
  5
67
102
{ACAD_REACTORS
330
47
102
}
330
47
100
AcDbScale
 70
     0
300
6" = 1'-0"
140
6.0
141
12.0
290
     0
  0
SCALE
  5
68
102
{ACAD_REACTORS
330
47
102
}
330
47
100
AcDbScale
 70
     0
300
1'-0" = 1'-0"
140
12.0
141
12.0
290
     0
  0
ENDSEC
  0
EOF
