  0
SECTION
  2
HEADER
  9
$ACADVER
  1
AC1015
  9
$ACADMAINTVER
 70
     6
  9
$DWGCODEPAGE
  3
ANSI_949
  9
$INSBASE
 10
0.0
 20
0.0
 30
0.0
  9
$EXTMIN
 10
1.000000000000000E+20
 20
1.000000000000000E+20
 30
1.000000000000000E+20
  9
$EXTMAX
 10
-1.000000000000000E+20
 20
-1.000000000000000E+20
 30
-1.000000000000000E+20
  9
$LIMMIN
 10
0.0
 20
0.0
  9
$LIMMAX
 10
420.0
 20
297.0
  9
$ORTHOMODE
 70
     0
  9
$REGENMODE
 70
     1
  9
$FILLMODE
 70
     1
  9
$QTEXTMODE
 70
     0
  9
$MIRRTEXT
 70
     1
  9
$LTSCALE
 40
1.0
  9
$ATTMODE
 70
     1
  9
$TEXTSIZE
 40
3.5
  9
$TRACEWID
 40
1.0
  9
$TEXTSTYLE
  7
Standard
  9
$CLAYER
  8
0
  9
$CELTYPE
  6
ByLayer
  9
$CECOLOR
 62
   256
  9
$CELTSCALE
 40
1.0
  9
$DISPSILH
 70
     0
  9
$DIMSCALE
 40
1.0
  9
$DIMASZ
 40
3.302
  9
$DIMEXO
 40
1.0
  9
$DIMDLI
 40
3.75
  9
$DIMRND
 40
0.0
  9
$DIMDLE
 40
0.0
  9
$DIMEXE
 40
1.0
  9
$DIMTP
 40
0.0
  9
$DIMTM
 40
0.0
  9
$DIMTXT
 40
3.5
  9
$DIMCEN
 40
2.5
  9
$DIMTSZ
 40
0.0
  9
$DIMTOL
 70
     0
  9
$DIMLIM
 70
     0
  9
$DIMTIH
 70
     1
  9
$DIMTOH
 70
     1
  9
$DIMSE1
 70
     0
  9
$DIMSE2
 70
     0
  9
$DIMTAD
 70
     1
  9
$DIMZIN
 70
     0
  9
$DIMBLK
  1

  9
$DIMASO
 70
     1
  9
$DIMSHO
 70
     1
  9
$DIMPOST
  1

  9
$DIMAPOST
  1

  9
$DIMALT
 70
     0
  9
$DIMALTD
 70
     3
  9
$DIMALTF
 40
0.0393700787401575
  9
$DIMLFAC
 40
1.0
  9
$DIMTOFL
 70
     1
  9
$DIMTVP
 40
0.0
  9
$DIMTIX
 70
     0
  9
$DIMSOXD
 70
     0
  9
$DIMSAH
 70
     0
  9
$DIMBLK1
  1

  9
$DIMBLK2
  1

  9
$DIMSTYLE
  2
ISO-25
  9
$DIMCLRD
 70
     0
  9
$DIMCLRE
 70
     0
  9
$DIMCLRT
 70
     0
  9
$DIMTFAC
 40
1.0
  9
$DIMGAP
 40
1.524
  9
$DIMJUST
 70
     0
  9
$DIMSD1
 70
     0
  9
$DIMSD2
 70
     0
  9
$DIMTOLJ
 70
     0
  9
$DIMTZIN
 70
     0
  9
$DIMALTZ
 70
     0
  9
$DIMALTTZ
 70
     0
  9
$DIMUPT
 70
     0
  9
$DIMDEC
 70
     2
  9
$DIMTDEC
 70
     2
  9
$DIMALTU
 70
     2
  9
$DIMALTTD
 70
     3
  9
$DIMTXSTY
  7
Standard
  9
$DIMAUNIT
 70
     0
  9
$DIMADEC
 70
     2
  9
$DIMALTRND
 40
0.0
  9
$DIMAZIN
 70
     0
  9
$DIMDSEP
 70
    44
  9
$DIMATFIT
 70
     3
  9
$DIMFRAC
 70
     0
  9
$DIMLDRBLK
  1

  9
$DIMLUNIT
 70
     2
  9
$DIMLWD
 70
    -2
  9
$DIMLWE
 70
    -2
  9
$DIMTMOVE
 70
     0
  9
$LUNITS
 70
     2
  9
$LUPREC
 70
     2
  9
$SKETCHINC
 40
1.0
  9
$FILLETRAD
 40
10.0
  9
$AUNITS
 70
     0
  9
$AUPREC
 70
     2
  9
$MENU
  1
.
  9
$ELEVATION
 40
0.0
  9
$PELEVATION
 40
0.0
  9
$THICKNESS
 40
0.0
  9
$LIMCHECK
 70
     0
  9
$CHAMFERA
 40
0.0
  9
$CHAMFERB
 40
0.0
  9
$CHAMFERC
 40
0.0
  9
$CHAMFERD
 40
0.0
  9
$SKPOLY
 70
     0
  9
$TDCREATE
 40
2458288.657110231
  9
$TDUCREATE
 40
2458288.282110231
  9
$TDUPDATE
 40
2458295.705262488
  9
$TDUUPDATE
 40
2458295.330262488
  9
$TDINDWG
 40
0.0013117245
  9
$TDUSRTIMER
 40
2458295.328951273
  9
$USRTIMER
 70
     1
  9
$ANGBASE
 50
0.0
  9
$ANGDIR
 70
     0
  9
$PDMODE
 70
     0
  9
$PDSIZE
 40
-1.0
  9
$PLINEWID
 40
0.0
  9
$SPLFRAME
 70
     0
  9
$SPLINETYPE
 70
     6
  9
$SPLINESEGS
 70
     8
  9
$HANDSEED
  5
2DA
  9
$SURFTAB1
 70
     6
  9
$SURFTAB2
 70
     6
  9
$SURFTYPE
 70
     6
  9
$SURFU
 70
     6
  9
$SURFV
 70
     6
  9
$UCSBASE
  2

  9
$UCSNAME
  2

  9
$UCSORG
 10
0.0
 20
0.0
 30
0.0
  9
$UCSXDIR
 10
1.0
 20
0.0
 30
0.0
  9
$UCSYDIR
 10
0.0
 20
1.0
 30
0.0
  9
$UCSORTHOREF
  2

  9
$UCSORTHOVIEW
 70
     0
  9
$UCSORGTOP
 10
0.0
 20
0.0
 30
0.0
  9
$UCSORGBOTTOM
 10
0.0
 20
0.0
 30
0.0
  9
$UCSORGLEFT
 10
0.0
 20
0.0
 30
0.0
  9
$UCSORGRIGHT
 10
0.0
 20
0.0
 30
0.0
  9
$UCSORGFRONT
 10
0.0
 20
0.0
 30
0.0
  9
$UCSORGBACK
 10
0.0
 20
0.0
 30
0.0
  9
$PUCSBASE
  2

  9
$PUCSNAME
  2

  9
$PUCSORG
 10
0.0
 20
0.0
 30
0.0
  9
$PUCSXDIR
 10
1.0
 20
0.0
 30
0.0
  9
$PUCSYDIR
 10
0.0
 20
1.0
 30
0.0
  9
$PUCSORTHOREF
  2

  9
$PUCSORTHOVIEW
 70
     0
  9
$PUCSORGTOP
 10
0.0
 20
0.0
 30
0.0
  9
$PUCSORGBOTTOM
 10
0.0
 20
0.0
 30
0.0
  9
$PUCSORGLEFT
 10
0.0
 20
0.0
 30
0.0
  9
$PUCSORGRIGHT
 10
0.0
 20
0.0
 30
0.0
  9
$PUCSORGFRONT
 10
0.0
 20
0.0
 30
0.0
  9
$PUCSORGBACK
 10
0.0
 20
0.0
 30
0.0
  9
$USERI1
 70
     0
  9
$USERI2
 70
     0
  9
$USERI3
 70
     0
  9
$USERI4
 70
     0
  9
$USERI5
 70
     0
  9
$USERR1
 40
0.0
  9
$USERR2
 40
0.0
  9
$USERR3
 40
0.0
  9
$USERR4
 40
0.0
  9
$USERR5
 40
0.0
  9
$WORLDVIEW
 70
     1
  9
$SHADEDGE
 70
     3
  9
$SHADEDIF
 70
    70
  9
$TILEMODE
 70
     1
  9
$MAXACTVP
 70
    64
  9
$PINSBASE
 10
0.0
 20
0.0
 30
0.0
  9
$PLIMCHECK
 70
     0
  9
$PEXTMIN
 10
1.000000000000000E+20
 20
1.000000000000000E+20
 30
1.000000000000000E+20
  9
$PEXTMAX
 10
-1.000000000000000E+20
 20
-1.000000000000000E+20
 30
-1.000000000000000E+20
  9
$PLIMMIN
 10
0.0
 20
0.0
  9
$PLIMMAX
 10
0.0
 20
0.0
  9
$UNITMODE
 70
     0
  9
$VISRETAIN
 70
     1
  9
$PLINEGEN
 70
     0
  9
$PSLTSCALE
 70
     1
  9
$TREEDEPTH
 70
  3020
  9
$CMLSTYLE
  2
Standard
  9
$CMLJUST
 70
     0
  9
$CMLSCALE
 40
20.0
  9
$PROXYGRAPHICS
 70
     1
  9
$MEASUREMENT
 70
     1
  9
$CELWEIGHT
370
    -1
  9
$ENDCAPS
280
     0
  9
$JOINSTYLE
280
     0
  9
$LWDISPLAY
290
     1
  9
$INSUNITS
 70
     4
  9
$HYPERLINKBASE
  1

  9
$STYLESHEET
  1

  9
$XEDIT
290
     1
  9
$CEPSNTYPE
380
     0
  9
$PSTYLEMODE
290
     1
  9
$FINGERPRINTGUID
  2
{ED120BE7-75D7-45DD-9E65-CFA74E98F3CA}
  9
$VERSIONGUID
  2
{FAEB1C32-E019-11D5-929B-00C0DF256EC4}
  9
$EXTNAMES
290
     1
  9
$PSVPSCALE
 40
0.0
  9
$OLESTARTUP
290
     0
  0
ENDSEC
  0
SECTION
  2
CLASSES
  0
CLASS
  1
ACDBDICTIONARYWDFLT
  2
AcDbDictionaryWithDefault
  3
ObjectDBX Classes
 90
        0
280
     0
281
     0
  0
CLASS
  1
VISUALSTYLE
  2
AcDbVisualStyle
  3
ObjectDBX Classes
 90
     4095
280
     0
281
     0
  0
CLASS
  1
MATERIAL
  2
AcDbMaterial
  3
ObjectDBX Classes
 90
     1153
280
     0
281
     0
  0
CLASS
  1
SCALE
  2
AcDbScale
  3
ObjectDBX Classes
 90
     1153
280
     0
281
     0
  0
CLASS
  1
SUN
  2
AcDbSun
  3
SCENEOE
 90
     1153
280
     0
281
     0
  0
CLASS
  1
ACDBPLACEHOLDER
  2
AcDbPlaceHolder
  3
ObjectDBX Classes
 90
        0
280
     0
281
     0
  0
CLASS
  1
LAYOUT
  2
AcDbLayout
  3
ObjectDBX Classes
 90
        0
280
     0
281
     0
  0
CLASS
  1
TABLESTYLE
  2
AcDbTableStyle
  3
ObjectDBX Classes
 90
     4095
280
     0
281
     0
  0
CLASS
  1
MLEADERSTYLE
  2
AcDbMLeaderStyle
  3
ACDB_MLEADERSTYLE_CLASS
 90
     4095
280
     0
281
     0
  0
CLASS
  1
RASTERVARIABLES
  2
AcDbRasterVariables
  3
ISM
 90
        0
280
     0
281
     0
  0
CLASS
  1
DIMASSOC
  2
AcDbDimAssoc
  3
"AcDbDimAssoc|Product Desc:     AcDim ARX App For Dimension|Company:          Autodesk, Inc.|WEB Address:      www.autodesk.com"
 90
        0
280
     0
281
     0
  0
ENDSEC
  0
SECTION
  2
TABLES
  0
TABLE
  2
VPORT
  5
8
330
0
100
AcDbSymbolTable
 70
     1
  0
VPORT
  5
29
330
8
100
AcDbSymbolTableRecord
100
AcDbViewportTableRecord
  2
*Active
 70
     0
 10
0.0
 20
0.0
 11
1.0
 21
1.0
 12
-14.37926967377742
 22
-9.508307606714634
 13
0.0
 23
0.0
 14
10.0
 24
10.0
 15
10.0
 25
10.0
 16
0.0
 26
0.0
 36
1.0
 17
0.0
 27
0.0
 37
0.0
 40
142.1431061851667
 41
1.859099804305284
 42
50.0
 43
0.0
 44
0.0
 50
0.0
 51
0.0
 71
    16
 72
  2000
 73
     1
 74
     3
 75
     0
 76
     0
 77
     0
 78
     0
281
     0
 65
     1
110
0.0
120
0.0
130
0.0
111
1.0
121
0.0
131
0.0
112
0.0
122
1.0
132
0.0
 79
     0
146
0.0
  0
ENDTAB
  0
TABLE
  2
LTYPE
  5
5
330
0
100
AcDbSymbolTable
 70
     6
  0
LTYPE
  5
14
330
5
100
AcDbSymbolTableRecord
100
AcDbLinetypeTableRecord
  2
ByBlock
 70
     0
  3

 72
    65
 73
     0
 40
0.0
  0
LTYPE
  5
15
330
5
100
AcDbSymbolTableRecord
100
AcDbLinetypeTableRecord
  2
ByLayer
 70
     0
  3

 72
    65
 73
     0
 40
0.0
  0
LTYPE
  5
16
330
5
100
AcDbSymbolTableRecord
100
AcDbLinetypeTableRecord
  2
Continuous
 70
     0
  3
Solid line
 72
    65
 73
     0
 40
0.0
  0
LTYPE
  5
6A
330
5
100
AcDbSymbolTableRecord
100
AcDbLinetypeTableRecord
  2
HIDDEN
 70
     0
  3
Hidden __ __ __ __ __ __ __ __ __ __ __ __ __ __
 72
    65
 73
     2
 40
1.905
 49
1.27
 74
     0
 49
-0.635
 74
     0
  0
LTYPE
  5
6B
330
5
100
AcDbSymbolTableRecord
100
AcDbLinetypeTableRecord
  2
PHANTOM
 70
     0
  3
Phantom ______  __  __  ______  __  __  ______
 72
    65
 73
     6
 40
12.7
 49
6.35
 74
     0
 49
-1.27
 74
     0
 49
1.27
 74
     0
 49
-1.27
 74
     0
 49
1.27
 74
     0
 49
-1.27
 74
     0
  0
LTYPE
  5
6C
330
5
100
AcDbSymbolTableRecord
100
AcDbLinetypeTableRecord
  2
CENTER
 70
     0
  3
Center ____ _ ____ _ ____ _ ____ _ ____ _ ____
 72
    65
 73
     4
 40
10.16
 49
6.35
 74
     0
 49
-1.27
 74
     0
 49
1.27
 74
     0
 49
-1.27
 74
     0
  0
LTYPE
  5
6D
330
5
100
AcDbSymbolTableRecord
100
AcDbLinetypeTableRecord
  2
CENTERX2
 70
     0
  3
Center (2x) ________  __  ________  __  _____
 72
    65
 73
     4
 40
20.32
 49
12.7
 74
     0
 49
-2.54
 74
     0
 49
2.54
 74
     0
 49
-2.54
 74
     0
  0
LTYPE
  5
6E
330
5
100
AcDbSymbolTableRecord
100
AcDbLinetypeTableRecord
  2
DOT2
 70
     0
  3
Dot (.5x) ........................................
 72
    65
 73
     2
 40
0.635
 49
0.0
 74
     0
 49
-0.635
 74
     0
  0
ENDTAB
  0
TABLE
  2
LAYER
  5
2
102
{ACAD_XDICTIONARY
360
20F
102
}
330
0
100
AcDbSymbolTable
 70
    18
  0
LAYER
  5
10
330
2
100
AcDbSymbolTableRecord
100
AcDbLayerTableRecord
  2
0
 70
     0
 62
     7
  6
Continuous
370
    -3
390
F
  0
LAYER
  5
6F
330
2
100
AcDbSymbolTableRecord
100
AcDbLayerTableRecord
  2
FORMAT
 70
     0
 62
     2
  6
Continuous
370
    -3
390
F
  0
LAYER
  5
70
330
2
100
AcDbSymbolTableRecord
100
AcDbLayerTableRecord
  2
외형선
 70
     0
 62
     4
  6
Continuous
370
    30
390
F
  0
LAYER
  5
71
330
2
100
AcDbSymbolTableRecord
100
AcDbLayerTableRecord
  2
숨은선
 70
     0
 62
     2
  6
HIDDEN
370
    15
390
F
  0
LAYER
  5
72
330
2
100
AcDbSymbolTableRecord
100
AcDbLayerTableRecord
  2
중심선
 70
     0
 62
     1
  6
CENTERX2
370
    -3
390
F
  0
LAYER
  5
73
330
2
100
AcDbSymbolTableRecord
100
AcDbLayerTableRecord
  2
파단선
 70
     0
 62
     4
  6
Continuous
370
    -3
390
F
  0
LAYER
  5
74
330
2
100
AcDbSymbolTableRecord
100
AcDbLayerTableRecord
  2
해칭선
 70
     0
 62
   100
  6
Continuous
370
    -3
390
F
  0
LAYER
  5
75
330
2
100
AcDbSymbolTableRecord
100
AcDbLayerTableRecord
  2
가는실선
 70
     0
 62
     4
  6
Continuous
370
    -3
390
F
  0
LAYER
  5
76
330
2
100
AcDbSymbolTableRecord
100
AcDbLayerTableRecord
  2
치수_보조선
 70
     0
 62
     4
  6
Continuous
370
    -3
390
F
  0
LAYER
  5
77
330
2
100
AcDbSymbolTableRecord
100
AcDbLayerTableRecord
  2
치수문자_일반주서
 70
     0
 62
     7
  6
Continuous
370
    15
390
F
  0
LAYER
  5
78
330
2
100
AcDbSymbolTableRecord
100
AcDbLayerTableRecord
  2
개별주서
 70
     0
 62
   100
  6
Continuous
370
    30
390
F
  0
LAYER
  5
79
330
2
100
AcDbSymbolTableRecord
100
AcDbLayerTableRecord
  2
중간선
 70
     0
 62
     2
  6
Continuous
370
    15
390
F
  0
LAYER
  5
7A
330
2
100
AcDbSymbolTableRecord
100
AcDbLayerTableRecord
  2
윤곽선
 70
     0
 62
     3
  6
Continuous
370
    40
390
F
  0
LAYER
  5
7B
330
2
100
AcDbSymbolTableRecord
100
AcDbLayerTableRecord
  2
중심마크
 70
     0
 62
   100
  6
Continuous
370
    30
390
F
  0
LAYER
  5
7C
330
2
100
AcDbSymbolTableRecord
100
AcDbLayerTableRecord
  2
가상선
 70
     0
 62
     4
  6
PHANTOM
370
    -3
390
F
  0
LAYER
  5
7D
330
2
100
AcDbSymbolTableRecord
100
AcDbLayerTableRecord
  2
특수지정선
 70
     0
 62
     5
  6
CENTERX2
370
    60
390
F
  0
LAYER
  5
7E
330
2
100
AcDbSymbolTableRecord
100
AcDbLayerTableRecord
  2
참조1
 70
     0
 62
    -4
  6
Continuous
370
    -3
390
F
  0
LAYER
  5
160
330
2
100
AcDbSymbolTableRecord
100
AcDbLayerTableRecord
  2
Defpoints
 70
     0
 62
     7
  6
Continuous
290
     0
370
    -3
390
F
  0
ENDTAB
  0
TABLE
  2
STYLE
  5
3
330
0
100
AcDbSymbolTable
 70
     2
  0
STYLE
  5
11
330
3
100
AcDbSymbolTableRecord
100
AcDbTextStyleTableRecord
  2
Standard
 70
     0
 40
0.0
 41
1.0
 50
0.0
 71
     0
 42
3.5
  3
txt
  4

  0
STYLE
  5
94
330
3
100
AcDbSymbolTableRecord
100
AcDbTextStyleTableRecord
  2
SLDTEXTSTYLE0
 70
     0
 40
0.0
 41
0.75
 50
0.0
 71
     0
 42
3.5
  3
TXT
  4

  0
ENDTAB
  0
TABLE
  2
VIEW
  5
6
330
0
100
AcDbSymbolTable
 70
     0
  0
ENDTAB
  0
TABLE
  2
UCS
  5
7
330
0
100
AcDbSymbolTable
 70
     0
  0
ENDTAB
  0
TABLE
  2
APPID
  5
9
330
0
100
AcDbSymbolTable
 70
     2
  0
APPID
  5
12
330
9
100
AcDbSymbolTableRecord
100
AcDbRegAppTableRecord
  2
ACAD
 70
     0
  0
APPID
  5
16B
330
9
100
AcDbSymbolTableRecord
100
AcDbRegAppTableRecord
  2
ACAD_DSTYLE_DIMRADIAL_EXTENSION
 70
     0
  0
ENDTAB
  0
TABLE
  2
DIMSTYLE
  5
A
330
0
100
AcDbSymbolTable
 70
     4
100
AcDbDimStyleTable
  0
DIMSTYLE
105
27
330
A
100
AcDbSymbolTableRecord
100
AcDbDimStyleTableRecord
  2
ISO-25
 70
     0
 41
2.5
 42
0.625
 43
3.75
 44
1.25
 73
     0
 74
     0
 77
     1
 78
     8
140
2.5
141
2.5
143
0.03937007874016
147
0.625
171
     3
172
     1
178
     0
271
     2
272
     2
274
     3
278
    44
283
     0
284
     8
340
11
  0
DIMSTYLE
105
DB
102
{ACAD_REACTORS
330
1C3
330
1D0
330
1E0
330
1ED
330
203
330
280
330
281
330
282
330
283
330
2CC
102
}
330
A
100
AcDbSymbolTableRecord
100
AcDbDimStyleTableRecord
  2
SLDDIMSTYLE0
 70
     0
 41
3.302
 44
0.0
 45
0.000000001
 73
     0
 74
     0
 77
     1
 78
    12
 79
     3
140
3.5
143
0.0393700787401575
147
0.875
148
0.000000001
170
     1
172
     1
173
     1
178
     0
271
     2
272
     2
276
     2
284
    12
289
     0
340
94
  0
DIMSTYLE
105
104
330
A
100
AcDbSymbolTableRecord
100
AcDbDimStyleTableRecord
  2
SLDDIMSTYLE1
 70
     0
 41
3.302
 44
0.0
 45
0.000000001
 73
     0
 74
     0
 77
     1
 78
     4
 79
     1
140
3.5
143
0.0393700787401575
147
0.875
148
0.000000001
170
     1
172
     1
173
     1
178
     0
271
     2
272
     2
276
     2
284
    12
289
     0
340
94
  0
DIMSTYLE
105
11A
330
A
100
AcDbSymbolTableRecord
100
AcDbDimStyleTableRecord
  2
SLDDIMSTYLE2
 70
     0
 41
3.302
 44
0.0
 45
0.000000001
 73
     0
 74
     0
 77
     1
 78
     4
 79
     1
140
3.5
143
0.0393700787401575
147
0.875
148
0.000000001
170
     1
173
     1
178
     0
271
     2
272
     2
276
     2
284
    12
340
94
  0
ENDTAB
  0
TABLE
  2
BLOCK_RECORD
  5
1
330
0
100
AcDbSymbolTable
 70
    19
  0
BLOCK_RECORD
  5
1F
330
1
100
AcDbSymbolTableRecord
100
AcDbBlockTableRecord
  2
*Model_Space
340
22
  0
BLOCK_RECORD
  5
1B
330
1
100
AcDbSymbolTableRecord
100
AcDbBlockTableRecord
  2
*Paper_Space
340
1E
  0
BLOCK_RECORD
  5
23
330
1
100
AcDbSymbolTableRecord
100
AcDbBlockTableRecord
  2
*Paper_Space0
340
26
  0
BLOCK_RECORD
  5
7F
330
1
100
AcDbSymbolTableRecord
100
AcDbBlockTableRecord
  2
블럭10
340
0
102
{BLKREFS
331
D3
102
}
  0
BLOCK_RECORD
  5
DC
330
1
100
AcDbSymbolTableRecord
100
AcDbBlockTableRecord
  2
_D
340
0
  0
BLOCK_RECORD
  5
F0
330
1
100
AcDbSymbolTableRecord
100
AcDbBlockTableRecord
  2
_D_1
340
0
  0
BLOCK_RECORD
  5
105
330
1
100
AcDbSymbolTableRecord
100
AcDbBlockTableRecord
  2
_D_2
340
0
  0
BLOCK_RECORD
  5
11B
330
1
100
AcDbSymbolTableRecord
100
AcDbBlockTableRecord
  2
_D_3
340
0
  0
BLOCK_RECORD
  5
134
330
1
100
AcDbSymbolTableRecord
100
AcDbBlockTableRecord
  2
SW_DOWELSYMBOL_0
340
0
102
{BLKREFS
331
0
331
1FA
331
284
102
}
  0
BLOCK_RECORD
  5
206
330
1
100
AcDbSymbolTableRecord
100
AcDbBlockTableRecord
  2
*D8
340
0
  0
BLOCK_RECORD
  5
213
330
1
100
AcDbSymbolTableRecord
100
AcDbBlockTableRecord
  2
*D9
340
0
  0
BLOCK_RECORD
  5
21F
330
1
100
AcDbSymbolTableRecord
100
AcDbBlockTableRecord
  2
*D10
340
0
  0
BLOCK_RECORD
  5
22E
330
1
100
AcDbSymbolTableRecord
100
AcDbBlockTableRecord
  2
*D11
340
0
  0
BLOCK_RECORD
  5
23A
330
1
100
AcDbSymbolTableRecord
100
AcDbBlockTableRecord
  2
*D12
340
0
  0
BLOCK_RECORD
  5
28A
330
1
100
AcDbSymbolTableRecord
100
AcDbBlockTableRecord
  2
*D13
340
0
  0
BLOCK_RECORD
  5
296
330
1
100
AcDbSymbolTableRecord
100
AcDbBlockTableRecord
  2
*D14
340
0
  0
BLOCK_RECORD
  5
2A5
330
1
100
AcDbSymbolTableRecord
100
AcDbBlockTableRecord
  2
*D15
340
0
  0
BLOCK_RECORD
  5
2B1
330
1
100
AcDbSymbolTableRecord
100
AcDbBlockTableRecord
  2
*D16
340
0
  0
BLOCK_RECORD
  5
2BD
330
1
100
AcDbSymbolTableRecord
100
AcDbBlockTableRecord
  2
*D17
340
0
  0
BLOCK_RECORD
  5
2CF
330
1
100
AcDbSymbolTableRecord
100
AcDbBlockTableRecord
  2
*D18
340
0
  0
ENDTAB
  0
ENDSEC
  0
SECTION
  2
BLOCKS
  0
BLOCK
  5
20
330
1F
100
AcDbEntity
  8
0
100
AcDbBlockBegin
  2
*Model_Space
 70
     0
 10
0.0
 20
0.0
 30
0.0
  3
*Model_Space
  1
*Model_Space
  0
ENDBLK
  5
21
330
1F
100
AcDbEntity
  8
0
100
AcDbBlockEnd
  0
BLOCK
  5
1C
330
1B
100
AcDbEntity
 67
     1
  8
0
100
AcDbBlockBegin
  2
*Paper_Space
 70
     0
 10
0.0
 20
0.0
 30
0.0
  3
*Paper_Space
  1
*Paper_Space
  0
ENDBLK
  5
1D
330
1B
100
AcDbEntity
 67
     1
  8
0
100
AcDbBlockEnd
  0
BLOCK
  5
24
330
23
100
AcDbEntity
  8
0
100
AcDbBlockBegin
  2
*Paper_Space0
 70
     0
 10
0.0
 20
0.0
 30
0.0
  3
*Paper_Space0
  1
*Paper_Space0
  0
ENDBLK
  5
25
330
23
100
AcDbEntity
  8
0
100
AcDbBlockEnd
  0
BLOCK
  5
80
330
7F
100
AcDbEntity
  8
0
100
AcDbBlockBegin
  2
블럭10
 70
     2
 10
0.0
 20
0.0
 30
0.0
  3
블럭10
  1
블럭10
  0
ELLIPSE
  5
82
330
7F
100
AcDbEntity
  8
중심선
100
AcDbEllipse
 10
20.54032771741204
 20
12.0471743016438
 30
0.0
 11
6.600054785286829
 21
-1.261213355974178E-13
 31
0.0
210
0.0
220
0.0
230
1.0
 40
0.636358354079598
 41
0.9219305317359503
 42
6.513795318482858
  0
ELLIPSE
  5
83
330
7F
100
AcDbEntity
  8
중심선
100
AcDbEllipse
 10
20.54032771746488
 20
12.04717430159265
 30
0.0
 11
3.960054785062283
 21
1.540847449632565E-10
 31
0.0
210
0.0
220
0.0
230
1.0
 40
0.3939339440162632
 41
1.131841032648279
 42
5.62031148352944
  0
LINE
  5
84
330
7F
100
AcDbEntity
  8
중심선
100
AcDbLine
 10
2.268634060543552
 20
16.24717430164393
 30
0.0
 11
5.714909304380834
 21
16.24717430164393
 31
0.0
  0
LINE
  5
85
330
7F
100
AcDbEntity
  8
중심선
100
AcDbLine
 10
5.245725140726316
 20
7.84717430164391
 30
0.0
 11
8.692000384563599
 21
7.84717430164391
 31
0.0
  0
LINE
  5
86
330
7F
100
AcDbEntity
  8
중심선
100
AcDbLine
 10
15.74043728645272
 20
16.24717430164393
 30
0.0
 11
8.692000384563599
 21
7.84717430164391
 31
0.0
  0
LINE
  5
87
330
7F
100
AcDbEntity
  8
중심선
100
AcDbLine
 10
0.1404042013395286
 20
13.71084872107135
 30
0.0
 11
3.58671253028996
 21
13.71088815037384
 31
0.0
  0
LINE
  5
88
330
7F
100
AcDbEntity
  8
중심선
100
AcDbLine
 10
2.750260043222114
 20
10.84717430164391
 30
0.0
 11
6.196535287059397
 21
10.84717430164391
 31
0.0
  0
LINE
  5
89
330
7F
100
AcDbEntity
  8
중심선
100
AcDbLine
 10
12.29416204261559
 20
16.24717430164393
 30
0.0
 11
5.245725140726316
 21
7.84717430164391
 31
0.0
  0
LINE
  5
8A
330
7F
100
AcDbEntity
  8
중심선
100
AcDbLine
 10
10.72767329541681
 20
16.24717430164393
 30
0.0
 11
6.196535287059397
 21
10.84717430164391
 31
0.0
  0
LINE
  5
8B
330
7F
100
AcDbEntity
  8
중심선
100
AcDbLine
 10
7.28139805157953
 20
16.24717430164393
 30
0.0
 11
2.750260043222114
 21
10.84717430164391
 31
0.0
  0
LINE
  5
8C
330
7F
100
AcDbEntity
  8
중심선
100
AcDbLine
 10
5.714909304380834
 20
16.24717430164393
 30
0.0
 11
3.58671253028996
 21
13.71088815037384
 31
0.0
  0
LINE
  5
8D
330
7F
100
AcDbEntity
  8
중심선
100
AcDbLine
 10
2.268634060543552
 20
16.24717430164393
 30
0.0
 11
0.1404042013395286
 21
13.71084872107135
 31
0.0
  0
LINE
  5
8E
330
7F
100
AcDbEntity
  8
중심선
100
AcDbLine
 10
7.28139805157953
 20
16.24717430164393
 30
0.0
 11
10.72767329541681
 21
16.24717430164393
 31
0.0
  0
LINE
  5
8F
330
7F
100
AcDbEntity
  8
중심선
100
AcDbLine
 10
12.29416204261559
 20
16.24717430164393
 30
0.0
 11
15.74043728645272
 21
16.24717430164393
 31
0.0
  0
LINE
  5
90
330
7F
100
AcDbEntity
  8
중심선
100
AcDbLine
 10
19.22036997980202
 20
11.08717430171403
 30
0.0
 11
23.66174974927406
 21
11.08717430171406
 31
0.0
  0
LINE
  5
91
330
7F
100
AcDbEntity
  8
중심선
100
AcDbLine
 10
19.22039502424796
 20
13.00717430171391
 30
0.0
 11
19.22036997980202
 21
11.08717430171403
 31
0.0
  0
LINE
  5
92
330
7F
100
AcDbEntity
  8
중심선
100
AcDbLine
 10
19.22039502424796
 20
13.00717430171391
 30
0.0
 11
26.96566020931264
 21
13.00717430171391
 31
0.0
  0
LINE
  5
93
330
7F
100
AcDbEntity
  8
중심선
100
AcDbLine
 10
22.22332737316547
 20
13.45928029700563
 30
0.0
 11
24.52862924686651
 21
15.39360700705356
 31
0.0
  0
ATTDEF
  5
95
330
7F
100
AcDbEntity
  8
FORMAT
 62
     2
100
AcDbText
 10
3.448148490846466
 20
2.075366912832191
 30
0.0
 40
4.233333333333333
  1
EM637910
 41
0.75
  7
SLDTEXTSTYLE0
 11
3.448148490846466
 21
-0.0412997538344756
 31
0.0
100
AcDbAttributeDefinition
  3

  2
AUTOATTR0
 70
     0
 74
     1
  0
ENDBLK
  5
81
330
7F
100
AcDbEntity
  8
0
100
AcDbBlockEnd
  0
BLOCK
  5
DD
330
DC
100
AcDbEntity
  8
0
100
AcDbBlockBegin
  2
_D
 70
     0
 10
0.0
 20
0.0
 30
0.0
  3
_D
  1
_D
  0
SOLID
  5
DF
330
DC
100
AcDbEntity
  8
치수문자_일반주서
100
AcDbTrace
 10
-53.30000000000001
 20
4.763574928723895
 30
0.0
 11
-52.79200000000001
 21
8.065574928723894
 31
0.0
 12
-53.80800000000001
 22
8.065574928723894
 32
0.0
 13
-53.80800000000001
 23
8.065574928723894
 33
0.0
  0
SOLID
  5
E0
330
DC
100
AcDbEntity
  8
치수문자_일반주서
100
AcDbTrace
 10
-53.30000000000001
 20
-4.76142507127611
 30
0.0
 11
-53.80800000000001
 21
-8.06342507127611
 31
0.0
 12
-52.79200000000001
 22
-8.06342507127611
 32
0.0
 13
-52.79200000000001
 23
-8.06342507127611
 33
0.0
  0
LINE
  5
E1
330
DC
100
AcDbEntity
  8
치수문자_일반주서
100
AcDbLine
 10
-64.09288171604273
 20
-5.413291502344814
 30
0.0
 11
-64.09288171604273
 21
-6.124228987909314
 31
0.0
  0
LINE
  5
E2
330
DC
100
AcDbEntity
  8
치수문자_일반주서
100
AcDbLine
 10
-64.09288171604273
 20
-6.124228987909314
 30
0.0
 11
-58.53663172498343
 21
-6.124228987909275
 31
0.0
  0
LINE
  5
E3
330
DC
100
AcDbEntity
  8
치수문자_일반주서
100
AcDbLine
 10
-58.53663172498343
 20
-6.124228987909275
 30
0.0
 11
-58.53663172498343
 21
-5.413291502344775
 31
0.0
  0
LINE
  5
E4
330
DC
100
AcDbEntity
  8
치수문자_일반주서
100
AcDbLine
 10
-64.09288171604281
 20
5.415441359792444
 30
0.0
 11
-64.09288171604281
 21
6.126378845356944
 31
0.0
  0
LINE
  5
E5
330
DC
100
AcDbEntity
  8
치수문자_일반주서
100
AcDbLine
 10
-64.09288171604281
 20
6.126378845356944
 30
0.0
 11
-58.53663172498351
 21
6.126378845356983
 31
0.0
  0
LINE
  5
E6
330
DC
100
AcDbEntity
  8
치수문자_일반주서
100
AcDbLine
 10
-58.53663172498351
 20
6.126378845356983
 30
0.0
 11
-58.5366317249835
 21
5.415441359792483
 31
0.0
  0
LINE
  5
E7
330
DC
100
AcDbEntity
  8
치수문자_일반주서
100
AcDbLine
 10
-40.8
 20
4.763574928723896
 30
0.0
 11
-54.30000000000001
 21
4.763574928723895
 31
0.0
  0
LINE
  5
E8
330
DC
100
AcDbEntity
  8
치수문자_일반주서
100
AcDbLine
 10
-40.8
 20
-4.761425071276109
 30
0.0
 11
-54.30000000000001
 21
-4.76142507127611
 31
0.0
  0
LINE
  5
E9
330
DC
100
AcDbEntity
  8
치수문자_일반주서
100
AcDbLine
 10
-53.30000000000001
 20
4.763574928723895
 30
0.0
 11
-53.30000000000001
 21
11.11357492872389
 31
0.0
  0
LINE
  5
EA
330
DC
100
AcDbEntity
  8
치수문자_일반주서
100
AcDbLine
 10
-53.30000000000001
 20
4.763574928723895
 30
0.0
 11
-53.30000000000001
 21
-4.76142507127611
 31
0.0
  0
LINE
  5
EB
330
DC
100
AcDbEntity
  8
치수문자_일반주서
100
AcDbLine
 10
-53.30000000000001
 20
-4.76142507127611
 30
0.0
 11
-53.30000000000001
 21
-11.11142507127611
 31
0.0
  0
MTEXT
  5
EC
330
DC
100
AcDbEntity
  8
치수문자_일반주서
100
AcDbMText
 10
-63.04836863956234
 20
-4.524619601733436
 30
0.0
 40
3.5
 41
0.0
 71
     1
 72
     1
  1
0.38
  7
SLDTEXTSTYLE0
 11
-7.044195017643634E-15
 21
1.0
 31
0.0
 73
     1
 44
1.0
  0
MTEXT
  5
ED
330
DC
100
AcDbEntity
  8
치수문자_일반주서
100
AcDbMText
 10
-57.81173708920184
 20
-7.163838766581727
 30
0.0
 40
3.5
 41
0.0
 71
     1
 72
     1
  1
%%c
  7
SLDTEXTSTYLE0
 11
-7.044195017643634E-15
 21
1.0
 31
0.0
 73
     1
 44
1.0
  0
MTEXT
  5
EE
330
DC
100
AcDbEntity
  8
치수문자_일반주서
100
AcDbMText
 10
-57.81173708920188
 20
-1.885401368207646
 30
0.0
 40
3.5
 41
0.0
 71
     1
 72
     1
  1
9.53
  7
SLDTEXTSTYLE0
 11
-7.044195017643634E-15
 21
1.0
 31
0.0
 73
     1
 44
1.0
  0
ENDBLK
  5
DE
330
DC
100
AcDbEntity
  8
0
100
AcDbBlockEnd
  0
BLOCK
  5
F1
330
F0
100
AcDbEntity
  8
0
100
AcDbBlockBegin
  2
_D_1
 70
     0
 10
0.0
 20
0.0
 30
0.0
  3
_D_1
  1
_D_1
  0
SOLID
  5
F3
330
F0
100
AcDbEntity
  8
치수문자_일반주서
100
AcDbTrace
 10
48.05000000000007
 20
3.176074928723893
 30
0.0
 11
48.55800000000007
 21
6.478074928723892
 31
0.0
 12
47.54200000000007
 22
6.478074928723892
 32
0.0
 13
47.54200000000007
 23
6.478074928723892
 33
0.0
  0
SOLID
  5
F4
330
F0
100
AcDbEntity
  8
치수문자_일반주서
100
AcDbTrace
 10
48.05000000000007
 20
-3.17392507127611
 30
0.0
 11
47.54200000000007
 21
-6.475925071276111
 31
0.0
 12
48.55800000000007
 22
-6.475925071276111
 32
0.0
 13
48.55800000000007
 23
-6.475925071276111
 33
0.0
  0
LINE
  5
F5
330
F0
100
AcDbEntity
  8
치수문자_일반주서
100
AcDbLine
 10
37.25711828395732
 20
7.781934058003486
 30
0.0
 11
37.25711828395733
 21
7.070996572438986
 31
0.0
  0
LINE
  5
F6
330
F0
100
AcDbEntity
  8
치수문자_일반주서
100
AcDbLine
 10
37.25711828395733
 20
7.070996572438986
 30
0.0
 11
42.81336827501663
 21
7.070996572439025
 31
0.0
  0
LINE
  5
F7
330
F0
100
AcDbEntity
  8
치수문자_일반주서
100
AcDbLine
 10
42.81336827501663
 20
7.070996572439025
 30
0.0
 11
42.81336827501662
 21
7.781934058003525
 31
0.0
  0
LINE
  5
F8
330
F0
100
AcDbEntity
  8
치수문자_일반주서
100
AcDbLine
 10
37.25711828395725
 20
18.61066692014075
 30
0.0
 11
37.25711828395725
 21
19.32160440570525
 31
0.0
  0
LINE
  5
F9
330
F0
100
AcDbEntity
  8
치수문자_일반주서
100
AcDbLine
 10
37.25711828395725
 20
19.32160440570525
 30
0.0
 11
42.81336827501655
 21
19.32160440570528
 31
0.0
  0
LINE
  5
FA
330
F0
100
AcDbEntity
  8
치수문자_일반주서
100
AcDbLine
 10
42.81336827501655
 20
19.32160440570528
 30
0.0
 11
42.81336827501656
 21
18.61066692014078
 31
0.0
  0
LINE
  5
FB
330
F0
100
AcDbEntity
  8
치수문자_일반주서
100
AcDbLine
 10
14.53767706952182
 20
3.176074928723895
 30
0.0
 11
49.05000000000007
 21
3.176074928723893
 31
0.0
  0
LINE
  5
FC
330
F0
100
AcDbEntity
  8
치수문자_일반주서
100
AcDbLine
 10
14.53767706952182
 20
-3.173925071276109
 30
0.0
 11
49.05000000000007
 21
-3.17392507127611
 31
0.0
  0
LINE
  5
FD
330
F0
100
AcDbEntity
  8
치수문자_일반주서
100
AcDbLine
 10
48.05000000000007
 20
3.176074928723893
 30
0.0
 11
48.05000000000007
 21
20.36121418437776
 31
0.0
  0
LINE
  5
FE
330
F0
100
AcDbEntity
  8
치수문자_일반주서
100
AcDbLine
 10
48.05000000000007
 20
3.176074928723893
 30
0.0
 11
48.05000000000007
 21
-3.17392507127611
 31
0.0
  0
LINE
  5
FF
330
F0
100
AcDbEntity
  8
치수문자_일반주서
100
AcDbLine
 10
48.05000000000007
 20
-3.17392507127611
 30
0.0
 11
48.05000000000007
 21
-9.52392507127611
 31
0.0
  0
MTEXT
  5
100
330
F0
100
AcDbEntity
  8
치수문자_일반주서
100
AcDbMText
 10
38.30163136043773
 20
8.670605958614866
 30
0.0
 40
3.5
 41
0.0
 71
     1
 72
     1
  1
0.25
  7
SLDTEXTSTYLE0
 11
-7.044195017643634E-15
 21
1.0
 31
0.0
 73
     1
 44
1.0
  0
MTEXT
  5
101
330
F0
100
AcDbEntity
  8
치수문자_일반주서
100
AcDbMText
 10
43.53826291079822
 20
6.031386793766572
 30
0.0
 40
3.5
 41
0.0
 71
     1
 72
     1
  1
%%c
  7
SLDTEXTSTYLE0
 11
-7.044195017643634E-15
 21
1.0
 31
0.0
 73
     1
 44
1.0
  0
MTEXT
  5
102
330
F0
100
AcDbEntity
  8
치수문자_일반주서
100
AcDbMText
 10
43.53826291079818
 20
11.30982419214065
 30
0.0
 40
3.5
 41
0.0
 71
     1
 72
     1
  1
6.35
  7
SLDTEXTSTYLE0
 11
-7.044195017643634E-15
 21
1.0
 31
0.0
 73
     1
 44
1.0
  0
ENDBLK
  5
F2
330
F0
100
AcDbEntity
  8
0
100
AcDbBlockEnd
  0
BLOCK
  5
106
330
105
100
AcDbEntity
  8
0
100
AcDbBlockBegin
  2
_D_2
 70
     0
 10
0.0
 20
0.0
 30
0.0
  3
_D_2
  1
_D_2
  0
SOLID
  5
108
330
105
100
AcDbEntity
  8
치수문자_일반주서
100
AcDbTrace
 10
35.40000000000001
 20
14.3075504890722
 30
0.0
 11
38.70200000000001
 21
13.7995504890722
 31
0.0
 12
38.70200000000001
 22
14.8155504890722
 32
0.0
 13
38.70200000000001
 23
14.8155504890722
 33
0.0
  0
SOLID
  5
109
330
105
100
AcDbEntity
  8
치수문자_일반주서
100
AcDbTrace
 10
10.00000000000001
 20
14.3075504890722
 30
0.0
 11
6.698000000000013
 21
14.8155504890722
 31
0.0
 12
6.698000000000013
 22
13.7995504890722
 32
0.0
 13
6.698000000000013
 23
13.7995504890722
 33
0.0
  0
LINE
  5
10A
330
105
100
AcDbEntity
  8
치수문자_일반주서
100
AcDbLine
 10
17.33904093191
 20
25.10043220511495
 30
0.0
 11
16.6281034463455
 21
25.10043220511495
 31
0.0
  0
LINE
  5
10B
330
105
100
AcDbEntity
  8
치수문자_일반주서
100
AcDbLine
 10
16.6281034463455
 20
25.10043220511495
 30
0.0
 11
16.62810344634546
 21
19.54418221405565
 31
0.0
  0
LINE
  5
10C
330
105
100
AcDbEntity
  8
치수문자_일반주서
100
AcDbLine
 10
16.62810344634546
 20
19.54418221405565
 30
0.0
 11
17.33904093190996
 21
19.54418221405564
 31
0.0
  0
LINE
  5
10D
330
105
100
AcDbEntity
  8
치수문자_일반주서
100
AcDbLine
 10
28.16777379404726
 20
25.10043220511486
 30
0.0
 11
28.87871127961176
 21
25.10043220511486
 31
0.0
  0
LINE
  5
10E
330
105
100
AcDbEntity
  8
치수문자_일반주서
100
AcDbLine
 10
28.87871127961176
 20
25.10043220511486
 30
0.0
 11
28.87871127961172
 21
19.54418221405556
 31
0.0
  0
LINE
  5
10F
330
105
100
AcDbEntity
  8
치수문자_일반주서
100
AcDbLine
 10
28.87871127961172
 20
19.54418221405556
 30
0.0
 11
28.16777379404722
 21
19.54418221405556
 31
0.0
  0
LINE
  5
110
330
105
100
AcDbEntity
  8
치수문자_일반주서
100
AcDbLine
 10
35.40000000000001
 20
4.334824928723892
 30
0.0
 11
35.40000000000001
 21
15.3075504890722
 31
0.0
  0
LINE
  5
111
330
105
100
AcDbEntity
  8
치수문자_일반주서
100
AcDbLine
 10
10.00000000000001
 20
5.762488711983016
 30
0.0
 11
10.00000000000001
 21
15.3075504890722
 31
0.0
  0
LINE
  5
112
330
105
100
AcDbEntity
  8
치수문자_일반주서
100
AcDbLine
 10
35.40000000000001
 20
14.3075504890722
 30
0.0
 11
41.75000000000001
 21
14.3075504890722
 31
0.0
  0
LINE
  5
113
330
105
100
AcDbEntity
  8
치수문자_일반주서
100
AcDbLine
 10
35.40000000000001
 20
14.3075504890722
 30
0.0
 11
10.00000000000001
 21
14.3075504890722
 31
0.0
  0
LINE
  5
114
330
105
100
AcDbEntity
  8
치수문자_일반주서
100
AcDbLine
 10
10.00000000000001
 20
14.3075504890722
 30
0.0
 11
3.650000000000013
 21
14.3075504890722
 31
0.0
  0
MTEXT
  5
115
330
105
100
AcDbEntity
  8
치수문자_일반주서
100
AcDbMText
 10
16.11434472085876
 20
18.87275975493392
 30
0.0
 40
3.5
 41
0.0
 71
     1
 72
     1
  1

  7
SLDTEXTSTYLE0
 73
     1
 44
1.0
  0
MTEXT
  5
116
330
105
100
AcDbEntity
  8
치수문자_일반주서
100
AcDbMText
 10
18.22771283252137
 20
24.05591912863453
 30
0.0
 40
3.5
 41
0.0
 71
     1
 72
     1
  1
1.00
  7
SLDTEXTSTYLE0
 73
     1
 44
1.0
  0
MTEXT
  5
117
330
105
100
AcDbEntity
  8
치수문자_일반주서
100
AcDbMText
 10
16.9346571193446
 20
18.81928757827406
 30
0.0
 40
3.5
 41
0.0
 71
     1
 72
     1
  1
25.40
  7
SLDTEXTSTYLE0
 73
     1
 44
1.0
  0
MTEXT
  5
118
330
105
100
AcDbEntity
  8
치수문자_일반주서
100
AcDbMText
 10
30.72441452475233
 20
18.87275975493382
 30
0.0
 40
3.5
 41
0.0
 71
     1
 72
     1
  1

  7
SLDTEXTSTYLE0
 73
     1
 44
1.0
  0
ENDBLK
  5
107
330
105
100
AcDbEntity
  8
0
100
AcDbBlockEnd
  0
BLOCK
  5
11C
330
11B
100
AcDbEntity
  8
0
100
AcDbBlockBegin
  2
_D_3
 70
     0
 10
0.0
 20
0.0
 30
0.0
  3
_D_3
  1
_D_3
  0
SOLID
  5
11E
330
11B
100
AcDbEntity
  8
치수문자_일반주서
100
AcDbTrace
 10
35.40000000000001
 20
26.30755048907215
 30
0.0
 11
32.09800000000001
 21
26.81555048907214
 31
0.0
 12
32.09800000000001
 22
25.79955048907215
 32
0.0
 13
32.09800000000001
 23
25.79955048907215
 33
0.0
  0
SOLID
  5
11F
330
11B
100
AcDbEntity
  8
치수문자_일반주서
100
AcDbTrace
 10
-40.8
 20
26.30755048907214
 30
0.0
 11
-37.498
 21
25.79955048907214
 31
0.0
 12
-37.498
 22
26.81555048907214
 32
0.0
 13
-37.498
 23
26.81555048907214
 33
0.0
  0
LINE
  5
120
330
11B
100
AcDbEntity
  8
치수문자_일반주서
100
AcDbLine
 10
-8.457255044719977
 20
37.10043220511487
 30
0.0
 11
-9.168192530284477
 21
37.10043220511488
 31
0.0
  0
LINE
  5
121
330
11B
100
AcDbEntity
  8
치수문자_일반주서
100
AcDbLine
 10
-9.168192530284477
 20
37.10043220511488
 30
0.0
 11
-9.168192530284516
 21
31.54418221405557
 31
0.0
  0
LINE
  5
122
330
11B
100
AcDbEntity
  8
치수문자_일반주서
100
AcDbLine
 10
-9.168192530284516
 20
31.54418221405557
 30
0.0
 11
-8.457255044720016
 21
31.54418221405557
 31
0.0
  0
LINE
  5
123
330
11B
100
AcDbEntity
  8
치수문자_일반주서
100
AcDbLine
 10
2.371477817417282
 20
37.10043220511479
 30
0.0
 11
3.082415302981782
 21
37.10043220511479
 31
0.0
  0
LINE
  5
124
330
11B
100
AcDbEntity
  8
치수문자_일반주서
100
AcDbLine
 10
3.082415302981782
 20
37.10043220511479
 30
0.0
 11
3.082415302981742
 21
31.54418221405549
 31
0.0
  0
LINE
  5
125
330
11B
100
AcDbEntity
  8
치수문자_일반주서
100
AcDbLine
 10
3.082415302981742
 20
31.54418221405549
 30
0.0
 11
2.371477817417242
 21
31.54418221405549
 31
0.0
  0
LINE
  5
126
330
11B
100
AcDbEntity
  8
치수문자_일반주서
100
AcDbLine
 10
35.40000000000001
 20
4.334824928723892
 30
0.0
 11
35.40000000000001
 21
27.30755048907215
 31
0.0
  0
LINE
  5
127
330
11B
100
AcDbEntity
  8
치수문자_일반주서
100
AcDbLine
 10
-40.8
 20
4.763574928723887
 30
0.0
 11
-40.8
 21
27.30755048907214
 31
0.0
  0
LINE
  5
128
330
11B
100
AcDbEntity
  8
치수문자_일반주서
100
AcDbLine
 10
35.40000000000001
 20
26.30755048907215
 30
0.0
 11
-40.8
 21
26.30755048907214
 31
0.0
  0
MTEXT
  5
129
330
11B
100
AcDbEntity
  8
치수문자_일반주서
100
AcDbMText
 10
-9.681951255771217
 20
30.87275975493386
 30
0.0
 40
3.5
 41
0.0
 71
     1
 72
     1
  1

  7
SLDTEXTSTYLE0
 73
     1
 44
1.0
  0
MTEXT
  5
12A
330
11B
100
AcDbEntity
  8
치수문자_일반주서
100
AcDbMText
 10
-7.568583144108613
 20
36.05591912863446
 30
0.0
 40
3.5
 41
0.0
 71
     1
 72
     1
  1
3.00
  7
SLDTEXTSTYLE0
 73
     1
 44
1.0
  0
MTEXT
  5
12B
330
11B
100
AcDbEntity
  8
치수문자_일반주서
100
AcDbMText
 10
-8.861638857285376
 20
30.819287578274
 30
0.0
 40
3.5
 41
0.0
 71
     1
 72
     1
  1
76.20
  7
SLDTEXTSTYLE0
 73
     1
 44
1.0
  0
MTEXT
  5
12C
330
11B
100
AcDbEntity
  8
치수문자_일반주서
100
AcDbMText
 10
4.92811854812235
 20
30.87275975493376
 30
0.0
 40
3.5
 41
0.0
 71
     1
 72
     1
  1

  7
SLDTEXTSTYLE0
 73
     1
 44
1.0
  0
ENDBLK
  5
11D
330
11B
100
AcDbEntity
  8
0
100
AcDbBlockEnd
  0
BLOCK
  5
135
330
134
100
AcDbEntity
  8
0
100
AcDbBlockBegin
  2
SW_DOWELSYMBOL_0
 70
     0
 10
0.0
 20
0.0
 30
0.0
  3
SW_DOWELSYMBOL_0
  1
SW_DOWELSYMBOL_0
  0
CIRCLE
  5
137
330
134
100
AcDbEntity
  8
해칭선
 62
     0
100
AcDbCircle
 10
0.0
 20
0.0
 30
0.0
 40
3.000000000000002
  0
HATCH
  5
138
330
134
100
AcDbEntity
  8
0
  6
Continuous
 62
     0
370
     0
100
AcDbHatch
 10
0.0
 20
0.0
 30
0.0
210
0.0
220
0.0
230
1.0
  2
SOLID
 70
     1
 71
     0
 91
        1
 92
        0
 93
        3
 72
     2
 10
0.0000000000000069
 20
0.0
 40
3.000000000000002
 50
0.0
 51
90.0
 73
     1
 72
     1
 10
0.0000000000000069
 20
3.000000000000002
 11
0.0000000000000069
 21
0.0
 72
     1
 10
0.0000000000000069
 20
0.0
 11
3.000000000000009
 21
0.0
 97
        0
 75
     0
 76
     1
 98
        1
 10
0.0
 20
0.0
  0
HATCH
  5
139
330
134
100
AcDbEntity
  8
0
  6
Continuous
 62
     0
370
     0
100
AcDbHatch
 10
0.0
 20
0.0
 30
0.0
210
0.0
220
0.0
230
1.0
  2
SOLID
 70
     1
 71
     0
 91
        1
 92
        0
 93
        3
 72
     2
 10
0.0000000000000069
 20
0.0
 40
3.000000000000002
 50
180.0
 51
270.0000000000008
 73
     1
 72
     1
 10
0.0000000000000069
 20
-3.000000000000002
 11
0.0000000000000069
 21
0.0
 72
     1
 10
0.0000000000000069
 20
0.0
 11
-2.999999999999995
 21
0.0
 97
        0
 75
     0
 76
     1
 98
        1
 10
0.0
 20
0.0
  0
ENDBLK
  5
136
330
134
100
AcDbEntity
  8
0
100
AcDbBlockEnd
  0
BLOCK
  5
207
330
206
100
AcDbEntity
  8
0
100
AcDbBlockBegin
  2
*D8
 70
     1
 10
0.0
 20
0.0
 30
0.0
  3
*D8
  1
*D8
  0
LINE
  5
208
330
206
100
AcDbEntity
  8
치수문자_일반주서
 62
     0
370
    -2
100
AcDbLine
 10
94.13301806636936
 20
28.13677437087722
 30
0.0
 11
106.8192030032342
 21
-0.0000000000001847
 31
0.0
  0
MTEXT
  5
209
330
206
100
AcDbEntity
  8
치수문자_일반주서
 62
     0
100
AcDbMText
 10
103.5477275723147
 20
13.64224780112811
 30
0.0
 40
3.5
 41
0.0
 71
     5
 72
     1
  1
\A1;R.51 [R0.020]
  7
SLDTEXTSTYLE0
 11
0.4110283638764551
 21
-0.9116225557153818
 31
0.0
 73
     1
 44
1.0
  0
LINE
  5
20A
330
206
100
AcDbEntity
  8
치수문자_일반주서
 62
     0
370
    -2
100
AcDbLine
 10
92.56700000000006
 20
31.61005630815282
 30
0.0
 11
92.7758024088493
 21
31.14695204984941
 31
0.0
  0
SOLID
  5
20B
330
206
100
AcDbEntity
  8
치수문자_일반주서
 62
     0
100
AcDbTrace
 10
94.63471434619805
 20
28.36297698046389
 30
0.0
 11
93.63132178654067
 21
27.91057176129054
 31
0.0
 12
92.7758024088493
 22
31.14695204984941
 32
0.0
 13
92.7758024088493
 23
31.14695204984941
 33
0.0
  0
POINT
  5
20C
330
206
100
AcDbEntity
  8
Defpoints
 62
     0
100
AcDbPoint
 10
92.7758024088493
 20
31.14695204984941
 30
0.0
  0
POINT
  5
20D
330
206
100
AcDbEntity
  8
Defpoints
 62
     0
100
AcDbPoint
 10
92.56700000000006
 20
31.61005630815282
 30
0.0
  0
ENDBLK
  5
20E
330
206
100
AcDbEntity
  8
0
100
AcDbBlockEnd
  0
BLOCK
  5
214
330
213
100
AcDbEntity
  8
0
100
AcDbBlockBegin
  2
*D9
 70
     1
 10
0.0
 20
0.0
 30
0.0
  3
*D9
  1
*D9
  0
LINE
  5
216
330
213
100
AcDbEntity
  8
치수문자_일반주서
 62
     0
370
    -2
100
AcDbLine
 10
17.81250000000006
 20
40.62705630815282
 30
0.0
 11
4.375000000000034
 21
40.62705630815277
 31
0.0
  0
LINE
  5
217
330
213
100
AcDbEntity
  8
치수문자_일반주서
 62
     0
370
    -2
100
AcDbLine
 10
17.81250000000006
 20
31.10205630815281
 30
0.0
 11
4.375000000000067
 21
31.10205630815276
 31
0.0
  0
LINE
  5
218
330
213
100
AcDbEntity
  8
치수문자_일반주서
 62
     0
370
    -2
100
AcDbLine
 10
4.375000000000045
 20
37.32505630815277
 30
0.0
 11
4.375000000000055
 21
34.40405630815276
 31
0.0
  0
SOLID
  5
219
330
213
100
AcDbEntity
  8
치수문자_일반주서
 62
     0
100
AcDbTrace
 10
4.925333333333379
 20
37.32505630815277
 30
0.0
 11
3.824666666666712
 21
37.32505630815277
 31
0.0
 12
4.375000000000034
 22
40.62705630815277
 32
0.0
 13
4.375000000000034
 23
40.62705630815277
 33
0.0
  0
SOLID
  5
21A
330
213
100
AcDbEntity
  8
치수문자_일반주서
 62
     0
100
AcDbTrace
 10
3.824666666666722
 20
34.40405630815276
 30
0.0
 11
4.925333333333389
 21
34.40405630815276
 31
0.0
 12
4.375000000000067
 22
31.10205630815276
 32
0.0
 13
4.375000000000067
 23
31.10205630815276
 33
0.0
  0
MTEXT
  5
21B
330
213
100
AcDbEntity
  8
치수문자_일반주서
 62
     0
100
AcDbMText
 10
0.0000000000000497
 20
35.8645563081528
 30
0.0
 40
3.5
 41
0.0
 71
     2
 72
     1
  1
\A1;%%c9.53 [3/8]
  7
SLDTEXTSTYLE0
 11
-3.450141892798385E-15
 21
1.0
 31
0.0
 73
     1
 44
1.0
  0
POINT
  5
21C
330
213
100
AcDbEntity
  8
Defpoints
 62
     0
100
AcDbPoint
 10
17.87500000000006
 20
40.62705630815282
 30
0.0
  0
POINT
  5
21D
330
213
100
AcDbEntity
  8
Defpoints
 62
     0
100
AcDbPoint
 10
17.87500000000006
 20
31.10205630815281
 30
0.0
  0
POINT
  5
21E
330
213
100
AcDbEntity
  8
Defpoints
 62
     0
100
AcDbPoint
 10
4.375000000000071
 20
31.10205630815276
 30
0.0
  0
ENDBLK
  5
215
330
213
100
AcDbEntity
  8
0
100
AcDbBlockEnd
  0
BLOCK
  5
220
330
21F
100
AcDbEntity
  8
0
100
AcDbBlockBegin
  2
*D10
 70
     1
 10
0.0
 20
0.0
 30
0.0
  3
*D10
  1
*D10
  0
LINE
  5
222
330
21F
100
AcDbEntity
  8
치수문자_일반주서
 62
     0
370
    -2
100
AcDbLine
 10
93.13750000000007
 20
40.62705630815282
 30
0.0
 11
105.7250000000001
 21
40.62705630815287
 31
0.0
  0
LINE
  5
223
330
21F
100
AcDbEntity
  8
치수문자_일반주서
 62
     0
370
    -2
100
AcDbLine
 10
93.13750000000007
 20
31.10205630815282
 30
0.0
 11
105.7250000000001
 21
31.10205630815287
 31
0.0
  0
LINE
  5
224
330
21F
100
AcDbEntity
  8
치수문자_일반주서
 62
     0
370
    -2
100
AcDbLine
 10
105.7250000000001
 20
40.62705630815287
 30
0.0
 11
105.725
 21
75.01230630815286
 31
0.0
  0
LINE
  5
225
330
21F
100
AcDbEntity
  8
치수문자_일반주서
 62
     0
370
    -2
100
AcDbLine
 10
105.7250000000001
 20
40.62705630815287
 30
0.0
 11
105.7250000000001
 21
31.10205630815287
 31
0.0
  0
LINE
  5
226
330
21F
100
AcDbEntity
  8
치수문자_일반주서
 62
     0
370
    -2
100
AcDbLine
 10
105.7250000000001
 20
43.92905630815287
 30
0.0
 11
105.7250000000001
 21
47.23105630815287
 31
0.0
  0
LINE
  5
227
330
21F
100
AcDbEntity
  8
치수문자_일반주서
 62
     0
370
    -2
100
AcDbLine
 10
105.7250000000002
 20
27.80005630815287
 30
0.0
 11
105.7250000000002
 21
24.49805630815287
 31
0.0
  0
SOLID
  5
228
330
21F
100
AcDbEntity
  8
치수문자_일반주서
 62
     0
100
AcDbTrace
 10
105.1746666666668
 20
43.92905630815287
 30
0.0
 11
106.2753333333334
 21
43.92905630815287
 31
0.0
 12
105.7250000000001
 22
40.62705630815287
 32
0.0
 13
105.7250000000001
 23
40.62705630815287
 33
0.0
  0
SOLID
  5
229
330
21F
100
AcDbEntity
  8
치수문자_일반주서
 62
     0
100
AcDbTrace
 10
106.2753333333335
 20
27.80005630815287
 30
0.0
 11
105.1746666666668
 21
27.80005630815287
 31
0.0
 12
105.7250000000001
 22
31.10205630815287
 32
0.0
 13
105.7250000000001
 23
31.10205630815287
 33
0.0
  0
MTEXT
  5
22A
330
21F
100
AcDbEntity
  8
치수문자_일반주서
 62
     0
100
AcDbMText
 10
101.3500000000001
 20
61.88730630815284
 30
0.0
 40
3.5
 41
0.0
 71
     2
 72
     1
  1
\A1;%%c9.53 [3/8]
  7
SLDTEXTSTYLE0
 11
-2.983906501879685E-15
 21
1.0
 31
0.0
 73
     1
 44
1.0
  0
POINT
  5
22B
330
21F
100
AcDbEntity
  8
Defpoints
 62
     0
100
AcDbPoint
 10
93.07500000000007
 20
40.62705630815282
 30
0.0
  0
POINT
  5
22C
330
21F
100
AcDbEntity
  8
Defpoints
 62
     0
100
AcDbPoint
 10
93.07500000000007
 20
31.10205630815282
 30
0.0
  0
POINT
  5
22D
330
21F
100
AcDbEntity
  8
Defpoints
 62
     0
100
AcDbPoint
 10
105.7250000000002
 20
31.10205630815286
 30
0.0
  0
ENDBLK
  5
221
330
21F
100
AcDbEntity
  8
0
100
AcDbBlockEnd
  0
BLOCK
  5
22F
330
22E
100
AcDbEntity
  8
0
100
AcDbBlockBegin
  2
*D11
 70
     1
 10
0.0
 20
0.0
 30
0.0
  3
*D11
  1
*D11
  0
LINE
  5
231
330
22E
100
AcDbEntity
  8
치수문자_일반주서
 62
     0
370
    -2
100
AcDbLine
 10
93.07500000000007
 20
40.68955630815282
 30
0.0
 11
93.07500000000007
 21
50.17103186850111
 31
0.0
  0
LINE
  5
232
330
22E
100
AcDbEntity
  8
치수문자_일반주서
 62
     0
370
    -2
100
AcDbLine
 10
67.67500000000007
 20
40.68847009139792
 30
0.0
 11
67.67500000000007
 21
50.17103186850111
 31
0.0
  0
LINE
  5
233
330
22E
100
AcDbEntity
  8
치수문자_일반주서
 62
     0
370
    -2
100
AcDbLine
 10
89.77300000000008
 20
50.17103186850111
 30
0.0
 11
70.97700000000006
 21
50.17103186850111
 31
0.0
  0
SOLID
  5
234
330
22E
100
AcDbEntity
  8
치수문자_일반주서
 62
     0
100
AcDbTrace
 10
89.77300000000008
 20
49.62069853516778
 30
0.0
 11
89.77300000000008
 21
50.72136520183444
 31
0.0
 12
93.07500000000007
 22
50.17103186850111
 32
0.0
 13
93.07500000000007
 23
50.17103186850111
 33
0.0
  0
SOLID
  5
235
330
22E
100
AcDbEntity
  8
치수문자_일반주서
 62
     0
100
AcDbTrace
 10
70.97700000000006
 20
50.72136520183444
 30
0.0
 11
70.97700000000006
 21
49.62069853516778
 31
0.0
 12
67.67500000000007
 22
50.17103186850111
 32
0.0
 13
67.67500000000007
 23
50.17103186850111
 33
0.0
  0
MTEXT
  5
236
330
22E
100
AcDbEntity
  8
치수문자_일반주서
 62
     0
100
AcDbMText
 10
80.42840701373272
 20
54.54603186850111
 30
0.0
 40
3.5
 41
0.0
 71
     2
 72
     1
  1
\A1;25.4 [1]
  7
SLDTEXTSTYLE0
 73
     1
 44
1.0
  0
POINT
  5
237
330
22E
100
AcDbEntity
  8
Defpoints
 62
     0
100
AcDbPoint
 10
93.07500000000007
 20
40.62705630815282
 30
0.0
  0
POINT
  5
238
330
22E
100
AcDbEntity
  8
Defpoints
 62
     0
100
AcDbPoint
 10
67.67500000000007
 20
40.62597009139792
 30
0.0
  0
POINT
  5
239
330
22E
100
AcDbEntity
  8
Defpoints
 62
     0
100
AcDbPoint
 10
67.67500000000007
 20
50.17103186850111
 30
0.0
  0
ENDBLK
  5
230
330
22E
100
AcDbEntity
  8
0
100
AcDbBlockEnd
  0
BLOCK
  5
23B
330
23A
100
AcDbEntity
  8
0
100
AcDbBlockBegin
  2
*D12
 70
     1
 10
0.0
 20
0.0
 30
0.0
  3
*D12
  1
*D12
  0
LINE
  5
23D
330
23A
100
AcDbEntity
  8
치수문자_일반주서
 62
     0
370
    -2
100
AcDbLine
 10
93.07500000000007
 20
40.68955630815282
 30
0.0
 11
93.07500000000007
 21
62.17103186850106
 31
0.0
  0
LINE
  5
23E
330
23A
100
AcDbEntity
  8
치수문자_일반주서
 62
     0
370
    -2
100
AcDbLine
 10
16.87500000000006
 20
39.6895563081528
 30
0.0
 11
16.87500000000006
 21
62.17103186850106
 31
0.0
  0
LINE
  5
23F
330
23A
100
AcDbEntity
  8
치수문자_일반주서
 62
     0
370
    -2
100
AcDbLine
 10
89.77300000000008
 20
62.17103186850106
 30
0.0
 11
20.17700000000006
 21
62.17103186850106
 31
0.0
  0
SOLID
  5
240
330
23A
100
AcDbEntity
  8
치수문자_일반주서
 62
     0
100
AcDbTrace
 10
89.77300000000008
 20
61.62069853516773
 30
0.0
 11
89.77300000000008
 21
62.7213652018344
 31
0.0
 12
93.07500000000007
 22
62.17103186850106
 32
0.0
 13
93.07500000000007
 23
62.17103186850106
 33
0.0
  0
SOLID
  5
241
330
23A
100
AcDbEntity
  8
치수문자_일반주서
 62
     0
100
AcDbTrace
 10
20.17700000000006
 20
62.7213652018344
 30
0.0
 11
20.17700000000006
 21
61.62069853516773
 31
0.0
 12
16.87500000000006
 22
62.17103186850106
 32
0.0
 13
16.87500000000006
 23
62.17103186850106
 33
0.0
  0
MTEXT
  5
242
330
23A
100
AcDbEntity
  8
치수문자_일반주서
 62
     0
100
AcDbMText
 10
54.63211103710275
 20
66.54603186850106
 30
0.0
 40
3.5
 41
0.0
 71
     2
 72
     1
  1
\A1;76.2 [3]
  7
SLDTEXTSTYLE0
 73
     1
 44
1.0
  0
POINT
  5
243
330
23A
100
AcDbEntity
  8
Defpoints
 62
     0
100
AcDbPoint
 10
93.07500000000007
 20
40.62705630815282
 30
0.0
  0
POINT
  5
244
330
23A
100
AcDbEntity
  8
Defpoints
 62
     0
100
AcDbPoint
 10
16.87500000000006
 20
39.6270563081528
 30
0.0
  0
POINT
  5
245
330
23A
100
AcDbEntity
  8
Defpoints
 62
     0
100
AcDbPoint
 10
16.87500000000006
 20
62.17103186850106
 30
0.0
  0
ENDBLK
  5
23C
330
23A
100
AcDbEntity
  8
0
100
AcDbBlockEnd
  0
BLOCK
  5
28B
330
28A
100
AcDbEntity
  8
0
100
AcDbBlockBegin
  2
*D13
 70
     1
 10
0.0
 20
0.0
 30
0.0
  3
*D13
  1
*D13
  0
LINE
  5
28D
330
28A
100
AcDbEntity
  8
치수문자_일반주서
 62
     0
370
    -2
100
AcDbLine
 10
-39.8625
 20
4.763574928723898
 30
0.0
 11
-53.30000000000003
 21
4.763574928723847
 31
0.0
  0
LINE
  5
28E
330
28A
100
AcDbEntity
  8
치수문자_일반주서
 62
     0
370
    -2
100
AcDbLine
 10
-39.8625
 20
-4.761425071276108
 30
0.0
 11
-53.29999999999999
 21
-4.761425071276158
 31
0.0
  0
LINE
  5
28F
330
28A
100
AcDbEntity
  8
치수문자_일반주서
 62
     0
370
    -2
100
AcDbLine
 10
-53.30000000000001
 20
1.461574928723848
 30
0.0
 11
-53.3
 21
-1.459425071276159
 31
0.0
  0
SOLID
  5
290
330
28A
100
AcDbEntity
  8
치수문자_일반주서
 62
     0
100
AcDbTrace
 10
-52.74966666666668
 20
1.46157492872385
 30
0.0
 11
-53.85033333333335
 21
1.461574928723846
 31
0.0
 12
-53.30000000000003
 22
4.763574928723847
 32
0.0
 13
-53.30000000000003
 23
4.763574928723847
 33
0.0
  0
SOLID
  5
291
330
28A
100
AcDbEntity
  8
치수문자_일반주서
 62
     0
100
AcDbTrace
 10
-53.85033333333334
 20
-1.459425071276161
 30
0.0
 11
-52.74966666666667
 21
-1.459425071276157
 31
0.0
 12
-53.29999999999999
 22
-4.761425071276158
 32
0.0
 13
-53.29999999999999
 23
-4.761425071276158
 33
0.0
  0
MTEXT
  5
292
330
28A
100
AcDbEntity
  8
치수문자_일반주서
 62
     0
100
AcDbMText
 10
-57.67500000000001
 20
0.0010749287238789
 30
0.0
 40
3.5
 41
0.0
 71
     2
 72
     1
  1
\A1;%%c9.53 [3/8]
  7
SLDTEXTSTYLE0
 11
-3.729883127349605E-15
 21
1.0
 31
0.0
 73
     1
 44
1.0
  0
POINT
  5
293
330
28A
100
AcDbEntity
  8
Defpoints
 62
     0
100
AcDbPoint
 10
-39.8
 20
4.763574928723898
 30
0.0
  0
POINT
  5
294
330
28A
100
AcDbEntity
  8
Defpoints
 62
     0
100
AcDbPoint
 10
-39.8
 20
-4.761425071276108
 30
0.0
  0
POINT
  5
295
330
28A
100
AcDbEntity
  8
Defpoints
 62
     0
100
AcDbPoint
 10
-53.3
 20
-4.761425071276158
 30
0.0
  0
ENDBLK
  5
28C
330
28A
100
AcDbEntity
  8
0
100
AcDbBlockEnd
  0
BLOCK
  5
297
330
296
100
AcDbEntity
  8
0
100
AcDbBlockBegin
  2
*D14
 70
     1
 10
0.0
 20
0.0
 30
0.0
  3
*D14
  1
*D14
  0
LINE
  5
299
330
296
100
AcDbEntity
  8
치수문자_일반주서
 62
     0
370
    -2
100
AcDbLine
 10
35.46250000000003
 20
4.763574928723898
 30
0.0
 11
48.05000000000009
 21
4.763574928723948
 31
0.0
  0
LINE
  5
29A
330
296
100
AcDbEntity
  8
치수문자_일반주서
 62
     0
370
    -2
100
AcDbLine
 10
35.46250000000003
 20
-4.761425071276101
 30
0.0
 11
48.05000000000013
 21
-4.761425071276051
 31
0.0
  0
LINE
  5
29B
330
296
100
AcDbEntity
  8
치수문자_일반주서
 62
     0
370
    -2
100
AcDbLine
 10
48.05000000000009
 20
4.763574928723948
 30
0.0
 11
48.04999999999996
 21
39.14882492872394
 31
0.0
  0
LINE
  5
29C
330
296
100
AcDbEntity
  8
치수문자_일반주서
 62
     0
370
    -2
100
AcDbLine
 10
48.05000000000009
 20
4.763574928723948
 30
0.0
 11
48.05000000000013
 21
-4.761425071276051
 31
0.0
  0
LINE
  5
29D
330
296
100
AcDbEntity
  8
치수문자_일반주서
 62
     0
370
    -2
100
AcDbLine
 10
48.05000000000008
 20
8.065574928723947
 30
0.0
 11
48.05000000000006
 21
11.36757492872395
 31
0.0
  0
LINE
  5
29E
330
296
100
AcDbEntity
  8
치수문자_일반주서
 62
     0
370
    -2
100
AcDbLine
 10
48.05000000000014
 20
-8.06342507127605
 30
0.0
 11
48.05000000000015
 21
-11.36542507127605
 31
0.0
  0
SOLID
  5
29F
330
296
100
AcDbEntity
  8
치수문자_일반주서
 62
     0
100
AcDbTrace
 10
47.49966666666674
 20
8.065574928723946
 30
0.0
 11
48.60033333333341
 21
8.065574928723949
 31
0.0
 12
48.05000000000009
 22
4.763574928723948
 32
0.0
 13
48.05000000000009
 23
4.763574928723948
 33
0.0
  0
SOLID
  5
2A0
330
296
100
AcDbEntity
  8
치수문자_일반주서
 62
     0
100
AcDbTrace
 10
48.60033333333347
 20
-8.063425071276049
 30
0.0
 11
47.4996666666668
 21
-8.063425071276052
 31
0.0
 12
48.05000000000013
 22
-4.761425071276051
 32
0.0
 13
48.05000000000013
 23
-4.761425071276051
 33
0.0
  0
MTEXT
  5
2A1
330
296
100
AcDbEntity
  8
치수문자_일반주서
 62
     0
100
AcDbMText
 10
43.67500000000001
 20
26.02382492872392
 30
0.0
 40
3.5
 41
0.0
 71
     2
 72
     1
  1
\A1;%%c9.53 [3/8]
  7
SLDTEXTSTYLE0
 11
-3.729883127349607E-15
 21
1.0
 31
0.0
 73
     1
 44
1.0
  0
POINT
  5
2A2
330
296
100
AcDbEntity
  8
Defpoints
 62
     0
100
AcDbPoint
 10
35.40000000000003
 20
4.763574928723898
 30
0.0
  0
POINT
  5
2A3
330
296
100
AcDbEntity
  8
Defpoints
 62
     0
100
AcDbPoint
 10
35.40000000000003
 20
-4.761425071276101
 30
0.0
  0
POINT
  5
2A4
330
296
100
AcDbEntity
  8
Defpoints
 62
     0
100
AcDbPoint
 10
48.0500000000001
 20
-4.761425071276054
 30
0.0
  0
ENDBLK
  5
298
330
296
100
AcDbEntity
  8
0
100
AcDbBlockEnd
  0
BLOCK
  5
2A6
330
2A5
100
AcDbEntity
  8
0
100
AcDbBlockBegin
  2
*D15
 70
     1
 10
0.0
 20
0.0
 30
0.0
  3
*D15
  1
*D15
  0
LINE
  5
2A8
330
2A5
100
AcDbEntity
  8
치수문자_일반주서
 62
     0
370
    -2
100
AcDbLine
 10
35.40000000000003
 20
4.826074928723898
 30
0.0
 11
35.40000000000003
 21
14.30755048907219
 31
0.0
  0
LINE
  5
2A9
330
2A5
100
AcDbEntity
  8
치수문자_일반주서
 62
     0
370
    -2
100
AcDbLine
 10
10.0
 20
4.824988711969006
 30
0.0
 11
10.0
 21
14.30755048907219
 31
0.0
  0
LINE
  5
2AA
330
2A5
100
AcDbEntity
  8
치수문자_일반주서
 62
     0
370
    -2
100
AcDbLine
 10
32.09800000000003
 20
14.30755048907219
 30
0.0
 11
13.302
 21
14.30755048907219
 31
0.0
  0
SOLID
  5
2AB
330
2A5
100
AcDbEntity
  8
치수문자_일반주서
 62
     0
100
AcDbTrace
 10
32.09800000000003
 20
13.75721715573886
 30
0.0
 11
32.09800000000003
 21
14.85788382240552
 31
0.0
 12
35.40000000000003
 22
14.30755048907219
 32
0.0
 13
35.40000000000003
 23
14.30755048907219
 33
0.0
  0
SOLID
  5
2AC
330
2A5
100
AcDbEntity
  8
치수문자_일반주서
 62
     0
100
AcDbTrace
 10
13.302
 20
14.85788382240552
 30
0.0
 11
13.302
 21
13.75721715573886
 31
0.0
 12
10.0
 22
14.30755048907219
 32
0.0
 13
10.0
 23
14.30755048907219
 33
0.0
  0
MTEXT
  5
2AD
330
2A5
100
AcDbEntity
  8
치수문자_일반주서
 62
     0
100
AcDbMText
 10
22.75340701373267
 20
18.68255048907219
 30
0.0
 40
3.5
 41
0.0
 71
     2
 72
     1
  1
\A1;25.4 [1]
  7
SLDTEXTSTYLE0
 73
     1
 44
1.0
  0
POINT
  5
2AE
330
2A5
100
AcDbEntity
  8
Defpoints
 62
     0
100
AcDbPoint
 10
35.40000000000003
 20
4.763574928723898
 30
0.0
  0
POINT
  5
2AF
330
2A5
100
AcDbEntity
  8
Defpoints
 62
     0
100
AcDbPoint
 10
10.0
 20
4.762488711969006
 30
0.0
  0
POINT
  5
2B0
330
2A5
100
AcDbEntity
  8
Defpoints
 62
     0
100
AcDbPoint
 10
10.0
 20
14.30755048907219
 30
0.0
  0
ENDBLK
  5
2A7
330
2A5
100
AcDbEntity
  8
0
100
AcDbBlockEnd
  0
BLOCK
  5
2B2
330
2B1
100
AcDbEntity
  8
0
100
AcDbBlockBegin
  2
*D16
 70
     1
 10
0.0
 20
0.0
 30
0.0
  3
*D16
  1
*D16
  0
LINE
  5
2B4
330
2B1
100
AcDbEntity
  8
치수문자_일반주서
 62
     0
370
    -2
100
AcDbLine
 10
35.40000000000003
 20
4.826074928723898
 30
0.0
 11
35.40000000000003
 21
26.30755048907214
 31
0.0
  0
LINE
  5
2B5
330
2B1
100
AcDbEntity
  8
치수문자_일반주서
 62
     0
370
    -2
100
AcDbLine
 10
-40.8
 20
3.826074928723884
 30
0.0
 11
-40.8
 21
26.30755048907214
 31
0.0
  0
LINE
  5
2B6
330
2B1
100
AcDbEntity
  8
치수문자_일반주서
 62
     0
370
    -2
100
AcDbLine
 10
32.09800000000003
 20
26.30755048907214
 30
0.0
 11
-37.498
 21
26.30755048907214
 31
0.0
  0
SOLID
  5
2B7
330
2B1
100
AcDbEntity
  8
치수문자_일반주서
 62
     0
100
AcDbTrace
 10
32.09800000000003
 20
25.75721715573881
 30
0.0
 11
32.09800000000003
 21
26.85788382240548
 31
0.0
 12
35.40000000000003
 22
26.30755048907214
 32
0.0
 13
35.40000000000003
 23
26.30755048907214
 33
0.0
  0
SOLID
  5
2B8
330
2B1
100
AcDbEntity
  8
치수문자_일반주서
 62
     0
100
AcDbTrace
 10
-37.498
 20
26.85788382240548
 30
0.0
 11
-37.498
 21
25.75721715573881
 31
0.0
 12
-40.8
 22
26.30755048907214
 32
0.0
 13
-40.8
 23
26.30755048907214
 33
0.0
  0
MTEXT
  5
2B9
330
2B1
100
AcDbEntity
  8
치수문자_일반주서
 62
     0
100
AcDbMText
 10
-3.042888962897308
 20
30.68255048907214
 30
0.0
 40
3.5
 41
0.0
 71
     2
 72
     1
  1
\A1;76.2 [3]
  7
SLDTEXTSTYLE0
 73
     1
 44
1.0
  0
POINT
  5
2BA
330
2B1
100
AcDbEntity
  8
Defpoints
 62
     0
100
AcDbPoint
 10
35.40000000000003
 20
4.763574928723898
 30
0.0
  0
POINT
  5
2BB
330
2B1
100
AcDbEntity
  8
Defpoints
 62
     0
100
AcDbPoint
 10
-40.8
 20
3.763574928723884
 30
0.0
  0
POINT
  5
2BC
330
2B1
100
AcDbEntity
  8
Defpoints
 62
     0
100
AcDbPoint
 10
-40.8
 20
26.30755048907214
 30
0.0
  0
ENDBLK
  5
2B3
330
2B1
100
AcDbEntity
  8
0
100
AcDbBlockEnd
  0
BLOCK
  5
2BE
330
2BD
100
AcDbEntity
  8
0
100
AcDbBlockBegin
  2
*D17
 70
     1
 10
0.0
 20
0.0
 30
0.0
  3
*D17
  1
*D17
  0
LINE
  5
2C0
330
2BD
100
AcDbEntity
  8
치수문자_일반주서
 62
     0
370
    -2
100
AcDbLine
 10
160.9271020042581
 20
-14.2304492512623
 30
0.0
 11
173.6132869411229
 21
-42.3672236221397
 31
0.0
  0
MTEXT
  5
2C1
330
2BD
100
AcDbEntity
  8
치수문자_일반주서
 62
     0
100
AcDbMText
 10
170.3418115102034
 20
-28.72497582101141
 30
0.0
 40
3.5
 41
0.0
 71
     5
 72
     1
  1
\A1;R.51 [R0.020]
  7
SLDTEXTSTYLE0
 11
0.4110283638764551
 21
-0.9116225557153818
 31
0.0
 73
     1
 44
1.0
  0
LINE
  5
2C2
330
2BD
100
AcDbEntity
  8
치수문자_일반주서
 62
     0
370
    -2
100
AcDbLine
 10
159.3610839378888
 20
-10.7571673139867
 30
0.0
 11
159.569886346738
 21
-11.22027157229011
 31
0.0
  0
SOLID
  5
2C3
330
2BD
100
AcDbEntity
  8
치수문자_일반주서
 62
     0
100
AcDbTrace
 10
161.4287982840868
 20
-14.00424664167563
 30
0.0
 11
160.4254057244294
 21
-14.45665186084898
 31
0.0
 12
159.569886346738
 22
-11.22027157229011
 32
0.0
 13
159.569886346738
 23
-11.22027157229011
 33
0.0
  0
POINT
  5
2C4
330
2BD
100
AcDbEntity
  8
Defpoints
 62
     0
100
AcDbPoint
 10
159.569886346738
 20
-11.22027157229011
 30
0.0
  0
POINT
  5
2C5
330
2BD
100
AcDbEntity
  8
Defpoints
 62
     0
100
AcDbPoint
 10
159.3610839378888
 20
-10.7571673139867
 30
0.0
  0
ENDBLK
  5
2BF
330
2BD
100
AcDbEntity
  8
0
100
AcDbBlockEnd
  0
BLOCK
  5
2D0
330
2CF
100
AcDbEntity
  8
0
100
AcDbBlockBegin
  2
*D18
 70
     1
 10
0.0
 20
0.0
 30
0.0
  3
*D18
  1
*D18
  0
LINE
  5
2D2
330
2CF
100
AcDbEntity
  8
치수문자_일반주서
 62
     0
370
    -2
100
AcDbLine
 10
36.88403125417272
 20
-7.386376444602767
 30
0.0
 11
54.42534744310332
 21
-33.83818331313182
 31
0.0
  0
MTEXT
  5
2D3
330
2CF
100
AcDbEntity
  8
치수문자_일반주서
 62
     0
100
AcDbMText
 10
48.75482344204885
 20
-20.53748280090446
 30
0.0
 40
3.5
 41
0.0
 71
     5
 72
     1
  1
\A1;R.76 [R0.030]
  7
SLDTEXTSTYLE0
 11
0.5526651708102084
 21
-0.833403389105974
 31
0.0
 73
     1
 44
1.0
  0
LINE
  5
2D4
330
2CF
100
AcDbEntity
  8
치수문자_일반주서
 62
     0
370
    -2
100
AcDbLine
 10
34.63800000000003
 20
-3.999425071276093
 30
0.0
 11
35.05913086015741
 21
-4.634478453774841
 31
0.0
  0
SOLID
  5
2D5
330
2CF
100
AcDbEntity
  8
치수문자_일반주서
 62
     0
100
AcDbTrace
 10
37.34268091931071
 20
-7.08222637893355
 30
0.0
 11
36.42538158903473
 21
-7.690526510271985
 31
0.0
 12
35.05913086015741
 22
-4.634478453774841
 32
0.0
 13
35.05913086015741
 23
-4.634478453774841
 33
0.0
  0
POINT
  5
2D6
330
2CF
100
AcDbEntity
  8
Defpoints
 62
     0
100
AcDbPoint
 10
35.05913086015741
 20
-4.634478453774841
 30
0.0
  0
POINT
  5
2D7
330
2CF
100
AcDbEntity
  8
Defpoints
 62
     0
100
AcDbPoint
 10
34.63800000000003
 20
-3.999425071276093
 30
0.0
  0
ENDBLK
  5
2D1
330
2CF
100
AcDbEntity
  8
0
100
AcDbBlockEnd
  0
ENDSEC
  0
SECTION
  2
ENTITIES
  0
LINE
  5
D0
330
1F
100
AcDbEntity
  8
참조1
100
AcDbLine
 10
-2.699999999999994
 20
0.0010749287238892
 30
0.0
 11
-2.699999999999989
 21
-39.99892507127611
 31
0.0
  0
LINE
  5
D1
330
1F
100
AcDbEntity
  8
참조1
100
AcDbLine
 10
-2.699999999999989
 20
-39.99892507127611
 30
0.0
 11
-14.66672777521594
 21
-39.9989250712761
 31
0.0
  0
INSERT
  5
D3
330
1F
100
AcDbEntity
  8
0
  6
Continuous
 62
     7
100
AcDbBlockReference
 66
     1
  2
블럭10
 10
-16.6402729321252
 20
-52.04609937292004
 30
0.0
  0
ATTRIB
  5
D4
330
D3
100
AcDbEntity
  8
FORMAT
 62
     2
100
AcDbText
 10
-26.78190894426183
 20
-49.97073246008785
 30
0.0
 40
4.233333333333333
  1
EM637910 [ 2 FLUTE ]
 41
0.75
  7
SLDTEXTSTYLE0
 11
-26.78190894426183
 21
-52.08739912675452
 31
0.0
100
AcDbAttribute
  2
AUTOATTR0
 70
     0
 74
     1
  0
SEQEND
  5
D5
330
D3
100
AcDbEntity
  8
0
  6
Continuous
 62
     7
  0
HATCH
  5
D6
330
1F
100
AcDbEntity
  8
중심선
100
AcDbHatch
 10
0.0
 20
0.0
 30
0.0
210
0.0
220
0.0
230
1.0
  2
SOLID
 70
     1
 71
     0
 91
        1
 92
        0
 93
        4
 72
     1
 10
-10.92536362774435
 20
-35.7989250712761
 11
-14.37163887158163
 21
-35.7989250712761
 72
     1
 10
-14.37163887158163
 20
-35.7989250712761
 11
-16.49986873078568
 21
-38.33525065184867
 72
     1
 10
-16.49986873078568
 20
-38.33525065184867
 11
-13.05356040183522
 21
-38.33521122254619
 72
     1
 10
-13.05356040183522
 20
-38.33521122254619
 11
-10.92536362774435
 21
-35.7989250712761
 97
        0
 75
     0
 76
     1
 98
        1
 10
0.0
 20
0.0
  0
HATCH
  5
D7
330
1F
100
AcDbEntity
  8
중심선
100
AcDbHatch
 10
0.0
 20
0.0
 30
0.0
210
0.0
220
0.0
230
1.0
  2
SOLID
 70
     1
 71
     0
 91
        1
 92
        0
 93
        4
 72
     1
 10
-5.912599636708372
 20
-35.79892507127613
 11
-9.358874880545653
 21
-35.79892507127608
 72
     1
 10
-9.358874880545653
 20
-35.79892507127608
 11
-13.89001288890307
 21
-41.19892507127612
 72
     1
 10
-13.89001288890307
 20
-41.19892507127612
 11
-10.44373764506579
 21
-41.19892507127612
 72
     1
 10
-10.44373764506579
 20
-41.19892507127612
 11
-5.912599636708372
 21
-35.79892507127613
 97
        0
 75
     0
 76
     1
 98
        1
 10
0.0
 20
0.0
  0
HATCH
  5
D8
330
1F
100
AcDbEntity
  8
중심선
100
AcDbHatch
 10
0.0
 20
0.0
 30
0.0
210
0.0
220
0.0
230
1.0
  2
SOLID
 70
     1
 71
     0
 91
        1
 92
        0
 93
        4
 72
     1
 10
-0.8998356456725032
 20
-35.79892507127613
 11
-4.346110889509591
 21
-35.79892507127608
 72
     1
 10
-4.346110889509591
 20
-35.79892507127608
 11
-11.39454779139887
 21
-44.19892507127612
 72
     1
 10
-11.39454779139887
 20
-44.19892507127612
 11
-7.948272547561586
 21
-44.19892507127612
 72
     1
 10
-7.948272547561586
 20
-44.19892507127612
 11
-0.8998356456725034
 21
-35.79892507127613
 97
        0
 75
     0
 76
     1
 98
        1
 10
0.0
 20
0.0
  0
HATCH
  5
D9
330
1F
100
AcDbEntity
  8
중심선
100
AcDbHatch
 10
0.0
 20
0.0
 30
0.0
210
0.0
220
0.0
230
1.0
  2
SOLID
 70
     1
 71
     0
 91
        1
 92
        0
 93
        6
 72
     3
 10
3.900054785339696
 20
-39.99892507132738
 11
3.960054785062284
 21
1.540850780301639E-10
 40
0.3939339440162633
 50
17.09539180608434
 51
320.0019657685074
 73
     0
 72
     1
 10
5.583054441040291
 20
-38.58681907591438
 11
7.888356314741357
 21
-36.65249236586643
 72
     3
 10
3.90005478528685
 20
-39.99892507127625
 11
6.600054785286829
 21
-1.249000902703301E-13
 40
0.6363583540795982
 50
39.99873849337436
 51
368.4976242363725
 73
     1
 72
     1
 10
10.32538727718746
 20
-39.03892507120613
 11
2.580122092122772
 21
-39.03892507120613
 72
     1
 10
2.580122092122772
 20
-39.03892507120613
 11
2.580097047676838
 21
-40.95892507120602
 72
     1
 10
2.580097047676838
 20
-40.95892507120602
 11
7.021476817148875
 21
-40.95892507120599
 97
        0
 75
     0
 76
     1
 98
        1
 10
0.0
 20
0.0
  0
LINE
  5
12D
330
1F
100
AcDbEntity
  8
참조1
100
AcDbLine
 10
83.30561285443832
 20
7.441074928723896
 30
0.0
 11
83.30561285443832
 21
-7.438925071276109
 31
0.0
  0
LINE
  5
12E
330
1F
100
AcDbEntity
  8
참조1
100
AcDbLine
 10
96.00561285443833
 20
5.441074928723896
 30
0.0
 11
83.30561285443832
 21
5.441074928723896
 31
0.0
  0
SOLID
  5
12F
330
1F
100
AcDbEntity
  8
참조1
100
AcDbTrace
 10
83.30561285443832
 20
5.441074928723896
 30
0.0
 11
89.65561285443832
 21
4.425074928723896
 31
0.0
 12
89.65561285443832
 22
6.457074928723896
 32
0.0
 13
89.65561285443832
 23
6.457074928723896
 33
0.0
  0
LINE
  5
130
330
1F
100
AcDbEntity
  8
참조1
100
AcDbLine
 10
96.00561285443833
 20
-5.438925071276109
 30
0.0
 11
83.30561285443832
 21
-5.438925071276109
 31
0.0
  0
SOLID
  5
131
330
1F
100
AcDbEntity
  8
참조1
100
AcDbTrace
 10
83.30561285443832
 20
-5.438925071276109
 30
0.0
 11
89.65561285443832
 21
-6.454925071276109
 31
0.0
 12
89.65561285443832
 22
-4.422925071276109
 32
0.0
 13
89.65561285443832
 23
-4.422925071276109
 33
0.0
  0
MTEXT
  5
132
330
1F
100
AcDbEntity
  8
참조1
100
AcDbMText
 10
92.7031029469086
 20
10.98929157337383
 30
0.0
 40
3.5
 41
0.0
 71
     1
 72
     1
  1
A
  7
SLDTEXTSTYLE0
 73
     1
 44
1.0
  0
MTEXT
  5
133
330
1F
100
AcDbEntity
  8
참조1
100
AcDbMText
 10
92.7031029469086
 20
0.1092915733738251
 30
0.0
 40
3.5
 41
0.0
 71
     1
 72
     1
  1
A
  7
SLDTEXTSTYLE0
 73
     1
 44
1.0
  0
LINE
  5
247
330
1F
100
AcDbEntity
  8
외형선
  6
Continuous
370
    15
100
AcDbLine
 10
8.479976710176402
 20
4.763574928723891
 30
0.0
 11
-39.8
 21
4.763574928723891
 31
0.0
  0
LINE
  5
248
330
1F
100
AcDbEntity
  8
외형선
  6
Continuous
370
    15
100
AcDbLine
 10
10.0
 20
4.763574928723891
 30
0.0
 11
9.82393312905134
 21
4.763574928723891
 31
0.0
  0
LINE
  5
249
330
1F
100
AcDbEntity
  8
외형선
  6
Continuous
370
    15
100
AcDbLine
 10
9.823933129051369
 20
-4.761425071276108
 30
0.0
 11
10.0
 21
-4.761425071276108
 31
0.0
  0
LINE
  5
24A
330
1F
100
AcDbEntity
  8
외형선
  6
Continuous
370
    15
100
AcDbLine
 10
-39.8
 20
-4.761425071276108
 30
0.0
 11
8.479976710176402
 21
-4.761425071276108
 31
0.0
  0
LINE
  5
24B
330
1F
100
AcDbEntity
  8
외형선
  6
Continuous
370
    15
100
AcDbLine
 10
-39.8
 20
4.763574928723884
 30
0.0
 11
-40.8
 21
3.763574928723891
 31
0.0
  0
LINE
  5
24C
330
1F
100
AcDbEntity
  8
외형선
  6
Continuous
370
    15
100
AcDbLine
 10
-40.8
 20
-3.761425071276108
 30
0.0
 11
-39.8
 21
-4.761425071276108
 31
0.0
  0
SPLINE
  5
24D
330
1F
100
AcDbEntity
  8
0
  6
Continuous
 62
     1
370
    15
100
AcDbSpline
210
0.0
220
0.0
230
1.0
 70
     8
 71
     3
 72
    10
 73
     6
 74
     0
 42
0.000000001
 43
0.00000001
 40
0.0
 40
0.0
 40
0.0
 40
0.0
 40
0.4989010261485621
 40
0.68629028290119
 40
1.0
 40
1.0
 40
1.0
 40
1.0
 10
23.06081597032136
 20
1.221475599235774
 30
0.0
 10
22.84131264862287
 20
1.326322937579739
 30
0.0
 10
22.53936298556215
 20
1.47055136310334
 30
0.0
 10
22.0996974128131
 20
1.694081554606129
 30
0.0
 10
21.87902484862053
 20
1.809806643953671
 30
0.0
 10
21.74087424106241
 20
1.882255575072847
 30
0.0
  0
LINE
  5
24E
330
1F
100
AcDbEntity
  8
0
  6
Continuous
 62
     1
370
    15
100
AcDbLine
 10
12.13207662970086
 20
4.763574928723898
 30
0.0
 11
10.0
 21
4.763574928723898
 31
0.0
  0
SPLINE
  5
24F
330
1F
100
AcDbEntity
  8
0
  6
Continuous
 62
     1
370
    15
100
AcDbSpline
210
0.0
220
0.0
230
1.0
 70
     8
 71
     3
 72
    18
 73
    14
 74
     0
 42
0.000000001
 43
0.00000001
 40
0.0
 40
0.0
 40
0.0
 40
0.0
 40
0.1469647227151449
 40
0.2623222127945558
 40
0.3523496492818046
 40
0.4211451201772563
 40
0.4868891496243286
 40
0.5589895028668714
 40
0.676664455861633
 40
0.7972214303119298
 40
0.8904947192468335
 40
0.9639866134451494
 40
1.0
 40
1.0
 40
1.0
 40
1.0
 10
21.48709072958872
 20
3.785542330313781
 30
0.0
 10
21.30161741178819
 20
3.776158200383762
 30
0.0
 10
20.97055992914267
 20
3.7594081553191
 30
0.0
 10
20.50985083877043
 20
3.74300197896126
 30
0.0
 10
20.15010349062578
 20
3.733172323253292
 30
0.0
 10
19.85908909986665
 20
3.727168706670895
 30
0.0
 10
19.59182019489288
 20
3.723210454683922
 30
0.0
 10
19.26099518458128
 20
3.72027002301877
 30
0.0
 10
18.85939602658613
 20
3.719997219488121
 30
0.0
 10
18.43065608802107
 20
3.724137218080358
 30
0.0
 10
18.05885525765245
 20
3.731228534665483
 30
0.0
 10
17.7964818700078
 20
3.7378998014579
 30
0.0
 10
17.65508353804296
 20
3.742458454205561
 30
0.0
 10
17.60858137164297
 20
3.743957674356793
 30
0.0
  0
SPLINE
  5
250
330
1F
100
AcDbEntity
  8
0
  6
Continuous
 62
     1
370
    15
100
AcDbSpline
210
0.0
220
0.0
230
1.0
 70
     8
 71
     3
 72
    30
 73
    26
 74
     0
 42
0.000000001
 43
0.00000001
 40
0.0
 40
0.0
 40
0.0
 40
0.0
 40
0.0537839027626986
 40
0.1023868902498892
 40
0.1445305542543438
 40
0.1764678713362389
 40
0.2190448022365545
 40
0.2791537044004052
 40
0.3268915429305038
 40
0.3632281799608619
 40
0.3949763150898029
 40
0.4244395079840626
 40
0.4655324541741034
 40
0.5181875977307122
 40
0.5551949086839832
 40
0.598567519334774
 40
0.6585153544172199
 40
0.7085731979200321
 40
0.7464393603184062
 40
0.7725290840118253
 40
0.7962093576802756
 40
0.8252007063026798
 40
0.865541945813569
 40
0.9224554167047674
 40
1.0
 40
1.0
 40
1.0
 40
1.0
 10
33.63343509636439
 20
3.258694322019018
 30
0.0
 10
33.4986924408193
 20
3.246967968735198
 30
0.0
 10
33.24218666908047
 20
3.224644842576076
 30
0.0
 10
32.82382027516064
 20
3.197430114358177
 30
0.0
 10
32.47120151176745
 20
3.178109031388132
 30
0.0
 10
32.14534066783659
 20
3.162841459487993
 30
0.0
 10
31.77578835026577
 20
3.149137046097813
 30
0.0
 10
31.35626998360493
 20
3.138945720500615
 30
0.0
 10
30.95587256506235
 20
3.13489810735755
 30
0.0
 10
30.63386782593795
 20
3.135095736712799
 30
0.0
 10
30.36270436602967
 20
3.137639800548776
 30
0.0
 10
30.07817833562774
 20
3.142549663925315
 30
0.0
 10
29.7357821173577
 20
3.15161308245731
 30
0.0
 10
29.37231917834714
 20
3.165583731646159
 30
0.0
 10
29.0023212256975
 20
3.18396499380367
 30
0.0
 10
28.61221908361051
 20
3.207273112911359
 30
0.0
 10
28.18588448714399
 20
3.238255526169162
 30
0.0
 10
27.77490810977923
 20
3.273866344547393
 30
0.0
 10
27.45772872355812
 20
3.304566280569631
 30
0.0
 10
27.21387693595102
 20
3.329986910445001
 30
0.0
 10
26.99538959428662
 20
3.354013991007328
 30
0.0
 10
26.73488000737615
 20
3.384256793414337
 30
0.0
 10
26.377877629344
 20
3.428502660991462
 30
0.0
 10
25.89175444813404
 20
3.494239602303701
 30
0.0
 10
25.52328198484958
 20
3.550607229669261
 30
0.0
 10
25.31077672591178
 20
3.583115540174347
 30
0.0
  0
SPLINE
  5
251
330
1F
100
AcDbEntity
  8
0
  6
Continuous
 62
     1
370
    15
100
AcDbSpline
210
0.0
220
0.0
230
1.0
 70
     8
 71
     3
 72
    24
 73
    20
 74
     0
 42
0.000000001
 43
0.00000001
 40
0.0
 40
0.0
 40
0.0
 40
0.0
 40
0.0769202742284361
 40
0.1342919408836964
 40
0.1785824607053774
 40
0.2352080600228934
 40
0.2799039964083428
 40
0.3280666206799954
 40
0.3920189247378526
 40
0.4409619371013195
 40
0.4778699601659172
 40
0.5299786195568006
 40
0.6019973379790069
 40
0.6871750773090601
 40
0.746572483548436
 40
0.7881278107425498
 40
0.8390896377024007
 40
0.9080260467683494
 40
1.0
 40
1.0
 40
1.0
 40
1.0
 10
14.32460881008672
 20
-3.96198766699333
 30
0.0
 10
14.50564207243713
 20
-3.944357781649376
 30
0.0
 10
14.82170059419107
 20
-3.913578490439814
 30
0.0
 10
15.24919034826169
 20
-3.877003104550418
 30
0.0
 10
15.63208871320435
 20
-3.847163339580014
 30
0.0
 10
15.98046377616359
 20
-3.822518627967476
 30
0.0
 10
16.3373940571841
 20
-3.799971738292236
 30
0.0
 10
16.71245534229786
 20
-3.778862796781006
 30
0.0
 10
17.0976695701504
 20
-3.760416605817916
 30
0.0
 10
17.45556489633378
 20
-3.746533525269157
 30
0.0
 10
17.78421578719417
 20
-3.736000943243006
 30
0.0
 10
18.169045448156
 20
-3.726359715813643
 30
0.0
 10
18.66894286339561
 20
-3.718729126162735
 30
0.0
 10
19.18614383574447
 20
-3.717350306755037
 30
0.0
 10
19.63134189405903
 20
-3.721325511837151
 30
0.0
 10
19.99344450264437
 20
-3.727437458477823
 30
0.0
 10
20.38275947106911
 20
-3.736942550839082
 30
0.0
 10
20.89721918532291
 20
-3.753800649999398
 30
0.0
 10
21.27255461764582
 20
-3.772629935352839
 30
0.0
 10
21.48709072958872
 20
-3.783392472865998
 30
0.0
  0
SPLINE
  5
252
330
1F
100
AcDbEntity
  8
0
  6
Continuous
 62
     1
370
    15
100
AcDbSpline
210
0.0
220
0.0
230
1.0
 70
     8
 71
     3
 72
    18
 73
    14
 74
     0
 42
0.000000001
 43
0.00000001
 40
0.0
 40
0.0
 40
0.0
 40
0.0
 40
0.1585942180557602
 40
0.2816138316737149
 40
0.3722756884839852
 40
0.4419340052874794
 40
0.4928980656227226
 40
0.5571950960963217
 40
0.6286403877428977
 40
0.7139922128906091
 40
0.8106897819694863
 40
0.9230319332192018
 40
1.0
 40
1.0
 40
1.0
 40
1.0
 10
25.31077672591175
 20
-3.580965682726564
 30
0.0
 10
25.49613918584765
 20
-3.552531660021529
 30
0.0
 10
25.82528506033765
 20
-3.502041710375032
 30
0.0
 10
26.26440938907422
 20
-3.441379397945958
 30
0.0
 10
26.60529032084099
 20
-3.397925640171856
 30
0.0
 10
26.85878398135284
 20
-3.367586720096355
 30
0.0
 10
27.07846731331645
 20
-3.342591725981137
 30
0.0
 10
27.29952354512363
 20
-3.318697211313314
 30
0.0
 10
27.56178169821874
 20
-3.29210641195408
 30
0.0
 10
27.86236055904908
 20
-3.263947779489875
 30
0.0
 10
28.21111048854158
 20
-3.234536091310183
 30
0.0
 10
28.55001809961129
 20
-3.209454312192115
 30
0.0
 10
28.77436607826667
 20
-3.195870997249102
 30
0.0
 10
28.86557948651756
 20
-3.190348413721836
 30
0.0
  0
LINE
  5
253
330
1F
100
AcDbEntity
  8
0
  6
Continuous
 62
     1
370
    15
100
AcDbLine
 10
10.0
 20
-4.761425071276108
 30
0.0
 11
12.13207662970083
 21
-4.761425071276108
 31
0.0
  0
LINE
  5
254
330
1F
100
AcDbEntity
  8
외형선
  6
Continuous
370
    15
100
AcDbLine
 10
10.0
 20
4.763574928723891
 30
0.0
 11
10.0
 21
4.762488711983018
 31
0.0
  0
SPLINE
  5
255
330
1F
100
AcDbEntity
  8
외형선
  6
Continuous
370
    15
100
AcDbSpline
210
0.0
220
0.0
230
1.0
 70
     8
 71
     3
 72
    10
 73
     6
 74
     0
 42
0.000000001
 43
0.00000001
 40
0.0
 40
0.0
 40
0.0
 40
0.0
 40
0.5
 40
0.5
 40
1.0
 40
1.0
 40
1.0
 40
1.0
 10
8.479976710176402
 20
4.700466283358537
 30
0.0
 10
8.734227074134822
 20
4.724235126503011
 30
0.0
 10
8.98864570563228
 20
4.741325624486791
 30
0.0
 10
9.494585882619504
 20
4.761999902712397
 30
0.0
 10
9.746203068525688
 20
4.765615383522672
 30
0.0
 10
10.0
 20
4.762488711983018
 30
0.0
  0
SPLINE
  5
256
330
1F
100
AcDbEntity
  8
외형선
  6
Continuous
370
    15
100
AcDbSpline
210
0.0
220
0.0
230
1.0
 70
     8
 71
     3
 72
    10
 73
     6
 74
     0
 42
0.000000001
 43
0.00000001
 40
0.0
 40
0.0
 40
0.0
 40
0.0
 40
0.5
 40
0.5
 40
1.0
 40
1.0
 40
1.0
 40
1.0
 10
10.0
 20
-4.603237527050997
 30
0.0
 10
9.746199006658742
 20
-4.565817397056396
 30
0.0
 10
9.494577831626373
 20
-4.521993259381958
 30
0.0
 10
8.988629464820349
 20
-4.421543340397651
 30
0.0
 10
8.734206717633612
 20
-4.364882480906775
 30
0.0
 10
8.479952295433833
 20
-4.302114954106358
 30
0.0
  0
LINE
  5
257
330
1F
100
AcDbEntity
  8
외형선
  6
Continuous
370
    15
100
AcDbLine
 10
10.0
 20
-4.603237527050997
 30
0.0
 11
10.0
 21
-4.761425071276108
 31
0.0
  0
SPLINE
  5
258
330
1F
100
AcDbEntity
  8
외형선
  6
Continuous
370
    15
100
AcDbSpline
210
0.0
220
0.0
230
1.0
 70
     8
 71
     3
 72
    11
 73
     7
 74
     0
 42
0.000000001
 43
0.00000001
 40
0.0
 40
0.0
 40
0.0
 40
0.0
 40
0.2823797819217966
 40
0.5649086356315082
 40
0.8478874297396004
 40
0.9999999999999999
 40
0.9999999999999999
 40
0.9999999999999999
 40
0.9999999999999999
 10
8.479976710176402
 20
-4.69831642591075
 30
0.0
 10
8.606554369766513
 20
-4.709220181733404
 30
0.0
 10
8.859776510862616
 20
-4.731033449606599
 30
0.0
 10
9.23975202648677
 20
-4.750679222020096
 30
0.0
 10
9.560858412295715
 20
-4.760980130951921
 30
0.0
 10
9.75578479254284
 20
-4.760375406377648
 30
0.0
 10
9.823933129051369
 20
-4.760163988232346
 30
0.0
  0
LINE
  5
259
330
1F
100
AcDbEntity
  8
외형선
  6
Continuous
370
    15
100
AcDbLine
 10
8.479976710176402
 20
-4.761425071276108
 30
0.0
 11
8.479976710176402
 21
-4.698316998021753
 31
0.0
  0
LINE
  5
25A
330
1F
100
AcDbEntity
  8
외형선
  6
Continuous
370
    15
100
AcDbLine
 10
-39.8
 20
4.763574928723884
 30
0.0
 11
-39.8
 21
-4.761425071276108
 31
0.0
  0
LINE
  5
25B
330
1F
100
AcDbEntity
  8
외형선
  6
Continuous
370
    15
100
AcDbLine
 10
8.479976710176402
 20
-4.302027496674516
 30
0.0
 11
8.479976710176402
 21
4.763574928723891
 31
0.0
  0
LINE
  5
25C
330
1F
100
AcDbEntity
  8
외형선
  6
Continuous
370
    15
100
AcDbLine
 10
-40.8
 20
3.763574928723884
 30
0.0
 11
-40.8
 21
-3.761425071276108
 31
0.0
  0
SPLINE
  5
25D
330
1F
100
AcDbEntity
  8
외형선
  6
Continuous
370
    15
100
AcDbSpline
210
0.0
220
0.0
230
1.0
 70
     8
 71
     3
 72
    10
 73
     6
 74
     0
 42
0.000000001
 43
0.00000001
 40
0.0
 40
0.0
 40
0.0
 40
0.0
 40
0.5
 40
0.5
 40
1.0
 40
1.0
 40
1.0
 40
1.0
 10
10.00000000000003
 20
-3.843114147398445
 30
0.0
 10
9.746199006658742
 20
-3.80411345792713
 30
0.0
 10
9.494577831626373
 20
-3.75978822724381
 30
0.0
 10
8.988629464820349
 20
-3.660487622566293
 30
0.0
 10
8.734206717633612
 20
-3.605482113026156
 30
0.0
 10
8.479952295433833
 20
-3.54544551577915
 30
0.0
  0
SPLINE
  5
25E
330
1F
100
AcDbEntity
  8
외형선
  6
Continuous
370
    15
100
AcDbSpline
210
0.0
220
0.0
230
1.0
 70
     8
 71
     3
 72
    10
 73
     6
 74
     0
 42
0.000000001
 43
0.00000001
 40
0.0
 40
0.0
 40
0.0
 40
0.0
 40
0.5
 40
0.5
 40
1.0
 40
1.0
 40
1.0
 40
1.0
 10
10.0
 20
-0.2368006489119168
 30
0.0
 10
9.746201585676488
 20
-0.1199057147760669
 30
0.0
 10
9.494582943476473
 20
-0.0030093698947198
 30
0.0
 10
8.98863977666565
 20
0.2308803580454111
 30
0.0
 10
8.734219642670297
 20
0.3478881335307378
 30
0.0
 10
8.479967797185822
 20
0.4642121916435542
 30
0.0
  0
SPLINE
  5
25F
330
1F
100
AcDbEntity
  8
외형선
  6
Continuous
370
    15
100
AcDbSpline
210
0.0
220
0.0
230
1.0
 70
    24
 71
     3
 72
    14
 73
    10
 74
     0
 42
0.000000001
 43
0.00000001
 40
0.0
 40
0.0
 40
0.0
 40
0.0
 40
0.25
 40
0.25
 40
0.5
 40
0.5
 40
0.75
 40
0.75
 40
1.0
 40
1.0
 40
1.0
 40
1.0
 10
10.0
 20
-0.2368006489119168
 30
0.0
 10
10.0
 20
-0.5982694794274437
 30
0.0
 10
10.0
 20
-0.9613932883322036
 30
0.0
 10
10.0
 20
-1.664493157324678
 30
0.0
 10
10.0
 20
-2.004254695435598
 30
0.0
 10
10.0
 20
-2.634547330290019
 30
0.0
 10
10.0
 20
-2.924896417653798
 30
0.0
 10
10.0
 20
-3.437304170267389
 30
0.0
 10
10.0
 20
-3.659298472480451
 30
0.0
 10
10.0
 20
-3.843114147398445
 30
0.0
  0
SPLINE
  5
260
330
1F
100
AcDbEntity
  8
외형선
  6
Continuous
370
    15
100
AcDbSpline
210
0.0
220
0.0
230
1.0
 70
     8
 71
     3
 72
    10
 73
     6
 74
     0
 42
0.000000001
 43
0.00000001
 40
0.0
 40
0.0
 40
0.0
 40
0.0
 40
0.5
 40
0.5
 40
1.0
 40
1.0
 40
1.0
 40
1.0
 10
10.0
 20
3.328320987001334
 30
0.0
 10
9.74620209022251
 20
3.334719453051193
 30
0.0
 10
9.494583943532973
 20
3.336394434690831
 30
0.0
 10
8.988641794022953
 20
3.330329536403802
 30
0.0
 10
8.734222171259205
 20
3.322567965315109
 30
0.0
 10
8.479970829870467
 20
3.31010295086466
 30
0.0
  0
SPLINE
  5
261
330
1F
100
AcDbEntity
  8
외형선
  6
Continuous
370
    15
100
AcDbSpline
210
0.0
220
0.0
230
1.0
 70
    24
 71
     3
 72
    14
 73
    10
 74
     0
 42
0.000000001
 43
0.00000001
 40
0.0
 40
0.0
 40
0.0
 40
0.0
 40
0.25
 40
0.25
 40
0.4999999999999999
 40
0.4999999999999999
 40
0.75
 40
0.75
 40
1.0
 40
1.0
 40
1.0
 40
1.0
 10
10.0
 20
3.328320987001334
 30
0.0
 10
10.0
 20
3.212942873400792
 30
0.0
 10
10.0
 20
3.04411847369893
 30
0.0
 10
10.0
 20
2.60043617295635
 30
0.0
 10
10.0
 20
2.325587775098789
 30
0.0
 10
10.0
 20
1.691962873982654
 30
0.0
 10
10.0
 20
1.333523992562114
 30
0.0
 10
10.0
 20
0.571334940819213
 30
0.0
 10
10.0
 20
0.1680416335976105
 30
0.0
 10
10.0
 20
-0.2368006489119168
 30
0.0
  0
SPLINE
  5
262
330
1F
100
AcDbEntity
  8
외형선
  6
Continuous
370
    15
100
AcDbSpline
210
0.0
220
0.0
230
1.0
 70
    24
 71
     3
 72
     8
 73
     4
 74
     0
 42
0.000000001
 43
0.00000001
 40
0.0
 40
0.0
 40
0.0
 40
0.0
 40
1.0
 40
1.0
 40
1.0
 40
1.0
 10
10.0
 20
-3.843114147398445
 30
0.0
 10
10.0
 20
-4.09648609004352
 30
0.0
 10
10.0
 20
-4.351488984198326
 30
0.0
 10
10.0
 20
-4.603237527049714
 30
0.0
  0
SPLINE
  5
263
330
1F
100
AcDbEntity
  8
외형선
  6
Continuous
370
    15
100
AcDbSpline
210
0.0
220
0.0
230
1.0
 70
    24
 71
     3
 72
    10
 73
     6
 74
     0
 42
0.000000001
 43
0.00000001
 40
0.0
 40
0.0
 40
0.0
 40
0.0
 40
0.5
 40
0.5
 40
1.0
 40
1.0
 40
1.0
 40
1.0
 10
10.0
 20
4.762488711969013
 30
0.0
 10
10.0
 20
4.528251780094209
 30
0.0
 10
10.0
 20
4.273060898805987
 30
0.0
 10
10.0
 20
3.776937187746945
 30
0.0
 10
10.0
 20
3.537294783906646
 30
0.0
 10
10.0
 20
3.328320987001334
 30
0.0
  0
SPLINE
  5
264
330
1F
100
AcDbEntity
  8
0
  6
Continuous
 62
     1
370
    15
100
AcDbSpline
210
0.0
220
0.0
230
1.0
 70
     8
 71
     3
 72
    15
 73
    11
 74
     0
 42
0.000000001
 43
0.00000001
 40
0.0
 40
0.0
 40
0.0
 40
0.0
 40
0.1362255833044935
 40
0.2724178169125163
 40
0.4085840576089666
 40
0.544731714296434
 40
0.6808682332235717
 40
0.8170010830547294
 40
0.9531377398441198
 40
1.0
 40
1.0
 40
1.0
 40
1.0
 10
35.40000000000003
 20
-3.756405480329732
 30
0.0
 10
34.83890345200766
 20
-3.638892267049513
 30
0.0
 10
33.71684771935156
 20
-3.403894609167466
 30
0.0
 10
32.03402091810807
 20
-2.868450134463345
 30
0.0
 10
30.35155746674485
 20
-2.22518920146387
 30
0.0
 10
28.66935890879637
 20
-1.486939031755725
 30
0.0
 10
26.98731844199733
 20
-0.6868491530268059
 30
0.0
 10
25.30532829858589
 20
0.1382901329321129
 30
0.0
 10
23.99100745053414
 20
0.7892703198290718
 30
0.0
 10
23.23732589739689
 20
1.135035195593687
 30
0.0
 10
23.04432354739737
 20
1.223578471320792
 30
0.0
  0
LINE
  5
265
330
1F
100
AcDbEntity
  8
0
  6
Continuous
 62
     1
370
    15
100
AcDbLine
 10
35.40000000000003
 20
-3.973572247295049
 30
0.0
 11
35.40000000000003
 21
-3.756405480329732
 31
0.0
  0
SPLINE
  5
266
330
1F
100
AcDbEntity
  8
0
  6
Continuous
 62
     1
370
    15
100
AcDbSpline
210
0.0
220
0.0
230
1.0
 70
     8
 71
     3
 72
    14
 73
    10
 74
     0
 42
0.000000001
 43
0.00000001
 40
0.0
 40
0.0
 40
0.0
 40
0.0
 40
0.25
 40
0.25
 40
0.5
 40
0.5
 40
0.75
 40
0.75
 40
1.0
 40
1.0
 40
1.0
 40
1.0
 10
34.892
 20
-4.417075946245422
 30
0.0
 10
34.95257194843492
 20
-4.430121282100476
 30
0.0
 10
35.01447260783613
 20
-4.431394221522154
 30
0.0
 10
35.1354712698477
 20
-4.405354170952929
 30
0.0
 10
35.19379563325236
 20
-4.377652228427557
 30
0.0
 10
35.29289222001455
 20
-4.294473753691719
 30
0.0
 10
35.33352164003844
 20
-4.238701671859332
 30
0.0
 10
35.3868697312605
 20
-4.113159975444216
 30
0.0
 10
35.40000000000003
 20
-4.043627750483274
 30
0.0
 10
35.40000000000003
 20
-3.973572247295049
 30
0.0
  0
SPLINE
  5
267
330
1F
100
AcDbEntity
  8
0
  6
Continuous
 62
     1
370
    15
100
AcDbSpline
210
0.0
220
0.0
230
1.0
 70
     8
 71
     3
 72
    22
 73
    18
 74
     0
 42
0.000000001
 43
0.00000001
 40
0.0
 40
0.0
 40
0.0
 40
0.0
 40
0.0685945718848195
 40
0.1372332941460744
 40
0.2058499190718339
 40
0.2744281868742994
 40
0.3429877392924146
 40
0.4103223216891465
 40
0.4776841448399086
 40
0.5450976312474469
 40
0.6124955637859112
 40
0.681223969999581
 40
0.7499338832666214
 40
0.8186443644414007
 40
0.8873744711430739
 40
0.9561431493131123
 40
1.0
 40
1.0
 40
1.0
 40
1.0
 10
34.892
 20
-4.417075946245422
 30
0.0
 10
34.37161463554673
 20
-4.289616418703595
 30
0.0
 10
33.33050896454347
 20
-4.03461532526083
 30
0.0
 10
31.76850274794327
 20
-3.465995221711971
 30
0.0
 10
30.20680807682044
 20
-2.784764299974164
 30
0.0
 10
28.64591256133758
 20
-2.001000641786298
 30
0.0
 10
27.09480730408643
 20
-1.151757463798255
 30
0.0
 10
25.55298255918512
 20
-0.2672111700035344
 30
0.0
 10
24.01974262350797
 20
0.6213626815069304
 30
0.0
 10
22.48566072238191
 20
1.488254295313155
 30
0.0
 10
20.94135568982625
 20
2.309619843271342
 30
0.0
 10
19.38742245951821
 20
3.055506608625421
 30
0.0
 10
17.82360615832988
 20
3.696214006096696
 30
0.0
 10
16.25977393936711
 20
4.20630390821556
 30
0.0
 10
14.69541824433514
 20
4.558630979385427
 30
0.0
 10
13.31941266021954
 20
4.747625861089304
 30
0.0
 10
12.46484776442813
 20
4.744864340149419
 30
0.0
 10
12.13207662970086
 20
4.743788992377404
 30
0.0
  0
SPLINE
  5
268
330
1F
100
AcDbEntity
  8
0
  6
Continuous
 62
     1
370
    15
100
AcDbSpline
210
0.0
220
0.0
230
1.0
 70
     8
 71
     3
 72
    15
 73
    11
 74
     0
 42
0.000000001
 43
0.00000001
 40
0.0
 40
0.0
 40
0.0
 40
0.0
 40
0.1203155836693313
 40
0.2442610779415654
 40
0.3682313342405755
 40
0.4922333091497231
 40
0.6162339984096478
 40
0.7441676396725754
 40
0.872088905533175
 40
1.0
 40
1.0
 40
1.0
 40
1.0
 10
23.57430686012438
 20
-0.4544935506041412
 30
0.0
 10
23.02992772497061
 20
-0.2348517816182891
 30
0.0
 10
21.92474558391888
 20
0.2110583292525163
 30
0.0
 10
20.25861861281379
 20
0.8800717438387622
 30
0.0
 10
18.57578307942293
 20
1.517912278660106
 30
0.0
 10
16.89263567427213
 20
2.093000140776546
 30
0.0
 10
15.1915655949135
 20
2.587191258001766
 30
0.0
 10
13.47279031425268
 20
2.972833447345053
 30
0.0
 10
11.73633521993861
 20
3.241787737280362
 30
0.0
 10
10.57876306571205
 20
3.299477334969495
 30
0.0
 10
10.0
 20
3.328320987001334
 30
0.0
  0
SPLINE
  5
269
330
1F
100
AcDbEntity
  8
외형선
  6
Continuous
370
    15
100
AcDbSpline
210
0.0
220
0.0
230
1.0
 70
    24
 71
     3
 72
    10
 73
     6
 74
     0
 42
0.000000001
 43
0.00000001
 40
0.0
 40
0.0
 40
0.0
 40
0.0
 40
0.4999999999999996
 40
0.4999999999999996
 40
1.0
 40
1.0
 40
1.0
 40
1.0
 10
10.0
 20
4.762488711968999
 30
0.0
 10
10.0
 20
4.528251780094195
 30
0.0
 10
10.0
 20
4.27306089880598
 30
0.0
 10
10.0
 20
3.776937187746938
 30
0.0
 10
10.0
 20
3.537294783906646
 30
0.0
 10
10.0
 20
3.328320987001334
 30
0.0
  0
SPLINE
  5
26A
330
1F
100
AcDbEntity
  8
0
  6
Continuous
 62
     1
370
    15
100
AcDbSpline
210
0.0
220
0.0
230
1.0
 70
     8
 71
     3
 72
    54
 73
    50
 74
     0
 42
0.000000001
 43
0.00000001
 40
0.0
 40
0.0
 40
0.0
 40
0.0
 40
0.0312500000000001
 40
0.0312500000000001
 40
0.0625000000000002
 40
0.0625000000000002
 40
0.1250000000000002
 40
0.1250000000000002
 40
0.1875000000000003
 40
0.1875000000000003
 40
0.2187500000000003
 40
0.2187500000000003
 40
0.2500000000000003
 40
0.2500000000000003
 40
0.3125000000000003
 40
0.3125000000000003
 40
0.3437500000000003
 40
0.3437500000000003
 40
0.3750000000000003
 40
0.3750000000000003
 40
0.4062500000000003
 40
0.4062500000000003
 40
0.4375000000000004
 40
0.4375000000000004
 40
0.5000000000000007
 40
0.5000000000000007
 40
0.5625000000000009
 40
0.5625000000000009
 40
0.5937500000000011
 40
0.5937500000000011
 40
0.6250000000000009
 40
0.6250000000000009
 40
0.6562500000000009
 40
0.6562500000000009
 40
0.6875000000000008
 40
0.6875000000000008
 40
0.7500000000000007
 40
0.7500000000000007
 40
0.7812500000000006
 40
0.7812500000000006
 40
0.8125000000000004
 40
0.8125000000000004
 40
0.8750000000000003
 40
0.8750000000000003
 40
0.9375000000000002
 40
0.9375000000000002
 40
0.9687500000000001
 40
0.9687500000000001
 40
0.9959387713911904
 40
0.9959387713911904
 40
0.9959387713911904
 40
0.9959387713911904
 10
10.0
 20
4.762488711983018
 30
0.0
 10
10.25960562474688
 20
4.759290479783303
 30
0.0
 10
10.52012592803089
 20
4.749010982410361
 30
0.0
 10
11.03952382604393
 20
4.714421404451343
 30
0.0
 10
11.29706397418335
 20
4.690171312238164
 30
0.0
 10
12.07305331296368
 20
4.596654378190543
 30
0.0
 10
12.59665565380351
 20
4.506250435278425
 30
0.0
 10
13.62873345682289
 20
4.274235791520368
 30
0.0
 10
14.15060791614181
 20
4.131682462951972
 30
0.0
 10
14.92822175372203
 20
3.882904218376332
 30
0.0
 10
15.1852692241003
 20
3.794351659231964
 30
0.0
 10
15.70390358240394
 20
3.60576609052363
 30
0.0
 10
15.96437678971625
 20
3.505839261895034
 30
0.0
 10
16.74405951975609
 20
3.19111889746744
 30
0.0
 10
17.25885583089138
 20
2.961822506430849
 30
0.0
 10
18.03910761274267
 20
2.5924536924935
 30
0.0
 10
18.29926951904071
 20
2.465279395256331
 30
0.0
 10
18.81629305174266
 20
2.204565965142223
 30
0.0
 10
19.07407331862692
 20
2.070885191083718
 30
0.0
 10
19.59361821306311
 20
1.79709550620673
 30
0.0
 10
19.85413020981434
 20
1.657196934562073
 30
0.0
 10
20.373161603889
 20
1.373261822440135
 30
0.0
 10
20.63034569504543
 20
1.229480664017878
 30
0.0
 10
21.4072310986802
 20
0.7923432293959962
 30
0.0
 10
21.93066064966484
 20
0.4934359363523058
 30
0.0
 10
22.96128935223658
 20
-0.1035851640503509
 30
0.0
 10
23.48480019814929
 20
-0.4048167121150215
 30
0.0
 10
24.26161372857422
 20
-0.8487925734553414
 30
0.0
 10
24.51881961742555
 20
-0.9954190326498349
 30
0.0
 10
25.0378847930333
 20
-1.286164019725803
 30
0.0
 10
25.29839887346805
 20
-1.430022273609445
 30
0.0
 10
25.81791822901101
 20
-1.712789558574364
 30
0.0
 10
26.07565142234466
 20
-1.851475662996108
 30
0.0
 10
26.59273101717298
 20
-2.12325658503422
 30
0.0
 10
26.85290633732836
 20
-2.256485564919323
 30
0.0
 10
27.63315362126065
 20
-2.645470381624364
 30
0.0
 10
28.14792864954899
 20
-2.889737530537985
 30
0.0
 10
28.92764072096452
 20
-3.229515507209683
 30
0.0
 10
29.18810883030415
 20
-3.338219018799343
 30
0.0
 10
29.70670346107451
 20
-3.545088658107289
 30
0.0
 10
29.96374743453205
 20
-3.64313768965647
 30
0.0
 10
30.74142426459116
 20
-3.92150456725529
 30
0.0
 10
31.2631623122933
 20
-4.085166886877762
 30
0.0
 10
32.29536843645289
 20
-4.361236712478622
 30
0.0
 10
32.8189761838629
 20
-4.47475010959727
 30
0.0
 10
33.41693079124263
 20
-4.604705648342931
 30
0.0
 10
33.73096433938423
 20
-4.660123333309096
 30
0.0
 10
33.99573772311146
 20
-4.711436004574065
 30
0.0
 10
34.30977127125306
 20
-4.738118593631848
 30
0.0
 10
34.63800000000003
 20
-4.761425071276093
 30
0.0
  0
SPLINE
  5
26B
330
1F
100
AcDbEntity
  8
0
  6
Continuous
 62
     1
370
    15
100
AcDbSpline
210
0.0
220
0.0
230
1.0
 70
     8
 71
     3
 72
    15
 73
    11
 74
     0
 42
0.000000001
 43
0.00000001
 40
0.0
 40
0.0
 40
0.0
 40
0.0
 40
0.1329640505391092
 40
0.2659254011857846
 40
0.398889637192789
 40
0.531862338946722
 40
0.664849072565808
 40
0.7978553805485713
 40
0.9308867725066065
 40
1.0
 40
1.0
 40
1.0
 40
1.0
 10
34.24552765837814
 20
0.5323576126639935
 30
0.0
 10
33.67995431385833
 20
0.788904709703445
 30
0.0
 10
32.54881910902969
 20
1.301993694482817
 30
0.0
 10
30.85211810647206
 20
2.010739359650266
 30
0.0
 10
29.15537441787254
 20
2.636493214512733
 30
0.0
 10
27.45850863214895
 20
3.150098530400427
 30
0.0
 10
25.76144021355651
 20
3.533175057488009
 30
0.0
 10
24.06408835782372
 20
3.759173809270976
 30
0.0
 10
22.63840510263771
 20
3.841126235771412
 30
0.0
 10
21.7784879309763
 20
3.784702427914894
 30
0.0
 10
21.48448232611878
 20
3.765411133004278
 30
0.0
  0
SPLINE
  5
26C
330
1F
100
AcDbEntity
  8
0
  6
Continuous
 62
     1
370
    15
100
AcDbSpline
210
0.0
220
0.0
230
1.0
 70
    24
 71
     3
 72
     8
 73
     4
 74
     0
 42
0.000000001
 43
0.00000001
 40
0.0
 40
0.0
 40
0.0
 40
0.0
 40
1.0
 40
1.0
 40
1.0
 40
1.0
 10
34.24552765837768
 20
0.5323576126642067
 30
0.0
 10
34.07901577711766
 20
0.3926375545123193
 30
0.0
 10
33.91259687325874
 20
0.2529955136633646
 30
0.0
 10
33.74626864107711
 20
0.1134295553853732
 30
0.0
  0
SPLINE
  5
26D
330
1F
100
AcDbEntity
  8
0
  6
Continuous
 62
     1
370
    15
100
AcDbSpline
210
0.0
220
0.0
230
1.0
 70
     8
 71
     3
 72
     8
 73
     4
 74
     0
 42
0.000000001
 43
0.00000001
 40
0.0
 40
0.0
 40
0.0
 40
0.0
 40
1.0
 40
1.0
 40
1.0
 40
1.0
 10
35.40000000000003
 20
-1.271669601742289
 30
0.0
 10
34.84051019568363
 20
-0.831816200551053
 30
0.0
 10
34.28907819674814
 20
-0.3706151164723934
 30
0.0
 10
33.74626864107711
 20
0.1134295553853732
 30
0.0
  0
SPLINE
  5
26E
330
1F
100
AcDbEntity
  8
0
  6
Continuous
 62
     1
370
    15
100
AcDbSpline
210
0.0
220
0.0
230
1.0
 70
    24
 71
     3
 72
    10
 73
     6
 74
     0
 42
0.000000001
 43
0.00000001
 40
0.0
 40
0.0
 40
0.0
 40
0.0
 40
0.5
 40
0.5
 40
1.0
 40
1.0
 40
1.0
 40
1.0
 10
35.40000000000003
 20
-3.756405480329732
 30
0.0
 10
35.40000000000003
 20
-3.468365311406728
 30
0.0
 10
35.40000000000001
 20
-3.104415513380658
 30
0.0
 10
35.40000000000003
 20
-2.258267259231218
 30
0.0
 10
35.40000000000003
 20
-1.776801768807964
 30
0.0
 10
35.40000000000003
 20
-1.271669601742438
 30
0.0
  0
LINE
  5
26F
330
1F
100
AcDbEntity
  8
0
  6
Continuous
 62
     1
370
    15
100
AcDbLine
 10
34.34858107100641
 20
0.618829693192545
 30
0.0
 11
35.40000000000003
 21
0.0010749287238951
 31
0.0
  0
LINE
  5
270
330
1F
100
AcDbEntity
  8
0
  6
Continuous
 62
     1
370
    15
100
AcDbLine
 10
35.40000000000003
 20
0.0010749287238951
 30
0.0
 11
35.40000000000003
 21
-1.271669601742289
 31
0.0
  0
SPLINE
  5
271
330
1F
100
AcDbEntity
  8
0
  6
Continuous
 62
     1
370
    15
100
AcDbSpline
210
0.0
220
0.0
230
1.0
 70
     8
 71
     3
 72
     9
 73
     5
 74
     0
 42
0.000000001
 43
0.00000001
 40
0.0
 40
0.0
 40
0.0
 40
0.0
 40
0.9524308942241454
 40
0.9999999999999999
 40
0.9999999999999999
 40
0.9999999999999999
 40
0.9999999999999999
 10
35.40000000000003
 20
3.33482492872389
 30
0.0
 10
34.83890132358709
 20
3.333278033623884
 30
0.0
 10
34.2497786063216
 20
3.331653878937807
 30
0.0
 10
33.66067909450322
 20
3.258941677023103
 30
0.0
 10
33.63265615751305
 20
3.255482822599028
 30
0.0
  0
SPLINE
  5
272
330
1F
100
AcDbEntity
  8
0
  6
Continuous
 62
     1
370
    15
100
AcDbSpline
210
0.0
220
0.0
230
1.0
 70
    24
 71
     3
 72
    10
 73
     6
 74
     0
 42
0.000000001
 43
0.00000001
 40
0.0
 40
0.0
 40
0.0
 40
0.0
 40
0.5
 40
0.5
 40
1.0
 40
1.0
 40
1.0
 40
1.0
 10
35.40000000000003
 20
1.501074928723959
 30
0.0
 10
35.40000000000003
 20
1.966775327254041
 30
0.0
 10
35.40000000000003
 20
2.373179306812602
 30
0.0
 10
35.40000000000003
 20
2.9972864598125
 30
0.0
 10
35.40000000000003
 20
3.21456181841036
 30
0.0
 10
35.40000000000003
 20
3.33482492872389
 30
0.0
  0
SPLINE
  5
273
330
1F
100
AcDbEntity
  8
0
  6
Continuous
 62
     1
370
    15
100
AcDbSpline
210
0.0
220
0.0
230
1.0
 70
    24
 71
     3
 72
     8
 73
     4
 74
     0
 42
0.000000001
 43
0.00000001
 40
0.0
 40
0.0
 40
0.0
 40
0.0
 40
1.0
 40
1.0
 40
1.0
 40
1.0
 10
35.40000000000003
 20
1.501074928723895
 30
0.0
 10
35.02524444710684
 20
1.186617682509585
 30
0.0
 10
34.63995761033169
 20
0.8633236398740891
 30
0.0
 10
34.24552765837768
 20
0.5323576126641996
 30
0.0
  0
SPLINE
  5
274
330
1F
100
AcDbEntity
  8
0
  6
Continuous
 62
     1
370
    15
100
AcDbSpline
210
0.0
220
0.0
230
1.0
 70
     8
 71
     3
 72
    10
 73
     6
 74
     0
 42
0.000000001
 43
0.00000001
 40
0.0
 40
0.0
 40
0.0
 40
0.0
 40
0.1978928371272244
 40
0.598961735647435
 40
1.0
 40
1.0
 40
1.0
 40
1.0
 10
14.329522248237
 20
-3.939470497072225
 30
0.0
 10
14.04392341181466
 20
-3.97224009656377
 30
0.0
 10
13.17950215612035
 20
-4.071423758149805
 30
0.0
 10
11.73632857725465
 20
-4.05558283135047
 30
0.0
 10
10.57876145577336
 20
-3.913935238775487
 30
0.0
 10
10.00000000000003
 20
-3.843114147398445
 30
0.0
  0
SPLINE
  5
275
330
1F
100
AcDbEntity
  8
0
  6
Continuous
 62
     1
370
    15
100
AcDbSpline
210
0.0
220
0.0
230
1.0
 70
     8
 71
     3
 72
    16
 73
    12
 74
     0
 42
0.000000001
 43
0.00000001
 40
0.0
 40
0.0
 40
0.0
 40
0.0
 40
0.0818349197415613
 40
0.1926671950792526
 40
0.303517934547033
 40
0.4196097656436572
 40
0.5356963488461479
 40
0.651778172720516
 40
0.7678557276373882
 40
0.8839295055881862
 40
1.0
 40
1.0
 40
1.0
 40
1.0
 10
25.31767718784144
 20
-3.565172024638102
 30
0.0
 10
24.89984937554607
 20
-3.628984225036085
 30
0.0
 10
23.91614079643006
 20
-3.779219817633241
 30
0.0
 10
22.36641039694314
 20
-3.832510369279611
 30
0.0
 10
20.64171745138088
 20
-3.747067668725698
 30
0.0
 10
18.89023026990691
 20
-3.487805061111544
 30
0.0
 10
17.11203764922482
 20
-3.064569173393892
 30
0.0
 10
15.33392929261345
 20
-2.499118927041472
 30
0.0
 10
13.55589463301612
 20
-1.817861819274327
 30
0.0
 10
11.77792521098766
 20
-1.053198051360603
 30
0.0
 10
10.59263614859921
 20
-0.5089305502843189
 30
0.0
 10
10.0
 20
-0.2368006489119168
 30
0.0
  0
SPLINE
  5
276
330
1F
100
AcDbEntity
  8
외형선
  6
Continuous
370
    15
100
AcDbSpline
210
0.0
220
0.0
230
1.0
 70
    24
 71
     3
 72
    14
 73
    10
 74
     0
 42
0.000000001
 43
0.00000001
 40
0.0
 40
0.0
 40
0.0
 40
0.0
 40
0.2499999999999998
 40
0.2499999999999998
 40
0.4999999999999999
 40
0.4999999999999999
 40
0.75
 40
0.75
 40
1.0
 40
1.0
 40
1.0
 40
1.0
 10
10.0
 20
-0.2368006489119168
 30
0.0
 10
10.0
 20
-0.5982694794274508
 30
0.0
 10
10.0
 20
-0.9613932883322036
 30
0.0
 10
10.0
 20
-1.664493157324678
 30
0.0
 10
10.0
 20
-2.004254695435598
 30
0.0
 10
10.0
 20
-2.634547330290019
 30
0.0
 10
10.0
 20
-2.924896417653798
 30
0.0
 10
10.0
 20
-3.437304170267389
 30
0.0
 10
10.0
 20
-3.659298472480451
 30
0.0
 10
10.0
 20
-3.843114147398445
 30
0.0
  0
SPLINE
  5
277
330
1F
100
AcDbEntity
  8
외형선
  6
Continuous
370
    15
100
AcDbSpline
210
0.0
220
0.0
230
1.0
 70
    24
 71
     3
 72
    14
 73
    10
 74
     0
 42
0.000000001
 43
0.00000001
 40
0.0
 40
0.0
 40
0.0
 40
0.0
 40
0.25
 40
0.25
 40
0.4999999999999999
 40
0.4999999999999999
 40
0.75
 40
0.75
 40
1.0
 40
1.0
 40
1.0
 40
1.0
 10
10.0
 20
3.328320987001334
 30
0.0
 10
10.0
 20
3.212942873400792
 30
0.0
 10
10.0
 20
3.04411847369893
 30
0.0
 10
10.0
 20
2.60043617295635
 30
0.0
 10
10.0
 20
2.325587775098789
 30
0.0
 10
10.0
 20
1.691962873982646
 30
0.0
 10
10.0
 20
1.333523992562114
 30
0.0
 10
10.0
 20
0.571334940819213
 30
0.0
 10
10.0
 20
0.1680416335976105
 30
0.0
 10
10.0
 20
-0.2368006489119168
 30
0.0
  0
LINE
  5
278
330
1F
100
AcDbEntity
  8
0
  6
Continuous
 62
     1
370
    15
100
AcDbLine
 10
35.40000000000003
 20
-3.973572247295049
 30
0.0
 11
35.40000000000003
 21
-3.999425140623131
 31
0.0
  0
SPLINE
  5
279
330
1F
100
AcDbEntity
  8
0
  6
Continuous
 62
     1
370
    15
100
AcDbSpline
210
0.0
220
0.0
230
1.0
 70
     8
 71
     3
 72
    12
 73
     8
 74
     0
 42
0.000000001
 43
0.00000001
 40
0.0
 40
0.0
 40
0.0
 40
0.0
 40
0.1772476773319028
 40
0.3828545427096918
 40
0.5885767950566589
 40
0.7943536965662736
 40
1.0
 40
1.0
 40
1.0
 40
1.0
 10
17.60831510955512
 20
-3.741893893090385
 30
0.0
 10
17.15885041693849
 20
-3.895469271159357
 30
0.0
 10
16.18800779746852
 20
-4.227191706268989
 30
0.0
 10
14.69541462414281
 20
-4.559145540712734
 30
0.0
 10
13.13027215027091
 20
-4.753703725199976
 30
0.0
 10
11.56487117995033
 20
-4.786033506984797
 30
0.0
 10
10.52151332894923
 20
-4.664156624568555
 30
0.0
 10
10.00000000000006
 20
-4.603237527051007
 30
0.0
  0
SPLINE
  5
27A
330
1F
100
AcDbEntity
  8
외형선
  6
Continuous
370
    15
100
AcDbSpline
210
0.0
220
0.0
230
1.0
 70
    24
 71
     3
 72
     8
 73
     4
 74
     0
 42
0.000000001
 43
0.00000001
 40
0.0
 40
0.0
 40
0.0
 40
0.0
 40
1.0
 40
1.0
 40
1.0
 40
1.0
 10
10.0
 20
-3.843114147398445
 30
0.0
 10
10.0
 20
-4.09648609004352
 30
0.0
 10
10.0
 20
-4.351488984198326
 30
0.0
 10
10.0
 20
-4.603237527049718
 30
0.0
  0
SPLINE
  5
27B
330
1F
100
AcDbEntity
  8
0
  6
Continuous
 62
     1
370
    15
100
AcDbSpline
210
0.0
220
0.0
230
1.0
 70
     8
 71
     3
 72
    12
 73
     8
 74
     0
 42
0.000000001
 43
0.00000001
 40
0.0
 40
0.0
 40
0.0
 40
0.0
 40
0.1066866379890855
 40
0.3463293952739591
 40
0.587823602463658
 40
0.7933314445931139
 40
1.0
 40
1.0
 40
1.0
 40
1.0
 10
28.86617677897334
 20
3.192754279437409
 30
0.0
 10
29.08051981531207
 20
3.286581195938957
 30
0.0
 10
29.77632667131189
 20
3.591164973859904
 30
0.0
 10
30.95686542422123
 20
4.002965120765339
 30
0.0
 10
32.33590933045554
 20
4.382862233706753
 30
0.0
 10
33.35405914581668
 20
4.617013777930316
 30
0.0
 10
33.953775991226
 20
4.706810952644011
 30
0.0
 10
34.63800000000003
 20
4.763574928723897
 30
0.0
  0
LINE
  5
27C
330
1F
100
AcDbEntity
  8
0
  6
Continuous
 62
     1
370
    15
100
AcDbLine
 10
35.40000000000003
 20
0.0010749287238951
 30
0.0
 11
35.40000000000003
 21
1.501074928723895
 31
0.0
  0
SPLINE
  5
27D
330
1F
100
AcDbEntity
  8
0
  6
Continuous
 62
     1
370
    15
100
AcDbSpline
210
0.0
220
0.0
230
1.0
 70
    24
 71
     3
 72
     8
 73
     4
 74
     0
 42
0.000000001
 43
0.00000001
 40
0.0
 40
0.0
 40
0.0
 40
0.0
 40
0.7437418301460006
 40
0.7437418301460006
 40
0.7437418301460006
 40
0.7437418301460006
 10
35.40000000000003
 20
3.33482492872389
 30
0.0
 10
35.40000000000003
 20
3.531435580426598
 30
0.0
 10
35.40000000000003
 20
3.759767104830131
 30
0.0
 10
35.40000000000001
 20
4.001574998070934
 30
0.0
  0
LINE
  5
27E
330
1F
100
AcDbEntity
  8
중심선
 48
0.8
100
AcDbLine
 10
-43.80000000000001
 20
0.001074928723888
 30
0.0
 11
38.40000000000003
 21
0.0010749287239022
 31
0.0
  0
CIRCLE
  5
27F
330
1F
100
AcDbEntity
  8
해칭선
100
AcDbCircle
 10
0.0
 20
0.0
 30
0.0
 40
3.000000000000001
  0
DIMENSION
  5
280
330
1F
100
AcDbEntity
  8
치수문자_일반주서
100
AcDbDimension
  2
*D13
 10
-53.29999999999999
 20
-4.761425071276158
 30
0.0
 11
-53.30000000000001
 21
0.0010749287238951
 31
0.0
 70
   160
  1
%%c<>
 71
     2
 42
9.525000000000006
 52
-270.0
  3
SLDDIMSTYLE0
100
AcDbAlignedDimension
 13
-39.8
 23
4.763574928723898
 33
0.0
 14
-39.8
 24
-4.761425071276108
 34
0.0
 50
90.0000000000002
100
AcDbRotatedDimension
1001
ACAD
1000
DSTYLE
1002
{
1070
   273
1070
     7
1070
   171
1070
     6
1002
}
  0
DIMENSION
  5
281
330
1F
100
AcDbEntity
  8
치수문자_일반주서
100
AcDbDimension
  2
*D14
 10
48.05000000000013
 20
-4.761425071276051
 30
0.0
 11
48.05000000000001
 21
26.02382492872394
 31
0.0
 70
   160
  1
%%c<>
 71
     2
 42
9.524999999999999
 52
-270.0
  3
SLDDIMSTYLE0
100
AcDbAlignedDimension
 13
35.40000000000003
 23
4.763574928723898
 33
0.0
 14
35.40000000000003
 24
-4.761425071276101
 34
0.0
 50
90.0000000000002
100
AcDbRotatedDimension
1001
ACAD
1000
DSTYLE
1002
{
1070
   273
1070
     7
1070
   171
1070
     6
1002
}
  0
DIMENSION
  5
282
330
1F
100
AcDbEntity
  8
치수문자_일반주서
100
AcDbDimension
  2
*D15
 10
10.0
 20
14.30755048907219
 30
0.0
 11
22.75340701373267
 21
14.30755048907219
 31
0.0
 70
   160
  1
<>
 71
     2
 42
25.40000000000003
  3
SLDDIMSTYLE0
100
AcDbAlignedDimension
 13
35.40000000000003
 23
4.763574928723898
 33
0.0
 14
10.0
 24
4.762488711969006
 34
0.0
 50
-0.000000000000008
100
AcDbRotatedDimension
1001
ACAD
1000
DSTYLE
1002
{
1070
   273
1070
     7
1070
   171
1070
     6
1002
}
  0
DIMENSION
  5
283
330
1F
100
AcDbEntity
  8
치수문자_일반주서
100
AcDbDimension
  2
*D16
 10
-40.8
 20
26.30755048907214
 30
0.0
 11
-3.042888962897308
 21
26.30755048907214
 31
0.0
 70
   160
  1
<>
 71
     2
 42
76.20000000000003
  3
SLDDIMSTYLE0
100
AcDbAlignedDimension
 13
35.40000000000003
 23
4.763574928723898
 33
0.0
 14
-40.8
 24
3.763574928723884
 34
0.0
 50
0.0000000000000053
100
AcDbRotatedDimension
1001
ACAD
1000
DSTYLE
1002
{
1070
   273
1070
     7
1070
   171
1070
     6
1002
}
  0
INSERT
  5
284
330
1F
100
AcDbEntity
  8
해칭선
100
AcDbBlockReference
  2
SW_DOWELSYMBOL_0
 10
0.0
 20
0.0
 30
0.0
  0
ARC
  5
2CA
330
1F
100
AcDbEntity
  8
0
  6
Continuous
 62
     1
370
    15
100
AcDbCircle
 10
34.63800000000003
 20
4.001574928723898
 30
0.0
 40
0.762
100
AcDbArc
 50
0.0000052142947078
 51
90.0
  0
ARC
  5
2CB
102
{ACAD_REACTORS
102
}
330
1F
100
AcDbEntity
  8
0
  6
Continuous
 62
     1
370
    15
100
AcDbCircle
 10
34.63800000000003
 20
-3.999425071276093
 30
0.0
 40
0.762
100
AcDbArc
 50
270.0
 51
359.9999947857052
  0
DIMENSION
  5
2CC
102
{ACAD_REACTORS
102
}
102
{ACAD_XDICTIONARY
360
2CD
102
}
330
1F
100
AcDbEntity
  8
치수문자_일반주서
100
AcDbDimension
  2
*D18
 10
34.63800000000003
 20
-3.999425071276093
 30
0.0
 11
46.56713954564567
 21
-21.98822887428125
 31
0.0
 70
   164
  1
<>
 71
     5
 42
0.7619999999999955
  3
SLDDIMSTYLE0
100
AcDbRadialDimension
 15
35.05913086015741
 25
-4.634478453774841
 35
0.0
 40
0.0
1001
ACAD
1000
DSTYLE
1002
{
1070
   171
1070
     3
1002
}
1001
ACAD_DSTYLE_DIMRADIAL_EXTENSION
1070
   387
1070
     1
1070
   388
1040
4.71238898038469
1070
   390
1040
6.283185216172974
  0
ENDSEC
  0
SECTION
  2
OBJECTS
  0
DICTIONARY
  5
C
330
0
100
AcDbDictionary
281
     1
  3
ACAD_GROUP
350
D
  3
ACAD_IMAGE_VARS
350
15E
  3
ACAD_LAYOUT
350
1A
  3
ACAD_MLINESTYLE
350
17
  3
ACAD_PLOTSETTINGS
350
19
  3
ACAD_PLOTSTYLENAME
350
E
  3
ACAD_SCALELIST
350
47
  3
APPDATA
350
15C
  3
DWGPROPS
350
2D9
  0
DICTIONARY
  5
20F
330
2
100
AcDbDictionary
280
     1
281
     1
  3
ACAD_LAYERSTATES
360
210
  0
DICTIONARY
  5
2CD
330
2CC
100
AcDbDictionary
280
     1
281
     1
  0
DICTIONARY
  5
D
102
{ACAD_REACTORS
330
C
102
}
330
C
100
AcDbDictionary
281
     1
  0
RASTERVARIABLES
  5
15E
102
{ACAD_REACTORS
330
C
102
}
330
C
100
AcDbRasterVariables
 90
        0
 70
     1
 71
     1
 72
     1
  0
DICTIONARY
  5
1A
102
{ACAD_REACTORS
330
C
102
}
330
C
100
AcDbDictionary
281
     1
  3
Layout1
350
1E
  3
Layout2
350
26
  3
Model
350
22
  0
DICTIONARY
  5
17
102
{ACAD_REACTORS
330
C
102
}
330
C
100
AcDbDictionary
281
     1
  3
Standard
350
18
  0
DICTIONARY
  5
19
102
{ACAD_REACTORS
330
C
102
}
330
C
100
AcDbDictionary
281
     1
  0
ACDBDICTIONARYWDFLT
  5
E
102
{ACAD_REACTORS
330
C
102
}
330
C
100
AcDbDictionary
281
     1
  3
Normal
350
F
100
AcDbDictionaryWithDefault
340
F
  0
DICTIONARY
  5
47
102
{ACAD_REACTORS
330
C
102
}
330
C
100
AcDbDictionary
281
     1
  3
A0
350
48
  3
A1
350
49
  3
A2
350
4A
  3
A3
350
4B
  3
A4
350
4C
  3
A5
350
4D
  3
A6
350
4E
  3
A7
350
4F
  3
A8
350
50
  3
A9
350
51
  3
B0
350
52
  3
B1
350
53
  3
B2
350
54
  3
B3
350
55
  3
B4
350
56
  3
B5
350
57
  3
B6
350
58
  3
B7
350
59
  3
B8
350
5A
  3
B9
350
5B
  3
C0
350
5C
  3
C1
350
5D
  3
C2
350
5E
  3
C3
350
5F
  3
C4
350
60
  3
C5
350
61
  3
C6
350
62
  3
C7
350
63
  3
C8
350
64
  3
C9
350
65
  3
D0
350
66
  3
D1
350
67
  3
D2
350
68
  0
DICTIONARY
  5
15C
102
{ACAD_REACTORS
330
C
102
}
330
C
100
AcDbDictionary
281
     1
  0
XRECORD
  5
2D9
102
{ACAD_REACTORS
330
C
102
}
330
C
100
AcDbXrecord
280
     1
  1
DWGPROPS COOKIE
  2

  3

  4

  6

  7

  8
12017012
  9

300
=
301
=
302
=
303
=
304
=
305
=
306
=
307
=
308
=
309
=
 40
0.0
 41
2458288.282110231
 42
2458295.330262488
  1

 90
        0
  0
DICTIONARY
  5
210
102
{ACAD_REACTORS
330
20F
102
}
330
20F
100
AcDbDictionary
281
     1
  0
LAYOUT
  5
1E
102
{ACAD_REACTORS
330
1A
102
}
330
1A
100
AcDbPlotSettings
  1

  2
none_device
  4

  6

 40
0.0
 41
0.0
 42
0.0
 43
0.0
 44
0.0
 45
0.0
 46
0.0
 47
0.0
 48
0.0
 49
0.0
140
0.0
141
0.0
142
1.0
143
1.0
 70
   688
 72
     1
 73
     0
 74
     5
  7

 75
    16
147
1.0
148
0.0
149
0.0
100
AcDbLayout
  1
Layout1
 70
     1
 71
     1
 10
0.0
 20
0.0
 11
420.0
 21
297.0
 12
0.0
 22
0.0
 32
0.0
 14
1.000000000000000E+20
 24
1.000000000000000E+20
 34
1.000000000000000E+20
 15
-1.000000000000000E+20
 25
-1.000000000000000E+20
 35
-1.000000000000000E+20
146
0.0
 13
0.0
 23
0.0
 33
0.0
 16
1.0
 26
0.0
 36
0.0
 17
0.0
 27
1.0
 37
0.0
 76
     0
330
1B
  0
LAYOUT
  5
26
102
{ACAD_REACTORS
330
1A
102
}
330
1A
100
AcDbPlotSettings
  1

  2
none_device
  4

  6

 40
0.0
 41
0.0
 42
0.0
 43
0.0
 44
0.0
 45
0.0
 46
0.0
 47
0.0
 48
0.0
 49
0.0
140
0.0
141
0.0
142
1.0
143
1.0
 70
   688
 72
     1
 73
     0
 74
     5
  7

 75
    16
147
1.0
148
0.0
149
0.0
100
AcDbLayout
  1
Layout2
 70
     1
 71
     2
 10
0.0
 20
0.0
 11
0.0
 21
0.0
 12
0.0
 22
0.0
 32
0.0
 14
0.0
 24
0.0
 34
0.0
 15
0.0
 25
0.0
 35
0.0
146
0.0
 13
0.0
 23
0.0
 33
0.0
 16
1.0
 26
0.0
 36
0.0
 17
0.0
 27
1.0
 37
0.0
 76
     0
330
23
  0
LAYOUT
  5
22
102
{ACAD_REACTORS
330
1A
102
}
330
1A
100
AcDbPlotSettings
  1

  2
none_device
  4
ANSI_A_(11.00_x_8.50_Inches)
  6

 40
6.35
 41
19.05
 42
6.35000508
 43
19.05000254
 44
279.4
 45
215.9
 46
105.7818028528328
 47
100.6608452929876
 48
0.0
 49
0.0
140
0.0
141
0.0
142
0.0680206271096811
143
1.0
 70
  1696
 72
     0
 73
     0
 74
     0
  7

 75
     0
147
0.0235690232323232
148
0.0
149
0.0
100
AcDbLayout
  1
Model
 70
     1
 71
     0
 10
0.0
 20
0.0
 11
420.0
 21
297.0
 12
0.0
 22
0.0
 32
0.0
 14
1.000000000000000E+20
 24
1.000000000000000E+20
 34
1.000000000000000E+20
 15
-1.000000000000000E+20
 25
-1.000000000000000E+20
 35
-1.000000000000000E+20
146
0.0
 13
0.0
 23
0.0
 33
0.0
 16
1.0
 26
0.0
 36
0.0
 17
0.0
 27
1.0
 37
0.0
 76
     0
330
1F
331
29
  0
MLINESTYLE
  5
18
102
{ACAD_REACTORS
330
17
102
}
330
17
100
AcDbMlineStyle
  2
Standard
 70
     0
  3

 62
   256
 51
90.0
 52
90.0
 71
     2
 49
0.5
 62
   256
  6
BYLAYER
 49
-0.5
 62
   256
  6
BYLAYER
  0
ACDBPLACEHOLDER
  5
F
102
{ACAD_REACTORS
330
E
102
}
330
E
  0
SCALE
  5
48
102
{ACAD_REACTORS
330
47
102
}
330
47
100
AcDbScale
 70
     0
300
1:1
140
1.0
141
1.0
290
     1
  0
SCALE
  5
49
102
{ACAD_REACTORS
330
47
102
}
330
47
100
AcDbScale
 70
     0
300
1:2
140
1.0
141
2.0
290
     0
  0
SCALE
  5
4A
102
{ACAD_REACTORS
330
47
102
}
330
47
100
AcDbScale
 70
     0
300
1:4
140
1.0
141
4.0
290
     0
  0
SCALE
  5
4B
102
{ACAD_REACTORS
330
47
102
}
330
47
100
AcDbScale
 70
     0
300
1:5
140
1.0
141
5.0
290
     0
  0
SCALE
  5
4C
102
{ACAD_REACTORS
330
47
102
}
330
47
100
AcDbScale
 70
     0
300
1:8
140
1.0
141
8.0
290
     0
  0
SCALE
  5
4D
102
{ACAD_REACTORS
330
47
102
}
330
47
100
AcDbScale
 70
     0
300
1:10
140
1.0
141
10.0
290
     0
  0
SCALE
  5
4E
102
{ACAD_REACTORS
330
47
102
}
330
47
100
AcDbScale
 70
     0
300
1:16
140
1.0
141
16.0
290
     0
  0
SCALE
  5
4F
102
{ACAD_REACTORS
330
47
102
}
330
47
100
AcDbScale
 70
     0
300
1:20
140
1.0
141
20.0
290
     0
  0
SCALE
  5
50
102
{ACAD_REACTORS
330
47
102
}
330
47
100
AcDbScale
 70
     0
300
1:30
140
1.0
141
30.0
290
     0
  0
SCALE
  5
51
102
{ACAD_REACTORS
330
47
102
}
330
47
100
AcDbScale
 70
     0
300
1:40
140
1.0
141
40.0
290
     0
  0
SCALE
  5
52
102
{ACAD_REACTORS
330
47
102
}
330
47
100
AcDbScale
 70
     0
300
1:50
140
1.0
141
50.0
290
     0
  0
SCALE
  5
53
102
{ACAD_REACTORS
330
47
102
}
330
47
100
AcDbScale
 70
     0
300
1:100
140
1.0
141
100.0
290
     0
  0
SCALE
  5
54
102
{ACAD_REACTORS
330
47
102
}
330
47
100
AcDbScale
 70
     0
300
2:1
140
2.0
141
1.0
290
     0
  0
SCALE
  5
55
102
{ACAD_REACTORS
330
47
102
}
330
47
100
AcDbScale
 70
     0
300
4:1
140
4.0
141
1.0
290
     0
  0
SCALE
  5
56
102
{ACAD_REACTORS
330
47
102
}
330
47
100
AcDbScale
 70
     0
300
8:1
140
8.0
141
1.0
290
     0
  0
SCALE
  5
57
102
{ACAD_REACTORS
330
47
102
}
330
47
100
AcDbScale
 70
     0
300
10:1
140
10.0
141
1.0
290
     0
  0
SCALE
  5
58
102
{ACAD_REACTORS
330
47
102
}
330
47
100
AcDbScale
 70
     0
300
100:1
140
100.0
141
1.0
290
     0
  0
SCALE
  5
59
102
{ACAD_REACTORS
330
47
102
}
330
47
100
AcDbScale
 70
     0
300
1/128" = 1'-0"
140
0.0078125
141
12.0
290
     0
  0
SCALE
  5
5A
102
{ACAD_REACTORS
330
47
102
}
330
47
100
AcDbScale
 70
     0
300
1/64" = 1'-0"
140
0.015625
141
12.0
290
     0
  0
SCALE
  5
5B
102
{ACAD_REACTORS
330
47
102
}
330
47
100
AcDbScale
 70
     0
300
1/32" = 1'-0"
140
0.03125
141
12.0
290
     0
  0
SCALE
  5
5C
102
{ACAD_REACTORS
330
47
102
}
330
47
100
AcDbScale
 70
     0
300
1/16" = 1'-0"
140
0.0625
141
12.0
290
     0
  0
SCALE
  5
5D
102
{ACAD_REACTORS
330
47
102
}
330
47
100
AcDbScale
 70
     0
300
3/32" = 1'-0"
140
0.09375
141
12.0
290
     0
  0
SCALE
  5
5E
102
{ACAD_REACTORS
330
47
102
}
330
47
100
AcDbScale
 70
     0
300
1/8" = 1'-0"
140
0.125
141
12.0
290
     0
  0
SCALE
  5
5F
102
{ACAD_REACTORS
330
47
102
}
330
47
100
AcDbScale
 70
     0
300
3/16" = 1'-0"
140
0.1875
141
12.0
290
     0
  0
SCALE
  5
60
102
{ACAD_REACTORS
330
47
102
}
330
47
100
AcDbScale
 70
     0
300
1/4" = 1'-0"
140
0.25
141
12.0
290
     0
  0
SCALE
  5
61
102
{ACAD_REACTORS
330
47
102
}
330
47
100
AcDbScale
 70
     0
300
3/8" = 1'-0"
140
0.375
141
12.0
290
     0
  0
SCALE
  5
62
102
{ACAD_REACTORS
330
47
102
}
330
47
100
AcDbScale
 70
     0
300
1/2" = 1'-0"
140
0.5
141
12.0
290
     0
  0
SCALE
  5
63
102
{ACAD_REACTORS
330
47
102
}
330
47
100
AcDbScale
 70
     0
300
3/4" = 1'-0"
140
0.75
141
12.0
290
     0
  0
SCALE
  5
64
102
{ACAD_REACTORS
330
47
102
}
330
47
100
AcDbScale
 70
     0
300
1" = 1'-0"
140
1.0
141
12.0
290
     0
  0
SCALE
  5
65
102
{ACAD_REACTORS
330
47
102
}
330
47
100
AcDbScale
 70
     0
300
1-1/2" = 1'-0"
140
1.5
141
12.0
290
     0
  0
SCALE
  5
66
102
{ACAD_REACTORS
330
47
102
}
330
47
100
AcDbScale
 70
     0
300
3" = 1'-0"
140
3.0
141
12.0
290
     0
  0
SCALE
  5
67
102
{ACAD_REACTORS
330
47
102
}
330
47
100
AcDbScale
 70
     0
300
6" = 1'-0"
140
6.0
141
12.0
290
     0
  0
SCALE
  5
68
102
{ACAD_REACTORS
330
47
102
}
330
47
100
AcDbScale
 70
     0
300
1'-0" = 1'-0"
140
12.0
141
12.0
290
     0
  0
ENDSEC
  0
EOF
