  0
SECTION
  2
HEADER
  9
$ACADVER
  1
AC1015
  9
$ACADMAINTVER
 70
     6
  9
$DWGCODEPAGE
  3
ANSI_949
  9
$INSBASE
 10
0.0
 20
0.0
 30
0.0
  9
$EXTMIN
 10
1.000000000000000E+20
 20
1.000000000000000E+20
 30
1.000000000000000E+20
  9
$EXTMAX
 10
-1.000000000000000E+20
 20
-1.000000000000000E+20
 30
-1.000000000000000E+20
  9
$LIMMIN
 10
0.0
 20
0.0
  9
$LIMMAX
 10
420.0
 20
297.0
  9
$ORTHOMODE
 70
     0
  9
$REGENMODE
 70
     1
  9
$FILLMODE
 70
     1
  9
$QTEXTMODE
 70
     0
  9
$MIRRTEXT
 70
     1
  9
$LTSCALE
 40
1.0
  9
$ATTMODE
 70
     1
  9
$TEXTSIZE
 40
3.5
  9
$TRACEWID
 40
1.0
  9
$TEXTSTYLE
  7
Standard
  9
$CLAYER
  8
0
  9
$CELTYPE
  6
ByLayer
  9
$CECOLOR
 62
   256
  9
$CELTSCALE
 40
1.0
  9
$DISPSILH
 70
     0
  9
$DIMSCALE
 40
1.0
  9
$DIMASZ
 40
3.302
  9
$DIMEXO
 40
1.0
  9
$DIMDLI
 40
3.75
  9
$DIMRND
 40
0.0
  9
$DIMDLE
 40
0.0
  9
$DIMEXE
 40
1.0
  9
$DIMTP
 40
0.0
  9
$DIMTM
 40
0.0
  9
$DIMTXT
 40
3.5
  9
$DIMCEN
 40
2.5
  9
$DIMTSZ
 40
0.0
  9
$DIMTOL
 70
     0
  9
$DIMLIM
 70
     0
  9
$DIMTIH
 70
     1
  9
$DIMTOH
 70
     1
  9
$DIMSE1
 70
     0
  9
$DIMSE2
 70
     0
  9
$DIMTAD
 70
     1
  9
$DIMZIN
 70
     0
  9
$DIMBLK
  1

  9
$DIMASO
 70
     1
  9
$DIMSHO
 70
     1
  9
$DIMPOST
  1

  9
$DIMAPOST
  1

  9
$DIMALT
 70
     0
  9
$DIMALTD
 70
     3
  9
$DIMALTF
 40
0.0393700787401575
  9
$DIMLFAC
 40
1.0
  9
$DIMTOFL
 70
     1
  9
$DIMTVP
 40
0.0
  9
$DIMTIX
 70
     0
  9
$DIMSOXD
 70
     0
  9
$DIMSAH
 70
     0
  9
$DIMBLK1
  1

  9
$DIMBLK2
  1

  9
$DIMSTYLE
  2
ISO-25
  9
$DIMCLRD
 70
     0
  9
$DIMCLRE
 70
     0
  9
$DIMCLRT
 70
     0
  9
$DIMTFAC
 40
1.0
  9
$DIMGAP
 40
1.524
  9
$DIMJUST
 70
     0
  9
$DIMSD1
 70
     0
  9
$DIMSD2
 70
     0
  9
$DIMTOLJ
 70
     0
  9
$DIMTZIN
 70
     0
  9
$DIMALTZ
 70
     0
  9
$DIMALTTZ
 70
     0
  9
$DIMUPT
 70
     0
  9
$DIMDEC
 70
     2
  9
$DIMTDEC
 70
     2
  9
$DIMALTU
 70
     2
  9
$DIMALTTD
 70
     3
  9
$DIMTXSTY
  7
Standard
  9
$DIMAUNIT
 70
     0
  9
$DIMADEC
 70
     2
  9
$DIMALTRND
 40
0.0
  9
$DIMAZIN
 70
     0
  9
$DIMDSEP
 70
    44
  9
$DIMATFIT
 70
     3
  9
$DIMFRAC
 70
     0
  9
$DIMLDRBLK
  1

  9
$DIMLUNIT
 70
     2
  9
$DIMLWD
 70
    -2
  9
$DIMLWE
 70
    -2
  9
$DIMTMOVE
 70
     0
  9
$LUNITS
 70
     2
  9
$LUPREC
 70
     2
  9
$SKETCHINC
 40
1.0
  9
$FILLETRAD
 40
10.0
  9
$AUNITS
 70
     0
  9
$AUPREC
 70
     2
  9
$MENU
  1
.
  9
$ELEVATION
 40
0.0
  9
$PELEVATION
 40
0.0
  9
$THICKNESS
 40
0.0
  9
$LIMCHECK
 70
     0
  9
$CHAMFERA
 40
0.0
  9
$CHAMFERB
 40
0.0
  9
$CHAMFERC
 40
0.0
  9
$CHAMFERD
 40
0.0
  9
$SKPOLY
 70
     0
  9
$TDCREATE
 40
2458288.656732326
  9
$TDUCREATE
 40
2458288.281732326
  9
$TDUPDATE
 40
2458295.696075243
  9
$TDUUPDATE
 40
2458295.321075243
  9
$TDINDWG
 40
0.0018306597
  9
$TDUSRTIMER
 40
2458295.319245069
  9
$USRTIMER
 70
     1
  9
$ANGBASE
 50
0.0
  9
$ANGDIR
 70
     0
  9
$PDMODE
 70
     0
  9
$PDSIZE
 40
-1.0
  9
$PLINEWID
 40
0.0
  9
$SPLFRAME
 70
     0
  9
$SPLINETYPE
 70
     6
  9
$SPLINESEGS
 70
     8
  9
$HANDSEED
  5
2A2
  9
$SURFTAB1
 70
     6
  9
$SURFTAB2
 70
     6
  9
$SURFTYPE
 70
     6
  9
$SURFU
 70
     6
  9
$SURFV
 70
     6
  9
$UCSBASE
  2

  9
$UCSNAME
  2

  9
$UCSORG
 10
0.0
 20
0.0
 30
0.0
  9
$UCSXDIR
 10
1.0
 20
0.0
 30
0.0
  9
$UCSYDIR
 10
0.0
 20
1.0
 30
0.0
  9
$UCSORTHOREF
  2

  9
$UCSORTHOVIEW
 70
     0
  9
$UCSORGTOP
 10
0.0
 20
0.0
 30
0.0
  9
$UCSORGBOTTOM
 10
0.0
 20
0.0
 30
0.0
  9
$UCSORGLEFT
 10
0.0
 20
0.0
 30
0.0
  9
$UCSORGRIGHT
 10
0.0
 20
0.0
 30
0.0
  9
$UCSORGFRONT
 10
0.0
 20
0.0
 30
0.0
  9
$UCSORGBACK
 10
0.0
 20
0.0
 30
0.0
  9
$PUCSBASE
  2

  9
$PUCSNAME
  2

  9
$PUCSORG
 10
0.0
 20
0.0
 30
0.0
  9
$PUCSXDIR
 10
1.0
 20
0.0
 30
0.0
  9
$PUCSYDIR
 10
0.0
 20
1.0
 30
0.0
  9
$PUCSORTHOREF
  2

  9
$PUCSORTHOVIEW
 70
     0
  9
$PUCSORGTOP
 10
0.0
 20
0.0
 30
0.0
  9
$PUCSORGBOTTOM
 10
0.0
 20
0.0
 30
0.0
  9
$PUCSORGLEFT
 10
0.0
 20
0.0
 30
0.0
  9
$PUCSORGRIGHT
 10
0.0
 20
0.0
 30
0.0
  9
$PUCSORGFRONT
 10
0.0
 20
0.0
 30
0.0
  9
$PUCSORGBACK
 10
0.0
 20
0.0
 30
0.0
  9
$USERI1
 70
     0
  9
$USERI2
 70
     0
  9
$USERI3
 70
     0
  9
$USERI4
 70
     0
  9
$USERI5
 70
     0
  9
$USERR1
 40
0.0
  9
$USERR2
 40
0.0
  9
$USERR3
 40
0.0
  9
$USERR4
 40
0.0
  9
$USERR5
 40
0.0
  9
$WORLDVIEW
 70
     1
  9
$SHADEDGE
 70
     3
  9
$SHADEDIF
 70
    70
  9
$TILEMODE
 70
     1
  9
$MAXACTVP
 70
    64
  9
$PINSBASE
 10
0.0
 20
0.0
 30
0.0
  9
$PLIMCHECK
 70
     0
  9
$PEXTMIN
 10
1.000000000000000E+20
 20
1.000000000000000E+20
 30
1.000000000000000E+20
  9
$PEXTMAX
 10
-1.000000000000000E+20
 20
-1.000000000000000E+20
 30
-1.000000000000000E+20
  9
$PLIMMIN
 10
0.0
 20
0.0
  9
$PLIMMAX
 10
0.0
 20
0.0
  9
$UNITMODE
 70
     0
  9
$VISRETAIN
 70
     1
  9
$PLINEGEN
 70
     0
  9
$PSLTSCALE
 70
     1
  9
$TREEDEPTH
 70
  3020
  9
$CMLSTYLE
  2
Standard
  9
$CMLJUST
 70
     0
  9
$CMLSCALE
 40
20.0
  9
$PROXYGRAPHICS
 70
     1
  9
$MEASUREMENT
 70
     1
  9
$CELWEIGHT
370
    -1
  9
$ENDCAPS
280
     0
  9
$JOINSTYLE
280
     0
  9
$LWDISPLAY
290
     1
  9
$INSUNITS
 70
     4
  9
$HYPERLINKBASE
  1

  9
$STYLESHEET
  1

  9
$XEDIT
290
     1
  9
$CEPSNTYPE
380
     0
  9
$PSTYLEMODE
290
     1
  9
$FINGERPRINTGUID
  2
{95D1F9AB-0508-4360-9950-E3B6D067B9C6}
  9
$VERSIONGUID
  2
{FAEB1C32-E019-11D5-929B-00C0DF256EC4}
  9
$EXTNAMES
290
     1
  9
$PSVPSCALE
 40
0.0
  9
$OLESTARTUP
290
     0
  0
ENDSEC
  0
SECTION
  2
CLASSES
  0
CLASS
  1
ACDBDICTIONARYWDFLT
  2
AcDbDictionaryWithDefault
  3
ObjectDBX Classes
 90
        0
280
     0
281
     0
  0
CLASS
  1
VISUALSTYLE
  2
AcDbVisualStyle
  3
ObjectDBX Classes
 90
     4095
280
     0
281
     0
  0
CLASS
  1
MATERIAL
  2
AcDbMaterial
  3
ObjectDBX Classes
 90
     1153
280
     0
281
     0
  0
CLASS
  1
SCALE
  2
AcDbScale
  3
ObjectDBX Classes
 90
     1153
280
     0
281
     0
  0
CLASS
  1
SUN
  2
AcDbSun
  3
SCENEOE
 90
     1153
280
     0
281
     0
  0
CLASS
  1
ACDBPLACEHOLDER
  2
AcDbPlaceHolder
  3
ObjectDBX Classes
 90
        0
280
     0
281
     0
  0
CLASS
  1
LAYOUT
  2
AcDbLayout
  3
ObjectDBX Classes
 90
        0
280
     0
281
     0
  0
CLASS
  1
TABLESTYLE
  2
AcDbTableStyle
  3
ObjectDBX Classes
 90
     4095
280
     0
281
     0
  0
CLASS
  1
MLEADERSTYLE
  2
AcDbMLeaderStyle
  3
ACDB_MLEADERSTYLE_CLASS
 90
     4095
280
     0
281
     0
  0
CLASS
  1
RASTERVARIABLES
  2
AcDbRasterVariables
  3
ISM
 90
        0
280
     0
281
     0
  0
CLASS
  1
DIMASSOC
  2
AcDbDimAssoc
  3
"AcDbDimAssoc|Product Desc:     AcDim ARX App For Dimension|Company:          Autodesk, Inc.|WEB Address:      www.autodesk.com"
 90
        0
280
     0
281
     0
  0
ENDSEC
  0
SECTION
  2
TABLES
  0
TABLE
  2
VPORT
  5
8
330
0
100
AcDbSymbolTable
 70
     1
  0
VPORT
  5
29
330
8
100
AcDbSymbolTableRecord
100
AcDbViewportTableRecord
  2
*Active
 70
     0
 10
0.0
 20
0.0
 11
1.0
 21
1.0
 12
-2.088695475283984
 22
-9.937183985042203
 13
0.0
 23
0.0
 14
10.0
 24
10.0
 15
10.0
 25
10.0
 16
0.0
 26
0.0
 36
1.0
 17
0.0
 27
0.0
 37
0.0
 40
113.1945781447712
 41
1.859099804305284
 42
50.0
 43
0.0
 44
0.0
 50
0.0
 51
0.0
 71
    16
 72
  2000
 73
     1
 74
     3
 75
     0
 76
     0
 77
     0
 78
     0
281
     0
 65
     1
110
0.0
120
0.0
130
0.0
111
1.0
121
0.0
131
0.0
112
0.0
122
1.0
132
0.0
 79
     0
146
0.0
  0
ENDTAB
  0
TABLE
  2
LTYPE
  5
5
330
0
100
AcDbSymbolTable
 70
     6
  0
LTYPE
  5
14
330
5
100
AcDbSymbolTableRecord
100
AcDbLinetypeTableRecord
  2
ByBlock
 70
     0
  3

 72
    65
 73
     0
 40
0.0
  0
LTYPE
  5
15
330
5
100
AcDbSymbolTableRecord
100
AcDbLinetypeTableRecord
  2
ByLayer
 70
     0
  3

 72
    65
 73
     0
 40
0.0
  0
LTYPE
  5
16
330
5
100
AcDbSymbolTableRecord
100
AcDbLinetypeTableRecord
  2
Continuous
 70
     0
  3
Solid line
 72
    65
 73
     0
 40
0.0
  0
LTYPE
  5
6A
330
5
100
AcDbSymbolTableRecord
100
AcDbLinetypeTableRecord
  2
HIDDEN
 70
     0
  3
Hidden __ __ __ __ __ __ __ __ __ __ __ __ __ __
 72
    65
 73
     2
 40
1.905
 49
1.27
 74
     0
 49
-0.635
 74
     0
  0
LTYPE
  5
6B
330
5
100
AcDbSymbolTableRecord
100
AcDbLinetypeTableRecord
  2
PHANTOM
 70
     0
  3
Phantom ______  __  __  ______  __  __  ______
 72
    65
 73
     6
 40
12.7
 49
6.35
 74
     0
 49
-1.27
 74
     0
 49
1.27
 74
     0
 49
-1.27
 74
     0
 49
1.27
 74
     0
 49
-1.27
 74
     0
  0
LTYPE
  5
6C
330
5
100
AcDbSymbolTableRecord
100
AcDbLinetypeTableRecord
  2
CENTER
 70
     0
  3
Center ____ _ ____ _ ____ _ ____ _ ____ _ ____
 72
    65
 73
     4
 40
10.16
 49
6.35
 74
     0
 49
-1.27
 74
     0
 49
1.27
 74
     0
 49
-1.27
 74
     0
  0
LTYPE
  5
6D
330
5
100
AcDbSymbolTableRecord
100
AcDbLinetypeTableRecord
  2
CENTERX2
 70
     0
  3
Center (2x) ________  __  ________  __  _____
 72
    65
 73
     4
 40
20.32
 49
12.7
 74
     0
 49
-2.54
 74
     0
 49
2.54
 74
     0
 49
-2.54
 74
     0
  0
LTYPE
  5
6E
330
5
100
AcDbSymbolTableRecord
100
AcDbLinetypeTableRecord
  2
DOT2
 70
     0
  3
Dot (.5x) ........................................
 72
    65
 73
     2
 40
0.635
 49
0.0
 74
     0
 49
-0.635
 74
     0
  0
ENDTAB
  0
TABLE
  2
LAYER
  5
2
102
{ACAD_XDICTIONARY
360
20B
102
}
330
0
100
AcDbSymbolTable
 70
    18
  0
LAYER
  5
10
330
2
100
AcDbSymbolTableRecord
100
AcDbLayerTableRecord
  2
0
 70
     0
 62
     7
  6
Continuous
370
    -3
390
F
  0
LAYER
  5
6F
330
2
100
AcDbSymbolTableRecord
100
AcDbLayerTableRecord
  2
FORMAT
 70
     0
 62
     2
  6
Continuous
370
    -3
390
F
  0
LAYER
  5
70
330
2
100
AcDbSymbolTableRecord
100
AcDbLayerTableRecord
  2
외형선
 70
     0
 62
     4
  6
Continuous
370
    30
390
F
  0
LAYER
  5
71
330
2
100
AcDbSymbolTableRecord
100
AcDbLayerTableRecord
  2
숨은선
 70
     0
 62
     2
  6
HIDDEN
370
    15
390
F
  0
LAYER
  5
72
330
2
100
AcDbSymbolTableRecord
100
AcDbLayerTableRecord
  2
중심선
 70
     0
 62
     1
  6
CENTERX2
370
    -3
390
F
  0
LAYER
  5
73
330
2
100
AcDbSymbolTableRecord
100
AcDbLayerTableRecord
  2
파단선
 70
     0
 62
     4
  6
Continuous
370
    -3
390
F
  0
LAYER
  5
74
330
2
100
AcDbSymbolTableRecord
100
AcDbLayerTableRecord
  2
해칭선
 70
     0
 62
   100
  6
Continuous
370
    -3
390
F
  0
LAYER
  5
75
330
2
100
AcDbSymbolTableRecord
100
AcDbLayerTableRecord
  2
가는실선
 70
     0
 62
     4
  6
Continuous
370
    -3
390
F
  0
LAYER
  5
76
330
2
100
AcDbSymbolTableRecord
100
AcDbLayerTableRecord
  2
치수_보조선
 70
     0
 62
     4
  6
Continuous
370
    -3
390
F
  0
LAYER
  5
77
330
2
100
AcDbSymbolTableRecord
100
AcDbLayerTableRecord
  2
치수문자_일반주서
 70
     0
 62
     7
  6
Continuous
370
    15
390
F
  0
LAYER
  5
78
330
2
100
AcDbSymbolTableRecord
100
AcDbLayerTableRecord
  2
개별주서
 70
     0
 62
   100
  6
Continuous
370
    30
390
F
  0
LAYER
  5
79
330
2
100
AcDbSymbolTableRecord
100
AcDbLayerTableRecord
  2
중간선
 70
     0
 62
     2
  6
Continuous
370
    15
390
F
  0
LAYER
  5
7A
330
2
100
AcDbSymbolTableRecord
100
AcDbLayerTableRecord
  2
윤곽선
 70
     0
 62
     3
  6
Continuous
370
    40
390
F
  0
LAYER
  5
7B
330
2
100
AcDbSymbolTableRecord
100
AcDbLayerTableRecord
  2
중심마크
 70
     0
 62
   100
  6
Continuous
370
    30
390
F
  0
LAYER
  5
7C
330
2
100
AcDbSymbolTableRecord
100
AcDbLayerTableRecord
  2
가상선
 70
     0
 62
     4
  6
PHANTOM
370
    -3
390
F
  0
LAYER
  5
7D
330
2
100
AcDbSymbolTableRecord
100
AcDbLayerTableRecord
  2
특수지정선
 70
     0
 62
     5
  6
CENTERX2
370
    60
390
F
  0
LAYER
  5
7E
330
2
100
AcDbSymbolTableRecord
100
AcDbLayerTableRecord
  2
참조1
 70
     0
 62
    -4
  6
Continuous
370
    -3
390
F
  0
LAYER
  5
15A
330
2
100
AcDbSymbolTableRecord
100
AcDbLayerTableRecord
  2
Defpoints
 70
     0
 62
     7
  6
Continuous
290
     0
370
    -3
390
F
  0
ENDTAB
  0
TABLE
  2
STYLE
  5
3
330
0
100
AcDbSymbolTable
 70
     2
  0
STYLE
  5
11
330
3
100
AcDbSymbolTableRecord
100
AcDbTextStyleTableRecord
  2
Standard
 70
     0
 40
0.0
 41
1.0
 50
0.0
 71
     0
 42
3.5
  3
txt
  4

  0
STYLE
  5
94
330
3
100
AcDbSymbolTableRecord
100
AcDbTextStyleTableRecord
  2
SLDTEXTSTYLE0
 70
     0
 40
0.0
 41
0.75
 50
0.0
 71
     0
 42
3.5
  3
TXT
  4

  0
ENDTAB
  0
TABLE
  2
VIEW
  5
6
330
0
100
AcDbSymbolTable
 70
     0
  0
ENDTAB
  0
TABLE
  2
UCS
  5
7
330
0
100
AcDbSymbolTable
 70
     0
  0
ENDTAB
  0
TABLE
  2
APPID
  5
9
330
0
100
AcDbSymbolTable
 70
     2
  0
APPID
  5
12
330
9
100
AcDbSymbolTableRecord
100
AcDbRegAppTableRecord
  2
ACAD
 70
     0
  0
APPID
  5
166
330
9
100
AcDbSymbolTableRecord
100
AcDbRegAppTableRecord
  2
ACAD_DSTYLE_DIMRADIAL_EXTENSION
 70
     0
  0
ENDTAB
  0
TABLE
  2
DIMSTYLE
  5
A
330
0
100
AcDbSymbolTable
 70
     3
100
AcDbDimStyleTable
  0
DIMSTYLE
105
27
330
A
100
AcDbSymbolTableRecord
100
AcDbDimStyleTableRecord
  2
ISO-25
 70
     0
 41
2.5
 42
0.625
 43
3.75
 44
1.25
 73
     0
 74
     0
 77
     1
 78
     8
140
2.5
141
2.5
143
0.03937007874016
147
0.625
171
     3
172
     1
178
     0
271
     2
272
     2
274
     3
278
    44
283
     0
284
     8
340
11
  0
DIMSTYLE
105
D7
102
{ACAD_REACTORS
330
1BA
330
1C7
330
1D7
330
1E7
330
1FE
330
245
330
246
330
247
330
248
330
294
102
}
330
A
100
AcDbSymbolTableRecord
100
AcDbDimStyleTableRecord
  2
SLDDIMSTYLE0
 70
     0
 41
3.302
 44
0.0
 45
0.000000001
 73
     0
 74
     0
 77
     1
 78
    12
 79
     3
140
3.5
143
0.0393700787401575
147
0.875
148
0.000000001
170
     1
172
     1
173
     1
178
     0
271
     2
272
     2
276
     2
284
    12
289
     0
340
94
  0
DIMSTYLE
105
115
330
A
100
AcDbSymbolTableRecord
100
AcDbDimStyleTableRecord
  2
SLDDIMSTYLE1
 70
     0
 41
3.302
 44
0.0
 45
0.000000001
 73
     0
 74
     0
 77
     1
 78
     4
 79
     1
140
3.5
143
0.0393700787401575
147
0.875
148
0.000000001
170
     1
173
     1
178
     0
271
     2
272
     2
276
     2
284
    12
340
94
  0
ENDTAB
  0
TABLE
  2
BLOCK_RECORD
  5
1
330
0
100
AcDbSymbolTable
 70
    19
  0
BLOCK_RECORD
  5
1F
330
1
100
AcDbSymbolTableRecord
100
AcDbBlockTableRecord
  2
*Model_Space
340
22
  0
BLOCK_RECORD
  5
1B
330
1
100
AcDbSymbolTableRecord
100
AcDbBlockTableRecord
  2
*Paper_Space
340
1E
  0
BLOCK_RECORD
  5
23
330
1
100
AcDbSymbolTableRecord
100
AcDbBlockTableRecord
  2
*Paper_Space0
340
26
  0
BLOCK_RECORD
  5
7F
330
1
100
AcDbSymbolTableRecord
100
AcDbBlockTableRecord
  2
블럭10
340
0
102
{BLKREFS
331
CF
102
}
  0
BLOCK_RECORD
  5
D8
330
1
100
AcDbSymbolTableRecord
100
AcDbBlockTableRecord
  2
_D
340
0
  0
BLOCK_RECORD
  5
EC
330
1
100
AcDbSymbolTableRecord
100
AcDbBlockTableRecord
  2
_D_1
340
0
  0
BLOCK_RECORD
  5
100
330
1
100
AcDbSymbolTableRecord
100
AcDbBlockTableRecord
  2
_D_2
340
0
  0
BLOCK_RECORD
  5
116
330
1
100
AcDbSymbolTableRecord
100
AcDbBlockTableRecord
  2
_D_3
340
0
  0
BLOCK_RECORD
  5
12F
330
1
100
AcDbSymbolTableRecord
100
AcDbBlockTableRecord
  2
SW_DOWELSYMBOL_0
340
0
102
{BLKREFS
331
0
331
1F4
331
249
102
}
  0
BLOCK_RECORD
  5
1BB
330
1
100
AcDbSymbolTableRecord
100
AcDbBlockTableRecord
  2
*D8
340
0
  0
BLOCK_RECORD
  5
1C8
330
1
100
AcDbSymbolTableRecord
100
AcDbBlockTableRecord
  2
*D9
340
0
  0
BLOCK_RECORD
  5
1D8
330
1
100
AcDbSymbolTableRecord
100
AcDbBlockTableRecord
  2
*D10
340
0
  0
BLOCK_RECORD
  5
1E8
330
1
100
AcDbSymbolTableRecord
100
AcDbBlockTableRecord
  2
*D11
340
0
  0
BLOCK_RECORD
  5
201
330
1
100
AcDbSymbolTableRecord
100
AcDbBlockTableRecord
  2
*D12
340
0
  0
BLOCK_RECORD
  5
251
330
1
100
AcDbSymbolTableRecord
100
AcDbBlockTableRecord
  2
*D13
340
0
  0
BLOCK_RECORD
  5
25D
330
1
100
AcDbSymbolTableRecord
100
AcDbBlockTableRecord
  2
*D14
340
0
  0
BLOCK_RECORD
  5
26C
330
1
100
AcDbSymbolTableRecord
100
AcDbBlockTableRecord
  2
*D15
340
0
  0
BLOCK_RECORD
  5
27B
330
1
100
AcDbSymbolTableRecord
100
AcDbBlockTableRecord
  2
*D16
340
0
  0
BLOCK_RECORD
  5
287
330
1
100
AcDbSymbolTableRecord
100
AcDbBlockTableRecord
  2
*D17
340
0
  0
BLOCK_RECORD
  5
297
330
1
100
AcDbSymbolTableRecord
100
AcDbBlockTableRecord
  2
*D18
340
0
  0
ENDTAB
  0
ENDSEC
  0
SECTION
  2
BLOCKS
  0
BLOCK
  5
20
330
1F
100
AcDbEntity
  8
0
100
AcDbBlockBegin
  2
*Model_Space
 70
     0
 10
0.0
 20
0.0
 30
0.0
  3
*Model_Space
  1
*Model_Space
  0
ENDBLK
  5
21
330
1F
100
AcDbEntity
  8
0
100
AcDbBlockEnd
  0
BLOCK
  5
1C
330
1B
100
AcDbEntity
 67
     1
  8
0
100
AcDbBlockBegin
  2
*Paper_Space
 70
     0
 10
0.0
 20
0.0
 30
0.0
  3
*Paper_Space
  1
*Paper_Space
  0
ENDBLK
  5
1D
330
1B
100
AcDbEntity
 67
     1
  8
0
100
AcDbBlockEnd
  0
BLOCK
  5
24
330
23
100
AcDbEntity
  8
0
100
AcDbBlockBegin
  2
*Paper_Space0
 70
     0
 10
0.0
 20
0.0
 30
0.0
  3
*Paper_Space0
  1
*Paper_Space0
  0
ENDBLK
  5
25
330
23
100
AcDbEntity
  8
0
100
AcDbBlockEnd
  0
BLOCK
  5
80
330
7F
100
AcDbEntity
  8
0
100
AcDbBlockBegin
  2
블럭10
 70
     2
 10
0.0
 20
0.0
 30
0.0
  3
블럭10
  1
블럭10
  0
ELLIPSE
  5
82
330
7F
100
AcDbEntity
  8
중심선
100
AcDbEllipse
 10
20.54032771741204
 20
12.0471743016438
 30
0.0
 11
6.600054785286829
 21
-1.261213355974178E-13
 31
0.0
210
0.0
220
0.0
230
1.0
 40
0.636358354079598
 41
0.9219305317359503
 42
6.513795318482858
  0
ELLIPSE
  5
83
330
7F
100
AcDbEntity
  8
중심선
100
AcDbEllipse
 10
20.54032771746488
 20
12.04717430159265
 30
0.0
 11
3.960054785062283
 21
1.540847449632565E-10
 31
0.0
210
0.0
220
0.0
230
1.0
 40
0.3939339440162632
 41
1.131841032648279
 42
5.62031148352944
  0
LINE
  5
84
330
7F
100
AcDbEntity
  8
중심선
100
AcDbLine
 10
2.268634060543552
 20
16.24717430164393
 30
0.0
 11
5.714909304380834
 21
16.24717430164393
 31
0.0
  0
LINE
  5
85
330
7F
100
AcDbEntity
  8
중심선
100
AcDbLine
 10
5.245725140726316
 20
7.84717430164391
 30
0.0
 11
8.692000384563599
 21
7.84717430164391
 31
0.0
  0
LINE
  5
86
330
7F
100
AcDbEntity
  8
중심선
100
AcDbLine
 10
15.74043728645272
 20
16.24717430164393
 30
0.0
 11
8.692000384563599
 21
7.84717430164391
 31
0.0
  0
LINE
  5
87
330
7F
100
AcDbEntity
  8
중심선
100
AcDbLine
 10
0.1404042013395286
 20
13.71084872107135
 30
0.0
 11
3.58671253028996
 21
13.71088815037384
 31
0.0
  0
LINE
  5
88
330
7F
100
AcDbEntity
  8
중심선
100
AcDbLine
 10
2.750260043222114
 20
10.84717430164391
 30
0.0
 11
6.196535287059397
 21
10.84717430164391
 31
0.0
  0
LINE
  5
89
330
7F
100
AcDbEntity
  8
중심선
100
AcDbLine
 10
12.29416204261559
 20
16.24717430164393
 30
0.0
 11
5.245725140726316
 21
7.84717430164391
 31
0.0
  0
LINE
  5
8A
330
7F
100
AcDbEntity
  8
중심선
100
AcDbLine
 10
10.72767329541681
 20
16.24717430164393
 30
0.0
 11
6.196535287059397
 21
10.84717430164391
 31
0.0
  0
LINE
  5
8B
330
7F
100
AcDbEntity
  8
중심선
100
AcDbLine
 10
7.28139805157953
 20
16.24717430164393
 30
0.0
 11
2.750260043222114
 21
10.84717430164391
 31
0.0
  0
LINE
  5
8C
330
7F
100
AcDbEntity
  8
중심선
100
AcDbLine
 10
5.714909304380834
 20
16.24717430164393
 30
0.0
 11
3.58671253028996
 21
13.71088815037384
 31
0.0
  0
LINE
  5
8D
330
7F
100
AcDbEntity
  8
중심선
100
AcDbLine
 10
2.268634060543552
 20
16.24717430164393
 30
0.0
 11
0.1404042013395286
 21
13.71084872107135
 31
0.0
  0
LINE
  5
8E
330
7F
100
AcDbEntity
  8
중심선
100
AcDbLine
 10
7.28139805157953
 20
16.24717430164393
 30
0.0
 11
10.72767329541681
 21
16.24717430164393
 31
0.0
  0
LINE
  5
8F
330
7F
100
AcDbEntity
  8
중심선
100
AcDbLine
 10
12.29416204261559
 20
16.24717430164393
 30
0.0
 11
15.74043728645272
 21
16.24717430164393
 31
0.0
  0
LINE
  5
90
330
7F
100
AcDbEntity
  8
중심선
100
AcDbLine
 10
19.22036997980202
 20
11.08717430171403
 30
0.0
 11
23.66174974927406
 21
11.08717430171406
 31
0.0
  0
LINE
  5
91
330
7F
100
AcDbEntity
  8
중심선
100
AcDbLine
 10
19.22039502424796
 20
13.00717430171391
 30
0.0
 11
19.22036997980202
 21
11.08717430171403
 31
0.0
  0
LINE
  5
92
330
7F
100
AcDbEntity
  8
중심선
100
AcDbLine
 10
19.22039502424796
 20
13.00717430171391
 30
0.0
 11
26.96566020931264
 21
13.00717430171391
 31
0.0
  0
LINE
  5
93
330
7F
100
AcDbEntity
  8
중심선
100
AcDbLine
 10
22.22332737316547
 20
13.45928029700563
 30
0.0
 11
24.52862924686651
 21
15.39360700705356
 31
0.0
  0
ATTDEF
  5
95
330
7F
100
AcDbEntity
  8
FORMAT
 62
     2
100
AcDbText
 10
3.448148490846466
 20
2.075366912832191
 30
0.0
 40
4.233333333333333
  1
EM637908
 41
0.75
  7
SLDTEXTSTYLE0
 11
3.448148490846466
 21
-0.0412997538344756
 31
0.0
100
AcDbAttributeDefinition
  3

  2
AUTOATTR0
 70
     0
 74
     1
  0
ENDBLK
  5
81
330
7F
100
AcDbEntity
  8
0
100
AcDbBlockEnd
  0
BLOCK
  5
D9
330
D8
100
AcDbEntity
  8
0
100
AcDbBlockBegin
  2
_D
 70
     0
 10
0.0
 20
0.0
 30
0.0
  3
_D
  1
_D
  0
SOLID
  5
DB
330
D8
100
AcDbEntity
  8
치수문자_일반주서
100
AcDbTrace
 10
-58.25250000000001
 20
3.969824928723885
 30
0.0
 11
-57.74450000000001
 21
7.271824928723885
 31
0.0
 12
-58.76050000000001
 22
7.271824928723885
 32
0.0
 13
-58.76050000000001
 23
7.271824928723885
 33
0.0
  0
SOLID
  5
DC
330
D8
100
AcDbEntity
  8
치수문자_일반주서
100
AcDbTrace
 10
-58.25250000000001
 20
-3.967675071276101
 30
0.0
 11
-58.76050000000001
 21
-7.269675071276101
 31
0.0
 12
-57.74450000000001
 22
-7.269675071276101
 32
0.0
 13
-57.74450000000001
 23
-7.269675071276101
 33
0.0
  0
LINE
  5
DD
330
D8
100
AcDbEntity
  8
치수문자_일반주서
100
AcDbLine
 10
-69.04538171604274
 20
-5.413291502344828
 30
0.0
 11
-69.04538171604274
 21
-6.124228987909328
 31
0.0
  0
LINE
  5
DE
330
D8
100
AcDbEntity
  8
치수문자_일반주서
100
AcDbLine
 10
-69.04538171604274
 20
-6.124228987909328
 30
0.0
 11
-63.48913172498344
 21
-6.124228987909289
 31
0.0
  0
LINE
  5
DF
330
D8
100
AcDbEntity
  8
치수문자_일반주서
100
AcDbLine
 10
-63.48913172498344
 20
-6.124228987909289
 30
0.0
 11
-63.48913172498344
 21
-5.413291502344789
 31
0.0
  0
LINE
  5
E0
330
D8
100
AcDbEntity
  8
치수문자_일반주서
100
AcDbLine
 10
-69.04538171604283
 20
5.41544135979243
 30
0.0
 11
-69.04538171604283
 21
6.12637884535693
 31
0.0
  0
LINE
  5
E1
330
D8
100
AcDbEntity
  8
치수문자_일반주서
100
AcDbLine
 10
-69.04538171604283
 20
6.12637884535693
 30
0.0
 11
-63.48913172498352
 21
6.126378845356969
 31
0.0
  0
LINE
  5
E2
330
D8
100
AcDbEntity
  8
치수문자_일반주서
100
AcDbLine
 10
-63.48913172498352
 20
6.126378845356969
 30
0.0
 11
-63.48913172498352
 21
5.415441359792469
 31
0.0
  0
LINE
  5
E3
330
D8
100
AcDbEntity
  8
치수문자_일반주서
100
AcDbLine
 10
-45.7525
 20
3.969824928723886
 30
0.0
 11
-59.25250000000001
 21
3.969824928723885
 31
0.0
  0
LINE
  5
E4
330
D8
100
AcDbEntity
  8
치수문자_일반주서
100
AcDbLine
 10
-45.7525
 20
-3.9676750712761
 30
0.0
 11
-59.25250000000001
 21
-3.967675071276101
 31
0.0
  0
LINE
  5
E5
330
D8
100
AcDbEntity
  8
치수문자_일반주서
100
AcDbLine
 10
-58.25250000000001
 20
3.969824928723885
 30
0.0
 11
-58.25250000000001
 21
10.31982492872388
 31
0.0
  0
LINE
  5
E6
330
D8
100
AcDbEntity
  8
치수문자_일반주서
100
AcDbLine
 10
-58.25250000000001
 20
3.969824928723885
 30
0.0
 11
-58.25250000000001
 21
-3.967675071276101
 31
0.0
  0
LINE
  5
E7
330
D8
100
AcDbEntity
  8
치수문자_일반주서
100
AcDbLine
 10
-58.25250000000001
 20
-3.967675071276101
 30
0.0
 11
-58.25250000000001
 21
-10.3176750712761
 31
0.0
  0
MTEXT
  5
E8
330
D8
100
AcDbEntity
  8
치수문자_일반주서
100
AcDbMText
 10
-68.00086863956236
 20
-4.52461960173345
 30
0.0
 40
3.5
 41
0.0
 71
     1
 72
     1
  1
0.31
  7
SLDTEXTSTYLE0
 11
-7.044195017643634E-15
 21
1.0
 31
0.0
 73
     1
 44
1.0
  0
MTEXT
  5
E9
330
D8
100
AcDbEntity
  8
치수문자_일반주서
100
AcDbMText
 10
-62.76423708920186
 20
-7.163838766581741
 30
0.0
 40
3.5
 41
0.0
 71
     1
 72
     1
  1
%%c
  7
SLDTEXTSTYLE0
 11
-7.044195017643634E-15
 21
1.0
 31
0.0
 73
     1
 44
1.0
  0
MTEXT
  5
EA
330
D8
100
AcDbEntity
  8
치수문자_일반주서
100
AcDbMText
 10
-62.76423708920188
 20
-1.88540136820766
 30
0.0
 40
3.5
 41
0.0
 71
     1
 72
     1
  1
7.94
  7
SLDTEXTSTYLE0
 11
-7.044195017643634E-15
 21
1.0
 31
0.0
 73
     1
 44
1.0
  0
ENDBLK
  5
DA
330
D8
100
AcDbEntity
  8
0
100
AcDbBlockEnd
  0
BLOCK
  5
ED
330
EC
100
AcDbEntity
  8
0
100
AcDbBlockBegin
  2
_D_1
 70
     0
 10
0.0
 20
0.0
 30
0.0
  3
_D_1
  1
_D_1
  0
SOLID
  5
EF
330
EC
100
AcDbEntity
  8
치수문자_일반주서
100
AcDbTrace
 10
48.05000000000007
 20
3.176074928723893
 30
0.0
 11
48.55800000000007
 21
6.478074928723892
 31
0.0
 12
47.54200000000007
 22
6.478074928723892
 32
0.0
 13
47.54200000000007
 23
6.478074928723892
 33
0.0
  0
SOLID
  5
F0
330
EC
100
AcDbEntity
  8
치수문자_일반주서
100
AcDbTrace
 10
48.05000000000007
 20
-3.17392507127611
 30
0.0
 11
47.54200000000007
 21
-6.475925071276111
 31
0.0
 12
48.55800000000007
 22
-6.475925071276111
 32
0.0
 13
48.55800000000007
 23
-6.475925071276111
 33
0.0
  0
LINE
  5
F1
330
EC
100
AcDbEntity
  8
치수문자_일반주서
100
AcDbLine
 10
37.25711828395732
 20
7.781934058003486
 30
0.0
 11
37.25711828395733
 21
7.070996572438986
 31
0.0
  0
LINE
  5
F2
330
EC
100
AcDbEntity
  8
치수문자_일반주서
100
AcDbLine
 10
37.25711828395733
 20
7.070996572438986
 30
0.0
 11
42.81336827501663
 21
7.070996572439025
 31
0.0
  0
LINE
  5
F3
330
EC
100
AcDbEntity
  8
치수문자_일반주서
100
AcDbLine
 10
42.81336827501663
 20
7.070996572439025
 30
0.0
 11
42.81336827501662
 21
7.781934058003525
 31
0.0
  0
LINE
  5
F4
330
EC
100
AcDbEntity
  8
치수문자_일반주서
100
AcDbLine
 10
37.25711828395725
 20
18.61066692014075
 30
0.0
 11
37.25711828395725
 21
19.32160440570525
 31
0.0
  0
LINE
  5
F5
330
EC
100
AcDbEntity
  8
치수문자_일반주서
100
AcDbLine
 10
37.25711828395725
 20
19.32160440570525
 30
0.0
 11
42.81336827501655
 21
19.32160440570528
 31
0.0
  0
LINE
  5
F6
330
EC
100
AcDbEntity
  8
치수문자_일반주서
100
AcDbLine
 10
42.81336827501655
 20
19.32160440570528
 30
0.0
 11
42.81336827501656
 21
18.61066692014078
 31
0.0
  0
LINE
  5
F7
330
EC
100
AcDbEntity
  8
치수문자_일반주서
100
AcDbLine
 10
14.53767706952182
 20
3.176074928723895
 30
0.0
 11
49.05000000000007
 21
3.176074928723893
 31
0.0
  0
LINE
  5
F8
330
EC
100
AcDbEntity
  8
치수문자_일반주서
100
AcDbLine
 10
14.53767706952182
 20
-3.173925071276109
 30
0.0
 11
49.05000000000007
 21
-3.17392507127611
 31
0.0
  0
LINE
  5
F9
330
EC
100
AcDbEntity
  8
치수문자_일반주서
100
AcDbLine
 10
48.05000000000007
 20
3.176074928723893
 30
0.0
 11
48.05000000000007
 21
20.36121418437776
 31
0.0
  0
LINE
  5
FA
330
EC
100
AcDbEntity
  8
치수문자_일반주서
100
AcDbLine
 10
48.05000000000007
 20
3.176074928723893
 30
0.0
 11
48.05000000000007
 21
-3.17392507127611
 31
0.0
  0
LINE
  5
FB
330
EC
100
AcDbEntity
  8
치수문자_일반주서
100
AcDbLine
 10
48.05000000000007
 20
-3.17392507127611
 30
0.0
 11
48.05000000000007
 21
-9.52392507127611
 31
0.0
  0
MTEXT
  5
FC
330
EC
100
AcDbEntity
  8
치수문자_일반주서
100
AcDbMText
 10
38.30163136043773
 20
8.670605958614866
 30
0.0
 40
3.5
 41
0.0
 71
     1
 72
     1
  1
0.25
  7
SLDTEXTSTYLE0
 11
-7.044195017643634E-15
 21
1.0
 31
0.0
 73
     1
 44
1.0
  0
MTEXT
  5
FD
330
EC
100
AcDbEntity
  8
치수문자_일반주서
100
AcDbMText
 10
43.53826291079822
 20
6.031386793766572
 30
0.0
 40
3.5
 41
0.0
 71
     1
 72
     1
  1
%%c
  7
SLDTEXTSTYLE0
 11
-7.044195017643634E-15
 21
1.0
 31
0.0
 73
     1
 44
1.0
  0
MTEXT
  5
FE
330
EC
100
AcDbEntity
  8
치수문자_일반주서
100
AcDbMText
 10
43.53826291079818
 20
11.30982419214065
 30
0.0
 40
3.5
 41
0.0
 71
     1
 72
     1
  1
6.35
  7
SLDTEXTSTYLE0
 11
-7.044195017643634E-15
 21
1.0
 31
0.0
 73
     1
 44
1.0
  0
ENDBLK
  5
EE
330
EC
100
AcDbEntity
  8
0
100
AcDbBlockEnd
  0
BLOCK
  5
101
330
100
100
AcDbEntity
  8
0
100
AcDbBlockBegin
  2
_D_2
 70
     0
 10
0.0
 20
0.0
 30
0.0
  3
_D_2
  1
_D_2
  0
SOLID
  5
103
330
100
100
AcDbEntity
  8
치수문자_일반주서
100
AcDbTrace
 10
30.63750000000002
 20
13.75192548907218
 30
0.0
 11
33.93950000000002
 21
13.24392548907218
 31
0.0
 12
33.93950000000002
 22
14.25992548907218
 32
0.0
 13
33.93950000000002
 23
14.25992548907218
 33
0.0
  0
SOLID
  5
104
330
100
100
AcDbEntity
  8
치수문자_일반주서
100
AcDbTrace
 10
10.00000000000001
 20
13.75192548907218
 30
0.0
 11
6.698000000000013
 21
14.25992548907218
 31
0.0
 12
6.698000000000013
 22
13.24392548907218
 32
0.0
 13
6.698000000000013
 23
13.24392548907218
 33
0.0
  0
LINE
  5
105
330
100
100
AcDbEntity
  8
치수문자_일반주서
100
AcDbLine
 10
14.94777711683512
 20
24.54480720511493
 30
0.0
 11
14.23683963127062
 21
24.54480720511493
 31
0.0
  0
LINE
  5
106
330
100
100
AcDbEntity
  8
치수문자_일반주서
100
AcDbLine
 10
14.23683963127062
 20
24.54480720511493
 30
0.0
 11
14.23683963127059
 21
18.98855721405563
 31
0.0
  0
LINE
  5
107
330
100
100
AcDbEntity
  8
치수문자_일반주서
100
AcDbLine
 10
14.23683963127059
 20
18.98855721405563
 30
0.0
 11
14.94777711683509
 21
18.98855721405562
 31
0.0
  0
LINE
  5
108
330
100
100
AcDbEntity
  8
치수문자_일반주서
100
AcDbLine
 10
25.77650997897238
 20
24.54480720511485
 30
0.0
 11
26.48744746453688
 21
24.54480720511484
 31
0.0
  0
LINE
  5
109
330
100
100
AcDbEntity
  8
치수문자_일반주서
100
AcDbLine
 10
26.48744746453688
 20
24.54480720511484
 30
0.0
 11
26.48744746453685
 21
18.98855721405554
 31
0.0
  0
LINE
  5
10A
330
100
100
AcDbEntity
  8
치수문자_일반주서
100
AcDbLine
 10
26.48744746453685
 20
18.98855721405554
 30
0.0
 11
25.77650997897235
 21
18.98855721405554
 31
0.0
  0
LINE
  5
10B
330
100
100
AcDbEntity
  8
치수문자_일반주서
100
AcDbLine
 10
30.63750000000002
 20
3.779199928723893
 30
0.0
 11
30.63750000000002
 21
14.75192548907219
 31
0.0
  0
LINE
  5
10C
330
100
100
AcDbEntity
  8
치수문자_일반주서
100
AcDbLine
 10
10.00000000000001
 20
4.950700518072257
 30
0.0
 11
10.00000000000001
 21
14.75192548907219
 31
0.0
  0
LINE
  5
10D
330
100
100
AcDbEntity
  8
치수문자_일반주서
100
AcDbLine
 10
30.63750000000002
 20
13.75192548907218
 30
0.0
 11
36.98750000000001
 21
13.75192548907218
 31
0.0
  0
LINE
  5
10E
330
100
100
AcDbEntity
  8
치수문자_일반주서
100
AcDbLine
 10
30.63750000000002
 20
13.75192548907218
 30
0.0
 11
10.00000000000001
 21
13.75192548907218
 31
0.0
  0
LINE
  5
10F
330
100
100
AcDbEntity
  8
치수문자_일반주서
100
AcDbLine
 10
10.00000000000001
 20
13.75192548907218
 30
0.0
 11
3.650000000000013
 21
13.75192548907218
 31
0.0
  0
MTEXT
  5
110
330
100
100
AcDbEntity
  8
치수문자_일반주서
100
AcDbMText
 10
13.72308090578388
 20
18.3171347549339
 30
0.0
 40
3.5
 41
0.0
 71
     1
 72
     1
  1

  7
SLDTEXTSTYLE0
 73
     1
 44
1.0
  0
MTEXT
  5
111
330
100
100
AcDbEntity
  8
치수문자_일반주서
100
AcDbMText
 10
15.83644901744649
 20
23.50029412863451
 30
0.0
 40
3.5
 41
0.0
 71
     1
 72
     1
  1
0.81
  7
SLDTEXTSTYLE0
 73
     1
 44
1.0
  0
MTEXT
  5
112
330
100
100
AcDbEntity
  8
치수문자_일반주서
100
AcDbMText
 10
14.54339330426973
 20
18.26366257827405
 30
0.0
 40
3.5
 41
0.0
 71
     1
 72
     1
  1
20.64
  7
SLDTEXTSTYLE0
 73
     1
 44
1.0
  0
MTEXT
  5
113
330
100
100
AcDbEntity
  8
치수문자_일반주서
100
AcDbMText
 10
28.33315070967745
 20
18.3171347549338
 30
0.0
 40
3.5
 41
0.0
 71
     1
 72
     1
  1

  7
SLDTEXTSTYLE0
 73
     1
 44
1.0
  0
ENDBLK
  5
102
330
100
100
AcDbEntity
  8
0
100
AcDbBlockEnd
  0
BLOCK
  5
117
330
116
100
AcDbEntity
  8
0
100
AcDbBlockBegin
  2
_D_3
 70
     0
 10
0.0
 20
0.0
 30
0.0
  3
_D_3
  1
_D_3
  0
SOLID
  5
119
330
116
100
AcDbEntity
  8
치수문자_일반주서
100
AcDbTrace
 10
30.63750000000002
 20
25.75192548907214
 30
0.0
 11
27.33550000000002
 21
26.25992548907214
 31
0.0
 12
27.33550000000002
 22
25.24392548907214
 32
0.0
 13
27.33550000000002
 23
25.24392548907214
 33
0.0
  0
SOLID
  5
11A
330
116
100
AcDbEntity
  8
치수문자_일반주서
100
AcDbTrace
 10
-45.56249999999999
 20
25.75192548907213
 30
0.0
 11
-42.26049999999999
 21
25.24392548907213
 31
0.0
 12
-42.26049999999999
 22
26.25992548907213
 32
0.0
 13
-42.26049999999999
 23
26.25992548907213
 33
0.0
  0
LINE
  5
11B
330
116
100
AcDbEntity
  8
치수문자_일반주서
100
AcDbLine
 10
-13.21975504471997
 20
36.54480720511487
 30
0.0
 11
-13.93069253028447
 21
36.54480720511488
 31
0.0
  0
LINE
  5
11C
330
116
100
AcDbEntity
  8
치수문자_일반주서
100
AcDbLine
 10
-13.93069253028447
 20
36.54480720511488
 30
0.0
 11
-13.93069253028451
 21
30.98855721405557
 31
0.0
  0
LINE
  5
11D
330
116
100
AcDbEntity
  8
치수문자_일반주서
100
AcDbLine
 10
-13.93069253028451
 20
30.98855721405557
 30
0.0
 11
-13.21975504472001
 21
30.98855721405556
 31
0.0
  0
LINE
  5
11E
330
116
100
AcDbEntity
  8
치수문자_일반주서
100
AcDbLine
 10
-2.391022182582709
 20
36.54480720511479
 30
0.0
 11
-1.680084697018209
 21
36.54480720511479
 31
0.0
  0
LINE
  5
11F
330
116
100
AcDbEntity
  8
치수문자_일반주서
100
AcDbLine
 10
-1.680084697018209
 20
36.54480720511479
 30
0.0
 11
-1.680084697018248
 21
30.98855721405548
 31
0.0
  0
LINE
  5
120
330
116
100
AcDbEntity
  8
치수문자_일반주서
100
AcDbLine
 10
-1.680084697018248
 20
30.98855721405548
 30
0.0
 11
-2.391022182582748
 21
30.98855721405549
 31
0.0
  0
LINE
  5
121
330
116
100
AcDbEntity
  8
치수문자_일반주서
100
AcDbLine
 10
30.63750000000002
 20
3.779199928723893
 30
0.0
 11
30.63750000000002
 21
26.75192548907214
 31
0.0
  0
LINE
  5
122
330
116
100
AcDbEntity
  8
치수문자_일반주서
100
AcDbLine
 10
-45.56249999999999
 20
4.159824928723887
 30
0.0
 11
-45.56249999999999
 21
26.75192548907213
 31
0.0
  0
LINE
  5
123
330
116
100
AcDbEntity
  8
치수문자_일반주서
100
AcDbLine
 10
30.63750000000002
 20
25.75192548907214
 30
0.0
 11
-45.56249999999999
 21
25.75192548907213
 31
0.0
  0
MTEXT
  5
124
330
116
100
AcDbEntity
  8
치수문자_일반주서
100
AcDbMText
 10
-14.44445125577121
 20
30.31713475493386
 30
0.0
 40
3.5
 41
0.0
 71
     1
 72
     1
  1

  7
SLDTEXTSTYLE0
 73
     1
 44
1.0
  0
MTEXT
  5
125
330
116
100
AcDbEntity
  8
치수문자_일반주서
100
AcDbMText
 10
-12.33108314410861
 20
35.50029412863446
 30
0.0
 40
3.5
 41
0.0
 71
     1
 72
     1
  1
3.00
  7
SLDTEXTSTYLE0
 73
     1
 44
1.0
  0
MTEXT
  5
126
330
116
100
AcDbEntity
  8
치수문자_일반주서
100
AcDbMText
 10
-13.62413885728537
 20
30.26366257827399
 30
0.0
 40
3.5
 41
0.0
 71
     1
 72
     1
  1
76.20
  7
SLDTEXTSTYLE0
 73
     1
 44
1.0
  0
MTEXT
  5
127
330
116
100
AcDbEntity
  8
치수문자_일반주서
100
AcDbMText
 10
0.1656185481223589
 20
30.31713475493375
 30
0.0
 40
3.5
 41
0.0
 71
     1
 72
     1
  1

  7
SLDTEXTSTYLE0
 73
     1
 44
1.0
  0
ENDBLK
  5
118
330
116
100
AcDbEntity
  8
0
100
AcDbBlockEnd
  0
BLOCK
  5
130
330
12F
100
AcDbEntity
  8
0
100
AcDbBlockBegin
  2
SW_DOWELSYMBOL_0
 70
     0
 10
0.0
 20
0.0
 30
0.0
  3
SW_DOWELSYMBOL_0
  1
SW_DOWELSYMBOL_0
  0
CIRCLE
  5
132
330
12F
100
AcDbEntity
  8
해칭선
 62
     0
100
AcDbCircle
 10
0.0
 20
0.0
 30
0.0
 40
3.000000000000002
  0
HATCH
  5
133
330
12F
100
AcDbEntity
  8
0
  6
Continuous
 62
     0
370
     0
100
AcDbHatch
 10
0.0
 20
0.0
 30
0.0
210
0.0
220
0.0
230
1.0
  2
SOLID
 70
     1
 71
     0
 91
        1
 92
        0
 93
        3
 72
     2
 10
0.0000000000000069
 20
0.0
 40
3.000000000000002
 50
0.0
 51
90.0
 73
     1
 72
     1
 10
0.0000000000000069
 20
3.000000000000002
 11
0.0000000000000069
 21
0.0
 72
     1
 10
0.0000000000000069
 20
0.0
 11
3.000000000000009
 21
0.0
 97
        0
 75
     0
 76
     1
 98
        1
 10
0.0
 20
0.0
  0
HATCH
  5
134
330
12F
100
AcDbEntity
  8
0
  6
Continuous
 62
     0
370
     0
100
AcDbHatch
 10
0.0
 20
0.0
 30
0.0
210
0.0
220
0.0
230
1.0
  2
SOLID
 70
     1
 71
     0
 91
        1
 92
        0
 93
        3
 72
     2
 10
0.0000000000000069
 20
0.0
 40
3.000000000000002
 50
180.0
 51
270.0000000000008
 73
     1
 72
     1
 10
0.0000000000000069
 20
-3.000000000000002
 11
0.0000000000000069
 21
0.0
 72
     1
 10
0.0000000000000069
 20
0.0
 11
-2.999999999999995
 21
0.0
 97
        0
 75
     0
 76
     1
 98
        1
 10
0.0
 20
0.0
  0
ENDBLK
  5
131
330
12F
100
AcDbEntity
  8
0
100
AcDbBlockEnd
  0
BLOCK
  5
1BC
330
1BB
100
AcDbEntity
  8
0
100
AcDbBlockBegin
  2
*D8
 70
     1
 10
0.0
 20
0.0
 30
0.0
  3
*D8
  1
*D8
  0
LINE
  5
1BD
330
1BB
100
AcDbEntity
  8
치수문자_일반주서
 62
     0
370
    -2
100
AcDbLine
 10
17.81250000000005
 20
37.59713716666505
 30
0.0
 11
4.375000000000036
 21
37.597137166665
 31
0.0
  0
LINE
  5
1BE
330
1BB
100
AcDbEntity
  8
치수문자_일반주서
 62
     0
370
    -2
100
AcDbLine
 10
17.81250000000005
 20
29.65963716666506
 30
0.0
 11
4.375000000000064
 21
29.65963716666501
 31
0.0
  0
LINE
  5
1BF
330
1BB
100
AcDbEntity
  8
치수문자_일반주서
 62
     0
370
    -2
100
AcDbLine
 10
4.375000000000048
 20
34.295137166665
 30
0.0
 11
4.375000000000052
 21
32.96163716666501
 31
0.0
  0
SOLID
  5
1C0
330
1BB
100
AcDbEntity
  8
치수문자_일반주서
 62
     0
100
AcDbTrace
 10
4.925333333333382
 20
34.295137166665
 30
0.0
 11
3.824666666666715
 21
34.295137166665
 31
0.0
 12
4.375000000000036
 22
37.597137166665
 32
0.0
 13
4.375000000000036
 23
37.597137166665
 33
0.0
  0
SOLID
  5
1C1
330
1BB
100
AcDbEntity
  8
치수문자_일반주서
 62
     0
100
AcDbTrace
 10
3.824666666666719
 20
32.96163716666501
 30
0.0
 11
4.925333333333386
 21
32.96163716666501
 31
0.0
 12
4.375000000000064
 22
29.65963716666501
 32
0.0
 13
4.375000000000064
 23
29.65963716666501
 33
0.0
  0
MTEXT
  5
1C2
330
1BB
100
AcDbEntity
  8
치수문자_일반주서
 62
     0
100
AcDbMText
 10
0.0000000000000497
 20
33.62838716666504
 30
0.0
 40
3.5
 41
0.0
 71
     2
 72
     1
  1
\A1;%%c7.94 [5/16]
  7
SLDTEXTSTYLE0
 11
-3.468791308435139E-15
 21
1.0
 31
0.0
 73
     1
 44
1.0
  0
POINT
  5
1C3
330
1BB
100
AcDbEntity
  8
Defpoints
 62
     0
100
AcDbPoint
 10
17.87500000000005
 20
37.59713716666505
 30
0.0
  0
POINT
  5
1C4
330
1BB
100
AcDbEntity
  8
Defpoints
 62
     0
100
AcDbPoint
 10
17.87500000000005
 20
29.65963716666506
 30
0.0
  0
POINT
  5
1C5
330
1BB
100
AcDbEntity
  8
Defpoints
 62
     0
100
AcDbPoint
 10
4.375000000000064
 20
29.65963716666501
 30
0.0
  0
ENDBLK
  5
1C6
330
1BB
100
AcDbEntity
  8
0
100
AcDbBlockEnd
  0
BLOCK
  5
1C9
330
1C8
100
AcDbEntity
  8
0
100
AcDbBlockBegin
  2
*D9
 70
     1
 10
0.0
 20
0.0
 30
0.0
  3
*D9
  1
*D9
  0
LINE
  5
1CA
330
1C8
100
AcDbEntity
  8
치수문자_일반주서
 62
     0
370
    -2
100
AcDbLine
 10
93.32750000000007
 20
37.59713716666505
 30
0.0
 11
110.6775000000001
 21
37.59713716666511
 31
0.0
  0
LINE
  5
1CB
330
1C8
100
AcDbEntity
  8
치수문자_일반주서
 62
     0
370
    -2
100
AcDbLine
 10
93.32750000000007
 20
29.65963716666506
 30
0.0
 11
110.6775000000001
 21
29.65963716666512
 31
0.0
  0
LINE
  5
1CC
330
1C8
100
AcDbEntity
  8
치수문자_일반주서
 62
     0
370
    -2
100
AcDbLine
 10
110.6775000000001
 20
37.59713716666511
 30
0.0
 11
110.6775
 21
72.20113716666512
 31
0.0
  0
LINE
  5
1CD
330
1C8
100
AcDbEntity
  8
치수문자_일반주서
 62
     0
370
    -2
100
AcDbLine
 10
110.6775000000001
 20
37.59713716666511
 30
0.0
 11
110.6775000000001
 21
29.65963716666512
 31
0.0
  0
LINE
  5
1CE
330
1C8
100
AcDbEntity
  8
치수문자_일반주서
 62
     0
370
    -2
100
AcDbLine
 10
110.6775000000001
 20
40.89913716666511
 30
0.0
 11
110.6775000000001
 21
44.20113716666511
 31
0.0
  0
LINE
  5
1CF
330
1C8
100
AcDbEntity
  8
치수문자_일반주서
 62
     0
370
    -2
100
AcDbLine
 10
110.6775000000002
 20
26.35763716666512
 30
0.0
 11
110.6775000000002
 21
23.05563716666513
 31
0.0
  0
SOLID
  5
1D0
330
1C8
100
AcDbEntity
  8
치수문자_일반주서
 62
     0
100
AcDbTrace
 10
110.1271666666668
 20
40.89913716666511
 30
0.0
 11
111.2278333333334
 21
40.89913716666511
 31
0.0
 12
110.6775000000001
 22
37.59713716666511
 32
0.0
 13
110.6775000000001
 23
37.59713716666511
 33
0.0
  0
SOLID
  5
1D1
330
1C8
100
AcDbEntity
  8
치수문자_일반주서
 62
     0
100
AcDbTrace
 10
111.2278333333335
 20
26.35763716666513
 30
0.0
 11
110.1271666666668
 21
26.35763716666512
 31
0.0
 12
110.6775000000001
 22
29.65963716666512
 32
0.0
 13
110.6775000000001
 23
29.65963716666512
 33
0.0
  0
MTEXT
  5
1D2
330
1C8
100
AcDbEntity
  8
치수문자_일반주서
 62
     0
100
AcDbMText
 10
106.3025
 20
58.20113716666511
 30
0.0
 40
3.5
 41
0.0
 71
     2
 72
     1
  1
\A1;%%c7.94 [5/16]
  7
SLDTEXTSTYLE0
 11
-3.580687802255628E-15
 21
1.0
 31
0.0
 73
     1
 44
1.0
  0
POINT
  5
1D3
330
1C8
100
AcDbEntity
  8
Defpoints
 62
     0
100
AcDbPoint
 10
93.26500000000007
 20
37.59713716666505
 30
0.0
  0
POINT
  5
1D4
330
1C8
100
AcDbEntity
  8
Defpoints
 62
     0
100
AcDbPoint
 10
93.26500000000007
 20
29.65963716666506
 30
0.0
  0
POINT
  5
1D5
330
1C8
100
AcDbEntity
  8
Defpoints
 62
     0
100
AcDbPoint
 10
110.6775000000001
 20
29.65963716666512
 30
0.0
  0
ENDBLK
  5
1D6
330
1C8
100
AcDbEntity
  8
0
100
AcDbBlockEnd
  0
BLOCK
  5
1D9
330
1D8
100
AcDbEntity
  8
0
100
AcDbBlockBegin
  2
*D10
 70
     1
 10
0.0
 20
0.0
 30
0.0
  3
*D10
  1
*D10
  0
LINE
  5
1DA
330
1D8
100
AcDbEntity
  8
치수문자_일반주서
 62
     0
370
    -2
100
AcDbLine
 10
93.26500000000007
 20
37.65963716666506
 30
0.0
 11
93.26500000000007
 21
47.37923772701335
 31
0.0
  0
LINE
  5
1DB
330
1D8
100
AcDbEntity
  8
치수문자_일반주서
 62
     0
370
    -2
100
AcDbLine
 10
72.62750000000008
 20
37.64051275601342
 30
0.0
 11
72.62750000000008
 21
47.37923772701335
 31
0.0
  0
LINE
  5
1DC
330
1D8
100
AcDbEntity
  8
치수문자_일반주서
 62
     0
370
    -2
100
AcDbLine
 10
72.62750000000008
 20
47.37923772701335
 30
0.0
 11
36.71100000000006
 21
47.37923772701335
 31
0.0
  0
LINE
  5
1DD
330
1D8
100
AcDbEntity
  8
치수문자_일반주서
 62
     0
370
    -2
100
AcDbLine
 10
93.26500000000007
 20
47.37923772701335
 30
0.0
 11
72.62750000000008
 21
47.37923772701335
 31
0.0
  0
LINE
  5
1DE
330
1D8
100
AcDbEntity
  8
치수문자_일반주서
 62
     0
370
    -2
100
AcDbLine
 10
96.56700000000006
 20
47.37923772701335
 30
0.0
 11
99.86900000000006
 21
47.37923772701335
 31
0.0
  0
LINE
  5
1DF
330
1D8
100
AcDbEntity
  8
치수문자_일반주서
 62
     0
370
    -2
100
AcDbLine
 10
69.32550000000009
 20
47.37923772701335
 30
0.0
 11
66.0235000000001
 21
47.37923772701335
 31
0.0
  0
SOLID
  5
1E0
330
1D8
100
AcDbEntity
  8
치수문자_일반주서
 62
     0
100
AcDbTrace
 10
96.56700000000006
 20
47.92957106034668
 30
0.0
 11
96.56700000000006
 21
46.82890439368001
 31
0.0
 12
93.26500000000007
 22
47.37923772701335
 32
0.0
 13
93.26500000000007
 23
47.37923772701335
 33
0.0
  0
SOLID
  5
1E1
330
1D8
100
AcDbEntity
  8
치수문자_일반주서
 62
     0
100
AcDbTrace
 10
69.32550000000009
 20
46.82890439368001
 30
0.0
 11
69.32550000000009
 21
47.92957106034668
 31
0.0
 12
72.62750000000008
 22
47.37923772701335
 32
0.0
 13
72.62750000000008
 23
47.37923772701335
 33
0.0
  0
MTEXT
  5
1E2
330
1D8
100
AcDbEntity
  8
치수문자_일반주서
 62
     0
100
AcDbMText
 10
51.36725000000006
 20
51.75423772701335
 30
0.0
 40
3.5
 41
0.0
 71
     2
 72
     1
  1
\A1;20.64 [13/16]
  7
SLDTEXTSTYLE0
 73
     1
 44
1.0
  0
POINT
  5
1E3
330
1D8
100
AcDbEntity
  8
Defpoints
 62
     0
100
AcDbPoint
 10
93.26500000000007
 20
37.59713716666506
 30
0.0
  0
POINT
  5
1E4
330
1D8
100
AcDbEntity
  8
Defpoints
 62
     0
100
AcDbPoint
 10
72.62750000000008
 20
37.57801275601342
 30
0.0
  0
POINT
  5
1E5
330
1D8
100
AcDbEntity
  8
Defpoints
 62
     0
100
AcDbPoint
 10
72.62750000000008
 20
47.37923772701335
 30
0.0
  0
ENDBLK
  5
1E6
330
1D8
100
AcDbEntity
  8
0
100
AcDbBlockEnd
  0
BLOCK
  5
1E9
330
1E8
100
AcDbEntity
  8
0
100
AcDbBlockBegin
  2
*D11
 70
     1
 10
0.0
 20
0.0
 30
0.0
  3
*D11
  1
*D11
  0
LINE
  5
1EA
330
1E8
100
AcDbEntity
  8
치수문자_일반주서
 62
     0
370
    -2
100
AcDbLine
 10
93.26500000000007
 20
37.65963716666506
 30
0.0
 11
93.26500000000007
 21
59.3792377270133
 31
0.0
  0
LINE
  5
1EB
330
1E8
100
AcDbEntity
  8
치수문자_일반주서
 62
     0
370
    -2
100
AcDbLine
 10
17.06500000000006
 20
36.84963716666505
 30
0.0
 11
17.06500000000006
 21
59.3792377270133
 31
0.0
  0
LINE
  5
1EC
330
1E8
100
AcDbEntity
  8
치수문자_일반주서
 62
     0
370
    -2
100
AcDbLine
 10
89.96300000000008
 20
59.3792377270133
 30
0.0
 11
20.36700000000006
 21
59.3792377270133
 31
0.0
  0
SOLID
  5
1ED
330
1E8
100
AcDbEntity
  8
치수문자_일반주서
 62
     0
100
AcDbTrace
 10
89.96300000000008
 20
58.82890439367997
 30
0.0
 11
89.96300000000008
 21
59.92957106034664
 31
0.0
 12
93.26500000000007
 22
59.3792377270133
 32
0.0
 13
93.26500000000007
 23
59.3792377270133
 33
0.0
  0
SOLID
  5
1EE
330
1E8
100
AcDbEntity
  8
치수문자_일반주서
 62
     0
100
AcDbTrace
 10
20.36700000000006
 20
59.92957106034664
 30
0.0
 11
20.36700000000006
 21
58.82890439367997
 31
0.0
 12
17.06500000000006
 22
59.3792377270133
 32
0.0
 13
17.06500000000006
 23
59.3792377270133
 33
0.0
  0
MTEXT
  5
1EF
330
1E8
100
AcDbEntity
  8
치수문자_일반주서
 62
     0
100
AcDbMText
 10
54.82211103710275
 20
63.7542377270133
 30
0.0
 40
3.5
 41
0.0
 71
     2
 72
     1
  1
\A1;76.2 [3]
  7
SLDTEXTSTYLE0
 73
     1
 44
1.0
  0
POINT
  5
1F0
330
1E8
100
AcDbEntity
  8
Defpoints
 62
     0
100
AcDbPoint
 10
93.26500000000007
 20
37.59713716666506
 30
0.0
  0
POINT
  5
1F1
330
1E8
100
AcDbEntity
  8
Defpoints
 62
     0
100
AcDbPoint
 10
17.06500000000006
 20
36.78713716666505
 30
0.0
  0
POINT
  5
1F2
330
1E8
100
AcDbEntity
  8
Defpoints
 62
     0
100
AcDbPoint
 10
17.06500000000006
 20
59.3792377270133
 30
0.0
  0
ENDBLK
  5
1F3
330
1E8
100
AcDbEntity
  8
0
100
AcDbBlockEnd
  0
BLOCK
  5
202
330
201
100
AcDbEntity
  8
0
100
AcDbBlockBegin
  2
*D12
 70
     1
 10
0.0
 20
0.0
 30
0.0
  3
*D12
  1
*D12
  0
LINE
  5
203
330
201
100
AcDbEntity
  8
치수문자_일반주서
 62
     0
370
    -2
100
AcDbLine
 10
94.64592001590024
 20
26.96852410661991
 30
0.0
 11
111.3819460603548
 21
0.0000000000000178
 31
0.0
  0
MTEXT
  5
204
330
201
100
AcDbEntity
  8
치수문자_일반주서
 62
     0
100
AcDbMText
 10
106.11491304031
 20
13.46557981403914
 30
0.0
 40
3.5
 41
0.0
 71
     5
 72
     1
  1
\A1;R.76 [R0.030]
  7
SLDTEXTSTYLE0
 11
0.5272933109990574
 21
-0.8496833317040244
 31
0.0
 73
     1
 44
1.0
  0
LINE
  5
205
330
201
100
AcDbEntity
  8
치수문자_일반주서
 62
     0
370
    -2
100
AcDbLine
 10
92.50300000000007
 20
30.42163716666506
 30
0.0
 11
92.90479750298135
 21
29.77417846790659
 31
0.0
  0
SOLID
  5
206
330
201
100
AcDbEntity
  8
치수문자_일반주서
 62
     0
100
AcDbTrace
 10
95.11352907611469
 20
27.25871119210639
 30
0.0
 11
94.1783109556858
 21
26.67833702113343
 31
0.0
 12
92.90479750298135
 22
29.77417846790659
 32
0.0
 13
92.90479750298135
 23
29.77417846790659
 33
0.0
  0
POINT
  5
207
330
201
100
AcDbEntity
  8
Defpoints
 62
     0
100
AcDbPoint
 10
92.90479750298135
 20
29.77417846790659
 30
0.0
  0
POINT
  5
208
330
201
100
AcDbEntity
  8
Defpoints
 62
     0
100
AcDbPoint
 10
92.50300000000007
 20
30.42163716666506
 30
0.0
  0
ENDBLK
  5
209
330
201
100
AcDbEntity
  8
0
100
AcDbBlockEnd
  0
BLOCK
  5
252
330
251
100
AcDbEntity
  8
0
100
AcDbBlockBegin
  2
*D13
 70
     1
 10
0.0
 20
0.0
 30
0.0
  3
*D13
  1
*D13
  0
LINE
  5
254
330
251
100
AcDbEntity
  8
치수문자_일반주서
 62
     0
370
    -2
100
AcDbLine
 10
-44.815
 20
3.969824928723888
 30
0.0
 11
-58.25250000000001
 21
3.969824928723837
 31
0.0
  0
LINE
  5
255
330
251
100
AcDbEntity
  8
치수문자_일반주서
 62
     0
370
    -2
100
AcDbLine
 10
-44.815
 20
-3.967675071276102
 30
0.0
 11
-58.25249999999998
 21
-3.967675071276152
 31
0.0
  0
LINE
  5
256
330
251
100
AcDbEntity
  8
치수문자_일반주서
 62
     0
370
    -2
100
AcDbLine
 10
-58.2525
 20
0.6678249287238378
 30
0.0
 11
-58.2525
 21
-0.6656750712761523
 31
0.0
  0
SOLID
  5
257
330
251
100
AcDbEntity
  8
치수문자_일반주서
 62
     0
100
AcDbTrace
 10
-57.70216666666666
 20
0.6678249287238398
 30
0.0
 11
-58.80283333333333
 21
0.6678249287238358
 31
0.0
 12
-58.25250000000001
 22
3.969824928723837
 32
0.0
 13
-58.25250000000001
 23
3.969824928723837
 33
0.0
  0
SOLID
  5
258
330
251
100
AcDbEntity
  8
치수문자_일반주서
 62
     0
100
AcDbTrace
 10
-58.80283333333333
 20
-0.6656750712761543
 30
0.0
 11
-57.70216666666666
 21
-0.6656750712761503
 31
0.0
 12
-58.25249999999998
 22
-3.967675071276152
 32
0.0
 13
-58.25249999999998
 23
-3.967675071276152
 33
0.0
  0
MTEXT
  5
259
330
251
100
AcDbEntity
  8
치수문자_일반주서
 62
     0
100
AcDbMText
 10
-62.6275
 20
0.0010749287238725
 30
0.0
 40
3.5
 41
0.0
 71
     2
 72
     1
  1
\A1;%%c7.94 [5/16]
  7
SLDTEXTSTYLE0
 11
-3.580687802255628E-15
 21
1.0
 31
0.0
 73
     1
 44
1.0
  0
POINT
  5
25A
330
251
100
AcDbEntity
  8
Defpoints
 62
     0
100
AcDbPoint
 10
-44.7525
 20
3.969824928723888
 30
0.0
  0
POINT
  5
25B
330
251
100
AcDbEntity
  8
Defpoints
 62
     0
100
AcDbPoint
 10
-44.7525
 20
-3.967675071276101
 30
0.0
  0
POINT
  5
25C
330
251
100
AcDbEntity
  8
Defpoints
 62
     0
100
AcDbPoint
 10
-58.25249999999998
 20
-3.967675071276152
 30
0.0
  0
ENDBLK
  5
253
330
251
100
AcDbEntity
  8
0
100
AcDbBlockEnd
  0
BLOCK
  5
25E
330
25D
100
AcDbEntity
  8
0
100
AcDbBlockBegin
  2
*D14
 70
     1
 10
0.0
 20
0.0
 30
0.0
  3
*D14
  1
*D14
  0
LINE
  5
260
330
25D
100
AcDbEntity
  8
치수문자_일반주서
 62
     0
370
    -2
100
AcDbLine
 10
30.70000000000002
 20
3.969824928723888
 30
0.0
 11
48.05000000000005
 21
3.969824928723952
 31
0.0
  0
LINE
  5
261
330
25D
100
AcDbEntity
  8
치수문자_일반주서
 62
     0
370
    -2
100
AcDbLine
 10
30.70000000000002
 20
-3.967675071276101
 30
0.0
 11
48.05000000000008
 21
-3.967675071276037
 31
0.0
  0
LINE
  5
262
330
25D
100
AcDbEntity
  8
치수문자_일반주서
 62
     0
370
    -2
100
AcDbLine
 10
48.05000000000005
 20
3.969824928723952
 30
0.0
 11
48.04999999999993
 21
38.57382492872396
 31
0.0
  0
LINE
  5
263
330
25D
100
AcDbEntity
  8
치수문자_일반주서
 62
     0
370
    -2
100
AcDbLine
 10
48.05000000000005
 20
3.969824928723952
 30
0.0
 11
48.05000000000008
 21
-3.967675071276037
 31
0.0
  0
LINE
  5
264
330
25D
100
AcDbEntity
  8
치수문자_일반주서
 62
     0
370
    -2
100
AcDbLine
 10
48.05000000000004
 20
7.271824928723952
 30
0.0
 11
48.05000000000003
 21
10.57382492872395
 31
0.0
  0
LINE
  5
265
330
25D
100
AcDbEntity
  8
치수문자_일반주서
 62
     0
370
    -2
100
AcDbLine
 10
48.0500000000001
 20
-7.269675071276037
 30
0.0
 11
48.05000000000011
 21
-10.57167507127604
 31
0.0
  0
SOLID
  5
266
330
25D
100
AcDbEntity
  8
치수문자_일반주서
 62
     0
100
AcDbTrace
 10
47.49966666666671
 20
7.27182492872395
 30
0.0
 11
48.60033333333337
 21
7.271824928723953
 31
0.0
 12
48.05000000000005
 22
3.969824928723952
 32
0.0
 13
48.05000000000005
 23
3.969824928723952
 33
0.0
  0
SOLID
  5
267
330
25D
100
AcDbEntity
  8
치수문자_일반주서
 62
     0
100
AcDbTrace
 10
48.60033333333343
 20
-7.269675071276035
 30
0.0
 11
47.49966666666676
 21
-7.269675071276039
 31
0.0
 12
48.05000000000008
 22
-3.967675071276037
 32
0.0
 13
48.05000000000008
 23
-3.967675071276037
 33
0.0
  0
MTEXT
  5
268
330
25D
100
AcDbEntity
  8
치수문자_일반주서
 62
     0
100
AcDbMText
 10
43.67499999999998
 20
24.57382492872394
 30
0.0
 40
3.5
 41
0.0
 71
     2
 72
     1
  1
\A1;%%c7.94 [5/16]
  7
SLDTEXTSTYLE0
 11
-3.580687802255628E-15
 21
1.0
 31
0.0
 73
     1
 44
1.0
  0
POINT
  5
269
330
25D
100
AcDbEntity
  8
Defpoints
 62
     0
100
AcDbPoint
 10
30.63750000000002
 20
3.969824928723888
 30
0.0
  0
POINT
  5
26A
330
25D
100
AcDbEntity
  8
Defpoints
 62
     0
100
AcDbPoint
 10
30.63750000000002
 20
-3.967675071276101
 30
0.0
  0
POINT
  5
26B
330
25D
100
AcDbEntity
  8
Defpoints
 62
     0
100
AcDbPoint
 10
48.0500000000001
 20
-3.967675071276036
 30
0.0
  0
ENDBLK
  5
25F
330
25D
100
AcDbEntity
  8
0
100
AcDbBlockEnd
  0
BLOCK
  5
26D
330
26C
100
AcDbEntity
  8
0
100
AcDbBlockBegin
  2
*D15
 70
     1
 10
0.0
 20
0.0
 30
0.0
  3
*D15
  1
*D15
  0
LINE
  5
26F
330
26C
100
AcDbEntity
  8
치수문자_일반주서
 62
     0
370
    -2
100
AcDbLine
 10
30.63750000000002
 20
4.032324928723902
 30
0.0
 11
30.63750000000002
 21
13.75192548907219
 31
0.0
  0
LINE
  5
270
330
26C
100
AcDbEntity
  8
치수문자_일반주서
 62
     0
370
    -2
100
AcDbLine
 10
10.00000000000003
 20
4.01320051807226
 30
0.0
 11
10.00000000000003
 21
13.75192548907219
 31
0.0
  0
LINE
  5
271
330
26C
100
AcDbEntity
  8
치수문자_일반주서
 62
     0
370
    -2
100
AcDbLine
 10
10.00000000000003
 20
13.75192548907219
 30
0.0
 11
-25.91649999999998
 21
13.75192548907219
 31
0.0
  0
LINE
  5
272
330
26C
100
AcDbEntity
  8
치수문자_일반주서
 62
     0
370
    -2
100
AcDbLine
 10
30.63750000000002
 20
13.75192548907219
 30
0.0
 11
10.00000000000003
 21
13.75192548907219
 31
0.0
  0
LINE
  5
273
330
26C
100
AcDbEntity
  8
치수문자_일반주서
 62
     0
370
    -2
100
AcDbLine
 10
33.93950000000002
 20
13.75192548907219
 30
0.0
 11
37.24150000000002
 21
13.75192548907219
 31
0.0
  0
LINE
  5
274
330
26C
100
AcDbEntity
  8
치수문자_일반주서
 62
     0
370
    -2
100
AcDbLine
 10
6.698000000000029
 20
13.75192548907219
 30
0.0
 11
3.396000000000029
 21
13.75192548907219
 31
0.0
  0
SOLID
  5
275
330
26C
100
AcDbEntity
  8
치수문자_일반주서
 62
     0
100
AcDbTrace
 10
33.93950000000002
 20
14.30225882240552
 30
0.0
 11
33.93950000000002
 21
13.20159215573885
 31
0.0
 12
30.63750000000002
 22
13.75192548907219
 32
0.0
 13
30.63750000000002
 23
13.75192548907219
 33
0.0
  0
SOLID
  5
276
330
26C
100
AcDbEntity
  8
치수문자_일반주서
 62
     0
100
AcDbTrace
 10
6.698000000000029
 20
13.20159215573885
 30
0.0
 11
6.698000000000029
 21
14.30225882240552
 31
0.0
 12
10.00000000000003
 22
13.75192548907219
 32
0.0
 13
10.00000000000003
 23
13.75192548907219
 33
0.0
  0
MTEXT
  5
277
330
26C
100
AcDbEntity
  8
치수문자_일반주서
 62
     0
100
AcDbMText
 10
-11.26024999999998
 20
18.12692548907219
 30
0.0
 40
3.5
 41
0.0
 71
     2
 72
     1
  1
\A1;20.64 [13/16]
  7
SLDTEXTSTYLE0
 73
     1
 44
1.0
  0
POINT
  5
278
330
26C
100
AcDbEntity
  8
Defpoints
 62
     0
100
AcDbPoint
 10
30.63750000000002
 20
3.969824928723902
 30
0.0
  0
POINT
  5
279
330
26C
100
AcDbEntity
  8
Defpoints
 62
     0
100
AcDbPoint
 10
10.00000000000003
 20
3.95070051807226
 30
0.0
  0
POINT
  5
27A
330
26C
100
AcDbEntity
  8
Defpoints
 62
     0
100
AcDbPoint
 10
10.00000000000003
 20
13.75192548907219
 30
0.0
  0
ENDBLK
  5
26E
330
26C
100
AcDbEntity
  8
0
100
AcDbBlockEnd
  0
BLOCK
  5
27C
330
27B
100
AcDbEntity
  8
0
100
AcDbBlockBegin
  2
*D16
 70
     1
 10
0.0
 20
0.0
 30
0.0
  3
*D16
  1
*D16
  0
LINE
  5
27E
330
27B
100
AcDbEntity
  8
치수문자_일반주서
 62
     0
370
    -2
100
AcDbLine
 10
30.63750000000002
 20
4.032324928723902
 30
0.0
 11
30.63750000000002
 21
25.75192548907214
 31
0.0
  0
LINE
  5
27F
330
27B
100
AcDbEntity
  8
치수문자_일반주서
 62
     0
370
    -2
100
AcDbLine
 10
-45.5625
 20
3.222324928723886
 30
0.0
 11
-45.5625
 21
25.75192548907214
 31
0.0
  0
LINE
  5
280
330
27B
100
AcDbEntity
  8
치수문자_일반주서
 62
     0
370
    -2
100
AcDbLine
 10
27.33550000000002
 20
25.75192548907214
 30
0.0
 11
-42.2605
 21
25.75192548907214
 31
0.0
  0
SOLID
  5
281
330
27B
100
AcDbEntity
  8
치수문자_일반주서
 62
     0
100
AcDbTrace
 10
27.33550000000002
 20
25.20159215573881
 30
0.0
 11
27.33550000000002
 21
26.30225882240548
 31
0.0
 12
30.63750000000002
 22
25.75192548907214
 32
0.0
 13
30.63750000000002
 23
25.75192548907214
 33
0.0
  0
SOLID
  5
282
330
27B
100
AcDbEntity
  8
치수문자_일반주서
 62
     0
100
AcDbTrace
 10
-42.2605
 20
26.30225882240548
 30
0.0
 11
-42.2605
 21
25.20159215573881
 31
0.0
 12
-45.5625
 22
25.75192548907214
 32
0.0
 13
-45.5625
 23
25.75192548907214
 33
0.0
  0
MTEXT
  5
283
330
27B
100
AcDbEntity
  8
치수문자_일반주서
 62
     0
100
AcDbMText
 10
-7.805388962897297
 20
30.12692548907214
 30
0.0
 40
3.5
 41
0.0
 71
     2
 72
     1
  1
\A1;76.2 [3]
  7
SLDTEXTSTYLE0
 73
     1
 44
1.0
  0
POINT
  5
284
330
27B
100
AcDbEntity
  8
Defpoints
 62
     0
100
AcDbPoint
 10
30.63750000000002
 20
3.969824928723902
 30
0.0
  0
POINT
  5
285
330
27B
100
AcDbEntity
  8
Defpoints
 62
     0
100
AcDbPoint
 10
-45.5625
 20
3.159824928723886
 30
0.0
  0
POINT
  5
286
330
27B
100
AcDbEntity
  8
Defpoints
 62
     0
100
AcDbPoint
 10
-45.5625
 20
25.75192548907214
 30
0.0
  0
ENDBLK
  5
27D
330
27B
100
AcDbEntity
  8
0
100
AcDbBlockEnd
  0
BLOCK
  5
288
330
287
100
AcDbEntity
  8
0
100
AcDbBlockBegin
  2
*D17
 70
     1
 10
0.0
 20
0.0
 30
0.0
  3
*D17
  1
*D17
  0
LINE
  5
28A
330
287
100
AcDbEntity
  8
치수문자_일반주서
 62
     0
370
    -2
100
AcDbLine
 10
163.0148839844082
 20
-6.781038296329175
 30
0.0
 11
179.7509100288627
 21
-33.74956240294907
 31
0.0
  0
MTEXT
  5
28B
330
287
100
AcDbEntity
  8
치수문자_일반주서
 62
     0
100
AcDbMText
 10
174.483877008818
 20
-20.28398258890994
 30
0.0
 40
3.5
 41
0.0
 71
     5
 72
     1
  1
\A1;R.76 [R0.030]
  7
SLDTEXTSTYLE0
 11
0.5272933109990574
 21
-0.8496833317040244
 31
0.0
 73
     1
 44
1.0
  0
LINE
  5
28C
330
287
100
AcDbEntity
  8
치수문자_일반주서
 62
     0
370
    -2
100
AcDbLine
 10
160.871963968508
 20
-3.32792523628402
 30
0.0
 11
161.2737614714893
 21
-3.975383935042487
 31
0.0
  0
SOLID
  5
28D
330
287
100
AcDbEntity
  8
치수문자_일반주서
 62
     0
100
AcDbTrace
 10
163.4824930446226
 20
-6.490851210842694
 30
0.0
 11
162.5472749241937
 21
-7.071225381815657
 31
0.0
 12
161.2737614714893
 22
-3.975383935042487
 32
0.0
 13
161.2737614714893
 23
-3.975383935042487
 33
0.0
  0
POINT
  5
28E
330
287
100
AcDbEntity
  8
Defpoints
 62
     0
100
AcDbPoint
 10
161.2737614714893
 20
-3.975383935042487
 30
0.0
  0
POINT
  5
28F
330
287
100
AcDbEntity
  8
Defpoints
 62
     0
100
AcDbPoint
 10
160.871963968508
 20
-3.32792523628402
 30
0.0
  0
ENDBLK
  5
289
330
287
100
AcDbEntity
  8
0
100
AcDbBlockEnd
  0
BLOCK
  5
298
330
297
100
AcDbEntity
  8
0
100
AcDbBlockBegin
  2
*D18
 70
     1
 10
0.0
 20
0.0
 30
0.0
  3
*D18
  1
*D18
  0
LINE
  5
29A
330
297
100
AcDbEntity
  8
치수문자_일반주서
 62
     0
370
    -2
100
AcDbLine
 10
31.85206652894808
 20
-6.417404977362491
 30
0.0
 11
50.85604990466418
 21
-33.99266972868457
 31
0.0
  0
MTEXT
  5
29B
330
297
100
AcDbEntity
  8
치수문자_일반주서
 62
     0
100
AcDbMText
 10
44.45236205907095
 20
-20.07488628308154
 30
0.0
 40
3.5
 41
0.0
 71
     5
 72
     1
  1
\A1;R1.52 [R0.060]
  7
SLDTEXTSTYLE0
 11
0.567460946736025
 21
-0.8234003120775789
 31
0.0
 73
     1
 44
1.0
  0
LINE
  5
29C
330
297
100
AcDbEntity
  8
치수문자_일반주서
 62
     0
370
    -2
100
AcDbLine
 10
29.11350000000002
 20
-2.443675071276093
 30
0.0
 11
29.97831048282572
 21
-3.698537146882325
 31
0.0
  0
SOLID
  5
29D
330
297
100
AcDbEntity
  8
치수문자_일반주서
 62
     0
100
AcDbTrace
 10
32.30521116736143
 20
-6.105112303008765
 30
0.0
 11
31.39892189053472
 21
-6.729697651716217
 31
0.0
 12
29.97831048282572
 22
-3.698537146882325
 32
0.0
 13
29.97831048282572
 23
-3.698537146882325
 33
0.0
  0
POINT
  5
29E
330
297
100
AcDbEntity
  8
Defpoints
 62
     0
100
AcDbPoint
 10
29.97831048282572
 20
-3.698537146882325
 30
0.0
  0
POINT
  5
29F
330
297
100
AcDbEntity
  8
Defpoints
 62
     0
100
AcDbPoint
 10
29.11350000000002
 20
-2.443675071276093
 30
0.0
  0
ENDBLK
  5
299
330
297
100
AcDbEntity
  8
0
100
AcDbBlockEnd
  0
ENDSEC
  0
SECTION
  2
ENTITIES
  0
LINE
  5
CC
330
1F
100
AcDbEntity
  8
참조1
100
AcDbLine
 10
-7.462499999999997
 20
0.0010749287238892
 30
0.0
 11
-7.462499999999991
 21
-39.99892507127611
 31
0.0
  0
LINE
  5
CD
330
1F
100
AcDbEntity
  8
참조1
100
AcDbLine
 10
-7.462499999999991
 20
-39.99892507127611
 30
0.0
 11
-14.66672777521594
 21
-39.9989250712761
 31
0.0
  0
INSERT
  5
CF
330
1F
100
AcDbEntity
  8
0
  6
Continuous
 62
     7
100
AcDbBlockReference
 66
     1
  2
블럭10
 10
-21.4027729321252
 20
-52.04609937292004
 30
0.0
  0
ATTRIB
  5
D0
330
CF
100
AcDbEntity
  8
FORMAT
 62
     2
100
AcDbText
 10
-31.54440894426183
 20
-49.97073246008785
 30
0.0
 40
4.233333333333333
  1
EM637908 [ 2 FLUTE ]
 41
0.75
  7
SLDTEXTSTYLE0
 11
-31.54440894426183
 21
-52.08739912675452
 31
0.0
100
AcDbAttribute
  2
AUTOATTR0
 70
     0
 74
     1
  0
SEQEND
  5
D1
330
CF
100
AcDbEntity
  8
0
  6
Continuous
 62
     7
  0
HATCH
  5
D2
330
1F
100
AcDbEntity
  8
중심선
100
AcDbHatch
 10
0.0
 20
0.0
 30
0.0
210
0.0
220
0.0
230
1.0
  2
SOLID
 70
     1
 71
     0
 91
        1
 92
        0
 93
        4
 72
     1
 10
-15.68786362774435
 20
-35.7989250712761
 11
-19.13413887158163
 21
-35.7989250712761
 72
     1
 10
-19.13413887158163
 20
-35.7989250712761
 11
-21.26236873078566
 21
-38.33525065184867
 72
     1
 10
-21.26236873078566
 20
-38.33525065184867
 11
-17.81606040183523
 21
-38.33521122254619
 72
     1
 10
-17.81606040183523
 20
-38.33521122254619
 11
-15.68786362774435
 21
-35.7989250712761
 97
        0
 75
     0
 76
     1
 98
        1
 10
0.0
 20
0.0
  0
HATCH
  5
D3
330
1F
100
AcDbEntity
  8
중심선
100
AcDbHatch
 10
0.0
 20
0.0
 30
0.0
210
0.0
220
0.0
230
1.0
  2
SOLID
 70
     1
 71
     0
 91
        1
 92
        0
 93
        4
 72
     1
 10
-10.67509963670835
 20
-35.79892507127608
 11
-14.12137488054568
 21
-35.79892507127613
 72
     1
 10
-14.12137488054568
 20
-35.79892507127613
 11
-18.65251288890307
 21
-41.19892507127612
 72
     1
 10
-18.65251288890307
 20
-41.19892507127612
 11
-15.20623764506579
 21
-41.19892507127612
 72
     1
 10
-15.20623764506579
 20
-41.19892507127612
 11
-10.67509963670835
 21
-35.79892507127608
 97
        0
 75
     0
 76
     1
 98
        1
 10
0.0
 20
0.0
  0
HATCH
  5
D4
330
1F
100
AcDbEntity
  8
중심선
100
AcDbHatch
 10
0.0
 20
0.0
 30
0.0
210
0.0
220
0.0
230
1.0
  2
SOLID
 70
     1
 71
     0
 91
        1
 92
        0
 93
        4
 72
     1
 10
-5.662335645672506
 20
-35.79892507127613
 11
-9.108610889509594
 21
-35.7989250712761
 72
     1
 10
-9.108610889509594
 20
-35.7989250712761
 11
-16.15704779139887
 21
-44.19892507127612
 72
     1
 10
-16.15704779139887
 20
-44.19892507127612
 11
-12.71077254756159
 21
-44.19892507127612
 72
     1
 10
-12.71077254756159
 20
-44.19892507127612
 11
-5.662335645672506
 21
-35.79892507127613
 97
        0
 75
     0
 76
     1
 98
        1
 10
0.0
 20
0.0
  0
HATCH
  5
D5
330
1F
100
AcDbEntity
  8
중심선
100
AcDbHatch
 10
0.0
 20
0.0
 30
0.0
210
0.0
220
0.0
230
1.0
  2
SOLID
 70
     1
 71
     0
 91
        1
 92
        0
 93
        6
 72
     3
 10
-0.8624452146603068
 20
-39.99892507132738
 11
3.960054785062284
 21
1.540850780301639E-10
 40
0.3939339440162633
 50
17.09539180608433
 51
320.0019657685079
 73
     0
 72
     1
 10
0.8205544410402887
 20
-38.58681907591441
 11
3.125856314741355
 21
-36.65249236586649
 72
     3
 10
-0.8624452147131534
 20
-39.99892507127625
 11
6.600054785286829
 21
-1.249000902703301E-13
 40
0.6363583540795982
 50
39.99873849337387
 51
368.4976242363725
 73
     1
 72
     1
 10
5.562887277187456
 20
-39.03892507120613
 11
-2.182377907877231
 21
-39.03892507120613
 72
     1
 10
-2.182377907877231
 20
-39.03892507120613
 11
-2.182402952323165
 21
-40.95892507120602
 72
     1
 10
-2.182402952323165
 20
-40.95892507120602
 11
2.258976817148873
 21
-40.95892507120599
 97
        0
 75
     0
 76
     1
 98
        1
 10
0.0
 20
0.0
  0
LINE
  5
128
330
1F
100
AcDbEntity
  8
참조1
100
AcDbLine
 10
83.30561285443832
 20
7.441074928723896
 30
0.0
 11
83.30561285443832
 21
-7.438925071276109
 31
0.0
  0
LINE
  5
129
330
1F
100
AcDbEntity
  8
참조1
100
AcDbLine
 10
96.00561285443833
 20
5.441074928723896
 30
0.0
 11
83.30561285443832
 21
5.441074928723896
 31
0.0
  0
SOLID
  5
12A
330
1F
100
AcDbEntity
  8
참조1
100
AcDbTrace
 10
83.30561285443832
 20
5.441074928723896
 30
0.0
 11
89.65561285443832
 21
4.425074928723896
 31
0.0
 12
89.65561285443832
 22
6.457074928723896
 32
0.0
 13
89.65561285443832
 23
6.457074928723896
 33
0.0
  0
LINE
  5
12B
330
1F
100
AcDbEntity
  8
참조1
100
AcDbLine
 10
96.00561285443833
 20
-5.438925071276109
 30
0.0
 11
83.30561285443832
 21
-5.438925071276109
 31
0.0
  0
SOLID
  5
12C
330
1F
100
AcDbEntity
  8
참조1
100
AcDbTrace
 10
83.30561285443832
 20
-5.438925071276109
 30
0.0
 11
89.65561285443832
 21
-6.454925071276109
 31
0.0
 12
89.65561285443832
 22
-4.422925071276109
 32
0.0
 13
89.65561285443832
 23
-4.422925071276109
 33
0.0
  0
MTEXT
  5
12D
330
1F
100
AcDbEntity
  8
참조1
100
AcDbMText
 10
92.7031029469086
 20
10.98929157337383
 30
0.0
 40
3.5
 41
0.0
 71
     1
 72
     1
  1
A
  7
SLDTEXTSTYLE0
 73
     1
 44
1.0
  0
MTEXT
  5
12E
330
1F
100
AcDbEntity
  8
참조1
100
AcDbMText
 10
92.7031029469086
 20
0.1092915733738251
 30
0.0
 40
3.5
 41
0.0
 71
     1
 72
     1
  1
A
  7
SLDTEXTSTYLE0
 73
     1
 44
1.0
  0
LINE
  5
210
330
1F
100
AcDbEntity
  8
외형선
  6
Continuous
370
    15
100
AcDbLine
 10
8.480082077303166
 20
3.969824928723888
 30
0.0
 11
-44.7525
 21
3.969824928723888
 31
0.0
  0
LINE
  5
211
330
1F
100
AcDbEntity
  8
외형선
  6
Continuous
370
    15
100
AcDbLine
 10
10.00000000000003
 20
3.969824928723888
 30
0.0
 11
9.32385053040781
 21
3.969824928723888
 31
0.0
  0
LINE
  5
212
330
1F
100
AcDbEntity
  8
외형선
  6
Continuous
370
    15
100
AcDbLine
 10
9.323850530407839
 20
-3.967675071276108
 30
0.0
 11
10.00000000000003
 21
-3.967675071276108
 31
0.0
  0
LINE
  5
213
330
1F
100
AcDbEntity
  8
외형선
  6
Continuous
370
    15
100
AcDbLine
 10
-44.7525
 20
-3.967675071276108
 30
0.0
 11
8.480082077303166
 21
-3.967675071276108
 31
0.0
  0
LINE
  5
214
330
1F
100
AcDbEntity
  8
외형선
  6
Continuous
370
    15
100
AcDbLine
 10
-44.7525
 20
3.969824928723888
 30
0.0
 11
-45.5625
 21
3.159824928723886
 31
0.0
  0
LINE
  5
215
330
1F
100
AcDbEntity
  8
외형선
  6
Continuous
370
    15
100
AcDbLine
 10
-45.5625
 20
-3.157675071276106
 30
0.0
 11
-44.7525
 21
-3.967675071276108
 31
0.0
  0
SPLINE
  5
216
330
1F
100
AcDbEntity
  8
0
  6
Continuous
 62
     1
370
    15
100
AcDbSpline
210
0.0
220
0.0
230
1.0
 70
     8
 71
     3
 72
     9
 73
     5
 74
     0
 42
0.000000001
 43
0.00000001
 40
0.0
 40
0.0
 40
0.0
 40
0.0
 40
0.4991388217032027
 40
0.9999999999999999
 40
0.9999999999999999
 40
0.9999999999999999
 40
0.9999999999999999
 10
20.35613925648838
 20
1.018055736374258
 30
0.0
 10
20.17273083577035
 20
1.105352845278766
 30
0.0
 10
19.80528111488471
 20
1.280248295419504
 30
0.0
 10
19.43777697131856
 20
1.472491615032105
 30
0.0
 10
19.25370841294307
 20
1.568778830612963
 30
0.0
  0
LINE
  5
217
330
1F
100
AcDbEntity
  8
0
  6
Continuous
 62
     1
370
    15
100
AcDbLine
 10
11.24852252418233
 20
3.969824928723888
 30
0.0
 11
10.00000000000003
 21
3.969824928723888
 31
0.0
  0
SPLINE
  5
218
330
1F
100
AcDbEntity
  8
0
  6
Continuous
 62
     1
370
    15
100
AcDbSpline
210
0.0
220
0.0
230
1.0
 70
     8
 71
     3
 72
    14
 73
    10
 74
     0
 42
0.000000001
 43
0.00000001
 40
0.0
 40
0.0
 40
0.0
 40
0.0
 40
0.1909949357462679
 40
0.3341047322380615
 40
0.4291277786541973
 40
0.5102467552125802
 40
0.5946472737051257
 40
0.9362794335786445
 40
0.9999999999999999
 40
0.9999999999999999
 40
0.9999999999999999
 40
0.9999999999999999
 10
19.04328736894314
 20
3.154796851928147
 30
0.0
 10
18.83679226065792
 20
3.144673972049013
 30
0.0
 10
18.47557329643496
 20
3.12696616184828
 30
0.0
 10
18.01268680318481
 20
3.11292256093153
 30
0.0
 10
17.67113253180673
 20
3.105742929789621
 30
0.0
 10
17.39279723673926
 20
3.10196369299134
 30
0.0
 10
16.84795862864064
 20
3.098699631492146
 30
0.0
 10
16.32025831259443
 20
3.10265864461973
 30
0.0
 10
15.88424318077571
 20
3.118517585361865
 30
0.0
 10
15.8157025509353
 20
3.121010576333383
 30
0.0
  0
SPLINE
  5
219
330
1F
100
AcDbEntity
  8
0
  6
Continuous
 62
     1
370
    15
100
AcDbSpline
210
0.0
220
0.0
230
1.0
 70
     8
 71
     3
 72
    24
 73
    20
 74
     0
 42
0.000000001
 43
0.00000001
 40
0.0
 40
0.0
 40
0.0
 40
0.0
 40
0.0735984773699746
 40
0.1298925369912364
 40
0.1688146779393888
 40
0.2028509343597636
 40
0.2381918541359988
 40
0.2750097132335136
 40
0.3780050604118095
 40
0.4936377593440184
 40
0.6116253343510774
 40
0.7131201671119545
 40
0.745531031700044
 40
0.7747887321649515
 40
0.8015842424453976
 40
0.8312558188061882
 40
0.8743186785668192
 40
0.9306886244559452
 40
1.0
 40
1.0
 40
1.0
 40
1.0
 10
29.1883956941293
 20
2.717755605905744
 30
0.0
 10
29.01737923451955
 20
2.703708322083607
 30
0.0
 10
28.71555557457742
 20
2.678916541075402
 30
0.0
 10
28.32358538438726
 20
2.655118993520709
 30
0.0
 10
28.0226028159762
 20
2.640130596097187
 30
0.0
 10
27.7704003376206
 20
2.62995951451898
 30
0.0
 10
27.52368504121486
 20
2.622166976857194
 30
0.0
 10
27.11776951573987
 20
2.613080160247016
 30
0.0
 10
26.52540219568019
 20
2.610603214925355
 30
0.0
 10
25.74497826655869
 20
2.629240845364968
 30
0.0
 10
24.96833261776152
 20
2.67117571001814
 30
0.0
 10
24.38383465355568
 20
2.718381945149808
 30
0.0
 10
24.00567245127397
 20
2.755269390544633
 30
0.0
 10
23.80224385293155
 20
2.776636612153204
 30
0.0
 10
23.60916786414012
 20
2.797974742562054
 30
0.0
 10
23.37953797666037
 20
2.824817827261278
 30
0.0
 10
23.07966975542266
 20
2.862471044767638
 30
0.0
 10
22.68607471224519
 20
2.915910625416949
 30
0.0
 10
22.3921761036456
 20
2.961153234915137
 30
0.0
 10
22.23009540143599
 20
2.986103859731649
 30
0.0
  0
SPLINE
  5
21A
330
1F
100
AcDbEntity
  8
0
  6
Continuous
 62
     1
370
    15
100
AcDbSpline
210
0.0
220
0.0
230
1.0
 70
     8
 71
     3
 72
    21
 73
    17
 74
     0
 42
0.000000001
 43
0.00000001
 40
0.0
 40
0.0
 40
0.0
 40
0.0
 40
0.0839315754602137
 40
0.151814287308852
 40
0.2038656880772458
 40
0.2631677902427911
 40
0.3163923168389236
 40
0.3722598844586766
 40
0.4314326074311062
 40
0.4937310683028677
 40
0.6113343247302263
 40
0.7272840872268618
 40
0.770263891065956
 40
0.8216493480195864
 40
0.8983453408576236
 40
1.0
 40
1.0
 40
1.0
 40
1.0
 10
13.07389345291367
 20
-3.301491428535527
 30
0.0
 10
13.24115258837813
 20
-3.285331581941104
 30
0.0
 10
13.54368862808903
 20
-3.256101872141173
 30
0.0
 10
13.94929170418843
 20
-3.222300191895545
 30
0.0
 10
14.3055740262422
 20
-3.195380096390288
 30
0.0
 10
14.63298814944577
 20
-3.173534344520331
 30
0.0
 10
14.96810093613007
 20
-3.153998014271284
 30
0.0
 10
15.30294784949314
 20
-3.137254125173452
 30
0.0
 10
15.65573231248496
 20
-3.122680920779334
 30
0.0
 10
16.13136410693491
 20
-3.107581651111374
 30
0.0
 10
16.72003535926245
 20
-3.097373211166708
 30
0.0
 10
17.27107174849499
 20
-3.098082525479274
 30
0.0
 10
17.68649600090683
 20
-3.103861436528842
 30
0.0
 10
18.02512278253553
 20
-3.11111222490219
 30
0.0
 10
18.48341409432396
 20
-3.125160617000052
 30
0.0
 10
18.84002791409165
 20
-3.142668189711923
 30
0.0
 10
19.04328736894314
 20
-3.15264699448036
 30
0.0
  0
SPLINE
  5
21B
330
1F
100
AcDbEntity
  8
0
  6
Continuous
 62
     1
370
    15
100
AcDbSpline
210
0.0
220
0.0
230
1.0
 70
     8
 71
     3
 72
    15
 73
    11
 74
     0
 42
0.000000001
 43
0.00000001
 40
0.0
 40
0.0
 40
0.0
 40
0.0
 40
0.1808793989221224
 40
0.3056704563631521
 40
0.3775477896507507
 40
0.4511911324526776
 40
0.6000270348586852
 40
0.745726426367584
 40
0.968183794565455
 40
0.9999999999999999
 40
0.9999999999999999
 40
0.9999999999999999
 40
0.9999999999999999
 10
22.23009540143599
 20
-2.983954002283859
 30
0.0
 10
22.40933950378806
 20
-2.956451002473326
 30
0.0
 10
22.71224645114003
 20
-2.909973324232801
 30
0.0
 10
23.08583736841379
 20
-2.859814904549221
 30
0.0
 10
23.35330284399504
 20
-2.826116280261104
 30
0.0
 10
23.64514425683078
 20
-2.791451911668187
 30
0.0
 10
24.01019798416627
 20
-2.751695504479017
 30
0.0
 10
24.52233385376346
 20
-2.704559469462055
 30
0.0
 10
24.91856010117615
 20
-2.672831692338505
 30
0.0
 10
25.17031162699516
 20
-2.660191772631975
 30
0.0
 10
25.20181225896997
 20
-2.658610191517138
 30
0.0
  0
LINE
  5
21C
330
1F
100
AcDbEntity
  8
0
  6
Continuous
 62
     1
370
    15
100
AcDbLine
 10
10.00000000000003
 20
-3.967675071276108
 30
0.0
 11
11.24852252418236
 21
-3.967675071276108
 31
0.0
  0
SPLINE
  5
21D
330
1F
100
AcDbEntity
  8
외형선
  6
Continuous
370
    15
100
AcDbSpline
210
0.0
220
0.0
230
1.0
 70
     8
 71
     3
 72
    10
 73
     6
 74
     0
 42
0.000000001
 43
0.00000001
 40
0.0
 40
0.0
 40
0.0
 40
0.0
 40
0.5000000000000001
 40
0.5000000000000001
 40
1.0
 40
1.0
 40
1.0
 40
1.0
 10
10.00000000000003
 20
3.95070051807226
 30
0.0
 10
9.745747797176051
 20
3.965061344449701
 30
0.0
 10
9.49110784219738
 20
3.971336433427233
 30
0.0
 10
8.985705931635067
 20
3.967698869901874
 30
0.0
 10
8.734109411725598
 20
3.957825761394353
 30
0.0
 10
8.480082077303166
 20
3.939870563556305
 30
0.0
  0
SPLINE
  5
21E
330
1F
100
AcDbEntity
  8
외형선
  6
Continuous
370
    15
100
AcDbSpline
210
0.0
220
0.0
230
1.0
 70
     8
 71
     3
 72
    10
 73
     6
 74
     0
 42
0.000000001
 43
0.00000001
 40
0.0
 40
0.0
 40
0.0
 40
0.0
 40
0.5000000000000001
 40
0.5000000000000001
 40
1.0
 40
1.0
 40
1.0
 40
1.0
 10
10.00000000000003
 20
-3.902407286826143
 30
0.0
 10
9.745762147047657
 20
-3.875956339908381
 30
0.0
 10
9.491136585128658
 20
-3.841494788993735
 30
0.0
 10
8.985762762660471
 20
-3.75727691641875
 30
0.0
 10
8.73418091181091
 20
-3.7075139166894
 30
0.0
 10
8.480168100352643
 20
-3.650129513152137
 30
0.0
  0
LINE
  5
21F
330
1F
100
AcDbEntity
  8
외형선
  6
Continuous
370
    15
100
AcDbLine
 10
8.480082077303166
 20
-3.937720706108522
 30
0.0
 11
9.323850530407839
 21
-3.967475968391899
 31
0.0
  0
LINE
  5
220
330
1F
100
AcDbEntity
  8
외형선
  6
Continuous
370
    15
100
AcDbLine
 10
8.480082077303166
 20
-3.967675071276108
 30
0.0
 11
8.480082077303166
 21
-3.93772121861242
 31
0.0
  0
LINE
  5
221
330
1F
100
AcDbEntity
  8
외형선
  6
Continuous
370
    15
100
AcDbLine
 10
-44.7525
 20
3.969824928723888
 30
0.0
 11
-44.7525
 21
-3.967675071276108
 31
0.0
  0
LINE
  5
222
330
1F
100
AcDbEntity
  8
외형선
  6
Continuous
370
    15
100
AcDbLine
 10
8.480082077303166
 20
-3.650062844033727
 30
0.0
 11
8.480082077303166
 21
3.969824928723888
 31
0.0
  0
LINE
  5
223
330
1F
100
AcDbEntity
  8
외형선
  6
Continuous
370
    15
100
AcDbLine
 10
-45.5625
 20
3.159824928723886
 30
0.0
 11
-45.5625
 21
-3.15767507127611
 31
0.0
  0
SPLINE
  5
224
330
1F
100
AcDbEntity
  8
외형선
  6
Continuous
370
    15
100
AcDbSpline
210
0.0
220
0.0
230
1.0
 70
    24
 71
     3
 72
    14
 73
    10
 74
     0
 42
0.000000001
 43
0.00000001
 40
0.0
 40
0.0
 40
0.0
 40
0.0
 40
0.25
 40
0.25
 40
0.5
 40
0.5
 40
0.75
 40
0.75
 40
1.0
 40
1.0
 40
1.0
 40
1.0
 10
10.00000000000003
 20
-0.4398592004454471
 30
0.0
 10
10.00000000000003
 20
-0.7360260833086585
 30
0.0
 10
10.00000000000003
 20
-1.031009798933319
 30
0.0
 10
10.00000000000003
 20
-1.596557822184167
 30
0.0
 10
10.00000000000003
 20
-1.866943321073173
 30
0.0
 10
10.00000000000003
 20
-2.362302429267398
 30
0.0
 10
10.0
 20
-2.587132993899338
 30
0.0
 10
10.00000000000003
 20
-2.976875796125345
 30
0.0
 10
10.00000000000003
 20
-3.14174766135886
 30
0.0
 10
10.00000000000003
 20
-3.27413036227124
 30
0.0
  0
SPLINE
  5
225
330
1F
100
AcDbEntity
  8
외형선
  6
Continuous
370
    15
100
AcDbSpline
210
0.0
220
0.0
230
1.0
 70
     8
 71
     3
 72
    10
 73
     6
 74
     0
 42
0.000000001
 43
0.00000001
 40
0.0
 40
0.0
 40
0.0
 40
0.0
 40
0.5
 40
0.5
 40
1.0
 40
1.0
 40
1.0
 40
1.0
 10
10.00000000000003
 20
-3.27413036227124
 30
0.0
 10
9.745762147047657
 20
-3.244308394547129
 30
0.0
 10
9.491136585128658
 20
-3.207761354780263
 30
0.0
 10
8.985762762660471
 20
-3.121966012273266
 30
0.0
 10
8.73418091181091
 20
-3.072703516861623
 30
0.0
 10
8.480168100352643
 20
-3.017114880986359
 30
0.0
  0
SPLINE
  5
226
330
1F
100
AcDbEntity
  8
외형선
  6
Continuous
370
    15
100
AcDbSpline
210
0.0
220
0.0
230
1.0
 70
     8
 71
     3
 72
    10
 73
     6
 74
     0
 42
0.000000001
 43
0.00000001
 40
0.0
 40
0.0
 40
0.0
 40
0.0
 40
0.5
 40
0.5
 40
1.0
 40
1.0
 40
1.0
 40
1.0
 10
10.0
 20
-0.4398592004454471
 30
0.0
 10
9.745753036213927
 20
-0.3238284381379302
 30
0.0
 10
9.491118336041069
 20
-0.2068364520905632
 30
0.0
 10
8.985726680236581
 20
0.0269225265365876
 30
0.0
 10
8.734135515919007
 20
0.1438176491311012
 30
0.0
 10
8.480113483724864
 20
0.2605574032196714
 30
0.0
  0
SPLINE
  5
227
330
1F
100
AcDbEntity
  8
외형선
  6
Continuous
370
    15
100
AcDbSpline
210
0.0
220
0.0
230
1.0
 70
    24
 71
     3
 72
    14
 73
    10
 74
     0
 42
0.000000001
 43
0.00000001
 40
0.0
 40
0.0
 40
0.0
 40
0.0
 40
0.25
 40
0.25
 40
0.5
 40
0.5
 40
0.75
 40
0.75
 40
1.0
 40
1.0
 40
1.0
 40
1.0
 10
10.00000000000003
 20
2.752278933885059
 30
0.0
 10
10.00000000000003
 20
2.630451052566976
 30
0.0
 10
10.00000000000003
 20
2.464287177082163
 30
0.0
 10
10.00000000000003
 20
2.046644119490871
 30
0.0
 10
10.00000000000003
 20
1.795202069549489
 30
0.0
 10
10.00000000000003
 20
1.227867090192994
 30
0.0
 10
10.00000000000003
 20
0.9122764605741551
 30
0.0
 10
10.00000000000003
 20
0.2502065875911725
 30
0.0
 10
10.00000000000003
 20
-0.0958922129570325
 30
0.0
 10
10.00000000000003
 20
-0.4398592004454542
 30
0.0
  0
SPLINE
  5
228
330
1F
100
AcDbEntity
  8
외형선
  6
Continuous
370
    15
100
AcDbSpline
210
0.0
220
0.0
230
1.0
 70
     8
 71
     3
 72
    10
 73
     6
 74
     0
 42
0.000000001
 43
0.00000001
 40
0.0
 40
0.0
 40
0.0
 40
0.0
 40
0.5
 40
0.5
 40
1.0
 40
1.0
 40
1.0
 40
1.0
 10
10.0
 20
2.752278933885059
 30
0.0
 10
9.74575125359658
 20
2.766516744664507
 30
0.0
 10
9.491114765441267
 20
2.775124508242122
 30
0.0
 10
8.985719620386362
 20
2.780991237838911
 30
0.0
 10
8.734126633795825
 20
2.778282521747307
 30
0.0
 10
8.480102797482829
 20
2.769906116983215
 30
0.0
  0
SPLINE
  5
229
330
1F
100
AcDbEntity
  8
외형선
  6
Continuous
370
    15
100
AcDbSpline
210
0.0
220
0.0
230
1.0
 70
    24
 71
     3
 72
     8
 73
     4
 74
     0
 42
0.000000001
 43
0.00000001
 40
0.0
 40
0.0
 40
0.0
 40
0.0
 40
1.0
 40
1.0
 40
1.0
 40
1.0
 10
10.00000000000003
 20
-3.274130362271244
 30
0.0
 10
10.00000000000003
 20
-3.484853616348346
 30
0.0
 10
10.00000000000003
 20
-3.695631000822086
 30
0.0
 10
10.00000000000003
 20
-3.902407286821166
 30
0.0
  0
SPLINE
  5
22A
330
1F
100
AcDbEntity
  8
외형선
  6
Continuous
370
    15
100
AcDbSpline
210
0.0
220
0.0
230
1.0
 70
    24
 71
     3
 72
    10
 73
     6
 74
     0
 42
0.000000001
 43
0.00000001
 40
0.0
 40
0.0
 40
0.0
 40
0.0
 40
0.5
 40
0.5
 40
1.0
 40
1.0
 40
1.0
 40
1.0
 10
10.00000000000003
 20
3.95070051807226
 30
0.0
 10
10.00000000000003
 20
3.760929027397346
 30
0.0
 10
10.00000000000003
 20
3.550847020944282
 30
0.0
 10
10.00000000000003
 20
3.136107597572753
 30
0.0
 10
10.00000000000003
 20
2.932552726303619
 30
0.0
 10
10.00000000000003
 20
2.752278933885059
 30
0.0
  0
SPLINE
  5
22B
330
1F
100
AcDbEntity
  8
0
  6
Continuous
 62
     1
370
    15
100
AcDbSpline
210
0.0
220
0.0
230
1.0
 70
     8
 71
     3
 72
    14
 73
    10
 74
     0
 42
0.000000001
 43
0.00000001
 40
0.0
 40
0.0
 40
0.0
 40
0.0
 40
0.112775632115902
 40
0.2841944460882984
 40
0.4555703600205441
 40
0.6268866538627518
 40
0.7513706614766652
 40
0.8757122874544289
 40
1.0
 40
1.0
 40
1.0
 40
1.0
 10
20.77245774442488
 20
-0.3724555377552505
 30
0.0
 10
20.36745475569171
 20
-0.2101317312318898
 30
0.0
 10
19.34684775143361
 20
0.1989240498471148
 30
0.0
 10
17.71081863907841
 20
0.8583289805847869
 30
0.0
 10
15.86460725357145
 20
1.537333483453644
 30
0.0
 10
14.18699665927502
 20
2.056217598355708
 30
0.0
 10
12.67836244225663
 20
2.413191353405118
 30
0.0
 10
11.33881048333291
 20
2.646848287346863
 30
0.0
 10
10.44620564285952
 20
2.717140465818566
 30
0.0
 10
10.00000000000003
 20
2.752278933885059
 30
0.0
  0
SPLINE
  5
22C
330
1F
100
AcDbEntity
  8
외형선
  6
Continuous
370
    15
100
AcDbSpline
210
0.0
220
0.0
230
1.0
 70
    24
 71
     3
 72
    10
 73
     6
 74
     0
 42
0.000000001
 43
0.00000001
 40
0.0
 40
0.0
 40
0.0
 40
0.0
 40
0.5
 40
0.5
 40
1.0
 40
1.0
 40
1.0
 40
1.0
 10
10.00000000000003
 20
3.95070051807226
 30
0.0
 10
10.00000000000003
 20
3.760929027397331
 30
0.0
 10
10.00000000000003
 20
3.550847020944282
 30
0.0
 10
10.00000000000003
 20
3.136107597572753
 30
0.0
 10
10.00000000000003
 20
2.932552726303619
 30
0.0
 10
10.00000000000003
 20
2.752278933885059
 30
0.0
  0
SPLINE
  5
22D
330
1F
100
AcDbEntity
  8
0
  6
Continuous
 62
     1
370
    15
100
AcDbSpline
210
0.0
220
0.0
230
1.0
 70
     8
 71
     3
 72
    15
 73
    11
 74
     0
 42
0.000000001
 43
0.00000001
 40
0.0143846810505113
 40
0.0143846810505113
 40
0.0143846810505113
 40
0.0143846810505113
 40
0.1345643568230871
 40
0.2690151365464714
 40
0.4034087347066513
 40
0.5378019880249978
 40
0.6722517358873045
 40
0.8068143817803268
 40
0.9413804328440847
 40
1.0
 40
1.0
 40
1.0
 40
1.0
 10
30.48933368659391
 20
-3.099157845140964
 30
0.0
 10
30.07670566110608
 20
-3.01265418170859
 30
0.0
 10
29.20245814518665
 20
-2.824880220204973
 30
0.0
 10
27.86700551097019
 20
-2.401900140395377
 30
0.0
 10
26.48283046333401
 20
-1.875197255002064
 30
0.0
 10
25.09866038308499
 20
-1.270356040694857
 30
0.0
 10
23.71383710716265
 20
-0.6139395029168142
 30
0.0
 10
22.32819147236026
 20
0.0648894118799106
 30
0.0
 10
21.20286399404614
 20
0.621457858238962
 30
0.0
 10
20.53968973708436
 20
0.9275259577278234
 30
0.0
 10
20.33845846402014
 20
1.020398189509947
 30
0.0
  0
SPLINE
  5
230
330
1F
100
AcDbEntity
  8
0
  6
Continuous
 62
     1
370
    15
100
AcDbSpline
210
0.0
220
0.0
230
1.0
 70
     8
 71
     3
 72
    21
 73
    17
 74
     0
 42
0.000000001
 43
0.00000001
 40
0.0040064096873036
 40
0.0040064096873036
 40
0.0040064096873036
 40
0.0040064096873036
 40
0.0746245662122338
 40
0.1493002488500607
 40
0.2239782208323308
 40
0.2986042803387312
 40
0.3732007502872083
 40
0.4477901664683358
 40
0.5223951095097287
 40
0.5970380613862093
 40
0.6752635614449044
 40
0.7534779677930737
 40
0.8316629608335874
 40
0.9098273501549302
 40
0.9879800160750932
 40
1.0
 40
1.0
 40
1.0
 40
1.0
 10
30.0538605179261
 20
-3.642965735096077
 30
0.0
 10
29.6094458386971
 20
-3.530076960733201
 30
0.0
 10
28.69507690526945
 20
-3.294859464196822
 30
0.0
 10
27.3104675717631
 20
-2.767373575034529
 30
0.0
 10
25.90062102836984
 20
-2.125427161193642
 30
0.0
 10
24.491546104013
 20
-1.391328090662427
 30
0.0
 10
23.08311977218258
 20
-0.599865163274913
 30
0.0
 10
21.67485884662668
 20
0.2169332579270957
 30
0.0
 10
20.26624404862926
 20
1.024738940925324
 30
0.0
 10
18.83460577296549
 20
1.801757046557412
 30
0.0
 10
17.37999456986452
 20
2.512123512064257
 30
0.0
 10
15.90318549559234
 20
3.116864955016943
 30
0.0
 10
14.42688414698395
 20
3.583061586589771
 30
0.0
 10
12.95104578677149
 20
3.867496714983979
 30
0.0
 10
11.89164980427719
 20
3.990190992236968
 30
0.0
 10
11.32416769823482
 20
3.961739581295951
 30
0.0
 10
11.24852252418233
 20
3.957947017777649
 30
0.0
  0
LINE
  5
231
330
1F
100
AcDbEntity
  8
외형선
  6
Continuous
370
    15
100
AcDbLine
 10
10.00000000000003
 20
3.950700518064444
 30
0.0
 11
10.00000000000003
 21
3.969824928723888
 31
0.0
  0
SPLINE
  5
232
330
1F
100
AcDbEntity
  8
0
  6
Continuous
 62
     1
370
    15
100
AcDbSpline
210
0.0
220
0.0
230
1.0
 70
     8
 71
     3
 72
     8
 73
     4
 74
     0
 42
0.000000001
 43
0.00000001
 40
0.0
 40
0.0
 40
0.0
 40
0.0
 40
1.0
 40
1.0
 40
1.0
 40
1.0
 10
30.63750000000002
 20
-1.059545513331258
 30
0.0
 10
30.12049701749257
 20
-0.653092971055365
 30
0.0
 10
29.61288716063783
 20
-0.2258524638771462
 30
0.0
 10
29.11546605240355
 20
0.2239368046563683
 30
0.0
  0
LINE
  5
233
330
1F
100
AcDbEntity
  8
0
  6
Continuous
 62
     1
370
    15
100
AcDbLine
 10
29.58608107100642
 20
0.618829693192545
 30
0.0
 11
30.63750000000002
 21
0.0010749287238951
 31
0.0
  0
LINE
  5
234
330
1F
100
AcDbEntity
  8
0
  6
Continuous
 62
     1
370
    15
100
AcDbLine
 10
30.63750000000002
 20
0.0010749287238951
 30
0.0
 11
30.63750000000002
 21
-1.059545513331258
 31
0.0
  0
SPLINE
  5
235
330
1F
100
AcDbEntity
  8
0
  6
Continuous
 62
     1
370
    15
100
AcDbSpline
210
0.0
220
0.0
230
1.0
 70
     8
 71
     3
 72
    15
 73
    11
 74
     0
 42
0.000000001
 43
0.00000001
 40
0.0
 40
0.0
 40
0.0
 40
0.0
 40
0.139948693428542
 40
0.2798840685653977
 40
0.4198275157782221
 40
0.5524419203214744
 40
0.6851692318712616
 40
0.8178999696012274
 40
0.950516459100785
 40
1.0
 40
1.0
 40
1.0
 40
1.0
 10
29.48236121030104
 20
0.5317983963296982
 30
0.0
 10
28.99527539778697
 20
0.7513428590240849
 30
0.0
 10
28.02115012653863
 20
1.190410891347547
 30
0.0
 10
26.55999735201974
 20
1.78906416460886
 30
0.0
 10
25.12432208438767
 20
2.299952375307662
 30
0.0
 10
23.71381912714011
 20
2.703127306586815
 30
0.0
 10
22.32816269035797
 20
2.991851354149112
 30
0.0
 10
20.94250291798798
 20
3.15132640017972
 30
0.0
 10
19.84677418126
 20
3.201135054244567
 30
0.0
 10
19.21302895065938
 20
3.152870840231863
 30
0.0
 10
19.04081614009897
 20
3.139755607890415
 30
0.0
  0
SPLINE
  5
236
330
1F
100
AcDbEntity
  8
0
  6
Continuous
 62
     1
370
    15
100
AcDbSpline
210
0.0
220
0.0
230
1.0
 70
    24
 71
     3
 72
     8
 73
     4
 74
     0
 42
0.000000001
 43
0.00000001
 40
0.0
 40
0.0
 40
0.0
 40
0.0
 40
1.0
 40
1.0
 40
1.0
 40
1.0
 10
29.48236121030098
 20
0.5317983963294992
 30
0.0
 10
29.36002617462222
 20
0.4291471130114175
 30
0.0
 10
29.23772813606925
 20
0.3265268739672464
 30
0.0
 10
29.11546605239482
 20
0.223936804649064
 30
0.0
  0
SPLINE
  5
237
330
1F
100
AcDbEntity
  8
0
  6
Continuous
 62
     1
370
    15
100
AcDbSpline
210
0.0
220
0.0
230
1.0
 70
    24
 71
     3
 72
    10
 73
     6
 74
     0
 42
0.000000001
 43
0.00000001
 40
0.3980474112821368
 40
0.3980474112821368
 40
0.3980474112821368
 40
0.3980474112821368
 40
0.5
 40
0.5
 40
1.0
 40
1.0
 40
1.0
 40
1.0
 10
30.63750000000005
 20
-2.443675348983115
 30
0.0
 10
30.63750000000002
 20
-2.376001816024916
 30
0.0
 10
30.63750000000002
 20
-2.306161171258997
 30
0.0
 10
30.63750000000002
 20
-1.881710227905366
 30
0.0
 10
30.63750000000002
 20
-1.480488985885991
 30
0.0
 10
30.63750000000002
 20
-1.059545513331386
 30
0.0
  0
LINE
  5
238
330
1F
100
AcDbEntity
  8
0
  6
Continuous
 62
     1
370
    15
100
AcDbLine
 10
30.60102998610327
 20
2.777231839399628
 30
0.0
 11
29.18431204459583
 21
2.700779237432791
 31
0.0
  0
SPLINE
  5
239
330
1F
100
AcDbEntity
  8
0
  6
Continuous
 62
     1
370
    15
100
AcDbSpline
210
0.0
220
0.0
230
1.0
 70
    24
 71
     3
 72
    10
 73
     6
 74
     0
 42
0.000000001
 43
0.00000001
 40
0.0
 40
0.0
 40
0.0
 40
0.0
 40
0.5
 40
0.5
 40
0.6021926728676176
 40
0.6021926728676176
 40
0.6021926728676176
 40
0.6021926728676176
 10
30.63750000000002
 20
1.501074928723895
 30
0.0
 10
30.63750000000002
 20
1.825873207780084
 30
0.0
 10
30.63750000000002
 20
2.105212301021901
 30
0.0
 10
30.63750000000002
 20
2.365444484696535
 30
0.0
 10
30.63750000000002
 20
2.40695917938679
 30
0.0
 10
30.63750000000005
 20
2.445825206451688
 30
0.0
  0
SPLINE
  5
23A
330
1F
100
AcDbEntity
  8
0
  6
Continuous
 62
     1
370
    15
100
AcDbSpline
210
0.0
220
0.0
230
1.0
 70
    24
 71
     3
 72
     8
 73
     4
 74
     0
 42
0.000000001
 43
0.00000001
 40
0.0
 40
0.0
 40
0.0
 40
0.0
 40
1.0
 40
1.0
 40
1.0
 40
1.0
 10
30.63750000000002
 20
1.501074928723895
 30
0.0
 10
30.26708880967934
 20
1.190263035541868
 30
0.0
 10
29.8809979847708
 20
0.8662943667601795
 30
0.0
 10
29.48236121030166
 20
0.5317983963294282
 30
0.0
  0
SPLINE
  5
23B
330
1F
100
AcDbEntity
  8
0
  6
Continuous
 62
     1
370
    15
100
AcDbSpline
210
0.0
220
0.0
230
1.0
 70
     8
 71
     3
 72
    10
 73
     6
 74
     0
 42
0.000000001
 43
0.00000001
 40
0.0
 40
0.0
 40
0.0
 40
0.0
 40
0.1298087783702203
 40
0.5649949885796547
 40
1.0
 40
1.0
 40
1.0
 40
1.0
 10
13.07746934708308
 20
-3.288068714389922
 30
0.0
 10
12.9442835110728
 20
-3.305097935948304
 30
0.0
 10
12.36458981978035
 20
-3.379217921982359
 30
0.0
 10
11.33882557590763
 20
-3.390473970841711
 30
0.0
 10
10.44621323613276
 20
-3.312906181181329
 30
0.0
 10
10.00000000000003
 20
-3.274130362271244
 30
0.0
  0
SPLINE
  5
23C
330
1F
100
AcDbEntity
  8
0
  6
Continuous
 62
     1
370
    15
100
AcDbSpline
210
0.0
220
0.0
230
1.0
 70
     8
 71
     3
 72
    16
 73
    12
 74
     0
 42
0.000000001
 43
0.00000001
 40
0.0
 40
0.0
 40
0.0
 40
0.0
 40
0.105421434842102
 40
0.2186260272726004
 40
0.3317812106916418
 40
0.4449355055087042
 40
0.5581374390303638
 40
0.6714351693071761
 40
0.7810536011091465
 40
0.8905499190826259
 40
0.9999999999999999
 40
0.9999999999999999
 40
0.9999999999999999
 40
0.9999999999999999
 10
22.23177018853715
 20
-2.979626574050766
 30
0.0
 10
21.80188258505237
 20
-3.038792661195618
 30
0.0
 10
20.91036921242201
 20
-3.16149300767751
 30
0.0
 10
19.55764788153786
 20
-3.191078093889896
 30
0.0
 10
18.17346103212205
 20
-3.102479707443539
 30
0.0
 10
16.78928733780498
 20
-2.885619875998053
 30
0.0
 10
15.40446936839476
 20
-2.552633684784652
 30
0.0
 10
14.03385537579626
 20
-2.121038528252473
 30
0.0
 10
12.67834177704745
 20
-1.61165598799348
 30
0.0
 10
11.33880748005041
 20
-1.047743298944788
 30
0.0
 10
10.44620632690666
 20
-0.6424587039723804
 30
0.0
 10
10.00000000000003
 20
-0.4398592004454542
 30
0.0
  0
SPLINE
  5
23D
330
1F
100
AcDbEntity
  8
외형선
  6
Continuous
370
    15
100
AcDbSpline
210
0.0
220
0.0
230
1.0
 70
    24
 71
     3
 72
    14
 73
    10
 74
     0
 42
0.000000001
 43
0.00000001
 40
0.0
 40
0.0
 40
0.0
 40
0.0
 40
0.25
 40
0.25
 40
0.5
 40
0.5
 40
0.75
 40
0.75
 40
1.0
 40
1.0
 40
1.0
 40
1.0
 10
10.00000000000003
 20
-0.4398592004454471
 30
0.0
 10
10.00000000000003
 20
-0.7360260833086585
 30
0.0
 10
10.00000000000003
 20
-1.031009798933319
 30
0.0
 10
10.00000000000003
 20
-1.596557822184167
 30
0.0
 10
10.00000000000003
 20
-1.866943321073173
 30
0.0
 10
10.00000000000003
 20
-2.362302429267398
 30
0.0
 10
10.0
 20
-2.587132993899338
 30
0.0
 10
10.00000000000003
 20
-2.976875796125345
 30
0.0
 10
10.00000000000003
 20
-3.14174766135886
 30
0.0
 10
10.00000000000003
 20
-3.27413036227124
 30
0.0
  0
SPLINE
  5
23E
330
1F
100
AcDbEntity
  8
외형선
  6
Continuous
370
    15
100
AcDbSpline
210
0.0
220
0.0
230
1.0
 70
    24
 71
     3
 72
    14
 73
    10
 74
     0
 42
0.000000001
 43
0.00000001
 40
0.0
 40
0.0
 40
0.0
 40
0.0
 40
0.25
 40
0.25
 40
0.5
 40
0.5
 40
0.75
 40
0.75
 40
1.0
 40
1.0
 40
1.0
 40
1.0
 10
10.00000000000003
 20
2.752278933885059
 30
0.0
 10
10.00000000000003
 20
2.630451052566976
 30
0.0
 10
10.00000000000003
 20
2.464287177082163
 30
0.0
 10
10.00000000000003
 20
2.046644119490871
 30
0.0
 10
10.00000000000003
 20
1.795202069549489
 30
0.0
 10
10.00000000000003
 20
1.227867090192994
 30
0.0
 10
10.00000000000003
 20
0.9122764605741551
 30
0.0
 10
10.00000000000003
 20
0.2502065875911725
 30
0.0
 10
10.00000000000003
 20
-0.0958922129570325
 30
0.0
 10
10.00000000000003
 20
-0.4398592004454542
 30
0.0
  0
LINE
  5
23F
330
1F
100
AcDbEntity
  8
0
  6
Continuous
 62
     1
370
    15
100
AcDbLine
 10
30.63750000000002
 20
0.0010749287238951
 30
0.0
 11
30.63750000000002
 21
1.501074928723895
 31
0.0
  0
SPLINE
  5
240
330
1F
100
AcDbEntity
  8
0
  6
Continuous
 62
     1
370
    15
100
AcDbSpline
210
0.0
220
0.0
230
1.0
 70
     8
 71
     3
 72
    11
 73
     7
 74
     0
 42
0.000000001
 43
0.00000001
 40
0.0
 40
0.0
 40
0.0
 40
0.0
 40
0.2391139957597316
 40
0.4927710586244524
 40
0.7463900770096362
 40
1.0
 40
1.0
 40
1.0
 40
1.0
 10
15.81801523086389
 20
-3.118141726837717
 30
0.0
 10
15.35426032336423
 20
-3.272801963225913
 30
0.0
 10
14.39854463643923
 20
-3.591528971111725
 30
0.0
 10
12.95104724828226
 20
-3.871962231565167
 30
0.0
 10
11.47547461475298
 20
-4.00465786183128
 30
0.0
 10
10.49181899209705
 20
-3.936490404378606
 30
0.0
 10
9.999999999997954
 20
-3.90240728682593
 30
0.0
  0
SPLINE
  5
241
330
1F
100
AcDbEntity
  8
외형선
  6
Continuous
370
    15
100
AcDbSpline
210
0.0
220
0.0
230
1.0
 70
    24
 71
     3
 72
     8
 73
     4
 74
     0
 42
0.000000001
 43
0.00000001
 40
0.0
 40
0.0
 40
0.0
 40
0.0
 40
1.0
 40
1.0
 40
1.0
 40
1.0
 10
10.00000000000003
 20
-3.274130362271244
 30
0.0
 10
10.00000000000003
 20
-3.484853616348346
 30
0.0
 10
10.00000000000003
 20
-3.695631000822086
 30
0.0
 10
10.00000000000003
 20
-3.90240728682117
 30
0.0
  0
SPLINE
  5
242
330
1F
100
AcDbEntity
  8
0
  6
Continuous
 62
     1
370
    15
100
AcDbSpline
210
0.0
220
0.0
230
1.0
 70
     8
 71
     3
 72
    11
 73
     7
 74
     0
 42
0.000000001
 43
0.00000001
 40
0.0
 40
0.0
 40
0.0
 40
0.0
 40
0.1003853880553383
 40
0.4003663975336805
 40
0.7002298836803816
 40
0.9079821786685738
 40
0.9079821786685738
 40
0.9079821786685738
 40
0.9079821786685738
 10
25.20550890986422
 20
2.662383217703187
 30
0.0
 10
25.37027829286177
 20
2.736321665639672
 30
0.0
 10
26.02742696332578
 20
3.031209901995815
 30
0.0
 10
26.9349034147865
 20
3.461894487567608
 30
0.0
 10
27.53581269075258
 20
3.662197579556294
 30
0.0
 10
28.41731838469624
 20
3.879933152163483
 30
0.0
 10
29.11350000000002
 20
3.969824928723896
 30
0.0
  0
LINE
  5
243
330
1F
100
AcDbEntity
  8
중심선
 48
0.8
100
AcDbLine
 10
-48.5625
 20
0.001074928723888
 30
0.0
 11
33.63750000000002
 21
0.0010749287239022
 31
0.0
  0
CIRCLE
  5
244
330
1F
100
AcDbEntity
  8
해칭선
100
AcDbCircle
 10
0.0
 20
0.0
 30
0.0
 40
3.000000000000001
  0
DIMENSION
  5
245
330
1F
100
AcDbEntity
  8
치수문자_일반주서
100
AcDbDimension
  2
*D13
 10
-58.25249999999998
 20
-3.967675071276152
 30
0.0
 11
-58.2525
 21
0.001074928723888
 31
0.0
 70
   160
  1
%%c<>
 71
     2
 42
7.937499999999989
 52
-270.0
  3
SLDDIMSTYLE0
100
AcDbAlignedDimension
 13
-44.7525
 23
3.969824928723888
 33
0.0
 14
-44.7525
 24
-3.967675071276101
 34
0.0
 50
90.0000000000002
100
AcDbRotatedDimension
1001
ACAD
1000
DSTYLE
1002
{
1070
   171
1070
     6
1070
   273
1070
     7
1002
}
  0
DIMENSION
  5
246
330
1F
100
AcDbEntity
  8
치수문자_일반주서
100
AcDbDimension
  2
*D14
 10
48.05000000000008
 20
-3.967675071276037
 30
0.0
 11
48.04999999999998
 21
24.57382492872396
 31
0.0
 70
   160
  1
%%c<>
 71
     2
 42
7.937499999999989
 52
-270.0
  3
SLDDIMSTYLE0
100
AcDbAlignedDimension
 13
30.63750000000002
 23
3.969824928723888
 33
0.0
 14
30.63750000000002
 24
-3.967675071276101
 34
0.0
 50
90.0000000000002
100
AcDbRotatedDimension
1001
ACAD
1000
DSTYLE
1002
{
1070
   171
1070
     6
1070
   273
1070
     7
1002
}
  0
DIMENSION
  5
247
330
1F
100
AcDbEntity
  8
치수문자_일반주서
100
AcDbDimension
  2
*D15
 10
10.00000000000003
 20
13.75192548907219
 30
0.0
 11
-11.26024999999998
 21
13.75192548907219
 31
0.0
 70
   160
  1
<>
 71
     2
 42
20.63749999999999
  3
SLDDIMSTYLE0
100
AcDbAlignedDimension
 13
30.63750000000002
 23
3.969824928723902
 33
0.0
 14
10.00000000000003
 24
3.95070051807226
 34
0.0
 50
0.0000000000000049
100
AcDbRotatedDimension
1001
ACAD
1000
DSTYLE
1002
{
1070
   171
1070
     6
1070
   273
1070
     7
1002
}
  0
DIMENSION
  5
248
330
1F
100
AcDbEntity
  8
치수문자_일반주서
100
AcDbDimension
  2
*D16
 10
-45.5625
 20
25.75192548907214
 30
0.0
 11
-7.805388962897297
 21
25.75192548907214
 31
0.0
 70
   160
  1
<>
 71
     2
 42
76.20000000000002
  3
SLDDIMSTYLE0
100
AcDbAlignedDimension
 13
30.63750000000002
 23
3.969824928723902
 33
0.0
 14
-45.5625
 24
3.159824928723886
 34
0.0
 50
0.0000000000000053
100
AcDbRotatedDimension
1001
ACAD
1000
DSTYLE
1002
{
1070
   171
1070
     6
1070
   273
1070
     7
1002
}
  0
INSERT
  5
249
330
1F
100
AcDbEntity
  8
해칭선
100
AcDbBlockReference
  2
SW_DOWELSYMBOL_0
 10
0.0
 20
0.0
 30
0.0
  0
SPLINE
  5
250
330
1F
100
AcDbEntity
  8
0
  6
Continuous
 62
     1
370
    15
100
AcDbSpline
210
0.0
220
0.0
230
1.0
 70
     8
 71
     3
 72
    52
 73
    48
 74
     0
 42
0.000000001
 43
0.00000001
 40
0.0251591679212635
 40
0.0251591679212635
 40
0.0251591679212635
 40
0.0251591679212635
 40
0.0625000000000003
 40
0.0625000000000003
 40
0.1250000000000007
 40
0.1250000000000007
 40
0.1562500000000009
 40
0.1562500000000009
 40
0.1875000000000011
 40
0.1875000000000011
 40
0.2500000000000014
 40
0.2500000000000014
 40
0.2812500000000013
 40
0.2812500000000013
 40
0.3125000000000011
 40
0.3125000000000011
 40
0.3750000000000006
 40
0.3750000000000006
 40
0.4062500000000003
 40
0.4062500000000003
 40
0.4375
 40
0.4375
 40
0.4999999999999995
 40
0.4999999999999995
 40
0.5312499999999993
 40
0.5312499999999993
 40
0.562499999999999
 40
0.562499999999999
 40
0.6249999999999987
 40
0.6249999999999987
 40
0.6562499999999988
 40
0.6562499999999988
 40
0.6874999999999988
 40
0.6874999999999988
 40
0.7499999999999989
 40
0.7499999999999989
 40
0.781249999999999
 40
0.781249999999999
 40
0.8124999999999991
 40
0.8124999999999991
 40
0.8749999999999993
 40
0.8749999999999993
 40
0.9062499999999994
 40
0.9062499999999994
 40
0.9374999999999997
 40
0.9374999999999997
 40
1.0
 40
1.0
 40
1.0
 40
1.0
 10
29.11350000000002
 20
-3.967675071276092
 30
0.0
 10
28.68117142438837
 20
-3.925453257307534
 30
0.0
 10
28.37581578543575
 20
-3.849919149654177
 30
0.0
 10
27.99173265807377
 20
-3.765121576080756
 30
0.0
 10
27.74482207619823
 20
-3.700276372759905
 30
0.0
 10
27.50788767944897
 20
-3.619219868608841
 30
0.0
 10
27.24601281988402
 20
-3.525693133049921
 30
0.0
 10
26.8220249520169
 20
-3.369815240451722
 30
0.0
 10
26.35439127422231
 20
-3.170291537926026
 30
0.0
 10
25.93308267813615
 20
-2.974463071952218
 30
0.0
 10
25.51754124788178
 20
-2.808223101745046
 30
0.0
 10
24.88695773803363
 20
-2.535833105322666
 30
0.0
 10
24.67618895401378
 20
-2.441273096342098
 30
0.0
 10
24.25614951683957
 20
-2.245819628202408
 30
0.0
 10
24.04795433095899
 20
-2.145107218190937
 30
0.0
 10
23.42119591584179
 20
-1.83409897556302
 30
0.0
 10
22.99768668879815
 20
-1.61436263951628
 30
0.0
 10
22.36974733221302
 20
-1.274348704578607
 30
0.0
 10
22.16204113065794
 20
-1.15937032158336
 30
0.0
 10
21.74250834073214
 20
-0.9257440658958416
 30
0.0
 10
21.53179568942326
 20
-0.8072956367129862
 30
0.0
 10
20.90078549792591
 20
-0.4492651840139246
 30
0.0
 10
20.48533470469513
 20
-0.2077222787463029
 30
0.0
 10
19.85450846378214
 20
0.1557807837714975
 30
0.0
 10
19.64376125743013
 20
0.2769916256476037
 30
0.0
 10
19.22396905279939
 20
0.5179787164478284
 30
0.0
 10
19.01607749948633
 20
0.6375362393203616
 30
0.0
 10
18.3886868356611
 20
0.9937617374072616
 30
0.0
 10
17.96516249114651
 20
1.227985332550922
 30
0.0
 10
17.33781187919124
 20
1.565675696082756
 30
0.0
 10
17.12990374187584
 20
1.676005697624959
 30
0.0
 10
16.71009435419765
 20
1.892385165511008
 30
0.0
 10
16.49934524409232
 20
1.998224098818177
 30
0.0
 10
15.86853347417801
 20
2.306680871881348
 30
0.0
 10
15.45307960697346
 20
2.499775828988454
 30
0.0
 10
14.8220580571398
 20
2.768121661007306
 30
0.0
 10
14.61134835410709
 20
2.853869626544984
 30
0.0
 10
14.1918348067301
 20
3.016909522303443
 30
0.0
 10
13.98413804725718
 20
3.094079540848305
 30
0.0
 10
13.35616169809484
 20
3.312957966584982
 30
0.0
 10
12.93265459376269
 20
3.441631312249434
 30
0.0
 10
12.30593927983048
 20
3.604019275340512
 30
0.0
 10
12.09772037215572
 20
3.653158748247371
 30
0.0
 10
11.67766581573551
 20
3.741383111234008
 30
0.0
 10
11.46689617296587
 20
3.780372110678549
 30
0.0
 10
10.83633024314943
 20
3.881223064221906
 30
0.0
 10
10.42077959174401
 20
3.926933791203901
 30
0.0
 10
9.999999999998948
 20
3.950700518072317
 30
0.0
  0
ARC
  5
292
330
1F
100
AcDbEntity
  8
0
  6
Continuous
 62
     1
370
    15
100
AcDbCircle
 10
29.11350000000002
 20
2.445824928723896
 30
0.0
 40
1.524
100
AcDbArc
 50
0.0000104413584829
 51
90.0
  0
ARC
  5
293
102
{ACAD_REACTORS
102
}
330
1F
100
AcDbEntity
  8
0
  6
Continuous
 62
     1
370
    15
100
AcDbCircle
 10
29.11350000000002
 20
-2.443675071276093
 30
0.0
 40
1.524
100
AcDbArc
 50
270.0
 51
359.9999895586415
  0
DIMENSION
  5
294
102
{ACAD_REACTORS
102
}
102
{ACAD_XDICTIONARY
360
295
102
}
330
1F
100
AcDbEntity
  8
치수문자_일반주서
100
AcDbDimension
  2
*D18
 10
29.11350000000002
 20
-2.443675071276093
 30
0.0
 11
42.29093623986731
 21
-21.56447126826361
 31
0.0
 70
   164
  1
<>
 71
     5
 42
1.524000000000002
  3
SLDDIMSTYLE0
100
AcDbRadialDimension
 15
29.97831048282572
 25
-3.698537146882325
 35
0.0
 40
0.0
1001
ACAD
1000
DSTYLE
1002
{
1070
   171
1070
     3
1002
}
1001
ACAD_DSTYLE_DIMRADIAL_EXTENSION
1070
   387
1070
     1
1070
   388
1040
4.71238898038469
1070
   390
1040
6.283185124943502
  0
ENDSEC
  0
SECTION
  2
OBJECTS
  0
DICTIONARY
  5
C
330
0
100
AcDbDictionary
281
     1
  3
ACAD_GROUP
350
D
  3
ACAD_IMAGE_VARS
350
159
  3
ACAD_LAYOUT
350
1A
  3
ACAD_MLINESTYLE
350
17
  3
ACAD_PLOTSETTINGS
350
19
  3
ACAD_PLOTSTYLENAME
350
E
  3
ACAD_SCALELIST
350
47
  3
APPDATA
350
157
  3
DWGPROPS
350
2A1
  0
DICTIONARY
  5
20B
330
2
100
AcDbDictionary
280
     1
281
     1
  3
ACAD_LAYERSTATES
360
20C
  0
DICTIONARY
  5
295
330
294
100
AcDbDictionary
280
     1
281
     1
  0
DICTIONARY
  5
D
102
{ACAD_REACTORS
330
C
102
}
330
C
100
AcDbDictionary
281
     1
  0
RASTERVARIABLES
  5
159
102
{ACAD_REACTORS
330
C
102
}
330
C
100
AcDbRasterVariables
 90
        0
 70
     1
 71
     1
 72
     1
  0
DICTIONARY
  5
1A
102
{ACAD_REACTORS
330
C
102
}
330
C
100
AcDbDictionary
281
     1
  3
Layout1
350
1E
  3
Layout2
350
26
  3
Model
350
22
  0
DICTIONARY
  5
17
102
{ACAD_REACTORS
330
C
102
}
330
C
100
AcDbDictionary
281
     1
  3
Standard
350
18
  0
DICTIONARY
  5
19
102
{ACAD_REACTORS
330
C
102
}
330
C
100
AcDbDictionary
281
     1
  0
ACDBDICTIONARYWDFLT
  5
E
102
{ACAD_REACTORS
330
C
102
}
330
C
100
AcDbDictionary
281
     1
  3
Normal
350
F
100
AcDbDictionaryWithDefault
340
F
  0
DICTIONARY
  5
47
102
{ACAD_REACTORS
330
C
102
}
330
C
100
AcDbDictionary
281
     1
  3
A0
350
48
  3
A1
350
49
  3
A2
350
4A
  3
A3
350
4B
  3
A4
350
4C
  3
A5
350
4D
  3
A6
350
4E
  3
A7
350
4F
  3
A8
350
50
  3
A9
350
51
  3
B0
350
52
  3
B1
350
53
  3
B2
350
54
  3
B3
350
55
  3
B4
350
56
  3
B5
350
57
  3
B6
350
58
  3
B7
350
59
  3
B8
350
5A
  3
B9
350
5B
  3
C0
350
5C
  3
C1
350
5D
  3
C2
350
5E
  3
C3
350
5F
  3
C4
350
60
  3
C5
350
61
  3
C6
350
62
  3
C7
350
63
  3
C8
350
64
  3
C9
350
65
  3
D0
350
66
  3
D1
350
67
  3
D2
350
68
  0
DICTIONARY
  5
157
102
{ACAD_REACTORS
330
C
102
}
330
C
100
AcDbDictionary
281
     1
  0
XRECORD
  5
2A1
102
{ACAD_REACTORS
330
C
102
}
330
C
100
AcDbXrecord
280
     1
  1
DWGPROPS COOKIE
  2

  3

  4

  6

  7

  8
12017012
  9

300
=
301
=
302
=
303
=
304
=
305
=
306
=
307
=
308
=
309
=
 40
0.0
 41
2458288.281732326
 42
2458295.321075243
  1

 90
        0
  0
DICTIONARY
  5
20C
102
{ACAD_REACTORS
330
20B
102
}
330
20B
100
AcDbDictionary
281
     1
  0
LAYOUT
  5
1E
102
{ACAD_REACTORS
330
1A
102
}
330
1A
100
AcDbPlotSettings
  1

  2
none_device
  4

  6

 40
0.0
 41
0.0
 42
0.0
 43
0.0
 44
0.0
 45
0.0
 46
0.0
 47
0.0
 48
0.0
 49
0.0
140
0.0
141
0.0
142
1.0
143
1.0
 70
   688
 72
     1
 73
     0
 74
     5
  7

 75
    16
147
1.0
148
0.0
149
0.0
100
AcDbLayout
  1
Layout1
 70
     1
 71
     1
 10
0.0
 20
0.0
 11
420.0
 21
297.0
 12
0.0
 22
0.0
 32
0.0
 14
1.000000000000000E+20
 24
1.000000000000000E+20
 34
1.000000000000000E+20
 15
-1.000000000000000E+20
 25
-1.000000000000000E+20
 35
-1.000000000000000E+20
146
0.0
 13
0.0
 23
0.0
 33
0.0
 16
1.0
 26
0.0
 36
0.0
 17
0.0
 27
1.0
 37
0.0
 76
     0
330
1B
  0
LAYOUT
  5
26
102
{ACAD_REACTORS
330
1A
102
}
330
1A
100
AcDbPlotSettings
  1

  2
none_device
  4

  6

 40
0.0
 41
0.0
 42
0.0
 43
0.0
 44
0.0
 45
0.0
 46
0.0
 47
0.0
 48
0.0
 49
0.0
140
0.0
141
0.0
142
1.0
143
1.0
 70
   688
 72
     1
 73
     0
 74
     5
  7

 75
    16
147
1.0
148
0.0
149
0.0
100
AcDbLayout
  1
Layout2
 70
     1
 71
     2
 10
0.0
 20
0.0
 11
0.0
 21
0.0
 12
0.0
 22
0.0
 32
0.0
 14
0.0
 24
0.0
 34
0.0
 15
0.0
 25
0.0
 35
0.0
146
0.0
 13
0.0
 23
0.0
 33
0.0
 16
1.0
 26
0.0
 36
0.0
 17
0.0
 27
1.0
 37
0.0
 76
     0
330
23
  0
LAYOUT
  5
22
102
{ACAD_REACTORS
330
1A
102
}
330
1A
100
AcDbPlotSettings
  1

  2
none_device
  4
ANSI_A_(11.00_x_8.50_Inches)
  6

 40
6.35
 41
19.05
 42
6.35000508
 43
19.05000254
 44
279.4
 45
215.9
 46
110.7589136750352
 47
100.7735317498017
 48
0.0
 49
0.0
140
0.0
141
0.0
142
0.0659796084739719
143
1.0
 70
  1696
 72
     0
 73
     0
 74
     0
  7

 75
     0
147
0.0235690232323232
148
0.0
149
0.0
100
AcDbLayout
  1
Model
 70
     1
 71
     0
 10
0.0
 20
0.0
 11
420.0
 21
297.0
 12
0.0
 22
0.0
 32
0.0
 14
1.000000000000000E+20
 24
1.000000000000000E+20
 34
1.000000000000000E+20
 15
-1.000000000000000E+20
 25
-1.000000000000000E+20
 35
-1.000000000000000E+20
146
0.0
 13
0.0
 23
0.0
 33
0.0
 16
1.0
 26
0.0
 36
0.0
 17
0.0
 27
1.0
 37
0.0
 76
     0
330
1F
331
29
  0
MLINESTYLE
  5
18
102
{ACAD_REACTORS
330
17
102
}
330
17
100
AcDbMlineStyle
  2
Standard
 70
     0
  3

 62
   256
 51
90.0
 52
90.0
 71
     2
 49
0.5
 62
   256
  6
BYLAYER
 49
-0.5
 62
   256
  6
BYLAYER
  0
ACDBPLACEHOLDER
  5
F
102
{ACAD_REACTORS
330
E
102
}
330
E
  0
SCALE
  5
48
102
{ACAD_REACTORS
330
47
102
}
330
47
100
AcDbScale
 70
     0
300
1:1
140
1.0
141
1.0
290
     1
  0
SCALE
  5
49
102
{ACAD_REACTORS
330
47
102
}
330
47
100
AcDbScale
 70
     0
300
1:2
140
1.0
141
2.0
290
     0
  0
SCALE
  5
4A
102
{ACAD_REACTORS
330
47
102
}
330
47
100
AcDbScale
 70
     0
300
1:4
140
1.0
141
4.0
290
     0
  0
SCALE
  5
4B
102
{ACAD_REACTORS
330
47
102
}
330
47
100
AcDbScale
 70
     0
300
1:5
140
1.0
141
5.0
290
     0
  0
SCALE
  5
4C
102
{ACAD_REACTORS
330
47
102
}
330
47
100
AcDbScale
 70
     0
300
1:8
140
1.0
141
8.0
290
     0
  0
SCALE
  5
4D
102
{ACAD_REACTORS
330
47
102
}
330
47
100
AcDbScale
 70
     0
300
1:10
140
1.0
141
10.0
290
     0
  0
SCALE
  5
4E
102
{ACAD_REACTORS
330
47
102
}
330
47
100
AcDbScale
 70
     0
300
1:16
140
1.0
141
16.0
290
     0
  0
SCALE
  5
4F
102
{ACAD_REACTORS
330
47
102
}
330
47
100
AcDbScale
 70
     0
300
1:20
140
1.0
141
20.0
290
     0
  0
SCALE
  5
50
102
{ACAD_REACTORS
330
47
102
}
330
47
100
AcDbScale
 70
     0
300
1:30
140
1.0
141
30.0
290
     0
  0
SCALE
  5
51
102
{ACAD_REACTORS
330
47
102
}
330
47
100
AcDbScale
 70
     0
300
1:40
140
1.0
141
40.0
290
     0
  0
SCALE
  5
52
102
{ACAD_REACTORS
330
47
102
}
330
47
100
AcDbScale
 70
     0
300
1:50
140
1.0
141
50.0
290
     0
  0
SCALE
  5
53
102
{ACAD_REACTORS
330
47
102
}
330
47
100
AcDbScale
 70
     0
300
1:100
140
1.0
141
100.0
290
     0
  0
SCALE
  5
54
102
{ACAD_REACTORS
330
47
102
}
330
47
100
AcDbScale
 70
     0
300
2:1
140
2.0
141
1.0
290
     0
  0
SCALE
  5
55
102
{ACAD_REACTORS
330
47
102
}
330
47
100
AcDbScale
 70
     0
300
4:1
140
4.0
141
1.0
290
     0
  0
SCALE
  5
56
102
{ACAD_REACTORS
330
47
102
}
330
47
100
AcDbScale
 70
     0
300
8:1
140
8.0
141
1.0
290
     0
  0
SCALE
  5
57
102
{ACAD_REACTORS
330
47
102
}
330
47
100
AcDbScale
 70
     0
300
10:1
140
10.0
141
1.0
290
     0
  0
SCALE
  5
58
102
{ACAD_REACTORS
330
47
102
}
330
47
100
AcDbScale
 70
     0
300
100:1
140
100.0
141
1.0
290
     0
  0
SCALE
  5
59
102
{ACAD_REACTORS
330
47
102
}
330
47
100
AcDbScale
 70
     0
300
1/128" = 1'-0"
140
0.0078125
141
12.0
290
     0
  0
SCALE
  5
5A
102
{ACAD_REACTORS
330
47
102
}
330
47
100
AcDbScale
 70
     0
300
1/64" = 1'-0"
140
0.015625
141
12.0
290
     0
  0
SCALE
  5
5B
102
{ACAD_REACTORS
330
47
102
}
330
47
100
AcDbScale
 70
     0
300
1/32" = 1'-0"
140
0.03125
141
12.0
290
     0
  0
SCALE
  5
5C
102
{ACAD_REACTORS
330
47
102
}
330
47
100
AcDbScale
 70
     0
300
1/16" = 1'-0"
140
0.0625
141
12.0
290
     0
  0
SCALE
  5
5D
102
{ACAD_REACTORS
330
47
102
}
330
47
100
AcDbScale
 70
     0
300
3/32" = 1'-0"
140
0.09375
141
12.0
290
     0
  0
SCALE
  5
5E
102
{ACAD_REACTORS
330
47
102
}
330
47
100
AcDbScale
 70
     0
300
1/8" = 1'-0"
140
0.125
141
12.0
290
     0
  0
SCALE
  5
5F
102
{ACAD_REACTORS
330
47
102
}
330
47
100
AcDbScale
 70
     0
300
3/16" = 1'-0"
140
0.1875
141
12.0
290
     0
  0
SCALE
  5
60
102
{ACAD_REACTORS
330
47
102
}
330
47
100
AcDbScale
 70
     0
300
1/4" = 1'-0"
140
0.25
141
12.0
290
     0
  0
SCALE
  5
61
102
{ACAD_REACTORS
330
47
102
}
330
47
100
AcDbScale
 70
     0
300
3/8" = 1'-0"
140
0.375
141
12.0
290
     0
  0
SCALE
  5
62
102
{ACAD_REACTORS
330
47
102
}
330
47
100
AcDbScale
 70
     0
300
1/2" = 1'-0"
140
0.5
141
12.0
290
     0
  0
SCALE
  5
63
102
{ACAD_REACTORS
330
47
102
}
330
47
100
AcDbScale
 70
     0
300
3/4" = 1'-0"
140
0.75
141
12.0
290
     0
  0
SCALE
  5
64
102
{ACAD_REACTORS
330
47
102
}
330
47
100
AcDbScale
 70
     0
300
1" = 1'-0"
140
1.0
141
12.0
290
     0
  0
SCALE
  5
65
102
{ACAD_REACTORS
330
47
102
}
330
47
100
AcDbScale
 70
     0
300
1-1/2" = 1'-0"
140
1.5
141
12.0
290
     0
  0
SCALE
  5
66
102
{ACAD_REACTORS
330
47
102
}
330
47
100
AcDbScale
 70
     0
300
3" = 1'-0"
140
3.0
141
12.0
290
     0
  0
SCALE
  5
67
102
{ACAD_REACTORS
330
47
102
}
330
47
100
AcDbScale
 70
     0
300
6" = 1'-0"
140
6.0
141
12.0
290
     0
  0
SCALE
  5
68
102
{ACAD_REACTORS
330
47
102
}
330
47
100
AcDbScale
 70
     0
300
1'-0" = 1'-0"
140
12.0
141
12.0
290
     0
  0
ENDSEC
  0
EOF
