  0
SECTION
  2
HEADER
  9
$ACADVER
  1
AC1015
  9
$ACADMAINTVER
 70
     6
  9
$DWGCODEPAGE
  3
ANSI_949
  9
$INSBASE
 10
0.0
 20
0.0
 30
0.0
  9
$EXTMIN
 10
1.000000000000000E+20
 20
1.000000000000000E+20
 30
1.000000000000000E+20
  9
$EXTMAX
 10
-1.000000000000000E+20
 20
-1.000000000000000E+20
 30
-1.000000000000000E+20
  9
$LIMMIN
 10
0.0
 20
0.0
  9
$LIMMAX
 10
420.0
 20
297.0
  9
$ORTHOMODE
 70
     1
  9
$REGENMODE
 70
     1
  9
$FILLMODE
 70
     1
  9
$QTEXTMODE
 70
     0
  9
$MIRRTEXT
 70
     1
  9
$LTSCALE
 40
1.0
  9
$ATTMODE
 70
     1
  9
$TEXTSIZE
 40
3.5
  9
$TRACEWID
 40
1.0
  9
$TEXTSTYLE
  7
Standard
  9
$CLAYER
  8
0
  9
$CELTYPE
  6
ByLayer
  9
$CECOLOR
 62
   256
  9
$CELTSCALE
 40
1.0
  9
$DISPSILH
 70
     0
  9
$DIMSCALE
 40
1.0
  9
$DIMASZ
 40
3.302
  9
$DIMEXO
 40
1.0
  9
$DIMDLI
 40
3.75
  9
$DIMRND
 40
0.0
  9
$DIMDLE
 40
0.0
  9
$DIMEXE
 40
1.0
  9
$DIMTP
 40
0.0
  9
$DIMTM
 40
0.0
  9
$DIMTXT
 40
3.5
  9
$DIMCEN
 40
2.5
  9
$DIMTSZ
 40
0.0
  9
$DIMTOL
 70
     0
  9
$DIMLIM
 70
     0
  9
$DIMTIH
 70
     1
  9
$DIMTOH
 70
     1
  9
$DIMSE1
 70
     0
  9
$DIMSE2
 70
     0
  9
$DIMTAD
 70
     1
  9
$DIMZIN
 70
     0
  9
$DIMBLK
  1

  9
$DIMASO
 70
     1
  9
$DIMSHO
 70
     1
  9
$DIMPOST
  1

  9
$DIMAPOST
  1

  9
$DIMALT
 70
     0
  9
$DIMALTD
 70
     3
  9
$DIMALTF
 40
0.0393700787401575
  9
$DIMLFAC
 40
1.0
  9
$DIMTOFL
 70
     1
  9
$DIMTVP
 40
0.0
  9
$DIMTIX
 70
     0
  9
$DIMSOXD
 70
     0
  9
$DIMSAH
 70
     0
  9
$DIMBLK1
  1

  9
$DIMBLK2
  1

  9
$DIMSTYLE
  2
ISO-25
  9
$DIMCLRD
 70
     0
  9
$DIMCLRE
 70
     0
  9
$DIMCLRT
 70
     0
  9
$DIMTFAC
 40
1.0
  9
$DIMGAP
 40
1.524
  9
$DIMJUST
 70
     0
  9
$DIMSD1
 70
     0
  9
$DIMSD2
 70
     0
  9
$DIMTOLJ
 70
     0
  9
$DIMTZIN
 70
     0
  9
$DIMALTZ
 70
     0
  9
$DIMALTTZ
 70
     0
  9
$DIMUPT
 70
     0
  9
$DIMDEC
 70
     2
  9
$DIMTDEC
 70
     2
  9
$DIMALTU
 70
     2
  9
$DIMALTTD
 70
     3
  9
$DIMTXSTY
  7
Standard
  9
$DIMAUNIT
 70
     0
  9
$DIMADEC
 70
     2
  9
$DIMALTRND
 40
0.0
  9
$DIMAZIN
 70
     0
  9
$DIMDSEP
 70
    44
  9
$DIMATFIT
 70
     3
  9
$DIMFRAC
 70
     0
  9
$DIMLDRBLK
  1

  9
$DIMLUNIT
 70
     2
  9
$DIMLWD
 70
    -2
  9
$DIMLWE
 70
    -2
  9
$DIMTMOVE
 70
     0
  9
$LUNITS
 70
     2
  9
$LUPREC
 70
     2
  9
$SKETCHINC
 40
1.0
  9
$FILLETRAD
 40
10.0
  9
$AUNITS
 70
     0
  9
$AUPREC
 70
     2
  9
$MENU
  1
.
  9
$ELEVATION
 40
0.0
  9
$PELEVATION
 40
0.0
  9
$THICKNESS
 40
0.0
  9
$LIMCHECK
 70
     0
  9
$CHAMFERA
 40
0.0
  9
$CHAMFERB
 40
0.0
  9
$CHAMFERC
 40
0.0
  9
$CHAMFERD
 40
0.0
  9
$SKPOLY
 70
     0
  9
$TDCREATE
 40
2458288.656354063
  9
$TDUCREATE
 40
2458288.281354063
  9
$TDUPDATE
 40
2458295.690066227
  9
$TDUUPDATE
 40
2458295.315066227
  9
$TDINDWG
 40
0.0003815972
  9
$TDUSRTIMER
 40
2458295.313814479
  9
$USRTIMER
 70
     1
  9
$ANGBASE
 50
0.0
  9
$ANGDIR
 70
     0
  9
$PDMODE
 70
     0
  9
$PDSIZE
 40
-1.0
  9
$PLINEWID
 40
0.0
  9
$SPLFRAME
 70
     0
  9
$SPLINETYPE
 70
     6
  9
$SPLINESEGS
 70
     8
  9
$HANDSEED
  5
2A9
  9
$SURFTAB1
 70
     6
  9
$SURFTAB2
 70
     6
  9
$SURFTYPE
 70
     6
  9
$SURFU
 70
     6
  9
$SURFV
 70
     6
  9
$UCSBASE
  2

  9
$UCSNAME
  2

  9
$UCSORG
 10
0.0
 20
0.0
 30
0.0
  9
$UCSXDIR
 10
1.0
 20
0.0
 30
0.0
  9
$UCSYDIR
 10
0.0
 20
1.0
 30
0.0
  9
$UCSORTHOREF
  2

  9
$UCSORTHOVIEW
 70
     0
  9
$UCSORGTOP
 10
0.0
 20
0.0
 30
0.0
  9
$UCSORGBOTTOM
 10
0.0
 20
0.0
 30
0.0
  9
$UCSORGLEFT
 10
0.0
 20
0.0
 30
0.0
  9
$UCSORGRIGHT
 10
0.0
 20
0.0
 30
0.0
  9
$UCSORGFRONT
 10
0.0
 20
0.0
 30
0.0
  9
$UCSORGBACK
 10
0.0
 20
0.0
 30
0.0
  9
$PUCSBASE
  2

  9
$PUCSNAME
  2

  9
$PUCSORG
 10
0.0
 20
0.0
 30
0.0
  9
$PUCSXDIR
 10
1.0
 20
0.0
 30
0.0
  9
$PUCSYDIR
 10
0.0
 20
1.0
 30
0.0
  9
$PUCSORTHOREF
  2

  9
$PUCSORTHOVIEW
 70
     0
  9
$PUCSORGTOP
 10
0.0
 20
0.0
 30
0.0
  9
$PUCSORGBOTTOM
 10
0.0
 20
0.0
 30
0.0
  9
$PUCSORGLEFT
 10
0.0
 20
0.0
 30
0.0
  9
$PUCSORGRIGHT
 10
0.0
 20
0.0
 30
0.0
  9
$PUCSORGFRONT
 10
0.0
 20
0.0
 30
0.0
  9
$PUCSORGBACK
 10
0.0
 20
0.0
 30
0.0
  9
$USERI1
 70
     0
  9
$USERI2
 70
     0
  9
$USERI3
 70
     0
  9
$USERI4
 70
     0
  9
$USERI5
 70
     0
  9
$USERR1
 40
0.0
  9
$USERR2
 40
0.0
  9
$USERR3
 40
0.0
  9
$USERR4
 40
0.0
  9
$USERR5
 40
0.0
  9
$WORLDVIEW
 70
     1
  9
$SHADEDGE
 70
     3
  9
$SHADEDIF
 70
    70
  9
$TILEMODE
 70
     1
  9
$MAXACTVP
 70
    64
  9
$PINSBASE
 10
0.0
 20
0.0
 30
0.0
  9
$PLIMCHECK
 70
     0
  9
$PEXTMIN
 10
1.000000000000000E+20
 20
1.000000000000000E+20
 30
1.000000000000000E+20
  9
$PEXTMAX
 10
-1.000000000000000E+20
 20
-1.000000000000000E+20
 30
-1.000000000000000E+20
  9
$PLIMMIN
 10
0.0
 20
0.0
  9
$PLIMMAX
 10
0.0
 20
0.0
  9
$UNITMODE
 70
     0
  9
$VISRETAIN
 70
     1
  9
$PLINEGEN
 70
     0
  9
$PSLTSCALE
 70
     1
  9
$TREEDEPTH
 70
  3020
  9
$CMLSTYLE
  2
Standard
  9
$CMLJUST
 70
     0
  9
$CMLSCALE
 40
20.0
  9
$PROXYGRAPHICS
 70
     1
  9
$MEASUREMENT
 70
     1
  9
$CELWEIGHT
370
    -1
  9
$ENDCAPS
280
     0
  9
$JOINSTYLE
280
     0
  9
$LWDISPLAY
290
     1
  9
$INSUNITS
 70
     4
  9
$HYPERLINKBASE
  1

  9
$STYLESHEET
  1

  9
$XEDIT
290
     1
  9
$CEPSNTYPE
380
     0
  9
$PSTYLEMODE
290
     1
  9
$FINGERPRINTGUID
  2
{93C2A159-D02A-4210-AB26-469277516803}
  9
$VERSIONGUID
  2
{FAEB1C32-E019-11D5-929B-00C0DF256EC4}
  9
$EXTNAMES
290
     1
  9
$PSVPSCALE
 40
0.0
  9
$OLESTARTUP
290
     0
  0
ENDSEC
  0
SECTION
  2
CLASSES
  0
CLASS
  1
ACDBDICTIONARYWDFLT
  2
AcDbDictionaryWithDefault
  3
ObjectDBX Classes
 90
        0
280
     0
281
     0
  0
CLASS
  1
VISUALSTYLE
  2
AcDbVisualStyle
  3
ObjectDBX Classes
 90
     4095
280
     0
281
     0
  0
CLASS
  1
MATERIAL
  2
AcDbMaterial
  3
ObjectDBX Classes
 90
     1153
280
     0
281
     0
  0
CLASS
  1
SCALE
  2
AcDbScale
  3
ObjectDBX Classes
 90
     1153
280
     0
281
     0
  0
CLASS
  1
SUN
  2
AcDbSun
  3
SCENEOE
 90
     1153
280
     0
281
     0
  0
CLASS
  1
ACDBPLACEHOLDER
  2
AcDbPlaceHolder
  3
ObjectDBX Classes
 90
        0
280
     0
281
     0
  0
CLASS
  1
LAYOUT
  2
AcDbLayout
  3
ObjectDBX Classes
 90
        0
280
     0
281
     0
  0
CLASS
  1
TABLESTYLE
  2
AcDbTableStyle
  3
ObjectDBX Classes
 90
     4095
280
     0
281
     0
  0
CLASS
  1
MLEADERSTYLE
  2
AcDbMLeaderStyle
  3
ACDB_MLEADERSTYLE_CLASS
 90
     4095
280
     0
281
     0
  0
CLASS
  1
RASTERVARIABLES
  2
AcDbRasterVariables
  3
ISM
 90
        0
280
     0
281
     0
  0
CLASS
  1
DIMASSOC
  2
AcDbDimAssoc
  3
"AcDbDimAssoc|Product Desc:     AcDim ARX App For Dimension|Company:          Autodesk, Inc.|WEB Address:      www.autodesk.com"
 90
        0
280
     0
281
     0
  0
ENDSEC
  0
SECTION
  2
TABLES
  0
TABLE
  2
VPORT
  5
8
330
0
100
AcDbSymbolTable
 70
     1
  0
VPORT
  5
29
330
8
100
AcDbSymbolTableRecord
100
AcDbViewportTableRecord
  2
*Active
 70
     0
 10
0.0
 20
0.0
 11
1.0
 21
1.0
 12
26.68553257693156
 22
1.291505771797759
 13
0.0
 23
0.0
 14
10.0
 24
10.0
 15
10.0
 25
10.0
 16
0.0
 26
0.0
 36
1.0
 17
0.0
 27
0.0
 37
0.0
 40
142.8541383882009
 41
1.859099804305284
 42
50.0
 43
0.0
 44
0.0
 50
0.0
 51
0.0
 71
    16
 72
  2000
 73
     1
 74
     3
 75
     0
 76
     0
 77
     0
 78
     0
281
     0
 65
     1
110
0.0
120
0.0
130
0.0
111
1.0
121
0.0
131
0.0
112
0.0
122
1.0
132
0.0
 79
     0
146
0.0
  0
ENDTAB
  0
TABLE
  2
LTYPE
  5
5
330
0
100
AcDbSymbolTable
 70
     6
  0
LTYPE
  5
14
330
5
100
AcDbSymbolTableRecord
100
AcDbLinetypeTableRecord
  2
ByBlock
 70
     0
  3

 72
    65
 73
     0
 40
0.0
  0
LTYPE
  5
15
330
5
100
AcDbSymbolTableRecord
100
AcDbLinetypeTableRecord
  2
ByLayer
 70
     0
  3

 72
    65
 73
     0
 40
0.0
  0
LTYPE
  5
16
330
5
100
AcDbSymbolTableRecord
100
AcDbLinetypeTableRecord
  2
Continuous
 70
     0
  3
Solid line
 72
    65
 73
     0
 40
0.0
  0
LTYPE
  5
6A
330
5
100
AcDbSymbolTableRecord
100
AcDbLinetypeTableRecord
  2
HIDDEN
 70
     0
  3
Hidden __ __ __ __ __ __ __ __ __ __ __ __ __ __
 72
    65
 73
     2
 40
1.905
 49
1.27
 74
     0
 49
-0.635
 74
     0
  0
LTYPE
  5
6B
330
5
100
AcDbSymbolTableRecord
100
AcDbLinetypeTableRecord
  2
PHANTOM
 70
     0
  3
Phantom ______  __  __  ______  __  __  ______
 72
    65
 73
     6
 40
12.7
 49
6.35
 74
     0
 49
-1.27
 74
     0
 49
1.27
 74
     0
 49
-1.27
 74
     0
 49
1.27
 74
     0
 49
-1.27
 74
     0
  0
LTYPE
  5
6C
330
5
100
AcDbSymbolTableRecord
100
AcDbLinetypeTableRecord
  2
CENTER
 70
     0
  3
Center ____ _ ____ _ ____ _ ____ _ ____ _ ____
 72
    65
 73
     4
 40
10.16
 49
6.35
 74
     0
 49
-1.27
 74
     0
 49
1.27
 74
     0
 49
-1.27
 74
     0
  0
LTYPE
  5
6D
330
5
100
AcDbSymbolTableRecord
100
AcDbLinetypeTableRecord
  2
CENTERX2
 70
     0
  3
Center (2x) ________  __  ________  __  _____
 72
    65
 73
     4
 40
20.32
 49
12.7
 74
     0
 49
-2.54
 74
     0
 49
2.54
 74
     0
 49
-2.54
 74
     0
  0
LTYPE
  5
6E
330
5
100
AcDbSymbolTableRecord
100
AcDbLinetypeTableRecord
  2
DOT2
 70
     0
  3
Dot (.5x) ........................................
 72
    65
 73
     2
 40
0.635
 49
0.0
 74
     0
 49
-0.635
 74
     0
  0
ENDTAB
  0
TABLE
  2
LAYER
  5
2
102
{ACAD_XDICTIONARY
360
20D
102
}
330
0
100
AcDbSymbolTable
 70
    18
  0
LAYER
  5
10
330
2
100
AcDbSymbolTableRecord
100
AcDbLayerTableRecord
  2
0
 70
     0
 62
     7
  6
Continuous
370
    -3
390
F
  0
LAYER
  5
6F
330
2
100
AcDbSymbolTableRecord
100
AcDbLayerTableRecord
  2
FORMAT
 70
     0
 62
     2
  6
Continuous
370
    -3
390
F
  0
LAYER
  5
70
330
2
100
AcDbSymbolTableRecord
100
AcDbLayerTableRecord
  2
외형선
 70
     0
 62
     4
  6
Continuous
370
    30
390
F
  0
LAYER
  5
71
330
2
100
AcDbSymbolTableRecord
100
AcDbLayerTableRecord
  2
숨은선
 70
     0
 62
     2
  6
HIDDEN
370
    15
390
F
  0
LAYER
  5
72
330
2
100
AcDbSymbolTableRecord
100
AcDbLayerTableRecord
  2
중심선
 70
     0
 62
     1
  6
CENTERX2
370
    -3
390
F
  0
LAYER
  5
73
330
2
100
AcDbSymbolTableRecord
100
AcDbLayerTableRecord
  2
파단선
 70
     0
 62
     4
  6
Continuous
370
    -3
390
F
  0
LAYER
  5
74
330
2
100
AcDbSymbolTableRecord
100
AcDbLayerTableRecord
  2
해칭선
 70
     0
 62
   100
  6
Continuous
370
    -3
390
F
  0
LAYER
  5
75
330
2
100
AcDbSymbolTableRecord
100
AcDbLayerTableRecord
  2
가는실선
 70
     0
 62
     4
  6
Continuous
370
    -3
390
F
  0
LAYER
  5
76
330
2
100
AcDbSymbolTableRecord
100
AcDbLayerTableRecord
  2
치수_보조선
 70
     0
 62
     4
  6
Continuous
370
    -3
390
F
  0
LAYER
  5
77
330
2
100
AcDbSymbolTableRecord
100
AcDbLayerTableRecord
  2
치수문자_일반주서
 70
     0
 62
     7
  6
Continuous
370
    15
390
F
  0
LAYER
  5
78
330
2
100
AcDbSymbolTableRecord
100
AcDbLayerTableRecord
  2
개별주서
 70
     0
 62
   100
  6
Continuous
370
    30
390
F
  0
LAYER
  5
79
330
2
100
AcDbSymbolTableRecord
100
AcDbLayerTableRecord
  2
중간선
 70
     0
 62
     2
  6
Continuous
370
    15
390
F
  0
LAYER
  5
7A
330
2
100
AcDbSymbolTableRecord
100
AcDbLayerTableRecord
  2
윤곽선
 70
     0
 62
     3
  6
Continuous
370
    40
390
F
  0
LAYER
  5
7B
330
2
100
AcDbSymbolTableRecord
100
AcDbLayerTableRecord
  2
중심마크
 70
     0
 62
   100
  6
Continuous
370
    30
390
F
  0
LAYER
  5
7C
330
2
100
AcDbSymbolTableRecord
100
AcDbLayerTableRecord
  2
가상선
 70
     0
 62
     4
  6
PHANTOM
370
    -3
390
F
  0
LAYER
  5
7D
330
2
100
AcDbSymbolTableRecord
100
AcDbLayerTableRecord
  2
특수지정선
 70
     0
 62
     5
  6
CENTERX2
370
    60
390
F
  0
LAYER
  5
7E
330
2
100
AcDbSymbolTableRecord
100
AcDbLayerTableRecord
  2
참조1
 70
     0
 62
    -4
  6
Continuous
370
    -3
390
F
  0
LAYER
  5
15E
330
2
100
AcDbSymbolTableRecord
100
AcDbLayerTableRecord
  2
Defpoints
 70
     0
 62
     7
  6
Continuous
290
     0
370
    -3
390
F
  0
ENDTAB
  0
TABLE
  2
STYLE
  5
3
330
0
100
AcDbSymbolTable
 70
     2
  0
STYLE
  5
11
330
3
100
AcDbSymbolTableRecord
100
AcDbTextStyleTableRecord
  2
Standard
 70
     0
 40
0.0
 41
1.0
 50
0.0
 71
     0
 42
3.5
  3
txt
  4

  0
STYLE
  5
94
330
3
100
AcDbSymbolTableRecord
100
AcDbTextStyleTableRecord
  2
SLDTEXTSTYLE0
 70
     0
 40
0.0
 41
0.75
 50
0.0
 71
     0
 42
3.5
  3
TXT
  4

  0
ENDTAB
  0
TABLE
  2
VIEW
  5
6
330
0
100
AcDbSymbolTable
 70
     0
  0
ENDTAB
  0
TABLE
  2
UCS
  5
7
330
0
100
AcDbSymbolTable
 70
     0
  0
ENDTAB
  0
TABLE
  2
APPID
  5
9
330
0
100
AcDbSymbolTable
 70
     4
  0
APPID
  5
12
330
9
100
AcDbSymbolTableRecord
100
AcDbRegAppTableRecord
  2
ACAD
 70
     0
  0
APPID
  5
169
330
9
100
AcDbSymbolTableRecord
100
AcDbRegAppTableRecord
  2
ACAD_DSTYLE_DIMRADIAL_EXTENSION
 70
     0
  0
APPID
  5
2A7
330
9
100
AcDbSymbolTableRecord
100
AcDbRegAppTableRecord
  2
ACAD_DSTYLE_DIMFLIPARROW_SYMBOL
 70
     0
  0
APPID
  5
2A8
330
9
100
AcDbSymbolTableRecord
100
AcDbRegAppTableRecord
  2
ACAD_DSTYLE_DIMFLIPARROW_WHICH_SYMBOL
 70
     0
  0
ENDTAB
  0
TABLE
  2
DIMSTYLE
  5
A
330
0
100
AcDbSymbolTable
 70
     3
100
AcDbDimStyleTable
  0
DIMSTYLE
105
27
330
A
100
AcDbSymbolTableRecord
100
AcDbDimStyleTableRecord
  2
ISO-25
 70
     0
 41
2.5
 42
0.625
 43
3.75
 44
1.25
 73
     0
 74
     0
 77
     1
 78
     8
140
2.5
141
2.5
143
0.03937007874016
147
0.625
171
     3
172
     1
178
     0
271
     2
272
     2
274
     3
278
    44
283
     0
284
     8
340
11
  0
DIMSTYLE
105
DA
102
{ACAD_REACTORS
330
1BB
330
1CA
330
1DA
330
1E7
330
201
330
245
330
246
330
247
330
248
330
298
102
}
330
A
100
AcDbSymbolTableRecord
100
AcDbDimStyleTableRecord
  2
SLDDIMSTYLE0
 70
     0
 41
3.302
 44
0.0
 45
0.000000001
 73
     0
 74
     0
 77
     1
 78
    12
 79
     3
140
3.5
143
0.0393700787401575
147
0.875
148
0.000000001
170
     1
172
     1
173
     1
178
     0
271
     2
272
     2
276
     2
284
    12
289
     0
340
94
  0
DIMSTYLE
105
118
330
A
100
AcDbSymbolTableRecord
100
AcDbDimStyleTableRecord
  2
SLDDIMSTYLE1
 70
     0
 41
3.302
 44
0.0
 45
0.000000001
 73
     0
 74
     0
 77
     1
 78
     4
 79
     1
140
3.5
143
0.0393700787401575
147
0.875
148
0.000000001
170
     1
173
     1
178
     0
271
     2
272
     2
276
     2
284
    12
340
94
  0
ENDTAB
  0
TABLE
  2
BLOCK_RECORD
  5
1
330
0
100
AcDbSymbolTable
 70
    19
  0
BLOCK_RECORD
  5
1F
330
1
100
AcDbSymbolTableRecord
100
AcDbBlockTableRecord
  2
*Model_Space
340
22
  0
BLOCK_RECORD
  5
1B
330
1
100
AcDbSymbolTableRecord
100
AcDbBlockTableRecord
  2
*Paper_Space
340
1E
  0
BLOCK_RECORD
  5
23
330
1
100
AcDbSymbolTableRecord
100
AcDbBlockTableRecord
  2
*Paper_Space0
340
26
  0
BLOCK_RECORD
  5
7F
330
1
100
AcDbSymbolTableRecord
100
AcDbBlockTableRecord
  2
블럭10
340
0
102
{BLKREFS
331
D2
102
}
  0
BLOCK_RECORD
  5
DB
330
1
100
AcDbSymbolTableRecord
100
AcDbBlockTableRecord
  2
_D
340
0
  0
BLOCK_RECORD
  5
EF
330
1
100
AcDbSymbolTableRecord
100
AcDbBlockTableRecord
  2
_D_1
340
0
  0
BLOCK_RECORD
  5
103
330
1
100
AcDbSymbolTableRecord
100
AcDbBlockTableRecord
  2
_D_2
340
0
  0
BLOCK_RECORD
  5
119
330
1
100
AcDbSymbolTableRecord
100
AcDbBlockTableRecord
  2
_D_3
340
0
  0
BLOCK_RECORD
  5
132
330
1
100
AcDbSymbolTableRecord
100
AcDbBlockTableRecord
  2
SW_DOWELSYMBOL_0
340
0
102
{BLKREFS
331
0
331
1F4
331
249
102
}
  0
BLOCK_RECORD
  5
1BC
330
1
100
AcDbSymbolTableRecord
100
AcDbBlockTableRecord
  2
*D8
340
0
  0
BLOCK_RECORD
  5
1CB
330
1
100
AcDbSymbolTableRecord
100
AcDbBlockTableRecord
  2
*D9
340
0
  0
BLOCK_RECORD
  5
1DB
330
1
100
AcDbSymbolTableRecord
100
AcDbBlockTableRecord
  2
*D10
340
0
  0
BLOCK_RECORD
  5
1E8
330
1
100
AcDbSymbolTableRecord
100
AcDbBlockTableRecord
  2
*D11
340
0
  0
BLOCK_RECORD
  5
204
330
1
100
AcDbSymbolTableRecord
100
AcDbBlockTableRecord
  2
*D12
340
0
  0
BLOCK_RECORD
  5
253
330
1
100
AcDbSymbolTableRecord
100
AcDbBlockTableRecord
  2
*D13
340
0
  0
BLOCK_RECORD
  5
261
330
1
100
AcDbSymbolTableRecord
100
AcDbBlockTableRecord
  2
*D14
340
0
  0
BLOCK_RECORD
  5
270
330
1
100
AcDbSymbolTableRecord
100
AcDbBlockTableRecord
  2
*D15
340
0
  0
BLOCK_RECORD
  5
27C
330
1
100
AcDbSymbolTableRecord
100
AcDbBlockTableRecord
  2
*D16
340
0
  0
BLOCK_RECORD
  5
288
330
1
100
AcDbSymbolTableRecord
100
AcDbBlockTableRecord
  2
*D17
340
0
  0
BLOCK_RECORD
  5
29B
330
1
100
AcDbSymbolTableRecord
100
AcDbBlockTableRecord
  2
*D18
340
0
  0
ENDTAB
  0
ENDSEC
  0
SECTION
  2
BLOCKS
  0
BLOCK
  5
20
330
1F
100
AcDbEntity
  8
0
100
AcDbBlockBegin
  2
*Model_Space
 70
     0
 10
0.0
 20
0.0
 30
0.0
  3
*Model_Space
  1
*Model_Space
  0
ENDBLK
  5
21
330
1F
100
AcDbEntity
  8
0
100
AcDbBlockEnd
  0
BLOCK
  5
1C
330
1B
100
AcDbEntity
 67
     1
  8
0
100
AcDbBlockBegin
  2
*Paper_Space
 70
     0
 10
0.0
 20
0.0
 30
0.0
  3
*Paper_Space
  1
*Paper_Space
  0
ENDBLK
  5
1D
330
1B
100
AcDbEntity
 67
     1
  8
0
100
AcDbBlockEnd
  0
BLOCK
  5
24
330
23
100
AcDbEntity
  8
0
100
AcDbBlockBegin
  2
*Paper_Space0
 70
     0
 10
0.0
 20
0.0
 30
0.0
  3
*Paper_Space0
  1
*Paper_Space0
  0
ENDBLK
  5
25
330
23
100
AcDbEntity
  8
0
100
AcDbBlockEnd
  0
BLOCK
  5
80
330
7F
100
AcDbEntity
  8
0
100
AcDbBlockBegin
  2
블럭10
 70
     2
 10
0.0
 20
0.0
 30
0.0
  3
블럭10
  1
블럭10
  0
ELLIPSE
  5
82
330
7F
100
AcDbEntity
  8
중심선
100
AcDbEllipse
 10
20.54032771741204
 20
12.0471743016438
 30
0.0
 11
6.600054785286829
 21
-1.261213355974178E-13
 31
0.0
210
0.0
220
0.0
230
1.0
 40
0.636358354079598
 41
0.9219305317359503
 42
6.513795318482858
  0
ELLIPSE
  5
83
330
7F
100
AcDbEntity
  8
중심선
100
AcDbEllipse
 10
20.54032771746488
 20
12.04717430159265
 30
0.0
 11
3.960054785062283
 21
1.540847449632565E-10
 31
0.0
210
0.0
220
0.0
230
1.0
 40
0.3939339440162632
 41
1.131841032648279
 42
5.62031148352944
  0
LINE
  5
84
330
7F
100
AcDbEntity
  8
중심선
100
AcDbLine
 10
2.268634060543552
 20
16.24717430164393
 30
0.0
 11
5.714909304380834
 21
16.24717430164393
 31
0.0
  0
LINE
  5
85
330
7F
100
AcDbEntity
  8
중심선
100
AcDbLine
 10
5.245725140726316
 20
7.84717430164391
 30
0.0
 11
8.692000384563599
 21
7.84717430164391
 31
0.0
  0
LINE
  5
86
330
7F
100
AcDbEntity
  8
중심선
100
AcDbLine
 10
15.74043728645272
 20
16.24717430164393
 30
0.0
 11
8.692000384563599
 21
7.84717430164391
 31
0.0
  0
LINE
  5
87
330
7F
100
AcDbEntity
  8
중심선
100
AcDbLine
 10
0.1404042013395286
 20
13.71084872107135
 30
0.0
 11
3.58671253028996
 21
13.71088815037384
 31
0.0
  0
LINE
  5
88
330
7F
100
AcDbEntity
  8
중심선
100
AcDbLine
 10
2.750260043222114
 20
10.84717430164391
 30
0.0
 11
6.196535287059397
 21
10.84717430164391
 31
0.0
  0
LINE
  5
89
330
7F
100
AcDbEntity
  8
중심선
100
AcDbLine
 10
12.29416204261559
 20
16.24717430164393
 30
0.0
 11
5.245725140726316
 21
7.84717430164391
 31
0.0
  0
LINE
  5
8A
330
7F
100
AcDbEntity
  8
중심선
100
AcDbLine
 10
10.72767329541681
 20
16.24717430164393
 30
0.0
 11
6.196535287059397
 21
10.84717430164391
 31
0.0
  0
LINE
  5
8B
330
7F
100
AcDbEntity
  8
중심선
100
AcDbLine
 10
7.28139805157953
 20
16.24717430164393
 30
0.0
 11
2.750260043222114
 21
10.84717430164391
 31
0.0
  0
LINE
  5
8C
330
7F
100
AcDbEntity
  8
중심선
100
AcDbLine
 10
5.714909304380834
 20
16.24717430164393
 30
0.0
 11
3.58671253028996
 21
13.71088815037384
 31
0.0
  0
LINE
  5
8D
330
7F
100
AcDbEntity
  8
중심선
100
AcDbLine
 10
2.268634060543552
 20
16.24717430164393
 30
0.0
 11
0.1404042013395286
 21
13.71084872107135
 31
0.0
  0
LINE
  5
8E
330
7F
100
AcDbEntity
  8
중심선
100
AcDbLine
 10
7.28139805157953
 20
16.24717430164393
 30
0.0
 11
10.72767329541681
 21
16.24717430164393
 31
0.0
  0
LINE
  5
8F
330
7F
100
AcDbEntity
  8
중심선
100
AcDbLine
 10
12.29416204261559
 20
16.24717430164393
 30
0.0
 11
15.74043728645272
 21
16.24717430164393
 31
0.0
  0
LINE
  5
90
330
7F
100
AcDbEntity
  8
중심선
100
AcDbLine
 10
19.22036997980202
 20
11.08717430171403
 30
0.0
 11
23.66174974927406
 21
11.08717430171406
 31
0.0
  0
LINE
  5
91
330
7F
100
AcDbEntity
  8
중심선
100
AcDbLine
 10
19.22039502424796
 20
13.00717430171391
 30
0.0
 11
19.22036997980202
 21
11.08717430171403
 31
0.0
  0
LINE
  5
92
330
7F
100
AcDbEntity
  8
중심선
100
AcDbLine
 10
19.22039502424796
 20
13.00717430171391
 30
0.0
 11
26.96566020931264
 21
13.00717430171391
 31
0.0
  0
LINE
  5
93
330
7F
100
AcDbEntity
  8
중심선
100
AcDbLine
 10
22.22332737316547
 20
13.45928029700563
 30
0.0
 11
24.52862924686651
 21
15.39360700705356
 31
0.0
  0
ATTDEF
  5
95
330
7F
100
AcDbEntity
  8
FORMAT
 62
     2
100
AcDbText
 10
3.448148490846466
 20
2.075366912832191
 30
0.0
 40
4.233333333333333
  1
EM637906
 41
0.75
  7
SLDTEXTSTYLE0
 11
3.448148490846466
 21
-0.0412997538344756
 31
0.0
100
AcDbAttributeDefinition
  3

  2
AUTOATTR0
 70
     0
 74
     1
  0
ENDBLK
  5
81
330
7F
100
AcDbEntity
  8
0
100
AcDbBlockEnd
  0
BLOCK
  5
DC
330
DB
100
AcDbEntity
  8
0
100
AcDbBlockBegin
  2
_D
 70
     0
 10
0.0
 20
0.0
 30
0.0
  3
_D
  1
_D
  0
SOLID
  5
DE
330
DB
100
AcDbEntity
  8
치수문자_일반주서
100
AcDbTrace
 10
-59.84
 20
3.176074928723876
 30
0.0
 11
-59.332
 21
6.478074928723876
 31
0.0
 12
-60.34800000000001
 22
6.478074928723876
 32
0.0
 13
-60.34800000000001
 23
6.478074928723876
 33
0.0
  0
SOLID
  5
DF
330
DB
100
AcDbEntity
  8
치수문자_일반주서
100
AcDbTrace
 10
-59.84
 20
-3.173925071276119
 30
0.0
 11
-60.34800000000001
 21
-6.475925071276118
 31
0.0
 12
-59.332
 22
-6.475925071276118
 32
0.0
 13
-59.332
 23
-6.475925071276118
 33
0.0
  0
LINE
  5
E0
330
DB
100
AcDbEntity
  8
치수문자_일반주서
100
AcDbLine
 10
-70.63288171604273
 20
-5.413291502344828
 30
0.0
 11
-70.63288171604273
 21
-6.124228987909328
 31
0.0
  0
LINE
  5
E1
330
DB
100
AcDbEntity
  8
치수문자_일반주서
100
AcDbLine
 10
-70.63288171604273
 20
-6.124228987909328
 30
0.0
 11
-65.07663172498343
 21
-6.124228987909289
 31
0.0
  0
LINE
  5
E2
330
DB
100
AcDbEntity
  8
치수문자_일반주서
100
AcDbLine
 10
-65.07663172498343
 20
-6.124228987909289
 30
0.0
 11
-65.07663172498343
 21
-5.413291502344789
 31
0.0
  0
LINE
  5
E3
330
DB
100
AcDbEntity
  8
치수문자_일반주서
100
AcDbLine
 10
-70.63288171604282
 20
5.41544135979243
 30
0.0
 11
-70.63288171604282
 21
6.12637884535693
 31
0.0
  0
LINE
  5
E4
330
DB
100
AcDbEntity
  8
치수문자_일반주서
100
AcDbLine
 10
-70.63288171604282
 20
6.12637884535693
 30
0.0
 11
-65.07663172498351
 21
6.126378845356969
 31
0.0
  0
LINE
  5
E5
330
DB
100
AcDbEntity
  8
치수문자_일반주서
100
AcDbLine
 10
-65.07663172498351
 20
6.126378845356969
 30
0.0
 11
-65.07663172498351
 21
5.415441359792469
 31
0.0
  0
LINE
  5
E6
330
DB
100
AcDbEntity
  8
치수문자_일반주서
100
AcDbLine
 10
-47.33999999999999
 20
3.176074928723876
 30
0.0
 11
-60.84
 21
3.176074928723876
 31
0.0
  0
LINE
  5
E7
330
DB
100
AcDbEntity
  8
치수문자_일반주서
100
AcDbLine
 10
-47.33999999999999
 20
-3.173925071276118
 30
0.0
 11
-60.84
 21
-3.173925071276119
 31
0.0
  0
LINE
  5
E8
330
DB
100
AcDbEntity
  8
치수문자_일반주서
100
AcDbLine
 10
-59.84
 20
3.176074928723876
 30
0.0
 11
-59.84
 21
9.526074928723874
 31
0.0
  0
LINE
  5
E9
330
DB
100
AcDbEntity
  8
치수문자_일반주서
100
AcDbLine
 10
-59.84
 20
3.176074928723876
 30
0.0
 11
-59.84
 21
-3.173925071276119
 31
0.0
  0
LINE
  5
EA
330
DB
100
AcDbEntity
  8
치수문자_일반주서
100
AcDbLine
 10
-59.84
 20
-3.173925071276119
 30
0.0
 11
-59.84
 21
-9.52392507127612
 31
0.0
  0
MTEXT
  5
EB
330
DB
100
AcDbEntity
  8
치수문자_일반주서
100
AcDbMText
 10
-69.58836863956235
 20
-4.52461960173345
 30
0.0
 40
3.5
 41
0.0
 71
     1
 72
     1
  1
0.25
  7
SLDTEXTSTYLE0
 11
-7.044195017643634E-15
 21
1.0
 31
0.0
 73
     1
 44
1.0
  0
MTEXT
  5
EC
330
DB
100
AcDbEntity
  8
치수문자_일반주서
100
AcDbMText
 10
-64.35173708920185
 20
-7.163838766581741
 30
0.0
 40
3.5
 41
0.0
 71
     1
 72
     1
  1
%%c
  7
SLDTEXTSTYLE0
 11
-7.044195017643634E-15
 21
1.0
 31
0.0
 73
     1
 44
1.0
  0
MTEXT
  5
ED
330
DB
100
AcDbEntity
  8
치수문자_일반주서
100
AcDbMText
 10
-64.35173708920188
 20
-1.88540136820766
 30
0.0
 40
3.5
 41
0.0
 71
     1
 72
     1
  1
6.35
  7
SLDTEXTSTYLE0
 11
-7.044195017643634E-15
 21
1.0
 31
0.0
 73
     1
 44
1.0
  0
ENDBLK
  5
DD
330
DB
100
AcDbEntity
  8
0
100
AcDbBlockEnd
  0
BLOCK
  5
F0
330
EF
100
AcDbEntity
  8
0
100
AcDbBlockBegin
  2
_D_1
 70
     0
 10
0.0
 20
0.0
 30
0.0
  3
_D_1
  1
_D_1
  0
SOLID
  5
F2
330
EF
100
AcDbEntity
  8
치수문자_일반주서
100
AcDbTrace
 10
48.05000000000007
 20
3.176074928723893
 30
0.0
 11
48.55800000000007
 21
6.478074928723892
 31
0.0
 12
47.54200000000007
 22
6.478074928723892
 32
0.0
 13
47.54200000000007
 23
6.478074928723892
 33
0.0
  0
SOLID
  5
F3
330
EF
100
AcDbEntity
  8
치수문자_일반주서
100
AcDbTrace
 10
48.05000000000007
 20
-3.17392507127611
 30
0.0
 11
47.54200000000007
 21
-6.475925071276111
 31
0.0
 12
48.55800000000007
 22
-6.475925071276111
 32
0.0
 13
48.55800000000007
 23
-6.475925071276111
 33
0.0
  0
LINE
  5
F4
330
EF
100
AcDbEntity
  8
치수문자_일반주서
100
AcDbLine
 10
37.25711828395732
 20
7.781934058003486
 30
0.0
 11
37.25711828395733
 21
7.070996572438986
 31
0.0
  0
LINE
  5
F5
330
EF
100
AcDbEntity
  8
치수문자_일반주서
100
AcDbLine
 10
37.25711828395733
 20
7.070996572438986
 30
0.0
 11
42.81336827501663
 21
7.070996572439025
 31
0.0
  0
LINE
  5
F6
330
EF
100
AcDbEntity
  8
치수문자_일반주서
100
AcDbLine
 10
42.81336827501663
 20
7.070996572439025
 30
0.0
 11
42.81336827501662
 21
7.781934058003525
 31
0.0
  0
LINE
  5
F7
330
EF
100
AcDbEntity
  8
치수문자_일반주서
100
AcDbLine
 10
37.25711828395725
 20
18.61066692014075
 30
0.0
 11
37.25711828395725
 21
19.32160440570525
 31
0.0
  0
LINE
  5
F8
330
EF
100
AcDbEntity
  8
치수문자_일반주서
100
AcDbLine
 10
37.25711828395725
 20
19.32160440570525
 30
0.0
 11
42.81336827501655
 21
19.32160440570528
 31
0.0
  0
LINE
  5
F9
330
EF
100
AcDbEntity
  8
치수문자_일반주서
100
AcDbLine
 10
42.81336827501655
 20
19.32160440570528
 30
0.0
 11
42.81336827501656
 21
18.61066692014078
 31
0.0
  0
LINE
  5
FA
330
EF
100
AcDbEntity
  8
치수문자_일반주서
100
AcDbLine
 10
14.53767706952182
 20
3.176074928723895
 30
0.0
 11
49.05000000000007
 21
3.176074928723893
 31
0.0
  0
LINE
  5
FB
330
EF
100
AcDbEntity
  8
치수문자_일반주서
100
AcDbLine
 10
14.53767706952182
 20
-3.173925071276109
 30
0.0
 11
49.05000000000007
 21
-3.17392507127611
 31
0.0
  0
LINE
  5
FC
330
EF
100
AcDbEntity
  8
치수문자_일반주서
100
AcDbLine
 10
48.05000000000007
 20
3.176074928723893
 30
0.0
 11
48.05000000000007
 21
20.36121418437776
 31
0.0
  0
LINE
  5
FD
330
EF
100
AcDbEntity
  8
치수문자_일반주서
100
AcDbLine
 10
48.05000000000007
 20
3.176074928723893
 30
0.0
 11
48.05000000000007
 21
-3.17392507127611
 31
0.0
  0
LINE
  5
FE
330
EF
100
AcDbEntity
  8
치수문자_일반주서
100
AcDbLine
 10
48.05000000000007
 20
-3.17392507127611
 30
0.0
 11
48.05000000000007
 21
-9.52392507127611
 31
0.0
  0
MTEXT
  5
FF
330
EF
100
AcDbEntity
  8
치수문자_일반주서
100
AcDbMText
 10
38.30163136043773
 20
8.670605958614866
 30
0.0
 40
3.5
 41
0.0
 71
     1
 72
     1
  1
0.25
  7
SLDTEXTSTYLE0
 11
-7.044195017643634E-15
 21
1.0
 31
0.0
 73
     1
 44
1.0
  0
MTEXT
  5
100
330
EF
100
AcDbEntity
  8
치수문자_일반주서
100
AcDbMText
 10
43.53826291079822
 20
6.031386793766572
 30
0.0
 40
3.5
 41
0.0
 71
     1
 72
     1
  1
%%c
  7
SLDTEXTSTYLE0
 11
-7.044195017643634E-15
 21
1.0
 31
0.0
 73
     1
 44
1.0
  0
MTEXT
  5
101
330
EF
100
AcDbEntity
  8
치수문자_일반주서
100
AcDbMText
 10
43.53826291079818
 20
11.30982419214065
 30
0.0
 40
3.5
 41
0.0
 71
     1
 72
     1
  1
6.35
  7
SLDTEXTSTYLE0
 11
-7.044195017643634E-15
 21
1.0
 31
0.0
 73
     1
 44
1.0
  0
ENDBLK
  5
F1
330
EF
100
AcDbEntity
  8
0
100
AcDbBlockEnd
  0
BLOCK
  5
104
330
103
100
AcDbEntity
  8
0
100
AcDbBlockBegin
  2
_D_2
 70
     0
 10
0.0
 20
0.0
 30
0.0
  3
_D_2
  1
_D_2
  0
SOLID
  5
106
330
103
100
AcDbEntity
  8
치수문자_일반주서
100
AcDbTrace
 10
29.05000000000001
 20
13.1963004890722
 30
0.0
 11
32.35200000000002
 21
12.6883004890722
 31
0.0
 12
32.35200000000002
 22
13.7043004890722
 32
0.0
 13
32.35200000000002
 23
13.7043004890722
 33
0.0
  0
SOLID
  5
107
330
103
100
AcDbEntity
  8
치수문자_일반주서
100
AcDbTrace
 10
10.00000000000001
 20
13.19630048907219
 30
0.0
 11
6.698000000000008
 21
13.70430048907219
 31
0.0
 12
6.698000000000008
 22
12.68830048907219
 32
0.0
 13
6.698000000000008
 23
12.68830048907219
 33
0.0
  0
LINE
  5
108
330
103
100
AcDbEntity
  8
치수문자_일반주서
100
AcDbLine
 10
14.15068917847685
 20
23.98918220511496
 30
0.0
 11
13.43975169291235
 21
23.98918220511496
 31
0.0
  0
LINE
  5
109
330
103
100
AcDbEntity
  8
치수문자_일반주서
100
AcDbLine
 10
13.43975169291235
 20
23.98918220511496
 30
0.0
 11
13.43975169291239
 21
18.43293221405566
 31
0.0
  0
LINE
  5
10A
330
103
100
AcDbEntity
  8
치수문자_일반주서
100
AcDbLine
 10
13.43975169291239
 20
18.43293221405566
 30
0.0
 11
14.15068917847689
 21
18.43293221405566
 31
0.0
  0
LINE
  5
10B
330
103
100
AcDbEntity
  8
치수문자_일반주서
100
AcDbLine
 10
24.9794220406141
 20
23.98918220511504
 30
0.0
 11
25.6903595261786
 21
23.98918220511505
 31
0.0
  0
LINE
  5
10C
330
103
100
AcDbEntity
  8
치수문자_일반주서
100
AcDbLine
 10
25.6903595261786
 20
23.98918220511505
 30
0.0
 11
25.69035952617864
 21
18.43293221405574
 31
0.0
  0
LINE
  5
10D
330
103
100
AcDbEntity
  8
치수문자_일반주서
100
AcDbLine
 10
25.69035952617864
 20
18.43293221405574
 30
0.0
 11
24.97942204061414
 21
18.43293221405574
 31
0.0
  0
LINE
  5
10E
330
103
100
AcDbEntity
  8
치수문자_일반주서
100
AcDbLine
 10
29.05000000000002
 20
3.223574928723893
 30
0.0
 11
29.05000000000001
 21
14.1963004890722
 31
0.0
  0
LINE
  5
10F
330
103
100
AcDbEntity
  8
치수문자_일반주서
100
AcDbLine
 10
10.00000000000001
 20
3.129280892935249
 30
0.0
 11
10.00000000000001
 21
14.19630048907219
 31
0.0
  0
LINE
  5
110
330
103
100
AcDbEntity
  8
치수문자_일반주서
100
AcDbLine
 10
29.05000000000001
 20
13.1963004890722
 30
0.0
 11
35.40000000000001
 21
13.1963004890722
 31
0.0
  0
LINE
  5
111
330
103
100
AcDbEntity
  8
치수문자_일반주서
100
AcDbLine
 10
29.05000000000001
 20
13.1963004890722
 30
0.0
 11
10.00000000000001
 21
13.19630048907219
 31
0.0
  0
LINE
  5
112
330
103
100
AcDbEntity
  8
치수문자_일반주서
100
AcDbLine
 10
10.00000000000001
 20
13.19630048907219
 30
0.0
 11
3.650000000000007
 21
13.19630048907219
 31
0.0
  0
MTEXT
  5
113
330
103
100
AcDbEntity
  8
치수문자_일반주서
100
AcDbMText
 10
12.9259929674257
 20
17.76150975493393
 30
0.0
 40
3.5
 41
0.0
 71
     1
 72
     1
  1

  7
SLDTEXTSTYLE0
 73
     1
 44
1.0
  0
MTEXT
  5
114
330
103
100
AcDbEntity
  8
치수문자_일반주서
100
AcDbMText
 10
15.03936107908823
 20
22.94466912863456
 30
0.0
 40
3.5
 41
0.0
 71
     1
 72
     1
  1
0.75
  7
SLDTEXTSTYLE0
 73
     1
 44
1.0
  0
MTEXT
  5
115
330
103
100
AcDbEntity
  8
치수문자_일반주서
100
AcDbMText
 10
13.74630536591153
 20
17.70803757827408
 30
0.0
 40
3.5
 41
0.0
 71
     1
 72
     1
  1
19.05
  7
SLDTEXTSTYLE0
 73
     1
 44
1.0
  0
MTEXT
  5
116
330
103
100
AcDbEntity
  8
치수문자_일반주서
100
AcDbMText
 10
27.53606277131926
 20
17.76150975493404
 30
0.0
 40
3.5
 41
0.0
 71
     1
 72
     1
  1

  7
SLDTEXTSTYLE0
 73
     1
 44
1.0
  0
ENDBLK
  5
105
330
103
100
AcDbEntity
  8
0
100
AcDbBlockEnd
  0
BLOCK
  5
11A
330
119
100
AcDbEntity
  8
0
100
AcDbBlockBegin
  2
_D_3
 70
     0
 10
0.0
 20
0.0
 30
0.0
  3
_D_3
  1
_D_3
  0
SOLID
  5
11C
330
119
100
AcDbEntity
  8
치수문자_일반주서
100
AcDbTrace
 10
29.05000000000002
 20
25.19630048907215
 30
0.0
 11
25.74800000000002
 21
25.70430048907215
 31
0.0
 12
25.74800000000002
 22
24.68830048907215
 32
0.0
 13
25.74800000000002
 23
24.68830048907215
 33
0.0
  0
SOLID
  5
11D
330
119
100
AcDbEntity
  8
치수문자_일반주서
100
AcDbTrace
 10
-47.14999999999999
 20
25.19630048907214
 30
0.0
 11
-43.84799999999999
 21
24.68830048907214
 31
0.0
 12
-43.84799999999999
 22
25.70430048907214
 32
0.0
 13
-43.84799999999999
 23
25.70430048907214
 33
0.0
  0
LINE
  5
11E
330
119
100
AcDbEntity
  8
치수문자_일반주서
100
AcDbLine
 10
-14.80725504471997
 20
35.98918220511488
 30
0.0
 11
-15.51819253028447
 21
35.98918220511489
 31
0.0
  0
LINE
  5
11F
330
119
100
AcDbEntity
  8
치수문자_일반주서
100
AcDbLine
 10
-15.51819253028447
 20
35.98918220511489
 30
0.0
 11
-15.51819253028451
 21
30.43293221405558
 31
0.0
  0
LINE
  5
120
330
119
100
AcDbEntity
  8
치수문자_일반주서
100
AcDbLine
 10
-15.51819253028451
 20
30.43293221405558
 30
0.0
 11
-14.80725504472001
 21
30.43293221405558
 31
0.0
  0
LINE
  5
121
330
119
100
AcDbEntity
  8
치수문자_일반주서
100
AcDbLine
 10
-3.978522182582715
 20
35.9891822051148
 30
0.0
 11
-3.267584697018215
 21
35.98918220511479
 31
0.0
  0
LINE
  5
122
330
119
100
AcDbEntity
  8
치수문자_일반주서
100
AcDbLine
 10
-3.267584697018215
 20
35.98918220511479
 30
0.0
 11
-3.267584697018254
 21
30.43293221405549
 31
0.0
  0
LINE
  5
123
330
119
100
AcDbEntity
  8
치수문자_일반주서
100
AcDbLine
 10
-3.267584697018254
 20
30.43293221405549
 30
0.0
 11
-3.978522182582755
 21
30.43293221405549
 31
0.0
  0
LINE
  5
124
330
119
100
AcDbEntity
  8
치수문자_일반주서
100
AcDbLine
 10
29.05000000000002
 20
3.223574928723893
 30
0.0
 11
29.05000000000002
 21
26.19630048907215
 31
0.0
  0
LINE
  5
125
330
119
100
AcDbEntity
  8
치수문자_일반주서
100
AcDbLine
 10
-47.14999999999999
 20
3.366074928723885
 30
0.0
 11
-47.14999999999999
 21
26.19630048907215
 31
0.0
  0
LINE
  5
126
330
119
100
AcDbEntity
  8
치수문자_일반주서
100
AcDbLine
 10
29.05000000000002
 20
25.19630048907215
 30
0.0
 11
-47.14999999999999
 21
25.19630048907214
 31
0.0
  0
MTEXT
  5
127
330
119
100
AcDbEntity
  8
치수문자_일반주서
100
AcDbMText
 10
-16.03195125577121
 20
29.76150975493387
 30
0.0
 40
3.5
 41
0.0
 71
     1
 72
     1
  1

  7
SLDTEXTSTYLE0
 73
     1
 44
1.0
  0
MTEXT
  5
128
330
119
100
AcDbEntity
  8
치수문자_일반주서
100
AcDbMText
 10
-13.91858314410861
 20
34.94466912863447
 30
0.0
 40
3.5
 41
0.0
 71
     1
 72
     1
  1
3.00
  7
SLDTEXTSTYLE0
 73
     1
 44
1.0
  0
MTEXT
  5
129
330
119
100
AcDbEntity
  8
치수문자_일반주서
100
AcDbMText
 10
-15.21163885728537
 20
29.70803757827401
 30
0.0
 40
3.5
 41
0.0
 71
     1
 72
     1
  1
76.20
  7
SLDTEXTSTYLE0
 73
     1
 44
1.0
  0
MTEXT
  5
12A
330
119
100
AcDbEntity
  8
치수문자_일반주서
100
AcDbMText
 10
-1.421881451877647
 20
29.76150975493376
 30
0.0
 40
3.5
 41
0.0
 71
     1
 72
     1
  1

  7
SLDTEXTSTYLE0
 73
     1
 44
1.0
  0
ENDBLK
  5
11B
330
119
100
AcDbEntity
  8
0
100
AcDbBlockEnd
  0
BLOCK
  5
133
330
132
100
AcDbEntity
  8
0
100
AcDbBlockBegin
  2
SW_DOWELSYMBOL_0
 70
     0
 10
0.0
 20
0.0
 30
0.0
  3
SW_DOWELSYMBOL_0
  1
SW_DOWELSYMBOL_0
  0
CIRCLE
  5
135
330
132
100
AcDbEntity
  8
해칭선
 62
     0
100
AcDbCircle
 10
0.0
 20
0.0
 30
0.0
 40
3.000000000000002
  0
HATCH
  5
136
330
132
100
AcDbEntity
  8
0
  6
Continuous
 62
     0
370
     0
100
AcDbHatch
 10
0.0
 20
0.0
 30
0.0
210
0.0
220
0.0
230
1.0
  2
SOLID
 70
     1
 71
     0
 91
        1
 92
        0
 93
        3
 72
     2
 10
0.0000000000000069
 20
0.0
 40
3.000000000000002
 50
0.0
 51
90.0
 73
     1
 72
     1
 10
0.0000000000000069
 20
3.000000000000002
 11
0.0000000000000069
 21
0.0
 72
     1
 10
0.0000000000000069
 20
0.0
 11
3.000000000000009
 21
0.0
 97
        0
 75
     0
 76
     1
 98
        1
 10
0.0
 20
0.0
  0
HATCH
  5
137
330
132
100
AcDbEntity
  8
0
  6
Continuous
 62
     0
370
     0
100
AcDbHatch
 10
0.0
 20
0.0
 30
0.0
210
0.0
220
0.0
230
1.0
  2
SOLID
 70
     1
 71
     0
 91
        1
 92
        0
 93
        3
 72
     2
 10
0.0000000000000069
 20
0.0
 40
3.000000000000002
 50
180.0
 51
270.0000000000008
 73
     1
 72
     1
 10
0.0000000000000069
 20
-3.000000000000002
 11
0.0000000000000069
 21
0.0
 72
     1
 10
0.0000000000000069
 20
0.0
 11
-2.999999999999995
 21
0.0
 97
        0
 75
     0
 76
     1
 98
        1
 10
0.0
 20
0.0
  0
ENDBLK
  5
134
330
132
100
AcDbEntity
  8
0
100
AcDbBlockEnd
  0
BLOCK
  5
1BD
330
1BC
100
AcDbEntity
  8
0
100
AcDbBlockBegin
  2
*D8
 70
     1
 10
0.0
 20
0.0
 30
0.0
  3
*D8
  1
*D8
  0
LINE
  5
1BE
330
1BC
100
AcDbEntity
  8
치수문자_일반주서
 62
     0
370
    -2
100
AcDbLine
 10
17.81250000000004
 20
36.09883652169395
 30
0.0
 11
4.375000000000018
 21
36.0988365216939
 31
0.0
  0
LINE
  5
1BF
330
1BC
100
AcDbEntity
  8
치수문자_일반주서
 62
     0
370
    -2
100
AcDbLine
 10
17.81250000000004
 20
29.74883652169395
 30
0.0
 11
4.37500000000004
 21
29.7488365216939
 31
0.0
  0
LINE
  5
1C0
330
1BC
100
AcDbEntity
  8
치수문자_일반주서
 62
     0
370
    -2
100
AcDbLine
 10
4.375000000000018
 20
36.0988365216939
 30
0.0
 11
4.37500000000004
 21
29.7488365216939
 31
0.0
  0
LINE
  5
1C1
330
1BC
100
AcDbEntity
  8
치수문자_일반주서
 62
     0
370
    -2
100
AcDbLine
 10
4.375000000000006
 20
39.4008365216939
 30
0.0
 11
4.374999999999995
 21
42.7028365216939
 31
0.0
  0
LINE
  5
1C2
330
1BC
100
AcDbEntity
  8
치수문자_일반주서
 62
     0
370
    -2
100
AcDbLine
 10
4.375000000000052
 20
26.4468365216939
 30
0.0
 11
4.375000000000063
 21
23.1448365216939
 31
0.0
  0
SOLID
  5
1C3
330
1BC
100
AcDbEntity
  8
치수문자_일반주서
 62
     0
100
AcDbTrace
 10
3.824666666666673
 20
39.4008365216939
 30
0.0
 11
4.92533333333334
 21
39.4008365216939
 31
0.0
 12
4.375000000000018
 22
36.0988365216939
 32
0.0
 13
4.375000000000018
 23
36.0988365216939
 33
0.0
  0
SOLID
  5
1C4
330
1BC
100
AcDbEntity
  8
치수문자_일반주서
 62
     0
100
AcDbTrace
 10
4.925333333333385
 20
26.44683652169391
 30
0.0
 11
3.824666666666718
 21
26.4468365216939
 31
0.0
 12
4.37500000000004
 22
29.7488365216939
 32
0.0
 13
4.37500000000004
 23
29.7488365216939
 33
0.0
  0
MTEXT
  5
1C5
330
1BC
100
AcDbEntity
  8
치수문자_일반주서
 62
     0
100
AcDbMText
 10
0.0000000000000284
 20
32.92383652169394
 30
0.0
 40
3.5
 41
0.0
 71
     2
 72
     1
  1
\A1;%%c6.35 [1/4]
  7
SLDTEXTSTYLE0
 11
-3.496765431890260E-15
 21
1.0
 31
0.0
 73
     1
 44
1.0
  0
POINT
  5
1C6
330
1BC
100
AcDbEntity
  8
Defpoints
 62
     0
100
AcDbPoint
 10
17.87500000000004
 20
36.09883652169395
 30
0.0
  0
POINT
  5
1C7
330
1BC
100
AcDbEntity
  8
Defpoints
 62
     0
100
AcDbPoint
 10
17.87500000000004
 20
29.74883652169395
 30
0.0
  0
POINT
  5
1C8
330
1BC
100
AcDbEntity
  8
Defpoints
 62
     0
100
AcDbPoint
 10
4.375000000000043
 20
29.7488365216939
 30
0.0
  0
ENDBLK
  5
1C9
330
1BC
100
AcDbEntity
  8
0
100
AcDbBlockEnd
  0
BLOCK
  5
1CC
330
1CB
100
AcDbEntity
  8
0
100
AcDbBlockBegin
  2
*D9
 70
     1
 10
0.0
 20
0.0
 30
0.0
  3
*D9
  1
*D9
  0
LINE
  5
1CD
330
1CB
100
AcDbEntity
  8
치수문자_일반주서
 62
     0
370
    -2
100
AcDbLine
 10
93.32750000000004
 20
36.09883652169396
 30
0.0
 11
112.2650000000001
 21
36.09883652169403
 31
0.0
  0
LINE
  5
1CE
330
1CB
100
AcDbEntity
  8
치수문자_일반주서
 62
     0
370
    -2
100
AcDbLine
 10
93.32750000000004
 20
29.74883652169397
 30
0.0
 11
112.2650000000002
 21
29.74883652169404
 31
0.0
  0
LINE
  5
1CF
330
1CB
100
AcDbEntity
  8
치수문자_일반주서
 62
     0
370
    -2
100
AcDbLine
 10
112.2650000000001
 20
36.09883652169403
 30
0.0
 11
112.265
 21
68.73408652169408
 31
0.0
  0
LINE
  5
1D0
330
1CB
100
AcDbEntity
  8
치수문자_일반주서
 62
     0
370
    -2
100
AcDbLine
 10
112.2650000000001
 20
36.09883652169403
 30
0.0
 11
112.2650000000002
 21
29.74883652169404
 31
0.0
  0
LINE
  5
1D1
330
1CB
100
AcDbEntity
  8
치수문자_일반주서
 62
     0
370
    -2
100
AcDbLine
 10
112.2650000000001
 20
39.40083652169403
 30
0.0
 11
112.2650000000001
 21
42.70283652169403
 31
0.0
  0
LINE
  5
1D2
330
1CB
100
AcDbEntity
  8
치수문자_일반주서
 62
     0
370
    -2
100
AcDbLine
 10
112.2650000000002
 20
26.44683652169404
 30
0.0
 11
112.2650000000002
 21
23.14483652169404
 31
0.0
  0
SOLID
  5
1D3
330
1CB
100
AcDbEntity
  8
치수문자_일반주서
 62
     0
100
AcDbTrace
 10
111.7146666666668
 20
39.40083652169403
 30
0.0
 11
112.8153333333334
 21
39.40083652169403
 31
0.0
 12
112.2650000000001
 22
36.09883652169403
 32
0.0
 13
112.2650000000001
 23
36.09883652169403
 33
0.0
  0
SOLID
  5
1D4
330
1CB
100
AcDbEntity
  8
치수문자_일반주서
 62
     0
100
AcDbTrace
 10
112.8153333333335
 20
26.44683652169404
 30
0.0
 11
111.7146666666668
 21
26.44683652169403
 31
0.0
 12
112.2650000000002
 22
29.74883652169404
 32
0.0
 13
112.2650000000002
 23
29.74883652169404
 33
0.0
  0
MTEXT
  5
1D5
330
1CB
100
AcDbEntity
  8
치수문자_일반주서
 62
     0
100
AcDbMText
 10
107.89
 20
56.04658652169406
 30
0.0
 40
3.5
 41
0.0
 71
     2
 72
     1
  1
\A1;%%c6.35 [1/4]
  7
SLDTEXTSTYLE0
 11
-4.475859752819533E-15
 21
1.0
 31
0.0
 73
     1
 44
1.0
  0
POINT
  5
1D6
330
1CB
100
AcDbEntity
  8
Defpoints
 62
     0
100
AcDbPoint
 10
93.26500000000004
 20
36.09883652169396
 30
0.0
  0
POINT
  5
1D7
330
1CB
100
AcDbEntity
  8
Defpoints
 62
     0
100
AcDbPoint
 10
93.26500000000004
 20
29.74883652169397
 30
0.0
  0
POINT
  5
1D8
330
1CB
100
AcDbEntity
  8
Defpoints
 62
     0
100
AcDbPoint
 10
112.2650000000001
 20
29.74883652169404
 30
0.0
  0
ENDBLK
  5
1D9
330
1CB
100
AcDbEntity
  8
0
100
AcDbBlockEnd
  0
BLOCK
  5
1DC
330
1DB
100
AcDbEntity
  8
0
100
AcDbBlockBegin
  2
*D10
 70
     1
 10
0.0
 20
0.0
 30
0.0
  3
*D10
  1
*D10
  0
LINE
  5
1DD
330
1DB
100
AcDbEntity
  8
치수문자_일반주서
 62
     0
370
    -2
100
AcDbLine
 10
93.26500000000004
 20
36.16133652169396
 30
0.0
 11
93.26500000000004
 21
46.11906208204226
 31
0.0
  0
LINE
  5
1DE
330
1DB
100
AcDbEntity
  8
치수문자_일반주서
 62
     0
370
    -2
100
AcDbLine
 10
74.21500000000003
 20
35.11454248590532
 30
0.0
 11
74.21500000000003
 21
46.11906208204226
 31
0.0
  0
LINE
  5
1DF
330
1DB
100
AcDbEntity
  8
치수문자_일반주서
 62
     0
370
    -2
100
AcDbLine
 10
89.96300000000005
 20
46.11906208204226
 30
0.0
 11
77.51700000000002
 21
46.11906208204226
 31
0.0
  0
SOLID
  5
1E0
330
1DB
100
AcDbEntity
  8
치수문자_일반주서
 62
     0
100
AcDbTrace
 10
89.96300000000005
 20
45.56872874870892
 30
0.0
 11
89.96300000000005
 21
46.66939541537559
 31
0.0
 12
93.26500000000004
 22
46.11906208204226
 32
0.0
 13
93.26500000000004
 23
46.11906208204226
 33
0.0
  0
SOLID
  5
1E1
330
1DB
100
AcDbEntity
  8
치수문자_일반주서
 62
     0
100
AcDbTrace
 10
77.51700000000002
 20
46.66939541537559
 30
0.0
 11
77.51700000000002
 21
45.56872874870892
 31
0.0
 12
74.21500000000003
 22
46.11906208204226
 32
0.0
 13
74.21500000000003
 23
46.11906208204226
 33
0.0
  0
MTEXT
  5
1E2
330
1DB
100
AcDbEntity
  8
치수문자_일반주서
 62
     0
100
AcDbMText
 10
83.78005526029952
 20
50.49406208204226
 30
0.0
 40
3.5
 41
0.0
 71
     2
 72
     1
  1
\A1;19.05 [3/4]
  7
SLDTEXTSTYLE0
 73
     1
 44
1.0
  0
POINT
  5
1E3
330
1DB
100
AcDbEntity
  8
Defpoints
 62
     0
100
AcDbPoint
 10
93.26500000000004
 20
36.09883652169396
 30
0.0
  0
POINT
  5
1E4
330
1DB
100
AcDbEntity
  8
Defpoints
 62
     0
100
AcDbPoint
 10
74.21500000000003
 20
35.05204248590532
 30
0.0
  0
POINT
  5
1E5
330
1DB
100
AcDbEntity
  8
Defpoints
 62
     0
100
AcDbPoint
 10
74.21500000000003
 20
46.11906208204226
 30
0.0
  0
ENDBLK
  5
1E6
330
1DB
100
AcDbEntity
  8
0
100
AcDbBlockEnd
  0
BLOCK
  5
1E9
330
1E8
100
AcDbEntity
  8
0
100
AcDbBlockBegin
  2
*D11
 70
     1
 10
0.0
 20
0.0
 30
0.0
  3
*D11
  1
*D11
  0
LINE
  5
1EA
330
1E8
100
AcDbEntity
  8
치수문자_일반주서
 62
     0
370
    -2
100
AcDbLine
 10
93.26500000000004
 20
36.16133652169396
 30
0.0
 11
93.26500000000004
 21
58.11906208204219
 31
0.0
  0
LINE
  5
1EB
330
1E8
100
AcDbEntity
  8
치수문자_일반주서
 62
     0
370
    -2
100
AcDbLine
 10
17.06500000000003
 20
35.35133652169395
 30
0.0
 11
17.06500000000003
 21
58.11906208204219
 31
0.0
  0
LINE
  5
1EC
330
1E8
100
AcDbEntity
  8
치수문자_일반주서
 62
     0
370
    -2
100
AcDbLine
 10
89.96300000000005
 20
58.11906208204219
 30
0.0
 11
20.36700000000003
 21
58.11906208204219
 31
0.0
  0
SOLID
  5
1ED
330
1E8
100
AcDbEntity
  8
치수문자_일반주서
 62
     0
100
AcDbTrace
 10
89.96300000000005
 20
57.56872874870886
 30
0.0
 11
89.96300000000005
 21
58.66939541537553
 31
0.0
 12
93.26500000000004
 22
58.11906208204219
 32
0.0
 13
93.26500000000004
 23
58.11906208204219
 33
0.0
  0
SOLID
  5
1EE
330
1E8
100
AcDbEntity
  8
치수문자_일반주서
 62
     0
100
AcDbTrace
 10
20.36700000000003
 20
58.66939541537553
 30
0.0
 11
20.36700000000003
 21
57.56872874870886
 31
0.0
 12
17.06500000000003
 22
58.11906208204219
 32
0.0
 13
17.06500000000003
 23
58.11906208204219
 33
0.0
  0
MTEXT
  5
1EF
330
1E8
100
AcDbEntity
  8
치수문자_일반주서
 62
     0
100
AcDbMText
 10
54.8221110371027
 20
62.49406208204219
 30
0.0
 40
3.5
 41
0.0
 71
     2
 72
     1
  1
\A1;76.2 [3]
  7
SLDTEXTSTYLE0
 73
     1
 44
1.0
  0
POINT
  5
1F0
330
1E8
100
AcDbEntity
  8
Defpoints
 62
     0
100
AcDbPoint
 10
93.26500000000004
 20
36.09883652169396
 30
0.0
  0
POINT
  5
1F1
330
1E8
100
AcDbEntity
  8
Defpoints
 62
     0
100
AcDbPoint
 10
17.06500000000003
 20
35.28883652169395
 30
0.0
  0
POINT
  5
1F2
330
1E8
100
AcDbEntity
  8
Defpoints
 62
     0
100
AcDbPoint
 10
17.06500000000003
 20
58.11906208204219
 30
0.0
  0
ENDBLK
  5
1F3
330
1E8
100
AcDbEntity
  8
0
100
AcDbBlockEnd
  0
BLOCK
  5
205
330
204
100
AcDbEntity
  8
0
100
AcDbBlockBegin
  2
*D12
 70
     1
 10
0.0
 20
0.0
 30
0.0
  3
*D12
  1
*D12
  0
LINE
  5
206
330
204
100
AcDbEntity
  8
치수문자_일반주서
 62
     0
370
    -2
100
AcDbLine
 10
94.61796521063607
 20
26.9322450453164
 30
0.0
 11
109.6934929648818
 21
0.0000000000000284
 31
0.0
  0
MTEXT
  5
207
330
204
100
AcDbEntity
  8
치수문자_일반주서
 62
     0
100
AcDbMText
 10
105.2527123392684
 20
13.30762728654804
 30
0.0
 40
3.5
 41
0.0
 71
     5
 72
     1
  1
\A1;R.51 [R0.020]
  7
SLDTEXTSTYLE0
 11
0.4884423125028976
 21
-0.8725961880256077
 31
0.0
 73
     1
 44
1.0
  0
LINE
  5
208
330
204
100
AcDbEntity
  8
치수문자_일반주서
 62
     0
370
    -2
100
AcDbLine
 10
92.75700000000003
 20
30.25683652169396
 30
0.0
 11
93.0051286947515
 21
29.81355765817695
 31
0.0
  0
SOLID
  5
209
330
204
100
AcDbEntity
  8
치수문자_일반주서
 62
     0
100
AcDbTrace
 10
95.09818397944616
 20
27.20105113129716
 30
0.0
 11
94.13774644182598
 21
26.66343895933564
 31
0.0
 12
93.0051286947515
 22
29.81355765817695
 32
0.0
 13
93.0051286947515
 23
29.81355765817695
 33
0.0
  0
POINT
  5
20A
330
204
100
AcDbEntity
  8
Defpoints
 62
     0
100
AcDbPoint
 10
93.0051286947515
 20
29.81355765817695
 30
0.0
  0
POINT
  5
20B
330
204
100
AcDbEntity
  8
Defpoints
 62
     0
100
AcDbPoint
 10
92.75700000000003
 20
30.25683652169396
 30
0.0
  0
ENDBLK
  5
20C
330
204
100
AcDbEntity
  8
0
100
AcDbBlockEnd
  0
BLOCK
  5
254
330
253
100
AcDbEntity
  8
0
100
AcDbBlockBegin
  2
*D13
 70
     1
 10
0.0
 20
0.0
 30
0.0
  3
*D13
  1
*D13
  0
LINE
  5
256
330
253
100
AcDbEntity
  8
치수문자_일반주서
 62
     0
370
    -2
100
AcDbLine
 10
-46.40249999999999
 20
3.176074928723878
 30
0.0
 11
-59.84000000000001
 21
3.176074928723827
 31
0.0
  0
LINE
  5
257
330
253
100
AcDbEntity
  8
치수문자_일반주서
 62
     0
370
    -2
100
AcDbLine
 10
-46.40249999999999
 20
-3.173925071276117
 30
0.0
 11
-59.83999999999999
 21
-3.173925071276167
 31
0.0
  0
LINE
  5
258
330
253
100
AcDbEntity
  8
치수문자_일반주서
 62
     0
370
    -2
100
AcDbLine
 10
-59.84000000000001
 20
3.176074928723827
 30
0.0
 11
-59.83999999999999
 21
-3.173925071276167
 31
0.0
  0
LINE
  5
259
330
253
100
AcDbEntity
  8
치수문자_일반주서
 62
     0
370
    -2
100
AcDbLine
 10
-59.84000000000002
 20
6.478074928723827
 30
0.0
 11
-59.84000000000004
 21
9.780074928723828
 31
0.0
  0
LINE
  5
25A
330
253
100
AcDbEntity
  8
치수문자_일반주서
 62
     0
370
    -2
100
AcDbLine
 10
-59.83999999999997
 20
-6.475925071276166
 30
0.0
 11
-59.83999999999996
 21
-9.777925071276165
 31
0.0
  0
SOLID
  5
25B
330
253
100
AcDbEntity
  8
치수문자_일반주서
 62
     0
100
AcDbTrace
 10
-60.39033333333336
 20
6.478074928723825
 30
0.0
 11
-59.28966666666669
 21
6.478074928723829
 31
0.0
 12
-59.84000000000001
 22
3.176074928723827
 32
0.0
 13
-59.84000000000001
 23
3.176074928723827
 33
0.0
  0
SOLID
  5
25C
330
253
100
AcDbEntity
  8
치수문자_일반주서
 62
     0
100
AcDbTrace
 10
-59.28966666666664
 20
-6.475925071276165
 30
0.0
 11
-60.39033333333331
 21
-6.475925071276168
 31
0.0
 12
-59.83999999999999
 22
-3.173925071276167
 32
0.0
 13
-59.83999999999999
 23
-3.173925071276167
 33
0.0
  0
MTEXT
  5
25D
330
253
100
AcDbEntity
  8
치수문자_일반주서
 62
     0
100
AcDbMText
 10
-64.215
 20
0.0010749287238664
 30
0.0
 40
3.5
 41
0.0
 71
     2
 72
     1
  1
\A1;%%c6.35 [1/4]
  7
SLDTEXTSTYLE0
 11
-3.356894814614650E-15
 21
1.0
 31
0.0
 73
     1
 44
1.0
  0
POINT
  5
25E
330
253
100
AcDbEntity
  8
Defpoints
 62
     0
100
AcDbPoint
 10
-46.33999999999999
 20
3.176074928723878
 30
0.0
  0
POINT
  5
25F
330
253
100
AcDbEntity
  8
Defpoints
 62
     0
100
AcDbPoint
 10
-46.33999999999999
 20
-3.173925071276116
 30
0.0
  0
POINT
  5
260
330
253
100
AcDbEntity
  8
Defpoints
 62
     0
100
AcDbPoint
 10
-59.83999999999999
 20
-3.173925071276167
 30
0.0
  0
ENDBLK
  5
255
330
253
100
AcDbEntity
  8
0
100
AcDbBlockEnd
  0
BLOCK
  5
262
330
261
100
AcDbEntity
  8
0
100
AcDbBlockBegin
  2
*D14
 70
     1
 10
0.0
 20
0.0
 30
0.0
  3
*D14
  1
*D14
  0
LINE
  5
264
330
261
100
AcDbEntity
  8
치수문자_일반주서
 62
     0
370
    -2
100
AcDbLine
 10
29.11250000000001
 20
3.176074928723893
 30
0.0
 11
48.05000000000008
 21
3.176074928723963
 31
0.0
  0
LINE
  5
265
330
261
100
AcDbEntity
  8
치수문자_일반주서
 62
     0
370
    -2
100
AcDbLine
 10
29.11250000000001
 20
-3.173925071276102
 30
0.0
 11
48.0500000000001
 21
-3.173925071276031
 31
0.0
  0
LINE
  5
266
330
261
100
AcDbEntity
  8
치수문자_일반주서
 62
     0
370
    -2
100
AcDbLine
 10
48.05000000000008
 20
3.176074928723963
 30
0.0
 11
48.04999999999997
 21
35.81132492872401
 31
0.0
  0
LINE
  5
267
330
261
100
AcDbEntity
  8
치수문자_일반주서
 62
     0
370
    -2
100
AcDbLine
 10
48.05000000000008
 20
3.176074928723963
 30
0.0
 11
48.0500000000001
 21
-3.173925071276031
 31
0.0
  0
LINE
  5
268
330
261
100
AcDbEntity
  8
치수문자_일반주서
 62
     0
370
    -2
100
AcDbLine
 10
48.05000000000006
 20
6.478074928723963
 30
0.0
 11
48.05000000000005
 21
9.780074928723963
 31
0.0
  0
LINE
  5
269
330
261
100
AcDbEntity
  8
치수문자_일반주서
 62
     0
370
    -2
100
AcDbLine
 10
48.05000000000011
 20
-6.475925071276031
 30
0.0
 11
48.05000000000013
 21
-9.77792507127603
 31
0.0
  0
SOLID
  5
26A
330
261
100
AcDbEntity
  8
치수문자_일반주서
 62
     0
100
AcDbTrace
 10
47.49966666666673
 20
6.478074928723961
 30
0.0
 11
48.6003333333334
 21
6.478074928723965
 31
0.0
 12
48.05000000000008
 22
3.176074928723963
 32
0.0
 13
48.05000000000008
 23
3.176074928723963
 33
0.0
  0
SOLID
  5
26B
330
261
100
AcDbEntity
  8
치수문자_일반주서
 62
     0
100
AcDbTrace
 10
48.60033333333345
 20
-6.475925071276029
 30
0.0
 11
47.49966666666678
 21
-6.475925071276032
 31
0.0
 12
48.0500000000001
 22
-3.173925071276031
 32
0.0
 13
48.0500000000001
 23
-3.173925071276031
 33
0.0
  0
MTEXT
  5
26C
330
261
100
AcDbEntity
  8
치수문자_일반주서
 62
     0
100
AcDbMText
 10
43.67500000000001
 20
23.123824928724
 30
0.0
 40
3.5
 41
0.0
 71
     2
 72
     1
  1
\A1;%%c6.35 [1/4]
  7
SLDTEXTSTYLE0
 11
-3.356894814614650E-15
 21
1.0
 31
0.0
 73
     1
 44
1.0
  0
POINT
  5
26D
330
261
100
AcDbEntity
  8
Defpoints
 62
     0
100
AcDbPoint
 10
29.05000000000001
 20
3.176074928723892
 30
0.0
  0
POINT
  5
26E
330
261
100
AcDbEntity
  8
Defpoints
 62
     0
100
AcDbPoint
 10
29.05000000000001
 20
-3.173925071276102
 30
0.0
  0
POINT
  5
26F
330
261
100
AcDbEntity
  8
Defpoints
 62
     0
100
AcDbPoint
 10
48.05000000000013
 20
-3.173925071276031
 30
0.0
  0
ENDBLK
  5
263
330
261
100
AcDbEntity
  8
0
100
AcDbBlockEnd
  0
BLOCK
  5
271
330
270
100
AcDbEntity
  8
0
100
AcDbBlockBegin
  2
*D15
 70
     1
 10
0.0
 20
0.0
 30
0.0
  3
*D15
  1
*D15
  0
LINE
  5
273
330
270
100
AcDbEntity
  8
치수문자_일반주서
 62
     0
370
    -2
100
AcDbLine
 10
29.05000000000001
 20
3.238574928723892
 30
0.0
 11
29.05000000000001
 21
13.19630048907219
 31
0.0
  0
LINE
  5
274
330
270
100
AcDbEntity
  8
치수문자_일반주서
 62
     0
370
    -2
100
AcDbLine
 10
10.0
 20
2.191780892935249
 30
0.0
 11
10.0
 21
13.19630048907219
 31
0.0
  0
LINE
  5
275
330
270
100
AcDbEntity
  8
치수문자_일반주서
 62
     0
370
    -2
100
AcDbLine
 10
25.74800000000001
 20
13.19630048907219
 30
0.0
 11
13.302
 21
13.19630048907219
 31
0.0
  0
SOLID
  5
276
330
270
100
AcDbEntity
  8
치수문자_일반주서
 62
     0
100
AcDbTrace
 10
25.74800000000001
 20
12.64596715573885
 30
0.0
 11
25.74800000000001
 21
13.74663382240552
 31
0.0
 12
29.05000000000001
 22
13.19630048907219
 32
0.0
 13
29.05000000000001
 23
13.19630048907219
 33
0.0
  0
SOLID
  5
277
330
270
100
AcDbEntity
  8
치수문자_일반주서
 62
     0
100
AcDbTrace
 10
13.302
 20
13.74663382240552
 30
0.0
 11
13.302
 21
12.64596715573885
 31
0.0
 12
10.0
 22
13.19630048907219
 32
0.0
 13
10.0
 23
13.19630048907219
 33
0.0
  0
MTEXT
  5
278
330
270
100
AcDbEntity
  8
치수문자_일반주서
 62
     0
100
AcDbMText
 10
19.56505526029949
 20
17.57130048907219
 30
0.0
 40
3.5
 41
0.0
 71
     2
 72
     1
  1
\A1;19.05 [3/4]
  7
SLDTEXTSTYLE0
 73
     1
 44
1.0
  0
POINT
  5
279
330
270
100
AcDbEntity
  8
Defpoints
 62
     0
100
AcDbPoint
 10
29.05000000000001
 20
3.176074928723892
 30
0.0
  0
POINT
  5
27A
330
270
100
AcDbEntity
  8
Defpoints
 62
     0
100
AcDbPoint
 10
10.0
 20
2.129280892935249
 30
0.0
  0
POINT
  5
27B
330
270
100
AcDbEntity
  8
Defpoints
 62
     0
100
AcDbPoint
 10
10.0
 20
13.19630048907219
 30
0.0
  0
ENDBLK
  5
272
330
270
100
AcDbEntity
  8
0
100
AcDbBlockEnd
  0
BLOCK
  5
27D
330
27C
100
AcDbEntity
  8
0
100
AcDbBlockBegin
  2
*D16
 70
     1
 10
0.0
 20
0.0
 30
0.0
  3
*D16
  1
*D16
  0
LINE
  5
27F
330
27C
100
AcDbEntity
  8
치수문자_일반주서
 62
     0
370
    -2
100
AcDbLine
 10
29.05000000000001
 20
3.238574928723892
 30
0.0
 11
29.05000000000001
 21
25.19630048907212
 31
0.0
  0
LINE
  5
280
330
27C
100
AcDbEntity
  8
치수문자_일반주서
 62
     0
370
    -2
100
AcDbLine
 10
-47.15000000000001
 20
2.428574928723883
 30
0.0
 11
-47.15000000000001
 21
25.19630048907212
 31
0.0
  0
LINE
  5
281
330
27C
100
AcDbEntity
  8
치수문자_일반주서
 62
     0
370
    -2
100
AcDbLine
 10
25.74800000000001
 20
25.19630048907212
 30
0.0
 11
-43.84800000000001
 21
25.19630048907212
 31
0.0
  0
SOLID
  5
282
330
27C
100
AcDbEntity
  8
치수문자_일반주서
 62
     0
100
AcDbTrace
 10
25.74800000000001
 20
24.64596715573879
 30
0.0
 11
25.74800000000001
 21
25.74663382240546
 31
0.0
 12
29.05000000000001
 22
25.19630048907212
 32
0.0
 13
29.05000000000001
 23
25.19630048907212
 33
0.0
  0
SOLID
  5
283
330
27C
100
AcDbEntity
  8
치수문자_일반주서
 62
     0
100
AcDbTrace
 10
-43.84800000000001
 20
25.74663382240546
 30
0.0
 11
-43.84800000000001
 21
24.64596715573879
 31
0.0
 12
-47.15000000000001
 22
25.19630048907212
 32
0.0
 13
-47.15000000000001
 23
25.19630048907212
 33
0.0
  0
MTEXT
  5
284
330
27C
100
AcDbEntity
  8
치수문자_일반주서
 62
     0
100
AcDbMText
 10
-9.39288896289733
 20
29.57130048907212
 30
0.0
 40
3.5
 41
0.0
 71
     2
 72
     1
  1
\A1;76.2 [3]
  7
SLDTEXTSTYLE0
 73
     1
 44
1.0
  0
POINT
  5
285
330
27C
100
AcDbEntity
  8
Defpoints
 62
     0
100
AcDbPoint
 10
29.05000000000001
 20
3.176074928723892
 30
0.0
  0
POINT
  5
286
330
27C
100
AcDbEntity
  8
Defpoints
 62
     0
100
AcDbPoint
 10
-47.15000000000001
 20
2.366074928723883
 30
0.0
  0
POINT
  5
287
330
27C
100
AcDbEntity
  8
Defpoints
 62
     0
100
AcDbPoint
 10
-47.15000000000001
 20
25.19630048907212
 30
0.0
  0
ENDBLK
  5
27E
330
27C
100
AcDbEntity
  8
0
100
AcDbBlockEnd
  0
BLOCK
  5
289
330
288
100
AcDbEntity
  8
0
100
AcDbBlockBegin
  2
*D17
 70
     1
 10
0.0
 20
0.0
 30
0.0
  3
*D17
  1
*D17
  0
LINE
  5
28B
330
288
100
AcDbEntity
  8
치수문자_일반주서
 62
     0
370
    -2
100
AcDbLine
 10
168.1270661101174
 20
-10.48582918531251
 30
0.0
 11
183.2025938643631
 21
-37.41807423062888
 31
0.0
  0
MTEXT
  5
28C
330
288
100
AcDbEntity
  8
치수문자_일반주서
 62
     0
100
AcDbMText
 10
178.7618132387498
 20
-24.11044694408087
 30
0.0
 40
3.5
 41
0.0
 71
     5
 72
     1
  1
\A1;R.51 [R0.020]
  7
SLDTEXTSTYLE0
 11
0.4884423125028976
 21
-0.8725961880256077
 31
0.0
 73
     1
 44
1.0
  0
LINE
  5
28D
330
288
100
AcDbEntity
  8
치수문자_일반주서
 62
     0
370
    -2
100
AcDbLine
 10
166.2661008994814
 20
-7.161237708934948
 30
0.0
 11
166.5142295942329
 21
-7.604516572451956
 31
0.0
  0
SOLID
  5
28E
330
288
100
AcDbEntity
  8
치수문자_일반주서
 62
     0
100
AcDbTrace
 10
168.6072848789275
 20
-10.21702309933175
 30
0.0
 11
167.6468473413073
 21
-10.75463527129327
 31
0.0
 12
166.5142295942329
 22
-7.604516572451956
 32
0.0
 13
166.5142295942329
 23
-7.604516572451956
 33
0.0
  0
POINT
  5
28F
330
288
100
AcDbEntity
  8
Defpoints
 62
     0
100
AcDbPoint
 10
166.5142295942329
 20
-7.604516572451956
 30
0.0
  0
POINT
  5
290
330
288
100
AcDbEntity
  8
Defpoints
 62
     0
100
AcDbPoint
 10
166.2661008994814
 20
-7.161237708934948
 30
0.0
  0
ENDBLK
  5
28A
330
288
100
AcDbEntity
  8
0
100
AcDbBlockEnd
  0
BLOCK
  5
29C
330
29B
100
AcDbEntity
  8
0
100
AcDbBlockBegin
  2
*D18
 70
     1
 10
0.0
 20
0.0
 30
0.0
  3
*D18
  1
*D18
  0
LINE
  5
29E
330
29B
100
AcDbEntity
  8
치수문자_일반주서
 62
     0
370
    -2
100
AcDbLine
 10
30.37481259915225
 20
-5.899231937042202
 30
0.0
 11
46.67264441283158
 21
-33.13480680564048
 31
0.0
  0
MTEXT
  5
29F
330
29B
100
AcDbEntity
  8
치수문자_일반주서
 62
     0
100
AcDbMText
 10
41.62400117425874
 20
-19.58583348615561
 30
0.0
 40
3.5
 41
0.0
 71
     5
 72
     1
  1
\A1;R.76 [R0.030]
  7
SLDTEXTSTYLE0
 11
0.5134873521536044
 21
-0.8580971618518968
 31
0.0
 73
     1
 44
1.0
  0
LINE
  5
2A0
330
29B
100
AcDbEntity
  8
치수문자_일반주서
 62
     0
370
    -2
100
AcDbLine
 10
28.28800000000001
 20
-2.411925071276101
 30
0.0
 11
28.67927736234105
 21
-3.06579510860724
 31
0.0
  0
SOLID
  5
2A1
330
29B
100
AcDbEntity
  8
치수문자_일반주서
 62
     0
100
AcDbTrace
 10
30.84705207055809
 20
-5.616642730907002
 30
0.0
 11
29.90257312774643
 21
-6.181821143177403
 31
0.0
 12
28.67927736234105
 22
-3.06579510860724
 32
0.0
 13
28.67927736234105
 23
-3.06579510860724
 33
0.0
  0
POINT
  5
2A2
330
29B
100
AcDbEntity
  8
Defpoints
 62
     0
100
AcDbPoint
 10
28.67927736234105
 20
-3.06579510860724
 30
0.0
  0
POINT
  5
2A3
330
29B
100
AcDbEntity
  8
Defpoints
 62
     0
100
AcDbPoint
 10
28.28800000000001
 20
-2.411925071276101
 30
0.0
  0
ENDBLK
  5
29D
330
29B
100
AcDbEntity
  8
0
100
AcDbBlockEnd
  0
ENDSEC
  0
SECTION
  2
ENTITIES
  0
LINE
  5
CF
330
1F
100
AcDbEntity
  8
참조1
100
AcDbLine
 10
-9.049999999999995
 20
0.0010749287238892
 30
0.0
 11
-9.04999999999999
 21
-39.99892507127611
 31
0.0
  0
LINE
  5
D0
330
1F
100
AcDbEntity
  8
참조1
100
AcDbLine
 10
-9.04999999999999
 20
-39.99892507127611
 30
0.0
 11
-14.66672777521594
 21
-39.9989250712761
 31
0.0
  0
INSERT
  5
D2
330
1F
100
AcDbEntity
  8
0
  6
Continuous
 62
     7
100
AcDbBlockReference
 66
     1
  2
블럭10
 10
-22.9902729321252
 20
-52.04609937292004
 30
0.0
  0
ATTRIB
  5
D3
330
D2
100
AcDbEntity
  8
FORMAT
 62
     2
100
AcDbText
 10
-33.13190894426183
 20
-49.97073246008785
 30
0.0
 40
4.233333333333333
  1
EM637906 [ 2 FLUTE ]
 41
0.75
  7
SLDTEXTSTYLE0
 11
-33.13190894426183
 21
-52.08739912675452
 31
0.0
100
AcDbAttribute
  2
AUTOATTR0
 70
     0
 74
     1
  0
SEQEND
  5
D4
330
D2
100
AcDbEntity
  8
0
  6
Continuous
 62
     7
  0
HATCH
  5
D5
330
1F
100
AcDbEntity
  8
중심선
100
AcDbHatch
 10
0.0
 20
0.0
 30
0.0
210
0.0
220
0.0
230
1.0
  2
SOLID
 70
     1
 71
     0
 91
        1
 92
        0
 93
        4
 72
     1
 10
-17.27536362774434
 20
-35.7989250712761
 11
-20.72163887158163
 21
-35.7989250712761
 72
     1
 10
-20.72163887158163
 20
-35.7989250712761
 11
-22.84986873078565
 21
-38.3352506518487
 72
     1
 10
-22.84986873078565
 20
-38.3352506518487
 11
-19.40356040183522
 21
-38.33521122254621
 72
     1
 10
-19.40356040183522
 20
-38.33521122254621
 11
-17.27536362774434
 21
-35.7989250712761
 97
        0
 75
     0
 76
     1
 98
        1
 10
0.0
 20
0.0
  0
HATCH
  5
D6
330
1F
100
AcDbEntity
  8
중심선
100
AcDbHatch
 10
0.0
 20
0.0
 30
0.0
210
0.0
220
0.0
230
1.0
  2
SOLID
 70
     1
 71
     0
 91
        1
 92
        0
 93
        4
 72
     1
 10
-12.26259963670839
 20
-35.7989250712761
 11
-15.70887488054568
 21
-35.79892507127613
 72
     1
 10
-15.70887488054568
 20
-35.79892507127613
 11
-20.24001288890306
 21
-41.19892507127612
 72
     1
 10
-20.24001288890306
 20
-41.19892507127612
 11
-16.79373764506578
 21
-41.19892507127612
 72
     1
 10
-16.79373764506578
 20
-41.19892507127612
 11
-12.26259963670839
 21
-35.7989250712761
 97
        0
 75
     0
 76
     1
 98
        1
 10
0.0
 20
0.0
  0
HATCH
  5
D7
330
1F
100
AcDbEntity
  8
중심선
100
AcDbHatch
 10
0.0
 20
0.0
 30
0.0
210
0.0
220
0.0
230
1.0
  2
SOLID
 70
     1
 71
     0
 91
        1
 92
        0
 93
        4
 72
     1
 10
-7.249835645672498
 20
-35.7989250712761
 11
-10.69611088950961
 21
-35.79892507127613
 72
     1
 10
-10.69611088950961
 20
-35.79892507127613
 11
-17.74454779139886
 21
-44.19892507127612
 72
     1
 10
-17.74454779139886
 20
-44.19892507127612
 11
-14.29827254756158
 21
-44.19892507127612
 72
     1
 10
-14.29827254756158
 20
-44.19892507127612
 11
-7.249835645672498
 21
-35.7989250712761
 97
        0
 75
     0
 76
     1
 98
        1
 10
0.0
 20
0.0
  0
HATCH
  5
D8
330
1F
100
AcDbEntity
  8
중심선
100
AcDbHatch
 10
0.0
 20
0.0
 30
0.0
210
0.0
220
0.0
230
1.0
  2
SOLID
 70
     1
 71
     0
 91
        1
 92
        0
 93
        6
 72
     3
 10
-2.449945214660298
 20
-39.99892507132738
 11
3.960054785062284
 21
1.540850780301639E-10
 40
0.3939339440162633
 50
17.09539180608433
 51
320.0019657685081
 73
     0
 72
     1
 10
-0.7669455589597307
 20
-38.58681907591443
 11
1.538356314741307
 21
-36.65249236586651
 72
     3
 10
-2.449945214713145
 20
-39.99892507127625
 11
6.600054785286829
 21
-1.249000902703301E-13
 40
0.6363583540795982
 50
39.99873849337403
 51
368.4976242363725
 73
     1
 72
     1
 10
3.975387277187465
 20
-39.03892507120613
 11
-3.769877907877222
 21
-39.03892507120613
 72
     1
 10
-3.769877907877222
 20
-39.03892507120613
 11
-3.769902952323156
 21
-40.95892507120602
 72
     1
 10
-3.769902952323156
 20
-40.95892507120602
 11
0.6714768171488803
 21
-40.95892507120599
 97
        0
 75
     0
 76
     1
 98
        1
 10
0.0
 20
0.0
  0
LINE
  5
12B
330
1F
100
AcDbEntity
  8
참조1
100
AcDbLine
 10
83.30561285443832
 20
7.441074928723896
 30
0.0
 11
83.30561285443832
 21
-7.438925071276109
 31
0.0
  0
LINE
  5
12C
330
1F
100
AcDbEntity
  8
참조1
100
AcDbLine
 10
96.00561285443833
 20
5.441074928723896
 30
0.0
 11
83.30561285443832
 21
5.441074928723896
 31
0.0
  0
SOLID
  5
12D
330
1F
100
AcDbEntity
  8
참조1
100
AcDbTrace
 10
83.30561285443832
 20
5.441074928723896
 30
0.0
 11
89.65561285443832
 21
4.425074928723896
 31
0.0
 12
89.65561285443832
 22
6.457074928723896
 32
0.0
 13
89.65561285443832
 23
6.457074928723896
 33
0.0
  0
LINE
  5
12E
330
1F
100
AcDbEntity
  8
참조1
100
AcDbLine
 10
96.00561285443833
 20
-5.438925071276109
 30
0.0
 11
83.30561285443832
 21
-5.438925071276109
 31
0.0
  0
SOLID
  5
12F
330
1F
100
AcDbEntity
  8
참조1
100
AcDbTrace
 10
83.30561285443832
 20
-5.438925071276109
 30
0.0
 11
89.65561285443832
 21
-6.454925071276109
 31
0.0
 12
89.65561285443832
 22
-4.422925071276109
 32
0.0
 13
89.65561285443832
 23
-4.422925071276109
 33
0.0
  0
MTEXT
  5
130
330
1F
100
AcDbEntity
  8
참조1
100
AcDbMText
 10
92.7031029469086
 20
10.98929157337383
 30
0.0
 40
3.5
 41
0.0
 71
     1
 72
     1
  1
A
  7
SLDTEXTSTYLE0
 73
     1
 44
1.0
  0
MTEXT
  5
131
330
1F
100
AcDbEntity
  8
참조1
100
AcDbMText
 10
92.7031029469086
 20
0.1092915733738251
 30
0.0
 40
3.5
 41
0.0
 71
     1
 72
     1
  1
A
  7
SLDTEXTSTYLE0
 73
     1
 44
1.0
  0
LINE
  5
212
330
1F
100
AcDbEntity
  8
외형선
  6
Continuous
370
    15
100
AcDbLine
 10
8.480100424458499
 20
3.176074928723892
 30
0.0
 11
-46.34
 21
3.176074928723892
 31
0.0
  0
LINE
  5
213
330
1F
100
AcDbEntity
  8
외형선
  6
Continuous
370
    15
100
AcDbLine
 10
-46.34
 20
-3.173925071276109
 30
0.0
 11
8.480100424458499
 21
-3.173925071276106
 31
0.0
  0
LINE
  5
214
330
1F
100
AcDbEntity
  8
외형선
  6
Continuous
370
    15
100
AcDbLine
 10
-46.34
 20
3.176074928723885
 30
0.0
 11
-47.15000000000001
 21
2.366074928723883
 31
0.0
  0
LINE
  5
215
330
1F
100
AcDbEntity
  8
외형선
  6
Continuous
370
    15
100
AcDbLine
 10
-47.15000000000001
 20
-2.363925071276107
 30
0.0
 11
-46.34
 21
-3.173925071276106
 31
0.0
  0
SPLINE
  5
216
330
1F
100
AcDbEntity
  8
외형선
  6
Continuous
370
    15
100
AcDbSpline
210
0.0
220
0.0
230
1.0
 70
     8
 71
     3
 72
     9
 73
     5
 74
     0
 42
0.000000001
 43
0.00000001
 40
0.0
 40
0.0
 40
0.0
 40
0.0
 40
0.4408313065475992
 40
1.0
 40
1.0
 40
1.0
 40
1.0
 10
10.0
 20
2.129233810523125
 30
0.0
 10
9.778016155277953
 20
2.117641782730054
 30
0.0
 10
9.274458804824462
 20
2.091345946611106
 30
0.0
 10
8.764999478849859
 20
2.091502927290989
 30
0.0
 10
8.48012577317752
 20
2.091590705972656
 30
0.0
  0
SPLINE
  5
217
330
1F
100
AcDbEntity
  8
0
  6
Continuous
 62
     1
370
    15
100
AcDbSpline
210
0.0
220
0.0
230
1.0
 70
     8
 71
     3
 72
     9
 73
     5
 74
     0
 42
0.000000001
 43
0.00000001
 40
0.0
 40
0.0
 40
0.0
 40
0.0
 40
0.5191813500238739
 40
1.0
 40
1.0
 40
1.0
 40
1.0
 10
20.82353759370906
 20
0.8146768563053186
 30
0.0
 10
20.67165004191784
 20
0.8873132458274355
 30
0.0
 10
20.37909802366022
 20
1.027218867473451
 30
0.0
 10
20.08550106937489
 20
1.181143107002846
 30
0.0
 10
19.94433417817831
 20
1.25515275205197
 30
0.0
  0
LINE
  5
218
330
1F
100
AcDbEntity
  8
0
  6
Continuous
 62
     1
370
    15
100
AcDbLine
 10
13.53769652914545
 20
3.176074928723892
 30
0.0
 11
11.99989099099429
 21
3.176074928723892
 31
0.0
  0
SPLINE
  5
219
330
1F
100
AcDbEntity
  8
0
  6
Continuous
 62
     1
370
    15
100
AcDbSpline
210
0.0
220
0.0
230
1.0
 70
     8
 71
     3
 72
    14
 73
    10
 74
     0
 42
0.000000001
 43
0.00000001
 40
0.0
 40
0.0
 40
0.0
 40
0.0
 40
0.2121054549815466
 40
0.368477523579084
 40
0.4714312140750038
 40
0.5551589030177835
 40
0.6399147955060527
 40
0.9756511894474403
 40
1.0
 40
1.0
 40
1.0
 40
1.0
 10
19.77515947357131
 20
2.524061523922505
 30
0.0
 10
19.59224996898325
 20
2.515229281837598
 30
0.0
 10
19.27449274159108
 20
2.499885580793325
 30
0.0
 10
18.86907703505506
 20
2.488431687857947
 30
0.0
 10
18.5738704259735
 20
2.483143530280735
 30
0.0
 10
18.34014055848314
 20
2.480858092613381
 30
0.0
 10
17.90599439444185
 20
2.479967415221509
 30
0.0
 10
17.52319890690262
 20
2.484228120977953
 30
0.0
 10
17.21317794701619
 20
2.495748214979365
 30
0.0
 10
17.19221445969322
 20
2.496527198905632
 30
0.0
  0
SPLINE
  5
21A
330
1F
100
AcDbEntity
  8
0
  6
Continuous
 62
     1
370
    15
100
AcDbSpline
210
0.0
220
0.0
230
1.0
 70
     8
 71
     3
 72
    19
 73
    15
 74
     0
 42
0.000000001
 43
0.00000001
 40
0.0
 40
0.0
 40
0.0
 40
0.0
 40
0.1072304010358514
 40
0.1883420735989531
 40
0.2508087969244169
 40
0.3162264988848001
 40
0.3842794103856985
 40
0.4523113919962501
 40
0.5536549353741295
 40
0.6519969825072135
 40
0.6979681108628003
 40
0.764970005850209
 40
0.8652879225194798
 40
1.0
 40
1.0
 40
1.0
 40
1.0
 10
14.99855974223243
 20
-2.640978623914265
 30
0.0
 10
15.16985863911918
 20
-2.624567125288294
 30
0.0
 10
15.47073217062893
 20
-2.595741571599952
 30
0.0
 10
15.87015715179228
 20
-2.564351736664367
 30
0.0
 10
16.20130888324815
 20
-2.541327449716405
 30
0.0
 10
16.51303645652484
 20
-2.522825034220656
 30
0.0
 10
16.8339910129252
 20
-2.507079785615606
 30
0.0
 10
17.2121072010419
 20
-2.492509859268385
 30
0.0
 10
17.63815848286765
 20
-2.481662041128367
 30
0.0
 10
18.02930332727237
 20
-2.478023497321594
 30
0.0
 10
18.36586457711485
 20
-2.478739102164219
 30
0.0
 10
18.70519691472478
 20
-2.482586592558114
 30
0.0
 10
19.18546032231183
 20
-2.493927907232752
 30
0.0
 10
19.56030808431939
 20
-2.511716044627903
 30
0.0
 10
19.77515947357131
 20
-2.521911666474715
 30
0.0
  0
SPLINE
  5
21B
330
1F
100
AcDbEntity
  8
0
  6
Continuous
 62
     1
370
    15
100
AcDbSpline
210
0.0
220
0.0
230
1.0
 70
     8
 71
     3
 72
    14
 73
    10
 74
     0
 42
0.000000001
 43
0.00000001
 40
0.0
 40
0.0
 40
0.0
 40
0.0
 40
0.2554232719977786
 40
0.444685201099861
 40
0.5693654443187482
 40
0.6640163026104864
 40
0.7601049307270059
 40
0.9542703829059952
 40
1.0
 40
1.0
 40
1.0
 40
1.0
 10
22.32284374392725
 20
-2.386992363240978
 30
0.0
 10
22.52615464205039
 20
-2.356384568381525
 30
0.0
 10
22.88011357034435
 20
-2.303097202254538
 30
0.0
 10
23.33155317673413
 20
-2.246752492312719
 30
0.0
 10
23.65555208431886
 20
-2.211065344856209
 30
0.0
 10
23.90604355215447
 20
-2.186329137530304
 30
0.0
 10
24.21165037314822
 20
-2.159509866140908
 30
0.0
 10
24.47837896426148
 20
-2.138181154530582
 30
0.0
 10
24.66877295180905
 20
-2.128560348335657
 30
0.0
 10
24.70506650371044
 20
-2.126726397413854
 30
0.0
  0
SPLINE
  5
21C
330
1F
100
AcDbEntity
  8
0
  6
Continuous
 62
     1
370
    15
100
AcDbSpline
210
0.0
220
0.0
230
1.0
 70
     8
 71
     3
 72
     9
 73
     5
 74
     0
 42
0.000000001
 43
0.00000001
 40
0.0
 40
0.0
 40
0.0
 40
0.0
 40
0.4989859518817258
 40
1.0
 40
1.0
 40
1.0
 40
1.0
 10
10.59299194352451
 20
2.17262465475482
 30
0.0
 10
10.49420469343008
 20
2.164415664550475
 30
0.0
 10
10.29622867883103
 20
2.147964319230262
 30
0.0
 10
10.0988763094762
 20
2.135485749339047
 30
0.0
 10
10.0
 20
2.129233810523125
 30
0.0
  0
SPLINE
  5
21D
330
1F
100
AcDbEntity
  8
0
  6
Continuous
 62
     1
370
    15
100
AcDbSpline
210
0.0
220
0.0
230
1.0
 70
     8
 71
     3
 72
    19
 73
    15
 74
     0
 42
0.000000001
 43
0.00000001
 40
0.0
 40
0.0
 40
0.0
 40
0.0
 40
0.1022900561310608
 40
0.1790238180820663
 40
0.2300332527660439
 40
0.2737119993595496
 40
0.318798283602026
 40
0.5008761633784334
 40
0.6134879335680435
 40
0.7177671846681472
 40
0.7576610475194667
 40
0.8114527163169526
 40
0.8920214300322394
 40
1.0
 40
1.0
 40
1.0
 40
1.0
 10
27.86942854322604
 20
2.172624452892251
 30
0.0
 10
27.67901689523538
 20
2.157521728008788
 30
0.0
 10
27.34576631820067
 20
2.13108956466521
 30
0.0
 10
26.91914374353468
 20
2.109952982191786
 30
0.0
 10
26.60461449685135
 20
2.098995685569733
 30
0.0
 10
26.34848094295262
 20
2.093163677646146
 30
0.0
 10
25.84896827611777
 20
2.087375667008118
 30
0.0
 10
25.21949003488058
 20
2.098484838315066
 30
0.0
 10
24.48255523996025
 20
2.139456433653244
 30
0.0
 10
24.00773196259627
 20
2.178378818035469
 30
0.0
 10
23.6416560382788
 20
2.214658836862633
 30
0.0
 10
23.31992959417664
 20
2.250304497283089
 30
0.0
 10
22.87245603098393
 20
2.306342530423457
 30
0.0
 10
22.52298261230052
 20
2.358991081964952
 30
0.0
 10
22.32284374392725
 20
2.389142220688761
 30
0.0
  0
LINE
  5
21E
330
1F
100
AcDbEntity
  8
0
  6
Continuous
 62
     1
370
    15
100
AcDbLine
 10
11.99989099099429
 20
-3.173925071276109
 30
0.0
 11
13.53769652914548
 21
-3.173925071276109
 31
0.0
  0
SPLINE
  5
21F
330
1F
100
AcDbEntity
  8
외형선
  6
Continuous
370
    15
100
AcDbSpline
210
0.0
220
0.0
230
1.0
 70
     8
 71
     3
 72
    10
 73
     6
 74
     0
 42
0.000000001
 43
0.00000001
 40
0.0
 40
0.0
 40
0.0
 40
0.0
 40
0.5
 40
0.5
 40
1.0
 40
1.0
 40
1.0
 40
1.0
 10
9.999999999997272
 20
2.968310766218131
 30
0.0
 10
9.746547830354757
 20
2.916267375563514
 30
0.0
 10
9.491250021081612
 20
2.854606731973277
 30
0.0
 10
8.984252474899137
 20
2.713808140933082
 30
0.0
 10
8.733900838972318
 20
2.634875119058727
 30
0.0
 10
8.480100424458556
 20
2.547465998731425
 30
0.0
  0
SPLINE
  5
220
330
1F
100
AcDbEntity
  8
외형선
  6
Continuous
370
    15
100
AcDbSpline
210
0.0
220
0.0
230
1.0
 70
     8
 71
     3
 72
    10
 73
     6
 74
     0
 42
0.000000001
 43
0.00000001
 40
0.0
 40
0.0
 40
0.0
 40
0.0
 40
0.5000000000000001
 40
0.5000000000000001
 40
1.0
 40
1.0
 40
1.0
 40
1.0
 10
9.999999999997272
 20
-2.538761410531531
 30
0.0
 10
9.746565344827616
 20
-2.450994314568444
 30
0.0
 10
9.491285304723874
 20
-2.35489220049628
 30
0.0
 10
8.984322297468424
 20
-2.148758691031631
 30
0.0
 10
8.733988127614737
 20
-2.038975391812954
 30
0.0
 10
8.480205655601992
 20
-1.92256167089409
 30
0.0
  0
LINE
  5
221
330
1F
100
AcDbEntity
  8
외형선
  6
Continuous
370
    15
100
AcDbLine
 10
10.0
 20
-2.538761410532473
 30
0.0
 11
10.0
 21
-2.96616090877091
 31
0.0
  0
SPLINE
  5
222
330
1F
100
AcDbEntity
  8
외형선
  6
Continuous
370
    15
100
AcDbSpline
210
0.0
220
0.0
230
1.0
 70
     8
 71
     3
 72
    10
 73
     6
 74
     0
 42
0.000000001
 43
0.00000001
 40
0.0
 40
0.0
 40
0.0
 40
0.0
 40
0.5
 40
0.5
 40
1.0
 40
1.0
 40
1.0
 40
1.0
 10
9.999999999997272
 20
-2.966160908770348
 30
0.0
 10
9.746547830354757
 20
-2.914117518115727
 30
0.0
 10
9.491250021081612
 20
-2.85245687452549
 30
0.0
 10
8.984252474899137
 20
-2.711658283485292
 30
0.0
 10
8.733900838972318
 20
-2.632725261610943
 30
0.0
 10
8.480100424458556
 20
-2.545316141283639
 30
0.0
  0
LINE
  5
223
330
1F
100
AcDbEntity
  8
외형선
  6
Continuous
370
    15
100
AcDbLine
 10
8.480100424458499
 20
-3.173925071276106
 30
0.0
 11
8.480100424458556
 21
-2.545319028091573
 31
0.0
  0
LINE
  5
224
330
1F
100
AcDbEntity
  8
외형선
  6
Continuous
370
    15
100
AcDbLine
 10
-46.34
 20
3.176074928723885
 30
0.0
 11
-46.34
 21
-3.173925071276109
 31
0.0
  0
LINE
  5
225
330
1F
100
AcDbEntity
  8
외형선
  6
Continuous
370
    15
100
AcDbLine
 10
8.480100424458527
 20
-1.922453415510944
 30
0.0
 11
8.480100424458499
 21
3.176074928723892
 31
0.0
  0
LINE
  5
226
330
1F
100
AcDbEntity
  8
외형선
  6
Continuous
370
    15
100
AcDbLine
 10
-47.15000000000001
 20
2.366074928723883
 30
0.0
 11
-47.15000000000001
 21
-2.363925071276107
 31
0.0
  0
SPLINE
  5
227
330
1F
100
AcDbEntity
  8
외형선
  6
Continuous
370
    15
100
AcDbSpline
210
0.0
220
0.0
230
1.0
 70
     8
 71
     3
 72
    10
 73
     6
 74
     0
 42
0.000000001
 43
0.00000001
 40
0.0
 40
0.0
 40
0.0
 40
0.0
 40
0.5
 40
0.5
 40
1.0
 40
1.0
 40
1.0
 40
1.0
 10
9.999999999994486
 20
-2.056254618107314
 30
0.0
 10
9.746565344825285
 20
-1.975794073967364
 30
0.0
 10
9.491285304721998
 20
-1.888559385501456
 30
0.0
 10
8.984322297467486
 20
-1.703029874086095
 30
0.0
 10
8.733988127614282
 20
-1.604951758467649
 30
0.0
 10
8.480205655601992
 20
-1.501638038258395
 30
0.0
  0
SPLINE
  5
228
330
1F
100
AcDbEntity
  8
외형선
  6
Continuous
370
    15
100
AcDbSpline
210
0.0
220
0.0
230
1.0
 70
     8
 71
     3
 72
    10
 73
     6
 74
     0
 42
0.000000001
 43
0.00000001
 40
0.0
 40
0.0
 40
0.0
 40
0.0
 40
0.5
 40
0.5
 40
1.0
 40
1.0
 40
1.0
 40
1.0
 10
9.999999999993179
 20
0.8064652286696514
 30
0.0
 10
9.746554225164687
 20
0.9174415551848512
 30
0.0
 10
9.49126290370134
 20
1.026109149323403
 30
0.0
 10
8.984277968217327
 20
1.235723179836981
 30
0.0
 10
8.733932709475937
 20
1.33651506565743
 30
0.0
 10
8.480138846046515
 20
1.433200568860862
 30
0.0
  0
SPLINE
  5
229
330
1F
100
AcDbEntity
  8
외형선
  6
Continuous
370
    15
100
AcDbSpline
210
0.0
220
0.0
230
1.0
 70
    24
 71
     3
 72
    10
 73
     6
 74
     0
 42
0.000000001
 43
0.00000001
 40
0.0
 40
0.0
 40
0.0
 40
0.0
 40
0.5
 40
0.5
 40
1.0
 40
1.0
 40
1.0
 40
1.0
 10
10.0
 20
0.8064652286666742
 30
0.0
 10
10.0
 20
0.3271783855099031
 30
0.0
 10
10.0
 20
-0.1976056387373504
 30
0.0
 10
10.0
 20
-1.198268080220348
 30
0.0
 10
10.0
 20
-1.669839255121552
 30
0.0
 10
10.0
 20
-2.056254618109065
 30
0.0
  0
SPLINE
  5
22A
330
1F
100
AcDbEntity
  8
외형선
  6
Continuous
370
    15
100
AcDbSpline
210
0.0
220
0.0
230
1.0
 70
    24
 71
     3
 72
     8
 73
     4
 74
     0
 42
0.000000001
 43
0.00000001
 40
0.0
 40
0.0
 40
0.0
 40
0.0
 40
1.0
 40
1.0
 40
1.0
 40
1.0
 10
10.00000000000006
 20
-2.05625461810909
 30
0.0
 10
10.00000000000006
 20
-2.212000964643593
 30
0.0
 10
10.00000000000006
 20
-2.373847674805152
 30
0.0
 10
10.00000000000006
 20
-2.53876141052017
 30
0.0
  0
SPLINE
  5
22B
330
1F
100
AcDbEntity
  8
외형선
  6
Continuous
370
    15
100
AcDbSpline
210
0.0
220
0.0
230
1.0
 70
    24
 71
     3
 72
    13
 73
     9
 74
     0
 42
0.000000001
 43
0.00000001
 40
0.0
 40
0.0
 40
0.0
 40
0.0
 40
0.059085275215806
 40
0.250211234388014
 40
0.4359507354466344
 40
0.6270766946188421
 40
0.8135383473094211
 40
1.0
 40
1.0
 40
1.0
 40
1.0
 10
10.0
 20
2.118768398166459
 30
0.0
 10
10.0
 20
2.121379217026451
 30
0.0
 10
10.0
 20
2.132435376235946
 30
0.0
 10
10.0
 20
2.050972728780508
 30
0.0
 10
10.0
 20
1.874151483035121
 30
0.0
 10
10.0
 20
1.599190552735216
 30
0.0
 10
10.0
 20
1.245478693017191
 30
0.0
 10
10.0
 20
0.9528030501168416
 30
0.0
 10
10.0
 20
0.80646522866666
 30
0.0
  0
SPLINE
  5
22C
330
1F
100
AcDbEntity
  8
외형선
  6
Continuous
370
    15
100
AcDbSpline
210
0.0
220
0.0
230
1.0
 70
    24
 71
     3
 72
    11
 73
     7
 74
     0
 42
0.000000001
 43
0.00000001
 40
0.0
 40
0.0
 40
0.0
 40
0.0
 40
0.1906484248150027
 40
0.411616136804607
 40
0.6389919274113265
 40
1.0
 40
1.0
 40
1.0
 40
1.0
 10
10.0
 20
2.9683107662187
 30
0.0
 10
10.0
 20
2.907915735810256
 30
0.0
 10
10.0
 20
2.777520904995143
 30
0.0
 10
10.0
 20
2.582970360191915
 30
0.0
 10
10.0
 20
2.349295191122138
 30
0.0
 10
10.0
 20
2.21291256517322
 30
0.0
 10
10.0
 20
2.129233810523125
 30
0.0
  0
SPLINE
  5
22D
330
1F
100
AcDbEntity
  8
0
  6
Continuous
 62
     1
370
    15
100
AcDbSpline
210
0.0
220
0.0
230
1.0
 70
     8
 71
     3
 72
    14
 73
    10
 74
     0
 42
0.000000001
 43
0.00000001
 40
0.0006591357105537
 40
0.0006591357105537
 40
0.0006591357105537
 40
0.0006591357105537
 40
0.1561069560263889
 40
0.3121436956215255
 40
0.4681291278732909
 40
0.6240823548360657
 40
0.7800226000580401
 40
0.935969136141446
 40
1.0
 40
1.0
 40
1.0
 40
1.0
 10
29.04456743997773
 20
-2.502752978691883
 30
0.0
 10
28.61750333151505
 20
-2.411638910743444
 30
0.0
 10
27.7617573286563
 20
-2.228844430638118
 30
0.0
 10
26.47758480610088
 20
-1.796997789180761
 30
0.0
 10
25.1920787647235
 20
-1.27674788137104
 30
0.0
 10
23.90688004192597
 20
-0.6836471762506378
 30
0.0
 10
22.62180095060006
 20
-0.0568399498944885
 30
0.0
 10
21.58921903110456
 20
0.457935717450745
 30
0.0
 10
20.9849561703858
 20
0.7355970620697079
 30
0.0
 10
20.80906777012436
 20
0.8164185271873592
 30
0.0
  0
SPLINE
  5
22E
330
1F
100
AcDbEntity
  8
0
  6
Continuous
 62
     1
370
    15
100
AcDbSpline
210
0.0
220
0.0
230
1.0
 70
     8
 71
     3
 72
    21
 73
    17
 74
     0
 42
0.000000001
 43
0.00000001
 40
0.0
 40
0.0
 40
0.0
 40
0.0
 40
0.0773296764415592
 40
0.1546547165631871
 40
0.2318961466728513
 40
0.3091019098135813
 40
0.386320325835398
 40
0.4622265216842228
 40
0.5382057830780134
 40
0.6140905292076403
 40
0.6899179999498111
 40
0.7672992156528677
 40
0.8447303314039277
 40
0.9222477080829803
 40
0.9997159362646344
 40
1.0
 40
1.0
 40
1.0
 40
1.0
 10
28.79600000000002
 20
-2.962194587974995
 30
0.0
 10
28.4026386888541
 20
-2.867535768578922
 30
0.0
 10
27.61593965063724
 20
-2.678223805079771
 30
0.0
 10
26.43625394087456
 20
-2.235419005621651
 30
0.0
 10
25.25757977661141
 20
-1.699768084385362
 30
0.0
 10
24.07952539164467
 20
-1.083781121911663
 30
0.0
 10
22.90822377530321
 20
-0.4227116255498586
 30
0.0
 10
21.74300211521211
 20
0.2535013058040718
 30
0.0
 10
20.5841445729788
 20
0.9139165589466884
 30
0.0
 10
19.42618401921044
 20
1.534545048744839
 30
0.0
 10
18.26125327843323
 20
2.091354533091256
 30
0.0
 10
17.08837629663296
 20
2.556260088052468
 30
0.0
 10
15.90680195511644
 20
2.911684751797317
 30
0.0
 10
14.72436930529565
 20
3.115188577529274
 30
0.0
 10
13.93455411926467
 20
3.20023256256701
 30
0.0
 10
13.53914114875278
 20
3.175897010554507
 30
0.0
 10
13.53769652914548
 20
3.175808101949549
 30
0.0
  0
SPLINE
  5
22F
330
1F
100
AcDbEntity
  8
0
  6
Continuous
 62
     1
370
    15
100
AcDbSpline
210
0.0
220
0.0
230
1.0
 70
     8
 71
     3
 72
    16
 73
    12
 74
     0
 42
0.000000001
 43
0.00000001
 40
0.0
 40
0.0
 40
0.0
 40
0.0
 40
0.1055577769327373
 40
0.2271085014581226
 40
0.3487108647939934
 40
0.4703493850167805
 40
0.5919343850590791
 40
0.7134724213833057
 40
0.8275803847535754
 40
0.9416700910962194
 40
1.0
 40
1.0
 40
1.0
 40
1.0
 10
21.16791711984584
 20
-0.3027719118252392
 30
0.0
 10
20.79573577150722
 20
-0.1527483271857477
 30
0.0
 10
19.99498427078441
 20
0.1700287573729895
 30
0.0
 10
18.76543678966138
 20
0.6630906280409903
 30
0.0
 10
17.47913456762012
 20
1.141289490720204
 30
0.0
 10
16.19264021769081
 20
1.557833651917825
 30
0.0
 10
14.90647604526742
 20
1.889246379386499
 30
0.0
 10
13.64687217186173
 20
2.114766238017431
 30
0.0
 10
12.41385894122624
 20
2.222981981658691
 30
0.0
 10
11.403699253995
 20
2.238985510492498
 30
0.0
 10
10.79579937039733
 20
2.179361494946122
 30
0.0
 10
10.59014559497166
 20
2.159190568393896
 30
0.0
  0
SPLINE
  5
230
330
1F
100
AcDbEntity
  8
외형선
  6
Continuous
370
    15
100
AcDbSpline
210
0.0
220
0.0
230
1.0
 70
    24
 71
     3
 72
    11
 73
     7
 74
     0
 42
0.000000001
 43
0.00000001
 40
0.0
 40
0.0
 40
0.0
 40
0.0
 40
0.190648424815003
 40
0.4116161368046076
 40
0.6389919274113264
 40
1.0
 40
1.0
 40
1.0
 40
1.0
 10
10.0
 20
2.9683107662187
 30
0.0
 10
10.0
 20
2.907915735810256
 30
0.0
 10
10.0
 20
2.777520904995143
 30
0.0
 10
10.0
 20
2.582970360191915
 30
0.0
 10
10.0
 20
2.349295191122138
 30
0.0
 10
10.0
 20
2.21291256517322
 30
0.0
 10
10.0
 20
2.129233810523125
 30
0.0
  0
SPLINE
  5
231
330
1F
100
AcDbEntity
  8
0
  6
Continuous
 62
     1
370
    15
100
AcDbSpline
210
0.0
220
0.0
230
1.0
 70
     8
 71
     3
 72
     8
 73
     4
 74
     0
 42
0.000000001
 43
0.00000001
 40
0.0
 40
0.0
 40
0.0
 40
0.0
 40
1.0
 40
1.0
 40
1.0
 40
1.0
 10
29.05000000000001
 20
-0.8474214249202277
 30
0.0
 10
28.57492325518359
 20
-0.4739289524691515
 30
0.0
 10
28.11157491095477
 20
-0.0802683770071937
 30
0.0
 10
27.6612364647666
 20
0.3357639585164875
 30
0.0
  0
LINE
  5
232
330
1F
100
AcDbEntity
  8
0
  6
Continuous
 62
     1
370
    15
100
AcDbLine
 10
27.99858107100641
 20
0.618829693192545
 30
0.0
 11
29.05000000000001
 21
0.0010749287238951
 31
0.0
  0
LINE
  5
233
330
1F
100
AcDbEntity
  8
0
  6
Continuous
 62
     1
370
    15
100
AcDbLine
 10
29.05000000000001
 20
0.0010749287238951
 30
0.0
 11
29.05000000000001
 21
-0.8474214249202277
 31
0.0
  0
SPLINE
  5
234
330
1F
100
AcDbEntity
  8
0
  6
Continuous
 62
     1
370
    15
100
AcDbSpline
210
0.0
220
0.0
230
1.0
 70
     8
 71
     3
 72
    14
 73
    10
 74
     0
 42
0.000000001
 43
0.00000001
 40
0.0
 40
0.0
 40
0.0
 40
0.0
 40
0.1636841420822852
 40
0.3273468186413558
 40
0.4909953102265653
 40
0.6492600162363948
 40
0.8075311932545117
 40
0.9658286488933353
 40
1.0
 40
1.0
 40
1.0
 40
1.0
 10
27.8937306776279
 20
0.5308497667798591
 30
0.0
 10
27.45068116420993
 20
0.7279793971689159
 30
0.0
 10
26.56464023884604
 20
1.122212806385591
 30
0.0
 10
25.23568506226562
 20
1.640389969127014
 30
0.0
 10
23.92138231296718
 20
2.05993837581056
 30
0.0
 10
22.62178636398076
 20
2.362043639559737
 30
0.0
 10
21.33663535559327
 20
2.520951042461462
 30
0.0
 10
20.38734467606349
 20
2.568884938410136
 30
0.0
 10
19.86639094427713
 20
2.520902402864095
 30
0.0
 10
19.77389963007295
 20
2.512383474021256
 30
0.0
  0
SPLINE
  5
235
330
1F
100
AcDbEntity
  8
0
  6
Continuous
 62
     1
370
    15
100
AcDbSpline
210
0.0
220
0.0
230
1.0
 70
    24
 71
     3
 72
     8
 73
     4
 74
     0
 42
0.000000001
 43
0.00000001
 40
0.0
 40
0.0
 40
0.0
 40
0.0
 40
1.0
 40
1.0
 40
1.0
 40
1.0
 10
27.8937306776279
 20
0.5308497667798591
 30
0.0
 10
27.81623158405523
 20
0.4658203059464654
 30
0.0
 10
27.73873352345726
 20
0.4007917118817446
 30
0.0
 10
27.66123646475751
 20
0.3357639585094461
 30
0.0
  0
SPLINE
  5
236
330
1F
100
AcDbEntity
  8
0
  6
Continuous
 62
     1
370
    15
100
AcDbSpline
210
0.0
220
0.0
230
1.0
 70
    24
 71
     3
 72
    10
 73
     6
 74
     0
 42
0.000000001
 43
0.00000001
 40
0.0767676061822039
 40
0.0767676061822039
 40
0.0767676061822039
 40
0.0767676061822039
 40
0.5000000000000001
 40
0.5000000000000001
 40
1.0
 40
1.0
 40
1.0
 40
1.0
 10
29.05000000000004
 20
-2.411925049569188
 30
0.0
 10
29.05000000000001
 20
-2.236450591029293
 30
0.0
 10
29.05000000000004
 20
-2.02594751538161
 30
0.0
 10
29.05000000000001
 20
-1.505153196579514
 30
0.0
 10
29.05000000000001
 20
-1.184176202964014
 30
0.0
 10
29.05000000000001
 20
-0.8474214249203271
 30
0.0
  0
SPLINE
  5
237
330
1F
100
AcDbEntity
  8
0
  6
Continuous
 62
     1
370
    15
100
AcDbSpline
210
0.0
220
0.0
230
1.0
 70
     8
 71
     3
 72
    12
 73
     8
 74
     0
 42
0.000000001
 43
0.00000001
 40
0.0
 40
0.0
 40
0.0
 40
0.0
 40
0.018710754853889
 40
0.2758137616655275
 40
0.5328527301187057
 40
0.7898592861837171
 40
0.9999999999999999
 40
0.9999999999999999
 40
0.9999999999999999
 40
0.9999999999999999
 10
14.99993182620591
 20
-2.636057727435702
 30
0.0
 10
14.96874331126253
 20
-2.640755371544184
 30
0.0
 10
14.50899587218441
 20
-2.710002972864594
 30
0.0
 10
13.62086011546799
 20
-2.710307716638795
 30
0.0
 10
12.33559821699868
 20
-2.618436535034419
 30
0.0
 10
11.12850755506531
 20
-2.390751134396691
 30
0.0
 10
10.3501396582792
 20
-2.160038146524844
 30
0.0
 10
10.0
 20
-2.056254618109069
 30
0.0
  0
SPLINE
  5
238
330
1F
100
AcDbEntity
  8
0
  6
Continuous
 62
     1
370
    15
100
AcDbSpline
210
0.0
220
0.0
230
1.0
 70
     8
 71
     3
 72
    17
 73
    13
 74
     0
 42
0.000000001
 43
0.00000001
 40
0.0
 40
0.0
 40
0.0
 40
0.0
 40
0.0804989217600738
 40
0.1847514962205919
 40
0.2890343568570409
 40
0.3933603686011585
 40
0.4977165913460402
 40
0.6020280890828559
 40
0.7063003439796345
 40
0.8042006042035372
 40
0.9020856109930706
 40
1.0
 40
1.0
 40
1.0
 40
1.0
 10
22.32915792320131
 20
-2.374510847734815
 30
0.0
 10
21.99834175669056
 20
-2.423867694618657
 30
0.0
 10
21.23909206240296
 20
-2.537145625690815
 30
0.0
 10
20.05125612600074
 20
-2.554033913700042
 30
0.0
 10
18.76545092388389
 20
-2.448755484749611
 30
0.0
 10
17.47914802447076
 20
-2.205987172616997
 30
0.0
 10
16.19263910093511
 20
-1.844288964646701
 30
0.0
 10
14.90648046331512
 20
-1.381827026678238
 30
0.0
 10
13.64686392736709
 20
-0.8549669247161873
 30
0.0
 10
12.41386449056822
 20
-0.296963254888837
 30
0.0
 10
11.20699830886542
 20
0.2663716729325287
 30
0.0
 10
10.40237301774607
 20
0.6264160336597371
 30
0.0
 10
10.0
 20
0.80646522866666
 30
0.0
  0
SPLINE
  5
239
330
1F
100
AcDbEntity
  8
외형선
  6
Continuous
370
    15
100
AcDbSpline
210
0.0
220
0.0
230
1.0
 70
    24
 71
     3
 72
    10
 73
     6
 74
     0
 42
0.000000001
 43
0.00000001
 40
0.0
 40
0.0
 40
0.0
 40
0.0
 40
0.5
 40
0.5
 40
1.0
 40
1.0
 40
1.0
 40
1.0
 10
10.0
 20
0.8064652286666671
 30
0.0
 10
10.0
 20
0.3271783855099031
 30
0.0
 10
10.0
 20
-0.1976056387373504
 30
0.0
 10
10.0
 20
-1.198268080220352
 30
0.0
 10
10.0
 20
-1.669839255121552
 30
0.0
 10
10.0
 20
-2.056254618109065
 30
0.0
  0
SPLINE
  5
23A
330
1F
100
AcDbEntity
  8
외형선
  6
Continuous
370
    15
100
AcDbSpline
210
0.0
220
0.0
230
1.0
 70
    24
 71
     3
 72
    13
 73
     9
 74
     0
 42
0.000000001
 43
0.00000001
 40
0.0
 40
0.0
 40
0.0
 40
0.0
 40
0.0601728009999093
 40
0.2510778534277162
 40
0.4366026735049397
 40
0.6275077259327467
 40
0.8137538629663733
 40
1.0
 40
1.0
 40
1.0
 40
1.0
 10
10.0
 20
2.118678138283585
 30
0.0
 10
10.0
 20
2.121355812155954
 30
0.0
 10
10.0
 20
2.132528710822527
 30
0.0
 10
10.0
 20
2.051017624885027
 30
0.0
 10
10.0
 20
1.874139208382793
 30
0.0
 10
10.0
 20
1.599193775337703
 30
0.0
 10
10.0
 20
1.245477895677119
 30
0.0
 10
10.0
 20
0.9528027843368108
 30
0.0
 10
10.0
 20
0.80646522866666
 30
0.0
  0
LINE
  5
23B
330
1F
100
AcDbEntity
  8
0
  6
Continuous
 62
     1
370
    15
100
AcDbLine
 10
29.05000000000001
 20
2.223574928723892
 30
0.0
 11
27.86824267745556
 21
2.168012474604495
 31
0.0
  0
SPLINE
  5
23C
330
1F
100
AcDbEntity
  8
0
  6
Continuous
 62
     1
370
    15
100
AcDbSpline
210
0.0
220
0.0
230
1.0
 70
    24
 71
     3
 72
    10
 73
     6
 74
     0
 42
0.000000001
 43
0.00000001
 40
0.0
 40
0.0
 40
0.0
 40
0.0
 40
0.5000000000000001
 40
0.5000000000000001
 40
1.0
 40
1.0
 40
1.0
 40
1.0
 10
29.05000000000001
 20
1.501074928721593
 30
0.0
 10
29.05000000000001
 20
1.68223618627308
 30
0.0
 10
29.05000000000001
 20
1.835943526241358
 30
0.0
 10
29.05000000000001
 20
2.07824451143977
 30
0.0
 10
29.05000000000001
 20
2.166857205650103
 30
0.0
 10
29.05000000000001
 20
2.223574928723892
 30
0.0
  0
SPLINE
  5
23D
330
1F
100
AcDbEntity
  8
0
  6
Continuous
 62
     1
370
    15
100
AcDbSpline
210
0.0
220
0.0
230
1.0
 70
    24
 71
     3
 72
     8
 73
     4
 74
     0
 42
0.000000001
 43
0.00000001
 40
0.0
 40
0.0
 40
0.0
 40
0.0
 40
1.0
 40
1.0
 40
1.0
 40
1.0
 10
29.05000000000001
 20
1.501074928723895
 30
0.0
 10
28.69112387580975
 20
1.199942105277501
 30
0.0
 10
28.30086612946889
 20
0.8724769742591505
 30
0.0
 10
27.89373067762779
 20
0.5308497667800935
 30
0.0
  0
SPLINE
  5
23E
330
1F
100
AcDbEntity
  8
0
  6
Continuous
 62
     1
370
    15
100
AcDbSpline
210
0.0
220
0.0
230
1.0
 70
     8
 71
     3
 72
    14
 73
    10
 74
     0
 42
0.000000001
 43
0.00000001
 40
0.0
 40
0.0
 40
0.0
 40
0.0
 40
0.0144416249857343
 40
0.1787020257813831
 40
0.3431454183170786
 40
0.507484548479659
 40
0.6716739333940165
 40
0.8358125746912866
 40
1.0
 40
1.0
 40
1.0
 40
1.0
 10
17.19247065088359
 20
-2.494276353086626
 30
0.0
 10
17.15785146822034
 20
-2.5080434228135
 30
0.0
 10
16.72947044607591
 20
-2.67839843838108
 30
0.0
 10
15.90679953675112
 20
-2.89927669372085
 30
0.0
 10
14.72435688454391
 20
-3.12611912940492
 30
0.0
 10
13.54235006696365
 20
-3.198304673707497
 30
0.0
 10
12.36130989427897
 20
-3.124201121868165
 30
0.0
 10
11.18071557007966
 20
-2.913957913549801
 30
0.0
 10
10.39361084042059
 20
-2.663839299414214
 30
0.0
 10
9.999999999993122
 20
-2.538761410530086
 30
0.0
  0
SPLINE
  5
23F
330
1F
100
AcDbEntity
  8
외형선
  6
Continuous
370
    15
100
AcDbSpline
210
0.0
220
0.0
230
1.0
 70
    24
 71
     3
 72
     8
 73
     4
 74
     0
 42
0.000000001
 43
0.00000001
 40
0.0
 40
0.0
 40
0.0
 40
0.0
 40
1.0
 40
1.0
 40
1.0
 40
1.0
 10
10.00000000000006
 20
-2.05625461810909
 30
0.0
 10
10.00000000000006
 20
-2.21200096464359
 30
0.0
 10
10.00000000000006
 20
-2.373847674805148
 30
0.0
 10
10.00000000000006
 20
-2.538761410520163
 30
0.0
  0
SPLINE
  5
240
330
1F
100
AcDbEntity
  8
0
  6
Continuous
 62
     1
370
    15
100
AcDbSpline
210
0.0
220
0.0
230
1.0
 70
     8
 71
     3
 72
     9
 73
     5
 74
     0
 42
0.000000001
 43
0.00000001
 40
0.0
 40
0.0
 40
0.0
 40
0.0
 40
0.5891295445647755
 40
1.0
 40
1.0
 40
1.0
 40
1.0
 10
9.999999999997272
 20
-2.966160908770352
 30
0.0
 10
10.39274813632869
 20
-3.037726488160246
 30
0.0
 10
11.05940649687915
 20
-3.15920330094302
 30
0.0
 10
11.72600525546255
 20
-3.158752220940276
 30
0.0
 10
11.99989099099429
 20
-3.15856688549411
 30
0.0
  0
SPLINE
  5
241
330
1F
100
AcDbEntity
  8
0
  6
Continuous
 62
     1
370
    15
100
AcDbSpline
210
0.0
220
0.0
230
1.0
 70
     8
 71
     3
 72
    11
 73
     7
 74
     0
 42
0.000000001
 43
0.00000001
 40
0.0
 40
0.0
 40
0.0
 40
0.0
 40
0.132654426708643
 40
0.4215602543200924
 40
0.7107754277779642
 40
1.0
 40
1.0
 40
1.0
 40
1.0
 10
24.7073927962638
 20
2.129874569743833
 30
0.0
 10
24.88814480020142
 20
2.2096727195404
 30
0.0
 10
25.46255353000706
 20
2.463261907305686
 30
0.0
 10
26.43110051575761
 20
2.776967099431111
 30
0.0
 10
27.11311844303512
 20
2.981717618704266
 30
0.0
 10
27.66748894411558
 20
3.153894700287708
 30
0.0
 10
28.28800000000001
 20
3.176074928723905
 30
0.0
  0
LINE
  5
242
330
1F
100
AcDbEntity
  8
0
  6
Continuous
 62
     1
370
    15
100
AcDbLine
 10
29.05000000000001
 20
0.0010749287238951
 30
0.0
 11
29.05000000000001
 21
1.501074928723895
 31
0.0
  0
LINE
  5
243
330
1F
100
AcDbEntity
  8
중심선
 48
0.8
100
AcDbLine
 10
-50.15000000000001
 20
0.001074928723888
 30
0.0
 11
32.05000000000001
 21
0.0010749287239022
 31
0.0
  0
CIRCLE
  5
244
330
1F
100
AcDbEntity
  8
해칭선
100
AcDbCircle
 10
0.0
 20
0.0
 30
0.0
 40
3.000000000000001
  0
DIMENSION
  5
245
330
1F
100
AcDbEntity
  8
치수문자_일반주서
100
AcDbDimension
  2
*D13
 10
-59.83999999999999
 20
-3.173925071276167
 30
0.0
 11
-59.84
 21
0.0010749287238809
 31
0.0
 70
   160
  1
%%c<>
 71
     2
 42
6.349999999999994
 52
-270.0
  3
SLDDIMSTYLE0
100
AcDbAlignedDimension
 13
-46.33999999999999
 23
3.176074928723878
 33
0.0
 14
-46.33999999999999
 24
-3.173925071276116
 34
0.0
 50
90.0000000000002
100
AcDbRotatedDimension
1001
ACAD
1000
DSTYLE
1002
{
1070
   171
1070
     6
1070
   273
1070
     7
1002
}
1001
ACAD_DSTYLE_DIMFLIPARROW_SYMBOL
1070
   385
1070
     0
1001
ACAD_DSTYLE_DIMFLIPARROW_WHICH_SYMBOL
1070
   386
1070
     3
  0
DIMENSION
  5
246
330
1F
100
AcDbEntity
  8
치수문자_일반주서
100
AcDbDimension
  2
*D14
 10
48.0500000000001
 20
-3.173925071276031
 30
0.0
 11
48.05000000000001
 21
23.12382492872401
 31
0.0
 70
   160
  1
%%c<>
 71
     2
 42
6.349999999999994
 52
-270.0
  3
SLDDIMSTYLE0
100
AcDbAlignedDimension
 13
29.05000000000001
 23
3.176074928723892
 33
0.0
 14
29.05000000000001
 24
-3.173925071276102
 34
0.0
 50
90.0000000000002
100
AcDbRotatedDimension
1001
ACAD
1000
DSTYLE
1002
{
1070
   171
1070
     6
1070
   273
1070
     7
1002
}
  0
DIMENSION
  5
247
330
1F
100
AcDbEntity
  8
치수문자_일반주서
100
AcDbDimension
  2
*D15
 10
10.0
 20
13.19630048907219
 30
0.0
 11
19.56505526029949
 21
13.19630048907219
 31
0.0
 70
   160
  1
<>
 71
     2
 42
19.05000000000001
  3
SLDDIMSTYLE0
100
AcDbAlignedDimension
 13
29.05000000000001
 23
3.176074928723892
 33
0.0
 14
10.0
 24
2.129280892935249
 34
0.0
 50
0.0000000000000374
100
AcDbRotatedDimension
1001
ACAD
1000
DSTYLE
1002
{
1070
   171
1070
     6
1070
   273
1070
     7
1002
}
  0
DIMENSION
  5
248
330
1F
100
AcDbEntity
  8
치수문자_일반주서
100
AcDbDimension
  2
*D16
 10
-47.15000000000001
 20
25.19630048907212
 30
0.0
 11
-9.39288896289733
 21
25.19630048907212
 31
0.0
 70
   160
  1
<>
 71
     2
 42
76.20000000000002
  3
SLDDIMSTYLE0
100
AcDbAlignedDimension
 13
29.05000000000001
 23
3.176074928723892
 33
0.0
 14
-47.15000000000001
 24
2.366074928723883
 34
0.0
 50
0.0000000000000427
100
AcDbRotatedDimension
1001
ACAD
1000
DSTYLE
1002
{
1070
   171
1070
     6
1070
   273
1070
     7
1002
}
  0
INSERT
  5
249
330
1F
100
AcDbEntity
  8
해칭선
100
AcDbBlockReference
  2
SW_DOWELSYMBOL_0
 10
0.0
 20
0.0
 30
0.0
  0
SPLINE
  5
24A
330
1F
100
AcDbEntity
  8
0
  6
Continuous
 62
     1
370
    15
100
AcDbSpline
210
0.0
220
0.0
230
1.0
 70
    24
 71
     3
 72
     8
 73
     4
 74
     0
 42
0.000000001
 43
0.00000001
 40
0.0
 40
0.0
 40
0.0
 40
0.0
 40
0.2996604624705074
 40
0.2996604624705074
 40
0.2996604624705074
 40
0.2996604624705074
 10
29.05000000000001
 20
2.223574928723892
 30
0.0
 10
29.05000000000001
 20
2.283238946207494
 30
0.0
 10
29.04999999999998
 20
2.347110569778621
 30
0.0
 10
29.05000000000001
 20
2.414074907005857
 30
0.0
  0
SPLINE
  5
24D
330
1F
100
AcDbEntity
  8
0
  6
Continuous
 62
     1
370
    15
100
AcDbSpline
210
0.0
220
0.0
230
1.0
 70
     8
 71
     3
 72
     8
 73
     4
 74
     0
 42
0.000000001
 43
0.00000001
 40
0.0
 40
0.0
 40
0.0
 40
0.0
 40
0.0443213098675616
 40
0.0443213098675616
 40
0.0443213098675616
 40
0.0443213098675616
 10
28.79599999999999
 20
-2.962194587974992
 30
0.0
 10
28.80137268574876
 20
-2.963309179479361
 30
0.0
 10
28.80678434287279
 20
-2.964228900597058
 30
0.0
 10
28.81222038758577
 20
-2.964950373807032
 30
0.0
  0
SPLINE
  5
24F
330
1F
100
AcDbEntity
  8
0
  6
Continuous
 62
     1
370
    15
100
AcDbSpline
210
0.0
220
0.0
230
1.0
 70
     8
 71
     3
 72
    54
 73
    50
 74
     0
 42
0.000000001
 43
0.00000001
 40
0.015476994753394
 40
0.015476994753394
 40
0.015476994753394
 40
0.015476994753394
 40
0.0624999999999995
 40
0.0624999999999995
 40
0.124999999999999
 40
0.124999999999999
 40
0.156249999999999
 40
0.156249999999999
 40
0.187499999999999
 40
0.187499999999999
 40
0.2499999999999993
 40
0.2499999999999993
 40
0.2812499999999994
 40
0.2812499999999994
 40
0.3124999999999996
 40
0.3124999999999996
 40
0.3437499999999997
 40
0.3437499999999997
 40
0.3749999999999998
 40
0.3749999999999998
 40
0.4374999999999999
 40
0.4374999999999999
 40
0.4687499999999999
 40
0.4687499999999999
 40
0.5
 40
0.5
 40
0.5312500000000001
 40
0.5312500000000001
 40
0.5625000000000002
 40
0.5625000000000002
 40
0.6250000000000002
 40
0.6250000000000002
 40
0.6562500000000003
 40
0.6562500000000003
 40
0.6875000000000004
 40
0.6875000000000004
 40
0.7500000000000003
 40
0.7500000000000003
 40
0.8125000000000003
 40
0.8125000000000003
 40
0.8437500000000003
 40
0.8437500000000003
 40
0.8750000000000003
 40
0.8750000000000003
 40
0.9375000000000001
 40
0.9375000000000001
 40
0.96875
 40
0.96875
 40
1.0
 40
1.0
 40
1.0
 40
1.0
 10
28.28800000000001
 20
-3.1739250712761
 30
0.0
 10
28.04487441231464
 20
-3.125097651979124
 30
0.0
 10
27.59106414166271
 20
-3.08135982612321
 30
0.0
 10
27.23163592218185
 20
-2.964171432589605
 30
0.0
 10
26.83548980433966
 20
-2.873669535383669
 30
0.0
 10
26.24848973739682
 20
-2.706726727665703
 30
0.0
 10
26.05497179737796
 20
-2.646051873750054
 30
0.0
 10
25.66332411869794
 20
-2.514408853249321
 30
0.0
 10
25.46633352398649
 20
-2.443534292822971
 30
0.0
 10
24.87691063237412
 20
-2.217522067007963
 30
0.0
 10
24.48938822909963
 20
-2.049524520072332
 30
0.0
 10
23.89959484514327
 20
-1.774894116015762
 30
0.0
 10
23.70275557056505
 20
-1.679743277242533
 30
0.0
 10
23.31195160532312
 20
-1.483892186283885
 30
0.0
 10
23.11826478252397
 20
-1.383257476978301
 30
0.0
 10
22.726193287223
 20
-1.176303927044795
 30
0.0
 10
22.52915469859138
 20
-1.070206872713339
 30
0.0
 10
22.13644066236694
 20
-0.8545793801677704
 30
0.0
 10
21.94183889928667
 20
-0.7452549237297674
 30
0.0
 10
21.35745488300191
 20
-0.4135656722011234
 30
0.0
 10
20.96084438253297
 20
-0.1862582392150145
 30
0.0
 10
20.37552745217812
 20
0.1524425797019973
 30
0.0
 10
20.18146827857839
 20
0.2650695407437311
 30
0.0
 10
19.78903692242741
 20
0.4897188349252204
 30
0.0
 10
19.59198286581898
 20
0.6014841579736014
 30
0.0
 10
19.19956769444812
 20
0.8219850117558565
 30
0.0
 10
19.00553156700454
 20
0.9304784935792512
 30
0.0
 10
18.61528968537601
 20
1.143938154386447
 30
0.0
 10
18.41857736856326
 20
1.248986357049333
 30
0.0
 10
17.82869183965801
 20
1.556343882187598
 30
0.0
 10
17.44095512108947
 20
1.750009785209961
 30
0.0
 10
16.85186452390076
 20
2.019652143997277
 30
0.0
 10
16.65482753379419
 20
2.105950226019672
 30
0.0
 10
16.2627753706459
 20
2.269918830192388
 30
0.0
 10
16.06910160031467
 20
2.347428983908848
 30
0.0
 10
15.48285441238471
 20
2.566876661685406
 30
0.0
 10
15.08631360174368
 20
2.695284687107069
 30
0.0
 10
14.3086386939176
 20
2.907832030302934
 30
0.0
 10
13.9135108063881
 20
2.993273164507372
 30
0.0
 10
13.32607299183604
 20
3.085999203231488
 30
0.0
 10
13.13255810351473
 20
3.111003649926076
 30
0.0
 10
12.74120034846274
 20
3.149307761448632
 30
0.0
 10
12.54425500618015
 20
3.162536682474595
 30
0.0
 10
11.95466490174749
 20
3.184037012676413
 30
0.0
 10
11.5671977842635
 20
3.174204757563771
 30
0.0
 10
10.97750966303144
 20
3.123396749494411
 30
0.0
 10
10.78060435375318
 20
3.100449391296443
 30
0.0
 10
10.38946980996164
 20
3.042983958228476
 30
0.0
 10
10.1959102423327
 20
3.00853860600931
 30
0.0
 10
9.999999999997272
 20
2.968310766218138
 30
0.0
  0
ARC
  5
294
330
1F
100
AcDbEntity
  8
0
  6
Continuous
 62
     1
370
    15
100
AcDbCircle
 10
28.28800000000001
 20
2.414074928723905
 30
0.0
 40
0.7619999999999999
100
AcDbArc
 50
359.9999983669915
 51
90.0
  0
ARC
  5
295
102
{ACAD_REACTORS
102
}
330
1F
100
AcDbEntity
  8
0
  6
Continuous
 62
     1
370
    15
100
AcDbCircle
 10
28.28800000000001
 20
-2.411925071276101
 30
0.0
 40
0.7619999999999999
100
AcDbArc
 50
270.0
 51
0.0000016330085687
  0
DIMENSION
  5
298
102
{ACAD_REACTORS
102
}
102
{ACAD_XDICTIONARY
360
299
102
}
330
1F
100
AcDbEntity
  8
치수문자_일반주서
100
AcDbDimension
  2
*D18
 10
28.28800000000001
 20
-2.411925071276101
 30
0.0
 11
39.37149612439752
 21
-20.93373778555882
 31
0.0
 70
   164
  1
<>
 71
     5
 42
0.7619999999999932
  3
SLDDIMSTYLE0
100
AcDbRadialDimension
 15
28.67927736234105
 25
-3.06579510860724
 35
0.0
 40
0.0
1001
ACAD
1000
DSTYLE
1002
{
1070
   171
1070
     3
1002
}
1001
ACAD_DSTYLE_DIMRADIAL_EXTENSION
1070
   387
1070
     1
1070
   388
1040
4.71238898038469
1070
   390
1040
0.0000000285013762
  0
ENDSEC
  0
SECTION
  2
OBJECTS
  0
DICTIONARY
  5
C
330
0
100
AcDbDictionary
281
     1
  3
ACAD_GROUP
350
D
  3
ACAD_IMAGE_VARS
350
15C
  3
ACAD_LAYOUT
350
1A
  3
ACAD_MLINESTYLE
350
17
  3
ACAD_PLOTSETTINGS
350
19
  3
ACAD_PLOTSTYLENAME
350
E
  3
ACAD_SCALELIST
350
47
  3
APPDATA
350
15A
  3
DWGPROPS
350
2A6
  0
DICTIONARY
  5
20D
330
2
100
AcDbDictionary
280
     1
281
     1
  3
ACAD_LAYERSTATES
360
20E
  0
DICTIONARY
  5
299
330
298
100
AcDbDictionary
280
     1
281
     1
  0
DICTIONARY
  5
D
102
{ACAD_REACTORS
330
C
102
}
330
C
100
AcDbDictionary
281
     1
  0
RASTERVARIABLES
  5
15C
102
{ACAD_REACTORS
330
C
102
}
330
C
100
AcDbRasterVariables
 90
        0
 70
     1
 71
     1
 72
     1
  0
DICTIONARY
  5
1A
102
{ACAD_REACTORS
330
C
102
}
330
C
100
AcDbDictionary
281
     1
  3
Layout1
350
1E
  3
Layout2
350
26
  3
Model
350
22
  0
DICTIONARY
  5
17
102
{ACAD_REACTORS
330
C
102
}
330
C
100
AcDbDictionary
281
     1
  3
Standard
350
18
  0
DICTIONARY
  5
19
102
{ACAD_REACTORS
330
C
102
}
330
C
100
AcDbDictionary
281
     1
  0
ACDBDICTIONARYWDFLT
  5
E
102
{ACAD_REACTORS
330
C
102
}
330
C
100
AcDbDictionary
281
     1
  3
Normal
350
F
100
AcDbDictionaryWithDefault
340
F
  0
DICTIONARY
  5
47
102
{ACAD_REACTORS
330
C
102
}
330
C
100
AcDbDictionary
281
     1
  3
A0
350
48
  3
A1
350
49
  3
A2
350
4A
  3
A3
350
4B
  3
A4
350
4C
  3
A5
350
4D
  3
A6
350
4E
  3
A7
350
4F
  3
A8
350
50
  3
A9
350
51
  3
B0
350
52
  3
B1
350
53
  3
B2
350
54
  3
B3
350
55
  3
B4
350
56
  3
B5
350
57
  3
B6
350
58
  3
B7
350
59
  3
B8
350
5A
  3
B9
350
5B
  3
C0
350
5C
  3
C1
350
5D
  3
C2
350
5E
  3
C3
350
5F
  3
C4
350
60
  3
C5
350
61
  3
C6
350
62
  3
C7
350
63
  3
C8
350
64
  3
C9
350
65
  3
D0
350
66
  3
D1
350
67
  3
D2
350
68
  0
DICTIONARY
  5
15A
102
{ACAD_REACTORS
330
C
102
}
330
C
100
AcDbDictionary
281
     1
  0
XRECORD
  5
2A6
102
{ACAD_REACTORS
330
C
102
}
330
C
100
AcDbXrecord
280
     1
  1
DWGPROPS COOKIE
  2

  3

  4

  6

  7

  8
12017012
  9

300
=
301
=
302
=
303
=
304
=
305
=
306
=
307
=
308
=
309
=
 40
0.0
 41
2458288.281354063
 42
2458295.315066227
  1

 90
        0
  0
DICTIONARY
  5
20E
102
{ACAD_REACTORS
330
20D
102
}
330
20D
100
AcDbDictionary
281
     1
  0
LAYOUT
  5
1E
102
{ACAD_REACTORS
330
1A
102
}
330
1A
100
AcDbPlotSettings
  1

  2
none_device
  4

  6

 40
0.0
 41
0.0
 42
0.0
 43
0.0
 44
0.0
 45
0.0
 46
0.0
 47
0.0
 48
0.0
 49
0.0
140
0.0
141
0.0
142
1.0
143
1.0
 70
   688
 72
     1
 73
     0
 74
     5
  7

 75
    16
147
1.0
148
0.0
149
0.0
100
AcDbLayout
  1
Layout1
 70
     1
 71
     1
 10
0.0
 20
0.0
 11
420.0
 21
297.0
 12
0.0
 22
0.0
 32
0.0
 14
1.000000000000000E+20
 24
1.000000000000000E+20
 34
1.000000000000000E+20
 15
-1.000000000000000E+20
 25
-1.000000000000000E+20
 35
-1.000000000000000E+20
146
0.0
 13
0.0
 23
0.0
 33
0.0
 16
1.0
 26
0.0
 36
0.0
 17
0.0
 27
1.0
 37
0.0
 76
     0
330
1B
  0
LAYOUT
  5
26
102
{ACAD_REACTORS
330
1A
102
}
330
1A
100
AcDbPlotSettings
  1

  2
none_device
  4

  6

 40
0.0
 41
0.0
 42
0.0
 43
0.0
 44
0.0
 45
0.0
 46
0.0
 47
0.0
 48
0.0
 49
0.0
140
0.0
141
0.0
142
1.0
143
1.0
 70
   688
 72
     1
 73
     0
 74
     5
  7

 75
    16
147
1.0
148
0.0
149
0.0
100
AcDbLayout
  1
Layout2
 70
     1
 71
     2
 10
0.0
 20
0.0
 11
0.0
 21
0.0
 12
0.0
 22
0.0
 32
0.0
 14
0.0
 24
0.0
 34
0.0
 15
0.0
 25
0.0
 35
0.0
146
0.0
 13
0.0
 23
0.0
 33
0.0
 16
1.0
 26
0.0
 36
0.0
 17
0.0
 27
1.0
 37
0.0
 76
     0
330
23
  0
LAYOUT
  5
22
102
{ACAD_REACTORS
330
1A
102
}
330
1A
100
AcDbPlotSettings
  1

  2
none_device
  4
ANSI_A_(11.00_x_8.50_Inches)
  6

 40
6.35
 41
19.05
 42
6.35000508
 43
19.05000254
 44
279.4
 45
215.9
 46
112.2916889120354
 47
101.1215628026239
 48
0.0
 49
0.0
140
0.0
141
0.0
142
0.0653510464557995
143
1.0
 70
  1696
 72
     0
 73
     0
 74
     0
  7

 75
     0
147
0.0235690232323232
148
0.0
149
0.0
100
AcDbLayout
  1
Model
 70
     1
 71
     0
 10
0.0
 20
0.0
 11
420.0
 21
297.0
 12
0.0
 22
0.0
 32
0.0
 14
1.000000000000000E+20
 24
1.000000000000000E+20
 34
1.000000000000000E+20
 15
-1.000000000000000E+20
 25
-1.000000000000000E+20
 35
-1.000000000000000E+20
146
0.0
 13
0.0
 23
0.0
 33
0.0
 16
1.0
 26
0.0
 36
0.0
 17
0.0
 27
1.0
 37
0.0
 76
     0
330
1F
331
29
  0
MLINESTYLE
  5
18
102
{ACAD_REACTORS
330
17
102
}
330
17
100
AcDbMlineStyle
  2
Standard
 70
     0
  3

 62
   256
 51
90.0
 52
90.0
 71
     2
 49
0.5
 62
   256
  6
BYLAYER
 49
-0.5
 62
   256
  6
BYLAYER
  0
ACDBPLACEHOLDER
  5
F
102
{ACAD_REACTORS
330
E
102
}
330
E
  0
SCALE
  5
48
102
{ACAD_REACTORS
330
47
102
}
330
47
100
AcDbScale
 70
     0
300
1:1
140
1.0
141
1.0
290
     1
  0
SCALE
  5
49
102
{ACAD_REACTORS
330
47
102
}
330
47
100
AcDbScale
 70
     0
300
1:2
140
1.0
141
2.0
290
     0
  0
SCALE
  5
4A
102
{ACAD_REACTORS
330
47
102
}
330
47
100
AcDbScale
 70
     0
300
1:4
140
1.0
141
4.0
290
     0
  0
SCALE
  5
4B
102
{ACAD_REACTORS
330
47
102
}
330
47
100
AcDbScale
 70
     0
300
1:5
140
1.0
141
5.0
290
     0
  0
SCALE
  5
4C
102
{ACAD_REACTORS
330
47
102
}
330
47
100
AcDbScale
 70
     0
300
1:8
140
1.0
141
8.0
290
     0
  0
SCALE
  5
4D
102
{ACAD_REACTORS
330
47
102
}
330
47
100
AcDbScale
 70
     0
300
1:10
140
1.0
141
10.0
290
     0
  0
SCALE
  5
4E
102
{ACAD_REACTORS
330
47
102
}
330
47
100
AcDbScale
 70
     0
300
1:16
140
1.0
141
16.0
290
     0
  0
SCALE
  5
4F
102
{ACAD_REACTORS
330
47
102
}
330
47
100
AcDbScale
 70
     0
300
1:20
140
1.0
141
20.0
290
     0
  0
SCALE
  5
50
102
{ACAD_REACTORS
330
47
102
}
330
47
100
AcDbScale
 70
     0
300
1:30
140
1.0
141
30.0
290
     0
  0
SCALE
  5
51
102
{ACAD_REACTORS
330
47
102
}
330
47
100
AcDbScale
 70
     0
300
1:40
140
1.0
141
40.0
290
     0
  0
SCALE
  5
52
102
{ACAD_REACTORS
330
47
102
}
330
47
100
AcDbScale
 70
     0
300
1:50
140
1.0
141
50.0
290
     0
  0
SCALE
  5
53
102
{ACAD_REACTORS
330
47
102
}
330
47
100
AcDbScale
 70
     0
300
1:100
140
1.0
141
100.0
290
     0
  0
SCALE
  5
54
102
{ACAD_REACTORS
330
47
102
}
330
47
100
AcDbScale
 70
     0
300
2:1
140
2.0
141
1.0
290
     0
  0
SCALE
  5
55
102
{ACAD_REACTORS
330
47
102
}
330
47
100
AcDbScale
 70
     0
300
4:1
140
4.0
141
1.0
290
     0
  0
SCALE
  5
56
102
{ACAD_REACTORS
330
47
102
}
330
47
100
AcDbScale
 70
     0
300
8:1
140
8.0
141
1.0
290
     0
  0
SCALE
  5
57
102
{ACAD_REACTORS
330
47
102
}
330
47
100
AcDbScale
 70
     0
300
10:1
140
10.0
141
1.0
290
     0
  0
SCALE
  5
58
102
{ACAD_REACTORS
330
47
102
}
330
47
100
AcDbScale
 70
     0
300
100:1
140
100.0
141
1.0
290
     0
  0
SCALE
  5
59
102
{ACAD_REACTORS
330
47
102
}
330
47
100
AcDbScale
 70
     0
300
1/128" = 1'-0"
140
0.0078125
141
12.0
290
     0
  0
SCALE
  5
5A
102
{ACAD_REACTORS
330
47
102
}
330
47
100
AcDbScale
 70
     0
300
1/64" = 1'-0"
140
0.015625
141
12.0
290
     0
  0
SCALE
  5
5B
102
{ACAD_REACTORS
330
47
102
}
330
47
100
AcDbScale
 70
     0
300
1/32" = 1'-0"
140
0.03125
141
12.0
290
     0
  0
SCALE
  5
5C
102
{ACAD_REACTORS
330
47
102
}
330
47
100
AcDbScale
 70
     0
300
1/16" = 1'-0"
140
0.0625
141
12.0
290
     0
  0
SCALE
  5
5D
102
{ACAD_REACTORS
330
47
102
}
330
47
100
AcDbScale
 70
     0
300
3/32" = 1'-0"
140
0.09375
141
12.0
290
     0
  0
SCALE
  5
5E
102
{ACAD_REACTORS
330
47
102
}
330
47
100
AcDbScale
 70
     0
300
1/8" = 1'-0"
140
0.125
141
12.0
290
     0
  0
SCALE
  5
5F
102
{ACAD_REACTORS
330
47
102
}
330
47
100
AcDbScale
 70
     0
300
3/16" = 1'-0"
140
0.1875
141
12.0
290
     0
  0
SCALE
  5
60
102
{ACAD_REACTORS
330
47
102
}
330
47
100
AcDbScale
 70
     0
300
1/4" = 1'-0"
140
0.25
141
12.0
290
     0
  0
SCALE
  5
61
102
{ACAD_REACTORS
330
47
102
}
330
47
100
AcDbScale
 70
     0
300
3/8" = 1'-0"
140
0.375
141
12.0
290
     0
  0
SCALE
  5
62
102
{ACAD_REACTORS
330
47
102
}
330
47
100
AcDbScale
 70
     0
300
1/2" = 1'-0"
140
0.5
141
12.0
290
     0
  0
SCALE
  5
63
102
{ACAD_REACTORS
330
47
102
}
330
47
100
AcDbScale
 70
     0
300
3/4" = 1'-0"
140
0.75
141
12.0
290
     0
  0
SCALE
  5
64
102
{ACAD_REACTORS
330
47
102
}
330
47
100
AcDbScale
 70
     0
300
1" = 1'-0"
140
1.0
141
12.0
290
     0
  0
SCALE
  5
65
102
{ACAD_REACTORS
330
47
102
}
330
47
100
AcDbScale
 70
     0
300
1-1/2" = 1'-0"
140
1.5
141
12.0
290
     0
  0
SCALE
  5
66
102
{ACAD_REACTORS
330
47
102
}
330
47
100
AcDbScale
 70
     0
300
3" = 1'-0"
140
3.0
141
12.0
290
     0
  0
SCALE
  5
67
102
{ACAD_REACTORS
330
47
102
}
330
47
100
AcDbScale
 70
     0
300
6" = 1'-0"
140
6.0
141
12.0
290
     0
  0
SCALE
  5
68
102
{ACAD_REACTORS
330
47
102
}
330
47
100
AcDbScale
 70
     0
300
1'-0" = 1'-0"
140
12.0
141
12.0
290
     0
  0
ENDSEC
  0
EOF
