  0
SECTION
  2
HEADER
  9
$ACADVER
  1
AC1015
  9
$ACADMAINTVER
 70
     6
  9
$DWGCODEPAGE
  3
ANSI_949
  9
$INSBASE
 10
0.0
 20
0.0
 30
0.0
  9
$EXTMIN
 10
1.000000000000000E+20
 20
1.000000000000000E+20
 30
1.000000000000000E+20
  9
$EXTMAX
 10
-1.000000000000000E+20
 20
-1.000000000000000E+20
 30
-1.000000000000000E+20
  9
$LIMMIN
 10
0.0
 20
0.0
  9
$LIMMAX
 10
420.0
 20
297.0
  9
$ORTHOMODE
 70
     0
  9
$REGENMODE
 70
     1
  9
$FILLMODE
 70
     1
  9
$QTEXTMODE
 70
     0
  9
$MIRRTEXT
 70
     1
  9
$LTSCALE
 40
1.0
  9
$ATTMODE
 70
     1
  9
$TEXTSIZE
 40
3.5
  9
$TRACEWID
 40
1.0
  9
$TEXTSTYLE
  7
Standard
  9
$CLAYER
  8
0
  9
$CELTYPE
  6
ByLayer
  9
$CECOLOR
 62
   256
  9
$CELTSCALE
 40
1.0
  9
$DISPSILH
 70
     0
  9
$DIMSCALE
 40
1.0
  9
$DIMASZ
 40
3.302
  9
$DIMEXO
 40
1.0
  9
$DIMDLI
 40
3.75
  9
$DIMRND
 40
0.0
  9
$DIMDLE
 40
0.0
  9
$DIMEXE
 40
1.0
  9
$DIMTP
 40
0.0
  9
$DIMTM
 40
0.0
  9
$DIMTXT
 40
3.5
  9
$DIMCEN
 40
2.5
  9
$DIMTSZ
 40
0.0
  9
$DIMTOL
 70
     0
  9
$DIMLIM
 70
     0
  9
$DIMTIH
 70
     1
  9
$DIMTOH
 70
     1
  9
$DIMSE1
 70
     0
  9
$DIMSE2
 70
     0
  9
$DIMTAD
 70
     1
  9
$DIMZIN
 70
     0
  9
$DIMBLK
  1

  9
$DIMASO
 70
     1
  9
$DIMSHO
 70
     1
  9
$DIMPOST
  1

  9
$DIMAPOST
  1

  9
$DIMALT
 70
     0
  9
$DIMALTD
 70
     3
  9
$DIMALTF
 40
0.0393700787401575
  9
$DIMLFAC
 40
1.0
  9
$DIMTOFL
 70
     1
  9
$DIMTVP
 40
0.0
  9
$DIMTIX
 70
     0
  9
$DIMSOXD
 70
     0
  9
$DIMSAH
 70
     0
  9
$DIMBLK1
  1

  9
$DIMBLK2
  1

  9
$DIMSTYLE
  2
ISO-25
  9
$DIMCLRD
 70
     0
  9
$DIMCLRE
 70
     0
  9
$DIMCLRT
 70
     0
  9
$DIMTFAC
 40
1.0
  9
$DIMGAP
 40
1.524
  9
$DIMJUST
 70
     0
  9
$DIMSD1
 70
     0
  9
$DIMSD2
 70
     0
  9
$DIMTOLJ
 70
     0
  9
$DIMTZIN
 70
     0
  9
$DIMALTZ
 70
     0
  9
$DIMALTTZ
 70
     0
  9
$DIMUPT
 70
     0
  9
$DIMDEC
 70
     2
  9
$DIMTDEC
 70
     2
  9
$DIMALTU
 70
     2
  9
$DIMALTTD
 70
     3
  9
$DIMTXSTY
  7
Standard
  9
$DIMAUNIT
 70
     0
  9
$DIMADEC
 70
     2
  9
$DIMALTRND
 40
0.0
  9
$DIMAZIN
 70
     0
  9
$DIMDSEP
 70
    44
  9
$DIMATFIT
 70
     3
  9
$DIMFRAC
 70
     0
  9
$DIMLDRBLK
  1

  9
$DIMLUNIT
 70
     2
  9
$DIMLWD
 70
    -2
  9
$DIMLWE
 70
    -2
  9
$DIMTMOVE
 70
     0
  9
$LUNITS
 70
     2
  9
$LUPREC
 70
     2
  9
$SKETCHINC
 40
1.0
  9
$FILLETRAD
 40
10.0
  9
$AUNITS
 70
     0
  9
$AUPREC
 70
     2
  9
$MENU
  1
.
  9
$ELEVATION
 40
0.0
  9
$PELEVATION
 40
0.0
  9
$THICKNESS
 40
0.0
  9
$LIMCHECK
 70
     0
  9
$CHAMFERA
 40
0.0
  9
$CHAMFERB
 40
0.0
  9
$CHAMFERC
 40
0.0
  9
$CHAMFERD
 40
0.0
  9
$SKPOLY
 70
     0
  9
$TDCREATE
 40
2458288.655786933
  9
$TDUCREATE
 40
2458288.280786933
  9
$TDUPDATE
 40
2458295.680318438
  9
$TDUUPDATE
 40
2458295.305318438
  9
$TDINDWG
 40
0.0045218056
  9
$TDUSRTIMER
 40
2458295.296057477
  9
$USRTIMER
 70
     1
  9
$ANGBASE
 50
0.0
  9
$ANGDIR
 70
     0
  9
$PDMODE
 70
     0
  9
$PDSIZE
 40
-1.0
  9
$PLINEWID
 40
0.0
  9
$SPLFRAME
 70
     0
  9
$SPLINETYPE
 70
     6
  9
$SPLINESEGS
 70
     8
  9
$HANDSEED
  5
2F6
  9
$SURFTAB1
 70
     6
  9
$SURFTAB2
 70
     6
  9
$SURFTYPE
 70
     6
  9
$SURFU
 70
     6
  9
$SURFV
 70
     6
  9
$UCSBASE
  2

  9
$UCSNAME
  2

  9
$UCSORG
 10
0.0
 20
0.0
 30
0.0
  9
$UCSXDIR
 10
1.0
 20
0.0
 30
0.0
  9
$UCSYDIR
 10
0.0
 20
1.0
 30
0.0
  9
$UCSORTHOREF
  2

  9
$UCSORTHOVIEW
 70
     0
  9
$UCSORGTOP
 10
0.0
 20
0.0
 30
0.0
  9
$UCSORGBOTTOM
 10
0.0
 20
0.0
 30
0.0
  9
$UCSORGLEFT
 10
0.0
 20
0.0
 30
0.0
  9
$UCSORGRIGHT
 10
0.0
 20
0.0
 30
0.0
  9
$UCSORGFRONT
 10
0.0
 20
0.0
 30
0.0
  9
$UCSORGBACK
 10
0.0
 20
0.0
 30
0.0
  9
$PUCSBASE
  2

  9
$PUCSNAME
  2

  9
$PUCSORG
 10
0.0
 20
0.0
 30
0.0
  9
$PUCSXDIR
 10
1.0
 20
0.0
 30
0.0
  9
$PUCSYDIR
 10
0.0
 20
1.0
 30
0.0
  9
$PUCSORTHOREF
  2

  9
$PUCSORTHOVIEW
 70
     0
  9
$PUCSORGTOP
 10
0.0
 20
0.0
 30
0.0
  9
$PUCSORGBOTTOM
 10
0.0
 20
0.0
 30
0.0
  9
$PUCSORGLEFT
 10
0.0
 20
0.0
 30
0.0
  9
$PUCSORGRIGHT
 10
0.0
 20
0.0
 30
0.0
  9
$PUCSORGFRONT
 10
0.0
 20
0.0
 30
0.0
  9
$PUCSORGBACK
 10
0.0
 20
0.0
 30
0.0
  9
$USERI1
 70
     0
  9
$USERI2
 70
     0
  9
$USERI3
 70
     0
  9
$USERI4
 70
     0
  9
$USERI5
 70
     0
  9
$USERR1
 40
0.0
  9
$USERR2
 40
0.0
  9
$USERR3
 40
0.0
  9
$USERR4
 40
0.0
  9
$USERR5
 40
0.0
  9
$WORLDVIEW
 70
     1
  9
$SHADEDGE
 70
     3
  9
$SHADEDIF
 70
    70
  9
$TILEMODE
 70
     1
  9
$MAXACTVP
 70
    64
  9
$PINSBASE
 10
0.0
 20
0.0
 30
0.0
  9
$PLIMCHECK
 70
     0
  9
$PEXTMIN
 10
1.000000000000000E+20
 20
1.000000000000000E+20
 30
1.000000000000000E+20
  9
$PEXTMAX
 10
-1.000000000000000E+20
 20
-1.000000000000000E+20
 30
-1.000000000000000E+20
  9
$PLIMMIN
 10
0.0
 20
0.0
  9
$PLIMMAX
 10
0.0
 20
0.0
  9
$UNITMODE
 70
     0
  9
$VISRETAIN
 70
     1
  9
$PLINEGEN
 70
     0
  9
$PSLTSCALE
 70
     1
  9
$TREEDEPTH
 70
  3020
  9
$CMLSTYLE
  2
Standard
  9
$CMLJUST
 70
     0
  9
$CMLSCALE
 40
20.0
  9
$PROXYGRAPHICS
 70
     1
  9
$MEASUREMENT
 70
     1
  9
$CELWEIGHT
370
    -1
  9
$ENDCAPS
280
     0
  9
$JOINSTYLE
280
     0
  9
$LWDISPLAY
290
     1
  9
$INSUNITS
 70
     4
  9
$HYPERLINKBASE
  1

  9
$STYLESHEET
  1

  9
$XEDIT
290
     1
  9
$CEPSNTYPE
380
     0
  9
$PSTYLEMODE
290
     1
  9
$FINGERPRINTGUID
  2
{07F532B4-ECF5-4890-A478-42DF9F399EA9}
  9
$VERSIONGUID
  2
{FAEB1C32-E019-11D5-929B-00C0DF256EC4}
  9
$EXTNAMES
290
     1
  9
$PSVPSCALE
 40
0.0
  9
$OLESTARTUP
290
     0
  0
ENDSEC
  0
SECTION
  2
CLASSES
  0
CLASS
  1
ACDBDICTIONARYWDFLT
  2
AcDbDictionaryWithDefault
  3
ObjectDBX Classes
 90
        0
280
     0
281
     0
  0
CLASS
  1
VISUALSTYLE
  2
AcDbVisualStyle
  3
ObjectDBX Classes
 90
     4095
280
     0
281
     0
  0
CLASS
  1
MATERIAL
  2
AcDbMaterial
  3
ObjectDBX Classes
 90
     1153
280
     0
281
     0
  0
CLASS
  1
SCALE
  2
AcDbScale
  3
ObjectDBX Classes
 90
     1153
280
     0
281
     0
  0
CLASS
  1
SUN
  2
AcDbSun
  3
SCENEOE
 90
     1153
280
     0
281
     0
  0
CLASS
  1
ACDBPLACEHOLDER
  2
AcDbPlaceHolder
  3
ObjectDBX Classes
 90
        0
280
     0
281
     0
  0
CLASS
  1
LAYOUT
  2
AcDbLayout
  3
ObjectDBX Classes
 90
        0
280
     0
281
     0
  0
CLASS
  1
TABLESTYLE
  2
AcDbTableStyle
  3
ObjectDBX Classes
 90
     4095
280
     0
281
     0
  0
CLASS
  1
MLEADERSTYLE
  2
AcDbMLeaderStyle
  3
ACDB_MLEADERSTYLE_CLASS
 90
     4095
280
     0
281
     0
  0
CLASS
  1
RASTERVARIABLES
  2
AcDbRasterVariables
  3
ISM
 90
        0
280
     0
281
     0
  0
CLASS
  1
DIMASSOC
  2
AcDbDimAssoc
  3
"AcDbDimAssoc|Product Desc:     AcDim ARX App For Dimension|Company:          Autodesk, Inc.|WEB Address:      www.autodesk.com"
 90
        0
280
     0
281
     0
  0
ENDSEC
  0
SECTION
  2
TABLES
  0
TABLE
  2
VPORT
  5
8
330
0
100
AcDbSymbolTable
 70
     1
  0
VPORT
  5
29
330
8
100
AcDbSymbolTableRecord
100
AcDbViewportTableRecord
  2
*Active
 70
     0
 10
0.0
 20
0.0
 11
1.0
 21
1.0
 12
-3.458241608876648
 22
4.885838849224655
 13
0.0
 23
0.0
 14
10.0
 24
10.0
 15
10.0
 25
10.0
 16
0.0
 26
0.0
 36
1.0
 17
0.0
 27
0.0
 37
0.0
 40
89.27137545850674
 41
1.859099804305284
 42
50.0
 43
0.0
 44
0.0
 50
0.0
 51
0.0
 71
    16
 72
  2000
 73
     1
 74
     3
 75
     0
 76
     0
 77
     0
 78
     0
281
     0
 65
     1
110
0.0
120
0.0
130
0.0
111
1.0
121
0.0
131
0.0
112
0.0
122
1.0
132
0.0
 79
     0
146
0.0
  0
ENDTAB
  0
TABLE
  2
LTYPE
  5
5
330
0
100
AcDbSymbolTable
 70
     6
  0
LTYPE
  5
14
330
5
100
AcDbSymbolTableRecord
100
AcDbLinetypeTableRecord
  2
ByBlock
 70
     0
  3

 72
    65
 73
     0
 40
0.0
  0
LTYPE
  5
15
330
5
100
AcDbSymbolTableRecord
100
AcDbLinetypeTableRecord
  2
ByLayer
 70
     0
  3

 72
    65
 73
     0
 40
0.0
  0
LTYPE
  5
16
330
5
100
AcDbSymbolTableRecord
100
AcDbLinetypeTableRecord
  2
Continuous
 70
     0
  3
Solid line
 72
    65
 73
     0
 40
0.0
  0
LTYPE
  5
6A
330
5
100
AcDbSymbolTableRecord
100
AcDbLinetypeTableRecord
  2
HIDDEN
 70
     0
  3
Hidden __ __ __ __ __ __ __ __ __ __ __ __ __ __
 72
    65
 73
     2
 40
1.905
 49
1.27
 74
     0
 49
-0.635
 74
     0
  0
LTYPE
  5
6B
330
5
100
AcDbSymbolTableRecord
100
AcDbLinetypeTableRecord
  2
PHANTOM
 70
     0
  3
Phantom ______  __  __  ______  __  __  ______
 72
    65
 73
     6
 40
12.7
 49
6.35
 74
     0
 49
-1.27
 74
     0
 49
1.27
 74
     0
 49
-1.27
 74
     0
 49
1.27
 74
     0
 49
-1.27
 74
     0
  0
LTYPE
  5
6C
330
5
100
AcDbSymbolTableRecord
100
AcDbLinetypeTableRecord
  2
CENTER
 70
     0
  3
Center ____ _ ____ _ ____ _ ____ _ ____ _ ____
 72
    65
 73
     4
 40
10.16
 49
6.35
 74
     0
 49
-1.27
 74
     0
 49
1.27
 74
     0
 49
-1.27
 74
     0
  0
LTYPE
  5
6D
330
5
100
AcDbSymbolTableRecord
100
AcDbLinetypeTableRecord
  2
CENTERX2
 70
     0
  3
Center (2x) ________  __  ________  __  _____
 72
    65
 73
     4
 40
20.32
 49
12.7
 74
     0
 49
-2.54
 74
     0
 49
2.54
 74
     0
 49
-2.54
 74
     0
  0
LTYPE
  5
6E
330
5
100
AcDbSymbolTableRecord
100
AcDbLinetypeTableRecord
  2
DOT2
 70
     0
  3
Dot (.5x) ........................................
 72
    65
 73
     2
 40
0.635
 49
0.0
 74
     0
 49
-0.635
 74
     0
  0
ENDTAB
  0
TABLE
  2
LAYER
  5
2
102
{ACAD_XDICTIONARY
360
21E
102
}
330
0
100
AcDbSymbolTable
 70
    18
  0
LAYER
  5
10
330
2
100
AcDbSymbolTableRecord
100
AcDbLayerTableRecord
  2
0
 70
     0
 62
     7
  6
Continuous
370
    -3
390
F
  0
LAYER
  5
6F
330
2
100
AcDbSymbolTableRecord
100
AcDbLayerTableRecord
  2
FORMAT
 70
     0
 62
     2
  6
Continuous
370
    -3
390
F
  0
LAYER
  5
70
330
2
100
AcDbSymbolTableRecord
100
AcDbLayerTableRecord
  2
외형선
 70
     0
 62
     4
  6
Continuous
370
    30
390
F
  0
LAYER
  5
71
330
2
100
AcDbSymbolTableRecord
100
AcDbLayerTableRecord
  2
숨은선
 70
     0
 62
     2
  6
HIDDEN
370
    15
390
F
  0
LAYER
  5
72
330
2
100
AcDbSymbolTableRecord
100
AcDbLayerTableRecord
  2
중심선
 70
     0
 62
     1
  6
CENTERX2
370
    -3
390
F
  0
LAYER
  5
73
330
2
100
AcDbSymbolTableRecord
100
AcDbLayerTableRecord
  2
파단선
 70
     0
 62
     4
  6
Continuous
370
    -3
390
F
  0
LAYER
  5
74
330
2
100
AcDbSymbolTableRecord
100
AcDbLayerTableRecord
  2
해칭선
 70
     0
 62
   100
  6
Continuous
370
    -3
390
F
  0
LAYER
  5
75
330
2
100
AcDbSymbolTableRecord
100
AcDbLayerTableRecord
  2
가는실선
 70
     0
 62
     4
  6
Continuous
370
    -3
390
F
  0
LAYER
  5
76
330
2
100
AcDbSymbolTableRecord
100
AcDbLayerTableRecord
  2
치수_보조선
 70
     0
 62
     4
  6
Continuous
370
    -3
390
F
  0
LAYER
  5
77
330
2
100
AcDbSymbolTableRecord
100
AcDbLayerTableRecord
  2
치수문자_일반주서
 70
     0
 62
     7
  6
Continuous
370
    15
390
F
  0
LAYER
  5
78
330
2
100
AcDbSymbolTableRecord
100
AcDbLayerTableRecord
  2
개별주서
 70
     0
 62
   100
  6
Continuous
370
    30
390
F
  0
LAYER
  5
79
330
2
100
AcDbSymbolTableRecord
100
AcDbLayerTableRecord
  2
중간선
 70
     0
 62
     2
  6
Continuous
370
    15
390
F
  0
LAYER
  5
7A
330
2
100
AcDbSymbolTableRecord
100
AcDbLayerTableRecord
  2
윤곽선
 70
     0
 62
     3
  6
Continuous
370
    40
390
F
  0
LAYER
  5
7B
330
2
100
AcDbSymbolTableRecord
100
AcDbLayerTableRecord
  2
중심마크
 70
     0
 62
   100
  6
Continuous
370
    30
390
F
  0
LAYER
  5
7C
330
2
100
AcDbSymbolTableRecord
100
AcDbLayerTableRecord
  2
가상선
 70
     0
 62
     4
  6
PHANTOM
370
    -3
390
F
  0
LAYER
  5
7D
330
2
100
AcDbSymbolTableRecord
100
AcDbLayerTableRecord
  2
특수지정선
 70
     0
 62
     5
  6
CENTERX2
370
    60
390
F
  0
LAYER
  5
7E
330
2
100
AcDbSymbolTableRecord
100
AcDbLayerTableRecord
  2
참조1
 70
     0
 62
    -4
  6
Continuous
370
    -3
390
F
  0
LAYER
  5
166
330
2
100
AcDbSymbolTableRecord
100
AcDbLayerTableRecord
  2
Defpoints
 70
     0
 62
     7
  6
Continuous
290
     0
370
    -3
390
F
  0
ENDTAB
  0
TABLE
  2
STYLE
  5
3
330
0
100
AcDbSymbolTable
 70
     2
  0
STYLE
  5
11
330
3
100
AcDbSymbolTableRecord
100
AcDbTextStyleTableRecord
  2
Standard
 70
     0
 40
0.0
 41
1.0
 50
0.0
 71
     0
 42
3.5
  3
txt
  4

  0
STYLE
  5
94
330
3
100
AcDbSymbolTableRecord
100
AcDbTextStyleTableRecord
  2
SLDTEXTSTYLE0
 70
     0
 40
0.0
 41
0.75
 50
0.0
 71
     0
 42
3.5
  3
TXT
  4

  0
ENDTAB
  0
TABLE
  2
VIEW
  5
6
330
0
100
AcDbSymbolTable
 70
     0
  0
ENDTAB
  0
TABLE
  2
UCS
  5
7
330
0
100
AcDbSymbolTable
 70
     0
  0
ENDTAB
  0
TABLE
  2
APPID
  5
9
330
0
100
AcDbSymbolTable
 70
     2
  0
APPID
  5
12
330
9
100
AcDbSymbolTableRecord
100
AcDbRegAppTableRecord
  2
ACAD
 70
     0
  0
APPID
  5
171
330
9
100
AcDbSymbolTableRecord
100
AcDbRegAppTableRecord
  2
ACAD_DSTYLE_DIMRADIAL_EXTENSION
 70
     0
  0
ENDTAB
  0
TABLE
  2
DIMSTYLE
  5
A
330
0
100
AcDbSymbolTable
 70
     3
100
AcDbDimStyleTable
  0
DIMSTYLE
105
27
330
A
100
AcDbSymbolTableRecord
100
AcDbDimStyleTableRecord
  2
ISO-25
 70
     0
 41
2.5
 42
0.625
 43
3.75
 44
1.25
 73
     0
 74
     0
 77
     1
 78
     8
140
2.5
141
2.5
143
0.03937007874016
147
0.625
171
     3
172
     1
178
     0
271
     2
272
     2
274
     3
278
    44
283
     0
284
     8
340
11
  0
DIMSTYLE
105
E2
102
{ACAD_REACTORS
330
1CF
330
1DC
330
1EC
330
1FC
330
212
330
298
330
299
330
29A
330
29B
330
2E8
102
}
330
A
100
AcDbSymbolTableRecord
100
AcDbDimStyleTableRecord
  2
SLDDIMSTYLE0
 70
     0
 41
3.302
 44
0.0
 45
0.000000001
 73
     0
 74
     0
 77
     1
 78
    12
 79
     3
140
3.5
143
0.0393700787401575
147
0.875
148
0.000000001
170
     1
172
     1
173
     1
178
     0
271
     2
272
     2
276
     2
284
    12
289
     0
340
94
  0
DIMSTYLE
105
120
330
A
100
AcDbSymbolTableRecord
100
AcDbDimStyleTableRecord
  2
SLDDIMSTYLE1
 70
     0
 41
3.302
 44
0.0
 45
0.000000001
 73
     0
 74
     0
 77
     1
 78
     4
 79
     1
140
3.5
143
0.0393700787401575
147
0.875
148
0.000000001
170
     1
173
     1
178
     0
271
     2
272
     2
276
     2
284
    12
340
94
  0
ENDTAB
  0
TABLE
  2
BLOCK_RECORD
  5
1
330
0
100
AcDbSymbolTable
 70
    19
  0
BLOCK_RECORD
  5
1F
330
1
100
AcDbSymbolTableRecord
100
AcDbBlockTableRecord
  2
*Model_Space
340
22
  0
BLOCK_RECORD
  5
1B
330
1
100
AcDbSymbolTableRecord
100
AcDbBlockTableRecord
  2
*Paper_Space
340
1E
  0
BLOCK_RECORD
  5
23
330
1
100
AcDbSymbolTableRecord
100
AcDbBlockTableRecord
  2
*Paper_Space0
340
26
  0
BLOCK_RECORD
  5
7F
330
1
100
AcDbSymbolTableRecord
100
AcDbBlockTableRecord
  2
블럭10
340
0
102
{BLKREFS
331
DA
102
}
  0
BLOCK_RECORD
  5
E3
330
1
100
AcDbSymbolTableRecord
100
AcDbBlockTableRecord
  2
_D
340
0
  0
BLOCK_RECORD
  5
F7
330
1
100
AcDbSymbolTableRecord
100
AcDbBlockTableRecord
  2
_D_1
340
0
  0
BLOCK_RECORD
  5
10B
330
1
100
AcDbSymbolTableRecord
100
AcDbBlockTableRecord
  2
_D_2
340
0
  0
BLOCK_RECORD
  5
121
330
1
100
AcDbSymbolTableRecord
100
AcDbBlockTableRecord
  2
_D_3
340
0
  0
BLOCK_RECORD
  5
13A
330
1
100
AcDbSymbolTableRecord
100
AcDbBlockTableRecord
  2
SW_DOWELSYMBOL_0
340
0
102
{BLKREFS
331
0
331
209
331
29C
102
}
  0
BLOCK_RECORD
  5
215
330
1
100
AcDbSymbolTableRecord
100
AcDbBlockTableRecord
  2
*D8
340
0
  0
BLOCK_RECORD
  5
222
330
1
100
AcDbSymbolTableRecord
100
AcDbBlockTableRecord
  2
*D9
340
0
  0
BLOCK_RECORD
  5
22E
330
1
100
AcDbSymbolTableRecord
100
AcDbBlockTableRecord
  2
*D10
340
0
  0
BLOCK_RECORD
  5
23D
330
1
100
AcDbSymbolTableRecord
100
AcDbBlockTableRecord
  2
*D11
340
0
  0
BLOCK_RECORD
  5
24C
330
1
100
AcDbSymbolTableRecord
100
AcDbBlockTableRecord
  2
*D12
340
0
  0
BLOCK_RECORD
  5
2A2
330
1
100
AcDbSymbolTableRecord
100
AcDbBlockTableRecord
  2
*D13
340
0
  0
BLOCK_RECORD
  5
2AE
330
1
100
AcDbSymbolTableRecord
100
AcDbBlockTableRecord
  2
*D14
340
0
  0
BLOCK_RECORD
  5
2BD
330
1
100
AcDbSymbolTableRecord
100
AcDbBlockTableRecord
  2
*D15
340
0
  0
BLOCK_RECORD
  5
2CC
330
1
100
AcDbSymbolTableRecord
100
AcDbBlockTableRecord
  2
*D16
340
0
  0
BLOCK_RECORD
  5
2D8
330
1
100
AcDbSymbolTableRecord
100
AcDbBlockTableRecord
  2
*D17
340
0
  0
BLOCK_RECORD
  5
2EB
330
1
100
AcDbSymbolTableRecord
100
AcDbBlockTableRecord
  2
*D18
340
0
  0
ENDTAB
  0
ENDSEC
  0
SECTION
  2
BLOCKS
  0
BLOCK
  5
20
330
1F
100
AcDbEntity
  8
0
100
AcDbBlockBegin
  2
*Model_Space
 70
     0
 10
0.0
 20
0.0
 30
0.0
  3
*Model_Space
  1
*Model_Space
  0
ENDBLK
  5
21
330
1F
100
AcDbEntity
  8
0
100
AcDbBlockEnd
  0
BLOCK
  5
1C
330
1B
100
AcDbEntity
 67
     1
  8
0
100
AcDbBlockBegin
  2
*Paper_Space
 70
     0
 10
0.0
 20
0.0
 30
0.0
  3
*Paper_Space
  1
*Paper_Space
  0
ENDBLK
  5
1D
330
1B
100
AcDbEntity
 67
     1
  8
0
100
AcDbBlockEnd
  0
BLOCK
  5
24
330
23
100
AcDbEntity
  8
0
100
AcDbBlockBegin
  2
*Paper_Space0
 70
     0
 10
0.0
 20
0.0
 30
0.0
  3
*Paper_Space0
  1
*Paper_Space0
  0
ENDBLK
  5
25
330
23
100
AcDbEntity
  8
0
100
AcDbBlockEnd
  0
BLOCK
  5
80
330
7F
100
AcDbEntity
  8
0
100
AcDbBlockBegin
  2
블럭10
 70
     2
 10
0.0
 20
0.0
 30
0.0
  3
블럭10
  1
블럭10
  0
ELLIPSE
  5
82
330
7F
100
AcDbEntity
  8
중심선
100
AcDbEllipse
 10
20.54032771741204
 20
12.0471743016438
 30
0.0
 11
6.600054785286829
 21
-1.261213355974178E-13
 31
0.0
210
0.0
220
0.0
230
1.0
 40
0.636358354079598
 41
0.9219305317359503
 42
6.513795318482858
  0
ELLIPSE
  5
83
330
7F
100
AcDbEntity
  8
중심선
100
AcDbEllipse
 10
20.54032771746488
 20
12.04717430159265
 30
0.0
 11
3.960054785062283
 21
1.540847449632565E-10
 31
0.0
210
0.0
220
0.0
230
1.0
 40
0.3939339440162632
 41
1.131841032648279
 42
5.62031148352944
  0
LINE
  5
84
330
7F
100
AcDbEntity
  8
중심선
100
AcDbLine
 10
2.268634060543552
 20
16.24717430164393
 30
0.0
 11
5.714909304380834
 21
16.24717430164393
 31
0.0
  0
LINE
  5
85
330
7F
100
AcDbEntity
  8
중심선
100
AcDbLine
 10
5.245725140726316
 20
7.84717430164391
 30
0.0
 11
8.692000384563599
 21
7.84717430164391
 31
0.0
  0
LINE
  5
86
330
7F
100
AcDbEntity
  8
중심선
100
AcDbLine
 10
15.74043728645272
 20
16.24717430164393
 30
0.0
 11
8.692000384563599
 21
7.84717430164391
 31
0.0
  0
LINE
  5
87
330
7F
100
AcDbEntity
  8
중심선
100
AcDbLine
 10
0.1404042013395286
 20
13.71084872107135
 30
0.0
 11
3.58671253028996
 21
13.71088815037384
 31
0.0
  0
LINE
  5
88
330
7F
100
AcDbEntity
  8
중심선
100
AcDbLine
 10
2.750260043222114
 20
10.84717430164391
 30
0.0
 11
6.196535287059397
 21
10.84717430164391
 31
0.0
  0
LINE
  5
89
330
7F
100
AcDbEntity
  8
중심선
100
AcDbLine
 10
12.29416204261559
 20
16.24717430164393
 30
0.0
 11
5.245725140726316
 21
7.84717430164391
 31
0.0
  0
LINE
  5
8A
330
7F
100
AcDbEntity
  8
중심선
100
AcDbLine
 10
10.72767329541681
 20
16.24717430164393
 30
0.0
 11
6.196535287059397
 21
10.84717430164391
 31
0.0
  0
LINE
  5
8B
330
7F
100
AcDbEntity
  8
중심선
100
AcDbLine
 10
7.28139805157953
 20
16.24717430164393
 30
0.0
 11
2.750260043222114
 21
10.84717430164391
 31
0.0
  0
LINE
  5
8C
330
7F
100
AcDbEntity
  8
중심선
100
AcDbLine
 10
5.714909304380834
 20
16.24717430164393
 30
0.0
 11
3.58671253028996
 21
13.71088815037384
 31
0.0
  0
LINE
  5
8D
330
7F
100
AcDbEntity
  8
중심선
100
AcDbLine
 10
2.268634060543552
 20
16.24717430164393
 30
0.0
 11
0.1404042013395286
 21
13.71084872107135
 31
0.0
  0
LINE
  5
8E
330
7F
100
AcDbEntity
  8
중심선
100
AcDbLine
 10
7.28139805157953
 20
16.24717430164393
 30
0.0
 11
10.72767329541681
 21
16.24717430164393
 31
0.0
  0
LINE
  5
8F
330
7F
100
AcDbEntity
  8
중심선
100
AcDbLine
 10
12.29416204261559
 20
16.24717430164393
 30
0.0
 11
15.74043728645272
 21
16.24717430164393
 31
0.0
  0
LINE
  5
90
330
7F
100
AcDbEntity
  8
중심선
100
AcDbLine
 10
19.22036997980202
 20
11.08717430171403
 30
0.0
 11
23.66174974927406
 21
11.08717430171406
 31
0.0
  0
LINE
  5
91
330
7F
100
AcDbEntity
  8
중심선
100
AcDbLine
 10
19.22039502424796
 20
13.00717430171391
 30
0.0
 11
19.22036997980202
 21
11.08717430171403
 31
0.0
  0
LINE
  5
92
330
7F
100
AcDbEntity
  8
중심선
100
AcDbLine
 10
19.22039502424796
 20
13.00717430171391
 30
0.0
 11
26.96566020931264
 21
13.00717430171391
 31
0.0
  0
LINE
  5
93
330
7F
100
AcDbEntity
  8
중심선
100
AcDbLine
 10
22.22332737316547
 20
13.45928029700563
 30
0.0
 11
24.52862924686651
 21
15.39360700705356
 31
0.0
  0
ATTDEF
  5
95
330
7F
100
AcDbEntity
  8
FORMAT
 62
     2
100
AcDbText
 10
3.448148490846466
 20
2.075366912832191
 30
0.0
 40
4.233333333333333
  1
EM637903
 41
0.75
  7
SLDTEXTSTYLE0
 11
3.448148490846466
 21
-0.0412997538344756
 31
0.0
100
AcDbAttributeDefinition
  3

  2
AUTOATTR0
 70
     0
 74
     1
  0
ENDBLK
  5
81
330
7F
100
AcDbEntity
  8
0
100
AcDbBlockEnd
  0
BLOCK
  5
E4
330
E3
100
AcDbEntity
  8
0
100
AcDbBlockBegin
  2
_D
 70
     0
 10
0.0
 20
0.0
 30
0.0
  3
_D
  1
_D
  0
SOLID
  5
E6
330
E3
100
AcDbEntity
  8
치수문자_일반주서
100
AcDbTrace
 10
-50.315
 20
3.176074928723876
 30
0.0
 11
-49.807
 21
6.478074928723876
 31
0.0
 12
-50.823
 22
6.478074928723876
 32
0.0
 13
-50.823
 23
6.478074928723876
 33
0.0
  0
SOLID
  5
E7
330
E3
100
AcDbEntity
  8
치수문자_일반주서
100
AcDbTrace
 10
-50.315
 20
-3.173925071276119
 30
0.0
 11
-50.823
 21
-6.475925071276118
 31
0.0
 12
-49.807
 22
-6.475925071276118
 32
0.0
 13
-49.807
 23
-6.475925071276118
 33
0.0
  0
LINE
  5
E8
330
E3
100
AcDbEntity
  8
치수문자_일반주서
100
AcDbLine
 10
-61.10788171604273
 20
-5.413291502344828
 30
0.0
 11
-61.10788171604272
 21
-6.124228987909328
 31
0.0
  0
LINE
  5
E9
330
E3
100
AcDbEntity
  8
치수문자_일반주서
100
AcDbLine
 10
-61.10788171604272
 20
-6.124228987909328
 30
0.0
 11
-55.55163172498342
 21
-6.124228987909289
 31
0.0
  0
LINE
  5
EA
330
E3
100
AcDbEntity
  8
치수문자_일반주서
100
AcDbLine
 10
-55.55163172498342
 20
-6.124228987909289
 30
0.0
 11
-55.55163172498342
 21
-5.413291502344789
 31
0.0
  0
LINE
  5
EB
330
E3
100
AcDbEntity
  8
치수문자_일반주서
100
AcDbLine
 10
-61.1078817160428
 20
5.41544135979243
 30
0.0
 11
-61.1078817160428
 21
6.12637884535693
 31
0.0
  0
LINE
  5
EC
330
E3
100
AcDbEntity
  8
치수문자_일반주서
100
AcDbLine
 10
-61.1078817160428
 20
6.12637884535693
 30
0.0
 11
-55.5516317249835
 21
6.126378845356969
 31
0.0
  0
LINE
  5
ED
330
E3
100
AcDbEntity
  8
치수문자_일반주서
100
AcDbLine
 10
-55.5516317249835
 20
6.126378845356969
 30
0.0
 11
-55.55163172498349
 21
5.415441359792469
 31
0.0
  0
LINE
  5
EE
330
E3
100
AcDbEntity
  8
치수문자_일반주서
100
AcDbLine
 10
-37.81499999999998
 20
3.176074928723876
 30
0.0
 11
-51.315
 21
3.176074928723876
 31
0.0
  0
LINE
  5
EF
330
E3
100
AcDbEntity
  8
치수문자_일반주서
100
AcDbLine
 10
-37.81499999999998
 20
-3.173925071276118
 30
0.0
 11
-51.315
 21
-3.173925071276119
 31
0.0
  0
LINE
  5
F0
330
E3
100
AcDbEntity
  8
치수문자_일반주서
100
AcDbLine
 10
-50.315
 20
3.176074928723876
 30
0.0
 11
-50.315
 21
9.526074928723874
 31
0.0
  0
LINE
  5
F1
330
E3
100
AcDbEntity
  8
치수문자_일반주서
100
AcDbLine
 10
-50.315
 20
3.176074928723876
 30
0.0
 11
-50.315
 21
-3.173925071276119
 31
0.0
  0
LINE
  5
F2
330
E3
100
AcDbEntity
  8
치수문자_일반주서
100
AcDbLine
 10
-50.315
 20
-3.173925071276119
 30
0.0
 11
-50.315
 21
-9.52392507127612
 31
0.0
  0
MTEXT
  5
F3
330
E3
100
AcDbEntity
  8
치수문자_일반주서
100
AcDbMText
 10
-60.06336863956232
 20
-4.52461960173345
 30
0.0
 40
3.5
 41
0.0
 71
     1
 72
     1
  1
0.25
  7
SLDTEXTSTYLE0
 11
-7.044195017643634E-15
 21
1.0
 31
0.0
 73
     1
 44
1.0
  0
MTEXT
  5
F4
330
E3
100
AcDbEntity
  8
치수문자_일반주서
100
AcDbMText
 10
-54.82673708920183
 20
-7.163838766581741
 30
0.0
 40
3.5
 41
0.0
 71
     1
 72
     1
  1
%%c
  7
SLDTEXTSTYLE0
 11
-7.044195017643634E-15
 21
1.0
 31
0.0
 73
     1
 44
1.0
  0
MTEXT
  5
F5
330
E3
100
AcDbEntity
  8
치수문자_일반주서
100
AcDbMText
 10
-54.82673708920187
 20
-1.88540136820766
 30
0.0
 40
3.5
 41
0.0
 71
     1
 72
     1
  1
6.35
  7
SLDTEXTSTYLE0
 11
-7.044195017643634E-15
 21
1.0
 31
0.0
 73
     1
 44
1.0
  0
ENDBLK
  5
E5
330
E3
100
AcDbEntity
  8
0
100
AcDbBlockEnd
  0
BLOCK
  5
F8
330
F7
100
AcDbEntity
  8
0
100
AcDbBlockBegin
  2
_D_1
 70
     0
 10
0.0
 20
0.0
 30
0.0
  3
_D_1
  1
_D_1
  0
SOLID
  5
FA
330
F7
100
AcDbEntity
  8
치수문자_일반주서
100
AcDbTrace
 10
48.75301853739869
 20
2.382324928723893
 30
0.0
 11
49.26101853739869
 21
5.684324928723893
 31
0.0
 12
48.24501853739869
 22
5.684324928723893
 32
0.0
 13
48.24501853739869
 23
5.684324928723893
 33
0.0
  0
SOLID
  5
FB
330
F7
100
AcDbEntity
  8
치수문자_일반주서
100
AcDbTrace
 10
48.75301853739869
 20
-2.38017507127611
 30
0.0
 11
48.24501853739869
 21
-5.682175071276109
 31
0.0
 12
49.26101853739869
 22
-5.682175071276109
 32
0.0
 13
49.26101853739869
 23
-5.682175071276109
 33
0.0
  0
LINE
  5
FC
330
F7
100
AcDbEntity
  8
치수문자_일반주서
100
AcDbLine
 10
37.96013682135596
 20
4.483127667916383
 30
0.0
 11
37.96013682135597
 21
3.772190182351884
 31
0.0
  0
LINE
  5
FD
330
F7
100
AcDbEntity
  8
치수문자_일반주서
100
AcDbLine
 10
37.96013682135597
 20
3.772190182351884
 30
0.0
 11
43.51638681241527
 21
3.772190182351923
 31
0.0
  0
LINE
  5
FE
330
F7
100
AcDbEntity
  8
치수문자_일반주서
100
AcDbLine
 10
43.51638681241527
 20
3.772190182351923
 30
0.0
 11
43.51638681241526
 21
4.483127667916422
 31
0.0
  0
LINE
  5
FF
330
F7
100
AcDbEntity
  8
치수문자_일반주서
100
AcDbLine
 10
37.96013682135589
 20
15.31186053005364
 30
0.0
 11
37.96013682135588
 21
16.02279801561814
 31
0.0
  0
LINE
  5
100
330
F7
100
AcDbEntity
  8
치수문자_일반주서
100
AcDbLine
 10
37.96013682135588
 20
16.02279801561814
 30
0.0
 11
43.51638681241518
 21
16.02279801561818
 31
0.0
  0
LINE
  5
101
330
F7
100
AcDbEntity
  8
치수문자_일반주서
100
AcDbLine
 10
43.51638681241518
 20
16.02279801561818
 30
0.0
 11
43.51638681241519
 21
15.31186053005368
 31
0.0
  0
LINE
  5
102
330
F7
100
AcDbEntity
  8
치수문자_일반주서
100
AcDbLine
 10
15.24069560692047
 20
2.382324928723895
 30
0.0
 11
49.75301853739869
 21
2.382324928723893
 31
0.0
  0
LINE
  5
103
330
F7
100
AcDbEntity
  8
치수문자_일반주서
100
AcDbLine
 10
15.24069560692047
 20
-2.380175071276108
 30
0.0
 11
49.75301853739869
 21
-2.38017507127611
 31
0.0
  0
LINE
  5
104
330
F7
100
AcDbEntity
  8
치수문자_일반주서
100
AcDbLine
 10
48.75301853739869
 20
2.382324928723893
 30
0.0
 11
48.75301853739869
 21
17.06240779429068
 31
0.0
  0
LINE
  5
105
330
F7
100
AcDbEntity
  8
치수문자_일반주서
100
AcDbLine
 10
48.75301853739869
 20
2.382324928723893
 30
0.0
 11
48.75301853739869
 21
-2.38017507127611
 31
0.0
  0
LINE
  5
106
330
F7
100
AcDbEntity
  8
치수문자_일반주서
100
AcDbLine
 10
48.75301853739869
 20
-2.38017507127611
 30
0.0
 11
48.75301853739869
 21
-8.73017507127611
 31
0.0
  0
MTEXT
  5
107
330
F7
100
AcDbEntity
  8
치수문자_일반주서
100
AcDbMText
 10
39.00464989783637
 20
5.371799568527761
 30
0.0
 40
3.5
 41
0.0
 71
     1
 72
     1
  1
0.19
  7
SLDTEXTSTYLE0
 11
-7.044195017643634E-15
 21
1.0
 31
0.0
 73
     1
 44
1.0
  0
MTEXT
  5
108
330
F7
100
AcDbEntity
  8
치수문자_일반주서
100
AcDbMText
 10
44.24128144819686
 20
2.732580403679471
 30
0.0
 40
3.5
 41
0.0
 71
     1
 72
     1
  1
%%c
  7
SLDTEXTSTYLE0
 11
-7.044195017643634E-15
 21
1.0
 31
0.0
 73
     1
 44
1.0
  0
MTEXT
  5
109
330
F7
100
AcDbEntity
  8
치수문자_일반주서
100
AcDbMText
 10
44.24128144819682
 20
8.011017802053551
 30
0.0
 40
3.5
 41
0.0
 71
     1
 72
     1
  1
4.76
  7
SLDTEXTSTYLE0
 11
-7.044195017643634E-15
 21
1.0
 31
0.0
 73
     1
 44
1.0
  0
ENDBLK
  5
F9
330
F7
100
AcDbEntity
  8
0
100
AcDbBlockEnd
  0
BLOCK
  5
10C
330
10B
100
AcDbEntity
  8
0
100
AcDbBlockBegin
  2
_D_2
 70
     0
 10
0.0
 20
0.0
 30
0.0
  3
_D_2
  1
_D_2
  0
SOLID
  5
10E
330
10B
100
AcDbEntity
  8
치수문자_일반주서
100
AcDbTrace
 10
25.87500000000002
 20
12.64067548907219
 30
0.0
 11
29.17700000000002
 21
12.13267548907219
 31
0.0
 12
29.17700000000002
 22
13.14867548907219
 32
0.0
 13
29.17700000000002
 23
13.14867548907219
 33
0.0
  0
SOLID
  5
10F
330
10B
100
AcDbEntity
  8
치수문자_일반주서
100
AcDbTrace
 10
10.00000000000001
 20
12.64067548907219
 30
0.0
 11
6.698000000000013
 21
13.14867548907219
 31
0.0
 12
6.698000000000013
 22
12.13267548907219
 32
0.0
 13
6.698000000000013
 23
12.13267548907219
 33
0.0
  0
LINE
  5
110
330
10B
100
AcDbEntity
  8
치수문자_일반주서
100
AcDbLine
 10
12.55651330176026
 20
23.43355720511493
 30
0.0
 11
11.84557581619576
 21
23.43355720511494
 31
0.0
  0
LINE
  5
111
330
10B
100
AcDbEntity
  8
치수문자_일반주서
100
AcDbLine
 10
11.84557581619576
 20
23.43355720511494
 30
0.0
 11
11.84557581619572
 21
17.87730721405563
 31
0.0
  0
LINE
  5
112
330
10B
100
AcDbEntity
  8
치수문자_일반주서
100
AcDbLine
 10
11.84557581619572
 20
17.87730721405563
 30
0.0
 11
12.55651330176022
 21
17.87730721405563
 31
0.0
  0
LINE
  5
113
330
10B
100
AcDbEntity
  8
치수문자_일반주서
100
AcDbLine
 10
23.38524616389752
 20
23.43355720511485
 30
0.0
 11
24.09618364946202
 21
23.43355720511485
 31
0.0
  0
LINE
  5
114
330
10B
100
AcDbEntity
  8
치수문자_일반주서
100
AcDbLine
 10
24.09618364946202
 20
23.43355720511485
 30
0.0
 11
24.09618364946198
 21
17.87730721405554
 31
0.0
  0
LINE
  5
115
330
10B
100
AcDbEntity
  8
치수문자_일반주서
100
AcDbLine
 10
24.09618364946198
 20
17.87730721405554
 30
0.0
 11
23.38524616389748
 21
17.87730721405555
 31
0.0
  0
LINE
  5
116
330
10B
100
AcDbEntity
  8
치수문자_일반주서
100
AcDbLine
 10
25.87500000000002
 20
2.667949928723895
 30
0.0
 11
25.87500000000002
 21
13.64067548907219
 31
0.0
  0
LINE
  5
117
330
10B
100
AcDbEntity
  8
치수문자_일반주서
100
AcDbLine
 10
10.00000000000001
 20
2.57974799394357
 30
0.0
 11
10.00000000000001
 21
13.64067548907219
 31
0.0
  0
LINE
  5
118
330
10B
100
AcDbEntity
  8
치수문자_일반주서
100
AcDbLine
 10
25.87500000000002
 20
12.64067548907219
 30
0.0
 11
32.22500000000002
 21
12.64067548907219
 31
0.0
  0
LINE
  5
119
330
10B
100
AcDbEntity
  8
치수문자_일반주서
100
AcDbLine
 10
25.87500000000002
 20
12.64067548907219
 30
0.0
 11
10.00000000000001
 21
12.64067548907219
 31
0.0
  0
LINE
  5
11A
330
10B
100
AcDbEntity
  8
치수문자_일반주서
100
AcDbLine
 10
10.00000000000001
 20
12.64067548907219
 30
0.0
 11
3.650000000000013
 21
12.64067548907219
 31
0.0
  0
MTEXT
  5
11B
330
10B
100
AcDbEntity
  8
치수문자_일반주서
100
AcDbMText
 10
11.33181709070902
 20
17.20588475493391
 30
0.0
 40
3.5
 41
0.0
 71
     1
 72
     1
  1

  7
SLDTEXTSTYLE0
 73
     1
 44
1.0
  0
MTEXT
  5
11C
330
10B
100
AcDbEntity
  8
치수문자_일반주서
100
AcDbMText
 10
13.44518520237162
 20
22.38904412863452
 30
0.0
 40
3.5
 41
0.0
 71
     1
 72
     1
  1
0.63
  7
SLDTEXTSTYLE0
 73
     1
 44
1.0
  0
MTEXT
  5
11D
330
10B
100
AcDbEntity
  8
치수문자_일반주서
100
AcDbMText
 10
12.15212948919486
 20
17.15241257827405
 30
0.0
 40
3.5
 41
0.0
 71
     1
 72
     1
  1
15.88
  7
SLDTEXTSTYLE0
 73
     1
 44
1.0
  0
MTEXT
  5
11E
330
10B
100
AcDbEntity
  8
치수문자_일반주서
100
AcDbMText
 10
25.94188689460259
 20
17.20588475493381
 30
0.0
 40
3.5
 41
0.0
 71
     1
 72
     1
  1

  7
SLDTEXTSTYLE0
 73
     1
 44
1.0
  0
ENDBLK
  5
10D
330
10B
100
AcDbEntity
  8
0
100
AcDbBlockEnd
  0
BLOCK
  5
122
330
121
100
AcDbEntity
  8
0
100
AcDbBlockBegin
  2
_D_3
 70
     0
 10
0.0
 20
0.0
 30
0.0
  3
_D_3
  1
_D_3
  0
SOLID
  5
124
330
121
100
AcDbEntity
  8
치수문자_일반주서
100
AcDbTrace
 10
25.87500000000002
 20
24.64067548907216
 30
0.0
 11
22.57300000000002
 21
25.14867548907216
 31
0.0
 12
22.57300000000002
 22
24.13267548907216
 32
0.0
 13
22.57300000000002
 23
24.13267548907216
 33
0.0
  0
SOLID
  5
125
330
121
100
AcDbEntity
  8
치수문자_일반주서
100
AcDbTrace
 10
-37.62499999999999
 20
24.64067548907216
 30
0.0
 11
-34.32299999999999
 21
24.13267548907216
 31
0.0
 12
-34.32299999999999
 22
25.14867548907215
 32
0.0
 13
-34.32299999999999
 23
25.14867548907215
 33
0.0
  0
LINE
  5
126
330
121
100
AcDbEntity
  8
치수문자_일반주서
100
AcDbLine
 10
-11.57510688423708
 20
35.43355720511487
 30
0.0
 11
-12.28604436980158
 21
35.43355720511488
 31
0.0
  0
LINE
  5
127
330
121
100
AcDbEntity
  8
치수문자_일반주서
100
AcDbLine
 10
-12.28604436980158
 20
35.43355720511488
 30
0.0
 11
-12.28604436980162
 21
29.87730721405558
 31
0.0
  0
LINE
  5
128
330
121
100
AcDbEntity
  8
치수문자_일반주서
100
AcDbLine
 10
-12.28604436980162
 20
29.87730721405558
 30
0.0
 11
-11.57510688423712
 21
29.87730721405557
 31
0.0
  0
LINE
  5
129
330
121
100
AcDbEntity
  8
치수문자_일반주서
100
AcDbLine
 10
-0.7463740220998195
 20
35.43355720511479
 30
0.0
 11
-0.0354365365353194
 21
35.43355720511479
 31
0.0
  0
LINE
  5
12A
330
121
100
AcDbEntity
  8
치수문자_일반주서
100
AcDbLine
 10
-0.0354365365353194
 20
35.43355720511479
 30
0.0
 11
-0.0354365365353589
 21
29.87730721405549
 31
0.0
  0
LINE
  5
12B
330
121
100
AcDbEntity
  8
치수문자_일반주서
100
AcDbLine
 10
-0.0354365365353589
 20
29.87730721405549
 30
0.0
 11
-0.746374022099859
 21
29.87730721405549
 31
0.0
  0
LINE
  5
12C
330
121
100
AcDbEntity
  8
치수문자_일반주서
100
AcDbLine
 10
25.87500000000002
 20
2.667949928723895
 30
0.0
 11
25.87500000000002
 21
25.64067548907216
 31
0.0
  0
LINE
  5
12D
330
121
100
AcDbEntity
  8
치수문자_일반주서
100
AcDbLine
 10
-37.62499999999999
 20
3.366074928723888
 30
0.0
 11
-37.62499999999999
 21
25.64067548907216
 31
0.0
  0
LINE
  5
12E
330
121
100
AcDbEntity
  8
치수문자_일반주서
100
AcDbLine
 10
25.87500000000002
 20
24.64067548907216
 30
0.0
 11
-37.62499999999999
 21
24.64067548907216
 31
0.0
  0
MTEXT
  5
12F
330
121
100
AcDbEntity
  8
치수문자_일반주서
100
AcDbMText
 10
-12.79980309528832
 20
29.20588475493386
 30
0.0
 40
3.5
 41
0.0
 71
     1
 72
     1
  1

  7
SLDTEXTSTYLE0
 73
     1
 44
1.0
  0
MTEXT
  5
130
330
121
100
AcDbEntity
  8
치수문자_일반주서
100
AcDbMText
 10
-10.68643498362572
 20
34.38904412863447
 30
0.0
 40
3.5
 41
0.0
 71
     1
 72
     1
  1
2.50
  7
SLDTEXTSTYLE0
 73
     1
 44
1.0
  0
MTEXT
  5
131
330
121
100
AcDbEntity
  8
치수문자_일반주서
100
AcDbMText
 10
-11.97949069680248
 20
29.152412578274
 30
0.0
 40
3.5
 41
0.0
 71
     1
 72
     1
  1
63.50
  7
SLDTEXTSTYLE0
 73
     1
 44
1.0
  0
MTEXT
  5
132
330
121
100
AcDbEntity
  8
치수문자_일반주서
100
AcDbMText
 10
1.810266708605248
 20
29.20588475493376
 30
0.0
 40
3.5
 41
0.0
 71
     1
 72
     1
  1

  7
SLDTEXTSTYLE0
 73
     1
 44
1.0
  0
ENDBLK
  5
123
330
121
100
AcDbEntity
  8
0
100
AcDbBlockEnd
  0
BLOCK
  5
13B
330
13A
100
AcDbEntity
  8
0
100
AcDbBlockBegin
  2
SW_DOWELSYMBOL_0
 70
     0
 10
0.0
 20
0.0
 30
0.0
  3
SW_DOWELSYMBOL_0
  1
SW_DOWELSYMBOL_0
  0
CIRCLE
  5
13D
330
13A
100
AcDbEntity
  8
해칭선
 62
     0
100
AcDbCircle
 10
0.0
 20
0.0
 30
0.0
 40
3.000000000000002
  0
HATCH
  5
13E
330
13A
100
AcDbEntity
  8
0
  6
Continuous
 62
     0
370
     0
100
AcDbHatch
 10
0.0
 20
0.0
 30
0.0
210
0.0
220
0.0
230
1.0
  2
SOLID
 70
     1
 71
     0
 91
        1
 92
        0
 93
        3
 72
     2
 10
0.0000000000000069
 20
0.0
 40
3.000000000000002
 50
0.0
 51
90.0
 73
     1
 72
     1
 10
0.0000000000000069
 20
3.000000000000002
 11
0.0000000000000069
 21
0.0
 72
     1
 10
0.0000000000000069
 20
0.0
 11
3.000000000000009
 21
0.0
 97
        0
 75
     0
 76
     1
 98
        1
 10
0.0
 20
0.0
  0
HATCH
  5
13F
330
13A
100
AcDbEntity
  8
0
  6
Continuous
 62
     0
370
     0
100
AcDbHatch
 10
0.0
 20
0.0
 30
0.0
210
0.0
220
0.0
230
1.0
  2
SOLID
 70
     1
 71
     0
 91
        1
 92
        0
 93
        3
 72
     2
 10
0.0000000000000069
 20
0.0
 40
3.000000000000002
 50
180.0
 51
270.0000000000008
 73
     1
 72
     1
 10
0.0000000000000069
 20
-3.000000000000002
 11
0.0000000000000069
 21
0.0
 72
     1
 10
0.0000000000000069
 20
0.0
 11
-2.999999999999995
 21
0.0
 97
        0
 75
     0
 76
     1
 98
        1
 10
0.0
 20
0.0
  0
ENDBLK
  5
13C
330
13A
100
AcDbEntity
  8
0
100
AcDbBlockEnd
  0
BLOCK
  5
216
330
215
100
AcDbEntity
  8
0
100
AcDbBlockBegin
  2
*D8
 70
     1
 10
0.0
 20
0.0
 30
0.0
  3
*D8
  1
*D8
  0
LINE
  5
217
330
215
100
AcDbEntity
  8
치수문자_일반주서
 62
     0
370
    -2
100
AcDbLine
 10
82.33953309510025
 20
25.34993398563909
 30
0.0
 11
99.94629904384044
 21
-0.000000000000453
 31
0.0
  0
MTEXT
  5
218
330
215
100
AcDbEntity
  8
치수문자_일반주서
 62
     0
100
AcDbMText
 10
94.24072576325038
 20
12.8163922420588
 30
0.0
 40
3.5
 41
0.0
 71
     5
 72
     1
  1
\A1;R.25 [R0.010]
  7
SLDTEXTSTYLE0
 11
0.5704536262936448
 21
-0.8213298121025625
 31
0.0
 73
     1
 44
1.0
  0
LINE
  5
219
330
215
100
AcDbEntity
  8
치수문자_일반주서
 62
     0
370
    -2
100
AcDbLine
 10
80.31100000000005
 20
28.2705827974758
 30
0.0
 11
80.45589522107863
 21
28.06196502520175
 31
0.0
  0
SOLID
  5
21A
330
215
100
AcDbEntity
  8
치수문자_일반주서
 62
     0
100
AcDbTrace
 10
82.7915382683607
 20
25.66387363130936
 30
0.0
 11
81.8875279218398
 21
25.03599433996882
 31
0.0
 12
80.45589522107863
 22
28.06196502520175
 32
0.0
 13
80.45589522107863
 23
28.06196502520175
 33
0.0
  0
POINT
  5
21B
330
215
100
AcDbEntity
  8
Defpoints
 62
     0
100
AcDbPoint
 10
80.45589522107863
 20
28.06196502520175
 30
0.0
  0
POINT
  5
21C
330
215
100
AcDbEntity
  8
Defpoints
 62
     0
100
AcDbPoint
 10
80.31100000000005
 20
28.2705827974758
 30
0.0
  0
ENDBLK
  5
21D
330
215
100
AcDbEntity
  8
0
100
AcDbBlockEnd
  0
BLOCK
  5
223
330
222
100
AcDbEntity
  8
0
100
AcDbBlockBegin
  2
*D9
 70
     1
 10
0.0
 20
0.0
 30
0.0
  3
*D9
  1
*D9
  0
LINE
  5
225
330
222
100
AcDbEntity
  8
치수문자_일반주서
 62
     0
370
    -2
100
AcDbLine
 10
17.81250000000006
 20
33.57283279747578
 30
0.0
 11
4.375000000000032
 21
33.57283279747573
 31
0.0
  0
LINE
  5
226
330
222
100
AcDbEntity
  8
치수문자_일반주서
 62
     0
370
    -2
100
AcDbLine
 10
17.81250000000006
 20
27.22283279747579
 30
0.0
 11
4.375000000000054
 21
27.22283279747574
 31
0.0
  0
LINE
  5
227
330
222
100
AcDbEntity
  8
치수문자_일반주서
 62
     0
370
    -2
100
AcDbLine
 10
4.375000000000044
 20
30.27083279747573
 30
0.0
 11
4.375000000000043
 21
30.52483279747574
 31
0.0
  0
SOLID
  5
228
330
222
100
AcDbEntity
  8
치수문자_일반주서
 62
     0
100
AcDbTrace
 10
4.925333333333377
 20
30.27083279747574
 30
0.0
 11
3.82466666666671
 21
30.27083279747573
 31
0.0
 12
4.375000000000032
 22
33.57283279747573
 32
0.0
 13
4.375000000000032
 23
33.57283279747573
 33
0.0
  0
SOLID
  5
229
330
222
100
AcDbEntity
  8
치수문자_일반주서
 62
     0
100
AcDbTrace
 10
3.82466666666671
 20
30.52483279747574
 30
0.0
 11
4.925333333333376
 21
30.52483279747574
 31
0.0
 12
4.375000000000054
 22
27.22283279747574
 32
0.0
 13
4.375000000000054
 23
27.22283279747574
 33
0.0
  0
MTEXT
  5
22A
330
222
100
AcDbEntity
  8
치수문자_일반주서
 62
     0
100
AcDbMText
 10
0.0000000000000426
 20
30.39783279747577
 30
0.0
 40
3.5
 41
0.0
 71
     2
 72
     1
  1
\A1;%%c6.35 [1/4]
  7
SLDTEXTSTYLE0
 11
-3.496765431890260E-15
 21
1.0
 31
0.0
 73
     1
 44
1.0
  0
POINT
  5
22B
330
222
100
AcDbEntity
  8
Defpoints
 62
     0
100
AcDbPoint
 10
17.87500000000006
 20
33.57283279747578
 30
0.0
  0
POINT
  5
22C
330
222
100
AcDbEntity
  8
Defpoints
 62
     0
100
AcDbPoint
 10
17.87500000000006
 20
27.22283279747579
 30
0.0
  0
POINT
  5
22D
330
222
100
AcDbEntity
  8
Defpoints
 62
     0
100
AcDbPoint
 10
4.375000000000057
 20
27.22283279747574
 30
0.0
  0
ENDBLK
  5
224
330
222
100
AcDbEntity
  8
0
100
AcDbBlockEnd
  0
BLOCK
  5
22F
330
22E
100
AcDbEntity
  8
0
100
AcDbBlockBegin
  2
*D10
 70
     1
 10
0.0
 20
0.0
 30
0.0
  3
*D10
  1
*D10
  0
LINE
  5
231
330
22E
100
AcDbEntity
  8
치수문자_일반주서
 62
     0
370
    -2
100
AcDbLine
 10
80.62750000000005
 20
32.7790827974758
 30
0.0
 11
96.00994250257116
 21
32.77908279747586
 31
0.0
  0
LINE
  5
232
330
22E
100
AcDbEntity
  8
치수문자_일반주서
 62
     0
370
    -2
100
AcDbLine
 10
80.62750000000005
 20
28.0165827974758
 30
0.0
 11
96.00994250257118
 21
28.01658279747586
 31
0.0
  0
LINE
  5
233
330
22E
100
AcDbEntity
  8
치수문자_일반주서
 62
     0
370
    -2
100
AcDbLine
 10
96.00994250257116
 20
32.77908279747586
 30
0.0
 11
96.00994250257106
 21
67.38308279747588
 31
0.0
  0
LINE
  5
234
330
22E
100
AcDbEntity
  8
치수문자_일반주서
 62
     0
370
    -2
100
AcDbLine
 10
96.00994250257116
 20
32.77908279747586
 30
0.0
 11
96.00994250257118
 21
28.01658279747586
 31
0.0
  0
LINE
  5
235
330
22E
100
AcDbEntity
  8
치수문자_일반주서
 62
     0
370
    -2
100
AcDbLine
 10
96.00994250257115
 20
36.08108279747586
 30
0.0
 11
96.00994250257114
 21
39.38308279747586
 31
0.0
  0
LINE
  5
236
330
22E
100
AcDbEntity
  8
치수문자_일반주서
 62
     0
370
    -2
100
AcDbLine
 10
96.00994250257119
 20
24.71458279747586
 30
0.0
 11
96.0099425025712
 21
21.41258279747586
 31
0.0
  0
SOLID
  5
237
330
22E
100
AcDbEntity
  8
치수문자_일반주서
 62
     0
100
AcDbTrace
 10
95.45960916923782
 20
36.08108279747586
 30
0.0
 11
96.56027583590448
 21
36.08108279747586
 31
0.0
 12
96.00994250257116
 22
32.77908279747586
 32
0.0
 13
96.00994250257116
 23
32.77908279747586
 33
0.0
  0
SOLID
  5
238
330
22E
100
AcDbEntity
  8
치수문자_일반주서
 62
     0
100
AcDbTrace
 10
96.56027583590452
 20
24.71458279747586
 30
0.0
 11
95.45960916923786
 21
24.71458279747586
 31
0.0
 12
96.00994250257118
 22
28.01658279747586
 32
0.0
 13
96.00994250257118
 23
28.01658279747586
 33
0.0
  0
MTEXT
  5
239
330
22E
100
AcDbEntity
  8
치수문자_일반주서
 62
     0
100
AcDbMText
 10
91.6349425025711
 20
53.38308279747586
 30
0.0
 40
3.5
 41
0.0
 71
     2
 72
     1
  1
\A1;%%c4.76 [3/16]
  7
SLDTEXTSTYLE0
 11
-2.983906501879686E-15
 21
1.0
 31
0.0
 73
     1
 44
1.0
  0
POINT
  5
23A
330
22E
100
AcDbEntity
  8
Defpoints
 62
     0
100
AcDbPoint
 10
80.56500000000005
 20
32.7790827974758
 30
0.0
  0
POINT
  5
23B
330
22E
100
AcDbEntity
  8
Defpoints
 62
     0
100
AcDbPoint
 10
80.56500000000005
 20
28.0165827974758
 30
0.0
  0
POINT
  5
23C
330
22E
100
AcDbEntity
  8
Defpoints
 62
     0
100
AcDbPoint
 10
96.00994250257119
 20
28.01658279747586
 30
0.0
  0
ENDBLK
  5
230
330
22E
100
AcDbEntity
  8
0
100
AcDbBlockEnd
  0
BLOCK
  5
23E
330
23D
100
AcDbEntity
  8
0
100
AcDbBlockBegin
  2
*D11
 70
     1
 10
0.0
 20
0.0
 30
0.0
  3
*D11
  1
*D11
  0
LINE
  5
240
330
23D
100
AcDbEntity
  8
치수문자_일반주서
 62
     0
370
    -2
100
AcDbLine
 10
80.56500000000005
 20
32.8415827974758
 30
0.0
 11
80.56500000000005
 21
43.0374333578241
 31
0.0
  0
LINE
  5
241
330
23D
100
AcDbEntity
  8
치수문자_일반주서
 62
     0
370
    -2
100
AcDbLine
 10
64.69000000000005
 20
32.03900586269548
 30
0.0
 11
64.69000000000005
 21
43.0374333578241
 31
0.0
  0
LINE
  5
242
330
23D
100
AcDbEntity
  8
치수문자_일반주서
 62
     0
370
    -2
100
AcDbLine
 10
64.69000000000005
 20
43.0374333578241
 30
0.0
 11
32.71100000000005
 21
43.0374333578241
 31
0.0
  0
LINE
  5
243
330
23D
100
AcDbEntity
  8
치수문자_일반주서
 62
     0
370
    -2
100
AcDbLine
 10
80.56500000000005
 20
43.0374333578241
 30
0.0
 11
64.69000000000005
 21
43.0374333578241
 31
0.0
  0
LINE
  5
244
330
23D
100
AcDbEntity
  8
치수문자_일반주서
 62
     0
370
    -2
100
AcDbLine
 10
83.86700000000005
 20
43.0374333578241
 30
0.0
 11
87.16900000000004
 21
43.0374333578241
 31
0.0
  0
LINE
  5
245
330
23D
100
AcDbEntity
  8
치수문자_일반주서
 62
     0
370
    -2
100
AcDbLine
 10
61.38800000000005
 20
43.0374333578241
 30
0.0
 11
58.08600000000006
 21
43.0374333578241
 31
0.0
  0
SOLID
  5
246
330
23D
100
AcDbEntity
  8
치수문자_일반주서
 62
     0
100
AcDbTrace
 10
83.86700000000005
 20
43.58776669115743
 30
0.0
 11
83.86700000000005
 21
42.48710002449076
 31
0.0
 12
80.56500000000005
 22
43.0374333578241
 32
0.0
 13
80.56500000000005
 23
43.0374333578241
 33
0.0
  0
SOLID
  5
247
330
23D
100
AcDbEntity
  8
치수문자_일반주서
 62
     0
100
AcDbTrace
 10
61.38800000000005
 20
42.48710002449076
 30
0.0
 11
61.38800000000005
 21
43.58776669115743
 31
0.0
 12
64.69000000000005
 22
43.0374333578241
 32
0.0
 13
64.69000000000005
 23
43.0374333578241
 33
0.0
  0
MTEXT
  5
248
330
23D
100
AcDbEntity
  8
치수문자_일반주서
 62
     0
100
AcDbMText
 10
45.39850000000005
 20
47.4124333578241
 30
0.0
 40
3.5
 41
0.0
 71
     2
 72
     1
  1
\A1;15.88 [5/8]
  7
SLDTEXTSTYLE0
 73
     1
 44
1.0
  0
POINT
  5
249
330
23D
100
AcDbEntity
  8
Defpoints
 62
     0
100
AcDbPoint
 10
80.56500000000005
 20
32.7790827974758
 30
0.0
  0
POINT
  5
24A
330
23D
100
AcDbEntity
  8
Defpoints
 62
     0
100
AcDbPoint
 10
64.69000000000005
 20
31.97650586269548
 30
0.0
  0
POINT
  5
24B
330
23D
100
AcDbEntity
  8
Defpoints
 62
     0
100
AcDbPoint
 10
64.69000000000005
 20
43.0374333578241
 30
0.0
  0
ENDBLK
  5
23F
330
23D
100
AcDbEntity
  8
0
100
AcDbBlockEnd
  0
BLOCK
  5
24D
330
24C
100
AcDbEntity
  8
0
100
AcDbBlockBegin
  2
*D12
 70
     1
 10
0.0
 20
0.0
 30
0.0
  3
*D12
  1
*D12
  0
LINE
  5
24F
330
24C
100
AcDbEntity
  8
치수문자_일반주서
 62
     0
370
    -2
100
AcDbLine
 10
80.56500000000005
 20
32.8415827974758
 30
0.0
 11
80.56500000000005
 21
55.03743335782406
 31
0.0
  0
LINE
  5
250
330
24C
100
AcDbEntity
  8
치수문자_일반주서
 62
     0
370
    -2
100
AcDbLine
 10
17.06500000000005
 20
32.8253327974758
 30
0.0
 11
17.06500000000005
 21
55.03743335782406
 31
0.0
  0
LINE
  5
251
330
24C
100
AcDbEntity
  8
치수문자_일반주서
 62
     0
370
    -2
100
AcDbLine
 10
77.26300000000006
 20
55.03743335782406
 30
0.0
 11
20.36700000000005
 21
55.03743335782406
 31
0.0
  0
SOLID
  5
252
330
24C
100
AcDbEntity
  8
치수문자_일반주서
 62
     0
100
AcDbTrace
 10
77.26300000000006
 20
54.48710002449072
 30
0.0
 11
77.26300000000006
 21
55.58776669115739
 31
0.0
 12
80.56500000000005
 22
55.03743335782406
 32
0.0
 13
80.56500000000005
 23
55.03743335782406
 33
0.0
  0
SOLID
  5
253
330
24C
100
AcDbEntity
  8
치수문자_일반주서
 62
     0
100
AcDbTrace
 10
20.36700000000005
 20
55.58776669115739
 30
0.0
 11
20.36700000000005
 21
54.48710002449072
 31
0.0
 12
17.06500000000005
 22
55.03743335782406
 32
0.0
 13
17.06500000000005
 23
55.03743335782406
 33
0.0
  0
MTEXT
  5
254
330
24C
100
AcDbEntity
  8
치수문자_일반주서
 62
     0
100
AcDbMText
 10
48.52925919758562
 20
59.41243335782406
 30
0.0
 40
3.5
 41
0.0
 71
     2
 72
     1
  1
\A1;63.5 [2 1/2]
  7
SLDTEXTSTYLE0
 73
     1
 44
1.0
  0
POINT
  5
255
330
24C
100
AcDbEntity
  8
Defpoints
 62
     0
100
AcDbPoint
 10
80.56500000000005
 20
32.7790827974758
 30
0.0
  0
POINT
  5
256
330
24C
100
AcDbEntity
  8
Defpoints
 62
     0
100
AcDbPoint
 10
17.06500000000005
 20
32.7628327974758
 30
0.0
  0
POINT
  5
257
330
24C
100
AcDbEntity
  8
Defpoints
 62
     0
100
AcDbPoint
 10
17.06500000000005
 20
55.03743335782406
 30
0.0
  0
ENDBLK
  5
24E
330
24C
100
AcDbEntity
  8
0
100
AcDbBlockEnd
  0
BLOCK
  5
2A3
330
2A2
100
AcDbEntity
  8
0
100
AcDbBlockBegin
  2
*D13
 70
     1
 10
0.0
 20
0.0
 30
0.0
  3
*D13
  1
*D13
  0
LINE
  5
2A5
330
2A2
100
AcDbEntity
  8
치수문자_일반주서
 62
     0
370
    -2
100
AcDbLine
 10
-40.91518467149221
 20
3.174999999999983
 30
0.0
 11
-54.35268467149223
 21
3.174999999999932
 31
0.0
  0
LINE
  5
2A6
330
2A2
100
AcDbEntity
  8
치수문자_일반주서
 62
     0
370
    -2
100
AcDbLine
 10
-40.91518467149221
 20
-3.175000000000012
 30
0.0
 11
-54.35268467149221
 21
-3.175000000000062
 31
0.0
  0
LINE
  5
2A7
330
2A2
100
AcDbEntity
  8
치수문자_일반주서
 62
     0
370
    -2
100
AcDbLine
 10
-54.35268467149222
 20
-0.1270000000000673
 30
0.0
 11
-54.35268467149223
 21
0.1269999999999376
 31
0.0
  0
SOLID
  5
2A8
330
2A2
100
AcDbEntity
  8
치수문자_일반주서
 62
     0
100
AcDbTrace
 10
-53.80235133815889
 20
-0.1270000000000654
 30
0.0
 11
-54.90301800482555
 21
-0.1270000000000691
 31
0.0
 12
-54.35268467149223
 22
3.174999999999932
 32
0.0
 13
-54.35268467149223
 23
3.174999999999932
 33
0.0
  0
SOLID
  5
2A9
330
2A2
100
AcDbEntity
  8
치수문자_일반주서
 62
     0
100
AcDbTrace
 10
-54.90301800482556
 20
0.1269999999999357
 30
0.0
 11
-53.80235133815889
 21
0.1269999999999395
 31
0.0
 12
-54.35268467149221
 22
-3.175000000000062
 32
0.0
 13
-54.35268467149221
 23
-3.175000000000062
 33
0.0
  0
MTEXT
  5
2AA
330
2A2
100
AcDbEntity
  8
치수문자_일반주서
 62
     0
100
AcDbMText
 10
-58.72768467149223
 20
-0.0000000000000287
 30
0.0
 40
3.5
 41
0.0
 71
     2
 72
     1
  1
\A1;%%c6.35 [1/4]
  7
SLDTEXTSTYLE0
 11
-3.356894814614650E-15
 21
1.0
 31
0.0
 73
     1
 44
1.0
  0
POINT
  5
2AB
330
2A2
100
AcDbEntity
  8
Defpoints
 62
     0
100
AcDbPoint
 10
-40.85268467149221
 20
3.174999999999983
 30
0.0
  0
POINT
  5
2AC
330
2A2
100
AcDbEntity
  8
Defpoints
 62
     0
100
AcDbPoint
 10
-40.85268467149221
 20
-3.175000000000011
 30
0.0
  0
POINT
  5
2AD
330
2A2
100
AcDbEntity
  8
Defpoints
 62
     0
100
AcDbPoint
 10
-54.35268467149221
 20
-3.175000000000062
 30
0.0
  0
ENDBLK
  5
2A4
330
2A2
100
AcDbEntity
  8
0
100
AcDbBlockEnd
  0
BLOCK
  5
2AF
330
2AE
100
AcDbEntity
  8
0
100
AcDbBlockBegin
  2
*D14
 70
     1
 10
0.0
 20
0.0
 30
0.0
  3
*D14
  1
*D14
  0
LINE
  5
2B1
330
2AE
100
AcDbEntity
  8
치수문자_일반주서
 62
     0
370
    -2
100
AcDbLine
 10
21.89981532850778
 20
2.381250000000002
 30
0.0
 11
37.2822578310789
 21
2.381250000000058
 31
0.0
  0
LINE
  5
2B2
330
2AE
100
AcDbEntity
  8
치수문자_일반주서
 62
     0
370
    -2
100
AcDbLine
 10
21.89981532850778
 20
-2.381249999999997
 30
0.0
 11
37.28225783107892
 21
-2.381249999999941
 31
0.0
  0
LINE
  5
2B3
330
2AE
100
AcDbEntity
  8
치수문자_일반주서
 62
     0
370
    -2
100
AcDbLine
 10
37.2822578310789
 20
2.381250000000058
 30
0.0
 11
37.28225783107879
 21
36.98525000000008
 31
0.0
  0
LINE
  5
2B4
330
2AE
100
AcDbEntity
  8
치수문자_일반주서
 62
     0
370
    -2
100
AcDbLine
 10
37.2822578310789
 20
2.381250000000058
 30
0.0
 11
37.28225783107892
 21
-2.381249999999941
 31
0.0
  0
LINE
  5
2B5
330
2AE
100
AcDbEntity
  8
치수문자_일반주서
 62
     0
370
    -2
100
AcDbLine
 10
37.28225783107889
 20
5.683250000000058
 30
0.0
 11
37.28225783107889
 21
8.985250000000057
 31
0.0
  0
LINE
  5
2B6
330
2AE
100
AcDbEntity
  8
치수문자_일반주서
 62
     0
370
    -2
100
AcDbLine
 10
37.28225783107892
 20
-5.683249999999941
 30
0.0
 11
37.28225783107893
 21
-8.98524999999994
 31
0.0
  0
SOLID
  5
2B7
330
2AE
100
AcDbEntity
  8
치수문자_일반주서
 62
     0
100
AcDbTrace
 10
36.73192449774556
 20
5.683250000000056
 30
0.0
 11
37.83259116441223
 21
5.68325000000006
 31
0.0
 12
37.2822578310789
 22
2.381250000000058
 32
0.0
 13
37.2822578310789
 23
2.381250000000058
 33
0.0
  0
SOLID
  5
2B8
330
2AE
100
AcDbEntity
  8
치수문자_일반주서
 62
     0
100
AcDbTrace
 10
37.83259116441226
 20
-5.683249999999939
 30
0.0
 11
36.73192449774559
 21
-5.683249999999942
 31
0.0
 12
37.28225783107892
 22
-2.381249999999941
 32
0.0
 13
37.28225783107892
 23
-2.381249999999941
 33
0.0
  0
MTEXT
  5
2B9
330
2AE
100
AcDbEntity
  8
치수문자_일반주서
 62
     0
100
AcDbMText
 10
32.90725783107884
 20
22.98525000000006
 30
0.0
 40
3.5
 41
0.0
 71
     2
 72
     1
  1
\A1;%%c4.76 [3/16]
  7
SLDTEXTSTYLE0
 11
-2.983906501879686E-15
 21
1.0
 31
0.0
 73
     1
 44
1.0
  0
POINT
  5
2BA
330
2AE
100
AcDbEntity
  8
Defpoints
 62
     0
100
AcDbPoint
 10
21.83731532850778
 20
2.381250000000001
 30
0.0
  0
POINT
  5
2BB
330
2AE
100
AcDbEntity
  8
Defpoints
 62
     0
100
AcDbPoint
 10
21.83731532850778
 20
-2.381249999999998
 30
0.0
  0
POINT
  5
2BC
330
2AE
100
AcDbEntity
  8
Defpoints
 62
     0
100
AcDbPoint
 10
37.28225783107892
 20
-2.38124999999994
 30
0.0
  0
ENDBLK
  5
2B0
330
2AE
100
AcDbEntity
  8
0
100
AcDbBlockEnd
  0
BLOCK
  5
2BE
330
2BD
100
AcDbEntity
  8
0
100
AcDbBlockBegin
  2
*D15
 70
     1
 10
0.0
 20
0.0
 30
0.0
  3
*D15
  1
*D15
  0
LINE
  5
2C0
330
2BD
100
AcDbEntity
  8
치수문자_일반주서
 62
     0
370
    -2
100
AcDbLine
 10
21.83731532850778
 20
2.443750000000001
 30
0.0
 11
21.83731532850778
 21
12.6396005603483
 31
0.0
  0
LINE
  5
2C1
330
2BD
100
AcDbEntity
  8
치수문자_일반주서
 62
     0
370
    -2
100
AcDbLine
 10
5.962315328507785
 20
1.641173065219675
 30
0.0
 11
5.962315328507785
 21
12.6396005603483
 31
0.0
  0
LINE
  5
2C2
330
2BD
100
AcDbEntity
  8
치수문자_일반주서
 62
     0
370
    -2
100
AcDbLine
 10
5.962315328507785
 20
12.6396005603483
 30
0.0
 11
-26.01668467149223
 21
12.6396005603483
 31
0.0
  0
LINE
  5
2C3
330
2BD
100
AcDbEntity
  8
치수문자_일반주서
 62
     0
370
    -2
100
AcDbLine
 10
21.83731532850778
 20
12.6396005603483
 30
0.0
 11
5.962315328507785
 21
12.6396005603483
 31
0.0
  0
LINE
  5
2C4
330
2BD
100
AcDbEntity
  8
치수문자_일반주서
 62
     0
370
    -2
100
AcDbLine
 10
25.13931532850778
 20
12.6396005603483
 30
0.0
 11
28.44131532850778
 21
12.6396005603483
 31
0.0
  0
LINE
  5
2C5
330
2BD
100
AcDbEntity
  8
치수문자_일반주서
 62
     0
370
    -2
100
AcDbLine
 10
2.660315328507785
 20
12.6396005603483
 30
0.0
 11
-0.6416846714922144
 21
12.6396005603483
 31
0.0
  0
SOLID
  5
2C6
330
2BD
100
AcDbEntity
  8
치수문자_일반주서
 62
     0
100
AcDbTrace
 10
25.13931532850778
 20
13.18993389368163
 30
0.0
 11
25.13931532850778
 21
12.08926722701497
 31
0.0
 12
21.83731532850778
 22
12.6396005603483
 32
0.0
 13
21.83731532850778
 23
12.6396005603483
 33
0.0
  0
SOLID
  5
2C7
330
2BD
100
AcDbEntity
  8
치수문자_일반주서
 62
     0
100
AcDbTrace
 10
2.660315328507785
 20
12.08926722701497
 30
0.0
 11
2.660315328507785
 21
13.18993389368163
 31
0.0
 12
5.962315328507785
 22
12.6396005603483
 32
0.0
 13
5.962315328507785
 23
12.6396005603483
 33
0.0
  0
MTEXT
  5
2C8
330
2BD
100
AcDbEntity
  8
치수문자_일반주서
 62
     0
100
AcDbMText
 10
-13.32918467149223
 20
17.0146005603483
 30
0.0
 40
3.5
 41
0.0
 71
     2
 72
     1
  1
\A1;15.88 [5/8]
  7
SLDTEXTSTYLE0
 73
     1
 44
1.0
  0
POINT
  5
2C9
330
2BD
100
AcDbEntity
  8
Defpoints
 62
     0
100
AcDbPoint
 10
21.83731532850778
 20
2.381250000000001
 30
0.0
  0
POINT
  5
2CA
330
2BD
100
AcDbEntity
  8
Defpoints
 62
     0
100
AcDbPoint
 10
5.962315328507785
 20
1.578673065219675
 30
0.0
  0
POINT
  5
2CB
330
2BD
100
AcDbEntity
  8
Defpoints
 62
     0
100
AcDbPoint
 10
5.962315328507785
 20
12.6396005603483
 30
0.0
  0
ENDBLK
  5
2BF
330
2BD
100
AcDbEntity
  8
0
100
AcDbBlockEnd
  0
BLOCK
  5
2CD
330
2CC
100
AcDbEntity
  8
0
100
AcDbBlockBegin
  2
*D16
 70
     1
 10
0.0
 20
0.0
 30
0.0
  3
*D16
  1
*D16
  0
LINE
  5
2CF
330
2CC
100
AcDbEntity
  8
치수문자_일반주서
 62
     0
370
    -2
100
AcDbLine
 10
21.83731532850778
 20
2.443750000000001
 30
0.0
 11
21.83731532850778
 21
24.63960056034826
 31
0.0
  0
LINE
  5
2D0
330
2CC
100
AcDbEntity
  8
치수문자_일반주서
 62
     0
370
    -2
100
AcDbLine
 10
-41.66268467149222
 20
2.427499999999995
 30
0.0
 11
-41.66268467149222
 21
24.63960056034826
 31
0.0
  0
LINE
  5
2D1
330
2CC
100
AcDbEntity
  8
치수문자_일반주서
 62
     0
370
    -2
100
AcDbLine
 10
18.53531532850779
 20
24.63960056034826
 30
0.0
 11
-38.36068467149222
 21
24.63960056034826
 31
0.0
  0
SOLID
  5
2D2
330
2CC
100
AcDbEntity
  8
치수문자_일반주서
 62
     0
100
AcDbTrace
 10
18.53531532850779
 20
24.08926722701492
 30
0.0
 11
18.53531532850779
 21
25.18993389368159
 31
0.0
 12
21.83731532850778
 22
24.63960056034826
 32
0.0
 13
21.83731532850778
 23
24.63960056034826
 33
0.0
  0
SOLID
  5
2D3
330
2CC
100
AcDbEntity
  8
치수문자_일반주서
 62
     0
100
AcDbTrace
 10
-38.36068467149222
 20
25.18993389368159
 30
0.0
 11
-38.36068467149222
 21
24.08926722701492
 31
0.0
 12
-41.66268467149222
 22
24.63960056034826
 32
0.0
 13
-41.66268467149222
 23
24.63960056034826
 33
0.0
  0
MTEXT
  5
2D4
330
2CC
100
AcDbEntity
  8
치수문자_일반주서
 62
     0
100
AcDbMText
 10
-10.19842547390665
 20
29.01460056034826
 30
0.0
 40
3.5
 41
0.0
 71
     2
 72
     1
  1
\A1;63.5 [2 1/2]
  7
SLDTEXTSTYLE0
 73
     1
 44
1.0
  0
POINT
  5
2D5
330
2CC
100
AcDbEntity
  8
Defpoints
 62
     0
100
AcDbPoint
 10
21.83731532850778
 20
2.381250000000001
 30
0.0
  0
POINT
  5
2D6
330
2CC
100
AcDbEntity
  8
Defpoints
 62
     0
100
AcDbPoint
 10
-41.66268467149222
 20
2.364999999999995
 30
0.0
  0
POINT
  5
2D7
330
2CC
100
AcDbEntity
  8
Defpoints
 62
     0
100
AcDbPoint
 10
-41.66268467149222
 20
24.63960056034826
 30
0.0
  0
ENDBLK
  5
2CE
330
2CC
100
AcDbEntity
  8
0
100
AcDbBlockEnd
  0
BLOCK
  5
2D9
330
2D8
100
AcDbEntity
  8
0
100
AcDbBlockBegin
  2
*D17
 70
     1
 10
0.0
 20
0.0
 30
0.0
  3
*D17
  1
*D17
  0
LINE
  5
2DB
330
2D8
100
AcDbEntity
  8
치수문자_일반주서
 62
     0
370
    -2
100
AcDbLine
 10
136.8465014414718
 20
-21.35625369933078
 30
0.0
 11
154.4532673902132
 21
-46.7061876849695
 31
0.0
  0
MTEXT
  5
2DC
330
2D8
100
AcDbEntity
  8
치수문자_일반주서
 62
     0
100
AcDbMText
 10
148.7476941096225
 20
-33.8897954429105
 30
0.0
 40
3.5
 41
0.0
 71
     5
 72
     1
  1
\A1;R.25 [R0.010]
  7
SLDTEXTSTYLE0
 11
0.5704536262936826
 21
-0.8213298121025362
 31
0.0
 73
     1
 44
1.0
  0
LINE
  5
2DD
330
2D8
100
AcDbEntity
  8
치수문자_일반주서
 62
     0
370
    -2
100
AcDbLine
 10
134.8179683463715
 20
-18.43560488749415
 30
0.0
 11
134.9628635674501
 21
-18.6442226597682
 31
0.0
  0
SOLID
  5
2DE
330
2D8
100
AcDbEntity
  8
치수문자_일반주서
 62
     0
100
AcDbTrace
 10
137.2985066147322
 20
-21.04231405366049
 30
0.0
 11
136.3944962682114
 21
-21.67019334500106
 31
0.0
 12
134.9628635674501
 22
-18.6442226597682
 32
0.0
 13
134.9628635674501
 23
-18.6442226597682
 33
0.0
  0
POINT
  5
2DF
330
2D8
100
AcDbEntity
  8
Defpoints
 62
     0
100
AcDbPoint
 10
134.9628635674501
 20
-18.6442226597682
 30
0.0
  0
POINT
  5
2E0
330
2D8
100
AcDbEntity
  8
Defpoints
 62
     0
100
AcDbPoint
 10
134.8179683463715
 20
-18.43560488749415
 30
0.0
  0
ENDBLK
  5
2DA
330
2D8
100
AcDbEntity
  8
0
100
AcDbBlockEnd
  0
BLOCK
  5
2EC
330
2EB
100
AcDbEntity
  8
0
100
AcDbBlockBegin
  2
*D18
 70
     1
 10
0.0
 20
0.0
 30
0.0
  3
*D18
  1
*D18
  0
LINE
  5
2EE
330
2EB
100
AcDbEntity
  8
치수문자_일반주서
 62
     0
370
    -2
100
AcDbLine
 10
23.09958870583892
 20
-5.247006388584181
 30
0.0
 11
37.44042929760716
 21
-32.57753238739167
 31
0.0
  0
MTEXT
  5
2EF
330
2EB
100
AcDbEntity
  8
치수문자_일반주서
 62
     0
100
AcDbMText
 10
33.3615659219349
 20
-19.15455395020794
 30
0.0
 40
3.5
 41
0.0
 71
     5
 72
     1
  1
\A1;R.51 [R0.020]
  7
SLDTEXTSTYLE0
 11
0.4646386817142104
 21
-0.8855003644577911
 31
0.0
 73
     1
 44
1.0
  0
LINE
  5
2F0
330
2EB
100
AcDbEntity
  8
치수문자_일반주서
 62
     0
370
    -2
100
AcDbLine
 10
21.32931532850778
 20
-1.873249999999995
 30
0.0
 11
21.5653517788186
 21
-2.323084185144555
 31
0.0
  0
SOLID
  5
2F1
330
2EB
100
AcDbEntity
  8
치수문자_일반주서
 62
     0
100
AcDbTrace
 10
23.58690907307886
 20
-4.991300234080794
 30
0.0
 11
22.61226833859898
 21
-5.502712543087568
 31
0.0
 12
21.5653517788186
 22
-2.323084185144555
 32
0.0
 13
21.5653517788186
 23
-2.323084185144555
 33
0.0
  0
POINT
  5
2F2
330
2EB
100
AcDbEntity
  8
Defpoints
 62
     0
100
AcDbPoint
 10
21.5653517788186
 20
-2.323084185144555
 30
0.0
  0
POINT
  5
2F3
330
2EB
100
AcDbEntity
  8
Defpoints
 62
     0
100
AcDbPoint
 10
21.32931532850778
 20
-1.873249999999995
 30
0.0
  0
ENDBLK
  5
2ED
330
2EB
100
AcDbEntity
  8
0
100
AcDbBlockEnd
  0
ENDSEC
  0
SECTION
  2
ENTITIES
  0
LINE
  5
D7
330
1F
100
AcDbEntity
  8
참조1
100
AcDbLine
 10
-5.875000000000005
 20
0.0010749287238892
 30
0.0
 11
-5.874999999999993
 21
-39.99892507127611
 31
0.0
  0
LINE
  5
D8
330
1F
100
AcDbEntity
  8
참조1
100
AcDbLine
 10
-5.874999999999993
 20
-39.99892507127611
 30
0.0
 11
-14.66672777521594
 21
-39.9989250712761
 31
0.0
  0
INSERT
  5
DA
330
1F
100
AcDbEntity
  8
0
  6
Continuous
 62
     7
100
AcDbBlockReference
 66
     1
  2
블럭10
 10
-19.8152729321252
 20
-52.04609937292004
 30
0.0
  0
ATTRIB
  5
DB
330
DA
100
AcDbEntity
  8
FORMAT
 62
     2
100
AcDbText
 10
-29.95690894426183
 20
-49.97073246008785
 30
0.0
 40
4.233333333333333
  1
EM637903 [ 2 FLUTE ]
 41
0.75
  7
SLDTEXTSTYLE0
 11
-29.95690894426183
 21
-52.08739912675452
 31
0.0
100
AcDbAttribute
  2
AUTOATTR0
 70
     0
 74
     1
  0
SEQEND
  5
DC
330
DA
100
AcDbEntity
  8
0
  6
Continuous
 62
     7
  0
HATCH
  5
DD
330
1F
100
AcDbEntity
  8
중심선
100
AcDbHatch
 10
0.0
 20
0.0
 30
0.0
210
0.0
220
0.0
230
1.0
  2
SOLID
 70
     1
 71
     0
 91
        1
 92
        0
 93
        4
 72
     1
 10
-14.10036362774436
 20
-35.7989250712761
 11
-17.54663887158164
 21
-35.7989250712761
 72
     1
 10
-17.54663887158164
 20
-35.7989250712761
 11
-19.67486873078566
 21
-38.3352506518487
 72
     1
 10
-19.67486873078566
 20
-38.3352506518487
 11
-16.22856040183524
 21
-38.33521122254621
 72
     1
 10
-16.22856040183524
 20
-38.33521122254621
 11
-14.10036362774436
 21
-35.7989250712761
 97
        0
 75
     0
 76
     1
 98
        1
 10
0.0
 20
0.0
  0
HATCH
  5
DE
330
1F
100
AcDbEntity
  8
중심선
100
AcDbHatch
 10
0.0
 20
0.0
 30
0.0
210
0.0
220
0.0
230
1.0
  2
SOLID
 70
     1
 71
     0
 91
        1
 92
        0
 93
        4
 72
     1
 10
-9.087599636708383
 20
-35.7989250712761
 11
-12.53387488054564
 21
-35.7989250712761
 72
     1
 10
-12.53387488054564
 20
-35.7989250712761
 11
-17.06501288890308
 21
-41.19892507127612
 72
     1
 10
-17.06501288890308
 20
-41.19892507127612
 11
-13.6187376450658
 21
-41.19892507127612
 72
     1
 10
-13.6187376450658
 20
-41.19892507127612
 11
-9.087599636708383
 21
-35.7989250712761
 97
        0
 75
     0
 76
     1
 98
        1
 10
0.0
 20
0.0
  0
HATCH
  5
DF
330
1F
100
AcDbEntity
  8
중심선
100
AcDbHatch
 10
0.0
 20
0.0
 30
0.0
210
0.0
220
0.0
230
1.0
  2
SOLID
 70
     1
 71
     0
 91
        1
 92
        0
 93
        4
 72
     1
 10
-4.074835645672515
 20
-35.79892507127613
 11
-7.521110889509602
 21
-35.7989250712761
 72
     1
 10
-7.521110889509602
 20
-35.7989250712761
 11
-14.56954779139888
 21
-44.19892507127612
 72
     1
 10
-14.56954779139888
 20
-44.19892507127612
 11
-11.1232725475616
 21
-44.19892507127612
 72
     1
 10
-11.1232725475616
 20
-44.19892507127612
 11
-4.074835645672515
 21
-35.79892507127613
 97
        0
 75
     0
 76
     1
 98
        1
 10
0.0
 20
0.0
  0
HATCH
  5
E0
330
1F
100
AcDbEntity
  8
중심선
100
AcDbHatch
 10
0.0
 20
0.0
 30
0.0
210
0.0
220
0.0
230
1.0
  2
SOLID
 70
     1
 71
     0
 91
        1
 92
        0
 93
        6
 72
     3
 10
0.7250547853396849
 20
-39.99892507132738
 11
3.960054785062283
 21
1.540882976769353E-10
 40
0.3939339440162628
 50
17.09539180608437
 51
320.0019657685086
 73
     0
 72
     1
 10
2.408054441040281
 20
-38.58681907591443
 11
4.713356314741318
 21
-36.65249236586649
 72
     3
 10
0.7250547852868383
 20
-39.99892507127625
 11
6.600054785286829
 21
-1.278976924368180E-13
 40
0.636358354079598
 50
39.9987384933741
 51
368.4976242363725
 73
     1
 72
     1
 10
7.150387277187447
 20
-39.03892507120613
 11
-0.5948779078772395
 21
-39.03892507120613
 72
     1
 10
-0.5948779078772393
 20
-39.03892507120613
 11
-0.594902952323173
 21
-40.95892507120602
 72
     1
 10
-0.594902952323173
 20
-40.95892507120602
 11
3.846476817148865
 21
-40.95892507120599
 97
        0
 75
     0
 76
     1
 98
        1
 10
0.0
 20
0.0
  0
LINE
  5
133
330
1F
100
AcDbEntity
  8
참조1
100
AcDbLine
 10
83.30561285443832
 20
7.441074928723896
 30
0.0
 11
83.30561285443832
 21
-7.438925071276109
 31
0.0
  0
LINE
  5
134
330
1F
100
AcDbEntity
  8
참조1
100
AcDbLine
 10
96.00561285443833
 20
5.441074928723896
 30
0.0
 11
83.30561285443832
 21
5.441074928723896
 31
0.0
  0
SOLID
  5
135
330
1F
100
AcDbEntity
  8
참조1
100
AcDbTrace
 10
83.30561285443832
 20
5.441074928723896
 30
0.0
 11
89.65561285443832
 21
4.425074928723896
 31
0.0
 12
89.65561285443832
 22
6.457074928723896
 32
0.0
 13
89.65561285443832
 23
6.457074928723896
 33
0.0
  0
LINE
  5
136
330
1F
100
AcDbEntity
  8
참조1
100
AcDbLine
 10
96.00561285443833
 20
-5.438925071276109
 30
0.0
 11
83.30561285443832
 21
-5.438925071276109
 31
0.0
  0
SOLID
  5
137
330
1F
100
AcDbEntity
  8
참조1
100
AcDbTrace
 10
83.30561285443832
 20
-5.438925071276109
 30
0.0
 11
89.65561285443832
 21
-6.454925071276109
 31
0.0
 12
89.65561285443832
 22
-4.422925071276109
 32
0.0
 13
89.65561285443832
 23
-4.422925071276109
 33
0.0
  0
MTEXT
  5
138
330
1F
100
AcDbEntity
  8
참조1
100
AcDbMText
 10
92.7031029469086
 20
10.98929157337383
 30
0.0
 40
3.5
 41
0.0
 71
     1
 72
     1
  1
A
  7
SLDTEXTSTYLE0
 73
     1
 44
1.0
  0
MTEXT
  5
139
330
1F
100
AcDbEntity
  8
참조1
100
AcDbMText
 10
92.7031029469086
 20
0.1092915733738251
 30
0.0
 40
3.5
 41
0.0
 71
     1
 72
     1
  1
A
  7
SLDTEXTSTYLE0
 73
     1
 44
1.0
  0
LINE
  5
259
330
1F
100
AcDbEntity
  8
외형선
  6
Continuous
370
    15
100
AcDbLine
 10
1.999999999999986
 20
3.174999999999997
 30
0.0
 11
-40.85268467149221
 21
3.174999999999997
 31
0.0
  0
LINE
  5
25A
330
1F
100
AcDbEntity
  8
외형선
  6
Continuous
370
    15
100
AcDbLine
 10
-40.85268467149221
 20
-3.175000000000001
 30
0.0
 11
1.999999999999986
 21
-3.175000000000001
 31
0.0
  0
LINE
  5
25B
330
1F
100
AcDbEntity
  8
외형선
  6
Continuous
370
    15
100
AcDbLine
 10
1.999999999999986
 20
-3.175000000000001
 30
0.0
 11
4.962315328507785
 21
-2.381250000000001
 31
0.0
  0
LINE
  5
25C
330
1F
100
AcDbEntity
  8
외형선
  6
Continuous
370
    15
100
AcDbLine
 10
4.962315328507785
 20
2.381250000000001
 30
0.0
 11
1.999999999999986
 21
3.174999999999997
 31
0.0
  0
LINE
  5
25D
330
1F
100
AcDbEntity
  8
외형선
  6
Continuous
370
    15
100
AcDbLine
 10
-40.85268467149221
 20
3.17499999999999
 30
0.0
 11
-41.66268467149222
 21
2.364999999999995
 31
0.0
  0
LINE
  5
25E
330
1F
100
AcDbEntity
  8
외형선
  6
Continuous
370
    15
100
AcDbLine
 10
-41.66268467149222
 20
-2.365000000000002
 30
0.0
 11
-40.85268467149221
 21
-3.175000000000001
 31
0.0
  0
LINE
  5
25F
330
1F
100
AcDbEntity
  8
외형선
  6
Continuous
370
    15
100
AcDbLine
 10
5.07242278406855
 20
2.381250000000001
 30
0.0
 11
4.962315328507785
 21
2.381250000000001
 31
0.0
  0
LINE
  5
260
330
1F
100
AcDbEntity
  8
외형선
  6
Continuous
370
    15
100
AcDbLine
 10
4.962315328507785
 20
-2.381250000000001
 30
0.0
 11
5.07242278406855
 21
-2.381250000000001
 31
0.0
  0
ARC
  5
261
330
1F
100
AcDbEntity
  8
외형선
  6
Continuous
370
    15
100
AcDbCircle
 10
5.422422784068544
 20
-1.958816774695968
 30
0.0
 40
0.3500000000000016
100
AcDbArc
 50
94.09817228917146
 51
179.9999734650192
  0
SPLINE
  5
262
330
1F
100
AcDbEntity
  8
외형선
  6
Continuous
370
    15
100
AcDbSpline
210
0.0
220
0.0
230
1.0
 70
     8
 71
     3
 72
     9
 73
     5
 74
     0
 42
0.000000001
 43
0.00000001
 40
0.0
 40
0.0
 40
0.0
 40
0.0
 40
0.4394289042056703
 40
1.0
 40
1.0
 40
1.0
 40
1.0
 10
5.962315328507785
 20
1.578673064322125
 30
0.0
 10
5.831965132868802
 20
1.584368305454117
 30
0.0
 10
5.535329671724966
 20
1.597328857382962
 30
0.0
 10
5.238720453936594
 20
1.622296715200505
 30
0.0
 10
5.07244989969827
 20
1.636292974616921
 30
0.0
  0
LINE
  5
263
330
1F
100
AcDbEntity
  8
외형선
  6
Continuous
370
    15
100
AcDbLine
 10
5.397219792654553
 20
-1.609989896833589
 30
0.0
 11
5.60243436943091
 21
-1.596580177738588
 31
0.0
  0
SPLINE
  5
264
330
1F
100
AcDbEntity
  8
0
  6
Continuous
 62
     1
370
    15
100
AcDbSpline
210
0.0
220
0.0
230
1.0
 70
     8
 71
     3
 72
     9
 73
     5
 74
     0
 42
0.000000001
 43
0.00000001
 40
0.0
 40
0.0
 40
0.0
 40
0.0
 40
0.4991394354925562
 40
1.0
 40
1.0
 40
1.0
 40
1.0
 10
15.66881708823614
 20
0.6101797778129452
 30
0.0
 10
15.55865168752082
 20
0.6625645396227746
 30
0.0
 10
15.3379410145471
 20
0.767514696001701
 30
0.0
 10
15.11718497671463
 20
0.8828831109562003
 30
0.0
 10
15.00661698298744
 20
0.9406666003966393
 30
0.0
  0
LINE
  5
265
330
1F
100
AcDbEntity
  8
0
  6
Continuous
 62
     1
370
    15
100
AcDbLine
 10
10.20398731838966
 20
2.381250000000001
 30
0.0
 11
9.049149489254049
 21
2.381250000000001
 31
0.0
  0
LINE
  5
266
330
1F
100
AcDbEntity
  8
0
  6
Continuous
 62
     1
370
    15
100
AcDbLine
 10
9.04914948925402
 20
-2.381250000000001
 30
0.0
 11
10.20398731838966
 21
-2.381250000000001
 31
0.0
  0
SPLINE
  5
267
330
1F
100
AcDbEntity
  8
0
  6
Continuous
 62
     1
370
    15
100
AcDbSpline
210
0.0
220
0.0
230
1.0
 70
     8
 71
     3
 72
    13
 73
     9
 74
     0
 42
0.000000001
 43
0.00000001
 40
0.0
 40
0.0
 40
0.0
 40
0.0
 40
0.2545157402776541
 40
0.4466233573974026
 40
0.5793664980200982
 40
0.7178199171476023
 40
0.8826816502562607
 40
1.0
 40
1.0
 40
1.0
 40
1.0
 10
14.88033614748407
 20
1.89223371288319
 30
0.0
 10
14.71660343104161
 20
1.884427157290446
 30
0.0
 10
14.42928581581845
 20
1.870728240026097
 30
0.0
 10
14.0554575144389
 20
1.862179375216009
 30
0.0
 10
13.75272096476286
 20
1.859210554502909
 30
0.0
 10
13.4686902227044
 20
1.860005714327308
 30
0.0
 10
13.19565899400511
 20
1.863554565589745
 30
0.0
 10
13.01278178142385
 20
1.869854402467432
 30
0.0
 10
12.93674929688811
 20
1.872473603860648
 30
0.0
  0
SPLINE
  5
268
330
1F
100
AcDbEntity
  8
0
  6
Continuous
 62
     1
370
    15
100
AcDbSpline
210
0.0
220
0.0
230
1.0
 70
     8
 71
     3
 72
    19
 73
    15
 74
     0
 42
0.000000001
 43
0.00000001
 40
0.0
 40
0.0
 40
0.0
 40
0.0
 40
0.1136914366606704
 40
0.2048043155449553
 40
0.2831321150713141
 40
0.3323080285396717
 40
0.3852962533671055
 40
0.4485354752891291
 40
0.520950453427559
 40
0.6104243180648493
 40
0.6855658457438034
 40
0.7576082874411503
 40
0.8618690555760832
 40
1.0
 40
1.0
 40
1.0
 40
1.0
 10
11.29907758113846
 20
-1.981527947869164
 30
0.0
 10
11.43488064316334
 20
-1.96851547613268
 30
0.0
 10
11.67951694985304
 20
-1.94507474527542
 30
0.0
 10
12.01736617182017
 20
-1.919159470932879
 30
0.0
 10
12.27798026674866
 20
-1.902058777595268
 30
0.0
 10
12.4934969361336
 20
-1.88996712759883
 30
0.0
 10
12.69106836301357
 20
-1.880501317758142
 30
0.0
 10
12.91639059664692
 20
-1.871778519071736
 30
0.0
 10
13.18520096181715
 20
-1.864230580960559
 30
0.0
 10
13.46869029925602
 20
-1.859875857275302
 30
0.0
 10
13.75272094689799
 20
-1.859240859241467
 30
0.0
 10
14.05545752145841
 20
-1.862167467805264
 30
0.0
 10
14.42928581303708
 20
-1.870732958152846
 30
0.0
 10
14.71660343003195
 20
-1.884428869985584
 30
0.0
 10
14.88033614748407
 20
-1.89223371288319
 30
0.0
  0
SPLINE
  5
269
330
1F
100
AcDbEntity
  8
0
  6
Continuous
 62
     1
370
    15
100
AcDbSpline
210
0.0
220
0.0
230
1.0
 70
     8
 71
     3
 72
    13
 73
     9
 74
     0
 42
0.000000001
 43
0.00000001
 40
0.0
 40
0.0
 40
0.0
 40
0.0
 40
0.3021382312052334
 40
0.5145125815987255
 40
0.6471073577585746
 40
0.7658021183742959
 40
0.990103430312738
 40
1.0
 40
1.0
 40
1.0
 40
1.0
 10
16.79326942380267
 20
-1.791027609460212
 30
0.0
 10
16.9718735022724
 20
-1.764130047866352
 30
0.0
 10
17.27601920780246
 20
-1.718326066691365
 30
0.0
 10
17.65758970237589
 20
-1.673233961804591
 30
0.0
 10
17.93126885319766
 20
-1.644987498121377
 30
0.0
 10
18.21190106719082
 20
-1.620083766943004
 30
0.0
 10
18.4199004921452
 20
-1.603173269231565
 30
0.0
 10
18.55812726382105
 20
-1.596408940919396
 30
0.0
 10
18.56396835371068
 20
-1.59612309868178
 30
0.0
  0
SPLINE
  5
26A
330
1F
100
AcDbEntity
  8
0
  6
Continuous
 62
     1
370
    15
100
AcDbSpline
210
0.0
220
0.0
230
1.0
 70
     8
 71
     3
 72
     9
 73
     5
 74
     0
 42
0.000000001
 43
0.00000001
 40
0.0
 40
0.0
 40
0.0
 40
0.0
 40
0.5296170233539608
 40
1.0
 40
1.0
 40
1.0
 40
1.0
 10
7.994417094231238
 20
1.628664640186365
 30
0.0
 10
7.635448812889138
 20
1.603400225421602
 30
0.0
 10
6.957660400672282
 20
1.555697048124216
 30
0.0
 10
6.28073126856161
 20
1.571322920135866
 30
0.0
 10
5.962315328420985
 20
1.5786730643254
 30
0.0
  0
SPLINE
  5
26B
330
1F
100
AcDbEntity
  8
0
  6
Continuous
 62
     1
370
    15
100
AcDbSpline
210
0.0
220
0.0
230
1.0
 70
     8
 71
     3
 72
    20
 73
    16
 74
     0
 42
0.000000001
 43
0.00000001
 40
0.0
 40
0.0
 40
0.0
 40
0.0
 40
0.1280794919035092
 40
0.2184618212679009
 40
0.2749489897472929
 40
0.3253824935870797
 40
0.5116876304189535
 40
0.5560653504704711
 40
0.6009292000524367
 40
0.6460627984461288
 40
0.6909743218349915
 40
0.73558723040571
 40
0.7956304903268917
 40
0.8839990207815727
 40
1.0
 40
1.0
 40
1.0
 40
1.0
 10
20.95171836780266
 20
1.628662238701096
 30
0.0
 10
20.77387770407982
 20
1.614871032971486
 30
0.0
 10
20.47053956059581
 20
1.591347736022108
 30
0.0
 10
20.08983504673255
 20
1.575676050201061
 30
0.0
 10
19.81634756051945
 20
1.56898570224984
 30
0.0
 10
19.41016172684091
 20
1.564723304754551
 30
0.0
 10
19.02042986753979
 20
1.572554406534582
 30
0.0
 10
18.6382890560544
 20
1.591344700046243
 30
0.0
 10
18.45212222886899
 20
1.60259980253587
 30
0.0
 10
18.26545290887525
 20
1.61607293786701
 30
0.0
 10
18.07902209299512
 20
1.631559388299564
 30
0.0
 10
17.87168290787658
 20
1.650925702367836
 30
0.0
 10
17.60431143178174
 20
1.679218295535797
 30
0.0
 10
17.23806669033424
 20
1.723753749886413
 30
0.0
 10
16.95432332939136
 20
1.766668831554782
 30
0.0
 10
16.79326942380267
 20
1.791027609460208
 30
0.0
  0
LINE
  5
26C
330
1F
100
AcDbEntity
  8
외형선
  6
Continuous
370
    15
100
AcDbLine
 10
1.999999999999986
 20
3.174999999999997
 30
0.0
 11
1.999999999999986
 21
-3.175000000000001
 31
0.0
  0
LINE
  5
26D
330
1F
100
AcDbEntity
  8
외형선
  6
Continuous
370
    15
100
AcDbLine
 10
-40.85268467149221
 20
3.17499999999999
 30
0.0
 11
-40.85268467149221
 21
-3.175000000000001
 31
0.0
  0
LINE
  5
26E
330
1F
100
AcDbEntity
  8
외형선
  6
Continuous
370
    15
100
AcDbLine
 10
4.962315328507785
 20
2.381250000000001
 30
0.0
 11
4.962315328507785
 21
-2.381250000000005
 31
0.0
  0
LINE
  5
26F
330
1F
100
AcDbEntity
  8
외형선
  6
Continuous
370
    15
100
AcDbLine
 10
-41.66268467149222
 20
2.364999999999995
 30
0.0
 11
-41.66268467149222
 21
-2.365000000000006
 31
0.0
  0
LINE
  5
270
330
1F
100
AcDbEntity
  8
외형선
  6
Continuous
370
    15
100
AcDbLine
 10
5.602327593651779
 20
1.596536234416511
 30
0.0
 11
5.962315328507785
 21
1.744688344419629
 31
0.0
  0
SPLINE
  5
271
330
1F
100
AcDbEntity
  8
외형선
  6
Continuous
370
    15
100
AcDbSpline
210
0.0
220
0.0
230
1.0
 70
     8
 71
     3
 72
    10
 73
     6
 74
     0
 42
0.000000001
 43
0.00000001
 40
0.0
 40
0.0
 40
0.0
 40
0.0
 40
0.5
 40
0.5
 40
1.0
 40
1.0
 40
1.0
 40
1.0
 10
5.962315328507785
 20
-1.229245414035237
 30
0.0
 10
5.813095689643106
 20
-1.155708868752455
 30
0.0
 10
5.66379870706416
 20
-1.079756180507179
 30
0.0
 10
5.367650715539583
 20
-0.9243779258385914
 30
0.0
 10
5.22110970543595
 20
-0.8450202195212775
 30
0.0
 10
5.072535329872395
 20
-0.763813115337701
 30
0.0
  0
LINE
  5
272
330
1F
100
AcDbEntity
  8
외형선
  6
Continuous
370
    15
100
AcDbLine
 10
5.962315328507785
 20
-1.229245414035237
 30
0.0
 11
5.962315328507785
 21
-1.744688344419632
 31
0.0
  0
SPLINE
  5
273
330
1F
100
AcDbEntity
  8
외형선
  6
Continuous
370
    15
100
AcDbSpline
210
0.0
220
0.0
230
1.0
 70
     8
 71
     3
 72
    10
 73
     6
 74
     0
 42
0.000000001
 43
0.00000001
 40
0.0
 40
0.0
 40
0.0
 40
0.0
 40
0.5000000000000001
 40
0.5000000000000001
 40
1.0
 40
1.0
 40
1.0
 40
1.0
 10
5.962315328507785
 20
-1.744688344419629
 30
0.0
 10
5.813076850573552
 20
-1.68624579525056
 30
0.0
 10
5.663761010257033
 20
-1.624380554989827
 30
0.0
 10
5.36757624587483
 20
-1.49493449842069
 30
0.0
 10
5.221016381482187
 20
-1.427420337298457
 30
0.0
 10
5.07242278406855
 20
-1.35695674783274
 30
0.0
  0
LINE
  5
274
330
1F
100
AcDbEntity
  8
외형선
  6
Continuous
370
    15
100
AcDbLine
 10
5.07242278406855
 20
-2.381250000000001
 30
0.0
 11
5.07242278406855
 21
-1.356433411745577
 31
0.0
  0
LINE
  5
275
330
1F
100
AcDbEntity
  8
외형선
  6
Continuous
370
    15
100
AcDbLine
 10
5.07242278406855
 20
-0.763716453473652
 30
0.0
 11
5.07242278406855
 21
2.381250000000001
 31
0.0
  0
SPLINE
  5
276
330
1F
100
AcDbEntity
  8
외형선
  6
Continuous
370
    15
100
AcDbSpline
210
0.0
220
0.0
230
1.0
 70
    24
 71
     3
 72
     8
 73
     4
 74
     0
 42
0.000000001
 43
0.00000001
 40
0.0
 40
0.0
 40
0.0
 40
0.0
 40
1.0
 40
1.0
 40
1.0
 40
1.0
 10
5.962315328507785
 20
-0.9384762892963892
 30
0.0
 10
5.962315328507785
 20
-1.028328423828132
 30
0.0
 10
5.962315328507785
 20
-1.125843016892478
 30
0.0
 10
5.962315328507785
 20
-1.229245414027773
 30
0.0
  0
SPLINE
  5
277
330
1F
100
AcDbEntity
  8
외형선
  6
Continuous
370
    15
100
AcDbSpline
210
0.0
220
0.0
230
1.0
 70
     8
 71
     3
 72
    10
 73
     6
 74
     0
 42
0.000000001
 43
0.00000001
 40
0.0
 40
0.0
 40
0.0
 40
0.0
 40
0.5
 40
0.5
 40
1.0
 40
1.0
 40
1.0
 40
1.0
 10
5.962315328507785
 20
-0.9384762892963892
 30
0.0
 10
5.813095689643106
 20
-0.8738131325971494
 30
0.0
 10
5.66379870706416
 20
-0.8073039727389109
 30
0.0
 10
5.367650715539583
 20
-0.6717799071831045
 30
0.0
 10
5.22110970543595
 20
-0.6028222870446136
 30
0.0
 10
5.072535329872395
 20
-0.5325128164481683
 30
0.0
  0
SPLINE
  5
278
330
1F
100
AcDbEntity
  8
외형선
  6
Continuous
370
    15
100
AcDbSpline
210
0.0
220
0.0
230
1.0
 70
     8
 71
     3
 72
    10
 73
     6
 74
     0
 42
0.000000001
 43
0.00000001
 40
0.0
 40
0.0
 40
0.0
 40
0.0
 40
0.5000000000000001
 40
0.5000000000000001
 40
1.0
 40
1.0
 40
1.0
 40
1.0
 10
5.962315328507785
 20
1.238028532461982
 30
0.0
 10
5.813083730054089
 20
1.290238727553216
 30
0.0
 10
5.663774776035325
 20
1.340035597225111
 30
0.0
 10
5.367603440004245
 20
1.433972435884627
 30
0.0
 10
5.221050460723333
 20
1.478099652857516
 30
0.0
 10
5.07246388256506
 20
1.519473398167037
 30
0.0
  0
SPLINE
  5
279
330
1F
100
AcDbEntity
  8
외형선
  6
Continuous
370
    15
100
AcDbSpline
210
0.0
220
0.0
230
1.0
 70
    24
 71
     3
 72
    10
 73
     6
 74
     0
 42
0.000000001
 43
0.00000001
 40
0.0
 40
0.0
 40
0.0
 40
0.0
 40
0.5
 40
0.5
 40
1.0
 40
1.0
 40
1.0
 40
1.0
 10
5.962315328507785
 20
1.238028532461982
 30
0.0
 10
5.962315328507785
 20
0.9331570256875921
 30
0.0
 10
5.962315328507785
 20
0.5682748163401925
 30
0.0
 10
5.962315328507785
 20
-0.192521470202923
 30
0.0
 10
5.962315328507785
 20
-0.585160782765211
 30
0.0
 10
5.962315328507785
 20
-0.9384762892963856
 30
0.0
  0
SPLINE
  5
27A
330
1F
100
AcDbEntity
  8
외형선
  6
Continuous
370
    15
100
AcDbSpline
210
0.0
220
0.0
230
1.0
 70
    24
 71
     3
 72
    11
 73
     7
 74
     0
 42
0.000000001
 43
0.00000001
 40
0.0
 40
0.0
 40
0.0
 40
0.0
 40
0.0183655963260562
 40
0.3509886999257436
 40
0.6754943499628717
 40
1.0
 40
1.0
 40
1.0
 40
1.0
 10
5.962315328507785
 20
1.576734282381111
 30
0.0
 10
5.962315328507785
 20
1.577363284643059
 30
0.0
 10
5.962315328507785
 20
1.589384276624639
 30
0.0
 10
5.962315328507785
 20
1.542675130993825
 30
0.0
 10
5.962315328507785
 20
1.436146427025498
 30
0.0
 10
5.962315328507785
 20
1.304067830649821
 30
0.0
 10
5.962315328507785
 20
1.238028532461982
 30
0.0
  0
SPLINE
  5
27B
330
1F
100
AcDbEntity
  8
외형선
  6
Continuous
370
    15
100
AcDbSpline
210
0.0
220
0.0
230
1.0
 70
    24
 71
     3
 72
     9
 73
     5
 74
     0
 42
0.000000001
 43
0.00000001
 40
0.0
 40
0.0
 40
0.0
 40
0.0
 40
0.4085494470692168
 40
1.0
 40
1.0
 40
1.0
 40
1.0
 10
5.962315328507785
 20
1.744688344419629
 30
0.0
 10
5.962315328507785
 20
1.726213679047142
 30
0.0
 10
5.962315328507785
 20
1.680993533713398
 30
0.0
 10
5.962315328507785
 20
1.644121882209042
 30
0.0
 10
5.962315328507785
 20
1.622314123539319
 30
0.0
  0
SPLINE
  5
27C
330
1F
100
AcDbEntity
  8
0
  6
Continuous
 62
     1
370
    15
100
AcDbSpline
210
0.0
220
0.0
230
1.0
 70
     8
 71
     3
 72
    13
 73
     9
 74
     0
 42
0.000000001
 43
0.00000001
 40
0.0
 40
0.0
 40
0.0
 40
0.0
 40
0.1694265036427227
 40
0.3387568975966112
 40
0.5080180891542605
 40
0.6772373153528743
 40
0.84644201391366
 40
0.9999999999999999
 40
0.9999999999999999
 40
0.9999999999999999
 40
0.9999999999999999
 10
21.83731532850778
 20
-1.878740204526814
 30
0.0
 10
21.487712096359
 20
-1.803211769013025
 30
0.0
 10
20.78870394966309
 20
-1.652197742607033
 30
0.0
 10
19.74055188125355
 20
-1.287256117001746
 30
0.0
 10
18.69288329345842
 20
-0.8481435278045275
 30
0.0
 10
17.64551403766195
 20
-0.3532165622142536
 30
0.0
 10
16.63055626190827
 20
0.1510691163228799
 30
0.0
 10
15.96468353112733
 20
0.4678431885488941
 30
0.0
 10
15.64788707232874
 20
0.618552024759552
 30
0.0
  0
SPLINE
  5
27E
330
1F
100
AcDbEntity
  8
0
  6
Continuous
 62
     1
370
    15
100
AcDbSpline
210
0.0
220
0.0
230
1.0
 70
     8
 71
     3
 72
     8
 73
     4
 74
     0
 42
0.000000001
 43
0.00000001
 40
0.0
 40
0.0
 40
0.0
 40
0.0
 40
0.3947770716146444
 40
0.3947770716146444
 40
0.3947770716146444
 40
0.3947770716146444
 10
21.58331532850779
 20
-2.208984327266787
 30
0.0
 10
21.63113610494635
 20
-2.219293363473408
 30
0.0
 10
21.68205321044807
 20
-2.214026196981312
 30
0.0
 10
21.72575652352027
 20
-2.190895051743386
 30
0.0
  0
SPLINE
  5
27F
330
1F
100
AcDbEntity
  8
0
  6
Continuous
 62
     1
370
    15
100
AcDbSpline
210
0.0
220
0.0
230
1.0
 70
     8
 71
     3
 72
    19
 73
    15
 74
     0
 42
0.000000001
 43
0.00000001
 40
0.0
 40
0.0
 40
0.0
 40
0.0
 40
0.0861412641023178
 40
0.1723414359806176
 40
0.258440430188754
 40
0.3444758477767217
 40
0.4304981983777116
 40
0.5150230827766361
 40
0.5996571684621065
 40
0.6843046593076394
 40
0.7688372161741994
 40
0.8550499471372988
 40
0.9412697603864074
 40
1.0
 40
1.0
 40
1.0
 40
1.0
 10
21.58331532850777
 20
-2.20898432726678
 30
0.0
 10
21.2565505691269
 20
-2.1264864315655
 30
0.0
 10
20.6027975920094
 20
-1.961434223907503
 30
0.0
 10
19.6221423031749
 20
-1.570797507916893
 30
0.0
 10
18.64227861605001
 20
-1.100565274176763
 30
0.0
 10
17.66320428386176
 20
-0.5662840768439779
 30
0.0
 10
16.69011890218185
 20
-0.0042410325379016
 30
0.0
 10
15.72233557795342
 20
0.5548245813983641
 30
0.0
 10
14.75941185486805
 20
1.080277014005514
 30
0.0
 10
13.79640054776051
 20
1.546824092461868
 30
0.0
 10
12.82780833069313
 20
1.933757628664125
 30
0.0
 10
11.85325326977011
 20
2.210961394617669
 30
0.0
 10
10.9765864627487
 20
2.365836836976975
 30
0.0
 10
10.4267625919412
 20
2.366387660534215
 30
0.0
 10
10.20398731838966
 20
2.366610840856424
 30
0.0
  0
SPLINE
  5
280
330
1F
100
AcDbEntity
  8
0
  6
Continuous
 62
     1
370
    15
100
AcDbSpline
210
0.0
220
0.0
230
1.0
 70
     8
 71
     3
 72
    16
 73
    12
 74
     0
 42
0.000000001
 43
0.00000001
 40
0.0
 40
0.0
 40
0.0
 40
0.0
 40
0.0467135021962122
 40
0.1788515913502371
 40
0.3110446755429433
 40
0.443314635317198
 40
0.5755943530239089
 40
0.7077950565930851
 40
0.8399382699806375
 40
0.978669417180544
 40
1.0
 40
1.0
 40
1.0
 40
1.0
 10
15.92127330103015
 20
-0.2245274506663506
 30
0.0
 10
15.7978276897761
 20
-0.175644531423174
 30
0.0
 10
15.32519252049987
 20
0.0115130886534445
 30
0.0
 10
14.50319771648815
 20
0.3480051859423554
 30
0.0
 10
13.45506844128654
 20
0.7503767959774841
 30
0.0
 10
12.40648254273265
 20
1.105829193971804
 30
0.0
 10
11.35786466051388
 20
1.389251415174389
 30
0.0
 10
10.3096637538101
 20
1.58625410939657
 30
0.0
 10
9.244484642477829
 20
1.672832086209226
 30
0.0
 10
8.472232460569089
 20
1.682537580986164
 30
0.0
 10
8.049226643146937
 20
1.628314693515748
 30
0.0
 10
7.992854888196248
 20
1.621088695197741
 30
0.0
  0
SPLINE
  5
281
330
1F
100
AcDbEntity
  8
외형선
  6
Continuous
370
    15
100
AcDbSpline
210
0.0
220
0.0
230
1.0
 70
    24
 71
     3
 72
     9
 73
     5
 74
     0
 42
0.000000001
 43
0.00000001
 40
0.0
 40
0.0
 40
0.0
 40
0.0
 40
0.4085494470692075
 40
1.0
 40
1.0
 40
1.0
 40
1.0
 10
5.962315328507785
 20
1.744688344419629
 30
0.0
 10
5.962315328507785
 20
1.726213679047142
 30
0.0
 10
5.962315328507785
 20
1.680993533713398
 30
0.0
 10
5.962315328507785
 20
1.644121882209042
 30
0.0
 10
5.962315328507785
 20
1.622314123539319
 30
0.0
  0
SPLINE
  5
282
330
1F
100
AcDbEntity
  8
0
  6
Continuous
 62
     1
370
    15
100
AcDbSpline
210
0.0
220
0.0
230
1.0
 70
     8
 71
     3
 72
    52
 73
    48
 74
     0
 42
0.000000001
 43
0.00000001
 40
0.0
 40
0.0
 40
0.0
 40
0.0
 40
0.0624999999999999
 40
0.0624999999999999
 40
0.1249999999999999
 40
0.1249999999999999
 40
0.15625
 40
0.15625
 40
0.1875000000000001
 40
0.1875000000000001
 40
0.2187500000000002
 40
0.2187500000000002
 40
0.2500000000000003
 40
0.2500000000000003
 40
0.3125000000000003
 40
0.3125000000000003
 40
0.3437500000000003
 40
0.3437500000000003
 40
0.3750000000000003
 40
0.3750000000000003
 40
0.4375000000000005
 40
0.4375000000000005
 40
0.5000000000000008
 40
0.5000000000000008
 40
0.5312500000000008
 40
0.5312500000000008
 40
0.5625000000000007
 40
0.5625000000000007
 40
0.5937500000000007
 40
0.5937500000000007
 40
0.6250000000000007
 40
0.6250000000000007
 40
0.6875000000000006
 40
0.6875000000000006
 40
0.7187500000000006
 40
0.7187500000000006
 40
0.7500000000000006
 40
0.7500000000000006
 40
0.8125000000000003
 40
0.8125000000000003
 40
0.8750000000000002
 40
0.8750000000000002
 40
0.9062500000000002
 40
0.9062500000000002
 40
0.9375000000000001
 40
0.9375000000000001
 40
1.0
 40
1.0
 40
1.0
 40
1.0
 10
21.32931532850778
 20
-2.381249999999994
 30
0.0
 10
20.97992302476449
 20
-2.364692717439869
 30
0.0
 10
20.57473338753623
 20
-2.307653413280953
 30
0.0
 10
20.09086615084617
 20
-2.182784727551077
 30
0.0
 10
19.70927979345647
 20
-2.098722968935139
 30
0.0
 10
19.31982567612057
 20
-1.945293461493005
 30
0.0
 10
19.08734910523084
 20
-1.846378421787698
 30
0.0
 10
18.93225982117177
 20
-1.773869146123705
 30
0.0
 10
18.8155188115026
 20
-1.70471462666308
 30
0.0
 10
18.4892636946996
 20
-1.568110387876736
 30
0.0
 10
18.32831745573908
 20
-1.496299613846215
 30
0.0
 10
18.00416198602183
 20
-1.345735044803074
 30
0.0
 10
17.84050294697796
 20
-1.26688818729793
 30
0.0
 10
17.34991193862227
 20
-1.022050395072146
 30
0.0
 10
17.0283794117599
 20
-0.8486719596353822
 30
0.0
 10
16.53834379361457
 20
-0.5778199922239224
 30
0.0
 10
16.37441967682729
 20
-0.4858611745389254
 30
0.0
 10
16.04885200980077
 20
-0.3005320042215729
 30
0.0
 10
15.88838668809156
 20
-0.2073933898586482
 30
0.0
 10
15.40066353935127
 20
0.0740279437694582
 30
0.0
 10
15.07107560600353
 20
0.2635408244696897
 30
0.0
 10
14.42616738502808
 20
0.6314836909089756
 30
0.0
 10
14.09576175155171
 20
0.8127305914917038
 30
0.0
 10
13.60874832516791
 20
1.069184409246077
 30
0.0
 10
13.44812187509041
 20
1.152086976673385
 30
0.0
 10
13.12218353160074
 20
1.312928063106245
 30
0.0
 10
12.95822312322034
 20
1.390620579913758
 30
0.0
 10
12.63176073953157
 20
1.538908849427806
 30
0.0
 10
12.4704635794042
 20
1.609340124466677
 30
0.0
 10
12.14673855090254
 20
1.742575467379964
 30
0.0
 10
11.98318397586573
 20
1.805512174646999
 30
0.0
 10
11.49256324306589
 20
1.981175436106575
 30
0.0
 10
11.17083673339265
 20
2.080216494502103
 30
0.0
 10
10.68105292254164
 20
2.199113204155559
 30
0.0
 10
10.51709890062854
 20
2.2337308148769
 30
0.0
 10
10.1912458166736
 20
2.292231433365984
 30
0.0
 10
10.03067335643627
 20
2.316077315808855
 30
0.0
 10
9.54348053736527
 20
2.371567354350013
 30
0.0
 10
9.213101095633462
 20
2.386691276049163
 30
0.0
 10
8.568529822215922
 20
2.372284342485329
 30
0.0
 10
8.238576792862801
 20
2.342654458305496
 30
0.0
 10
7.751018917833107
 20
2.266087742045514
 30
0.0
 10
7.590529336298957
 20
2.235351688544121
 30
0.0
 10
7.264866915153675
 20
2.163310134455458
 30
0.0
 10
7.100931560351682
 20
2.122053418487326
 30
0.0
 10
6.610971814918287
 20
1.983829271398726
 30
0.0
 10
6.289385624241163
 20
1.872770740492882
 30
0.0
 10
5.962315328507771
 20
1.744688344419629
 30
0.0
  0
SPLINE
  5
283
330
1F
100
AcDbEntity
  8
0
  6
Continuous
 62
     1
370
    15
100
AcDbSpline
210
0.0
220
0.0
230
1.0
 70
     8
 71
     3
 72
     8
 73
     4
 74
     0
 42
0.000000001
 43
0.00000001
 40
0.0
 40
0.0
 40
0.0
 40
0.0
 40
1.0
 40
1.0
 40
1.0
 40
1.0
 10
20.36324664702322
 20
0.6667656290396486
 30
0.0
 10
20.25672023184201
 20
0.7929948216216118
 30
0.0
 10
20.16429170132939
 20
0.9136234360926352
 30
0.0
 10
20.09131708917654
 20
1.025850592335399
 30
0.0
  0
LINE
  5
284
330
1F
100
AcDbEntity
  8
0
  6
Continuous
 62
     1
370
    15
100
AcDbLine
 10
20.09131708917654
 20
1.025850592335399
 30
0.0
 11
21.83731532850778
 21
0.0
 31
0.0
  0
LINE
  5
285
330
1F
100
AcDbEntity
  8
0
  6
Continuous
 62
     1
370
    15
100
AcDbLine
 10
21.83731532850778
 20
0.0
 30
0.0
 11
21.83731532850778
 21
-0.6363722652330921
 31
0.0
  0
SPLINE
  5
286
330
1F
100
AcDbEntity
  8
0
  6
Continuous
 62
     1
370
    15
100
AcDbSpline
210
0.0
220
0.0
230
1.0
 70
     8
 71
     3
 72
    10
 73
     6
 74
     0
 42
0.000000001
 43
0.00000001
 40
0.0
 40
0.0
 40
0.0
 40
0.0
 40
0.5
 40
0.5
 40
1.0
 40
1.0
 40
1.0
 40
1.0
 10
21.83731532850778
 20
-0.6363722652330921
 30
0.0
 10
21.58214040559314
 20
-0.4357598858607723
 30
0.0
 10
21.33123166978613
 20
-0.2269170311293216
 30
0.0
 10
20.83815541534905
 20
0.2076325360986608
 30
0.0
 10
20.59369538424015
 20
0.4356364190385484
 30
0.0
 10
20.36324664702322
 20
0.6667656290396451
 30
0.0
  0
SPLINE
  5
287
330
1F
100
AcDbEntity
  8
외형선
  6
Continuous
370
    15
100
AcDbSpline
210
0.0
220
0.0
230
1.0
 70
    24
 71
     3
 72
     8
 73
     4
 74
     0
 42
0.000000001
 43
0.00000001
 40
0.0
 40
0.0
 40
0.0
 40
0.0
 40
1.0
 40
1.0
 40
1.0
 40
1.0
 10
5.962315328507785
 20
-0.9384762892963927
 30
0.0
 10
5.962315328507785
 20
-1.028328423828139
 30
0.0
 10
5.962315328507785
 20
-1.125843016892485
 30
0.0
 10
5.962315328507785
 20
-1.229245414027783
 30
0.0
  0
SPLINE
  5
288
330
1F
100
AcDbEntity
  8
0
  6
Continuous
 62
     1
370
    15
100
AcDbSpline
210
0.0
220
0.0
230
1.0
 70
     8
 71
     3
 72
    13
 73
     9
 74
     0
 42
0.000000001
 43
0.00000001
 40
0.0
 40
0.0
 40
0.0
 40
0.0
 40
0.1855127877127738
 40
0.3817732390758694
 40
0.5779832464920095
 40
0.7741746146652175
 40
0.8871815134266003
 40
1.0
 40
1.0
 40
1.0
 40
1.0
 10
11.29991028384819
 20
-1.978050514026272
 30
0.0
 10
10.96979654095082
 20
-2.001459957183066
 30
0.0
 10
10.29044395052718
 20
-2.049635067099302
 30
0.0
 10
9.262027034305262
 20
-1.959605392220837
 30
0.0
 10
8.214653900211886
 20
-1.752884127144736
 30
0.0
 10
7.315386672694061
 20
-1.475285689425132
 30
0.0
 10
6.564581327898154
 20
-1.194784440758461
 30
0.0
 10
6.162958966861467
 20
-1.02386480550204
 30
0.0
 10
5.962315328507785
 20
-0.9384762892963892
 30
0.0
  0
SPLINE
  5
289
330
1F
100
AcDbEntity
  8
0
  6
Continuous
 62
     1
370
    15
100
AcDbSpline
210
0.0
220
0.0
230
1.0
 70
     8
 71
     3
 72
    15
 73
    11
 74
     0
 42
0.000000001
 43
0.00000001
 40
0.0
 40
0.0
 40
0.0
 40
0.0
 40
0.0150060570357192
 40
0.1556238526297075
 40
0.2962531998290709
 40
0.4369739163039232
 40
0.5778601348488199
 40
0.7186951319352397
 40
0.8593820184924216
 40
1.0
 40
1.0
 40
1.0
 40
1.0
 10
12.93886490227978
 20
-1.87163866548158
 30
0.0
 10
12.90396996782299
 20
-1.88556839636626
 30
0.0
 10
12.54208382248187
 20
-2.030029954869555
 30
0.0
 10
11.8532691404527
 20
-2.207826934182535
 30
0.0
 10
10.87209681827638
 20
-2.374126438751993
 30
0.0
 10
9.89021301507836
 20
-2.396355874030824
 30
0.0
 10
8.907494338416214
 20
-2.286508233985082
 30
0.0
 10
7.924986146950346
 20
-2.045635485262107
 30
0.0
 10
6.943358259199243
 20
-1.694482539375233
 30
0.0
 10
6.289276233386701
 20
-1.38429912955122
 30
0.0
 10
5.962315328504772
 20
-1.229245414033755
 30
0.0
  0
SPLINE
  5
28A
330
1F
100
AcDbEntity
  8
0
  6
Continuous
 62
     1
370
    15
100
AcDbSpline
210
0.0
220
0.0
230
1.0
 70
     8
 71
     3
 72
    11
 73
     7
 74
     0
 42
0.000000001
 43
0.00000001
 40
0.0
 40
0.0
 40
0.0
 40
0.0
 40
0.3171191791755866
 40
0.6343995213678549
 40
0.9520259223232861
 40
0.9999999999999999
 40
0.9999999999999999
 40
0.9999999999999999
 40
0.9999999999999999
 10
5.962315328507785
 20
-1.744688344419636
 30
0.0
 10
6.288559720110825
 20
-1.864115765567451
 30
0.0
 10
6.941214303854323
 20
-2.103031302027084
 30
0.0
 10
7.920710465320994
 20
-2.305298774349211
 30
0.0
 10
8.623508167306767
 20
-2.39637316924129
 30
0.0
 10
8.99977568341896
 20
-2.375406827763349
 30
0.0
 10
9.04914948925402
 20
-2.372655625416943
 30
0.0
  0
SPLINE
  5
28B
330
1F
100
AcDbEntity
  8
0
  6
Continuous
 62
     1
370
    15
100
AcDbSpline
210
0.0
220
0.0
230
1.0
 70
     8
 71
     3
 72
    11
 73
     7
 74
     0
 42
0.000000001
 43
0.00000001
 40
0.0
 40
0.0
 40
0.0
 40
0.0
 40
0.0236910122563766
 40
0.3489543388984437
 40
0.67459026522655
 40
1.0
 40
1.0
 40
1.0
 40
1.0
 10
18.56410504701849
 20
1.596186537239657
 30
0.0
 10
18.58794177814015
 20
1.607315413625493
 30
0.0
 10
18.93904246814203
 20
1.77123705867281
 30
0.0
 10
19.61787255170695
 20
2.004634031074168
 30
0.0
 10
20.19633938889724
 20
2.272849012652877
 30
0.0
 10
20.7077437853989
 20
2.336728533556553
 30
0.0
 10
21.32931532850778
 20
2.381250000000001
 30
0.0
  0
SPLINE
  5
28C
330
1F
100
AcDbEntity
  8
0
  6
Continuous
 62
     1
370
    15
100
AcDbSpline
210
0.0
220
0.0
230
1.0
 70
     8
 71
     3
 72
    13
 73
     9
 74
     0
 42
0.000000001
 43
0.00000001
 40
0.0
 40
0.0
 40
0.0
 40
0.0
 40
0.113556052783599
 40
0.3045875211147493
 40
0.4955709637713643
 40
0.6865377775069568
 40
0.877519439060126
 40
0.9999999999999999
 40
0.9999999999999999
 40
0.9999999999999999
 40
0.9999999999999999
 10
20.36324664702322
 20
0.6667656290396415
 30
0.0
 10
20.15562822398466
 20
0.7548327548726341
 30
0.0
 10
19.59874042046461
 20
0.9910521979725928
 30
0.0
 10
18.69288297999124
 20
1.329189343288053
 30
0.0
 10
17.64549446574502
 20
1.637964073130327
 30
0.0
 10
16.59822516084925
 20
1.836190194744546
 30
0.0
 10
15.67616560578777
 20
1.92327809147227
 30
0.0
 10
15.10315301220449
 20
1.89075388621054
 30
0.0
 10
14.87925712028645
 20
1.878045551302115
 30
0.0
  0
SPLINE
  5
28D
330
1F
100
AcDbEntity
  8
0
  6
Continuous
 62
     1
370
    15
100
AcDbSpline
210
0.0
220
0.0
230
1.0
 70
    24
 71
     3
 72
    10
 73
     6
 74
     0
 42
0.000000001
 43
0.00000001
 40
0.0
 40
0.0
 40
0.0
 40
0.0
 40
0.5
 40
0.5
 40
1.0
 40
1.0
 40
1.0
 40
1.0
 10
21.83731532850778
 20
-1.878740204526814
 30
0.0
 10
21.83731532850778
 20
-1.734720120065312
 30
0.0
 10
21.83731532850778
 20
-1.552745221052277
 30
0.0
 10
21.83731532850778
 20
-1.129671093977556
 30
0.0
 10
21.83731532850778
 20
-0.8889383487659295
 30
0.0
 10
21.83731532850778
 20
-0.6363722652331667
 30
0.0
  0
SPLINE
  5
28E
330
1F
100
AcDbEntity
  8
0
  6
Continuous
 62
     1
370
    15
100
AcDbSpline
210
0.0
220
0.0
230
1.0
 70
     8
 71
     3
 72
    19
 73
    15
 74
     0
 42
0.000000001
 43
0.00000001
 40
0.0
 40
0.0
 40
0.0
 40
0.0
 40
0.0183613679070354
 40
0.1150251863391794
 40
0.2117124154201155
 40
0.308438838280059
 40
0.4052200505035348
 40
0.5020082100558924
 40
0.5987400572280536
 40
0.6954309341723011
 40
0.7920966065286285
 40
0.8887529609302788
 40
0.9444235065328666
 40
1.0
 40
1.0
 40
1.0
 40
1.0
 10
16.7971862017986
 20
-1.781625757915137
 30
0.0
 10
16.73087445322962
 20
-1.794813312499016
 30
0.0
 10
16.31546307025205
 20
-1.877427033385658
 30
0.0
 10
15.55086198674984
 20
-1.917255647591091
 30
0.0
 10
14.50321018571431
 20
-1.885938784045301
 30
0.0
 10
13.45508372874329
 20
-1.723534753884273
 30
0.0
 10
12.40649207979442
 20
-1.453140477020746
 30
0.0
 10
11.35786263689128
 20
-1.088756663040879
 30
0.0
 10
10.30967322485817
 20
-0.654559644045893
 30
0.0
 10
9.261973813635237
 20
-0.1784223564573395
 30
0.0
 10
8.214596101400105
 20
0.3093169526495281
 30
0.0
 10
7.315340256302392
 20
0.7103863970198532
 30
0.0
 10
6.564558152571891
 20
1.018735928847253
 30
0.0
 10
6.162949758604341
 20
1.164972209011378
 30
0.0
 10
5.962315328507785
 20
1.238028532461982
 30
0.0
  0
SPLINE
  5
28F
330
1F
100
AcDbEntity
  8
외형선
  6
Continuous
370
    15
100
AcDbSpline
210
0.0
220
0.0
230
1.0
 70
    24
 71
     3
 72
    10
 73
     6
 74
     0
 42
0.000000001
 43
0.00000001
 40
0.0
 40
0.0
 40
0.0
 40
0.0
 40
0.5
 40
0.5
 40
1.0
 40
1.0
 40
1.0
 40
1.0
 10
5.962315328507785
 20
1.238028532461982
 30
0.0
 10
5.962315328507785
 20
0.9331570256875921
 30
0.0
 10
5.962315328507785
 20
0.5682748163401925
 30
0.0
 10
5.962315328507785
 20
-0.192521470202923
 30
0.0
 10
5.962315328507785
 20
-0.585160782765211
 30
0.0
 10
5.962315328507785
 20
-0.9384762892963856
 30
0.0
  0
SPLINE
  5
290
330
1F
100
AcDbEntity
  8
외형선
  6
Continuous
370
    15
100
AcDbSpline
210
0.0
220
0.0
230
1.0
 70
    24
 71
     3
 72
    11
 73
     7
 74
     0
 42
0.000000001
 43
0.00000001
 40
0.0
 40
0.0
 40
0.0
 40
0.0
 40
0.0248909060066551
 40
0.3553029331100557
 40
0.6776514665550278
 40
0.9999999999999999
 40
0.9999999999999999
 40
0.9999999999999999
 40
0.9999999999999999
 10
5.962315328507785
 20
1.576082918231432
 30
0.0
 10
5.962315328507785
 20
1.576956256912275
 30
0.0
 10
5.962315328507785
 20
1.589422649048359
 30
0.0
 10
5.962315328507785
 20
1.542855997983438
 30
0.0
 10
5.962315328507785
 20
1.436101676703789
 30
0.0
 10
5.962315328507785
 20
1.304052913875918
 30
0.0
 10
5.962315328507785
 20
1.238028532461982
 30
0.0
  0
LINE
  5
291
330
1F
100
AcDbEntity
  8
0
  6
Continuous
 62
     1
370
    15
100
AcDbLine
 10
21.83731532850778
 20
1.666874999999997
 30
0.0
 11
20.94998194233749
 21
1.621577649705102
 31
0.0
  0
SPLINE
  5
292
330
1F
100
AcDbEntity
  8
0
  6
Continuous
 62
     1
370
    15
100
AcDbSpline
210
0.0
220
0.0
230
1.0
 70
     8
 71
     3
 72
    10
 73
     6
 74
     0
 42
0.000000001
 43
0.00000001
 40
0.0
 40
0.0
 40
0.0
 40
0.0
 40
0.5
 40
0.5
 40
1.0
 40
1.0
 40
1.0
 40
1.0
 10
21.83731532850778
 20
1.666874999999997
 30
0.0
 10
21.54099083933532
 20
1.586424527870697
 30
0.0
 10
21.24687035382046
 20
1.494324634132241
 30
0.0
 10
20.66373495571288
 20
1.283138969693983
 30
0.0
 10
20.3745540468701
 20
1.164731763184975
 30
0.0
 10
20.09131708917512
 20
1.025850592336504
 30
0.0
  0
SPLINE
  5
293
330
1F
100
AcDbEntity
  8
0
  6
Continuous
 62
     1
370
    15
100
AcDbSpline
210
0.0
220
0.0
230
1.0
 70
    24
 71
     3
 72
     8
 73
     4
 74
     0
 42
0.000000001
 43
0.00000001
 40
0.0
 40
0.0
 40
0.0
 40
0.0
 40
0.4780401546752263
 40
0.4780401546752263
 40
0.4780401546752263
 40
0.4780401546752263
 10
21.83731532850778
 20
1.666874999999997
 30
0.0
 10
21.83731532850778
 20
1.730060760529499
 30
0.0
 10
21.83731532850781
 20
1.799798907027656
 30
0.0
 10
21.83731532850781
 20
1.873249956888253
 30
0.0
  0
LINE
  5
294
330
1F
100
AcDbEntity
  8
0
  6
Continuous
 62
     1
370
    15
100
AcDbLine
 10
21.83731532850778
 20
0.0
 30
0.0
 11
21.83731532850778
 21
1.666875000000005
 31
0.0
  0
LINE
  5
296
330
1F
100
AcDbEntity
  8
중심선
 48
0.8
100
AcDbLine
 10
-44.66268467149223
 20
-0.0000000000000036
 30
0.0
 11
24.83731532850778
 21
0.0000000000000036
 31
0.0
  0
CIRCLE
  5
297
330
1F
100
AcDbEntity
  8
해칭선
100
AcDbCircle
 10
0.0
 20
0.0
 30
0.0
 40
3.000000000000001
  0
DIMENSION
  5
298
330
1F
100
AcDbEntity
  8
치수문자_일반주서
100
AcDbDimension
  2
*D13
 10
-54.35268467149221
 20
-3.175000000000062
 30
0.0
 11
-54.35268467149223
 21
-0.0000000000000142
 31
0.0
 70
   160
  1
%%c<>
 71
     2
 42
6.349999999999994
 52
-270.0
  3
SLDDIMSTYLE0
100
AcDbAlignedDimension
 13
-40.85268467149221
 23
3.174999999999983
 33
0.0
 14
-40.85268467149221
 24
-3.175000000000011
 34
0.0
 50
90.0000000000002
100
AcDbRotatedDimension
1001
ACAD
1000
DSTYLE
1002
{
1070
   171
1070
     6
1070
   273
1070
     7
1002
}
  0
DIMENSION
  5
299
330
1F
100
AcDbEntity
  8
치수문자_일반주서
100
AcDbDimension
  2
*D14
 10
37.28225783107892
 20
-2.381249999999941
 30
0.0
 11
37.28225783107884
 21
22.98525000000008
 31
0.0
 70
   160
  1
%%c<>
 71
     2
 42
4.762499999999999
 52
-270.0
  3
SLDDIMSTYLE0
100
AcDbAlignedDimension
 13
21.83731532850778
 23
2.381250000000001
 33
0.0
 14
21.83731532850778
 24
-2.381249999999998
 34
0.0
 50
90.0000000000002
100
AcDbRotatedDimension
1001
ACAD
1000
DSTYLE
1002
{
1070
   171
1070
     6
1070
   273
1070
     7
1002
}
  0
DIMENSION
  5
29A
330
1F
100
AcDbEntity
  8
치수문자_일반주서
100
AcDbDimension
  2
*D15
 10
5.962315328507785
 20
12.6396005603483
 30
0.0
 11
-13.32918467149223
 21
12.6396005603483
 31
0.0
 70
   160
  1
<>
 71
     2
 42
15.875
  3
SLDDIMSTYLE0
100
AcDbAlignedDimension
 13
21.83731532850778
 23
2.381250000000001
 33
0.0
 14
5.962315328507785
 24
1.578673065219675
 34
0.0
 50
0.0000000000000064
100
AcDbRotatedDimension
1001
ACAD
1000
DSTYLE
1002
{
1070
   171
1070
     6
1070
   273
1070
     7
1002
}
  0
DIMENSION
  5
29B
330
1F
100
AcDbEntity
  8
치수문자_일반주서
100
AcDbDimension
  2
*D16
 10
-41.66268467149222
 20
24.63960056034826
 30
0.0
 11
-10.19842547390665
 21
24.63960056034826
 31
0.0
 70
   160
  1
<>
 71
     2
 42
63.5
  3
SLDDIMSTYLE0
100
AcDbAlignedDimension
 13
21.83731532850778
 23
2.381250000000001
 33
0.0
 14
-41.66268467149222
 24
2.364999999999995
 34
0.0
 50
0.0000000000000064
100
AcDbRotatedDimension
1001
ACAD
1000
DSTYLE
1002
{
1070
   171
1070
     6
1070
   273
1070
     7
1002
}
  0
INSERT
  5
29C
330
1F
100
AcDbEntity
  8
해칭선
100
AcDbBlockReference
  2
SW_DOWELSYMBOL_0
 10
0.0
 20
0.0
 30
0.0
  0
ARC
  5
2E5
330
1F
100
AcDbEntity
  8
0
  6
Continuous
 62
     1
370
    15
100
AcDbCircle
 10
21.32931532850778
 20
1.873250000000002
 30
0.0
 40
0.508
100
AcDbArc
 50
359.9999951375568
 51
90.0
  0
ARC
  5
2E6
102
{ACAD_REACTORS
102
}
330
1F
100
AcDbEntity
  8
0
  6
Continuous
 62
     1
370
    15
100
AcDbCircle
 10
21.32931532850778
 20
-1.873249999999995
 30
0.0
 40
0.508
100
AcDbArc
 50
270.0
 51
0.0000048624432166
  0
DIMENSION
  5
2E8
102
{ACAD_REACTORS
102
}
102
{ACAD_XDICTIONARY
360
2E9
102
}
330
1F
100
AcDbEntity
  8
치수문자_일반주서
100
AcDbDimension
  2
*D18
 10
21.32931532850778
 20
-1.873249999999995
 30
0.0
 11
31.0371274652332
 21
-20.37423048970774
 31
0.0
 70
   164
  1
<>
 71
     5
 42
0.5080000000000027
  3
SLDDIMSTYLE0
100
AcDbRadialDimension
 15
21.5653517788186
 25
-2.323084185144555
 35
0.0
 40
0.0
1001
ACAD
1000
DSTYLE
1002
{
1070
   171
1070
     3
1002
}
1001
ACAD_DSTYLE_DIMRADIAL_EXTENSION
1070
   387
1070
     1
1070
   388
1040
4.71238898038469
1070
   390
1040
0.0000000848656438
  0
ENDSEC
  0
SECTION
  2
OBJECTS
  0
DICTIONARY
  5
C
330
0
100
AcDbDictionary
281
     1
  3
ACAD_GROUP
350
D
  3
ACAD_IMAGE_VARS
350
164
  3
ACAD_LAYOUT
350
1A
  3
ACAD_MLINESTYLE
350
17
  3
ACAD_PLOTSETTINGS
350
19
  3
ACAD_PLOTSTYLENAME
350
E
  3
ACAD_SCALELIST
350
47
  3
APPDATA
350
162
  3
DWGPROPS
350
2F5
  0
DICTIONARY
  5
21E
330
2
100
AcDbDictionary
280
     1
281
     1
  3
ACAD_LAYERSTATES
360
21F
  0
DICTIONARY
  5
2E9
330
2E8
100
AcDbDictionary
280
     1
281
     1
  0
DICTIONARY
  5
D
102
{ACAD_REACTORS
330
C
102
}
330
C
100
AcDbDictionary
281
     1
  0
RASTERVARIABLES
  5
164
102
{ACAD_REACTORS
330
C
102
}
330
C
100
AcDbRasterVariables
 90
        0
 70
     1
 71
     1
 72
     1
  0
DICTIONARY
  5
1A
102
{ACAD_REACTORS
330
C
102
}
330
C
100
AcDbDictionary
281
     1
  3
Layout1
350
1E
  3
Layout2
350
26
  3
Model
350
22
  0
DICTIONARY
  5
17
102
{ACAD_REACTORS
330
C
102
}
330
C
100
AcDbDictionary
281
     1
  3
Standard
350
18
  0
DICTIONARY
  5
19
102
{ACAD_REACTORS
330
C
102
}
330
C
100
AcDbDictionary
281
     1
  0
ACDBDICTIONARYWDFLT
  5
E
102
{ACAD_REACTORS
330
C
102
}
330
C
100
AcDbDictionary
281
     1
  3
Normal
350
F
100
AcDbDictionaryWithDefault
340
F
  0
DICTIONARY
  5
47
102
{ACAD_REACTORS
330
C
102
}
330
C
100
AcDbDictionary
281
     1
  3
A0
350
48
  3
A1
350
49
  3
A2
350
4A
  3
A3
350
4B
  3
A4
350
4C
  3
A5
350
4D
  3
A6
350
4E
  3
A7
350
4F
  3
A8
350
50
  3
A9
350
51
  3
B0
350
52
  3
B1
350
53
  3
B2
350
54
  3
B3
350
55
  3
B4
350
56
  3
B5
350
57
  3
B6
350
58
  3
B7
350
59
  3
B8
350
5A
  3
B9
350
5B
  3
C0
350
5C
  3
C1
350
5D
  3
C2
350
5E
  3
C3
350
5F
  3
C4
350
60
  3
C5
350
61
  3
C6
350
62
  3
C7
350
63
  3
C8
350
64
  3
C9
350
65
  3
D0
350
66
  3
D1
350
67
  3
D2
350
68
  0
DICTIONARY
  5
162
102
{ACAD_REACTORS
330
C
102
}
330
C
100
AcDbDictionary
281
     1
  0
XRECORD
  5
2F5
102
{ACAD_REACTORS
330
C
102
}
330
C
100
AcDbXrecord
280
     1
  1
DWGPROPS COOKIE
  2

  3

  4

  6

  7

  8
12017012
  9

300
=
301
=
302
=
303
=
304
=
305
=
306
=
307
=
308
=
309
=
 40
0.0
 41
2458288.280786933
 42
2458295.305318438
  1

 90
        0
  0
DICTIONARY
  5
21F
102
{ACAD_REACTORS
330
21E
102
}
330
21E
100
AcDbDictionary
281
     1
  0
LAYOUT
  5
1E
102
{ACAD_REACTORS
330
1A
102
}
330
1A
100
AcDbPlotSettings
  1

  2
none_device
  4

  6

 40
0.0
 41
0.0
 42
0.0
 43
0.0
 44
0.0
 45
0.0
 46
0.0
 47
0.0
 48
0.0
 49
0.0
140
0.0
141
0.0
142
1.0
143
1.0
 70
   688
 72
     1
 73
     0
 74
     5
  7

 75
    16
147
1.0
148
0.0
149
0.0
100
AcDbLayout
  1
Layout1
 70
     1
 71
     1
 10
0.0
 20
0.0
 11
420.0
 21
297.0
 12
0.0
 22
0.0
 32
0.0
 14
1.000000000000000E+20
 24
1.000000000000000E+20
 34
1.000000000000000E+20
 15
-1.000000000000000E+20
 25
-1.000000000000000E+20
 35
-1.000000000000000E+20
146
0.0
 13
0.0
 23
0.0
 33
0.0
 16
1.0
 26
0.0
 36
0.0
 17
0.0
 27
1.0
 37
0.0
 76
     0
330
1B
  0
LAYOUT
  5
26
102
{ACAD_REACTORS
330
1A
102
}
330
1A
100
AcDbPlotSettings
  1

  2
none_device
  4

  6

 40
0.0
 41
0.0
 42
0.0
 43
0.0
 44
0.0
 45
0.0
 46
0.0
 47
0.0
 48
0.0
 49
0.0
140
0.0
141
0.0
142
1.0
143
1.0
 70
   688
 72
     1
 73
     0
 74
     5
  7

 75
    16
147
1.0
148
0.0
149
0.0
100
AcDbLayout
  1
Layout2
 70
     1
 71
     2
 10
0.0
 20
0.0
 11
0.0
 21
0.0
 12
0.0
 22
0.0
 32
0.0
 14
0.0
 24
0.0
 34
0.0
 15
0.0
 25
0.0
 35
0.0
146
0.0
 13
0.0
 23
0.0
 33
0.0
 16
1.0
 26
0.0
 36
0.0
 17
0.0
 27
1.0
 37
0.0
 76
     0
330
23
  0
LAYOUT
  5
22
102
{ACAD_REACTORS
330
1A
102
}
330
1A
100
AcDbPlotSettings
  1

  2
none_device
  4
ANSI_A_(11.00_x_8.50_Inches)
  6

 40
6.35
 41
19.05
 42
6.35000508
 43
19.05000254
 44
279.4
 45
215.9
 46
102.6304152698886
 47
102.3515971971555
 48
0.0
 49
0.0
140
0.0
141
0.0
142
0.0693129513144063
143
1.0
 70
  1696
 72
     0
 73
     0
 74
     0
  7

 75
     0
147
0.0235690232323232
148
0.0
149
0.0
100
AcDbLayout
  1
Model
 70
     1
 71
     0
 10
0.0
 20
0.0
 11
420.0
 21
297.0
 12
0.0
 22
0.0
 32
0.0
 14
1.000000000000000E+20
 24
1.000000000000000E+20
 34
1.000000000000000E+20
 15
-1.000000000000000E+20
 25
-1.000000000000000E+20
 35
-1.000000000000000E+20
146
0.0
 13
0.0
 23
0.0
 33
0.0
 16
1.0
 26
0.0
 36
0.0
 17
0.0
 27
1.0
 37
0.0
 76
     0
330
1F
331
29
  0
MLINESTYLE
  5
18
102
{ACAD_REACTORS
330
17
102
}
330
17
100
AcDbMlineStyle
  2
Standard
 70
     0
  3

 62
   256
 51
90.0
 52
90.0
 71
     2
 49
0.5
 62
   256
  6
BYLAYER
 49
-0.5
 62
   256
  6
BYLAYER
  0
ACDBPLACEHOLDER
  5
F
102
{ACAD_REACTORS
330
E
102
}
330
E
  0
SCALE
  5
48
102
{ACAD_REACTORS
330
47
102
}
330
47
100
AcDbScale
 70
     0
300
1:1
140
1.0
141
1.0
290
     1
  0
SCALE
  5
49
102
{ACAD_REACTORS
330
47
102
}
330
47
100
AcDbScale
 70
     0
300
1:2
140
1.0
141
2.0
290
     0
  0
SCALE
  5
4A
102
{ACAD_REACTORS
330
47
102
}
330
47
100
AcDbScale
 70
     0
300
1:4
140
1.0
141
4.0
290
     0
  0
SCALE
  5
4B
102
{ACAD_REACTORS
330
47
102
}
330
47
100
AcDbScale
 70
     0
300
1:5
140
1.0
141
5.0
290
     0
  0
SCALE
  5
4C
102
{ACAD_REACTORS
330
47
102
}
330
47
100
AcDbScale
 70
     0
300
1:8
140
1.0
141
8.0
290
     0
  0
SCALE
  5
4D
102
{ACAD_REACTORS
330
47
102
}
330
47
100
AcDbScale
 70
     0
300
1:10
140
1.0
141
10.0
290
     0
  0
SCALE
  5
4E
102
{ACAD_REACTORS
330
47
102
}
330
47
100
AcDbScale
 70
     0
300
1:16
140
1.0
141
16.0
290
     0
  0
SCALE
  5
4F
102
{ACAD_REACTORS
330
47
102
}
330
47
100
AcDbScale
 70
     0
300
1:20
140
1.0
141
20.0
290
     0
  0
SCALE
  5
50
102
{ACAD_REACTORS
330
47
102
}
330
47
100
AcDbScale
 70
     0
300
1:30
140
1.0
141
30.0
290
     0
  0
SCALE
  5
51
102
{ACAD_REACTORS
330
47
102
}
330
47
100
AcDbScale
 70
     0
300
1:40
140
1.0
141
40.0
290
     0
  0
SCALE
  5
52
102
{ACAD_REACTORS
330
47
102
}
330
47
100
AcDbScale
 70
     0
300
1:50
140
1.0
141
50.0
290
     0
  0
SCALE
  5
53
102
{ACAD_REACTORS
330
47
102
}
330
47
100
AcDbScale
 70
     0
300
1:100
140
1.0
141
100.0
290
     0
  0
SCALE
  5
54
102
{ACAD_REACTORS
330
47
102
}
330
47
100
AcDbScale
 70
     0
300
2:1
140
2.0
141
1.0
290
     0
  0
SCALE
  5
55
102
{ACAD_REACTORS
330
47
102
}
330
47
100
AcDbScale
 70
     0
300
4:1
140
4.0
141
1.0
290
     0
  0
SCALE
  5
56
102
{ACAD_REACTORS
330
47
102
}
330
47
100
AcDbScale
 70
     0
300
8:1
140
8.0
141
1.0
290
     0
  0
SCALE
  5
57
102
{ACAD_REACTORS
330
47
102
}
330
47
100
AcDbScale
 70
     0
300
10:1
140
10.0
141
1.0
290
     0
  0
SCALE
  5
58
102
{ACAD_REACTORS
330
47
102
}
330
47
100
AcDbScale
 70
     0
300
100:1
140
100.0
141
1.0
290
     0
  0
SCALE
  5
59
102
{ACAD_REACTORS
330
47
102
}
330
47
100
AcDbScale
 70
     0
300
1/128" = 1'-0"
140
0.0078125
141
12.0
290
     0
  0
SCALE
  5
5A
102
{ACAD_REACTORS
330
47
102
}
330
47
100
AcDbScale
 70
     0
300
1/64" = 1'-0"
140
0.015625
141
12.0
290
     0
  0
SCALE
  5
5B
102
{ACAD_REACTORS
330
47
102
}
330
47
100
AcDbScale
 70
     0
300
1/32" = 1'-0"
140
0.03125
141
12.0
290
     0
  0
SCALE
  5
5C
102
{ACAD_REACTORS
330
47
102
}
330
47
100
AcDbScale
 70
     0
300
1/16" = 1'-0"
140
0.0625
141
12.0
290
     0
  0
SCALE
  5
5D
102
{ACAD_REACTORS
330
47
102
}
330
47
100
AcDbScale
 70
     0
300
3/32" = 1'-0"
140
0.09375
141
12.0
290
     0
  0
SCALE
  5
5E
102
{ACAD_REACTORS
330
47
102
}
330
47
100
AcDbScale
 70
     0
300
1/8" = 1'-0"
140
0.125
141
12.0
290
     0
  0
SCALE
  5
5F
102
{ACAD_REACTORS
330
47
102
}
330
47
100
AcDbScale
 70
     0
300
3/16" = 1'-0"
140
0.1875
141
12.0
290
     0
  0
SCALE
  5
60
102
{ACAD_REACTORS
330
47
102
}
330
47
100
AcDbScale
 70
     0
300
1/4" = 1'-0"
140
0.25
141
12.0
290
     0
  0
SCALE
  5
61
102
{ACAD_REACTORS
330
47
102
}
330
47
100
AcDbScale
 70
     0
300
3/8" = 1'-0"
140
0.375
141
12.0
290
     0
  0
SCALE
  5
62
102
{ACAD_REACTORS
330
47
102
}
330
47
100
AcDbScale
 70
     0
300
1/2" = 1'-0"
140
0.5
141
12.0
290
     0
  0
SCALE
  5
63
102
{ACAD_REACTORS
330
47
102
}
330
47
100
AcDbScale
 70
     0
300
3/4" = 1'-0"
140
0.75
141
12.0
290
     0
  0
SCALE
  5
64
102
{ACAD_REACTORS
330
47
102
}
330
47
100
AcDbScale
 70
     0
300
1" = 1'-0"
140
1.0
141
12.0
290
     0
  0
SCALE
  5
65
102
{ACAD_REACTORS
330
47
102
}
330
47
100
AcDbScale
 70
     0
300
1-1/2" = 1'-0"
140
1.5
141
12.0
290
     0
  0
SCALE
  5
66
102
{ACAD_REACTORS
330
47
102
}
330
47
100
AcDbScale
 70
     0
300
3" = 1'-0"
140
3.0
141
12.0
290
     0
  0
SCALE
  5
67
102
{ACAD_REACTORS
330
47
102
}
330
47
100
AcDbScale
 70
     0
300
6" = 1'-0"
140
6.0
141
12.0
290
     0
  0
SCALE
  5
68
102
{ACAD_REACTORS
330
47
102
}
330
47
100
AcDbScale
 70
     0
300
1'-0" = 1'-0"
140
12.0
141
12.0
290
     0
  0
ENDSEC
  0
EOF
